  0
SECTION
  2
HEADER
  9
$ACADVER
  1
AC1014
  9
$ACADMAINTVER
 70
     9
  9
$DWGCODEPAGE
  3
ANSI_932
  9
$INSBASE
 10
0.0
 20
0.0
 30
0.0
  9
$EXTMIN
 10
-21.5192542527428
 20
11.755113
 30
0.0
  9
$EXTMAX
 10
253.985999
 20
84.32441833333333
 30
0.0
  9
$LIMMIN
 10
0.0
 20
0.0
  9
$LIMMAX
 10
12.0
 20
9.0
  9
$ORTHOMODE
 70
     0
  9
$REGENMODE
 70
     1
  9
$FILLMODE
 70
     1
  9
$QTEXTMODE
 70
     0
  9
$MIRRTEXT
 70
     1
  9
$DRAGMODE
 70
     2
  9
$LTSCALE
 40
2.69813
  9
$OSMODE
 70
   511
  9
$ATTMODE
 70
     1
  9
$TEXTSIZE
 40
0.2
  9
$TRACEWID
 40
1.0
  9
$TEXTSTYLE
  7
STANDARD
  9
$CLAYER
  8
0
  9
$CELTYPE
  6
BYLAYER
  9
$CECOLOR
 62
   256
  9
$CELTSCALE
 40
1.0
  9
$DELOBJ
 70
     1
  9
$DISPSILH
 70
     0
  9
$DIMSCALE
 40
1.0
  9
$DIMASZ
 40
2.5
  9
$DIMEXO
 40
0.625
  9
$DIMDLI
 40
3.75
  9
$DIMRND
 40
0.0
  9
$DIMDLE
 40
0.0
  9
$DIMEXE
 40
1.25
  9
$DIMTP
 40
0.0
  9
$DIMTM
 40
0.0
  9
$DIMTXT
 40
2.5
  9
$DIMCEN
 40
0.09
  9
$DIMTSZ
 40
0.0
  9
$DIMTOL
 70
     0
  9
$DIMLIM
 70
     0
  9
$DIMTIH
 70
     0
  9
$DIMTOH
 70
     0
  9
$DIMSE1
 70
     0
  9
$DIMSE2
 70
     0
  9
$DIMTAD
 70
     0
  9
$DIMZIN
 70
     8
  9
$DIMBLK
  1

  9
$DIMASO
 70
     1
  9
$DIMSHO
 70
     0
  9
$DIMPOST
  1

  9
$DIMAPOST
  1

  9
$DIMALT
 70
     0
  9
$DIMALTD
 70
     3
  9
$DIMALTF
 40
0.03937
  9
$DIMLFAC
 40
1.0
  9
$DIMTOFL
 70
     1
  9
$DIMTVP
 40
0.0
  9
$DIMTIX
 70
     0
  9
$DIMSOXD
 70
     0
  9
$DIMSAH
 70
     0
  9
$DIMBLK1
  1

  9
$DIMBLK2
  1

  9
$DIMSTYLE
  2
ISO-25
  9
$DIMCLRD
 70
     0
  9
$DIMCLRE
 70
     0
  9
$DIMCLRT
 70
     0
  9
$DIMTFAC
 40
1.0
  9
$DIMGAP
 40
0.625
  9
$DIMJUST
 70
     0
  9
$DIMSD1
 70
     0
  9
$DIMSD2
 70
     0
  9
$DIMTOLJ
 70
     0
  9
$DIMTZIN
 70
     8
  9
$DIMALTZ
 70
     0
  9
$DIMALTTZ
 70
     0
  9
$DIMFIT
 70
     5
  9
$DIMUPT
 70
     0
  9
$DIMUNIT
 70
     2
  9
$DIMDEC
 70
     2
  9
$DIMTDEC
 70
     2
  9
$DIMALTU
 70
     2
  9
$DIMALTTD
 70
     3
  9
$DIMTXSTY
  7
STANDARD
  9
$DIMAUNIT
 70
     0
  9
$LUNITS
 70
     2
  9
$LUPREC
 70
     4
  9
$SKETCHINC
 40
1.0
  9
$FILLETRAD
 40
0.0
  9
$AUNITS
 70
     0
  9
$AUPREC
 70
     0
  9
$MENU
  1
.
  9
$ELEVATION
 40
0.0
  9
$PELEVATION
 40
0.0
  9
$THICKNESS
 40
0.0
  9
$LIMCHECK
 70
     0
  9
$CHAMFERA
 40
10.0
  9
$CHAMFERB
 40
10.0
  9
$CHAMFERC
 40
20.0
  9
$CHAMFERD
 40
0.0
  9
$SKPOLY
 70
     0
  9
$TDCREATE
 40
2454734.424057616
  9
$TDUPDATE
 40
2457962.434555613
  9
$TDINDWG
 40
0.0012388773
  9
$TDUSRTIMER
 40
2457962.059227199
  9
$USRTIMER
 70
     1
  9
$ANGBASE
 50
0.0
  9
$ANGDIR
 70
     0
  9
$PDMODE
 70
     0
  9
$PDSIZE
 40
0.0
  9
$PLINEWID
 40
0.0
  9
$COORDS
 70
     1
  9
$SPLFRAME
 70
     0
  9
$SPLINETYPE
 70
     6
  9
$SPLINESEGS
 70
     8
  9
$ATTDIA
 70
     0
  9
$ATTREQ
 70
     1
  9
$HANDLING
 70
     1
  9
$HANDSEED
  5
227
  9
$SURFTAB1
 70
     6
  9
$SURFTAB2
 70
     6
  9
$SURFTYPE
 70
     6
  9
$SURFU
 70
     6
  9
$SURFV
 70
     6
  9
$UCSNAME
  2

  9
$UCSORG
 10
0.0
 20
0.0
 30
0.0
  9
$UCSXDIR
 10
1.0
 20
0.0
 30
0.0
  9
$UCSYDIR
 10
0.0
 20
1.0
 30
0.0
  9
$PUCSNAME
  2

  9
$PUCSORG
 10
0.0
 20
0.0
 30
0.0
  9
$PUCSXDIR
 10
1.0
 20
0.0
 30
0.0
  9
$PUCSYDIR
 10
0.0
 20
1.0
 30
0.0
  9
$USERI1
 70
     0
  9
$USERI2
 70
     0
  9
$USERI3
 70
     0
  9
$USERI4
 70
     0
  9
$USERI5
 70
     0
  9
$USERR1
 40
0.0
  9
$USERR2
 40
0.0
  9
$USERR3
 40
0.0
  9
$USERR4
 40
0.0
  9
$USERR5
 40
0.0
  9
$WORLDVIEW
 70
     1
  9
$SHADEDGE
 70
     3
  9
$SHADEDIF
 70
    70
  9
$TILEMODE
 70
     1
  9
$MAXACTVP
 70
    64
  9
$PINSBASE
 10
0.0
 20
0.0
 30
0.0
  9
$PLIMCHECK
 70
     0
  9
$PEXTMIN
 10
1.000000000000000E+20
 20
1.000000000000000E+20
 30
0.0
  9
$PEXTMAX
 10
-1.000000000000000E+20
 20
-1.000000000000000E+20
 30
0.0
  9
$PLIMMIN
 10
0.0
 20
0.0
  9
$PLIMMAX
 10
0.0
 20
0.0
  9
$UNITMODE
 70
     0
  9
$VISRETAIN
 70
     1
  9
$PLINEGEN
 70
     0
  9
$PSLTSCALE
 70
     1
  9
$TREEDEPTH
 70
  3020
  9
$PICKSTYLE
 70
     1
  9
$CMLSTYLE
  2
STANDARD
  9
$CMLJUST
 70
     0
  9
$CMLSCALE
 40
20.0
  9
$PROXYGRAPHICS
 70
     1
  9
$MEASUREMENT
 70
     1
  0
ENDSEC
  0
SECTION
  2
CLASSES
  0
CLASS
  1
ACDBDICTIONARYWDFLT
  2
AcDbDictionaryWithDefault
  3
ObjectDBX Classes
 90
        0
280
     0
281
     0
  0
CLASS
  1
VISUALSTYLE
  2
AcDbVisualStyle
  3
ObjectDBX Classes
 90
     4095
280
     0
281
     0
  0
CLASS
  1
SCALE
  2
AcDbScale
  3
ObjectDBX Classes
 90
     1153
280
     0
281
     0
  0
CLASS
  1
DICTIONARYVAR
  2
AcDbDictionaryVar
  3
ObjectDBX Classes
 90
        0
280
     0
281
     0
  0
CLASS
  1
ACDBPLACEHOLDER
  2
AcDbPlaceHolder
  3
ObjectDBX Classes
 90
        0
280
     0
281
     0
  0
CLASS
  1
LAYOUT
  2
AcDbLayout
  3
ObjectDBX Classes
 90
        0
280
     0
281
     0
  0
CLASS
  1
MATERIAL
  2
AcDbMaterial
  3
ObjectDBX Classes
 90
     1153
280
     0
281
     0
  0
CLASS
  1
TABLESTYLE
  2
AcDbTableStyle
  3
ObjectDBX Classes
 90
     4095
280
     0
281
     0
  0
CLASS
  1
RASTERVARIABLES
  2
AcDbRasterVariables
  3
ISM
 90
        0
280
     0
281
     0
  0
CLASS
  1
DIMASSOC
  2
AcDbDimAssoc
  3
"AcDbDimAssoc|Product Desc:     AcDim ARX App For Dimension|Company:          Autodesk, Inc.|WEB Address:      www.autodesk.com"
 90
        0
280
     0
281
     0
  0
CLASS
  1
XRECORD
  2
AcDbXrecord
  3
ObjectDBX Classes
 90
        0
280
     0
281
     0
  0
CLASS
  1
LWPOLYLINE
  2
AcDbPolyline
  3
ObjectDBX Classes
 90
        0
280
     0
281
     1
  0
CLASS
  1
HATCH
  2
AcDbHatch
  3
ObjectDBX Classes
 90
        0
280
     0
281
     1
  0
CLASS
  1
MLEADERSTYLE
  2
AcDbMLeaderStyle
  3
ACDB_MLEADERSTYLE_CLASS
 90
     4095
280
     0
281
     0
  0
CLASS
  1
SUN
  2
AcDbSun
  3
SCENEOE
 90
     1153
280
     0
281
     0
  0
ENDSEC
  0
SECTION
  2
TABLES
  0
TABLE
  2
VPORT
  5
8
330
0
100
AcDbSymbolTable
 70
     1
  0
VPORT
  5
29
330
8
100
AcDbSymbolTableRecord
100
AcDbViewportTableRecord
  2
*ACTIVE
 70
     0
 10
0.0
 20
0.0
 11
1.0
 21
1.0
 12
120.3883904109109
 22
58.38055268116388
 13
0.0
 23
0.0
 14
1.0
 24
1.0
 15
0.0
 25
0.0
 16
0.0
 26
0.0
 36
1.0
 17
0.0
 27
0.0
 37
0.0
 40
131.3339638789353
 41
2.043577981651376
 42
50.0
 43
0.0
 44
0.0
 50
0.0
 51
0.0
 71
    16
 72
   100
 73
     1
 74
     3
 75
     0
 76
     0
 77
     0
 78
     0
  0
ENDTAB
  0
TABLE
  2
LTYPE
  5
5
330
0
100
AcDbSymbolTable
 70
     5
  0
LTYPE
  5
14
330
5
100
AcDbSymbolTableRecord
100
AcDbLinetypeTableRecord
  2
BYBLOCK
 70
     0
  3

 72
    65
 73
     0
 40
0.0
  0
LTYPE
  5
15
330
5
100
AcDbSymbolTableRecord
100
AcDbLinetypeTableRecord
  2
BYLAYER
 70
     0
  3

 72
    65
 73
     0
 40
0.0
  0
LTYPE
  5
16
330
5
100
AcDbSymbolTableRecord
100
AcDbLinetypeTableRecord
  2
CONTINUOUS
 70
     0
  3
Solid line
 72
    65
 73
     0
 40
0.0
  0
LTYPE
  5
5D
330
5
100
AcDbSymbolTableRecord
100
AcDbLinetypeTableRecord
  2
DASHED
 70
     0
  3
DASHED
 72
    83
 73
     2
 40
0.75
 49
0.5
 74
     0
 49
-0.25
 74
     0
  0
LTYPE
  5
5E
330
5
100
AcDbSymbolTableRecord
100
AcDbLinetypeTableRecord
  2
HIDDEN
 70
     0
  3
HIDDEN
 72
    83
 73
     2
 40
0.375
 49
0.25
 74
     0
 49
-0.125
 74
     0
  0
LTYPE
  5
5F
330
5
100
AcDbSymbolTableRecord
100
AcDbLinetypeTableRecord
  2
CENTER
 70
     0
  3
CENTER
 72
    83
 73
     4
 40
2.0
 49
1.25
 74
     0
 49
-0.25
 74
     0
 49
0.25
 74
     0
 49
-0.25
 74
     0
  0
LTYPE
  5
60
330
5
100
AcDbSymbolTableRecord
100
AcDbLinetypeTableRecord
  2
PHANTOM
 70
     0
  3
PHANTOM
 72
    83
 73
     6
 40
2.5
 49
1.25
 74
     0
 49
-0.25
 74
     0
 49
0.25
 74
     0
 49
-0.25
 74
     0
 49
0.25
 74
     0
 49
-0.25
 74
     0
  0
ENDTAB
  0
TABLE
  2
LAYER
  5
2
330
0
100
AcDbSymbolTable
 70
     3
  0
LAYER
  5
10
330
2
100
AcDbSymbolTableRecord
100
AcDbLayerTableRecord
  2
0
 70
     0
 62
     7
  6
CONTINUOUS
  0
LAYER
  5
61
330
2
100
AcDbSymbolTableRecord
100
AcDbLayerTableRecord
  2
001
 70
     0
 62
     7
  6
CONTINUOUS
  0
LAYER
  5
1C2
330
2
100
AcDbSymbolTableRecord
100
AcDbLayerTableRecord
  2
DEFPOINTS
 70
     0
 62
     7
  6
CONTINUOUS
  0
ENDTAB
  0
TABLE
  2
STYLE
  5
3
330
0
100
AcDbSymbolTable
 70
     2
  0
STYLE
  5
11
330
3
100
AcDbSymbolTableRecord
100
AcDbTextStyleTableRecord
  2
STANDARD
 70
     0
 40
0.0
 41
1.0
 50
0.0
 71
     0
 42
0.2
  3
TXT
  4
BIGFONT
  0
STYLE
  5
62
330
3
100
AcDbSymbolTableRecord
100
AcDbTextStyleTableRecord
  2
TATEGAKI
 70
     4
 40
1.0
 41
1.0
 50
0.0
 71
     0
 42
0.2
  3
TXT
  4
BIGFONT
  0
ENDTAB
  0
TABLE
  2
VIEW
  5
6
330
0
100
AcDbSymbolTable
 70
     0
  0
ENDTAB
  0
TABLE
  2
UCS
  5
7
330
0
100
AcDbSymbolTable
 70
     0
  0
ENDTAB
  0
TABLE
  2
APPID
  5
9
330
0
100
AcDbSymbolTable
 70
     1
  0
APPID
  5
12
330
9
100
AcDbSymbolTableRecord
100
AcDbRegAppTableRecord
  2
ACAD
 70
     0
  0
ENDTAB
  0
TABLE
  2
DIMSTYLE
  5
A
330
0
100
AcDbSymbolTable
 70
     2
  0
DIMSTYLE
105
27
102
{ACAD_REACTORS
330
1C3
102
}
330
A
100
AcDbSymbolTableRecord
100
AcDbDimStyleTableRecord
  2
ISO-25
 70
     0
  3

  4

  5

  6

  7

 40
1.0
 41
2.5
 42
0.625
 43
3.75
 44
1.25
 45
0.0
 46
0.0
 47
0.0
 48
0.0
140
2.5
141
2.5
142
0.0
143
0.03937
144
1.0
145
0.0
146
1.0
147
0.625
 71
     0
 72
     0
 73
     0
 74
     0
 75
     0
 76
     0
 77
     1
 78
     8
170
     0
171
     3
172
     1
173
     0
174
     0
175
     0
176
     0
177
     0
178
     0
270
     2
271
     2
272
     2
273
     2
274
     3
340
11
275
     0
280
     0
281
     0
282
     0
283
     0
284
     8
285
     0
286
     0
287
     3
288
     0
  0
DIMSTYLE
105
63
102
{ACAD_REACTORS
330
10B
330
10C
330
119
330
11A
330
11B
330
11C
330
11D
330
11E
102
}
330
A
100
AcDbSymbolTableRecord
100
AcDbDimStyleTableRecord
  2
STANDARD
 70
     0
  3

  4

  5

  6

  7

 40
1.0
 41
1.5
 42
0.0
 43
0.38
 44
2.75
 45
0.0
 46
0.0
 47
0.0
 48
0.0
140
4.0
141
0.09
142
0.0
143
25.4
144
1.0
145
0.0
146
0.8
147
1.0
 71
     0
 72
     0
 73
     0
 74
     0
 75
     0
 76
     0
 77
     1
 78
     8
170
     0
171
     2
172
     1
173
     0
174
     0
175
     0
176
     0
177
     0
178
     0
179
     1
270
     2
271
     1
272
     4
273
     2
274
     2
340
11
275
     0
280
     0
281
     0
282
     0
283
     1
284
     0
285
     0
286
     0
287
     3
288
     0
  0
ENDTAB
  0
TABLE
  2
BLOCK_RECORD
  5
1
330
0
100
AcDbSymbolTable
 70
    11
  0
BLOCK_RECORD
  5
1F
330
1
100
AcDbSymbolTableRecord
100
AcDbBlockTableRecord
  2
*MODEL_SPACE
  0
BLOCK_RECORD
  5
1B
330
1
100
AcDbSymbolTableRecord
100
AcDbBlockTableRecord
  2
*PAPER_SPACE
  0
BLOCK_RECORD
  5
23
330
1
100
AcDbSymbolTableRecord
100
AcDbBlockTableRecord
  2
*PAPER_SPACE0
  0
BLOCK_RECORD
  5
64
330
1
100
AcDbSymbolTableRecord
100
AcDbBlockTableRecord
  2
*D1
  0
BLOCK_RECORD
  5
79
330
1
100
AcDbSymbolTableRecord
100
AcDbBlockTableRecord
  2
*D2
  0
BLOCK_RECORD
  5
8F
330
1
100
AcDbSymbolTableRecord
100
AcDbBlockTableRecord
  2
*D3
  0
BLOCK_RECORD
  5
A5
330
1
100
AcDbSymbolTableRecord
100
AcDbBlockTableRecord
  2
*D4
  0
BLOCK_RECORD
  5
B9
330
1
100
AcDbSymbolTableRecord
100
AcDbBlockTableRecord
  2
*D5
  0
BLOCK_RECORD
  5
CD
330
1
100
AcDbSymbolTableRecord
100
AcDbBlockTableRecord
  2
*D6
  0
BLOCK_RECORD
  5
E1
330
1
100
AcDbSymbolTableRecord
100
AcDbBlockTableRecord
  2
*D7
  0
BLOCK_RECORD
  5
F7
330
1
100
AcDbSymbolTableRecord
100
AcDbBlockTableRecord
  2
*D8
  0
BLOCK_RECORD
  5
1C6
330
1
100
AcDbSymbolTableRecord
100
AcDbBlockTableRecord
  2
*D9
  0
BLOCK_RECORD
  5
1D4
330
1
100
AcDbSymbolTableRecord
100
AcDbBlockTableRecord
  2
_OPEN
  0
ENDTAB
  0
ENDSEC
  0
SECTION
  2
BLOCKS
  0
BLOCK
  5
20
330
1F
100
AcDbEntity
  8
0
100
AcDbBlockBegin
  2
*MODEL_SPACE
 70
     0
 10
0.0
 20
0.0
 30
0.0
  3
*MODEL_SPACE
  1

  0
ENDBLK
  5
21
330
1F
100
AcDbEntity
  8
0
100
AcDbBlockEnd
  0
BLOCK
  5
1C
330
1B
100
AcDbEntity
 67
     1
  8
0
100
AcDbBlockBegin
  2
*PAPER_SPACE
 70
     0
 10
0.0
 20
0.0
 30
0.0
  3
*PAPER_SPACE
  1

  0
ENDBLK
  5
1D
330
1B
100
AcDbEntity
 67
     1
  8
0
100
AcDbBlockEnd
  0
BLOCK
  5
24
330
23
100
AcDbEntity
  8
0
100
AcDbBlockBegin
  2
*PAPER_SPACE0
 70
     0
 10
0.0
 20
0.0
 30
0.0
  3
*PAPER_SPACE0
  1

  0
ENDBLK
  5
25
330
23
100
AcDbEntity
  8
0
100
AcDbBlockEnd
  0
BLOCK
  5
65
330
64
100
AcDbEntity
  8
0
100
AcDbBlockBegin
  2
*D1
 70
     1
 10
0.0
 20
0.0
 30
0.0
  3
*D1
  1

  0
LINE
  5
67
330
64
100
AcDbEntity
  8
001
100
AcDbLine
 10
61.324705
 20
43.442809
 30
0.0
 11
43.556638
 21
25.674742
 31
0.0
  0
LINE
  5
68
330
64
100
AcDbEntity
  8
001
100
AcDbLine
 10
55.732924
 20
53.726531
 30
0.0
 11
31.937207
 21
53.726531
 31
0.0
  0
ARC
  5
69
330
64
100
AcDbEntity
  8
001
100
AcDbCircle
 10
71.608426
 20
53.726531
 30
0.0
 40
36.92121928507635
100
AcDbArc
 50
180.0
 51
225.0
  0
LWPOLYLINE
  5
6A
330
64
100
AcDbEntity
  8
001
100
AcDbPolyline
 90
        3
 70
     0
 43
0.0
 10
44.752202
 20
28.979643
 10
45.501182
 20
27.619286
 10
44.172368
 20
28.4229
  0
LWPOLYLINE
  5
6F
330
64
100
AcDbEntity
  8
001
100
AcDbPolyline
 90
        3
 70
     0
 43
0.0
 10
34.315835
 20
52.218676
 10
34.687207
 20
53.726531
 10
35.119516
 20
52.235004
  0
TEXT
  5
74
330
64
100
AcDbEntity
  8
001
100
AcDbText
 10
37.328978
 20
41.428019
 30
0.0
 40
4.0
  1
４５%%d
 50
299.219277
 41
0.978261
100
AcDbText
  0
POINT
  5
75
330
64
100
AcDbEntity
  8
001
100
AcDbPoint
 10
61.324705
 20
43.442809
 30
0.0
  0
POINT
  5
76
330
64
100
AcDbEntity
  8
001
100
AcDbPoint
 10
71.608426
 20
53.726531
 30
0.0
  0
POINT
  5
77
330
64
100
AcDbEntity
  8
001
100
AcDbPoint
 10
71.608426
 20
53.726531
 30
0.0
  0
POINT
  5
78
330
64
100
AcDbEntity
  8
001
100
AcDbPoint
 10
55.732924
 20
53.726531
 30
0.0
  0
ENDBLK
  5
66
330
64
100
AcDbEntity
  8
0
100
AcDbBlockEnd
  0
BLOCK
  5
7A
330
79
100
AcDbEntity
  8
0
100
AcDbBlockBegin
  2
*D2
 70
     1
 10
0.0
 20
0.0
 30
0.0
  3
*D2
  1

  0
LINE
  5
7C
330
79
100
AcDbEntity
  8
001
100
AcDbLine
 10
55.244533
 20
43.326531
 30
0.0
 11
43.328958
 21
43.326531
 31
0.0
  0
LINE
  5
7D
330
79
100
AcDbEntity
  8
001
100
AcDbLine
 10
57.218298
 20
57.326531
 30
0.0
 11
43.328958
 21
57.326531
 31
0.0
  0
LINE
  5
7E
330
79
100
AcDbEntity
  8
001
100
AcDbLine
 10
46.078958
 20
43.326531
 30
0.0
 11
46.078958
 21
57.326531
 31
0.0
  0
LWPOLYLINE
  5
7F
330
79
100
AcDbEntity
  8
001
100
AcDbPolyline
 90
        3
 70
     0
 43
0.0
 10
45.677035
 20
41.826531
 10
46.078958
 20
43.326531
 10
46.480882
 20
41.826531
  0
LWPOLYLINE
  5
84
330
79
100
AcDbEntity
  8
001
100
AcDbPolyline
 90
        3
 70
     0
 43
0.0
 10
46.480882
 20
58.826531
 10
46.078958
 20
57.326531
 10
45.677035
 20
58.826531
  0
TEXT
  5
89
330
79
100
AcDbEntity
  8
001
100
AcDbText
 10
45.078958
 20
45.205753
 30
0.0
 40
4.0
  1
%%c１４
 50
90.000003
 41
0.882353
100
AcDbText
  0
POINT
  5
8A
330
79
100
AcDbEntity
  8
001
100
AcDbPoint
 10
55.244533
 20
43.326531
 30
0.0
  0
POINT
  5
8B
330
79
100
AcDbEntity
  8
001
100
AcDbPoint
 10
57.218298
 20
57.326531
 30
0.0
  0
POINT
  5
8C
330
79
100
AcDbEntity
  8
001
100
AcDbPoint
 10
46.078958
 20
57.326531
 30
0.0
  0
LINE
  5
8D
330
79
100
AcDbEntity
  8
001
100
AcDbLine
 10
46.078958
 20
43.326531
 30
0.0
 11
46.078958
 21
40.826531
 31
0.0
  0
LINE
  5
8E
330
79
100
AcDbEntity
  8
001
100
AcDbLine
 10
46.078958
 20
57.326531
 30
0.0
 11
46.078958
 21
59.826531
 31
0.0
  0
ENDBLK
  5
7B
330
79
100
AcDbEntity
  8
0
100
AcDbBlockEnd
  0
BLOCK
  5
90
330
8F
100
AcDbEntity
  8
0
100
AcDbBlockBegin
  2
*D3
 70
     1
 10
0.0
 20
0.0
 30
0.0
  3
*D3
  1

  0
LINE
  5
92
330
8F
100
AcDbEntity
  8
001
100
AcDbLine
 10
63.618298
 20
45.736403
 30
0.0
 11
63.618298
 21
28.473097
 31
0.0
  0
LINE
  5
93
330
8F
100
AcDbEntity
  8
001
100
AcDbLine
 10
56.718298
 20
40.261796
 30
0.0
 11
56.718298
 21
28.473097
 31
0.0
  0
LINE
  5
94
330
8F
100
AcDbEntity
  8
001
100
AcDbLine
 10
63.618298
 20
31.223097
 30
0.0
 11
56.718298
 21
31.223097
 31
0.0
  0
LWPOLYLINE
  5
95
330
8F
100
AcDbEntity
  8
001
100
AcDbPolyline
 90
        3
 70
     0
 43
0.0
 10
65.118298
 20
30.821173
 10
63.618298
 20
31.223097
 10
65.118298
 20
31.625021
  0
LWPOLYLINE
  5
9A
330
8F
100
AcDbEntity
  8
001
100
AcDbPolyline
 90
        3
 70
     0
 43
0.0
 10
55.218298
 20
31.625021
 10
56.718298
 20
31.223097
 10
55.218298
 20
30.821173
  0
TEXT
  5
9F
330
8F
100
AcDbEntity
  8
001
100
AcDbText
 10
67.118298
 20
32.223097
 30
0.0
 40
4.0
  1
６．９
 41
0.833333
100
AcDbText
  0
POINT
  5
A0
330
8F
100
AcDbEntity
  8
001
100
AcDbPoint
 10
63.618298
 20
45.736403
 30
0.0
  0
POINT
  5
A1
330
8F
100
AcDbEntity
  8
001
100
AcDbPoint
 10
56.718298
 20
40.261796
 30
0.0
  0
POINT
  5
A2
330
8F
100
AcDbEntity
  8
001
100
AcDbPoint
 10
56.718298
 20
31.223097
 30
0.0
  0
LINE
  5
A3
330
8F
100
AcDbEntity
  8
001
100
AcDbLine
 10
63.618298
 20
31.223097
 30
0.0
 11
82.118298
 21
31.223097
 31
0.0
  0
LINE
  5
A4
330
8F
100
AcDbEntity
  8
001
100
AcDbLine
 10
56.718298
 20
31.223097
 30
0.0
 11
54.218298
 21
31.223097
 31
0.0
  0
ENDBLK
  5
91
330
8F
100
AcDbEntity
  8
0
100
AcDbBlockEnd
  0
BLOCK
  5
A6
330
A5
100
AcDbEntity
  8
0
100
AcDbBlockBegin
  2
*D4
 70
     1
 10
0.0
 20
0.0
 30
0.0
  3
*D4
  1

  0
LINE
  5
A8
330
A5
100
AcDbEntity
  8
001
100
AcDbLine
 10
135.718298
 20
47.226531
 30
0.0
 11
135.718298
 21
20.363018
 31
0.0
  0
LINE
  5
A9
330
A5
100
AcDbEntity
  8
001
100
AcDbLine
 10
56.718298
 20
40.261796
 30
0.0
 11
56.718298
 21
20.363018
 31
0.0
  0
LINE
  5
AA
330
A5
100
AcDbEntity
  8
001
100
AcDbLine
 10
135.718298
 20
23.113018
 30
0.0
 11
56.718298
 21
23.113018
 31
0.0
  0
LWPOLYLINE
  5
AB
330
A5
100
AcDbEntity
  8
001
100
AcDbPolyline
 90
        3
 70
     0
 43
0.0
 10
134.218298
 20
23.514942
 10
135.718298
 20
23.113018
 10
134.218298
 20
22.711094
  0
LWPOLYLINE
  5
B0
330
A5
100
AcDbEntity
  8
001
100
AcDbPolyline
 90
        3
 70
     0
 43
0.0
 10
58.218298
 20
22.711094
 10
56.718298
 20
23.113018
 10
58.218298
 20
23.514942
  0
TEXT
  5
B5
330
A5
100
AcDbEntity
  8
001
100
AcDbText
 10
92.218298
 20
24.113018
 30
0.0
 40
4.0
  1
７９
 41
0.833333
100
AcDbText
  0
POINT
  5
B6
330
A5
100
AcDbEntity
  8
001
100
AcDbPoint
 10
135.718298
 20
47.226531
 30
0.0
  0
POINT
  5
B7
330
A5
100
AcDbEntity
  8
001
100
AcDbPoint
 10
56.718298
 20
40.261796
 30
0.0
  0
POINT
  5
B8
330
A5
100
AcDbEntity
  8
001
100
AcDbPoint
 10
56.718298
 20
23.113018
 30
0.0
  0
ENDBLK
  5
A7
330
A5
100
AcDbEntity
  8
0
100
AcDbBlockEnd
  0
BLOCK
  5
BA
330
B9
100
AcDbEntity
  8
0
100
AcDbBlockBegin
  2
*D5
 70
     1
 10
0.0
 20
0.0
 30
0.0
  3
*D5
  1

  0
LINE
  5
BC
330
B9
100
AcDbEntity
  8
001
100
AcDbLine
 10
205.718298
 20
47.726531
 30
0.0
 11
205.718298
 21
20.363018
 31
0.0
  0
LINE
  5
BD
330
B9
100
AcDbEntity
  8
001
100
AcDbLine
 10
135.718298
 20
47.226531
 30
0.0
 11
135.718298
 21
20.363018
 31
0.0
  0
LINE
  5
BE
330
B9
100
AcDbEntity
  8
001
100
AcDbLine
 10
205.718298
 20
23.113018
 30
0.0
 11
135.718298
 21
23.113018
 31
0.0
  0
LWPOLYLINE
  5
BF
330
B9
100
AcDbEntity
  8
001
100
AcDbPolyline
 90
        3
 70
     0
 43
0.0
 10
204.218298
 20
23.514942
 10
205.718298
 20
23.113018
 10
204.218298
 20
22.711094
  0
LWPOLYLINE
  5
C4
330
B9
100
AcDbEntity
  8
001
100
AcDbPolyline
 90
        3
 70
     0
 43
0.0
 10
137.218298
 20
22.711094
 10
135.718298
 20
23.113018
 10
137.218298
 20
23.514942
  0
TEXT
  5
C9
330
B9
100
AcDbEntity
  8
001
100
AcDbText
 10
166.718298
 20
24.113018
 30
0.0
 40
4.0
  1
７０
 41
0.833333
100
AcDbText
  0
POINT
  5
CA
330
B9
100
AcDbEntity
  8
001
100
AcDbPoint
 10
205.718298
 20
47.726531
 30
0.0
  0
POINT
  5
CB
330
B9
100
AcDbEntity
  8
001
100
AcDbPoint
 10
135.718298
 20
47.226531
 30
0.0
  0
POINT
  5
CC
330
B9
100
AcDbEntity
  8
001
100
AcDbPoint
 10
135.718298
 20
23.113018
 30
0.0
  0
ENDBLK
  5
BB
330
B9
100
AcDbEntity
  8
0
100
AcDbBlockEnd
  0
BLOCK
  5
CE
330
CD
100
AcDbEntity
  8
0
100
AcDbBlockBegin
  2
*D6
 70
     1
 10
0.0
 20
0.0
 30
0.0
  3
*D6
  1

  0
LINE
  5
D0
330
CD
100
AcDbEntity
  8
001
100
AcDbLine
 10
56.718298
 20
40.261796
 30
0.0
 11
56.718298
 21
11.755113
 31
0.0
  0
LINE
  5
D1
330
CD
100
AcDbEntity
  8
001
100
AcDbLine
 10
205.718298
 20
47.726531
 30
0.0
 11
205.718298
 21
11.755113
 31
0.0
  0
LINE
  5
D2
330
CD
100
AcDbEntity
  8
001
100
AcDbLine
 10
56.718298
 20
14.505113
 30
0.0
 11
205.718298
 21
14.505113
 31
0.0
  0
LWPOLYLINE
  5
D3
330
CD
100
AcDbEntity
  8
001
100
AcDbPolyline
 90
        3
 70
     0
 43
0.0
 10
58.218298
 20
14.103189
 10
56.718298
 20
14.505113
 10
58.218298
 20
14.907037
  0
LWPOLYLINE
  5
D8
330
CD
100
AcDbEntity
  8
001
100
AcDbPolyline
 90
        3
 70
     0
 43
0.0
 10
204.218298
 20
14.907037
 10
205.718298
 20
14.505113
 10
204.218298
 20
14.103189
  0
TEXT
  5
DD
330
CD
100
AcDbEntity
  8
001
100
AcDbText
 10
125.218298
 20
15.505113
 30
0.0
 40
4.0
  1
１４９
 41
0.833333
100
AcDbText
  0
POINT
  5
DE
330
CD
100
AcDbEntity
  8
001
100
AcDbPoint
 10
56.718298
 20
40.261796
 30
0.0
  0
POINT
  5
DF
330
CD
100
AcDbEntity
  8
001
100
AcDbPoint
 10
205.718298
 20
47.726531
 30
0.0
  0
POINT
  5
E0
330
CD
100
AcDbEntity
  8
001
100
AcDbPoint
 10
205.718298
 20
14.505113
 30
0.0
  0
ENDBLK
  5
CF
330
CD
100
AcDbEntity
  8
0
100
AcDbBlockEnd
  0
BLOCK
  5
E2
330
E1
100
AcDbEntity
  8
0
100
AcDbBlockBegin
  2
*D7
 70
     1
 10
0.0
 20
0.0
 30
0.0
  3
*D7
  1

  0
LINE
  5
E4
330
E1
100
AcDbEntity
  8
001
100
AcDbLine
 10
203.718298
 20
61.726531
 30
0.0
 11
223.349518
 21
61.726531
 31
0.0
  0
LINE
  5
E5
330
E1
100
AcDbEntity
  8
001
100
AcDbLine
 10
203.718298
 20
45.726531
 30
0.0
 11
223.349518
 21
45.726531
 31
0.0
  0
LINE
  5
E6
330
E1
100
AcDbEntity
  8
001
100
AcDbLine
 10
220.599518
 20
61.726531
 30
0.0
 11
220.599518
 21
45.726531
 31
0.0
  0
LWPOLYLINE
  5
E7
330
E1
100
AcDbEntity
  8
001
100
AcDbPolyline
 90
        3
 70
     0
 43
0.0
 10
221.001442
 20
63.226531
 10
220.599518
 20
61.726531
 10
220.197594
 20
63.226531
  0
LWPOLYLINE
  5
EC
330
E1
100
AcDbEntity
  8
001
100
AcDbPolyline
 90
        3
 70
     0
 43
0.0
 10
220.197594
 20
44.226531
 10
220.599518
 20
45.726531
 10
221.001442
 20
44.226531
  0
TEXT
  5
F1
330
E1
100
AcDbEntity
  8
001
100
AcDbText
 10
219.599518
 20
30.226531
 30
0.0
 40
4.0
  1
%%c１６
 50
90.000003
 41
0.882353
100
AcDbText
  0
POINT
  5
F2
330
E1
100
AcDbEntity
  8
001
100
AcDbPoint
 10
203.718298
 20
61.726531
 30
0.0
  0
POINT
  5
F3
330
E1
100
AcDbEntity
  8
001
100
AcDbPoint
 10
203.718298
 20
45.726531
 30
0.0
  0
POINT
  5
F4
330
E1
100
AcDbEntity
  8
001
100
AcDbPoint
 10
220.599518
 20
45.726531
 30
0.0
  0
LINE
  5
F5
330
E1
100
AcDbEntity
  8
001
100
AcDbLine
 10
220.599518
 20
61.726531
 30
0.0
 11
220.599518
 21
64.226531
 31
0.0
  0
LINE
  5
F6
330
E1
100
AcDbEntity
  8
001
100
AcDbLine
 10
220.599518
 20
45.726531
 30
0.0
 11
220.599518
 21
27.226531
 31
0.0
  0
ENDBLK
  5
E3
330
E1
100
AcDbEntity
  8
0
100
AcDbBlockEnd
  0
BLOCK
  5
F8
330
F7
100
AcDbEntity
  8
0
100
AcDbBlockBegin
  2
*D8
 70
     1
 10
0.0
 20
0.0
 30
0.0
  3
*D8
  1

  0
LINE
  5
FA
330
F7
100
AcDbEntity
  8
001
100
AcDbLine
 10
252.52453
 20
53.726531
 30
0.0
 11
252.52453
 21
26.916254
 31
0.0
  0
LINE
  5
FB
330
F7
100
AcDbEntity
  8
001
100
AcDbLine
 10
237.52453
 20
49.853547
 30
0.0
 11
237.52453
 21
26.916254
 31
0.0
  0
LINE
  5
FC
330
F7
100
AcDbEntity
  8
001
100
AcDbLine
 10
252.52453
 20
29.666254
 30
0.0
 11
237.52453
 21
29.666254
 31
0.0
  0
LWPOLYLINE
  5
FD
330
F7
100
AcDbEntity
  8
001
100
AcDbPolyline
 90
        3
 70
     0
 43
0.0
 10
251.02453
 20
30.068178
 10
252.52453
 20
29.666254
 10
251.02453
 20
29.26433
  0
LWPOLYLINE
  5
102
330
F7
100
AcDbEntity
  8
001
100
AcDbPolyline
 90
        3
 70
     0
 43
0.0
 10
239.02453
 20
29.26433
 10
237.52453
 20
29.666254
 10
239.02453
 20
30.068178
  0
TEXT
  5
107
330
F7
100
AcDbEntity
  8
001
100
AcDbText
 10
241.02453
 20
30.666254
 30
0.0
 40
4.0
  1
１５
 41
0.833333
100
AcDbText
  0
POINT
  5
108
330
F7
100
AcDbEntity
  8
001
100
AcDbPoint
 10
252.52453
 20
53.726531
 30
0.0
  0
POINT
  5
109
330
F7
100
AcDbEntity
  8
001
100
AcDbPoint
 10
237.52453
 20
49.853547
 30
0.0
  0
POINT
  5
10A
330
F7
100
AcDbEntity
  8
001
100
AcDbPoint
 10
237.52453
 20
29.666254
 30
0.0
  0
ENDBLK
  5
F9
330
F7
100
AcDbEntity
  8
0
100
AcDbBlockEnd
  0
BLOCK
  5
1D2
330
1C6
100
AcDbEntity
  8
0
100
AcDbBlockBegin
  2
*D9
 70
     1
 10
0.0
 20
0.0
 30
0.0
  3
*D9
  1

  0
LINE
  5
1C7
330
1C6
100
AcDbEntity
  8
0
 62
     0
100
AcDbLine
 10
-6.392978
 20
50.316531
 30
0.0
 11
-20.72758758607613
 21
50.316531
 31
0.0
  0
LINE
  5
1C8
330
1C6
100
AcDbEntity
  8
0
 62
     0
100
AcDbLine
 10
-6.392978
 20
53.726531
 30
0.0
 11
-20.72758758607613
 21
53.726531
 31
0.0
  0
LINE
  5
1C9
330
1C6
100
AcDbEntity
  8
0
 62
     0
100
AcDbLine
 10
-19.47758758607613
 20
56.226531
 30
0.0
 11
-19.47758758607613
 21
58.726531
 31
0.0
  0
LINE
  5
1CA
330
1C6
100
AcDbEntity
  8
0
 62
     0
100
AcDbLine
 10
-19.47758758607613
 20
50.316531
 30
0.0
 11
-19.47758758607613
 21
53.726531
 31
0.0
  0
LINE
  5
1CB
330
1C6
100
AcDbEntity
  8
0
 62
     0
100
AcDbLine
 10
-19.47758758607613
 20
50.316531
 30
0.0
 11
-19.47758758607613
 21
45.316531
 31
0.0
  0
INSERT
  5
1CC
330
1C6
100
AcDbEntity
  8
0
 62
     0
100
AcDbBlockReference
  2
_OPEN
 10
-19.47758758607613
 20
50.316531
 30
0.0
 41
2.5
 42
2.5
 43
2.5
 50
90.0
  0
INSERT
  5
1CD
330
1C6
100
AcDbEntity
  8
0
 62
     0
100
AcDbBlockReference
  2
_OPEN
 10
-19.47758758607613
 20
53.726531
 30
0.0
 41
2.5
 42
2.5
 43
2.5
 50
270.0
  0
MTEXT
  5
1CE
330
1C6
100
AcDbEntity
  8
0
 62
     0
100
AcDbMText
 10
-19.47758758607613
 20
64.30986433333334
 30
0.0
 40
3.5
 41
0.0
 71
     5
 72
     1
  1
3,41
 11
0.0
 21
1.0
 31
0.0
  0
POINT
  5
1CF
330
1C6
100
AcDbEntity
  8
DEFPOINTS
 62
     0
100
AcDbPoint
 10
-5.767978
 20
50.316531
 30
0.0
  0
POINT
  5
1D0
330
1C6
100
AcDbEntity
  8
DEFPOINTS
 62
     0
100
AcDbPoint
 10
-5.767978
 20
53.726531
 30
0.0
  0
POINT
  5
1D1
330
1C6
100
AcDbEntity
  8
DEFPOINTS
 62
     0
100
AcDbPoint
 10
-19.47758758607613
 20
53.726531
 30
0.0
  0
ENDBLK
  5
1D3
330
1C6
100
AcDbEntity
  8
0
100
AcDbBlockEnd
  0
BLOCK
  5
1D5
330
1D4
100
AcDbEntity
  8
0
100
AcDbBlockBegin
  2
_OPEN
 70
     0
 10
0.0
 20
0.0
 30
0.0
  3
_OPEN
  1

  0
LINE
  5
1D7
330
1D4
100
AcDbEntity
  8
0
  6
BYBLOCK
 62
     0
100
AcDbLine
 10
-1.0
 20
0.166667
 30
0.0
 11
0.0
 21
0.0
 31
0.0
  0
LINE
  5
1D8
330
1D4
100
AcDbEntity
  8
0
  6
BYBLOCK
 62
     0
100
AcDbLine
 10
-1.0
 20
-0.166667
 30
0.0
 11
0.0
 21
0.0
 31
0.0
  0
LINE
  5
1D9
330
1D4
100
AcDbEntity
  8
0
  6
BYBLOCK
 62
     0
100
AcDbLine
 10
0.0
 20
0.0
 30
0.0
 11
-1.0
 21
0.0
 31
0.0
  0
ENDBLK
  5
1D6
330
1D4
100
AcDbEntity
  8
0
100
AcDbBlockEnd
  0
ENDSEC
  0
SECTION
  2
ENTITIES
  0
DIMENSION
  5
10B
330
1F
100
AcDbEntity
  8
001
100
AcDbDimension
  2
*D1
 10
71.608426
 20
53.726531
 30
0.0
 11
42.003413
 21
37.167778
 31
0.0
 70
    34
  3
STANDARD
100
AcDb2LineAngularDimension
 13
61.324705
 23
43.442809
 33
0.0
 14
71.608426
 24
53.726531
 34
0.0
 15
55.732924
 25
53.726531
 35
0.0
 16
37.497668
 26
39.597392
 36
0.0
  0
DIMENSION
  5
10C
330
1F
100
AcDbEntity
  8
001
100
AcDbDimension
  2
*D2
 10
46.078958
 20
57.326531
 30
0.0
 11
43.078958
 21
51.205752
 31
0.0
 70
   160
  3
STANDARD
100
AcDbAlignedDimension
 13
55.244533
 23
43.326531
 33
0.0
 14
57.218298
 24
57.326531
 34
0.0
 50
90.0
100
AcDbRotatedDimension
  0
TEXT
  5
10D
330
1F
100
AcDbEntity
  8
001
100
AcDbText
 10
28.134687
 20
43.726531
 30
0.0
 40
4.0
  1
%%c２０．８
 50
90.000003
 41
0.862069
100
AcDbText
  0
LWPOLYLINE
  5
10E
330
1F
100
AcDbEntity
  8
001
100
AcDbPolyline
 90
        3
 70
     0
 43
0.0
 10
29.536611
 20
44.826531
 10
29.134687
 20
43.326531
 10
28.732764
 20
44.826531
  0
LINE
  5
113
330
1F
100
AcDbEntity
  8
001
100
AcDbLine
 10
29.134687
 20
43.326531
 30
0.0
 11
29.134687
 21
64.126531
 31
0.0
  0
LWPOLYLINE
  5
114
330
1F
100
AcDbEntity
  8
001
100
AcDbPolyline
 90
        3
 70
     0
 43
0.0
 10
55.244533
 20
43.326531
 10
29.134687
 20
43.326531
 10
26.384687
 20
43.326531
  0
DIMENSION
  5
119
330
1F
100
AcDbEntity
  8
001
100
AcDbDimension
  2
*D3
 10
56.718298
 20
31.223097
 30
0.0
 11
73.118298
 21
34.223097
 31
0.0
 70
   160
  3
STANDARD
100
AcDbAlignedDimension
 13
63.618298
 23
45.736403
 33
0.0
 14
56.718298
 24
40.261796
 34
0.0
 50
180.0
100
AcDbRotatedDimension
  0
DIMENSION
  5
11A
330
1F
100
AcDbEntity
  8
001
100
AcDbDimension
  2
*D4
 10
56.718298
 20
23.113018
 30
0.0
 11
96.218298
 21
26.113018
 31
0.0
 70
   160
  3
STANDARD
100
AcDbAlignedDimension
 13
135.718298
 23
47.226531
 33
0.0
 14
56.718298
 24
40.261796
 34
0.0
 50
180.0
100
AcDbRotatedDimension
  0
DIMENSION
  5
11B
330
1F
100
AcDbEntity
  8
001
100
AcDbDimension
  2
*D5
 10
135.718298
 20
23.113018
 30
0.0
 11
170.718298
 21
26.113018
 31
0.0
 70
   160
  3
STANDARD
100
AcDbAlignedDimension
 13
205.718298
 23
47.726531
 33
0.0
 14
135.718298
 24
47.226531
 34
0.0
 50
180.0
100
AcDbRotatedDimension
  0
DIMENSION
  5
11C
330
1F
100
AcDbEntity
  8
001
100
AcDbDimension
  2
*D6
 10
205.718298
 20
14.505113
 30
0.0
 11
131.218298
 21
17.505113
 31
0.0
 70
   160
  3
STANDARD
100
AcDbAlignedDimension
 13
56.718298
 23
40.261796
 33
0.0
 14
205.718298
 24
47.726531
 34
0.0
100
AcDbRotatedDimension
  0
DIMENSION
  5
11D
330
1F
100
AcDbEntity
  8
001
100
AcDbDimension
  2
*D7
 10
220.599518
 20
45.726531
 30
0.0
 11
217.599518
 21
36.226531
 31
0.0
 70
   160
  3
STANDARD
100
AcDbAlignedDimension
 13
203.718298
 23
61.726531
 33
0.0
 14
203.718298
 24
45.726531
 34
0.0
 50
270.0
100
AcDbRotatedDimension
  0
DIMENSION
  5
11E
330
1F
100
AcDbEntity
  8
001
100
AcDbDimension
  2
*D8
 10
237.52453
 20
29.666254
 30
0.0
 11
245.02453
 21
32.666254
 31
0.0
 70
   160
  3
STANDARD
100
AcDbAlignedDimension
 13
252.52453
 23
53.726531
 33
0.0
 14
237.52453
 24
49.853547
 34
0.0
 50
180.0
100
AcDbRotatedDimension
  0
TEXT
  5
11F
330
1F
100
AcDbEntity
  8
001
100
AcDbText
 10
83.726017
 20
53.676471
 30
0.0
 40
4.0
  1
%%c１６
 50
90.000003
 41
0.882353
100
AcDbText
  0
LWPOLYLINE
  5
120
330
1F
100
AcDbEntity
  8
001
100
AcDbPolyline
 90
        3
 70
     0
 43
0.0
 10
85.127941
 20
47.236403
 10
84.726017
 20
45.736403
 10
84.324093
 20
47.236403
  0
LINE
  5
125
330
1F
100
AcDbEntity
  8
001
100
AcDbLine
 10
84.726017
 20
45.736403
 30
0.0
 11
84.726017
 21
61.716659
 31
0.0
  0
LWPOLYLINE
  5
126
330
1F
100
AcDbEntity
  8
001
100
AcDbPolyline
 90
        3
 70
     0
 43
0.0
 10
65.503065
 20
45.736403
 10
84.726017
 20
45.736403
 10
87.476017
 20
45.736403
  0
TEXT
  5
12B
330
1F
100
AcDbEntity
  8
001
100
AcDbText
 10
4.022605
 20
79.741085
 30
0.0
 40
5.0
  1
ウラトリメンＣ　ＵＭＨ１６－１６Ｓ－Ｍ１８
 41
0.833333
100
AcDbText
  0
LINE
  5
12C
330
1F
100
AcDbEntity
  8
001
  6
CENTER
100
AcDbLine
 10
244.52453
 20
62.304526
 30
0.0
 11
244.52453
 21
44.796386
 31
0.0
  0
LINE
  5
12D
330
1F
100
AcDbEntity
  8
001
  6
CENTER
100
AcDbLine
 10
235.416759
 20
53.726531
 30
0.0
 11
253.985999
 21
53.726531
 31
0.0
  0
LINE
  5
12E
330
1F
100
AcDbEntity
  8
001
100
AcDbLine
 10
237.52453
 20
49.853547
 30
0.0
 11
237.52453
 21
57.599514
 31
0.0
  0
ARC
  5
12F
330
1F
100
AcDbEntity
  8
001
100
AcDbCircle
 10
244.52453
 20
53.726531
 30
0.0
 40
8.0
100
AcDbArc
 50
208.955024
 51
151.044976
  0
ARC
  5
130
330
1F
100
AcDbEntity
  8
001
100
AcDbCircle
 10
61.045083
 20
48.352215
 30
0.0
 40
0.175
100
AcDbArc
 50
14.563061
 51
165.256939
  0
ARC
  5
131
330
1F
100
AcDbEntity
  8
001
100
AcDbCircle
 10
60.569277
 20
48.477423
 30
0.0
 40
0.3170045884846417
100
AcDbArc
 50
254.563061
 51
345.256939
  0
ARC
  5
132
330
1F
100
AcDbEntity
  8
001
100
AcDbCircle
 10
60.438316
 20
48.003168
 30
0.0
 40
0.175
100
AcDbArc
 50
74.563061
 51
225.256939
  0
ARC
  5
133
330
1F
100
AcDbEntity
  8
001
100
AcDbCircle
 10
60.09198
 20
47.653711
 30
0.0
 40
0.3170045884846417
100
AcDbArc
 50
314.563061
 51
45.256939
  0
ARC
  5
134
330
1F
100
AcDbEntity
  8
001
100
AcDbCircle
 10
60.437217
 20
47.303169
 30
0.0
 40
0.175
100
AcDbArc
 50
134.563061
 51
285.256939
  0
ARC
  5
135
330
1F
100
AcDbEntity
  8
001
100
AcDbCircle
 10
60.566687
 20
46.828504
 30
0.0
 40
0.3170045884846417
100
AcDbArc
 50
14.563061
 51
105.256939
  0
ARC
  5
136
330
1F
100
AcDbEntity
  8
001
100
AcDbCircle
 10
61.042884
 20
46.952217
 30
0.0
 40
0.175
100
AcDbArc
 50
194.563061
 51
345.256939
  0
ARC
  5
137
330
1F
100
AcDbEntity
  8
001
100
AcDbCircle
 10
61.51869
 20
46.827009
 30
0.0
 40
0.3170045884846417
100
AcDbArc
 50
74.563061
 51
165.256939
  0
ARC
  5
138
330
1F
100
AcDbEntity
  8
001
100
AcDbCircle
 10
61.649651
 20
47.301264
 30
0.0
 40
0.175
100
AcDbArc
 50
254.563061
 51
45.256939
  0
ARC
  5
139
330
1F
100
AcDbEntity
  8
001
100
AcDbCircle
 10
61.995987
 20
47.650721
 30
0.0
 40
0.3170045884846417
100
AcDbArc
 50
134.563061
 51
225.256939
  0
ARC
  5
13A
330
1F
100
AcDbEntity
  8
001
100
AcDbCircle
 10
61.650751
 20
48.001263
 30
0.0
 40
0.175
100
AcDbArc
 50
314.563061
 51
105.256939
  0
ARC
  5
13B
330
1F
100
AcDbEntity
  8
001
100
AcDbCircle
 10
61.52128
 20
48.475927
 30
0.0
 40
0.3170045884846417
100
AcDbArc
 50
194.563061
 51
285.256939
  0
CIRCLE
  5
13C
330
1F
100
AcDbEntity
  8
001
100
AcDbCircle
 10
61.043984
 20
47.652216
 30
0.0
 40
1.3
  0
LINE
  5
13D
330
1F
100
AcDbEntity
  8
001
100
AcDbLine
 10
140.718298
 20
57.599514
 30
0.0
 11
200.718298
 21
57.599514
 31
0.0
  0
LINE
  5
13E
330
1F
100
AcDbEntity
  8
001
100
AcDbLine
 10
200.718298
 20
49.853547
 30
0.0
 11
140.718298
 21
49.853547
 31
0.0
  0
LINE
  5
13F
330
1F
100
AcDbEntity
  8
001
100
AcDbLine
 10
200.718298
 20
49.853547
 30
0.0
 11
200.718298
 21
57.599514
 31
0.0
  0
LINE
  5
140
330
1F
100
AcDbEntity
  8
001
100
AcDbLine
 10
140.718298
 20
49.853547
 30
0.0
 11
140.718298
 21
57.599514
 31
0.0
  0
LINE
  5
141
330
1F
100
AcDbEntity
  8
001
100
AcDbLine
 10
200.718298
 20
57.599514
 30
0.0
 11
140.718298
 21
49.853547
 31
0.0
  0
LINE
  5
142
330
1F
100
AcDbEntity
  8
001
100
AcDbLine
 10
140.718298
 20
57.599514
 30
0.0
 11
200.718298
 21
49.853547
 31
0.0
  0
LINE
  5
143
330
1F
100
AcDbEntity
  8
001
100
AcDbLine
 10
205.718298
 20
53.726531
 30
0.0
 11
208.316375
 21
55.226531
 31
0.0
  0
LINE
  5
144
330
1F
100
AcDbEntity
  8
001
100
AcDbLine
 10
205.718298
 20
53.726531
 30
0.0
 11
208.316375
 21
52.226531
 31
0.0
  0
LINE
  5
145
330
1F
100
AcDbEntity
  8
001
100
AcDbLine
 10
61.324705
 20
43.442809
 30
0.0
 11
65.25339
 21
47.371495
 31
0.0
  0
ARC
  5
146
330
1F
100
AcDbEntity
  8
001
100
AcDbCircle
 10
61.043984
 20
43.723531
 30
0.0
 40
0.3969999999999993
100
AcDbArc
 50
225.0
 51
315.0
  0
LINE
  5
147
330
1F
100
AcDbEntity
  8
001
100
AcDbLine
 10
56.834577
 20
47.371495
 30
0.0
 11
60.763262
 21
43.442809
 31
0.0
  0
ARC
  5
148
330
1F
100
AcDbEntity
  8
001
100
AcDbCircle
 10
57.115298
 20
47.652216
 30
0.0
 40
0.3970000000000027
100
AcDbArc
 50
135.0
 51
225.0
  0
LINE
  5
149
330
1F
100
AcDbEntity
  8
001
100
AcDbLine
 10
60.763262
 20
51.861623
 30
0.0
 11
56.834577
 21
47.932937
 31
0.0
  0
ARC
  5
14A
330
1F
100
AcDbEntity
  8
001
100
AcDbCircle
 10
61.043984
 20
51.580901
 30
0.0
 40
0.3970000000000021
100
AcDbArc
 50
45.0
 51
135.0
  0
LINE
  5
14B
330
1F
100
AcDbEntity
  8
001
100
AcDbLine
 10
65.25339
 20
47.932937
 30
0.0
 11
61.324705
 21
51.861623
 31
0.0
  0
ARC
  5
14C
330
1F
100
AcDbEntity
  8
001
100
AcDbCircle
 10
64.972669
 20
47.652216
 30
0.0
 40
0.3970000000000061
100
AcDbArc
 50
315.0
 51
45.0
  0
CIRCLE
  5
14D
330
1F
100
AcDbEntity
  8
001
100
AcDbCircle
 10
61.043984
 20
47.652216
 30
0.0
 40
1.7
  0
LINE
  5
14E
330
1F
100
AcDbEntity
  8
001
100
AcDbLine
 10
137.218298
 20
61.726531
 30
0.0
 11
137.218298
 21
45.726531
 31
0.0
  0
LINE
  5
14F
330
1F
100
AcDbEntity
  8
001
100
AcDbLine
 10
203.718298
 20
61.726531
 30
0.0
 11
137.218298
 21
61.726531
 31
0.0
  0
LINE
  5
150
330
1F
100
AcDbEntity
  8
001
100
AcDbLine
 10
137.218298
 20
45.726531
 30
0.0
 11
203.718298
 21
45.726531
 31
0.0
  0
ARC
  5
151
330
1F
100
AcDbEntity
  8
001
100
AcDbCircle
 10
203.718298
 20
59.726531
 30
0.0
 40
2.000000000000002
100
AcDbArc
 50
0.0
 51
90.0
  0
ARC
  5
152
330
1F
100
AcDbEntity
  8
001
100
AcDbCircle
 10
203.718298
 20
47.726531
 30
0.0
 40
2.000000000000002
100
AcDbArc
 50
270.0
 51
0.0
  0
LINE
  5
153
330
1F
100
AcDbEntity
  8
001
100
AcDbLine
 10
205.718298
 20
59.726531
 30
0.0
 11
205.718298
 21
47.726531
 31
0.0
  0
LINE
  5
154
330
1F
100
AcDbEntity
  8
001
100
AcDbLine
 10
135.716573
 20
60.224805
 30
0.0
 11
137.218298
 21
61.726531
 31
0.0
  0
LINE
  5
155
330
1F
100
AcDbEntity
  8
001
100
AcDbLine
 10
135.718298
 20
47.226531
 30
0.0
 11
137.218298
 21
45.726531
 31
0.0
  0
LWPOLYLINE
  5
156
330
1F
100
AcDbEntity
  8
001
100
AcDbPolyline
 90
        5
 70
     0
 43
0.0
 10
65.799125
 20
47.226531
 10
65.825288
 20
47.227255
 10
65.863177
 20
47.231347
 10
65.895691
 20
47.238766
 10
65.91747
 20
47.24579
  0
LINE
  5
15D
330
1F
100
AcDbEntity
  8
001
100
AcDbLine
 10
65.799125
 20
47.226531
 30
0.0
 11
135.718298
 21
47.226531
 31
0.0
  0
LWPOLYLINE
  5
15E
330
1F
100
AcDbEntity
  8
001
100
AcDbPolyline
 90
        5
 70
     0
 43
0.0
 10
65.31712
 20
47.354612
 10
65.426091
 20
47.310464
 10
65.589287
 20
47.25863
 10
65.713105
 20
47.234595
 10
65.799125
 20
47.226531
  0
LINE
  5
165
330
1F
100
AcDbEntity
  8
001
100
AcDbLine
 10
67.718298
 20
47.24579
 30
0.0
 11
65.91747
 21
47.24579
 31
0.0
  0
ARC
  5
166
330
1F
100
AcDbEntity
  8
001
100
AcDbCircle
 10
67.218298
 20
53.726531
 30
0.0
 40
6.500000000000002
100
AcDbArc
 50
274.411726
 51
344.786096
  0
LWPOLYLINE
  5
167
330
1F
100
AcDbEntity
  8
001
100
AcDbPolyline
 90
       49
 70
     0
 43
0.0
 10
132.718298
 20
52.020779
 10
132.854122
 20
52.029011
 10
132.988972
 20
52.044377
 10
133.121732
 20
52.072377
 10
133.25172
 20
52.112195
 10
133.377034
 20
52.16125
 10
133.498427
 20
52.219092
 10
133.615401
 20
52.285122
 10
133.727862
 20
52.358644
 10
133.846457
 20
52.447454
 10
133.959341
 20
52.54342
 10
134.067052
 20
52.646105
 10
134.169213
 20
52.754309
 10
134.265989
 20
52.867297
 10
134.357636
 20
52.984487
 10
134.457196
 20
53.124018
 10
134.550624
 20
53.267735
 10
134.638728
 20
53.415861
 10
134.721311
 20
53.567133
 10
134.798848
 20
53.721406
 10
134.871514
 20
53.878032
 10
134.939377
 20
54.036039
 10
135.003047
 20
54.195784
 10
135.081804
 20
54.410824
 10
135.154097
 20
54.62813
 10
135.220013
 20
54.846154
 10
135.280355
 20
55.065783
 10
135.334809
 20
55.28383
 10
135.384553
 20
55.503
 10
135.428941
 20
55.718136
 10
135.469424
 20
55.93404
 10
135.505795
 20
56.147775
 10
135.538771
 20
56.36206
 10
135.567696
 20
56.57071
 10
135.59369
 20
56.779745
 10
135.616076
 20
56.981342
 10
135.635982
 20
57.183198
 10
135.652745
 20
57.375775
 10
135.667449
 20
57.568521
 10
135.680703
 20
57.770024
 10
135.691867
 20
57.971655
 10
135.700472
 20
58.160573
 10
135.70733
 20
58.349563
 10
135.712145
 20
58.52409
 10
135.715555
 20
58.69865
 10
135.717469
 20
58.85698
 10
135.718263
 20
59.015319
 10
135.718285
 20
59.03556
 10
135.718298
 20
59.0558
  0
ARC
  5
19A
330
1F
100
AcDbEntity
  8
001
100
AcDbCircle
 10
132.718298
 20
60.326531
 30
0.0
 40
3.0
100
AcDbArc
 50
270.0
 51
358.05682
  0
LINE
  5
19B
330
1F
100
AcDbEntity
  8
001
100
AcDbLine
 10
57.218298
 20
57.326531
 30
0.0
 11
132.718298
 21
57.326531
 31
0.0
  0
LINE
  5
19C
330
1F
100
AcDbEntity
  8
001
100
AcDbLine
 10
67.718298
 20
57.307271
 30
0.0
 11
57.218298
 21
57.307271
 31
0.0
  0
LINE
  5
19D
330
1F
100
AcDbEntity
  8
001
100
AcDbLine
 10
67.718298
 20
57.307271
 30
0.0
 11
67.718298
 21
47.24579
 31
0.0
  0
LINE
  5
19E
330
1F
100
AcDbEntity
  8
001
100
AcDbLine
 10
57.218298
 20
46.326531
 30
0.0
 11
59.60172
 21
43.943109
 31
0.0
  0
LINE
  5
19F
330
1F
100
AcDbEntity
  8
001
100
AcDbLine
 10
73.490492
 20
52.020779
 30
0.0
 11
132.718298
 21
52.020779
 31
0.0
  0
ARC
  5
1A0
330
1F
100
AcDbEntity
  8
001
100
AcDbCircle
 10
61.035818
 20
51.0809
 30
0.0
 40
1.25
100
AcDbArc
 50
352.233356
 51
188.428595
  0
LINE
  5
1A1
330
1F
100
AcDbEntity
  8
001
100
AcDbLine
 10
135.718298
 20
60.226531
 30
0.0
 11
135.718298
 21
47.226531
 31
0.0
  0
LINE
  5
1A2
330
1F
100
AcDbEntity
  8
001
  6
CENTER
100
AcDbLine
 10
55.732924
 20
53.726531
 30
0.0
 11
208.591836
 21
53.726531
 31
0.0
  0
LINE
  5
1A3
330
1F
100
AcDbEntity
  8
001
  6
CENTER
 62
   253
100
AcDbLine
 10
-5.767978
 20
53.726531
 30
0.0
 11
18.232022
 21
53.726531
 31
0.0
  0
LINE
  5
1A4
330
1F
100
AcDbEntity
  8
001
  6
CENTER
 62
   253
100
AcDbLine
 10
6.232022
 20
41.726531
 30
0.0
 11
6.232022
 21
65.726531
 31
0.0
  0
CIRCLE
  5
1A5
330
1F
100
AcDbEntity
  8
001
100
AcDbCircle
 10
6.232022
 20
53.726531
 30
0.0
 40
10.4
  0
CIRCLE
  5
1A6
330
1F
100
AcDbEntity
  8
001
100
AcDbCircle
 10
6.232022000000001
 20
50.316531
 30
0.0
 40
7.0
  0
LINE
  5
1A8
330
1F
100
AcDbEntity
  8
001
100
AcDbLine
 10
55.244533
 20
43.326531
 30
0.0
 11
61.043984
 21
43.326531
 31
0.0
  0
LINE
  5
1A9
330
1F
100
AcDbEntity
  8
001
100
AcDbLine
 10
60.763262
 20
43.442809
 30
0.0
 11
60.879541
 21
43.326531
 31
0.0
  0
LINE
  5
1AA
330
1F
100
AcDbEntity
  8
001
100
AcDbLine
 10
60.262963
 20
43.943109
 30
0.0
 11
59.60172
 21
43.943109
 31
0.0
  0
LINE
  5
1AB
330
1F
100
AcDbEntity
  8
001
100
AcDbLine
 10
57.218298
 20
46.326531
 30
0.0
 11
57.218298
 21
46.987773
 31
0.0
  0
LINE
  5
1AC
330
1F
100
AcDbEntity
  8
001
100
AcDbLine
 10
57.218298
 20
57.326531
 30
0.0
 11
57.218298
 21
48.316659
 31
0.0
  0
LINE
  5
1AD
330
1F
100
AcDbEntity
  8
001
100
AcDbLine
 10
65.91747
 20
47.24579
 30
0.0
 11
65.323649
 21
47.837748
 31
0.0
  0
LINE
  5
1AE
330
1F
100
AcDbEntity
  8
001
100
AcDbLine
 10
65.31712
 20
47.354612
 30
0.0
 11
65.275775
 21
47.395827
 31
0.0
  0
LINE
  5
1AF
330
1F
100
AcDbEntity
  8
001
100
AcDbLine
 10
65.31712
 20
47.354612
 30
0.0
 11
65.236508
 21
47.354612
 31
0.0
  0
LINE
  5
1B0
330
1F
100
AcDbEntity
  8
001
100
AcDbLine
 10
63.618298
 20
48.278508
 30
0.0
 11
63.618298
 21
45.736403
 31
0.0
  0
LINE
  5
1B1
330
1F
100
AcDbEntity
  8
001
100
AcDbLine
 10
56.718298
 20
47.652216
 30
0.0
 11
56.718298
 21
40.261796
 31
0.0
  0
ARC
  5
1B2
330
1F
100
AcDbEntity
  8
001
100
AcDbCircle
 10
66.423343
 20
50.098835
 30
0.0
 40
7.323828062509464
100
AcDbArc
 50
15.213904
 51
79.815762
  0
LINE
  5
1B3
330
1F
100
AcDbEntity
  8
001
100
AcDbLine
 10
63.618298
 20
45.736403
 30
0.0
 11
65.503065
 21
45.736403
 31
0.0
  0
LINE
  5
1C1
330
1F
100
AcDbEntity
  8
001
  6
CENTER
 62
   253
100
AcDbLine
 10
-5.767978
 20
50.316531
 30
0.0
 11
18.232022
 21
50.316531
 31
0.0
  0
DIMENSION
  5
1C3
330
1F
100
AcDbEntity
  8
0
100
AcDbDimension
  2
*D9
 10
-19.47758758607613
 20
53.726531
 30
0.0
 11
-19.47758758607613
 21
64.30986433333334
 31
0.0
 70
    32
  3
ISO-25
100
AcDbAlignedDimension
 13
-5.767978
 23
50.316531
 33
0.0
 14
-5.767978
 24
53.726531
 34
0.0
 50
90.0
100
AcDbRotatedDimension
1001
ACAD
1000
DSTYLE
1002
{
1070
     7
1000
OPEN
1070
     6
1000
OPEN
1070
     5
1000

1070
   140
1040
3.5
1070
   173
1070
     1
1070
   141
1040
0.09
1070
    77
1070
     0
1002
}
  0
ENDSEC
  0
SECTION
  2
OBJECTS
  0
DICTIONARY
  5
C
330
0
100
AcDbDictionary
  3
ACAD_GROUP
350
D
  3
ACAD_IMAGE_VARS
350
1C0
  3
ACAD_MLINESTYLE
350
17
  3
ACAD_SCALELIST
350
1DF
  3
ACDBVARIABLEDICTIONARY
350
1B4
  3
APPDATA
350
1BF
  3
DWGPROPS
350
226
  0
DICTIONARY
  5
D
102
{ACAD_REACTORS
330
C
102
}
330
C
100
AcDbDictionary
  0
RASTERVARIABLES
  5
1C0
102
{ACAD_REACTORS
330
C
102
}
330
C
100
AcDbRasterVariables
 90
        0
 70
     1
 71
     1
 72
     1
  0
DICTIONARY
  5
17
102
{ACAD_REACTORS
330
C
102
}
330
C
100
AcDbDictionary
  3
STANDARD
350
18
  0
DICTIONARY
  5
1DF
102
{ACAD_REACTORS
330
C
102
}
330
C
100
AcDbDictionary
  0
DICTIONARY
  5
1B4
102
{ACAD_REACTORS
330
C
102
}
330
C
100
AcDbDictionary
  0
DICTIONARY
  5
1BF
102
{ACAD_REACTORS
330
C
102
}
330
C
100
AcDbDictionary
  0
XRECORD
  5
226
102
{ACAD_REACTORS
330
C
102
}
330
C
100
AcDbXrecord
  1
DWGPROPS COOKIE
  2

  3

  4

  6

  7

  8
kaihatu03
  9

300
=
301
=
302
=
303
=
304
=
305
=
306
=
307
=
308
=
309
=
 40
0.0
 41
2454734.049057616
 42
2457962.059555613
  1

 90
        0
  0
MLINESTYLE
  5
18
102
{ACAD_REACTORS
330
17
102
}
330
17
100
AcDbMlineStyle
  2
Standard
 70
     0
  3

 62
   256
 51
90.0
 52
90.0
 71
     2
 49
0.5
 62
   256
  6
BYLAYER
 49
-0.5
 62
   256
  6
BYLAYER
  0
ENDSEC
  0
EOF
