  0
SECTION
  2
HEADER
  9
$ACADVER
  1
AC1015
  9
$ACADMAINTVER
 70
     6
  9
$DWGCODEPAGE
  3
ANSI_932
  9
$INSBASE
 10
0.0
 20
0.0
 30
0.0
  9
$EXTMIN
 10
4.067856
 20
19.119923
 30
0.0
  9
$EXTMAX
 10
204.067856
 20
143.883972
 30
0.0
  9
$LIMMIN
 10
0.0
 20
0.0
  9
$LIMMAX
 10
12.0
 20
9.0
  9
$ORTHOMODE
 70
     0
  9
$REGENMODE
 70
     1
  9
$FILLMODE
 70
     1
  9
$QTEXTMODE
 70
     0
  9
$MIRRTEXT
 70
     1
  9
$LTSCALE
 40
2.357246
  9
$ATTMODE
 70
     1
  9
$TEXTSIZE
 40
3.2
  9
$TRACEWID
 40
1.0
  9
$TEXTSTYLE
  7
Standard
  9
$CLAYER
  8
0
  9
$CELTYPE
  6
ByLayer
  9
$CECOLOR
 62
   256
  9
$CELTSCALE
 40
1.0
  9
$DISPSILH
 70
     0
  9
$DIMSCALE
 40
1.0
  9
$DIMASZ
 40
2.5
  9
$DIMEXO
 40
0.625
  9
$DIMDLI
 40
3.75
  9
$DIMRND
 40
0.0
  9
$DIMDLE
 40
0.0
  9
$DIMEXE
 40
1.25
  9
$DIMTP
 40
0.0
  9
$DIMTM
 40
0.0
  9
$DIMTXT
 40
2.5
  9
$DIMCEN
 40
0.09
  9
$DIMTSZ
 40
0.0
  9
$DIMTOL
 70
     0
  9
$DIMLIM
 70
     0
  9
$DIMTIH
 70
     0
  9
$DIMTOH
 70
     0
  9
$DIMSE1
 70
     0
  9
$DIMSE2
 70
     0
  9
$DIMTAD
 70
     0
  9
$DIMZIN
 70
     8
  9
$DIMBLK
  1

  9
$DIMASO
 70
     1
  9
$DIMSHO
 70
     0
  9
$DIMPOST
  1

  9
$DIMAPOST
  1

  9
$DIMALT
 70
     0
  9
$DIMALTD
 70
     3
  9
$DIMALTF
 40
0.03937
  9
$DIMLFAC
 40
1.0
  9
$DIMTOFL
 70
     1
  9
$DIMTVP
 40
0.0
  9
$DIMTIX
 70
     0
  9
$DIMSOXD
 70
     0
  9
$DIMSAH
 70
     0
  9
$DIMBLK1
  1

  9
$DIMBLK2
  1

  9
$DIMSTYLE
  2
ISO-25
  9
$DIMCLRD
 70
     0
  9
$DIMCLRE
 70
     0
  9
$DIMCLRT
 70
     0
  9
$DIMTFAC
 40
1.0
  9
$DIMGAP
 40
0.625
  9
$DIMJUST
 70
     0
  9
$DIMSD1
 70
     0
  9
$DIMSD2
 70
     0
  9
$DIMTOLJ
 70
     0
  9
$DIMTZIN
 70
     8
  9
$DIMALTZ
 70
     0
  9
$DIMALTTZ
 70
     0
  9
$DIMUPT
 70
     0
  9
$DIMDEC
 70
     2
  9
$DIMTDEC
 70
     2
  9
$DIMALTU
 70
     2
  9
$DIMALTTD
 70
     3
  9
$DIMTXSTY
  7
Standard
  9
$DIMAUNIT
 70
     0
  9
$DIMADEC
 70
     0
  9
$DIMALTRND
 40
0.0
  9
$DIMAZIN
 70
     0
  9
$DIMDSEP
 70
    44
  9
$DIMATFIT
 70
     3
  9
$DIMFRAC
 70
     0
  9
$DIMLDRBLK
  1

  9
$DIMLUNIT
 70
     2
  9
$DIMLWD
 70
    -2
  9
$DIMLWE
 70
    -2
  9
$DIMTMOVE
 70
     0
  9
$LUNITS
 70
     2
  9
$LUPREC
 70
     4
  9
$SKETCHINC
 40
1.0
  9
$FILLETRAD
 40
0.0
  9
$AUNITS
 70
     0
  9
$AUPREC
 70
     0
  9
$MENU
  1
.
  9
$ELEVATION
 40
0.0
  9
$PELEVATION
 40
0.0
  9
$THICKNESS
 40
0.0
  9
$LIMCHECK
 70
     0
  9
$CHAMFERA
 40
10.0
  9
$CHAMFERB
 40
10.0
  9
$CHAMFERC
 40
20.0
  9
$CHAMFERD
 40
0.0
  9
$SKPOLY
 70
     0
  9
$TDCREATE
 40
2456275.594793646
  9
$TDUCREATE
 40
2456275.219793646
  9
$TDUPDATE
 40
2456275.594793657
  9
$TDUUPDATE
 40
2456275.219793657
  9
$TDINDWG
 40
0.0000000116
  9
$TDUSRTIMER
 40
0.0000000116
  9
$USRTIMER
 70
     1
  9
$ANGBASE
 50
0.0
  9
$ANGDIR
 70
     0
  9
$PDMODE
 70
     0
  9
$PDSIZE
 40
0.0
  9
$PLINEWID
 40
0.0
  9
$SPLFRAME
 70
     0
  9
$SPLINETYPE
 70
     6
  9
$SPLINESEGS
 70
     8
  9
$HANDSEED
  5
5A0
  9
$SURFTAB1
 70
     6
  9
$SURFTAB2
 70
     6
  9
$SURFTYPE
 70
     6
  9
$SURFU
 70
     6
  9
$SURFV
 70
     6
  9
$UCSBASE
  2

  9
$UCSNAME
  2

  9
$UCSORG
 10
0.0
 20
0.0
 30
0.0
  9
$UCSXDIR
 10
1.0
 20
0.0
 30
0.0
  9
$UCSYDIR
 10
0.0
 20
1.0
 30
0.0
  9
$UCSORTHOREF
  2

  9
$UCSORTHOVIEW
 70
     0
  9
$UCSORGTOP
 10
0.0
 20
0.0
 30
0.0
  9
$UCSORGBOTTOM
 10
0.0
 20
0.0
 30
0.0
  9
$UCSORGLEFT
 10
0.0
 20
0.0
 30
0.0
  9
$UCSORGRIGHT
 10
0.0
 20
0.0
 30
0.0
  9
$UCSORGFRONT
 10
0.0
 20
0.0
 30
0.0
  9
$UCSORGBACK
 10
0.0
 20
0.0
 30
0.0
  9
$PUCSBASE
  2

  9
$PUCSNAME
  2

  9
$PUCSORG
 10
0.0
 20
0.0
 30
0.0
  9
$PUCSXDIR
 10
1.0
 20
0.0
 30
0.0
  9
$PUCSYDIR
 10
0.0
 20
1.0
 30
0.0
  9
$PUCSORTHOREF
  2

  9
$PUCSORTHOVIEW
 70
     0
  9
$PUCSORGTOP
 10
0.0
 20
0.0
 30
0.0
  9
$PUCSORGBOTTOM
 10
0.0
 20
0.0
 30
0.0
  9
$PUCSORGLEFT
 10
0.0
 20
0.0
 30
0.0
  9
$PUCSORGRIGHT
 10
0.0
 20
0.0
 30
0.0
  9
$PUCSORGFRONT
 10
0.0
 20
0.0
 30
0.0
  9
$PUCSORGBACK
 10
0.0
 20
0.0
 30
0.0
  9
$USERI1
 70
     0
  9
$USERI2
 70
     0
  9
$USERI3
 70
     0
  9
$USERI4
 70
     0
  9
$USERI5
 70
     0
  9
$USERR1
 40
0.0
  9
$USERR2
 40
0.0
  9
$USERR3
 40
0.0
  9
$USERR4
 40
0.0
  9
$USERR5
 40
0.0
  9
$WORLDVIEW
 70
     1
  9
$SHADEDGE
 70
     3
  9
$SHADEDIF
 70
    70
  9
$TILEMODE
 70
     1
  9
$MAXACTVP
 70
    64
  9
$PINSBASE
 10
0.0
 20
0.0
 30
0.0
  9
$PLIMCHECK
 70
     0
  9
$PEXTMIN
 10
1.000000E+20
 20
1.000000E+20
 30
0.0
  9
$PEXTMAX
 10
-1.000000E+20
 20
-1.000000E+20
 30
0.0
  9
$PLIMMIN
 10
0.0
 20
0.0
  9
$PLIMMAX
 10
12.0
 20
9.0
  9
$UNITMODE
 70
     0
  9
$VISRETAIN
 70
     1
  9
$PLINEGEN
 70
     0
  9
$PSLTSCALE
 70
     1
  9
$TREEDEPTH
 70
  3020
  9
$CMLSTYLE
  2
Standard
  9
$CMLJUST
 70
     0
  9
$CMLSCALE
 40
20.0
  9
$PROXYGRAPHICS
 70
     1
  9
$MEASUREMENT
 70
     1
  9
$CELWEIGHT
370
    -1
  9
$ENDCAPS
280
     0
  9
$JOINSTYLE
280
     0
  9
$LWDISPLAY
290
     0
  9
$INSUNITS
 70
     4
  9
$HYPERLINKBASE
  1

  9
$STYLESHEET
  1

  9
$XEDIT
290
     1
  9
$CEPSNTYPE
380
     0
  9
$PSTYLEMODE
290
     1
  9
$FINGERPRINTGUID
  2
{71297C49-DD91-4BC3-8C60-FE7780B82A2E}
  9
$VERSIONGUID
  2
{FAEB1C32-E019-11D5-929B-00C0DF256EC4}
  9
$EXTNAMES
290
     1
  9
$PSVPSCALE
 40
0.0
  9
$OLESTARTUP
290
     0
  0
ENDSEC
  0
SECTION
  2
CLASSES
  0
CLASS
  1
ACDBDICTIONARYWDFLT
  2
AcDbDictionaryWithDefault
  3
ObjectDBX Classes
 90
        0
280
     0
281
     0
  0
CLASS
  1
VISUALSTYLE
  2
AcDbVisualStyle
  3
ObjectDBX Classes
 90
     4095
280
     0
281
     0
  0
CLASS
  1
SCALE
  2
AcDbScale
  3
ObjectDBX Classes
 90
     1153
280
     0
281
     0
  0
CLASS
  1
DICTIONARYVAR
  2
AcDbDictionaryVar
  3
ObjectDBX Classes
 90
        0
280
     0
281
     0
  0
CLASS
  1
ACDBPLACEHOLDER
  2
AcDbPlaceHolder
  3
ObjectDBX Classes
 90
        0
280
     0
281
     0
  0
CLASS
  1
LAYOUT
  2
AcDbLayout
  3
ObjectDBX Classes
 90
        0
280
     0
281
     0
  0
ENDSEC
  0
SECTION
  2
TABLES
  0
TABLE
  2
VPORT
  5
8
330
0
100
AcDbSymbolTable
 70
     1
  0
VPORT
  5
29
330
8
100
AcDbSymbolTableRecord
100
AcDbViewportTableRecord
  2
*Active
 70
     0
 10
0.0
 20
0.0
 11
1.0
 21
1.0
 12
104.067856
 22
81.501947
 13
0.0
 23
0.0
 14
1.0
 24
1.0
 15
0.0
 25
0.0
 16
0.0
 26
0.0
 36
1.0
 17
0.0
 27
0.0
 37
0.0
 40
126.01169
 41
1.691288
 42
50.0
 43
0.0
 44
0.0
 50
0.0
 51
0.0
 71
     0
 72
   100
 73
     1
 74
     3
 75
     0
 76
     0
 77
     0
 78
     0
281
     0
 65
     1
110
0.0
120
0.0
130
0.0
111
1.0
121
0.0
131
0.0
112
0.0
122
1.0
132
0.0
 79
     0
146
0.0
  0
ENDTAB
  0
TABLE
  2
LTYPE
  5
5
330
0
100
AcDbSymbolTable
 70
     5
  0
LTYPE
  5
14
330
5
100
AcDbSymbolTableRecord
100
AcDbLinetypeTableRecord
  2
ByBlock
 70
     0
  3

 72
    65
 73
     0
 40
0.0
  0
LTYPE
  5
15
330
5
100
AcDbSymbolTableRecord
100
AcDbLinetypeTableRecord
  2
ByLayer
 70
     0
  3

 72
    65
 73
     0
 40
0.0
  0
LTYPE
  5
16
330
5
100
AcDbSymbolTableRecord
100
AcDbLinetypeTableRecord
  2
Continuous
 70
     0
  3
Solid line
 72
    65
 73
     0
 40
0.0
  0
LTYPE
  5
5D
330
5
100
AcDbSymbolTableRecord
100
AcDbLinetypeTableRecord
  2
DASHED
 70
     0
  3
DASHED
 72
    83
 73
     2
 40
0.75
 49
0.5
 74
     0
 49
-0.25
 74
     0
  0
LTYPE
  5
5E
330
5
100
AcDbSymbolTableRecord
100
AcDbLinetypeTableRecord
  2
HIDDEN
 70
     0
  3
HIDDEN
 72
    83
 73
     2
 40
0.375
 49
0.25
 74
     0
 49
-0.125
 74
     0
  0
LTYPE
  5
5F
330
5
100
AcDbSymbolTableRecord
100
AcDbLinetypeTableRecord
  2
CENTER
 70
     0
  3
CENTER
 72
    83
 73
     4
 40
2.0
 49
1.25
 74
     0
 49
-0.25
 74
     0
 49
0.25
 74
     0
 49
-0.25
 74
     0
  0
LTYPE
  5
60
330
5
100
AcDbSymbolTableRecord
100
AcDbLinetypeTableRecord
  2
PHANTOM
 70
     0
  3
PHANTOM
 72
    83
 73
     6
 40
2.5
 49
1.25
 74
     0
 49
-0.25
 74
     0
 49
0.25
 74
     0
 49
-0.25
 74
     0
 49
0.25
 74
     0
 49
-0.25
 74
     0
  0
ENDTAB
  0
TABLE
  2
LAYER
  5
2
330
0
100
AcDbSymbolTable
 70
     2
  0
LAYER
  5
10
330
2
100
AcDbSymbolTableRecord
100
AcDbLayerTableRecord
  2
0
 70
     0
 62
     7
  6
Continuous
370
    -3
390
F
  0
LAYER
  5
61
330
2
100
AcDbSymbolTableRecord
100
AcDbLayerTableRecord
  2
001
 70
     0
 62
     7
  6
Continuous
370
    -3
390
F
  0
ENDTAB
  0
TABLE
  2
STYLE
  5
3
330
0
100
AcDbSymbolTable
 70
     2
  0
STYLE
  5
11
330
3
100
AcDbSymbolTableRecord
100
AcDbTextStyleTableRecord
  2
Standard
 70
     0
 40
0.0
 41
1.0
 50
0.0
 71
     0
 42
0.2
  3
TXT
  4
BIGFONT
  0
STYLE
  5
62
330
3
100
AcDbSymbolTableRecord
100
AcDbTextStyleTableRecord
  2
TATEGAKI
 70
     4
 40
1.0
 41
1.0
 50
0.0
 71
     0
 42
0.2
  3
TXT
  4
BIGFONT
  0
ENDTAB
  0
TABLE
  2
VIEW
  5
6
330
0
100
AcDbSymbolTable
 70
     0
  0
ENDTAB
  0
TABLE
  2
UCS
  5
7
330
0
100
AcDbSymbolTable
 70
     0
  0
ENDTAB
  0
TABLE
  2
APPID
  5
9
330
0
100
AcDbSymbolTable
 70
     1
  0
APPID
  5
12
330
9
100
AcDbSymbolTableRecord
100
AcDbRegAppTableRecord
  2
ACAD
 70
     0
  0
ENDTAB
  0
TABLE
  2
DIMSTYLE
  5
A
330
0
100
AcDbSymbolTable
 70
     2
100
AcDbDimStyleTable
  0
DIMSTYLE
105
27
330
A
100
AcDbSymbolTableRecord
100
AcDbDimStyleTableRecord
  2
ISO-25
 70
     0
 41
2.5
 42
0.625
 43
3.75
 44
1.25
 73
     0
 74
     0
 77
     1
 78
     8
140
2.5
141
2.5
143
0.03937
147
0.625
171
     3
172
     1
271
     2
272
     2
274
     3
278
    44
283
     0
284
     8
340
11
  0
DIMSTYLE
105
63
102
{ACAD_REACTORS
330
CC
330
CD
330
CE
330
CF
102
}
330
A
100
AcDbSymbolTableRecord
100
AcDbDimStyleTableRecord
  2
Standard
 70
     0
 41
1.5
 42
0.0
 44
0.5
 73
     0
 74
     0
 77
     1
 78
     8
 79
     2
140
4.0
146
0.8
147
1.0
172
     1
179
     1
271
     1
340
11
  0
ENDTAB
  0
TABLE
  2
BLOCK_RECORD
  5
1
330
0
100
AcDbSymbolTable
 70
     5
  0
BLOCK_RECORD
  5
1F
330
1
100
AcDbSymbolTableRecord
100
AcDbBlockTableRecord
  2
*Model_Space
340
22
  0
BLOCK_RECORD
  5
1B
330
1
100
AcDbSymbolTableRecord
100
AcDbBlockTableRecord
  2
*Paper_Space
340
1E
  0
BLOCK_RECORD
  5
23
330
1
100
AcDbSymbolTableRecord
100
AcDbBlockTableRecord
  2
*Paper_Space0
340
26
  0
BLOCK_RECORD
  5
64
330
1
100
AcDbSymbolTableRecord
100
AcDbBlockTableRecord
  2
*D1
340
0
  0
BLOCK_RECORD
  5
78
330
1
100
AcDbSymbolTableRecord
100
AcDbBlockTableRecord
  2
*D2
340
0
  0
BLOCK_RECORD
  5
8C
330
1
100
AcDbSymbolTableRecord
100
AcDbBlockTableRecord
  2
*D3
340
0
  0
BLOCK_RECORD
  5
A0
330
1
100
AcDbSymbolTableRecord
100
AcDbBlockTableRecord
  2
*D4
340
0
  0
ENDTAB
  0
ENDSEC
  0
SECTION
  2
BLOCKS
  0
BLOCK
  5
20
330
1F
100
AcDbEntity
  8
0
100
AcDbBlockBegin
  2
*Model_Space
 70
     0
 10
0.0
 20
0.0
 30
0.0
  3
*Model_Space
  1

  0
ENDBLK
  5
21
330
1F
100
AcDbEntity
  8
0
100
AcDbBlockEnd
  0
BLOCK
  5
1C
330
1B
100
AcDbEntity
 67
     1
  8
0
100
AcDbBlockBegin
  2
*Paper_Space
 70
     0
 10
0.0
 20
0.0
 30
0.0
  3
*Paper_Space
  1

  0
ENDBLK
  5
1D
330
1B
100
AcDbEntity
 67
     1
  8
0
100
AcDbBlockEnd
  0
BLOCK
  5
24
330
23
100
AcDbEntity
  8
0
100
AcDbBlockBegin
  2
*Paper_Space0
 70
     0
 10
0.0
 20
0.0
 30
0.0
  3
*Paper_Space0
  1

  0
ENDBLK
  5
25
330
23
100
AcDbEntity
  8
0
100
AcDbBlockEnd
  0
BLOCK
  5
65
330
64
100
AcDbEntity
  8
0
100
AcDbBlockBegin
  2
*D1
 70
     1
 10
0.0
 20
0.0
 30
0.0
  3
*D1
  1

  0
LINE
  5
67
330
64
100
AcDbEntity
  8
001
370
    50
100
AcDbLine
 10
95.058654
 20
68.589522
 30
0.0
 11
95.058654
 21
30.25576
 31
0.0
  0
LINE
  5
68
330
64
100
AcDbEntity
  8
001
370
    50
100
AcDbLine
 10
55.060306
 20
57.576404
 30
0.0
 11
55.060306
 21
30.25576
 31
0.0
  0
LINE
  5
69
330
64
100
AcDbEntity
  8
001
370
    50
100
AcDbLine
 10
95.058654
 20
30.75576
 30
0.0
 11
55.060306
 21
30.75576
 31
0.0
  0
POLYLINE
  5
6A
330
64
100
AcDbEntity
  8
001
370
    50
100
AcDb2dPolyline
 66
     1
 10
0.0
 20
0.0
 30
0.0
  0
VERTEX
  5
6C
330
6A
100
AcDbEntity
  8
001
370
    50
100
AcDbVertex
100
AcDb2dVertex
 10
93.558654
 20
31.157683
 30
0.0
  0
VERTEX
  5
6D
330
6A
100
AcDbEntity
  8
001
370
    50
100
AcDbVertex
100
AcDb2dVertex
 10
95.058654
 20
30.75576
 30
0.0
  0
VERTEX
  5
6E
330
6A
100
AcDbEntity
  8
001
370
    50
100
AcDbVertex
100
AcDb2dVertex
 10
93.558654
 20
30.353836
 30
0.0
  0
SEQEND
  5
6B
330
6A
100
AcDbEntity
  8
001
370
    50
  0
POLYLINE
  5
6F
330
64
100
AcDbEntity
  8
001
370
    50
100
AcDb2dPolyline
 66
     1
 10
0.0
 20
0.0
 30
0.0
  0
VERTEX
  5
71
330
6F
100
AcDbEntity
  8
001
370
    50
100
AcDbVertex
100
AcDb2dVertex
 10
56.560306
 20
30.353836
 30
0.0
  0
VERTEX
  5
72
330
6F
100
AcDbEntity
  8
001
370
    50
100
AcDbVertex
100
AcDb2dVertex
 10
55.060306
 20
30.75576
 30
0.0
  0
VERTEX
  5
73
330
6F
100
AcDbEntity
  8
001
370
    50
100
AcDbVertex
100
AcDb2dVertex
 10
56.560306
 20
31.157683
 30
0.0
  0
SEQEND
  5
70
330
6F
100
AcDbEntity
  8
001
370
    50
  0
TEXT
  5
74
330
64
100
AcDbEntity
  8
001
370
    30
100
AcDbText
 10
71.05948
 20
31.75576
 30
0.0
 40
4.0
  1
４０
 41
0.833333
100
AcDbText
  0
POINT
  5
75
330
64
100
AcDbEntity
  8
001
370
    50
100
AcDbPoint
 10
95.058654
 20
68.589522
 30
0.0
  0
POINT
  5
76
330
64
100
AcDbEntity
  8
001
370
    50
100
AcDbPoint
 10
55.060306
 20
57.576404
 30
0.0
  0
POINT
  5
77
330
64
100
AcDbEntity
  8
001
370
    50
100
AcDbPoint
 10
55.060306
 20
30.75576
 30
0.0
  0
ENDBLK
  5
66
330
64
100
AcDbEntity
  8
0
100
AcDbBlockEnd
  0
BLOCK
  5
79
330
78
100
AcDbEntity
  8
0
100
AcDbBlockBegin
  2
*D2
 70
     1
 10
0.0
 20
0.0
 30
0.0
  3
*D2
  1

  0
LINE
  5
7B
330
78
100
AcDbEntity
  8
001
370
    50
100
AcDbLine
 10
175.058654
 20
79.589522
 30
0.0
 11
175.058654
 21
30.25576
 31
0.0
  0
LINE
  5
7C
330
78
100
AcDbEntity
  8
001
370
    50
100
AcDbLine
 10
95.058654
 20
68.589522
 30
0.0
 11
95.058654
 21
30.25576
 31
0.0
  0
LINE
  5
7D
330
78
100
AcDbEntity
  8
001
370
    50
100
AcDbLine
 10
175.058654
 20
30.75576
 30
0.0
 11
95.058654
 21
30.75576
 31
0.0
  0
POLYLINE
  5
7E
330
78
100
AcDbEntity
  8
001
370
    50
100
AcDb2dPolyline
 66
     1
 10
0.0
 20
0.0
 30
0.0
  0
VERTEX
  5
80
330
7E
100
AcDbEntity
  8
001
370
    50
100
AcDbVertex
100
AcDb2dVertex
 10
173.558654
 20
31.157683
 30
0.0
  0
VERTEX
  5
81
330
7E
100
AcDbEntity
  8
001
370
    50
100
AcDbVertex
100
AcDb2dVertex
 10
175.058654
 20
30.75576
 30
0.0
  0
VERTEX
  5
82
330
7E
100
AcDbEntity
  8
001
370
    50
100
AcDbVertex
100
AcDb2dVertex
 10
173.558654
 20
30.353836
 30
0.0
  0
SEQEND
  5
7F
330
7E
100
AcDbEntity
  8
001
370
    50
  0
POLYLINE
  5
83
330
78
100
AcDbEntity
  8
001
370
    50
100
AcDb2dPolyline
 66
     1
 10
0.0
 20
0.0
 30
0.0
  0
VERTEX
  5
85
330
83
100
AcDbEntity
  8
001
370
    50
100
AcDbVertex
100
AcDb2dVertex
 10
96.558654
 20
30.353836
 30
0.0
  0
VERTEX
  5
86
330
83
100
AcDbEntity
  8
001
370
    50
100
AcDbVertex
100
AcDb2dVertex
 10
95.058654
 20
30.75576
 30
0.0
  0
VERTEX
  5
87
330
83
100
AcDbEntity
  8
001
370
    50
100
AcDbVertex
100
AcDb2dVertex
 10
96.558654
 20
31.157683
 30
0.0
  0
SEQEND
  5
84
330
83
100
AcDbEntity
  8
001
370
    50
  0
TEXT
  5
88
330
78
100
AcDbEntity
  8
001
370
    30
100
AcDbText
 10
131.058654
 20
31.75576
 30
0.0
 40
4.0
  1
８０
 41
0.833333
100
AcDbText
  0
POINT
  5
89
330
78
100
AcDbEntity
  8
001
370
    50
100
AcDbPoint
 10
175.058654
 20
79.589522
 30
0.0
  0
POINT
  5
8A
330
78
100
AcDbEntity
  8
001
370
    50
100
AcDbPoint
 10
95.058654
 20
68.589522
 30
0.0
  0
POINT
  5
8B
330
78
100
AcDbEntity
  8
001
370
    50
100
AcDbPoint
 10
95.058654
 20
30.75576
 30
0.0
  0
ENDBLK
  5
7A
330
78
100
AcDbEntity
  8
0
100
AcDbBlockEnd
  0
BLOCK
  5
8D
330
8C
100
AcDbEntity
  8
0
100
AcDbBlockBegin
  2
*D3
 70
     1
 10
0.0
 20
0.0
 30
0.0
  3
*D3
  1

  0
LINE
  5
8F
330
8C
100
AcDbEntity
  8
001
370
    50
100
AcDbLine
 10
55.060306
 20
57.576404
 30
0.0
 11
55.060306
 21
19.119924
 31
0.0
  0
LINE
  5
90
330
8C
100
AcDbEntity
  8
001
370
    50
100
AcDbLine
 10
175.058654
 20
79.589522
 30
0.0
 11
175.058654
 21
19.119924
 31
0.0
  0
LINE
  5
91
330
8C
100
AcDbEntity
  8
001
370
    50
100
AcDbLine
 10
55.060306
 20
19.619924
 30
0.0
 11
175.058654
 21
19.619924
 31
0.0
  0
POLYLINE
  5
92
330
8C
100
AcDbEntity
  8
001
370
    50
100
AcDb2dPolyline
 66
     1
 10
0.0
 20
0.0
 30
0.0
  0
VERTEX
  5
94
330
92
100
AcDbEntity
  8
001
370
    50
100
AcDbVertex
100
AcDb2dVertex
 10
56.560306
 20
19.218
 30
0.0
  0
VERTEX
  5
95
330
92
100
AcDbEntity
  8
001
370
    50
100
AcDbVertex
100
AcDb2dVertex
 10
55.060306
 20
19.619924
 30
0.0
  0
VERTEX
  5
96
330
92
100
AcDbEntity
  8
001
370
    50
100
AcDbVertex
100
AcDb2dVertex
 10
56.560306
 20
20.021848
 30
0.0
  0
SEQEND
  5
93
330
92
100
AcDbEntity
  8
001
370
    50
  0
POLYLINE
  5
97
330
8C
100
AcDbEntity
  8
001
370
    50
100
AcDb2dPolyline
 66
     1
 10
0.0
 20
0.0
 30
0.0
  0
VERTEX
  5
99
330
97
100
AcDbEntity
  8
001
370
    50
100
AcDbVertex
100
AcDb2dVertex
 10
173.558654
 20
20.021848
 30
0.0
  0
VERTEX
  5
9A
330
97
100
AcDbEntity
  8
001
370
    50
100
AcDbVertex
100
AcDb2dVertex
 10
175.058654
 20
19.619924
 30
0.0
  0
VERTEX
  5
9B
330
97
100
AcDbEntity
  8
001
370
    50
100
AcDbVertex
100
AcDb2dVertex
 10
173.558654
 20
19.218
 30
0.0
  0
SEQEND
  5
98
330
97
100
AcDbEntity
  8
001
370
    50
  0
TEXT
  5
9C
330
8C
100
AcDbEntity
  8
001
370
    30
100
AcDbText
 10
109.05948
 20
20.619924
 30
0.0
 40
4.0
  1
１２０
 41
0.833333
100
AcDbText
  0
POINT
  5
9D
330
8C
100
AcDbEntity
  8
001
370
    50
100
AcDbPoint
 10
55.060306
 20
57.576404
 30
0.0
  0
POINT
  5
9E
330
8C
100
AcDbEntity
  8
001
370
    50
100
AcDbPoint
 10
175.058654
 20
79.589522
 30
0.0
  0
POINT
  5
9F
330
8C
100
AcDbEntity
  8
001
370
    50
100
AcDbPoint
 10
175.058654
 20
19.619924
 30
0.0
  0
ENDBLK
  5
8E
330
8C
100
AcDbEntity
  8
0
100
AcDbBlockEnd
  0
BLOCK
  5
A1
330
A0
100
AcDbEntity
  8
0
100
AcDbBlockBegin
  2
*D4
 70
     1
 10
0.0
 20
0.0
 30
0.0
  3
*D4
  1

  0
LINE
  5
A3
330
A0
100
AcDbEntity
  8
001
370
    50
100
AcDbLine
 10
167.058654
 20
71.589522
 30
0.0
 11
198.273709
 21
71.589522
 31
0.0
  0
LINE
  5
A4
330
A0
100
AcDbEntity
  8
001
370
    50
100
AcDbLine
 10
167.058654
 20
103.589522
 30
0.0
 11
198.273709
 21
103.589522
 31
0.0
  0
LINE
  5
A5
330
A0
100
AcDbEntity
  8
001
370
    50
100
AcDbLine
 10
197.773709
 20
71.589522
 30
0.0
 11
197.773709
 21
103.589522
 31
0.0
  0
POLYLINE
  5
A6
330
A0
100
AcDbEntity
  8
001
370
    50
100
AcDb2dPolyline
 66
     1
 10
0.0
 20
0.0
 30
0.0
  0
VERTEX
  5
A8
330
A6
100
AcDbEntity
  8
001
370
    50
100
AcDbVertex
100
AcDb2dVertex
 10
198.175632
 20
73.089522
 30
0.0
  0
VERTEX
  5
A9
330
A6
100
AcDbEntity
  8
001
370
    50
100
AcDbVertex
100
AcDb2dVertex
 10
197.773709
 20
71.589522
 30
0.0
  0
VERTEX
  5
AA
330
A6
100
AcDbEntity
  8
001
370
    50
100
AcDbVertex
100
AcDb2dVertex
 10
197.371785
 20
73.089522
 30
0.0
  0
SEQEND
  5
A7
330
A6
100
AcDbEntity
  8
001
370
    50
  0
POLYLINE
  5
AB
330
A0
100
AcDbEntity
  8
001
370
    50
100
AcDb2dPolyline
 66
     1
 10
0.0
 20
0.0
 30
0.0
  0
VERTEX
  5
AD
330
AB
100
AcDbEntity
  8
001
370
    50
100
AcDbVertex
100
AcDb2dVertex
 10
197.371785
 20
102.089522
 30
0.0
  0
VERTEX
  5
AE
330
AB
100
AcDbEntity
  8
001
370
    50
100
AcDbVertex
100
AcDb2dVertex
 10
197.773709
 20
103.589522
 30
0.0
  0
VERTEX
  5
AF
330
AB
100
AcDbEntity
  8
001
370
    50
100
AcDbVertex
100
AcDb2dVertex
 10
198.175632
 20
102.089522
 30
0.0
  0
SEQEND
  5
AC
330
AB
100
AcDbEntity
  8
001
370
    50
  0
TEXT
  5
B0
330
A0
100
AcDbEntity
  8
001
370
    30
100
AcDbText
 10
196.773709
 20
81.589522
 30
0.0
 40
4.0
  1
%%c３２
 50
90.000003
 41
0.882353
100
AcDbText
  0
POINT
  5
B1
330
A0
100
AcDbEntity
  8
001
370
    50
100
AcDbPoint
 10
167.058654
 20
71.589522
 30
0.0
  0
POINT
  5
B2
330
A0
100
AcDbEntity
  8
001
370
    50
100
AcDbPoint
 10
167.058654
 20
103.589522
 30
0.0
  0
POINT
  5
B3
330
A0
100
AcDbEntity
  8
001
370
    50
100
AcDbPoint
 10
197.773709
 20
103.589522
 30
0.0
  0
ENDBLK
  5
A2
330
A0
100
AcDbEntity
  8
0
100
AcDbBlockEnd
  0
ENDSEC
  0
SECTION
  2
ENTITIES
  0
TEXT
  5
B4
330
1F
100
AcDbEntity
  8
001
370
    30
100
AcDbText
 10
23.850197
 20
81.589522
 30
0.0
 40
4.0
  1
%%c６０
 50
90.000003
 41
0.882353
100
AcDbText
  0
POLYLINE
  5
B5
330
1F
100
AcDbEntity
  8
001
370
    50
100
AcDb2dPolyline
 66
     1
 10
0.0
 20
0.0
 30
0.0
  0
VERTEX
  5
B7
330
B5
100
AcDbEntity
  8
001
370
    50
100
AcDbVertex
100
AcDb2dVertex
 10
25.252121
 20
59.076404
 30
0.0
  0
VERTEX
  5
B8
330
B5
100
AcDbEntity
  8
001
370
    50
100
AcDbVertex
100
AcDb2dVertex
 10
24.850197
 20
57.576404
 30
0.0
  0
VERTEX
  5
B9
330
B5
100
AcDbEntity
  8
001
370
    50
100
AcDbVertex
100
AcDb2dVertex
 10
24.448273
 20
59.076404
 30
0.0
  0
SEQEND
  5
B6
330
B5
100
AcDbEntity
  8
001
370
    50
  0
LINE
  5
BA
330
1F
100
AcDbEntity
  8
001
370
    50
100
AcDbLine
 10
24.850197
 20
117.60264
 30
0.0
 11
24.850197
 21
57.576404
 31
0.0
  0
POLYLINE
  5
BB
330
1F
100
AcDbEntity
  8
001
370
    50
100
AcDb2dPolyline
 66
     1
 10
0.0
 20
0.0
 30
0.0
  0
VERTEX
  5
BD
330
BB
100
AcDbEntity
  8
001
370
    50
100
AcDbVertex
100
AcDb2dVertex
 10
52.48039
 20
57.576404
 30
0.0
  0
VERTEX
  5
BE
330
BB
100
AcDbEntity
  8
001
370
    50
100
AcDbVertex
100
AcDb2dVertex
 10
24.850197
 20
57.576404
 30
0.0
  0
VERTEX
  5
BF
330
BB
100
AcDbEntity
  8
001
370
    50
100
AcDbVertex
100
AcDb2dVertex
 10
24.350197
 20
57.576404
 30
0.0
  0
SEQEND
  5
BC
330
BB
100
AcDbEntity
  8
001
370
    50
  0
TEXT
  5
C0
330
1F
100
AcDbEntity
  8
001
370
    30
100
AcDbText
 10
13.501665
 20
73.589522
 30
0.0
 40
4.0
  1
（%%c７２．５）
 50
90.000003
 41
0.853659
100
AcDbText
  0
POLYLINE
  5
C1
330
1F
100
AcDbEntity
  8
001
370
    50
100
AcDb2dPolyline
 66
     1
 10
0.0
 20
0.0
 30
0.0
  0
VERTEX
  5
C3
330
C1
100
AcDbEntity
  8
001
370
    50
100
AcDbVertex
100
AcDb2dVertex
 10
14.903589
 20
52.821875
 30
0.0
  0
VERTEX
  5
C4
330
C1
100
AcDbEntity
  8
001
370
    50
100
AcDbVertex
100
AcDb2dVertex
 10
14.501665
 20
51.321875
 30
0.0
  0
VERTEX
  5
C5
330
C1
100
AcDbEntity
  8
001
370
    50
100
AcDbVertex
100
AcDb2dVertex
 10
14.099741
 20
52.821875
 30
0.0
  0
SEQEND
  5
C2
330
C1
100
AcDbEntity
  8
001
370
    50
  0
LINE
  5
C6
330
1F
100
AcDbEntity
  8
001
370
    50
100
AcDbLine
 10
14.501665
 20
51.321875
 30
0.0
 11
14.501665
 21
123.85717
 31
0.0
  0
POLYLINE
  5
C7
330
1F
100
AcDbEntity
  8
001
370
    50
100
AcDb2dPolyline
 66
     1
 10
0.0
 20
0.0
 30
0.0
  0
VERTEX
  5
C9
330
C7
100
AcDbEntity
  8
001
370
    50
100
AcDbVertex
100
AcDb2dVertex
 10
55.058654
 20
51.321875
 30
0.0
  0
VERTEX
  5
CA
330
C7
100
AcDbEntity
  8
001
370
    50
100
AcDbVertex
100
AcDb2dVertex
 10
14.501665
 20
51.321875
 30
0.0
  0
VERTEX
  5
CB
330
C7
100
AcDbEntity
  8
001
370
    50
100
AcDbVertex
100
AcDb2dVertex
 10
14.001665
 20
51.321875
 30
0.0
  0
SEQEND
  5
C8
330
C7
100
AcDbEntity
  8
001
370
    50
  0
DIMENSION
  5
CC
330
1F
100
AcDbEntity
  8
001
370
    50
100
AcDbDimension
  2
*D1
 10
55.060306
 20
30.75576
 30
0.0
 11
75.05948
 21
33.75576
 31
0.0
 70
   160
 71
     5
 42
-1.0
  3
Standard
100
AcDbAlignedDimension
 13
95.058654
 23
68.589522
 33
0.0
 14
55.060306
 24
57.576404
 34
0.0
 50
180.0
100
AcDbRotatedDimension
  0
DIMENSION
  5
CD
330
1F
100
AcDbEntity
  8
001
370
    50
100
AcDbDimension
  2
*D2
 10
95.058654
 20
30.75576
 30
0.0
 11
135.058654
 21
33.75576
 31
0.0
 70
   160
 71
     5
 42
-1.0
  3
Standard
100
AcDbAlignedDimension
 13
175.058654
 23
79.589522
 33
0.0
 14
95.058654
 24
68.589522
 34
0.0
 50
180.0
100
AcDbRotatedDimension
  0
DIMENSION
  5
CE
330
1F
100
AcDbEntity
  8
001
370
    50
100
AcDbDimension
  2
*D3
 10
175.058654
 20
19.619924
 30
0.0
 11
115.05948
 21
22.619924
 31
0.0
 70
   160
 71
     5
 42
-1.0
  3
Standard
100
AcDbAlignedDimension
 13
55.060306
 23
57.576404
 33
0.0
 14
175.058654
 24
79.589522
 34
0.0
100
AcDbRotatedDimension
  0
DIMENSION
  5
CF
330
1F
100
AcDbEntity
  8
001
370
    50
100
AcDbDimension
  2
*D4
 10
197.773709
 20
103.589522
 30
0.0
 11
194.773708
 21
87.589522
 31
0.0
 70
   160
 71
     5
 42
-1.0
  3
Standard
100
AcDbAlignedDimension
 13
167.058654
 23
71.589522
 33
0.0
 14
167.058654
 24
103.589522
 34
0.0
 50
90.0
100
AcDbRotatedDimension
  0
POLYLINE
  5
D0
330
1F
100
AcDbEntity
  8
001
 62
    60
370
    50
100
AcDb2dPolyline
 66
     1
 10
0.0
 20
0.0
 30
0.0
  0
VERTEX
  5
D2
330
D0
100
AcDbEntity
  8
001
 62
    60
370
    50
100
AcDbVertex
100
AcDb2dVertex
 10
62.423492
 20
102.562148
 30
0.0
  0
VERTEX
  5
D3
330
D0
100
AcDbEntity
  8
001
 62
    60
370
    50
100
AcDbVertex
100
AcDb2dVertex
 10
62.303739
 20
102.588976
 30
0.0
  0
VERTEX
  5
D4
330
D0
100
AcDbEntity
  8
001
 62
    60
370
    50
100
AcDbVertex
100
AcDb2dVertex
 10
62.135667
 20
102.616485
 30
0.0
  0
VERTEX
  5
D5
330
D0
100
AcDbEntity
  8
001
 62
    60
370
    50
100
AcDbVertex
100
AcDb2dVertex
 10
61.931222
 20
102.631876
 30
0.0
  0
VERTEX
  5
D6
330
D0
100
AcDbEntity
  8
001
 62
    60
370
    50
100
AcDbVertex
100
AcDb2dVertex
 10
61.743481
 20
102.628011
 30
0.0
  0
VERTEX
  5
D7
330
D0
100
AcDbEntity
  8
001
 62
    60
370
    50
100
AcDbVertex
100
AcDb2dVertex
 10
61.641328
 20
102.621899
 30
0.0
  0
VERTEX
  5
D8
330
D0
100
AcDbEntity
  8
001
 62
    60
370
    50
100
AcDbVertex
100
AcDb2dVertex
 10
61.537125
 20
102.612628
 30
0.0
  0
VERTEX
  5
D9
330
D0
100
AcDbEntity
  8
001
 62
    60
370
    50
100
AcDbVertex
100
AcDb2dVertex
 10
61.433264
 20
102.599457
 30
0.0
  0
VERTEX
  5
DA
330
D0
100
AcDbEntity
  8
001
 62
    60
370
    50
100
AcDbVertex
100
AcDb2dVertex
 10
61.332239
 20
102.583628
 30
0.0
  0
VERTEX
  5
DB
330
D0
100
AcDbEntity
  8
001
 62
    60
370
    50
100
AcDbVertex
100
AcDb2dVertex
 10
61.149004
 20
102.547356
 30
0.0
  0
VERTEX
  5
DC
330
D0
100
AcDbEntity
  8
001
 62
    60
370
    50
100
AcDbVertex
100
AcDb2dVertex
 10
60.951543
 20
102.488688
 30
0.0
  0
VERTEX
  5
DD
330
D0
100
AcDbEntity
  8
001
 62
    60
370
    50
100
AcDbVertex
100
AcDb2dVertex
 10
60.831728
 20
102.443278
 30
0.0
  0
VERTEX
  5
DE
330
D0
100
AcDbEntity
  8
001
 62
    60
370
    50
100
AcDbVertex
100
AcDb2dVertex
 10
60.747491
 20
102.407433
 30
0.0
  0
SEQEND
  5
D1
330
D0
100
AcDbEntity
  8
001
370
    50
  0
LINE
  5
DF
330
1F
100
AcDbEntity
  8
001
 62
    60
370
    50
100
AcDbLine
 10
62.423492
 20
102.562148
 30
0.0
 11
62.57931
 21
102.516972
 31
0.0
  0
LINE
  5
E0
330
1F
100
AcDbEntity
  8
001
 62
    60
370
    50
100
AcDbLine
 10
55.758654
 20
99.371016
 30
0.0
 11
55.721601
 21
99.381759
 31
0.0
  0
POLYLINE
  5
E1
330
1F
100
AcDbEntity
  8
001
 62
    60
370
    50
100
AcDb2dPolyline
 66
     1
 10
0.0
 20
0.0
 30
0.0
  0
VERTEX
  5
E3
330
E1
100
AcDbEntity
  8
001
 62
    60
370
    50
100
AcDbVertex
100
AcDb2dVertex
 10
55.375478
 20
99.651637
 30
0.0
  0
VERTEX
  5
E4
330
E1
100
AcDbEntity
  8
001
 62
    60
370
    50
100
AcDbVertex
100
AcDb2dVertex
 10
55.383803
 20
99.618846
 30
0.0
  0
VERTEX
  5
E5
330
E1
100
AcDbEntity
  8
001
 62
    60
370
    50
100
AcDbVertex
100
AcDb2dVertex
 10
55.401866
 20
99.575757
 30
0.0
  0
VERTEX
  5
E6
330
E1
100
AcDbEntity
  8
001
 62
    60
370
    50
100
AcDbVertex
100
AcDb2dVertex
 10
55.430295
 20
99.536088
 30
0.0
  0
VERTEX
  5
E7
330
E1
100
AcDbEntity
  8
001
 62
    60
370
    50
100
AcDbVertex
100
AcDb2dVertex
 10
55.463432
 20
99.506066
 30
0.0
  0
VERTEX
  5
E8
330
E1
100
AcDbEntity
  8
001
 62
    60
370
    50
100
AcDbVertex
100
AcDb2dVertex
 10
55.507278
 20
99.474013
 30
0.0
  0
VERTEX
  5
E9
330
E1
100
AcDbEntity
  8
001
 62
    60
370
    50
100
AcDbVertex
100
AcDb2dVertex
 10
55.558304
 20
99.444681
 30
0.0
  0
VERTEX
  5
EA
330
E1
100
AcDbEntity
  8
001
 62
    60
370
    50
100
AcDbVertex
100
AcDb2dVertex
 10
55.651215
 20
99.405357
 30
0.0
  0
VERTEX
  5
EB
330
E1
100
AcDbEntity
  8
001
 62
    60
370
    50
100
AcDbVertex
100
AcDb2dVertex
 10
55.721601
 20
99.381759
 30
0.0
  0
SEQEND
  5
E2
330
E1
100
AcDbEntity
  8
001
370
    50
  0
LINE
  5
EC
330
1F
100
AcDbEntity
  8
001
 62
    60
370
    50
100
AcDbLine
 10
55.721601
 20
100.022392
 30
0.0
 11
60.747491
 21
102.407433
 31
0.0
  0
POLYLINE
  5
ED
330
1F
100
AcDbEntity
  8
001
 62
    60
370
    50
100
AcDb2dPolyline
 66
     1
 10
0.0
 20
0.0
 30
0.0
  0
VERTEX
  5
EF
330
ED
100
AcDbEntity
  8
001
 62
    60
370
    50
100
AcDbVertex
100
AcDb2dVertex
 10
62.107655
 20
105.488606
 30
0.0
  0
VERTEX
  5
F0
330
ED
100
AcDbEntity
  8
001
 62
    60
370
    50
100
AcDbVertex
100
AcDb2dVertex
 10
61.987902
 20
105.515435
 30
0.0
  0
VERTEX
  5
F1
330
ED
100
AcDbEntity
  8
001
 62
    60
370
    50
100
AcDbVertex
100
AcDb2dVertex
 10
61.81983
 20
105.542943
 30
0.0
  0
VERTEX
  5
F2
330
ED
100
AcDbEntity
  8
001
 62
    60
370
    50
100
AcDbVertex
100
AcDb2dVertex
 10
61.615385
 20
105.558334
 30
0.0
  0
VERTEX
  5
F3
330
ED
100
AcDbEntity
  8
001
 62
    60
370
    50
100
AcDbVertex
100
AcDb2dVertex
 10
61.427644
 20
105.55447
 30
0.0
  0
VERTEX
  5
F4
330
ED
100
AcDbEntity
  8
001
 62
    60
370
    50
100
AcDbVertex
100
AcDb2dVertex
 10
61.325491
 20
105.548357
 30
0.0
  0
VERTEX
  5
F5
330
ED
100
AcDbEntity
  8
001
 62
    60
370
    50
100
AcDbVertex
100
AcDb2dVertex
 10
61.221288
 20
105.539086
 30
0.0
  0
VERTEX
  5
F6
330
ED
100
AcDbEntity
  8
001
 62
    60
370
    50
100
AcDbVertex
100
AcDb2dVertex
 10
61.117428
 20
105.525916
 30
0.0
  0
VERTEX
  5
F7
330
ED
100
AcDbEntity
  8
001
 62
    60
370
    50
100
AcDbVertex
100
AcDb2dVertex
 10
61.016402
 20
105.510086
 30
0.0
  0
VERTEX
  5
F8
330
ED
100
AcDbEntity
  8
001
 62
    60
370
    50
100
AcDbVertex
100
AcDb2dVertex
 10
60.833167
 20
105.473815
 30
0.0
  0
VERTEX
  5
F9
330
ED
100
AcDbEntity
  8
001
 62
    60
370
    50
100
AcDbVertex
100
AcDb2dVertex
 10
60.635706
 20
105.415147
 30
0.0
  0
VERTEX
  5
FA
330
ED
100
AcDbEntity
  8
001
 62
    60
370
    50
100
AcDbVertex
100
AcDb2dVertex
 10
60.515891
 20
105.369737
 30
0.0
  0
VERTEX
  5
FB
330
ED
100
AcDbEntity
  8
001
 62
    60
370
    50
100
AcDbVertex
100
AcDb2dVertex
 10
60.431655
 20
105.333892
 30
0.0
  0
SEQEND
  5
EE
330
ED
100
AcDbEntity
  8
001
370
    50
  0
LINE
  5
FC
330
1F
100
AcDbEntity
  8
001
 62
    60
370
    50
100
AcDbLine
 10
55.405765
 20
102.948851
 30
0.0
 11
60.431655
 21
105.333892
 31
0.0
  0
LINE
  5
FD
330
1F
100
AcDbEntity
  8
001
 62
    60
370
    50
100
AcDbLine
 10
62.107655
 20
105.488606
 30
0.0
 11
63.012778
 21
105.226186
 31
0.0
  0
POLYLINE
  5
FE
330
1F
100
AcDbEntity
  8
001
 62
    60
370
    50
100
AcDb2dPolyline
 66
     1
 10
0.0
 20
0.0
 30
0.0
  0
VERTEX
  5
100
330
FE
100
AcDbEntity
  8
001
 62
    60
370
    50
100
AcDbVertex
100
AcDb2dVertex
 10
55.405765
 20
102.948851
 30
0.0
  0
VERTEX
  5
101
330
FE
100
AcDbEntity
  8
001
 62
    60
370
    50
100
AcDbVertex
100
AcDb2dVertex
 10
55.312259
 20
102.89877
 30
0.0
  0
VERTEX
  5
102
330
FE
100
AcDbEntity
  8
001
 62
    60
370
    50
100
AcDbVertex
100
AcDb2dVertex
 10
55.1941
 20
102.819294
 30
0.0
  0
VERTEX
  5
103
330
FE
100
AcDbEntity
  8
001
 62
    60
370
    50
100
AcDbVertex
100
AcDb2dVertex
 10
55.150801
 20
102.779949
 30
0.0
  0
VERTEX
  5
104
330
FE
100
AcDbEntity
  8
001
 62
    60
370
    50
100
AcDbVertex
100
AcDb2dVertex
 10
55.11451
 20
102.73908
 30
0.0
  0
VERTEX
  5
105
330
FE
100
AcDbEntity
  8
001
 62
    60
370
    50
100
AcDbVertex
100
AcDb2dVertex
 10
55.088485
 20
102.70264
 30
0.0
  0
VERTEX
  5
106
330
FE
100
AcDbEntity
  8
001
 62
    60
370
    50
100
AcDbVertex
100
AcDb2dVertex
 10
55.069232
 20
102.657858
 30
0.0
  0
VERTEX
  5
107
330
FE
100
AcDbEntity
  8
001
 62
    60
370
    50
100
AcDbVertex
100
AcDb2dVertex
 10
55.060787
 20
102.611913
 30
0.0
  0
VERTEX
  5
108
330
FE
100
AcDbEntity
  8
001
 62
    60
370
    50
100
AcDbVertex
100
AcDb2dVertex
 10
55.059641
 20
102.578095
 30
0.0
  0
SEQEND
  5
FF
330
FE
100
AcDbEntity
  8
001
370
    50
  0
POLYLINE
  5
109
330
1F
100
AcDbEntity
  8
001
 62
    60
370
    50
100
AcDb2dPolyline
 66
     1
 10
0.0
 20
0.0
 30
0.0
  0
VERTEX
  5
10B
330
109
100
AcDbEntity
  8
001
 62
    60
370
    50
100
AcDbVertex
100
AcDb2dVertex
 10
55.721601
 20
100.022392
 30
0.0
  0
VERTEX
  5
10C
330
109
100
AcDbEntity
  8
001
 62
    60
370
    50
100
AcDbVertex
100
AcDb2dVertex
 10
55.628096
 20
99.972311
 30
0.0
  0
VERTEX
  5
10D
330
109
100
AcDbEntity
  8
001
 62
    60
370
    50
100
AcDbVertex
100
AcDb2dVertex
 10
55.509937
 20
99.892835
 30
0.0
  0
VERTEX
  5
10E
330
109
100
AcDbEntity
  8
001
 62
    60
370
    50
100
AcDbVertex
100
AcDb2dVertex
 10
55.466637
 20
99.85349
 30
0.0
  0
VERTEX
  5
10F
330
109
100
AcDbEntity
  8
001
 62
    60
370
    50
100
AcDbVertex
100
AcDb2dVertex
 10
55.430347
 20
99.812621
 30
0.0
  0
VERTEX
  5
110
330
109
100
AcDbEntity
  8
001
 62
    60
370
    50
100
AcDbVertex
100
AcDb2dVertex
 10
55.404322
 20
99.776181
 30
0.0
  0
VERTEX
  5
111
330
109
100
AcDbEntity
  8
001
 62
    60
370
    50
100
AcDbVertex
100
AcDb2dVertex
 10
55.385068
 20
99.731399
 30
0.0
  0
VERTEX
  5
112
330
109
100
AcDbEntity
  8
001
 62
    60
370
    50
100
AcDbVertex
100
AcDb2dVertex
 10
55.376624
 20
99.685454
 30
0.0
  0
VERTEX
  5
113
330
109
100
AcDbEntity
  8
001
 62
    60
370
    50
100
AcDbVertex
100
AcDb2dVertex
 10
55.375478
 20
99.651637
 30
0.0
  0
SEQEND
  5
10A
330
109
100
AcDbEntity
  8
001
370
    50
  0
LINE
  5
114
330
1F
100
AcDbEntity
  8
001
 62
    60
370
    50
100
AcDbLine
 10
55.059641
 20
102.578095
 30
0.0
 11
55.375478
 21
99.651637
 31
0.0
  0
POLYLINE
  5
115
330
1F
100
AcDbEntity
  8
001
 62
     5
370
    50
100
AcDb2dPolyline
 66
     1
 10
0.0
 20
0.0
 30
0.0
  0
VERTEX
  5
117
330
115
100
AcDbEntity
  8
001
 62
     5
370
    50
100
AcDbVertex
100
AcDb2dVertex
 10
61.150271
 20
89.778388
 30
0.0
  0
VERTEX
  5
118
330
115
100
AcDbEntity
  8
001
 62
     5
370
    50
100
AcDbVertex
100
AcDb2dVertex
 10
61.419853
 20
89.683804
 30
0.0
  0
VERTEX
  5
119
330
115
100
AcDbEntity
  8
001
 62
     5
370
    50
100
AcDbVertex
100
AcDb2dVertex
 10
61.828633
 20
89.602919
 30
0.0
  0
VERTEX
  5
11A
330
115
100
AcDbEntity
  8
001
 62
     5
370
    50
100
AcDbVertex
100
AcDb2dVertex
 10
62.123766
 20
89.582943
 30
0.0
  0
VERTEX
  5
11B
330
115
100
AcDbEntity
  8
001
 62
     5
370
    50
100
AcDbVertex
100
AcDb2dVertex
 10
62.326604
 20
89.582616
 30
0.0
  0
SEQEND
  5
116
330
115
100
AcDbEntity
  8
001
370
    50
  0
POLYLINE
  5
11C
330
1F
100
AcDbEntity
  8
001
 62
     5
370
    50
100
AcDb2dPolyline
 66
     1
 10
0.0
 20
0.0
 30
0.0
  0
VERTEX
  5
11E
330
11C
100
AcDbEntity
  8
001
 62
     5
370
    50
100
AcDbVertex
100
AcDb2dVertex
 10
62.326604
 20
89.582616
 30
0.0
  0
VERTEX
  5
11F
330
11C
100
AcDbEntity
  8
001
 62
     5
370
    50
100
AcDbVertex
100
AcDb2dVertex
 10
62.36568
 20
89.583634
 30
0.0
  0
VERTEX
  5
120
330
11C
100
AcDbEntity
  8
001
 62
     5
370
    50
100
AcDbVertex
100
AcDb2dVertex
 10
62.421357
 20
89.585499
 30
0.0
  0
VERTEX
  5
121
330
11C
100
AcDbEntity
  8
001
 62
     5
370
    50
100
AcDbVertex
100
AcDb2dVertex
 10
62.588491
 20
89.595064
 30
0.0
  0
VERTEX
  5
122
330
11C
100
AcDbEntity
  8
001
 62
     5
370
    50
100
AcDbVertex
100
AcDb2dVertex
 10
62.73323
 20
89.608748
 30
0.0
  0
VERTEX
  5
123
330
11C
100
AcDbEntity
  8
001
 62
     5
370
    50
100
AcDbVertex
100
AcDb2dVertex
 10
62.880553
 20
89.626524
 30
0.0
  0
VERTEX
  5
124
330
11C
100
AcDbEntity
  8
001
 62
     5
370
    50
100
AcDbVertex
100
AcDb2dVertex
 10
63.042881
 20
89.652577
 30
0.0
  0
VERTEX
  5
125
330
11C
100
AcDbEntity
  8
001
 62
     5
370
    50
100
AcDbVertex
100
AcDb2dVertex
 10
63.305752
 20
89.708797
 30
0.0
  0
VERTEX
  5
126
330
11C
100
AcDbEntity
  8
001
 62
     5
370
    50
100
AcDbVertex
100
AcDb2dVertex
 10
63.495832
 20
89.757666
 30
0.0
  0
SEQEND
  5
11D
330
11C
100
AcDbEntity
  8
001
370
    50
  0
POLYLINE
  5
127
330
1F
100
AcDbEntity
  8
001
 62
     5
370
    50
100
AcDb2dPolyline
 66
     1
 10
0.0
 20
0.0
 30
0.0
  0
VERTEX
  5
129
330
127
100
AcDbEntity
  8
001
 62
     5
370
    50
100
AcDbVertex
100
AcDb2dVertex
 10
62.259501
 20
89.670881
 30
0.0
  0
VERTEX
  5
12A
330
127
100
AcDbEntity
  8
001
 62
     5
370
    50
100
AcDbVertex
100
AcDb2dVertex
 10
62.15527
 20
89.754792
 30
0.0
  0
VERTEX
  5
12B
330
127
100
AcDbEntity
  8
001
 62
     5
370
    50
100
AcDbVertex
100
AcDb2dVertex
 10
62.047983
 20
89.834471
 30
0.0
  0
VERTEX
  5
12C
330
127
100
AcDbEntity
  8
001
 62
     5
370
    50
100
AcDbVertex
100
AcDb2dVertex
 10
62.018431
 20
89.854581
 30
0.0
  0
VERTEX
  5
12D
330
127
100
AcDbEntity
  8
001
 62
     5
370
    50
100
AcDbVertex
100
AcDb2dVertex
 10
61.98866
 20
89.874389
 30
0.0
  0
SEQEND
  5
128
330
127
100
AcDbEntity
  8
001
370
    50
  0
POLYLINE
  5
12E
330
1F
100
AcDbEntity
  8
001
 62
     5
370
    50
100
AcDb2dPolyline
 66
     1
 10
0.0
 20
0.0
 30
0.0
  0
VERTEX
  5
130
330
12E
100
AcDbEntity
  8
001
 62
     5
370
    50
100
AcDbVertex
100
AcDb2dVertex
 10
62.564633
 20
89.866737
 30
0.0
  0
VERTEX
  5
131
330
12E
100
AcDbEntity
  8
001
 62
     5
370
    50
100
AcDbVertex
100
AcDb2dVertex
 10
62.505178
 20
89.832598
 30
0.0
  0
VERTEX
  5
132
330
12E
100
AcDbEntity
  8
001
 62
     5
370
    50
100
AcDbVertex
100
AcDb2dVertex
 10
62.446392
 20
89.797397
 30
0.0
  0
VERTEX
  5
133
330
12E
100
AcDbEntity
  8
001
 62
     5
370
    50
100
AcDbVertex
100
AcDb2dVertex
 10
62.352038
 20
89.735579
 30
0.0
  0
VERTEX
  5
134
330
12E
100
AcDbEntity
  8
001
 62
     5
370
    50
100
AcDbVertex
100
AcDb2dVertex
 10
62.259501
 20
89.670881
 30
0.0
  0
SEQEND
  5
12F
330
12E
100
AcDbEntity
  8
001
370
    50
  0
LINE
  5
135
330
1F
100
AcDbEntity
  8
001
 62
     5
370
    50
100
AcDbLine
 10
62.236406
 20
89.884872
 30
0.0
 11
62.259501
 21
89.670881
 31
0.0
  0
POLYLINE
  5
136
330
1F
100
AcDbEntity
  8
001
 62
    60
370
    50
100
AcDb2dPolyline
 66
     1
 10
0.0
 20
0.0
 30
0.0
  0
VERTEX
  5
138
330
136
100
AcDbEntity
  8
001
 62
    60
370
    50
100
AcDbVertex
100
AcDb2dVertex
 10
62.107655
 20
63.339195
 30
0.0
  0
VERTEX
  5
139
330
136
100
AcDbEntity
  8
001
 62
    60
370
    50
100
AcDbVertex
100
AcDb2dVertex
 10
62.053304
 20
63.389453
 30
0.0
  0
VERTEX
  5
13A
330
136
100
AcDbEntity
  8
001
 62
    60
370
    50
100
AcDbVertex
100
AcDb2dVertex
 10
61.974589
 20
63.455165
 30
0.0
  0
VERTEX
  5
13B
330
136
100
AcDbEntity
  8
001
 62
    60
370
    50
100
AcDbVertex
100
AcDb2dVertex
 10
61.885296
 20
63.517544
 30
0.0
  0
VERTEX
  5
13C
330
136
100
AcDbEntity
  8
001
 62
    60
370
    50
100
AcDbVertex
100
AcDb2dVertex
 10
61.798452
 20
63.565013
 30
0.0
  0
VERTEX
  5
13D
330
136
100
AcDbEntity
  8
001
 62
    60
370
    50
100
AcDbVertex
100
AcDb2dVertex
 10
61.609
 20
63.64023
 30
0.0
  0
VERTEX
  5
13E
330
136
100
AcDbEntity
  8
001
 62
    60
370
    50
100
AcDbVertex
100
AcDb2dVertex
 10
61.403817
 20
63.686687
 30
0.0
  0
VERTEX
  5
13F
330
136
100
AcDbEntity
  8
001
 62
    60
370
    50
100
AcDbVertex
100
AcDb2dVertex
 10
61.095279
 20
63.687221
 30
0.0
  0
VERTEX
  5
140
330
136
100
AcDbEntity
  8
001
 62
    60
370
    50
100
AcDbVertex
100
AcDb2dVertex
 10
60.797096
 20
63.60443
 30
0.0
  0
VERTEX
  5
141
330
136
100
AcDbEntity
  8
001
 62
    60
370
    50
100
AcDbVertex
100
AcDb2dVertex
 10
60.702618
 20
63.558995
 30
0.0
  0
VERTEX
  5
142
330
136
100
AcDbEntity
  8
001
 62
    60
370
    50
100
AcDbVertex
100
AcDb2dVertex
 10
60.615551
 20
63.508661
 30
0.0
  0
VERTEX
  5
143
330
136
100
AcDbEntity
  8
001
 62
    60
370
    50
100
AcDbVertex
100
AcDb2dVertex
 10
60.537085
 20
63.454315
 30
0.0
  0
VERTEX
  5
144
330
136
100
AcDbEntity
  8
001
 62
    60
370
    50
100
AcDbVertex
100
AcDb2dVertex
 10
60.453881
 20
63.382719
 30
0.0
  0
VERTEX
  5
145
330
136
100
AcDbEntity
  8
001
 62
    60
370
    50
100
AcDbVertex
100
AcDb2dVertex
 10
60.440718
 20
63.370213
 30
0.0
  0
VERTEX
  5
146
330
136
100
AcDbEntity
  8
001
 62
    60
370
    50
100
AcDbVertex
100
AcDb2dVertex
 10
60.431655
 20
63.361449
 30
0.0
  0
SEQEND
  5
137
330
136
100
AcDbEntity
  8
001
370
    50
  0
POLYLINE
  5
147
330
1F
100
AcDbEntity
  8
001
 62
    60
370
    50
100
AcDb2dPolyline
 66
     1
 10
0.0
 20
0.0
 30
0.0
  0
VERTEX
  5
149
330
147
100
AcDbEntity
  8
001
 62
    60
370
    50
100
AcDbVertex
100
AcDb2dVertex
 10
61.395719
 20
64.104286
 30
0.0
  0
VERTEX
  5
14A
330
147
100
AcDbEntity
  8
001
 62
    60
370
    50
100
AcDbVertex
100
AcDb2dVertex
 10
61.274593
 20
64.077415
 30
0.0
  0
VERTEX
  5
14B
330
147
100
AcDbEntity
  8
001
 62
    60
370
    50
100
AcDbVertex
100
AcDb2dVertex
 10
61.112933
 20
64.025371
 30
0.0
  0
VERTEX
  5
14C
330
147
100
AcDbEntity
  8
001
 62
    60
370
    50
100
AcDbVertex
100
AcDb2dVertex
 10
61.015069
 20
63.979568
 30
0.0
  0
VERTEX
  5
14D
330
147
100
AcDbEntity
  8
001
 62
    60
370
    50
100
AcDbVertex
100
AcDb2dVertex
 10
60.931388
 20
63.929602
 30
0.0
  0
VERTEX
  5
14E
330
147
100
AcDbEntity
  8
001
 62
    60
370
    50
100
AcDbVertex
100
AcDb2dVertex
 10
60.853651
 20
63.875335
 30
0.0
  0
VERTEX
  5
14F
330
147
100
AcDbEntity
  8
001
 62
    60
370
    50
100
AcDbVertex
100
AcDb2dVertex
 10
60.769717
 20
63.80366
 30
0.0
  0
VERTEX
  5
150
330
147
100
AcDbEntity
  8
001
 62
    60
370
    50
100
AcDbVertex
100
AcDb2dVertex
 10
60.756548
 20
63.791153
 30
0.0
  0
VERTEX
  5
151
330
147
100
AcDbEntity
  8
001
 62
    60
370
    50
100
AcDbVertex
100
AcDb2dVertex
 10
60.747491
 20
63.78239
 30
0.0
  0
SEQEND
  5
148
330
147
100
AcDbEntity
  8
001
370
    50
  0
POLYLINE
  5
152
330
1F
100
AcDbEntity
  8
001
 62
    60
370
    50
100
AcDb2dPolyline
 66
     1
 10
0.0
 20
0.0
 30
0.0
  0
VERTEX
  5
154
330
152
100
AcDbEntity
  8
001
 62
    60
370
    50
100
AcDbVertex
100
AcDb2dVertex
 10
59.745883
 20
58.652974
 30
0.0
  0
VERTEX
  5
155
330
152
100
AcDbEntity
  8
001
 62
    60
370
    50
100
AcDbVertex
100
AcDb2dVertex
 10
59.669019
 20
58.538877
 30
0.0
  0
VERTEX
  5
156
330
152
100
AcDbEntity
  8
001
 62
    60
370
    50
100
AcDbVertex
100
AcDb2dVertex
 10
59.573237
 20
58.374653
 30
0.0
  0
VERTEX
  5
157
330
152
100
AcDbEntity
  8
001
 62
    60
370
    50
100
AcDbVertex
100
AcDb2dVertex
 10
59.501793
 20
58.217293
 30
0.0
  0
VERTEX
  5
158
330
152
100
AcDbEntity
  8
001
 62
    60
370
    50
100
AcDbVertex
100
AcDb2dVertex
 10
59.452136
 20
58.070049
 30
0.0
  0
VERTEX
  5
159
330
152
100
AcDbEntity
  8
001
 62
    60
370
    50
100
AcDbVertex
100
AcDb2dVertex
 10
59.41316
 20
57.920361
 30
0.0
  0
VERTEX
  5
15A
330
152
100
AcDbEntity
  8
001
 62
    60
370
    50
100
AcDbVertex
100
AcDb2dVertex
 10
59.38626
 20
57.748419
 30
0.0
  0
VERTEX
  5
15B
330
152
100
AcDbEntity
  8
001
 62
    60
370
    50
100
AcDbVertex
100
AcDb2dVertex
 10
59.377007
 20
57.623986
 30
0.0
  0
VERTEX
  5
15C
330
152
100
AcDbEntity
  8
001
 62
    60
370
    50
100
AcDbVertex
100
AcDb2dVertex
 10
59.374074
 20
57.53484
 30
0.0
  0
SEQEND
  5
153
330
152
100
AcDbEntity
  8
001
370
    50
  0
POLYLINE
  5
15D
330
1F
100
AcDbEntity
  8
001
 62
    60
370
    50
100
AcDb2dPolyline
 66
     1
 10
0.0
 20
0.0
 30
0.0
  0
VERTEX
  5
15F
330
15D
100
AcDbEntity
  8
001
 62
    60
370
    50
100
AcDbVertex
100
AcDb2dVertex
 10
55.405765
 20
58.422211
 30
0.0
  0
VERTEX
  5
160
330
15D
100
AcDbEntity
  8
001
 62
    60
370
    50
100
AcDbVertex
100
AcDb2dVertex
 10
55.380944
 20
58.396957
 30
0.0
  0
VERTEX
  5
161
330
15D
100
AcDbEntity
  8
001
 62
    60
370
    50
100
AcDbVertex
100
AcDb2dVertex
 10
55.345967
 20
58.358854
 30
0.0
  0
VERTEX
  5
162
330
15D
100
AcDbEntity
  8
001
 62
    60
370
    50
100
AcDbVertex
100
AcDb2dVertex
 10
55.312844
 20
58.31914
 30
0.0
  0
VERTEX
  5
163
330
15D
100
AcDbEntity
  8
001
 62
    60
370
    50
100
AcDbVertex
100
AcDb2dVertex
 10
55.291107
 20
58.291194
 30
0.0
  0
SEQEND
  5
15E
330
15D
100
AcDbEntity
  8
001
370
    50
  0
LINE
  5
164
330
1F
100
AcDbEntity
  8
001
 62
    60
370
    50
100
AcDbLine
 10
60.431655
 20
63.361449
 30
0.0
 11
55.405765
 21
58.422211
 31
0.0
  0
LINE
  5
165
330
1F
100
AcDbEntity
  8
001
 62
    60
370
    50
100
AcDbLine
 10
67.133545
 20
58.266488
 30
0.0
 11
62.107655
 21
63.339195
 31
0.0
  0
POLYLINE
  5
166
330
1F
100
AcDbEntity
  8
001
 62
    60
370
    50
100
AcDb2dPolyline
 66
     1
 10
0.0
 20
0.0
 30
0.0
  0
VERTEX
  5
168
330
166
100
AcDbEntity
  8
001
 62
    60
370
    50
100
AcDbVertex
100
AcDb2dVertex
 10
67.133545
 20
56.59713
 30
0.0
  0
VERTEX
  5
169
330
166
100
AcDbEntity
  8
001
 62
    60
370
    50
100
AcDbVertex
100
AcDb2dVertex
 10
67.158365
 20
56.622384
 30
0.0
  0
VERTEX
  5
16A
330
166
100
AcDbEntity
  8
001
 62
    60
370
    50
100
AcDbVertex
100
AcDb2dVertex
 10
67.193342
 20
56.660487
 30
0.0
  0
VERTEX
  5
16B
330
166
100
AcDbEntity
  8
001
 62
    60
370
    50
100
AcDbVertex
100
AcDb2dVertex
 10
67.226466
 20
56.700201
 30
0.0
  0
VERTEX
  5
16C
330
166
100
AcDbEntity
  8
001
 62
    60
370
    50
100
AcDbVertex
100
AcDb2dVertex
 10
67.248203
 20
56.728146
 30
0.0
  0
SEQEND
  5
167
330
166
100
AcDbEntity
  8
001
370
    50
  0
LINE
  5
16D
330
1F
100
AcDbEntity
  8
001
 62
    60
370
    50
100
AcDbLine
 10
62.107655
 20
51.657892
 30
0.0
 11
67.133545
 21
56.59713
 31
0.0
  0
POLYLINE
  5
16E
330
1F
100
AcDbEntity
  8
001
 62
    60
370
    50
100
AcDb2dPolyline
 66
     1
 10
0.0
 20
0.0
 30
0.0
  0
VERTEX
  5
170
330
16E
100
AcDbEntity
  8
001
 62
    60
370
    50
100
AcDbVertex
100
AcDb2dVertex
 10
60.431655
 20
51.680146
 30
0.0
  0
VERTEX
  5
171
330
16E
100
AcDbEntity
  8
001
 62
    60
370
    50
100
AcDbVertex
100
AcDb2dVertex
 10
60.486005
 20
51.629887
 30
0.0
  0
VERTEX
  5
172
330
16E
100
AcDbEntity
  8
001
 62
    60
370
    50
100
AcDbVertex
100
AcDb2dVertex
 10
60.564721
 20
51.564176
 30
0.0
  0
VERTEX
  5
173
330
16E
100
AcDbEntity
  8
001
 62
    60
370
    50
100
AcDbVertex
100
AcDb2dVertex
 10
60.654013
 20
51.501796
 30
0.0
  0
VERTEX
  5
174
330
16E
100
AcDbEntity
  8
001
 62
    60
370
    50
100
AcDbVertex
100
AcDb2dVertex
 10
60.740858
 20
51.454327
 30
0.0
  0
VERTEX
  5
175
330
16E
100
AcDbEntity
  8
001
 62
    60
370
    50
100
AcDbVertex
100
AcDb2dVertex
 10
60.930309
 20
51.37911
 30
0.0
  0
VERTEX
  5
176
330
16E
100
AcDbEntity
  8
001
 62
    60
370
    50
100
AcDbVertex
100
AcDb2dVertex
 10
61.135493
 20
51.332653
 30
0.0
  0
VERTEX
  5
177
330
16E
100
AcDbEntity
  8
001
 62
    60
370
    50
100
AcDbVertex
100
AcDb2dVertex
 10
61.444031
 20
51.332119
 30
0.0
  0
VERTEX
  5
178
330
16E
100
AcDbEntity
  8
001
 62
    60
370
    50
100
AcDbVertex
100
AcDb2dVertex
 10
61.742213
 20
51.414911
 30
0.0
  0
VERTEX
  5
179
330
16E
100
AcDbEntity
  8
001
 62
    60
370
    50
100
AcDbVertex
100
AcDb2dVertex
 10
61.836692
 20
51.460346
 30
0.0
  0
VERTEX
  5
17A
330
16E
100
AcDbEntity
  8
001
 62
    60
370
    50
100
AcDbVertex
100
AcDb2dVertex
 10
61.923758
 20
51.51068
 30
0.0
  0
VERTEX
  5
17B
330
16E
100
AcDbEntity
  8
001
 62
    60
370
    50
100
AcDbVertex
100
AcDb2dVertex
 10
62.002225
 20
51.565026
 30
0.0
  0
VERTEX
  5
17C
330
16E
100
AcDbEntity
  8
001
 62
    60
370
    50
100
AcDbVertex
100
AcDb2dVertex
 10
62.085429
 20
51.636621
 30
0.0
  0
VERTEX
  5
17D
330
16E
100
AcDbEntity
  8
001
 62
    60
370
    50
100
AcDbVertex
100
AcDb2dVertex
 10
62.098592
 20
51.649128
 30
0.0
  0
VERTEX
  5
17E
330
16E
100
AcDbEntity
  8
001
 62
    60
370
    50
100
AcDbVertex
100
AcDb2dVertex
 10
62.107655
 20
51.657892
 30
0.0
  0
SEQEND
  5
16F
330
16E
100
AcDbEntity
  8
001
370
    50
  0
LINE
  5
17F
330
1F
100
AcDbEntity
  8
001
 62
    60
370
    50
100
AcDbLine
 10
55.405765
 20
56.752852
 30
0.0
 11
60.431655
 21
51.680146
 31
0.0
  0
LINE
  5
180
330
1F
100
AcDbEntity
  8
001
 62
    60
370
    50
100
AcDbLine
 10
67.449382
 20
58.687429
 30
0.0
 11
65.70928
 21
60.443741
 31
0.0
  0
LINE
  5
181
330
1F
100
AcDbEntity
  8
001
 62
    60
370
    50
100
AcDbLine
 10
60.747491
 20
63.78239
 30
0.0
 11
55.721601
 21
58.843152
 31
0.0
  0
POLYLINE
  5
182
330
1F
100
AcDbEntity
  8
001
 62
    60
370
    50
100
AcDb2dPolyline
 66
     1
 10
0.0
 20
0.0
 30
0.0
  0
VERTEX
  5
184
330
182
100
AcDbEntity
  8
001
 62
    60
370
    50
100
AcDbVertex
100
AcDb2dVertex
 10
67.248203
 20
56.728146
 30
0.0
  0
VERTEX
  5
185
330
182
100
AcDbEntity
  8
001
 62
    60
370
    50
100
AcDbVertex
100
AcDb2dVertex
 10
67.296264
 20
56.799724
 30
0.0
  0
VERTEX
  5
186
330
182
100
AcDbEntity
  8
001
 62
    60
370
    50
100
AcDbVertex
100
AcDb2dVertex
 10
67.35614
 20
56.902152
 30
0.0
  0
VERTEX
  5
187
330
182
100
AcDbEntity
  8
001
 62
    60
370
    50
100
AcDbVertex
100
AcDb2dVertex
 10
67.400771
 20
56.999308
 30
0.0
  0
VERTEX
  5
188
330
182
100
AcDbEntity
  8
001
 62
    60
370
    50
100
AcDbVertex
100
AcDb2dVertex
 10
67.431852
 20
57.092589
 30
0.0
  0
VERTEX
  5
189
330
182
100
AcDbEntity
  8
001
 62
    60
370
    50
100
AcDbVertex
100
AcDb2dVertex
 10
67.456355
 20
57.19084
 30
0.0
  0
VERTEX
  5
18A
330
182
100
AcDbEntity
  8
001
 62
    60
370
    50
100
AcDbVertex
100
AcDb2dVertex
 10
67.473038
 20
57.293671
 30
0.0
  0
VERTEX
  5
18B
330
182
100
AcDbEntity
  8
001
 62
    60
370
    50
100
AcDbVertex
100
AcDb2dVertex
 10
67.463301
 20
57.60735
 30
0.0
  0
VERTEX
  5
18C
330
182
100
AcDbEntity
  8
001
 62
    60
370
    50
100
AcDbVertex
100
AcDb2dVertex
 10
67.382364
 20
57.899191
 30
0.0
  0
VERTEX
  5
18D
330
182
100
AcDbEntity
  8
001
 62
    60
370
    50
100
AcDbVertex
100
AcDb2dVertex
 10
67.294569
 20
58.070494
 30
0.0
  0
VERTEX
  5
18E
330
182
100
AcDbEntity
  8
001
 62
    60
370
    50
100
AcDbVertex
100
AcDb2dVertex
 10
67.155197
 20
58.244063
 30
0.0
  0
VERTEX
  5
18F
330
182
100
AcDbEntity
  8
001
 62
    60
370
    50
100
AcDbVertex
100
AcDb2dVertex
 10
67.142427
 20
58.257381
 30
0.0
  0
VERTEX
  5
190
330
182
100
AcDbEntity
  8
001
 62
    60
370
    50
100
AcDbVertex
100
AcDb2dVertex
 10
67.133545
 20
58.266488
 30
0.0
  0
SEQEND
  5
183
330
182
100
AcDbEntity
  8
001
370
    50
  0
POLYLINE
  5
191
330
1F
100
AcDbEntity
  8
001
 62
    60
370
    50
100
AcDb2dPolyline
 66
     1
 10
0.0
 20
0.0
 30
0.0
  0
VERTEX
  5
193
330
191
100
AcDbEntity
  8
001
 62
    60
370
    50
100
AcDbVertex
100
AcDb2dVertex
 10
67.564039
 20
57.149087
 30
0.0
  0
VERTEX
  5
194
330
191
100
AcDbEntity
  8
001
 62
    60
370
    50
100
AcDbVertex
100
AcDb2dVertex
 10
67.612101
 20
57.220665
 30
0.0
  0
VERTEX
  5
195
330
191
100
AcDbEntity
  8
001
 62
    60
370
    50
100
AcDbVertex
100
AcDb2dVertex
 10
67.671977
 20
57.323093
 30
0.0
  0
VERTEX
  5
196
330
191
100
AcDbEntity
  8
001
 62
    60
370
    50
100
AcDbVertex
100
AcDb2dVertex
 10
67.716608
 20
57.420249
 30
0.0
  0
VERTEX
  5
197
330
191
100
AcDbEntity
  8
001
 62
    60
370
    50
100
AcDbVertex
100
AcDb2dVertex
 10
67.747689
 20
57.51353
 30
0.0
  0
VERTEX
  5
198
330
191
100
AcDbEntity
  8
001
 62
    60
370
    50
100
AcDbVertex
100
AcDb2dVertex
 10
67.772192
 20
57.611781
 30
0.0
  0
VERTEX
  5
199
330
191
100
AcDbEntity
  8
001
 62
    60
370
    50
100
AcDbVertex
100
AcDb2dVertex
 10
67.788874
 20
57.714612
 30
0.0
  0
VERTEX
  5
19A
330
191
100
AcDbEntity
  8
001
 62
    60
370
    50
100
AcDbVertex
100
AcDb2dVertex
 10
67.779137
 20
58.028291
 30
0.0
  0
VERTEX
  5
19B
330
191
100
AcDbEntity
  8
001
 62
    60
370
    50
100
AcDbVertex
100
AcDb2dVertex
 10
67.698201
 20
58.320132
 30
0.0
  0
VERTEX
  5
19C
330
191
100
AcDbEntity
  8
001
 62
    60
370
    50
100
AcDbVertex
100
AcDb2dVertex
 10
67.610405
 20
58.491435
 30
0.0
  0
VERTEX
  5
19D
330
191
100
AcDbEntity
  8
001
 62
    60
370
    50
100
AcDbVertex
100
AcDb2dVertex
 10
67.471033
 20
58.665004
 30
0.0
  0
VERTEX
  5
19E
330
191
100
AcDbEntity
  8
001
 62
    60
370
    50
100
AcDbVertex
100
AcDb2dVertex
 10
67.458264
 20
58.678322
 30
0.0
  0
VERTEX
  5
19F
330
191
100
AcDbEntity
  8
001
 62
    60
370
    50
100
AcDbVertex
100
AcDb2dVertex
 10
67.449382
 20
58.687429
 30
0.0
  0
SEQEND
  5
192
330
191
100
AcDbEntity
  8
001
370
    50
  0
LINE
  5
1A0
330
1F
100
AcDbEntity
  8
001
 62
    60
370
    50
100
AcDbLine
 10
67.248203
 20
56.728146
 30
0.0
 11
67.564039
 21
57.149087
 31
0.0
  0
POLYLINE
  5
1A1
330
1F
100
AcDbEntity
  8
001
 62
    60
370
    50
100
AcDb2dPolyline
 66
     1
 10
0.0
 20
0.0
 30
0.0
  0
VERTEX
  5
1A3
330
1A1
100
AcDbEntity
  8
001
 62
    60
370
    50
100
AcDbVertex
100
AcDb2dVertex
 10
59.374074
 20
57.53484
 30
0.0
  0
VERTEX
  5
1A4
330
1A1
100
AcDbEntity
  8
001
 62
    60
370
    50
100
AcDbVertex
100
AcDb2dVertex
 10
59.414067
 20
57.210028
 30
0.0
  0
VERTEX
  5
1A5
330
1A1
100
AcDbEntity
  8
001
 62
    60
370
    50
100
AcDbVertex
100
AcDb2dVertex
 10
59.531291
 20
56.779892
 30
0.0
  0
VERTEX
  5
1A6
330
1A1
100
AcDbEntity
  8
001
 62
    60
370
    50
100
AcDbVertex
100
AcDb2dVertex
 10
59.689348
 20
56.476117
 30
0.0
  0
VERTEX
  5
1A7
330
1A1
100
AcDbEntity
  8
001
 62
    60
370
    50
100
AcDbVertex
100
AcDb2dVertex
 10
59.894645
 20
56.228271
 30
0.0
  0
VERTEX
  5
1A8
330
1A1
100
AcDbEntity
  8
001
 62
    60
370
    50
100
AcDbVertex
100
AcDb2dVertex
 10
60.013657
 20
56.113405
 30
0.0
  0
VERTEX
  5
1A9
330
1A1
100
AcDbEntity
  8
001
 62
    60
370
    50
100
AcDbVertex
100
AcDb2dVertex
 10
60.142115
 20
56.006908
 30
0.0
  0
VERTEX
  5
1AA
330
1A1
100
AcDbEntity
  8
001
 62
    60
370
    50
100
AcDbVertex
100
AcDb2dVertex
 10
60.279144
 20
55.912666
 30
0.0
  0
VERTEX
  5
1AB
330
1A1
100
AcDbEntity
  8
001
 62
    60
370
    50
100
AcDbVertex
100
AcDb2dVertex
 10
60.423846
 20
55.831206
 30
0.0
  0
VERTEX
  5
1AC
330
1A1
100
AcDbEntity
  8
001
 62
    60
370
    50
100
AcDbVertex
100
AcDb2dVertex
 10
60.730629
 20
55.707064
 30
0.0
  0
VERTEX
  5
1AD
330
1A1
100
AcDbEntity
  8
001
 62
    60
370
    50
100
AcDbVertex
100
AcDb2dVertex
 10
61.055063
 20
55.636588
 30
0.0
  0
VERTEX
  5
1AE
330
1A1
100
AcDbEntity
  8
001
 62
    60
370
    50
100
AcDbVertex
100
AcDb2dVertex
 10
61.548215
 20
55.637952
 30
0.0
  0
VERTEX
  5
1AF
330
1A1
100
AcDbEntity
  8
001
 62
    60
370
    50
100
AcDbVertex
100
AcDb2dVertex
 10
62.025511
 20
55.768159
 30
0.0
  0
VERTEX
  5
1B0
330
1A1
100
AcDbEntity
  8
001
 62
    60
370
    50
100
AcDbVertex
100
AcDb2dVertex
 10
62.175511
 20
55.840023
 30
0.0
  0
VERTEX
  5
1B1
330
1A1
100
AcDbEntity
  8
001
 62
    60
370
    50
100
AcDbVertex
100
AcDb2dVertex
 10
62.315891
 20
55.921341
 30
0.0
  0
VERTEX
  5
1B2
330
1A1
100
AcDbEntity
  8
001
 62
    60
370
    50
100
AcDbVertex
100
AcDb2dVertex
 10
62.445362
 20
56.010725
 30
0.0
  0
VERTEX
  5
1B3
330
1A1
100
AcDbEntity
  8
001
 62
    60
370
    50
100
AcDbVertex
100
AcDb2dVertex
 10
62.574482
 20
56.122784
 30
0.0
  0
VERTEX
  5
1B4
330
1A1
100
AcDbEntity
  8
001
 62
    60
370
    50
100
AcDbVertex
100
AcDb2dVertex
 10
62.704977
 20
56.260559
 30
0.0
  0
VERTEX
  5
1B5
330
1A1
100
AcDbEntity
  8
001
 62
    60
370
    50
100
AcDbVertex
100
AcDb2dVertex
 10
62.793427
 20
56.366367
 30
0.0
  0
SEQEND
  5
1A2
330
1A1
100
AcDbEntity
  8
001
370
    50
  0
POLYLINE
  5
1B6
330
1F
100
AcDbEntity
  8
001
 62
    60
370
    50
100
AcDb2dPolyline
 66
     1
 10
0.0
 20
0.0
 30
0.0
  0
VERTEX
  5
1B8
330
1B6
100
AcDbEntity
  8
001
 62
    60
370
    50
100
AcDbVertex
100
AcDb2dVertex
 10
62.793427
 20
56.366367
 30
0.0
  0
VERTEX
  5
1B9
330
1B6
100
AcDbEntity
  8
001
 62
    60
370
    50
100
AcDbVertex
100
AcDb2dVertex
 10
62.870283
 20
56.480875
 30
0.0
  0
VERTEX
  5
1BA
330
1B6
100
AcDbEntity
  8
001
 62
    60
370
    50
100
AcDbVertex
100
AcDb2dVertex
 10
62.966073
 20
56.644688
 30
0.0
  0
VERTEX
  5
1BB
330
1B6
100
AcDbEntity
  8
001
 62
    60
370
    50
100
AcDbVertex
100
AcDb2dVertex
 10
63.037556
 20
56.799992
 30
0.0
  0
VERTEX
  5
1BC
330
1B6
100
AcDbEntity
  8
001
 62
    60
370
    50
100
AcDbVertex
100
AcDb2dVertex
 10
63.087173
 20
56.949291
 30
0.0
  0
VERTEX
  5
1BD
330
1B6
100
AcDbEntity
  8
001
 62
    60
370
    50
100
AcDbVertex
100
AcDb2dVertex
 10
63.126
 20
57.106811
 30
0.0
  0
VERTEX
  5
1BE
330
1B6
100
AcDbEntity
  8
001
 62
    60
370
    50
100
AcDbVertex
100
AcDb2dVertex
 10
63.15305
 20
57.270921
 30
0.0
  0
VERTEX
  5
1BF
330
1B6
100
AcDbEntity
  8
001
 62
    60
370
    50
100
AcDbVertex
100
AcDb2dVertex
 10
63.144515
 20
57.76556
 30
0.0
  0
VERTEX
  5
1C0
330
1B6
100
AcDbEntity
  8
001
 62
    60
370
    50
100
AcDbVertex
100
AcDb2dVertex
 10
63.008019
 20
58.239449
 30
0.0
  0
VERTEX
  5
1C1
330
1B6
100
AcDbEntity
  8
001
 62
    60
370
    50
100
AcDbVertex
100
AcDb2dVertex
 10
62.84986
 20
58.531302
 30
0.0
  0
VERTEX
  5
1C2
330
1B6
100
AcDbEntity
  8
001
 62
    60
370
    50
100
AcDbVertex
100
AcDb2dVertex
 10
62.644665
 20
58.791069
 30
0.0
  0
VERTEX
  5
1C3
330
1B6
100
AcDbEntity
  8
001
 62
    60
370
    50
100
AcDbVertex
100
AcDb2dVertex
 10
62.525663
 20
58.907123
 30
0.0
  0
VERTEX
  5
1C4
330
1B6
100
AcDbEntity
  8
001
 62
    60
370
    50
100
AcDbVertex
100
AcDb2dVertex
 10
62.397194
 20
59.012432
 30
0.0
  0
VERTEX
  5
1C5
330
1B6
100
AcDbEntity
  8
001
 62
    60
370
    50
100
AcDbVertex
100
AcDb2dVertex
 10
62.260163
 20
59.10633
 30
0.0
  0
VERTEX
  5
1C6
330
1B6
100
AcDbEntity
  8
001
 62
    60
370
    50
100
AcDbVertex
100
AcDb2dVertex
 10
62.115464
 20
59.188134
 30
0.0
  0
VERTEX
  5
1C7
330
1B6
100
AcDbEntity
  8
001
 62
    60
370
    50
100
AcDbVertex
100
AcDb2dVertex
 10
61.808682
 20
59.31251
 30
0.0
  0
VERTEX
  5
1C8
330
1B6
100
AcDbEntity
  8
001
 62
    60
370
    50
100
AcDbVertex
100
AcDb2dVertex
 10
61.484246
 20
59.382752
 30
0.0
  0
VERTEX
  5
1C9
330
1B6
100
AcDbEntity
  8
001
 62
    60
370
    50
100
AcDbVertex
100
AcDb2dVertex
 10
60.991094
 20
59.381296
 30
0.0
  0
VERTEX
  5
1CA
330
1B6
100
AcDbEntity
  8
001
 62
    60
370
    50
100
AcDbVertex
100
AcDb2dVertex
 10
60.513799
 20
59.251181
 30
0.0
  0
VERTEX
  5
1CB
330
1B6
100
AcDbEntity
  8
001
 62
    60
370
    50
100
AcDbVertex
100
AcDb2dVertex
 10
60.363799
 20
59.179323
 30
0.0
  0
VERTEX
  5
1CC
330
1B6
100
AcDbEntity
  8
001
 62
    60
370
    50
100
AcDbVertex
100
AcDb2dVertex
 10
60.223418
 20
59.097999
 30
0.0
  0
VERTEX
  5
1CD
330
1B6
100
AcDbEntity
  8
001
 62
    60
370
    50
100
AcDbVertex
100
AcDb2dVertex
 10
60.093948
 20
59.008614
 30
0.0
  0
VERTEX
  5
1CE
330
1B6
100
AcDbEntity
  8
001
 62
    60
370
    50
100
AcDbVertex
100
AcDb2dVertex
 10
59.964827
 20
58.896556
 30
0.0
  0
VERTEX
  5
1CF
330
1B6
100
AcDbEntity
  8
001
 62
    60
370
    50
100
AcDbVertex
100
AcDb2dVertex
 10
59.834333
 20
58.758782
 30
0.0
  0
VERTEX
  5
1D0
330
1B6
100
AcDbEntity
  8
001
 62
    60
370
    50
100
AcDbVertex
100
AcDb2dVertex
 10
59.745883
 20
58.652974
 30
0.0
  0
SEQEND
  5
1B7
330
1B6
100
AcDbEntity
  8
001
370
    50
  0
POLYLINE
  5
1D1
330
1F
100
AcDbEntity
  8
001
 62
    60
370
    50
100
AcDb2dPolyline
 66
     1
 10
0.0
 20
0.0
 30
0.0
  0
VERTEX
  5
1D3
330
1D1
100
AcDbEntity
  8
001
 62
    60
370
    50
100
AcDbVertex
100
AcDb2dVertex
 10
55.291107
 20
58.291194
 30
0.0
  0
VERTEX
  5
1D4
330
1D1
100
AcDbEntity
  8
001
 62
    60
370
    50
100
AcDbVertex
100
AcDb2dVertex
 10
55.243045
 20
58.219617
 30
0.0
  0
VERTEX
  5
1D5
330
1D1
100
AcDbEntity
  8
001
 62
    60
370
    50
100
AcDbVertex
100
AcDb2dVertex
 10
55.18317
 20
58.117189
 30
0.0
  0
VERTEX
  5
1D6
330
1D1
100
AcDbEntity
  8
001
 62
    60
370
    50
100
AcDbVertex
100
AcDb2dVertex
 10
55.138539
 20
58.020033
 30
0.0
  0
VERTEX
  5
1D7
330
1D1
100
AcDbEntity
  8
001
 62
    60
370
    50
100
AcDbVertex
100
AcDb2dVertex
 10
55.107458
 20
57.926752
 30
0.0
  0
VERTEX
  5
1D8
330
1D1
100
AcDbEntity
  8
001
 62
    60
370
    50
100
AcDbVertex
100
AcDb2dVertex
 10
55.082955
 20
57.828501
 30
0.0
  0
VERTEX
  5
1D9
330
1D1
100
AcDbEntity
  8
001
 62
    60
370
    50
100
AcDbVertex
100
AcDb2dVertex
 10
55.066272
 20
57.72567
 30
0.0
  0
VERTEX
  5
1DA
330
1D1
100
AcDbEntity
  8
001
 62
    60
370
    50
100
AcDbVertex
100
AcDb2dVertex
 10
55.076009
 20
57.411991
 30
0.0
  0
VERTEX
  5
1DB
330
1D1
100
AcDbEntity
  8
001
 62
    60
370
    50
100
AcDbVertex
100
AcDb2dVertex
 10
55.156945
 20
57.120149
 30
0.0
  0
VERTEX
  5
1DC
330
1D1
100
AcDbEntity
  8
001
 62
    60
370
    50
100
AcDbVertex
100
AcDb2dVertex
 10
55.244741
 20
56.948847
 30
0.0
  0
VERTEX
  5
1DD
330
1D1
100
AcDbEntity
  8
001
 62
    60
370
    50
100
AcDbVertex
100
AcDb2dVertex
 10
55.384113
 20
56.775278
 30
0.0
  0
VERTEX
  5
1DE
330
1D1
100
AcDbEntity
  8
001
 62
    60
370
    50
100
AcDbVertex
100
AcDb2dVertex
 10
55.396882
 20
56.76196
 30
0.0
  0
VERTEX
  5
1DF
330
1D1
100
AcDbEntity
  8
001
 62
    60
370
    50
100
AcDbVertex
100
AcDb2dVertex
 10
55.405765
 20
56.752852
 30
0.0
  0
SEQEND
  5
1D2
330
1D1
100
AcDbEntity
  8
001
370
    50
  0
LINE
  5
1E0
330
1F
100
AcDbEntity
  8
001
 62
    60
370
    50
100
AcDbLine
 10
55.606944
 20
58.712135
 30
0.0
 11
55.291107
 21
58.291194
 31
0.0
  0
POLYLINE
  5
1E1
330
1F
100
AcDbEntity
  8
001
 62
    60
370
    50
100
AcDb2dPolyline
 66
     1
 10
0.0
 20
0.0
 30
0.0
  0
VERTEX
  5
1E3
330
1E1
100
AcDbEntity
  8
001
 62
    60
370
    50
100
AcDbVertex
100
AcDb2dVertex
 10
55.721601
 20
58.843152
 30
0.0
  0
VERTEX
  5
1E4
330
1E1
100
AcDbEntity
  8
001
 62
    60
370
    50
100
AcDbVertex
100
AcDb2dVertex
 10
55.696781
 20
58.817898
 30
0.0
  0
VERTEX
  5
1E5
330
1E1
100
AcDbEntity
  8
001
 62
    60
370
    50
100
AcDbVertex
100
AcDb2dVertex
 10
55.661804
 20
58.779795
 30
0.0
  0
VERTEX
  5
1E6
330
1E1
100
AcDbEntity
  8
001
 62
    60
370
    50
100
AcDbVertex
100
AcDb2dVertex
 10
55.628681
 20
58.74008
 30
0.0
  0
VERTEX
  5
1E7
330
1E1
100
AcDbEntity
  8
001
 62
    60
370
    50
100
AcDbVertex
100
AcDb2dVertex
 10
55.606944
 20
58.712135
 30
0.0
  0
SEQEND
  5
1E2
330
1E1
100
AcDbEntity
  8
001
370
    50
  0
LINE
  5
1E8
330
1F
100
AcDbEntity
  8
001
 62
    60
370
    50
100
AcDbLine
 10
56.95935
 20
103.686106
 30
0.0
 11
55.721601
 21
104.543657
 31
0.0
  0
POLYLINE
  5
1E9
330
1F
100
AcDbEntity
  8
001
 62
    60
370
    50
100
AcDb2dPolyline
 66
     1
 10
0.0
 20
0.0
 30
0.0
  0
VERTEX
  5
1EB
330
1E9
100
AcDbEntity
  8
001
 62
    60
370
    50
100
AcDbVertex
100
AcDb2dVertex
 10
55.377953
 20
105.140744
 30
0.0
  0
VERTEX
  5
1EC
330
1E9
100
AcDbEntity
  8
001
 62
    60
370
    50
100
AcDbVertex
100
AcDb2dVertex
 10
55.375797
 20
105.087339
 30
0.0
  0
VERTEX
  5
1ED
330
1E9
100
AcDbEntity
  8
001
 62
    60
370
    50
100
AcDbVertex
100
AcDb2dVertex
 10
55.380185
 20
105.013777
 30
0.0
  0
VERTEX
  5
1EE
330
1E9
100
AcDbEntity
  8
001
 62
    60
370
    50
100
AcDbVertex
100
AcDb2dVertex
 10
55.395117
 20
104.945551
 30
0.0
  0
VERTEX
  5
1EF
330
1E9
100
AcDbEntity
  8
001
 62
    60
370
    50
100
AcDbVertex
100
AcDb2dVertex
 10
55.418253
 20
104.886143
 30
0.0
  0
VERTEX
  5
1F0
330
1E9
100
AcDbEntity
  8
001
 62
    60
370
    50
100
AcDbVertex
100
AcDb2dVertex
 10
55.449712
 20
104.824002
 30
0.0
  0
VERTEX
  5
1F1
330
1E9
100
AcDbEntity
  8
001
 62
    60
370
    50
100
AcDbVertex
100
AcDb2dVertex
 10
55.491001
 20
104.761718
 30
0.0
  0
VERTEX
  5
1F2
330
1E9
100
AcDbEntity
  8
001
 62
    60
370
    50
100
AcDbVertex
100
AcDb2dVertex
 10
55.616289
 20
104.629466
 30
0.0
  0
VERTEX
  5
1F3
330
1E9
100
AcDbEntity
  8
001
 62
    60
370
    50
100
AcDbVertex
100
AcDb2dVertex
 10
55.721601
 20
104.543657
 30
0.0
  0
SEQEND
  5
1EA
330
1E9
100
AcDbEntity
  8
001
370
    50
  0
LINE
  5
1F4
330
1F
100
AcDbEntity
  8
001
 62
    60
370
    50
100
AcDbLine
 10
55.721601
 20
105.572382
 30
0.0
 11
55.758654
 21
105.592196
 31
0.0
  0
POLYLINE
  5
1F5
330
1F
100
AcDbEntity
  8
001
 62
    60
370
    50
100
AcDb2dPolyline
 66
     1
 10
0.0
 20
0.0
 30
0.0
  0
VERTEX
  5
1F7
330
1F5
100
AcDbEntity
  8
001
 62
    60
370
    50
100
AcDbVertex
100
AcDb2dVertex
 10
55.721601
 20
105.572382
 30
0.0
  0
VERTEX
  5
1F8
330
1F5
100
AcDbEntity
  8
001
 62
    60
370
    50
100
AcDbVertex
100
AcDb2dVertex
 10
55.660911
 20
105.53593
 30
0.0
  0
VERTEX
  5
1F9
330
1F5
100
AcDbEntity
  8
001
 62
    60
370
    50
100
AcDbVertex
100
AcDb2dVertex
 10
55.581527
 20
105.479857
 30
0.0
  0
VERTEX
  5
1FA
330
1F5
100
AcDbEntity
  8
001
 62
    60
370
    50
100
AcDbVertex
100
AcDb2dVertex
 10
55.52543
 20
105.429204
 30
0.0
  0
VERTEX
  5
1FB
330
1F5
100
AcDbEntity
  8
001
 62
    60
370
    50
100
AcDbVertex
100
AcDb2dVertex
 10
55.480177
 20
105.377379
 30
0.0
  0
VERTEX
  5
1FC
330
1F5
100
AcDbEntity
  8
001
 62
    60
370
    50
100
AcDbVertex
100
AcDb2dVertex
 10
55.443172
 20
105.325703
 30
0.0
  0
VERTEX
  5
1FD
330
1F5
100
AcDbEntity
  8
001
 62
    60
370
    50
100
AcDbVertex
100
AcDb2dVertex
 10
55.411624
 20
105.263184
 30
0.0
  0
VERTEX
  5
1FE
330
1F5
100
AcDbEntity
  8
001
 62
    60
370
    50
100
AcDbVertex
100
AcDb2dVertex
 10
55.38909
 20
105.192988
 30
0.0
  0
VERTEX
  5
1FF
330
1F5
100
AcDbEntity
  8
001
 62
    60
370
    50
100
AcDbVertex
100
AcDb2dVertex
 10
55.377953
 20
105.140744
 30
0.0
  0
SEQEND
  5
1F6
330
1F5
100
AcDbEntity
  8
001
370
    50
  0
LINE
  5
200
330
1F
100
AcDbEntity
  8
001
 62
    60
370
    50
100
AcDbLine
 10
55.377953
 20
105.140744
 30
0.0
 11
55.062116
 21
102.635226
 31
0.0
  0
POLYLINE
  5
201
330
1F
100
AcDbEntity
  8
001
 62
    60
370
    50
100
AcDb2dPolyline
 66
     1
 10
0.0
 20
0.0
 30
0.0
  0
VERTEX
  5
203
330
201
100
AcDbEntity
  8
001
 62
    60
370
    50
100
AcDbVertex
100
AcDb2dVertex
 10
55.05877
 20
102.590141
 30
0.0
  0
VERTEX
  5
204
330
201
100
AcDbEntity
  8
001
 62
    60
370
    50
100
AcDbVertex
100
AcDb2dVertex
 10
55.059446
 20
102.556732
 30
0.0
  0
VERTEX
  5
205
330
201
100
AcDbEntity
  8
001
 62
    60
370
    50
100
AcDbVertex
100
AcDb2dVertex
 10
55.064348
 20
102.50826
 30
0.0
  0
VERTEX
  5
206
330
201
100
AcDbEntity
  8
001
 62
    60
370
    50
100
AcDbVertex
100
AcDb2dVertex
 10
55.067878
 20
102.488733
 30
0.0
  0
VERTEX
  5
207
330
201
100
AcDbEntity
  8
001
 62
    60
370
    50
100
AcDbVertex
100
AcDb2dVertex
 10
55.070719
 20
102.475446
 30
0.0
  0
SEQEND
  5
202
330
201
100
AcDbEntity
  8
001
370
    50
  0
POLYLINE
  5
208
330
1F
100
AcDbEntity
  8
001
 62
     5
370
    50
100
AcDb2dPolyline
 66
     1
 10
0.0
 20
0.0
 30
0.0
  0
VERTEX
  5
20A
330
208
100
AcDbEntity
  8
001
 62
     5
370
    50
100
AcDbVertex
100
AcDb2dVertex
 10
62.902612
 20
114.189726
 30
0.0
  0
VERTEX
  5
20B
330
208
100
AcDbEntity
  8
001
 62
     5
370
    50
100
AcDbVertex
100
AcDb2dVertex
 10
62.859009
 20
114.196347
 30
0.0
  0
VERTEX
  5
20C
330
208
100
AcDbEntity
  8
001
 62
     5
370
    50
100
AcDbVertex
100
AcDb2dVertex
 10
62.796946
 20
114.204987
 30
0.0
  0
VERTEX
  5
20D
330
208
100
AcDbEntity
  8
001
 62
     5
370
    50
100
AcDbVertex
100
AcDb2dVertex
 10
62.630909
 20
114.221956
 30
0.0
  0
VERTEX
  5
20E
330
208
100
AcDbEntity
  8
001
 62
     5
370
    50
100
AcDbVertex
100
AcDb2dVertex
 10
62.484755
 20
114.227589
 30
0.0
  0
VERTEX
  5
20F
330
208
100
AcDbEntity
  8
001
 62
     5
370
    50
100
AcDbVertex
100
AcDb2dVertex
 10
62.191861
 20
114.217646
 30
0.0
  0
VERTEX
  5
210
330
208
100
AcDbEntity
  8
001
 62
     5
370
    50
100
AcDbVertex
100
AcDb2dVertex
 10
61.885683
 20
114.172138
 30
0.0
  0
VERTEX
  5
211
330
208
100
AcDbEntity
  8
001
 62
     5
370
    50
100
AcDbVertex
100
AcDb2dVertex
 10
61.505159
 20
114.047527
 30
0.0
  0
VERTEX
  5
212
330
208
100
AcDbEntity
  8
001
 62
     5
370
    50
100
AcDbVertex
100
AcDb2dVertex
 10
61.181933
 20
113.857273
 30
0.0
  0
VERTEX
  5
213
330
208
100
AcDbEntity
  8
001
 62
     5
370
    50
100
AcDbVertex
100
AcDb2dVertex
 10
61.105916
 20
113.790675
 30
0.0
  0
VERTEX
  5
214
330
208
100
AcDbEntity
  8
001
 62
     5
370
    50
100
AcDbVertex
100
AcDb2dVertex
 10
61.028759
 20
113.702393
 30
0.0
  0
VERTEX
  5
215
330
208
100
AcDbEntity
  8
001
 62
     5
370
    50
100
AcDbVertex
100
AcDb2dVertex
 10
61.014055
 20
113.682954
 30
0.0
  0
VERTEX
  5
216
330
208
100
AcDbEntity
  8
001
 62
     5
370
    50
100
AcDbVertex
100
AcDb2dVertex
 10
61.004041
 20
113.669262
 30
0.0
  0
SEQEND
  5
209
330
208
100
AcDbEntity
  8
001
370
    50
  0
LINE
  5
217
330
1F
100
AcDbEntity
  8
001
 62
     5
370
    50
100
AcDbLine
 10
61.397241
 20
113.88969
 30
0.0
 11
61.601457
 21
113.833034
 31
0.0
  0
LINE
  5
218
330
1F
100
AcDbEntity
  8
001
 62
     5
370
    50
100
AcDbLine
 10
61.363485
 20
113.772936
 30
0.0
 11
61.397241
 21
113.88969
 31
0.0
  0
LINE
  5
219
330
1F
100
AcDbEntity
  8
001
 62
     5
370
    50
100
AcDbLine
 10
61.382188
 20
113.770277
 30
0.0
 11
61.397241
 21
113.88969
 31
0.0
  0
POLYLINE
  5
21A
330
1F
100
AcDbEntity
  8
001
 62
     5
370
    50
100
AcDb2dPolyline
 66
     1
 10
0.0
 20
0.0
 30
0.0
  0
VERTEX
  5
21C
330
21A
100
AcDbEntity
  8
001
 62
     5
370
    50
100
AcDbVertex
100
AcDb2dVertex
 10
61.642242
 20
55.743343
 30
0.0
  0
VERTEX
  5
21D
330
21A
100
AcDbEntity
  8
001
 62
     5
370
    50
100
AcDbVertex
100
AcDb2dVertex
 10
61.809602
 20
55.783932
 30
0.0
  0
VERTEX
  5
21E
330
21A
100
AcDbEntity
  8
001
 62
     5
370
    50
100
AcDbVertex
100
AcDb2dVertex
 10
62.033484
 20
55.858151
 30
0.0
  0
VERTEX
  5
21F
330
21A
100
AcDbEntity
  8
001
 62
     5
370
    50
100
AcDbVertex
100
AcDb2dVertex
 10
62.184802
 20
55.928842
 30
0.0
  0
VERTEX
  5
220
330
21A
100
AcDbEntity
  8
001
 62
     5
370
    50
100
AcDbVertex
100
AcDb2dVertex
 10
62.315481
 20
56.00691
 30
0.0
  0
VERTEX
  5
221
330
21A
100
AcDbEntity
  8
001
 62
     5
370
    50
100
AcDbVertex
100
AcDb2dVertex
 10
62.43973
 20
56.093476
 30
0.0
  0
VERTEX
  5
222
330
21A
100
AcDbEntity
  8
001
 62
     5
370
    50
100
AcDbVertex
100
AcDb2dVertex
 10
62.566606
 20
56.202537
 30
0.0
  0
VERTEX
  5
223
330
21A
100
AcDbEntity
  8
001
 62
     5
370
    50
100
AcDbVertex
100
AcDb2dVertex
 10
62.693629
 20
56.336381
 30
0.0
  0
VERTEX
  5
224
330
21A
100
AcDbEntity
  8
001
 62
     5
370
    50
100
AcDbVertex
100
AcDb2dVertex
 10
62.77923
 20
56.439087
 30
0.0
  0
SEQEND
  5
21B
330
21A
100
AcDbEntity
  8
001
370
    50
  0
POLYLINE
  5
225
330
1F
100
AcDbEntity
  8
001
 62
     5
370
    50
100
AcDb2dPolyline
 66
     1
 10
0.0
 20
0.0
 30
0.0
  0
VERTEX
  5
227
330
225
100
AcDbEntity
  8
001
 62
     5
370
    50
100
AcDbVertex
100
AcDb2dVertex
 10
60.02984
 20
58.439917
 30
0.0
  0
VERTEX
  5
228
330
225
100
AcDbEntity
  8
001
 62
     5
370
    50
100
AcDbVertex
100
AcDb2dVertex
 10
59.954593
 20
58.329804
 30
0.0
  0
VERTEX
  5
229
330
225
100
AcDbEntity
  8
001
 62
     5
370
    50
100
AcDbVertex
100
AcDb2dVertex
 10
59.889367
 20
58.213462
 30
0.0
  0
VERTEX
  5
22A
330
225
100
AcDbEntity
  8
001
 62
     5
370
    50
100
AcDbVertex
100
AcDb2dVertex
 10
59.834646
 20
58.091685
 30
0.0
  0
VERTEX
  5
22B
330
225
100
AcDbEntity
  8
001
 62
     5
370
    50
100
AcDbVertex
100
AcDb2dVertex
 10
59.790834
 20
57.965622
 30
0.0
  0
VERTEX
  5
22C
330
225
100
AcDbEntity
  8
001
 62
     5
370
    50
100
AcDbVertex
100
AcDb2dVertex
 10
59.758208
 20
57.836077
 30
0.0
  0
VERTEX
  5
22D
330
225
100
AcDbEntity
  8
001
 62
     5
370
    50
100
AcDbVertex
100
AcDb2dVertex
 10
59.737234
 20
57.703928
 30
0.0
  0
VERTEX
  5
22E
330
225
100
AcDbEntity
  8
001
 62
     5
370
    50
100
AcDbVertex
100
AcDb2dVertex
 10
59.745217
 20
57.302851
 30
0.0
  0
VERTEX
  5
22F
330
225
100
AcDbEntity
  8
001
 62
     5
370
    50
100
AcDbVertex
100
AcDb2dVertex
 10
59.855238
 20
56.915887
 30
0.0
  0
VERTEX
  5
230
330
225
100
AcDbEntity
  8
001
 62
     5
370
    50
100
AcDbVertex
100
AcDb2dVertex
 10
59.98378
 20
56.67823
 30
0.0
  0
VERTEX
  5
231
330
225
100
AcDbEntity
  8
001
 62
     5
370
    50
100
AcDbVertex
100
AcDb2dVertex
 10
60.15088
 20
56.467062
 30
0.0
  0
VERTEX
  5
232
330
225
100
AcDbEntity
  8
001
 62
     5
370
    50
100
AcDbVertex
100
AcDb2dVertex
 10
60.247716
 20
56.372649
 30
0.0
  0
VERTEX
  5
233
330
225
100
AcDbEntity
  8
001
 62
     5
370
    50
100
AcDbVertex
100
AcDb2dVertex
 10
60.352234
 20
56.286951
 30
0.0
  0
VERTEX
  5
234
330
225
100
AcDbEntity
  8
001
 62
     5
370
    50
100
AcDbVertex
100
AcDb2dVertex
 10
60.46374
 20
56.210564
 30
0.0
  0
VERTEX
  5
235
330
225
100
AcDbEntity
  8
001
 62
     5
370
    50
100
AcDbVertex
100
AcDb2dVertex
 10
60.581464
 20
56.143991
 30
0.0
  0
VERTEX
  5
236
330
225
100
AcDbEntity
  8
001
 62
     5
370
    50
100
AcDbVertex
100
AcDb2dVertex
 10
60.830933
 20
56.042602
 30
0.0
  0
VERTEX
  5
237
330
225
100
AcDbEntity
  8
001
 62
     5
370
    50
100
AcDbVertex
100
AcDb2dVertex
 10
61.095053
 20
55.98564
 30
0.0
  0
VERTEX
  5
238
330
225
100
AcDbEntity
  8
001
 62
     5
370
    50
100
AcDbVertex
100
AcDb2dVertex
 10
61.497345
 20
55.98821
 30
0.0
  0
VERTEX
  5
239
330
225
100
AcDbEntity
  8
001
 62
     5
370
    50
100
AcDbVertex
100
AcDb2dVertex
 10
61.884656
 20
56.092693
 30
0.0
  0
VERTEX
  5
23A
330
225
100
AcDbEntity
  8
001
 62
     5
370
    50
100
AcDbVertex
100
AcDb2dVertex
 10
62.005669
 20
56.149782
 30
0.0
  0
VERTEX
  5
23B
330
225
100
AcDbEntity
  8
001
 62
     5
370
    50
100
AcDbVertex
100
AcDb2dVertex
 10
62.120923
 20
56.217329
 30
0.0
  0
VERTEX
  5
23C
330
225
100
AcDbEntity
  8
001
 62
     5
370
    50
100
AcDbVertex
100
AcDb2dVertex
 10
62.229707
 20
56.294643
 30
0.0
  0
VERTEX
  5
23D
330
225
100
AcDbEntity
  8
001
 62
     5
370
    50
100
AcDbVertex
100
AcDb2dVertex
 10
62.331326
 20
56.381233
 30
0.0
  0
VERTEX
  5
23E
330
225
100
AcDbEntity
  8
001
 62
     5
370
    50
100
AcDbVertex
100
AcDb2dVertex
 10
62.424789
 20
56.476389
 30
0.0
  0
VERTEX
  5
23F
330
225
100
AcDbEntity
  8
001
 62
     5
370
    50
100
AcDbVertex
100
AcDb2dVertex
 10
62.509469
 20
56.579423
 30
0.0
  0
VERTEX
  5
240
330
225
100
AcDbEntity
  8
001
 62
     5
370
    50
100
AcDbVertex
100
AcDb2dVertex
 10
62.584716
 20
56.689536
 30
0.0
  0
VERTEX
  5
241
330
225
100
AcDbEntity
  8
001
 62
     5
370
    50
100
AcDbVertex
100
AcDb2dVertex
 10
62.649942
 20
56.805879
 30
0.0
  0
VERTEX
  5
242
330
225
100
AcDbEntity
  8
001
 62
     5
370
    50
100
AcDbVertex
100
AcDb2dVertex
 10
62.704664
 20
56.927656
 30
0.0
  0
VERTEX
  5
243
330
225
100
AcDbEntity
  8
001
 62
     5
370
    50
100
AcDbVertex
100
AcDb2dVertex
 10
62.748476
 20
57.053719
 30
0.0
  0
VERTEX
  5
244
330
225
100
AcDbEntity
  8
001
 62
     5
370
    50
100
AcDbVertex
100
AcDb2dVertex
 10
62.781102
 20
57.183263
 30
0.0
  0
VERTEX
  5
245
330
225
100
AcDbEntity
  8
001
 62
     5
370
    50
100
AcDbVertex
100
AcDb2dVertex
 10
62.802076
 20
57.315413
 30
0.0
  0
VERTEX
  5
246
330
225
100
AcDbEntity
  8
001
 62
     5
370
    50
100
AcDbVertex
100
AcDb2dVertex
 10
62.794092
 20
57.71649
 30
0.0
  0
VERTEX
  5
247
330
225
100
AcDbEntity
  8
001
 62
     5
370
    50
100
AcDbVertex
100
AcDb2dVertex
 10
62.684072
 20
58.103453
 30
0.0
  0
VERTEX
  5
248
330
225
100
AcDbEntity
  8
001
 62
     5
370
    50
100
AcDbVertex
100
AcDb2dVertex
 10
62.555529
 20
58.34111
 30
0.0
  0
VERTEX
  5
249
330
225
100
AcDbEntity
  8
001
 62
     5
370
    50
100
AcDbVertex
100
AcDb2dVertex
 10
62.388429
 20
58.552278
 30
0.0
  0
VERTEX
  5
24A
330
225
100
AcDbEntity
  8
001
 62
     5
370
    50
100
AcDbVertex
100
AcDb2dVertex
 10
62.291593
 20
58.646691
 30
0.0
  0
VERTEX
  5
24B
330
225
100
AcDbEntity
  8
001
 62
     5
370
    50
100
AcDbVertex
100
AcDb2dVertex
 10
62.187075
 20
58.73239
 30
0.0
  0
VERTEX
  5
24C
330
225
100
AcDbEntity
  8
001
 62
     5
370
    50
100
AcDbVertex
100
AcDb2dVertex
 10
62.07557
 20
58.808776
 30
0.0
  0
VERTEX
  5
24D
330
225
100
AcDbEntity
  8
001
 62
     5
370
    50
100
AcDbVertex
100
AcDb2dVertex
 10
61.957846
 20
58.87535
 30
0.0
  0
VERTEX
  5
24E
330
225
100
AcDbEntity
  8
001
 62
     5
370
    50
100
AcDbVertex
100
AcDb2dVertex
 10
61.708377
 20
58.976738
 30
0.0
  0
VERTEX
  5
24F
330
225
100
AcDbEntity
  8
001
 62
     5
370
    50
100
AcDbVertex
100
AcDb2dVertex
 10
61.444257
 20
59.0337
 30
0.0
  0
VERTEX
  5
250
330
225
100
AcDbEntity
  8
001
 62
     5
370
    50
100
AcDbVertex
100
AcDb2dVertex
 10
61.041965
 20
59.031131
 30
0.0
  0
VERTEX
  5
251
330
225
100
AcDbEntity
  8
001
 62
     5
370
    50
100
AcDbVertex
100
AcDb2dVertex
 10
60.654654
 20
58.926648
 30
0.0
  0
VERTEX
  5
252
330
225
100
AcDbEntity
  8
001
 62
     5
370
    50
100
AcDbVertex
100
AcDb2dVertex
 10
60.533641
 20
58.869559
 30
0.0
  0
VERTEX
  5
253
330
225
100
AcDbEntity
  8
001
 62
     5
370
    50
100
AcDbVertex
100
AcDb2dVertex
 10
60.418386
 20
58.802011
 30
0.0
  0
VERTEX
  5
254
330
225
100
AcDbEntity
  8
001
 62
     5
370
    50
100
AcDbVertex
100
AcDb2dVertex
 10
60.309602
 20
58.724698
 30
0.0
  0
VERTEX
  5
255
330
225
100
AcDbEntity
  8
001
 62
     5
370
    50
100
AcDbVertex
100
AcDb2dVertex
 10
60.207984
 20
58.638108
 30
0.0
  0
VERTEX
  5
256
330
225
100
AcDbEntity
  8
001
 62
     5
370
    50
100
AcDbVertex
100
AcDb2dVertex
 10
60.114521
 20
58.542952
 30
0.0
  0
VERTEX
  5
257
330
225
100
AcDbEntity
  8
001
 62
     5
370
    50
100
AcDbVertex
100
AcDb2dVertex
 10
60.02984
 20
58.439917
 30
0.0
  0
SEQEND
  5
226
330
225
100
AcDbEntity
  8
001
370
    50
  0
POLYLINE
  5
258
330
1F
100
AcDbEntity
  8
001
 62
     5
370
    50
100
AcDb2dPolyline
 66
     1
 10
0.0
 20
0.0
 30
0.0
  0
VERTEX
  5
25A
330
258
100
AcDbEntity
  8
001
 62
     5
370
    50
100
AcDbVertex
100
AcDb2dVertex
 10
59.819672
 20
58.659677
 30
0.0
  0
VERTEX
  5
25B
330
258
100
AcDbEntity
  8
001
 62
     5
370
    50
100
AcDbVertex
100
AcDb2dVertex
 10
59.745036
 20
58.548475
 30
0.0
  0
VERTEX
  5
25C
330
258
100
AcDbEntity
  8
001
 62
     5
370
    50
100
AcDbVertex
100
AcDb2dVertex
 10
59.652011
 20
58.389391
 30
0.0
  0
VERTEX
  5
25D
330
258
100
AcDbEntity
  8
001
 62
     5
370
    50
100
AcDbVertex
100
AcDb2dVertex
 10
59.58259
 20
58.238571
 30
0.0
  0
VERTEX
  5
25E
330
258
100
AcDbEntity
  8
001
 62
     5
370
    50
100
AcDbVertex
100
AcDb2dVertex
 10
59.534406
 20
58.093582
 30
0.0
  0
VERTEX
  5
25F
330
258
100
AcDbEntity
  8
001
 62
     5
370
    50
100
AcDbVertex
100
AcDb2dVertex
 10
59.496706
 20
57.940611
 30
0.0
  0
VERTEX
  5
260
330
258
100
AcDbEntity
  8
001
 62
     5
370
    50
100
AcDbVertex
100
AcDb2dVertex
 10
59.470432
 20
57.781238
 30
0.0
  0
VERTEX
  5
261
330
258
100
AcDbEntity
  8
001
 62
     5
370
    50
100
AcDbVertex
100
AcDb2dVertex
 10
59.47862
 20
57.300862
 30
0.0
  0
VERTEX
  5
262
330
258
100
AcDbEntity
  8
001
 62
     5
370
    50
100
AcDbVertex
100
AcDb2dVertex
 10
59.611276
 20
56.840673
 30
0.0
  0
VERTEX
  5
263
330
258
100
AcDbEntity
  8
001
 62
     5
370
    50
100
AcDbVertex
100
AcDb2dVertex
 10
59.765121
 20
56.557292
 30
0.0
  0
VERTEX
  5
264
330
258
100
AcDbEntity
  8
001
 62
     5
370
    50
100
AcDbVertex
100
AcDb2dVertex
 10
59.964139
 20
56.304978
 30
0.0
  0
VERTEX
  5
265
330
258
100
AcDbEntity
  8
001
 62
     5
370
    50
100
AcDbVertex
100
AcDb2dVertex
 10
60.079331
 20
56.192208
 30
0.0
  0
VERTEX
  5
266
330
258
100
AcDbEntity
  8
001
 62
     5
370
    50
100
AcDbVertex
100
AcDb2dVertex
 10
60.204465
 20
56.090007
 30
0.0
  0
VERTEX
  5
267
330
258
100
AcDbEntity
  8
001
 62
     5
370
    50
100
AcDbVertex
100
AcDb2dVertex
 10
60.338827
 20
55.999054
 30
0.0
  0
VERTEX
  5
268
330
258
100
AcDbEntity
  8
001
 62
     5
370
    50
100
AcDbVertex
100
AcDb2dVertex
 10
60.478061
 20
55.919377
 30
0.0
  0
VERTEX
  5
269
330
258
100
AcDbEntity
  8
001
 62
     5
370
    50
100
AcDbVertex
100
AcDb2dVertex
 10
60.763055
 20
55.796239
 30
0.0
  0
VERTEX
  5
26A
330
258
100
AcDbEntity
  8
001
 62
     5
370
    50
100
AcDbVertex
100
AcDb2dVertex
 10
61.091055
 20
55.730378
 30
0.0
  0
VERTEX
  5
26B
330
258
100
AcDbEntity
  8
001
 62
     5
370
    50
100
AcDbVertex
100
AcDb2dVertex
 10
61.411
 20
55.72385
 30
0.0
  0
VERTEX
  5
26C
330
258
100
AcDbEntity
  8
001
 62
     5
370
    50
100
AcDbVertex
100
AcDb2dVertex
 10
61.642242
 20
55.743343
 30
0.0
  0
SEQEND
  5
259
330
258
100
AcDbEntity
  8
001
370
    50
  0
POLYLINE
  5
26D
330
1F
100
AcDbEntity
  8
001
 62
     5
370
    50
100
AcDb2dPolyline
 66
     1
 10
0.0
 20
0.0
 30
0.0
  0
VERTEX
  5
26F
330
26D
100
AcDbEntity
  8
001
 62
     5
370
    50
100
AcDbVertex
100
AcDb2dVertex
 10
62.77923
 20
56.439087
 30
0.0
  0
VERTEX
  5
270
330
26D
100
AcDbEntity
  8
001
 62
     5
370
    50
100
AcDbVertex
100
AcDb2dVertex
 10
62.853866
 20
56.550289
 30
0.0
  0
VERTEX
  5
271
330
26D
100
AcDbEntity
  8
001
 62
     5
370
    50
100
AcDbVertex
100
AcDb2dVertex
 10
62.946891
 20
56.709373
 30
0.0
  0
VERTEX
  5
272
330
26D
100
AcDbEntity
  8
001
 62
     5
370
    50
100
AcDbVertex
100
AcDb2dVertex
 10
63.01631
 20
56.860192
 30
0.0
  0
VERTEX
  5
273
330
26D
100
AcDbEntity
  8
001
 62
     5
370
    50
100
AcDbVertex
100
AcDb2dVertex
 10
63.064495
 20
57.005182
 30
0.0
  0
VERTEX
  5
274
330
26D
100
AcDbEntity
  8
001
 62
     5
370
    50
100
AcDbVertex
100
AcDb2dVertex
 10
63.102201
 20
57.158154
 30
0.0
  0
VERTEX
  5
275
330
26D
100
AcDbEntity
  8
001
 62
     5
370
    50
100
AcDbVertex
100
AcDb2dVertex
 10
63.12847
 20
57.317526
 30
0.0
  0
VERTEX
  5
276
330
26D
100
AcDbEntity
  8
001
 62
     5
370
    50
100
AcDbVertex
100
AcDb2dVertex
 10
63.120181
 20
57.797883
 30
0.0
  0
VERTEX
  5
277
330
26D
100
AcDbEntity
  8
001
 62
     5
370
    50
100
AcDbVertex
100
AcDb2dVertex
 10
62.987626
 20
58.25809
 30
0.0
  0
VERTEX
  5
278
330
26D
100
AcDbEntity
  8
001
 62
     5
370
    50
100
AcDbVertex
100
AcDb2dVertex
 10
62.834033
 20
58.541518
 30
0.0
  0
VERTEX
  5
279
330
26D
100
AcDbEntity
  8
001
 62
     5
370
    50
100
AcDbVertex
100
AcDb2dVertex
 10
62.634762
 20
58.793785
 30
0.0
  0
VERTEX
  5
27A
330
26D
100
AcDbEntity
  8
001
 62
     5
370
    50
100
AcDbVertex
100
AcDb2dVertex
 10
62.519196
 20
58.906488
 30
0.0
  0
VERTEX
  5
27B
330
26D
100
AcDbEntity
  8
001
 62
     5
370
    50
100
AcDbVertex
100
AcDb2dVertex
 10
62.394436
 20
59.008757
 30
0.0
  0
VERTEX
  5
27C
330
26D
100
AcDbEntity
  8
001
 62
     5
370
    50
100
AcDbVertex
100
AcDb2dVertex
 10
62.261361
 20
59.099944
 30
0.0
  0
VERTEX
  5
27D
330
26D
100
AcDbEntity
  8
001
 62
     5
370
    50
100
AcDbVertex
100
AcDb2dVertex
 10
62.12084
 20
59.179386
 30
0.0
  0
VERTEX
  5
27E
330
26D
100
AcDbEntity
  8
001
 62
     5
370
    50
100
AcDbVertex
100
AcDb2dVertex
 10
61.822916
 20
59.300171
 30
0.0
  0
VERTEX
  5
27F
330
26D
100
AcDbEntity
  8
001
 62
     5
370
    50
100
AcDbVertex
100
AcDb2dVertex
 10
61.507847
 20
59.368385
 30
0.0
  0
VERTEX
  5
280
330
26D
100
AcDbEntity
  8
001
 62
     5
370
    50
100
AcDbVertex
100
AcDb2dVertex
 10
61.028932
 20
59.366971
 30
0.0
  0
VERTEX
  5
281
330
26D
100
AcDbEntity
  8
001
 62
     5
370
    50
100
AcDbVertex
100
AcDb2dVertex
 10
60.565417
 20
59.240613
 30
0.0
  0
VERTEX
  5
282
330
26D
100
AcDbEntity
  8
001
 62
     5
370
    50
100
AcDbVertex
100
AcDb2dVertex
 10
60.419748
 20
59.170829
 30
0.0
  0
VERTEX
  5
283
330
26D
100
AcDbEntity
  8
001
 62
     5
370
    50
100
AcDbVertex
100
AcDb2dVertex
 10
60.283421
 20
59.091853
 30
0.0
  0
VERTEX
  5
284
330
26D
100
AcDbEntity
  8
001
 62
     5
370
    50
100
AcDbVertex
100
AcDb2dVertex
 10
60.157688
 20
59.005049
 30
0.0
  0
VERTEX
  5
285
330
26D
100
AcDbEntity
  8
001
 62
     5
370
    50
100
AcDbVertex
100
AcDb2dVertex
 10
60.032295
 20
58.896226
 30
0.0
  0
VERTEX
  5
286
330
26D
100
AcDbEntity
  8
001
 62
     5
370
    50
100
AcDbVertex
100
AcDb2dVertex
 10
59.905568
 20
58.76243
 30
0.0
  0
VERTEX
  5
287
330
26D
100
AcDbEntity
  8
001
 62
     5
370
    50
100
AcDbVertex
100
AcDb2dVertex
 10
59.819672
 20
58.659677
 30
0.0
  0
SEQEND
  5
26E
330
26D
100
AcDbEntity
  8
001
370
    50
  0
LINE
  5
288
330
1F
100
AcDbEntity
  8
001
 62
     5
370
    50
100
AcDbLine
 10
60.058858
 20
58.978459
 30
0.0
 11
59.819672
 21
58.659677
 31
0.0
  0
LINE
  5
289
330
1F
100
AcDbEntity
  8
001
 62
     5
370
    50
100
AcDbLine
 10
62.77923
 20
56.439087
 30
0.0
 11
63.018416
 21
56.757869
 31
0.0
  0
LINE
  5
28A
330
1F
100
AcDbEntity
  8
001
 62
   253
370
    50
100
AcDbLine
 10
70.796712
 20
81.906064
 30
0.0
 11
69.920198
 21
81.921547
 31
0.0
  0
POLYLINE
  5
28B
330
1F
100
AcDbEntity
  8
001
 62
   253
370
    50
100
AcDb2dPolyline
 66
     1
 10
0.0
 20
0.0
 30
0.0
  0
VERTEX
  5
28D
330
28B
100
AcDbEntity
  8
001
 62
   253
370
    50
100
AcDbVertex
100
AcDb2dVertex
 10
74.758447
 20
54.699943
 30
0.0
  0
VERTEX
  5
28E
330
28B
100
AcDbEntity
  8
001
 62
   253
370
    50
100
AcDbVertex
100
AcDb2dVertex
 10
75.23597
 20
54.863064
 30
0.0
  0
VERTEX
  5
28F
330
28B
100
AcDbEntity
  8
001
 62
   253
370
    50
100
AcDbVertex
100
AcDb2dVertex
 10
75.710465
 20
55.03437
 30
0.0
  0
VERTEX
  5
290
330
28B
100
AcDbEntity
  8
001
 62
   253
370
    50
100
AcDbVertex
100
AcDb2dVertex
 10
76.179321
 20
55.22029
 30
0.0
  0
VERTEX
  5
291
330
28B
100
AcDbEntity
  8
001
 62
   253
370
    50
100
AcDbVertex
100
AcDb2dVertex
 10
76.642376
 20
55.420558
 30
0.0
  0
VERTEX
  5
292
330
28B
100
AcDbEntity
  8
001
 62
   253
370
    50
100
AcDbVertex
100
AcDb2dVertex
 10
77.32781
 20
55.745423
 30
0.0
  0
VERTEX
  5
293
330
28B
100
AcDbEntity
  8
001
 62
   253
370
    50
100
AcDbVertex
100
AcDb2dVertex
 10
77.999147
 20
56.098403
 30
0.0
  0
VERTEX
  5
294
330
28B
100
AcDbEntity
  8
001
 62
   253
370
    50
100
AcDbVertex
100
AcDb2dVertex
 10
78.656658
 20
56.480552
 30
0.0
  0
VERTEX
  5
295
330
28B
100
AcDbEntity
  8
001
 62
   253
370
    50
100
AcDbVertex
100
AcDb2dVertex
 10
79.297496
 20
56.890097
 30
0.0
  0
VERTEX
  5
296
330
28B
100
AcDbEntity
  8
001
 62
   253
370
    50
100
AcDbVertex
100
AcDb2dVertex
 10
79.919083
 20
57.32491
 30
0.0
  0
VERTEX
  5
297
330
28B
100
AcDbEntity
  8
001
 62
   253
370
    50
100
AcDbVertex
100
AcDb2dVertex
 10
80.521825
 20
57.785483
 30
0.0
  0
VERTEX
  5
298
330
28B
100
AcDbEntity
  8
001
 62
   253
370
    50
100
AcDbVertex
100
AcDb2dVertex
 10
81.099954
 20
58.267603
 30
0.0
  0
VERTEX
  5
299
330
28B
100
AcDbEntity
  8
001
 62
   253
370
    50
100
AcDbVertex
100
AcDb2dVertex
 10
81.656539
 20
58.7744
 30
0.0
  0
VERTEX
  5
29A
330
28B
100
AcDbEntity
  8
001
 62
   253
370
    50
100
AcDbVertex
100
AcDb2dVertex
 10
82.162608
 20
59.276846
 30
0.0
  0
VERTEX
  5
29B
330
28B
100
AcDbEntity
  8
001
 62
   253
370
    50
100
AcDbVertex
100
AcDb2dVertex
 10
82.647443
 20
59.799825
 30
0.0
  0
VERTEX
  5
29C
330
28B
100
AcDbEntity
  8
001
 62
   253
370
    50
100
AcDbVertex
100
AcDb2dVertex
 10
83.108971
 20
60.339964
 30
0.0
  0
VERTEX
  5
29D
330
28B
100
AcDbEntity
  8
001
 62
   253
370
    50
100
AcDbVertex
100
AcDb2dVertex
 10
83.548631
 20
60.898046
 30
0.0
  0
VERTEX
  5
29E
330
28B
100
AcDbEntity
  8
001
 62
   253
370
    50
100
AcDbVertex
100
AcDb2dVertex
 10
83.961702
 20
61.466944
 30
0.0
  0
VERTEX
  5
29F
330
28B
100
AcDbEntity
  8
001
 62
   253
370
    50
100
AcDbVertex
100
AcDb2dVertex
 10
84.352161
 20
62.051584
 30
0.0
  0
VERTEX
  5
2A0
330
28B
100
AcDbEntity
  8
001
 62
   253
370
    50
100
AcDbVertex
100
AcDb2dVertex
 10
84.712861
 20
62.640395
 30
0.0
  0
VERTEX
  5
2A1
330
28B
100
AcDbEntity
  8
001
 62
   253
370
    50
100
AcDbVertex
100
AcDb2dVertex
 10
85.050096
 20
63.242954
 30
0.0
  0
VERTEX
  5
2A2
330
28B
100
AcDbEntity
  8
001
 62
   253
370
    50
100
AcDbVertex
100
AcDb2dVertex
 10
85.430112
 20
63.998176
 30
0.0
  0
VERTEX
  5
2A3
330
28B
100
AcDbEntity
  8
001
 62
   253
370
    50
100
AcDbVertex
100
AcDb2dVertex
 10
85.774276
 20
64.770478
 30
0.0
  0
VERTEX
  5
2A4
330
28B
100
AcDbEntity
  8
001
 62
   253
370
    50
100
AcDbVertex
100
AcDb2dVertex
 10
86.076067
 20
65.538385
 30
0.0
  0
VERTEX
  5
2A5
330
28B
100
AcDbEntity
  8
001
 62
   253
370
    50
100
AcDbVertex
100
AcDb2dVertex
 10
86.344163
 20
66.318652
 30
0.0
  0
VERTEX
  5
2A6
330
28B
100
AcDbEntity
  8
001
 62
   253
370
    50
100
AcDbVertex
100
AcDb2dVertex
 10
86.57083
 20
67.082027
 30
0.0
  0
VERTEX
  5
2A7
330
28B
100
AcDbEntity
  8
001
 62
   253
370
    50
100
AcDbVertex
100
AcDb2dVertex
 10
86.765903
 20
67.854089
 30
0.0
  0
VERTEX
  5
2A8
330
28B
100
AcDbEntity
  8
001
 62
   253
370
    50
100
AcDbVertex
100
AcDb2dVertex
 10
86.934061
 20
68.658772
 30
0.0
  0
VERTEX
  5
2A9
330
28B
100
AcDbEntity
  8
001
 62
   253
370
    50
100
AcDbVertex
100
AcDb2dVertex
 10
87.06827
 20
69.469813
 30
0.0
  0
VERTEX
  5
2AA
330
28B
100
AcDbEntity
  8
001
 62
   253
370
    50
100
AcDbVertex
100
AcDb2dVertex
 10
87.164465
 20
70.250037
 30
0.0
  0
VERTEX
  5
2AB
330
28B
100
AcDbEntity
  8
001
 62
   253
370
    50
100
AcDbVertex
100
AcDb2dVertex
 10
87.228109
 20
71.033573
 30
0.0
  0
VERTEX
  5
2AC
330
28B
100
AcDbEntity
  8
001
 62
   253
370
    50
100
AcDbVertex
100
AcDb2dVertex
 10
87.257059
 20
71.777349
 30
0.0
  0
VERTEX
  5
2AD
330
28B
100
AcDbEntity
  8
001
 62
   253
370
    50
100
AcDbVertex
100
AcDb2dVertex
 10
87.253759
 20
72.52166
 30
0.0
  0
VERTEX
  5
2AE
330
28B
100
AcDbEntity
  8
001
 62
   253
370
    50
100
AcDbVertex
100
AcDb2dVertex
 10
87.224907
 20
73.138046
 30
0.0
  0
VERTEX
  5
2AF
330
28B
100
AcDbEntity
  8
001
 62
   253
370
    50
100
AcDbVertex
100
AcDb2dVertex
 10
87.169673
 20
73.752602
 30
0.0
  0
VERTEX
  5
2B0
330
28B
100
AcDbEntity
  8
001
 62
   253
370
    50
100
AcDbVertex
100
AcDb2dVertex
 10
87.089649
 20
74.33567
 30
0.0
  0
VERTEX
  5
2B1
330
28B
100
AcDbEntity
  8
001
 62
   253
370
    50
100
AcDbVertex
100
AcDb2dVertex
 10
86.97986
 20
74.91386
 30
0.0
  0
VERTEX
  5
2B2
330
28B
100
AcDbEntity
  8
001
 62
   253
370
    50
100
AcDbVertex
100
AcDb2dVertex
 10
86.844587
 20
75.458438
 30
0.0
  0
VERTEX
  5
2B3
330
28B
100
AcDbEntity
  8
001
 62
   253
370
    50
100
AcDbVertex
100
AcDb2dVertex
 10
86.676502
 20
75.993801
 30
0.0
  0
VERTEX
  5
2B4
330
28B
100
AcDbEntity
  8
001
 62
   253
370
    50
100
AcDbVertex
100
AcDb2dVertex
 10
86.481972
 20
76.495001
 30
0.0
  0
VERTEX
  5
2B5
330
28B
100
AcDbEntity
  8
001
 62
   253
370
    50
100
AcDbVertex
100
AcDb2dVertex
 10
86.251778
 20
76.980794
 30
0.0
  0
VERTEX
  5
2B6
330
28B
100
AcDbEntity
  8
001
 62
   253
370
    50
100
AcDbVertex
100
AcDb2dVertex
 10
85.965404
 20
77.475884
 30
0.0
  0
VERTEX
  5
2B7
330
28B
100
AcDbEntity
  8
001
 62
   253
370
    50
100
AcDbVertex
100
AcDb2dVertex
 10
85.636932
 20
77.944165
 30
0.0
  0
VERTEX
  5
2B8
330
28B
100
AcDbEntity
  8
001
 62
   253
370
    50
100
AcDbVertex
100
AcDb2dVertex
 10
85.2646
 20
78.385445
 30
0.0
  0
VERTEX
  5
2B9
330
28B
100
AcDbEntity
  8
001
 62
   253
370
    50
100
AcDbVertex
100
AcDb2dVertex
 10
84.854944
 20
78.792354
 30
0.0
  0
VERTEX
  5
2BA
330
28B
100
AcDbEntity
  8
001
 62
   253
370
    50
100
AcDbVertex
100
AcDb2dVertex
 10
84.396463
 20
79.174857
 30
0.0
  0
VERTEX
  5
2BB
330
28B
100
AcDbEntity
  8
001
 62
   253
370
    50
100
AcDbVertex
100
AcDb2dVertex
 10
83.907723
 20
79.517827
 30
0.0
  0
VERTEX
  5
2BC
330
28B
100
AcDbEntity
  8
001
 62
   253
370
    50
100
AcDbVertex
100
AcDb2dVertex
 10
83.35994
 20
79.840334
 30
0.0
  0
VERTEX
  5
2BD
330
28B
100
AcDbEntity
  8
001
 62
   253
370
    50
100
AcDbVertex
100
AcDb2dVertex
 10
82.790404
 20
80.123003
 30
0.0
  0
VERTEX
  5
2BE
330
28B
100
AcDbEntity
  8
001
 62
   253
370
    50
100
AcDbVertex
100
AcDb2dVertex
 10
82.159616
 20
80.388469
 30
0.0
  0
VERTEX
  5
2BF
330
28B
100
AcDbEntity
  8
001
 62
   253
370
    50
100
AcDbVertex
100
AcDb2dVertex
 10
81.515076
 20
80.618453
 30
0.0
  0
VERTEX
  5
2C0
330
28B
100
AcDbEntity
  8
001
 62
   253
370
    50
100
AcDbVertex
100
AcDb2dVertex
 10
80.814458
 20
80.830288
 30
0.0
  0
VERTEX
  5
2C1
330
28B
100
AcDbEntity
  8
001
 62
   253
370
    50
100
AcDbVertex
100
AcDb2dVertex
 10
80.10524
 20
81.011334
 30
0.0
  0
VERTEX
  5
2C2
330
28B
100
AcDbEntity
  8
001
 62
   253
370
    50
100
AcDbVertex
100
AcDb2dVertex
 10
79.353385
 20
81.173157
 30
0.0
  0
VERTEX
  5
2C3
330
28B
100
AcDbEntity
  8
001
 62
   253
370
    50
100
AcDbVertex
100
AcDb2dVertex
 10
78.596636
 20
81.310331
 30
0.0
  0
VERTEX
  5
2C4
330
28B
100
AcDbEntity
  8
001
 62
   253
370
    50
100
AcDbVertex
100
AcDb2dVertex
 10
77.792209
 20
81.433203
 30
0.0
  0
VERTEX
  5
2C5
330
28B
100
AcDbEntity
  8
001
 62
   253
370
    50
100
AcDbVertex
100
AcDb2dVertex
 10
76.985035
 20
81.536474
 30
0.0
  0
VERTEX
  5
2C6
330
28B
100
AcDbEntity
  8
001
 62
   253
370
    50
100
AcDbVertex
100
AcDb2dVertex
 10
76.142207
 20
81.626283
 30
0.0
  0
VERTEX
  5
2C7
330
28B
100
AcDbEntity
  8
001
 62
   253
370
    50
100
AcDbVertex
100
AcDb2dVertex
 10
75.297864
 20
81.700479
 30
0.0
  0
VERTEX
  5
2C8
330
28B
100
AcDbEntity
  8
001
 62
   253
370
    50
100
AcDbVertex
100
AcDb2dVertex
 10
74.563035
 20
81.754081
 30
0.0
  0
VERTEX
  5
2C9
330
28B
100
AcDbEntity
  8
001
 62
   253
370
    50
100
AcDbVertex
100
AcDb2dVertex
 10
73.827617
 20
81.798902
 30
0.0
  0
VERTEX
  5
2CA
330
28B
100
AcDbEntity
  8
001
 62
   253
370
    50
100
AcDbVertex
100
AcDb2dVertex
 10
73.074971
 20
81.836672
 30
0.0
  0
VERTEX
  5
2CB
330
28B
100
AcDbEntity
  8
001
 62
   253
370
    50
100
AcDbVertex
100
AcDb2dVertex
 10
72.321972
 20
81.866249
 30
0.0
  0
VERTEX
  5
2CC
330
28B
100
AcDbEntity
  8
001
 62
   253
370
    50
100
AcDbVertex
100
AcDb2dVertex
 10
71.559408
 20
81.888329
 30
0.0
  0
VERTEX
  5
2CD
330
28B
100
AcDbEntity
  8
001
 62
   253
370
    50
100
AcDbVertex
100
AcDb2dVertex
 10
70.796712
 20
81.906064
 30
0.0
  0
SEQEND
  5
28C
330
28B
100
AcDbEntity
  8
001
370
    50
  0
POLYLINE
  5
2CE
330
1F
100
AcDbEntity
  8
001
 62
   253
370
    50
100
AcDb2dPolyline
 66
     1
 10
0.0
 20
0.0
 30
0.0
  0
VERTEX
  5
2D0
330
2CE
100
AcDbEntity
  8
001
 62
   253
370
    50
100
AcDbVertex
100
AcDb2dVertex
 10
74.758447
 20
54.699943
 30
0.0
  0
VERTEX
  5
2D1
330
2CE
100
AcDbEntity
  8
001
 62
   253
370
    50
100
AcDbVertex
100
AcDb2dVertex
 10
74.642421
 20
55.129696
 30
0.0
  0
VERTEX
  5
2D2
330
2CE
100
AcDbEntity
  8
001
 62
   253
370
    50
100
AcDbVertex
100
AcDb2dVertex
 10
74.517786
 20
55.556861
 30
0.0
  0
VERTEX
  5
2D3
330
2CE
100
AcDbEntity
  8
001
 62
   253
370
    50
100
AcDbVertex
100
AcDb2dVertex
 10
74.378137
 20
55.978269
 30
0.0
  0
VERTEX
  5
2D4
330
2CE
100
AcDbEntity
  8
001
 62
   253
370
    50
100
AcDbVertex
100
AcDb2dVertex
 10
74.223763
 20
56.39465
 30
0.0
  0
VERTEX
  5
2D5
330
2CE
100
AcDbEntity
  8
001
 62
   253
370
    50
100
AcDbVertex
100
AcDb2dVertex
 10
74.053845
 20
56.812519
 30
0.0
  0
VERTEX
  5
2D6
330
2CE
100
AcDbEntity
  8
001
 62
   253
370
    50
100
AcDbVertex
100
AcDb2dVertex
 10
73.870812
 20
57.224743
 30
0.0
  0
VERTEX
  5
2D7
330
2CE
100
AcDbEntity
  8
001
 62
   253
370
    50
100
AcDbVertex
100
AcDb2dVertex
 10
73.674996
 20
57.629567
 30
0.0
  0
VERTEX
  5
2D8
330
2CE
100
AcDbEntity
  8
001
 62
   253
370
    50
100
AcDbVertex
100
AcDb2dVertex
 10
73.466106
 20
58.02785
 30
0.0
  0
VERTEX
  5
2D9
330
2CE
100
AcDbEntity
  8
001
 62
   253
370
    50
100
AcDbVertex
100
AcDb2dVertex
 10
73.192368
 20
58.507135
 30
0.0
  0
VERTEX
  5
2DA
330
2CE
100
AcDbEntity
  8
001
 62
   253
370
    50
100
AcDbVertex
100
AcDb2dVertex
 10
72.899844
 20
58.975158
 30
0.0
  0
VERTEX
  5
2DB
330
2CE
100
AcDbEntity
  8
001
 62
   253
370
    50
100
AcDbVertex
100
AcDb2dVertex
 10
72.590046
 20
59.429751
 30
0.0
  0
VERTEX
  5
2DC
330
2CE
100
AcDbEntity
  8
001
 62
   253
370
    50
100
AcDbVertex
100
AcDb2dVertex
 10
72.263105
 20
59.872305
 30
0.0
  0
VERTEX
  5
2DD
330
2CE
100
AcDbEntity
  8
001
 62
   253
370
    50
100
AcDbVertex
100
AcDb2dVertex
 10
71.911798
 20
60.311849
 30
0.0
  0
VERTEX
  5
2DE
330
2CE
100
AcDbEntity
  8
001
 62
   253
370
    50
100
AcDbVertex
100
AcDb2dVertex
 10
71.541983
 20
60.735617
 30
0.0
  0
VERTEX
  5
2DF
330
2CE
100
AcDbEntity
  8
001
 62
   253
370
    50
100
AcDbVertex
100
AcDb2dVertex
 10
71.15448
 20
61.141867
 30
0.0
  0
VERTEX
  5
2E0
330
2CE
100
AcDbEntity
  8
001
 62
   253
370
    50
100
AcDbVertex
100
AcDb2dVertex
 10
70.756851
 20
61.538646
 30
0.0
  0
SEQEND
  5
2CF
330
2CE
100
AcDbEntity
  8
001
370
    50
  0
POLYLINE
  5
2E1
330
1F
100
AcDbEntity
  8
001
 62
   253
370
    50
100
AcDb2dPolyline
 66
     1
 10
0.0
 20
0.0
 30
0.0
  0
VERTEX
  5
2E3
330
2E1
100
AcDbEntity
  8
001
 62
   253
370
    50
100
AcDbVertex
100
AcDb2dVertex
 10
70.756851
 20
61.538646
 30
0.0
  0
VERTEX
  5
2E4
330
2E1
100
AcDbEntity
  8
001
 62
   253
370
    50
100
AcDbVertex
100
AcDb2dVertex
 10
69.570163
 20
62.65542
 30
0.0
  0
VERTEX
  5
2E5
330
2E1
100
AcDbEntity
  8
001
 62
   253
370
    50
100
AcDbVertex
100
AcDb2dVertex
 10
67.826726
 20
64.277911
 30
0.0
  0
VERTEX
  5
2E6
330
2E1
100
AcDbEntity
  8
001
 62
   253
370
    50
100
AcDbVertex
100
AcDb2dVertex
 10
65.793457
 20
66.14064
 30
0.0
  0
VERTEX
  5
2E7
330
2E1
100
AcDbEntity
  8
001
 62
   253
370
    50
100
AcDbVertex
100
AcDb2dVertex
 10
63.863055
 20
67.873922
 30
0.0
  0
VERTEX
  5
2E8
330
2E1
100
AcDbEntity
  8
001
 62
   253
370
    50
100
AcDbVertex
100
AcDb2dVertex
 10
62.184326
 20
69.358016
 30
0.0
  0
VERTEX
  5
2E9
330
2E1
100
AcDbEntity
  8
001
 62
   253
370
    50
100
AcDbVertex
100
AcDb2dVertex
 10
61.029222
 20
70.366071
 30
0.0
  0
SEQEND
  5
2E2
330
2E1
100
AcDbEntity
  8
001
370
    50
  0
POLYLINE
  5
2EA
330
1F
100
AcDbEntity
  8
001
 62
   253
370
    50
100
AcDb2dPolyline
 66
     1
 10
0.0
 20
0.0
 30
0.0
  0
VERTEX
  5
2EC
330
2EA
100
AcDbEntity
  8
001
 62
   253
370
    50
100
AcDbVertex
100
AcDb2dVertex
 10
61.029222
 20
70.366071
 30
0.0
  0
VERTEX
  5
2ED
330
2EA
100
AcDbEntity
  8
001
 62
   253
370
    50
100
AcDbVertex
100
AcDb2dVertex
 10
61.083807
 20
70.662595
 30
0.0
  0
VERTEX
  5
2EE
330
2EA
100
AcDbEntity
  8
001
 62
   253
370
    50
100
AcDbVertex
100
AcDb2dVertex
 10
61.132127
 20
70.960082
 30
0.0
  0
VERTEX
  5
2EF
330
2EA
100
AcDbEntity
  8
001
 62
   253
370
    50
100
AcDbVertex
100
AcDb2dVertex
 10
61.168523
 20
71.253521
 30
0.0
  0
VERTEX
  5
2F0
330
2EA
100
AcDbEntity
  8
001
 62
   253
370
    50
100
AcDbVertex
100
AcDb2dVertex
 10
61.193721
 20
71.548243
 30
0.0
  0
VERTEX
  5
2F1
330
2EA
100
AcDbEntity
  8
001
 62
   253
370
    50
100
AcDbVertex
100
AcDb2dVertex
 10
61.21114
 20
71.960765
 30
0.0
  0
VERTEX
  5
2F2
330
2EA
100
AcDbEntity
  8
001
 62
   253
370
    50
100
AcDbVertex
100
AcDb2dVertex
 10
61.206831
 20
72.373591
 30
0.0
  0
VERTEX
  5
2F3
330
2EA
100
AcDbEntity
  8
001
 62
   253
370
    50
100
AcDbVertex
100
AcDb2dVertex
 10
61.180515
 20
72.773413
 30
0.0
  0
VERTEX
  5
2F4
330
2EA
100
AcDbEntity
  8
001
 62
   253
370
    50
100
AcDbVertex
100
AcDb2dVertex
 10
61.131616
 20
73.171108
 30
0.0
  0
VERTEX
  5
2F5
330
2EA
100
AcDbEntity
  8
001
 62
   253
370
    50
100
AcDbVertex
100
AcDb2dVertex
 10
61.059216
 20
73.567371
 30
0.0
  0
VERTEX
  5
2F6
330
2EA
100
AcDbEntity
  8
001
 62
   253
370
    50
100
AcDbVertex
100
AcDb2dVertex
 10
60.963661
 20
73.958701
 30
0.0
  0
VERTEX
  5
2F7
330
2EA
100
AcDbEntity
  8
001
 62
   253
370
    50
100
AcDbVertex
100
AcDb2dVertex
 10
60.847905
 20
74.336092
 30
0.0
  0
VERTEX
  5
2F8
330
2EA
100
AcDbEntity
  8
001
 62
   253
370
    50
100
AcDbVertex
100
AcDb2dVertex
 10
60.710811
 20
74.706254
 30
0.0
  0
VERTEX
  5
2F9
330
2EA
100
AcDbEntity
  8
001
 62
   253
370
    50
100
AcDbVertex
100
AcDb2dVertex
 10
60.567309
 20
75.037549
 30
0.0
  0
VERTEX
  5
2FA
330
2EA
100
AcDbEntity
  8
001
 62
   253
370
    50
100
AcDbVertex
100
AcDb2dVertex
 10
60.407306
 20
75.361162
 30
0.0
  0
VERTEX
  5
2FB
330
2EA
100
AcDbEntity
  8
001
 62
   253
370
    50
100
AcDbVertex
100
AcDb2dVertex
 10
60.233229
 20
75.674011
 30
0.0
  0
VERTEX
  5
2FC
330
2EA
100
AcDbEntity
  8
001
 62
   253
370
    50
100
AcDbVertex
100
AcDb2dVertex
 10
60.045105
 20
75.978706
 30
0.0
  0
VERTEX
  5
2FD
330
2EA
100
AcDbEntity
  8
001
 62
   253
370
    50
100
AcDbVertex
100
AcDb2dVertex
 10
59.841588
 20
76.278358
 30
0.0
  0
VERTEX
  5
2FE
330
2EA
100
AcDbEntity
  8
001
 62
   253
370
    50
100
AcDbVertex
100
AcDb2dVertex
 10
59.624443
 20
76.568091
 30
0.0
  0
VERTEX
  5
2FF
330
2EA
100
AcDbEntity
  8
001
 62
   253
370
    50
100
AcDbVertex
100
AcDb2dVertex
 10
59.394703
 20
76.847065
 30
0.0
  0
VERTEX
  5
300
330
2EA
100
AcDbEntity
  8
001
 62
   253
370
    50
100
AcDbVertex
100
AcDb2dVertex
 10
59.157849
 20
77.120285
 30
0.0
  0
SEQEND
  5
2EB
330
2EA
100
AcDbEntity
  8
001
370
    50
  0
POLYLINE
  5
301
330
1F
100
AcDbEntity
  8
001
 62
   253
370
    50
100
AcDb2dPolyline
 66
     1
 10
0.0
 20
0.0
 30
0.0
  0
VERTEX
  5
303
330
301
100
AcDbEntity
  8
001
 62
   253
370
    50
100
AcDbVertex
100
AcDb2dVertex
 10
64.949253
 20
78.865783
 30
0.0
  0
VERTEX
  5
304
330
301
100
AcDbEntity
  8
001
 62
   253
370
    50
100
AcDbVertex
100
AcDb2dVertex
 10
62.628396
 20
78.203038
 30
0.0
  0
VERTEX
  5
305
330
301
100
AcDbEntity
  8
001
 62
   253
370
    50
100
AcDbVertex
100
AcDb2dVertex
 10
59.260961
 20
77.154329
 30
0.0
  0
VERTEX
  5
306
330
301
100
AcDbEntity
  8
001
 62
   253
370
    50
100
AcDbVertex
100
AcDb2dVertex
 10
59.199735
 20
77.134126
 30
0.0
  0
VERTEX
  5
307
330
301
100
AcDbEntity
  8
001
 62
   253
370
    50
100
AcDbVertex
100
AcDb2dVertex
 10
59.157849
 20
77.120285
 30
0.0
  0
SEQEND
  5
302
330
301
100
AcDbEntity
  8
001
370
    50
  0
POLYLINE
  5
308
330
1F
100
AcDbEntity
  8
001
 62
   253
370
    50
100
AcDb2dPolyline
 66
     1
 10
0.0
 20
0.0
 30
0.0
  0
VERTEX
  5
30A
330
308
100
AcDbEntity
  8
001
 62
   253
370
    50
100
AcDbVertex
100
AcDb2dVertex
 10
64.949253
 20
78.865783
 30
0.0
  0
VERTEX
  5
30B
330
308
100
AcDbEntity
  8
001
 62
   253
370
    50
100
AcDbVertex
100
AcDb2dVertex
 10
65.416585
 20
79.002592
 30
0.0
  0
VERTEX
  5
30C
330
308
100
AcDbEntity
  8
001
 62
   253
370
    50
100
AcDbVertex
100
AcDb2dVertex
 10
65.881253
 20
79.147736
 30
0.0
  0
VERTEX
  5
30D
330
308
100
AcDbEntity
  8
001
 62
   253
370
    50
100
AcDbVertex
100
AcDb2dVertex
 10
66.315278
 20
79.298426
 30
0.0
  0
VERTEX
  5
30E
330
308
100
AcDbEntity
  8
001
 62
   253
370
    50
100
AcDbVertex
100
AcDb2dVertex
 10
66.744553
 20
79.462434
 30
0.0
  0
VERTEX
  5
30F
330
308
100
AcDbEntity
  8
001
 62
   253
370
    50
100
AcDbVertex
100
AcDb2dVertex
 10
67.136244
 20
79.6247
 30
0.0
  0
VERTEX
  5
310
330
308
100
AcDbEntity
  8
001
 62
   253
370
    50
100
AcDbVertex
100
AcDb2dVertex
 10
67.5229
 20
79.7985
 30
0.0
  0
VERTEX
  5
311
330
308
100
AcDbEntity
  8
001
 62
   253
370
    50
100
AcDbVertex
100
AcDb2dVertex
 10
67.868477
 20
79.967366
 30
0.0
  0
VERTEX
  5
312
330
308
100
AcDbEntity
  8
001
 62
   253
370
    50
100
AcDbVertex
100
AcDb2dVertex
 10
68.208172
 20
80.147813
 30
0.0
  0
VERTEX
  5
313
330
308
100
AcDbEntity
  8
001
 62
   253
370
    50
100
AcDbVertex
100
AcDb2dVertex
 10
68.503667
 20
80.3184
 30
0.0
  0
VERTEX
  5
314
330
308
100
AcDbEntity
  8
001
 62
   253
370
    50
100
AcDbVertex
100
AcDb2dVertex
 10
68.792299
 20
80.500295
 30
0.0
  0
VERTEX
  5
315
330
308
100
AcDbEntity
  8
001
 62
   253
370
    50
100
AcDbVertex
100
AcDb2dVertex
 10
69.03167
 20
80.665796
 30
0.0
  0
VERTEX
  5
316
330
308
100
AcDbEntity
  8
001
 62
   253
370
    50
100
AcDbVertex
100
AcDb2dVertex
 10
69.262448
 20
80.843206
 30
0.0
  0
VERTEX
  5
317
330
308
100
AcDbEntity
  8
001
 62
   253
370
    50
100
AcDbVertex
100
AcDb2dVertex
 10
69.436461
 20
80.993493
 30
0.0
  0
VERTEX
  5
318
330
308
100
AcDbEntity
  8
001
 62
   253
370
    50
100
AcDbVertex
100
AcDb2dVertex
 10
69.599724
 20
81.155001
 30
0.0
  0
VERTEX
  5
319
330
308
100
AcDbEntity
  8
001
 62
   253
370
    50
100
AcDbVertex
100
AcDb2dVertex
 10
69.718751
 20
81.293202
 30
0.0
  0
VERTEX
  5
31A
330
308
100
AcDbEntity
  8
001
 62
   253
370
    50
100
AcDbVertex
100
AcDb2dVertex
 10
69.823605
 20
81.443305
 30
0.0
  0
VERTEX
  5
31B
330
308
100
AcDbEntity
  8
001
 62
   253
370
    50
100
AcDbVertex
100
AcDb2dVertex
 10
69.889115
 20
81.567381
 30
0.0
  0
VERTEX
  5
31C
330
308
100
AcDbEntity
  8
001
 62
   253
370
    50
100
AcDbVertex
100
AcDb2dVertex
 10
69.930697
 20
81.699841
 30
0.0
  0
VERTEX
  5
31D
330
308
100
AcDbEntity
  8
001
 62
   253
370
    50
100
AcDbVertex
100
AcDb2dVertex
 10
69.934522
 20
81.722862
 30
0.0
  0
VERTEX
  5
31E
330
308
100
AcDbEntity
  8
001
 62
   253
370
    50
100
AcDbVertex
100
AcDb2dVertex
 10
69.937828
 20
81.745994
 30
0.0
  0
SEQEND
  5
309
330
308
100
AcDbEntity
  8
001
370
    50
  0
POLYLINE
  5
31F
330
1F
100
AcDbEntity
  8
001
 62
   253
370
    50
100
AcDb2dPolyline
 66
     1
 10
0.0
 20
0.0
 30
0.0
  0
VERTEX
  5
321
330
31F
100
AcDbEntity
  8
001
 62
   253
370
    50
100
AcDbVertex
100
AcDb2dVertex
 10
86.874585
 20
112.080888
 30
0.0
  0
VERTEX
  5
322
330
31F
100
AcDbEntity
  8
001
 62
   253
370
    50
100
AcDbVertex
100
AcDb2dVertex
 10
86.779977
 20
112.256667
 30
0.0
  0
VERTEX
  5
323
330
31F
100
AcDbEntity
  8
001
 62
   253
370
    50
100
AcDbVertex
100
AcDb2dVertex
 10
86.682583
 20
112.430851
 30
0.0
  0
VERTEX
  5
324
330
31F
100
AcDbEntity
  8
001
 62
   253
370
    50
100
AcDbVertex
100
AcDb2dVertex
 10
86.475444
 20
112.766663
 30
0.0
  0
VERTEX
  5
325
330
31F
100
AcDbEntity
  8
001
 62
   253
370
    50
100
AcDbVertex
100
AcDb2dVertex
 10
86.251778
 20
113.091993
 30
0.0
  0
VERTEX
  5
326
330
31F
100
AcDbEntity
  8
001
 62
   253
370
    50
100
AcDbVertex
100
AcDb2dVertex
 10
86.037176
 20
113.381049
 30
0.0
  0
VERTEX
  5
327
330
31F
100
AcDbEntity
  8
001
 62
   253
370
    50
100
AcDbVertex
100
AcDb2dVertex
 10
85.81358
 20
113.663079
 30
0.0
  0
VERTEX
  5
328
330
31F
100
AcDbEntity
  8
001
 62
   253
370
    50
100
AcDbVertex
100
AcDb2dVertex
 10
85.554323
 20
113.969269
 30
0.0
  0
VERTEX
  5
329
330
31F
100
AcDbEntity
  8
001
 62
   253
370
    50
100
AcDbVertex
100
AcDb2dVertex
 10
85.285473
 20
114.267133
 30
0.0
  0
VERTEX
  5
32A
330
31F
100
AcDbEntity
  8
001
 62
   253
370
    50
100
AcDbVertex
100
AcDb2dVertex
 10
84.970471
 20
114.595039
 30
0.0
  0
VERTEX
  5
32B
330
31F
100
AcDbEntity
  8
001
 62
   253
370
    50
100
AcDbVertex
100
AcDb2dVertex
 10
84.645493
 20
114.913053
 30
0.0
  0
VERTEX
  5
32C
330
31F
100
AcDbEntity
  8
001
 62
   253
370
    50
100
AcDbVertex
100
AcDb2dVertex
 10
84.281564
 20
115.248238
 30
0.0
  0
VERTEX
  5
32D
330
31F
100
AcDbEntity
  8
001
 62
   253
370
    50
100
AcDbVertex
100
AcDb2dVertex
 10
83.907723
 20
115.572336
 30
0.0
  0
VERTEX
  5
32E
330
31F
100
AcDbEntity
  8
001
 62
   253
370
    50
100
AcDbVertex
100
AcDb2dVertex
 10
83.50724
 20
115.899457
 30
0.0
  0
VERTEX
  5
32F
330
31F
100
AcDbEntity
  8
001
 62
   253
370
    50
100
AcDbVertex
100
AcDb2dVertex
 10
83.097583
 20
116.215021
 30
0.0
  0
VERTEX
  5
330
330
31F
100
AcDbEntity
  8
001
 62
   253
370
    50
100
AcDbVertex
100
AcDb2dVertex
 10
82.653678
 20
116.537556
 30
0.0
  0
VERTEX
  5
331
330
31F
100
AcDbEntity
  8
001
 62
   253
370
    50
100
AcDbVertex
100
AcDb2dVertex
 10
82.200917
 20
116.847539
 30
0.0
  0
VERTEX
  5
332
330
31F
100
AcDbEntity
  8
001
 62
   253
370
    50
100
AcDbVertex
100
AcDb2dVertex
 10
81.701098
 20
117.169319
 30
0.0
  0
VERTEX
  5
333
330
31F
100
AcDbEntity
  8
001
 62
   253
370
    50
100
AcDbVertex
100
AcDb2dVertex
 10
81.192311
 20
117.476746
 30
0.0
  0
VERTEX
  5
334
330
31F
100
AcDbEntity
  8
001
 62
   253
370
    50
100
AcDbVertex
100
AcDb2dVertex
 10
80.652972
 20
117.782276
 30
0.0
  0
VERTEX
  5
335
330
31F
100
AcDbEntity
  8
001
 62
   253
370
    50
100
AcDbVertex
100
AcDb2dVertex
 10
80.10524
 20
118.072482
 30
0.0
  0
VERTEX
  5
336
330
31F
100
AcDbEntity
  8
001
 62
   253
370
    50
100
AcDbVertex
100
AcDb2dVertex
 10
79.554801
 20
118.344916
 30
0.0
  0
VERTEX
  5
337
330
31F
100
AcDbEntity
  8
001
 62
   253
370
    50
100
AcDbVertex
100
AcDb2dVertex
 10
78.997226
 20
118.602441
 30
0.0
  0
VERTEX
  5
338
330
31F
100
AcDbEntity
  8
001
 62
   253
370
    50
100
AcDbVertex
100
AcDb2dVertex
 10
78.417966
 20
118.851427
 30
0.0
  0
VERTEX
  5
339
330
31F
100
AcDbEntity
  8
001
 62
   253
370
    50
100
AcDbVertex
100
AcDb2dVertex
 10
77.832232
 20
119.084774
 30
0.0
  0
VERTEX
  5
33A
330
31F
100
AcDbEntity
  8
001
 62
   253
370
    50
100
AcDbVertex
100
AcDb2dVertex
 10
77.212558
 20
119.312245
 30
0.0
  0
VERTEX
  5
33B
330
31F
100
AcDbEntity
  8
001
 62
   253
370
    50
100
AcDbVertex
100
AcDb2dVertex
 10
76.586842
 20
119.522547
 30
0.0
  0
VERTEX
  5
33C
330
31F
100
AcDbEntity
  8
001
 62
   253
370
    50
100
AcDbVertex
100
AcDb2dVertex
 10
75.944933
 20
119.718843
 30
0.0
  0
VERTEX
  5
33D
330
31F
100
AcDbEntity
  8
001
 62
   253
370
    50
100
AcDbVertex
100
AcDb2dVertex
 10
75.297864
 20
119.897374
 30
0.0
  0
VERTEX
  5
33E
330
31F
100
AcDbEntity
  8
001
 62
   253
370
    50
100
AcDbVertex
100
AcDb2dVertex
 10
74.753789
 20
120.032803
 30
0.0
  0
VERTEX
  5
33F
330
31F
100
AcDbEntity
  8
001
 62
   253
370
    50
100
AcDbVertex
100
AcDb2dVertex
 10
74.206757
 20
120.155657
 30
0.0
  0
VERTEX
  5
340
330
31F
100
AcDbEntity
  8
001
 62
   253
370
    50
100
AcDbVertex
100
AcDb2dVertex
 10
73.652541
 20
120.266774
 30
0.0
  0
VERTEX
  5
341
330
31F
100
AcDbEntity
  8
001
 62
   253
370
    50
100
AcDbVertex
100
AcDb2dVertex
 10
73.095943
 20
120.365501
 30
0.0
  0
VERTEX
  5
342
330
31F
100
AcDbEntity
  8
001
 62
   253
370
    50
100
AcDbVertex
100
AcDb2dVertex
 10
72.524933
 20
120.453664
 30
0.0
  0
VERTEX
  5
343
330
31F
100
AcDbEntity
  8
001
 62
   253
370
    50
100
AcDbVertex
100
AcDb2dVertex
 10
71.951941
 20
120.527149
 30
0.0
  0
VERTEX
  5
344
330
31F
100
AcDbEntity
  8
001
 62
   253
370
    50
100
AcDbVertex
100
AcDb2dVertex
 10
71.374786
 20
120.585696
 30
0.0
  0
VERTEX
  5
345
330
31F
100
AcDbEntity
  8
001
 62
   253
370
    50
100
AcDbVertex
100
AcDb2dVertex
 10
70.796712
 20
120.635697
 30
0.0
  0
SEQEND
  5
320
330
31F
100
AcDbEntity
  8
001
370
    50
  0
ARC
  5
346
330
1F
100
AcDbEntity
  8
001
 62
   253
370
    50
100
AcDbCircle
 10
69.053597
 20
72.176282
 30
0.0
 40
20.00000000000001
100
AcDbArc
 50
275.0
 51
276.219945
  0
ARC
  5
347
330
1F
100
AcDbEntity
  8
001
 62
   253
370
    50
100
AcDbCircle
 10
69.053597
 20
72.176282
 30
0.0
 40
20.00000000000001
100
AcDbArc
 50
287.31825
 51
346.741901
  0
ARC
  5
348
330
1F
100
AcDbEntity
  8
001
 62
   253
370
    50
100
AcDbCircle
 10
69.053597
 20
103.002763
 30
0.0
 40
20.00000000000001
100
AcDbArc
 50
13.258099
 51
27.040072
  0
POLYLINE
  5
349
330
1F
100
AcDbEntity
  8
001
 62
   253
370
    50
100
AcDb2dPolyline
 66
     1
 10
0.0
 20
0.0
 30
0.0
  0
VERTEX
  5
34B
330
349
100
AcDbEntity
  8
001
 62
   253
370
    50
100
AcDbVertex
100
AcDb2dVertex
 10
76.069415
 20
105.833447
 30
0.0
  0
VERTEX
  5
34C
330
349
100
AcDbEntity
  8
001
 62
   253
370
    50
100
AcDbVertex
100
AcDb2dVertex
 10
75.436136
 20
105.864377
 30
0.0
  0
VERTEX
  5
34D
330
349
100
AcDbEntity
  8
001
 62
   253
370
    50
100
AcDbVertex
100
AcDb2dVertex
 10
74.802657
 20
105.889529
 30
0.0
  0
VERTEX
  5
34E
330
349
100
AcDbEntity
  8
001
 62
   253
370
    50
100
AcDbVertex
100
AcDb2dVertex
 10
74.152549
 20
105.904691
 30
0.0
  0
VERTEX
  5
34F
330
349
100
AcDbEntity
  8
001
 62
   253
370
    50
100
AcDbVertex
100
AcDb2dVertex
 10
73.502227
 20
105.909986
 30
0.0
  0
VERTEX
  5
350
330
349
100
AcDbEntity
  8
001
 62
   253
370
    50
100
AcDbVertex
100
AcDb2dVertex
 10
72.831463
 20
105.906822
 30
0.0
  0
VERTEX
  5
351
330
349
100
AcDbEntity
  8
001
 62
   253
370
    50
100
AcDbVertex
100
AcDb2dVertex
 10
72.160872
 20
105.893831
 30
0.0
  0
VERTEX
  5
352
330
349
100
AcDbEntity
  8
001
 62
   253
370
    50
100
AcDbVertex
100
AcDb2dVertex
 10
71.478701
 20
105.870008
 30
0.0
  0
VERTEX
  5
353
330
349
100
AcDbEntity
  8
001
 62
   253
370
    50
100
AcDbVertex
100
AcDb2dVertex
 10
70.796712
 20
105.84018
 30
0.0
  0
SEQEND
  5
34A
330
349
100
AcDbEntity
  8
001
370
    50
  0
POLYLINE
  5
354
330
1F
100
AcDbEntity
  8
001
 62
   253
370
    50
100
AcDb2dPolyline
 66
     1
 10
0.0
 20
0.0
 30
0.0
  0
VERTEX
  5
356
330
354
100
AcDbEntity
  8
001
 62
   253
370
    50
100
AcDbVertex
100
AcDb2dVertex
 10
74.758447
 20
113.289622
 30
0.0
  0
VERTEX
  5
357
330
354
100
AcDbEntity
  8
001
 62
   253
370
    50
100
AcDbVertex
100
AcDb2dVertex
 10
74.883016
 20
112.795729
 30
0.0
  0
VERTEX
  5
358
330
354
100
AcDbEntity
  8
001
 62
   253
370
    50
100
AcDbVertex
100
AcDb2dVertex
 10
75.002638
 20
112.30067
 30
0.0
  0
VERTEX
  5
359
330
354
100
AcDbEntity
  8
001
 62
   253
370
    50
100
AcDbVertex
100
AcDb2dVertex
 10
75.116927
 20
111.787862
 30
0.0
  0
VERTEX
  5
35A
330
354
100
AcDbEntity
  8
001
 62
   253
370
    50
100
AcDbVertex
100
AcDb2dVertex
 10
75.223128
 20
111.273269
 30
0.0
  0
VERTEX
  5
35B
330
354
100
AcDbEntity
  8
001
 62
   253
370
    50
100
AcDbVertex
100
AcDb2dVertex
 10
75.346594
 20
110.633397
 30
0.0
  0
VERTEX
  5
35C
330
354
100
AcDbEntity
  8
001
 62
   253
370
    50
100
AcDbVertex
100
AcDb2dVertex
 10
75.461971
 20
109.992041
 30
0.0
  0
VERTEX
  5
35D
330
354
100
AcDbEntity
  8
001
 62
   253
370
    50
100
AcDbVertex
100
AcDb2dVertex
 10
75.573755
 20
109.326084
 30
0.0
  0
VERTEX
  5
35E
330
354
100
AcDbEntity
  8
001
 62
   253
370
    50
100
AcDbVertex
100
AcDb2dVertex
 10
75.678853
 20
108.659027
 30
0.0
  0
VERTEX
  5
35F
330
354
100
AcDbEntity
  8
001
 62
   253
370
    50
100
AcDbVertex
100
AcDb2dVertex
 10
75.782228
 20
107.964952
 30
0.0
  0
VERTEX
  5
360
330
354
100
AcDbEntity
  8
001
 62
   253
370
    50
100
AcDbVertex
100
AcDb2dVertex
 10
75.880123
 20
107.270091
 30
0.0
  0
VERTEX
  5
361
330
354
100
AcDbEntity
  8
001
 62
   253
370
    50
100
AcDbVertex
100
AcDb2dVertex
 10
75.976155
 20
106.551956
 30
0.0
  0
VERTEX
  5
362
330
354
100
AcDbEntity
  8
001
 62
   253
370
    50
100
AcDbVertex
100
AcDb2dVertex
 10
76.069415
 20
105.833447
 30
0.0
  0
SEQEND
  5
355
330
354
100
AcDbEntity
  8
001
370
    50
  0
POLYLINE
  5
363
330
1F
100
AcDbEntity
  8
001
 62
   253
370
    50
100
AcDb2dPolyline
 66
     1
 10
0.0
 20
0.0
 30
0.0
  0
VERTEX
  5
365
330
363
100
AcDbEntity
  8
001
 62
   253
370
    50
100
AcDbVertex
100
AcDb2dVertex
 10
74.758447
 20
113.289622
 30
0.0
  0
VERTEX
  5
366
330
363
100
AcDbEntity
  8
001
 62
   253
370
    50
100
AcDbVertex
100
AcDb2dVertex
 10
75.233994
 20
113.219495
 30
0.0
  0
VERTEX
  5
367
330
363
100
AcDbEntity
  8
001
 62
   253
370
    50
100
AcDbVertex
100
AcDb2dVertex
 10
75.709007
 20
113.145993
 30
0.0
  0
VERTEX
  5
368
330
363
100
AcDbEntity
  8
001
 62
   253
370
    50
100
AcDbVertex
100
AcDb2dVertex
 10
76.176174
 20
113.067661
 30
0.0
  0
VERTEX
  5
369
330
363
100
AcDbEntity
  8
001
 62
   253
370
    50
100
AcDbVertex
100
AcDb2dVertex
 10
76.642376
 20
112.983665
 30
0.0
  0
VERTEX
  5
36A
330
363
100
AcDbEntity
  8
001
 62
   253
370
    50
100
AcDbVertex
100
AcDb2dVertex
 10
77.312869
 20
112.853935
 30
0.0
  0
VERTEX
  5
36B
330
363
100
AcDbEntity
  8
001
 62
   253
370
    50
100
AcDbVertex
100
AcDb2dVertex
 10
77.981334
 20
112.714173
 30
0.0
  0
VERTEX
  5
36C
330
363
100
AcDbEntity
  8
001
 62
   253
370
    50
100
AcDbVertex
100
AcDb2dVertex
 10
78.621142
 20
112.570484
 30
0.0
  0
VERTEX
  5
36D
330
363
100
AcDbEntity
  8
001
 62
   253
370
    50
100
AcDbVertex
100
AcDb2dVertex
 10
79.258841
 20
112.417697
 30
0.0
  0
VERTEX
  5
36E
330
363
100
AcDbEntity
  8
001
 62
   253
370
    50
100
AcDbVertex
100
AcDb2dVertex
 10
79.881203
 20
112.25954
 30
0.0
  0
VERTEX
  5
36F
330
363
100
AcDbEntity
  8
001
 62
   253
370
    50
100
AcDbVertex
100
AcDb2dVertex
 10
80.501462
 20
112.093329
 30
0.0
  0
VERTEX
  5
370
330
363
100
AcDbEntity
  8
001
 62
   253
370
    50
100
AcDbVertex
100
AcDb2dVertex
 10
81.079904
 20
111.930905
 30
0.0
  0
VERTEX
  5
371
330
363
100
AcDbEntity
  8
001
 62
   253
370
    50
100
AcDbVertex
100
AcDb2dVertex
 10
81.656539
 20
111.762181
 30
0.0
  0
VERTEX
  5
372
330
363
100
AcDbEntity
  8
001
 62
   253
370
    50
100
AcDbVertex
100
AcDb2dVertex
 10
82.146421
 20
111.613802
 30
0.0
  0
VERTEX
  5
373
330
363
100
AcDbEntity
  8
001
 62
   253
370
    50
100
AcDbVertex
100
AcDb2dVertex
 10
82.635147
 20
111.461662
 30
0.0
  0
VERTEX
  5
374
330
363
100
AcDbEntity
  8
001
 62
   253
370
    50
100
AcDbVertex
100
AcDb2dVertex
 10
83.079581
 20
111.32025
 30
0.0
  0
VERTEX
  5
375
330
363
100
AcDbEntity
  8
001
 62
   253
370
    50
100
AcDbVertex
100
AcDb2dVertex
 10
83.523362
 20
111.176794
 30
0.0
  0
VERTEX
  5
376
330
363
100
AcDbEntity
  8
001
 62
   253
370
    50
100
AcDbVertex
100
AcDb2dVertex
 10
83.931548
 20
111.043561
 30
0.0
  0
VERTEX
  5
377
330
363
100
AcDbEntity
  8
001
 62
   253
370
    50
100
AcDbVertex
100
AcDb2dVertex
 10
84.339689
 20
110.910219
 30
0.0
  0
VERTEX
  5
378
330
363
100
AcDbEntity
  8
001
 62
   253
370
    50
100
AcDbVertex
100
AcDb2dVertex
 10
84.694525
 20
110.795263
 30
0.0
  0
VERTEX
  5
379
330
363
100
AcDbEntity
  8
001
 62
   253
370
    50
100
AcDbVertex
100
AcDb2dVertex
 10
85.050096
 20
110.682499
 30
0.0
  0
VERTEX
  5
37A
330
363
100
AcDbEntity
  8
001
 62
   253
370
    50
100
AcDbVertex
100
AcDb2dVertex
 10
85.325999
 20
110.597936
 30
0.0
  0
VERTEX
  5
37B
330
363
100
AcDbEntity
  8
001
 62
   253
370
    50
100
AcDbVertex
100
AcDb2dVertex
 10
85.603099
 20
110.517647
 30
0.0
  0
VERTEX
  5
37C
330
363
100
AcDbEntity
  8
001
 62
   253
370
    50
100
AcDbVertex
100
AcDb2dVertex
 10
85.835214
 20
110.455572
 30
0.0
  0
VERTEX
  5
37D
330
363
100
AcDbEntity
  8
001
 62
   253
370
    50
100
AcDbVertex
100
AcDb2dVertex
 10
86.069009
 20
110.399341
 30
0.0
  0
VERTEX
  5
37E
330
363
100
AcDbEntity
  8
001
 62
   253
370
    50
100
AcDbVertex
100
AcDb2dVertex
 10
86.263232
 20
110.359499
 30
0.0
  0
VERTEX
  5
37F
330
363
100
AcDbEntity
  8
001
 62
   253
370
    50
100
AcDbVertex
100
AcDb2dVertex
 10
86.459195
 20
110.331864
 30
0.0
  0
VERTEX
  5
380
330
363
100
AcDbEntity
  8
001
 62
   253
370
    50
100
AcDbVertex
100
AcDb2dVertex
 10
86.564338
 20
110.323988
 30
0.0
  0
VERTEX
  5
381
330
363
100
AcDbEntity
  8
001
 62
   253
370
    50
100
AcDbVertex
100
AcDb2dVertex
 10
86.669761
 20
110.318877
 30
0.0
  0
SEQEND
  5
364
330
363
100
AcDbEntity
  8
001
370
    50
  0
POLYLINE
  5
382
330
1F
100
AcDbEntity
  8
001
 62
   253
370
    50
100
AcDb2dPolyline
 66
     1
 10
0.0
 20
0.0
 30
0.0
  0
VERTEX
  5
384
330
382
100
AcDbEntity
  8
001
 62
   253
370
    50
100
AcDbVertex
100
AcDb2dVertex
 10
76.069415
 20
53.474706
 30
0.0
  0
VERTEX
  5
385
330
382
100
AcDbEntity
  8
001
 62
   253
370
    50
100
AcDbVertex
100
AcDb2dVertex
 10
75.438243
 20
53.25074
 30
0.0
  0
VERTEX
  5
386
330
382
100
AcDbEntity
  8
001
 62
   253
370
    50
100
AcDbVertex
100
AcDb2dVertex
 10
74.802657
 20
53.040678
 30
0.0
  0
VERTEX
  5
387
330
382
100
AcDbEntity
  8
001
 62
   253
370
    50
100
AcDbVertex
100
AcDb2dVertex
 10
74.15579
 20
52.854425
 30
0.0
  0
VERTEX
  5
388
330
382
100
AcDbEntity
  8
001
 62
   253
370
    50
100
AcDbVertex
100
AcDb2dVertex
 10
73.502227
 20
52.691826
 30
0.0
  0
VERTEX
  5
389
330
382
100
AcDbEntity
  8
001
 62
   253
370
    50
100
AcDbVertex
100
AcDb2dVertex
 10
72.833813
 20
52.547998
 30
0.0
  0
VERTEX
  5
38A
330
382
100
AcDbEntity
  8
001
 62
   253
370
    50
100
AcDbVertex
100
AcDb2dVertex
 10
72.160872
 20
52.429075
 30
0.0
  0
VERTEX
  5
38B
330
382
100
AcDbEntity
  8
001
 62
   253
370
    50
100
AcDbVertex
100
AcDb2dVertex
 10
71.479918
 20
52.336368
 30
0.0
  0
VERTEX
  5
38C
330
382
100
AcDbEntity
  8
001
 62
   253
370
    50
100
AcDbVertex
100
AcDb2dVertex
 10
70.796712
 20
52.258852
 30
0.0
  0
SEQEND
  5
383
330
382
100
AcDbEntity
  8
001
370
    50
  0
POLYLINE
  5
38D
330
1F
100
AcDbEntity
  8
001
 62
   253
370
    50
100
AcDb2dPolyline
 66
     1
 10
0.0
 20
0.0
 30
0.0
  0
VERTEX
  5
38F
330
38D
100
AcDbEntity
  8
001
 62
   253
370
    50
100
AcDbVertex
100
AcDb2dVertex
 10
74.758447
 20
54.699943
 30
0.0
  0
VERTEX
  5
390
330
38D
100
AcDbEntity
  8
001
 62
   253
370
    50
100
AcDbVertex
100
AcDb2dVertex
 10
74.901607
 20
54.507912
 30
0.0
  0
VERTEX
  5
391
330
38D
100
AcDbEntity
  8
001
 62
   253
370
    50
100
AcDbVertex
100
AcDb2dVertex
 10
75.046634
 20
54.317339
 30
0.0
  0
VERTEX
  5
392
330
38D
100
AcDbEntity
  8
001
 62
   253
370
    50
100
AcDbVertex
100
AcDb2dVertex
 10
75.172396
 20
54.15818
 30
0.0
  0
VERTEX
  5
393
330
38D
100
AcDbEntity
  8
001
 62
   253
370
    50
100
AcDbVertex
100
AcDb2dVertex
 10
75.30236
 20
54.002311
 30
0.0
  0
VERTEX
  5
394
330
38D
100
AcDbEntity
  8
001
 62
   253
370
    50
100
AcDbVertex
100
AcDb2dVertex
 10
75.41472
 20
53.876699
 30
0.0
  0
VERTEX
  5
395
330
38D
100
AcDbEntity
  8
001
 62
   253
370
    50
100
AcDbVertex
100
AcDb2dVertex
 10
75.533225
 20
53.757176
 30
0.0
  0
VERTEX
  5
396
330
38D
100
AcDbEntity
  8
001
 62
   253
370
    50
100
AcDbVertex
100
AcDb2dVertex
 10
75.634816
 20
53.667555
 30
0.0
  0
VERTEX
  5
397
330
38D
100
AcDbEntity
  8
001
 62
   253
370
    50
100
AcDbVertex
100
AcDb2dVertex
 10
75.74402
 20
53.586504
 30
0.0
  0
VERTEX
  5
398
330
38D
100
AcDbEntity
  8
001
 62
   253
370
    50
100
AcDbVertex
100
AcDb2dVertex
 10
75.824786
 20
53.538102
 30
0.0
  0
VERTEX
  5
399
330
38D
100
AcDbEntity
  8
001
 62
   253
370
    50
100
AcDbVertex
100
AcDb2dVertex
 10
75.910751
 20
53.502204
 30
0.0
  0
VERTEX
  5
39A
330
38D
100
AcDbEntity
  8
001
 62
   253
370
    50
100
AcDbVertex
100
AcDb2dVertex
 10
75.989016
 20
53.484801
 30
0.0
  0
VERTEX
  5
39B
330
38D
100
AcDbEntity
  8
001
 62
   253
370
    50
100
AcDbVertex
100
AcDb2dVertex
 10
76.069415
 20
53.474706
 30
0.0
  0
SEQEND
  5
38E
330
38D
100
AcDbEntity
  8
001
370
    50
  0
LINE
  5
39C
330
1F
100
AcDbEntity
  8
001
 62
   253
370
    50
100
AcDbLine
 10
88.520534
 20
107.589522
 30
0.0
 11
88.520534
 21
67.589522
 31
0.0
  0
LINE
  5
39D
330
1F
100
AcDbEntity
  8
001
 62
   253
370
    50
100
AcDbLine
 10
69.937828
 20
81.745994
 30
0.0
 11
69.920198
 21
81.921547
 31
0.0
  0
POLYLINE
  5
39E
330
1F
100
AcDbEntity
  8
001
 62
   253
370
    50
100
AcDb2dPolyline
 66
     1
 10
0.0
 20
0.0
 30
0.0
  0
VERTEX
  5
3A0
330
39E
100
AcDbEntity
  8
001
 62
   253
370
    50
100
AcDbVertex
100
AcDb2dVertex
 10
65.649014
 20
85.349583
 30
0.0
  0
VERTEX
  5
3A1
330
39E
100
AcDbEntity
  8
001
 62
   253
370
    50
100
AcDbVertex
100
AcDb2dVertex
 10
67.192739
 20
85.667694
 30
0.0
  0
VERTEX
  5
3A2
330
39E
100
AcDbEntity
  8
001
 62
   253
370
    50
100
AcDbVertex
100
AcDb2dVertex
 10
69.080939
 20
86.292105
 30
0.0
  0
VERTEX
  5
3A3
330
39E
100
AcDbEntity
  8
001
 62
   253
370
    50
100
AcDbVertex
100
AcDb2dVertex
 10
69.474764
 20
86.504352
 30
0.0
  0
VERTEX
  5
3A4
330
39E
100
AcDbEntity
  8
001
 62
   253
370
    50
100
AcDbVertex
100
AcDb2dVertex
 10
69.877514
 20
86.807511
 30
0.0
  0
VERTEX
  5
3A5
330
39E
100
AcDbEntity
  8
001
 62
   253
370
    50
100
AcDbVertex
100
AcDb2dVertex
 10
69.955186
 20
86.875469
 30
0.0
  0
VERTEX
  5
3A6
330
39E
100
AcDbEntity
  8
001
 62
   253
370
    50
100
AcDbVertex
100
AcDb2dVertex
 10
70.00847
 20
86.923804
 30
0.0
  0
SEQEND
  5
39F
330
39E
100
AcDbEntity
  8
001
370
    50
  0
POLYLINE
  5
3A7
330
1F
100
AcDbEntity
  8
001
 62
   253
370
    50
100
AcDb2dPolyline
 66
     1
 10
0.0
 20
0.0
 30
0.0
  0
VERTEX
  5
3A9
330
3A7
100
AcDbEntity
  8
001
 62
   253
370
    50
100
AcDbVertex
100
AcDb2dVertex
 10
69.892463
 20
89.683457
 30
0.0
  0
VERTEX
  5
3AA
330
3A7
100
AcDbEntity
  8
001
 62
   253
370
    50
100
AcDbVertex
100
AcDb2dVertex
 10
69.921289
 20
88.935628
 30
0.0
  0
VERTEX
  5
3AB
330
3A7
100
AcDbEntity
  8
001
 62
   253
370
    50
100
AcDbVertex
100
AcDb2dVertex
 10
69.948289
 20
88.187729
 30
0.0
  0
VERTEX
  5
3AC
330
3A7
100
AcDbEntity
  8
001
 62
   253
370
    50
100
AcDbVertex
100
AcDb2dVertex
 10
69.971794
 20
87.437925
 30
0.0
  0
VERTEX
  5
3AD
330
3A7
100
AcDbEntity
  8
001
 62
   253
370
    50
100
AcDbVertex
100
AcDb2dVertex
 10
69.990438
 20
86.687993
 30
0.0
  0
VERTEX
  5
3AE
330
3A7
100
AcDbEntity
  8
001
 62
   253
370
    50
100
AcDbVertex
100
AcDb2dVertex
 10
70.00317
 20
85.934551
 30
0.0
  0
VERTEX
  5
3AF
330
3A7
100
AcDbEntity
  8
001
 62
   253
370
    50
100
AcDbVertex
100
AcDb2dVertex
 10
70.00919
 20
85.180998
 30
0.0
  0
VERTEX
  5
3B0
330
3A7
100
AcDbEntity
  8
001
 62
   253
370
    50
100
AcDbVertex
100
AcDb2dVertex
 10
70.007345
 20
84.427893
 30
0.0
  0
VERTEX
  5
3B1
330
3A7
100
AcDbEntity
  8
001
 62
   253
370
    50
100
AcDbVertex
100
AcDb2dVertex
 10
69.994268
 20
83.674967
 30
0.0
  0
VERTEX
  5
3B2
330
3A7
100
AcDbEntity
  8
001
 62
   253
370
    50
100
AcDbVertex
100
AcDb2dVertex
 10
69.96238
 20
82.7981
 30
0.0
  0
VERTEX
  5
3B3
330
3A7
100
AcDbEntity
  8
001
 62
   253
370
    50
100
AcDbVertex
100
AcDb2dVertex
 10
69.920198
 20
81.921547
 30
0.0
  0
SEQEND
  5
3A8
330
3A7
100
AcDbEntity
  8
001
370
    50
  0
LINE
  5
3B4
330
1F
100
AcDbEntity
  8
001
 62
   253
370
    50
100
AcDbLine
 10
68.935149
 20
105.741629
 30
0.0
 11
68.935149
 21
89.817907
 31
0.0
  0
POLYLINE
  5
3B5
330
1F
100
AcDbEntity
  8
001
 62
   253
370
    50
100
AcDb2dPolyline
 66
     1
 10
0.0
 20
0.0
 30
0.0
  0
VERTEX
  5
3B7
330
3B5
100
AcDbEntity
  8
001
 62
   253
370
    50
100
AcDbVertex
100
AcDb2dVertex
 10
70.796712
 20
105.84018
 30
0.0
  0
VERTEX
  5
3B8
330
3B5
100
AcDbEntity
  8
001
 62
   253
370
    50
100
AcDbVertex
100
AcDb2dVertex
 10
70.419101
 20
105.820227
 30
0.0
  0
VERTEX
  5
3B9
330
3B5
100
AcDbEntity
  8
001
 62
   253
370
    50
100
AcDbVertex
100
AcDb2dVertex
 10
69.86721
 20
105.791034
 30
0.0
  0
VERTEX
  5
3BA
330
3B5
100
AcDbEntity
  8
001
 62
   253
370
    50
100
AcDbVertex
100
AcDb2dVertex
 10
69.313798
 20
105.761713
 30
0.0
  0
VERTEX
  5
3BB
330
3B5
100
AcDbEntity
  8
001
 62
   253
370
    50
100
AcDbVertex
100
AcDb2dVertex
 10
68.935149
 20
105.741629
 30
0.0
  0
SEQEND
  5
3B6
330
3B5
100
AcDbEntity
  8
001
370
    50
  0
POLYLINE
  5
3BC
330
1F
100
AcDbEntity
  8
001
 62
   253
370
    50
100
AcDb2dPolyline
 66
     1
 10
0.0
 20
0.0
 30
0.0
  0
VERTEX
  5
3BE
330
3BC
100
AcDbEntity
  8
001
 62
   253
370
    50
100
AcDbVertex
100
AcDb2dVertex
 10
69.892463
 20
89.683457
 30
0.0
  0
VERTEX
  5
3BF
330
3BC
100
AcDbEntity
  8
001
 62
   253
370
    50
100
AcDbVertex
100
AcDb2dVertex
 10
69.698185
 20
89.710757
 30
0.0
  0
VERTEX
  5
3C0
330
3BC
100
AcDbEntity
  8
001
 62
   253
370
    50
100
AcDbVertex
100
AcDb2dVertex
 10
69.414238
 20
89.750645
 30
0.0
  0
VERTEX
  5
3C1
330
3BC
100
AcDbEntity
  8
001
 62
   253
370
    50
100
AcDbVertex
100
AcDb2dVertex
 10
69.12978
 20
89.790587
 30
0.0
  0
VERTEX
  5
3C2
330
3BC
100
AcDbEntity
  8
001
 62
   253
370
    50
100
AcDbVertex
100
AcDb2dVertex
 10
68.935149
 20
89.817907
 30
0.0
  0
SEQEND
  5
3BD
330
3BC
100
AcDbEntity
  8
001
370
    50
  0
LINE
  5
3C3
330
1F
100
AcDbEntity
  8
001
 62
   253
370
    50
100
AcDbLine
 10
55.758654
 20
88.798829
 30
0.0
 11
56.020526
 21
88.513684
 31
0.0
  0
LINE
  5
3C4
330
1F
100
AcDbEntity
  8
001
 62
   253
370
    50
100
AcDbLine
 10
55.758654
 20
88.986828
 30
0.0
 11
56.006838
 21
89.20371
 31
0.0
  0
LINE
  5
3C5
330
1F
100
AcDbEntity
  8
001
 62
   253
370
    50
100
AcDbLine
 10
56.006838
 20
89.20371
 30
0.0
 11
60.920393
 21
90.65708
 31
0.0
  0
POLYLINE
  5
3C6
330
1F
100
AcDbEntity
  8
001
 62
   253
370
    50
100
AcDb2dPolyline
 66
     1
 10
0.0
 20
0.0
 30
0.0
  0
VERTEX
  5
3C8
330
3C6
100
AcDbEntity
  8
001
 62
   253
370
    50
100
AcDbVertex
100
AcDb2dVertex
 10
68.935149
 20
89.817907
 30
0.0
  0
VERTEX
  5
3C9
330
3C6
100
AcDbEntity
  8
001
 62
   253
370
    50
100
AcDbVertex
100
AcDb2dVertex
 10
67.310323
 20
89.988655
 30
0.0
  0
VERTEX
  5
3CA
330
3C6
100
AcDbEntity
  8
001
 62
   253
370
    50
100
AcDbVertex
100
AcDb2dVertex
 10
64.935523
 20
90.237679
 30
0.0
  0
VERTEX
  5
3CB
330
3C6
100
AcDbEntity
  8
001
 62
   253
370
    50
100
AcDbVertex
100
AcDb2dVertex
 10
62.551562
 20
90.486914
 30
0.0
  0
VERTEX
  5
3CC
330
3C6
100
AcDbEntity
  8
001
 62
   253
370
    50
100
AcDbVertex
100
AcDb2dVertex
 10
60.920393
 20
90.65708
 30
0.0
  0
SEQEND
  5
3C7
330
3C6
100
AcDbEntity
  8
001
370
    50
  0
LINE
  5
3CD
330
1F
100
AcDbEntity
  8
001
 62
   253
370
    50
100
AcDbLine
 10
62.726659
 20
84.974427
 30
0.0
 11
65.649014
 21
85.349583
 31
0.0
  0
POLYLINE
  5
3CE
330
1F
100
AcDbEntity
  8
001
 62
   253
370
    50
100
AcDb2dPolyline
 66
     1
 10
0.0
 20
0.0
 30
0.0
  0
VERTEX
  5
3D0
330
3CE
100
AcDbEntity
  8
001
 62
   253
370
    50
100
AcDbVertex
100
AcDb2dVertex
 10
56.020526
 20
88.513684
 30
0.0
  0
VERTEX
  5
3D1
330
3CE
100
AcDbEntity
  8
001
 62
   253
370
    50
100
AcDbVertex
100
AcDb2dVertex
 10
57.718245
 20
87.638084
 30
0.0
  0
VERTEX
  5
3D2
330
3CE
100
AcDbEntity
  8
001
 62
   253
370
    50
100
AcDbVertex
100
AcDb2dVertex
 10
59.41132
 20
86.753687
 30
0.0
  0
VERTEX
  5
3D3
330
3CE
100
AcDbEntity
  8
001
 62
   253
370
    50
100
AcDbVertex
100
AcDb2dVertex
 10
61.071241
 20
85.868324
 30
0.0
  0
VERTEX
  5
3D4
330
3CE
100
AcDbEntity
  8
001
 62
   253
370
    50
100
AcDbVertex
100
AcDb2dVertex
 10
62.726659
 20
84.974427
 30
0.0
  0
SEQEND
  5
3CF
330
3CE
100
AcDbEntity
  8
001
370
    50
  0
POLYLINE
  5
3D5
330
1F
100
AcDbEntity
  8
001
 62
   253
370
    50
100
AcDb2dPolyline
 66
     1
 10
0.0
 20
0.0
 30
0.0
  0
VERTEX
  5
3D7
330
3D5
100
AcDbEntity
  8
001
 62
   253
370
    50
100
AcDbVertex
100
AcDb2dVertex
 10
65.346815
 20
88.671402
 30
0.0
  0
VERTEX
  5
3D8
330
3D5
100
AcDbEntity
  8
001
 62
   253
370
    50
100
AcDbVertex
100
AcDb2dVertex
 10
65.346715
 20
88.679311
 30
0.0
  0
VERTEX
  5
3D9
330
3D5
100
AcDbEntity
  8
001
 62
   253
370
    50
100
AcDbVertex
100
AcDb2dVertex
 10
65.346286
 20
88.690859
 30
0.0
  0
VERTEX
  5
3DA
330
3D5
100
AcDbEntity
  8
001
 62
   253
370
    50
100
AcDbVertex
100
AcDb2dVertex
 10
65.345459
 20
88.702472
 30
0.0
  0
VERTEX
  5
3DB
330
3D5
100
AcDbEntity
  8
001
 62
   253
370
    50
100
AcDbVertex
100
AcDb2dVertex
 10
65.344701
 20
88.710404
 30
0.0
  0
SEQEND
  5
3D6
330
3D5
100
AcDbEntity
  8
001
370
    50
  0
POLYLINE
  5
3DC
330
1F
100
AcDbEntity
  8
001
 62
   253
370
    50
100
AcDb2dPolyline
 66
     1
 10
0.0
 20
0.0
 30
0.0
  0
VERTEX
  5
3DE
330
3DC
100
AcDbEntity
  8
001
 62
   253
370
    50
100
AcDbVertex
100
AcDb2dVertex
 10
62.540239
 20
105.184893
 30
0.0
  0
VERTEX
  5
3DF
330
3DC
100
AcDbEntity
  8
001
 62
   253
370
    50
100
AcDbVertex
100
AcDb2dVertex
 10
62.532597
 20
104.914534
 30
0.0
  0
VERTEX
  5
3E0
330
3DC
100
AcDbEntity
  8
001
 62
   253
370
    50
100
AcDbVertex
100
AcDb2dVertex
 10
62.525871
 20
104.519322
 30
0.0
  0
VERTEX
  5
3E1
330
3DC
100
AcDbEntity
  8
001
 62
   253
370
    50
100
AcDbVertex
100
AcDb2dVertex
 10
62.528131
 20
103.866872
 30
0.0
  0
VERTEX
  5
3E2
330
3DC
100
AcDbEntity
  8
001
 62
   253
370
    50
100
AcDbVertex
100
AcDb2dVertex
 10
62.537749
 20
103.420496
 30
0.0
  0
SEQEND
  5
3DD
330
3DC
100
AcDbEntity
  8
001
370
    50
  0
POLYLINE
  5
3E3
330
1F
100
AcDbEntity
  8
001
 62
   253
370
    50
100
AcDb2dPolyline
 66
     1
 10
0.0
 20
0.0
 30
0.0
  0
VERTEX
  5
3E5
330
3E3
100
AcDbEntity
  8
001
 62
   253
370
    50
100
AcDbVertex
100
AcDb2dVertex
 10
68.935149
 20
105.741629
 30
0.0
  0
VERTEX
  5
3E6
330
3E3
100
AcDbEntity
  8
001
 62
   253
370
    50
100
AcDbVertex
100
AcDb2dVertex
 10
67.636988
 20
105.628963
 30
0.0
  0
VERTEX
  5
3E7
330
3E3
100
AcDbEntity
  8
001
 62
   253
370
    50
100
AcDbVertex
100
AcDb2dVertex
 10
65.739701
 20
105.463997
 30
0.0
  0
VERTEX
  5
3E8
330
3E3
100
AcDbEntity
  8
001
 62
   253
370
    50
100
AcDbVertex
100
AcDb2dVertex
 10
63.84001
 20
105.298401
 30
0.0
  0
VERTEX
  5
3E9
330
3E3
100
AcDbEntity
  8
001
 62
   253
370
    50
100
AcDbVertex
100
AcDb2dVertex
 10
62.540239
 20
105.184893
 30
0.0
  0
SEQEND
  5
3E4
330
3E3
100
AcDbEntity
  8
001
370
    50
  0
LINE
  5
3EA
330
1F
100
AcDbEntity
  8
001
 62
   253
370
    50
100
AcDbLine
 10
60.920393
 20
102.366448
 30
0.0
 11
60.920393
 21
90.65708
 31
0.0
  0
POLYLINE
  5
3EB
330
1F
100
AcDbEntity
  8
001
 62
   253
370
    50
100
AcDb2dPolyline
 66
     1
 10
0.0
 20
0.0
 30
0.0
  0
VERTEX
  5
3ED
330
3EB
100
AcDbEntity
  8
001
 62
   253
370
    50
100
AcDbVertex
100
AcDb2dVertex
 10
63.003348
 20
102.5554
 30
0.0
  0
VERTEX
  5
3EE
330
3EB
100
AcDbEntity
  8
001
 62
   253
370
    50
100
AcDbVertex
100
AcDb2dVertex
 10
62.580272
 20
102.517058
 30
0.0
  0
VERTEX
  5
3EF
330
3EB
100
AcDbEntity
  8
001
 62
   253
370
    50
100
AcDbVertex
100
AcDb2dVertex
 10
61.961935
 20
102.460988
 30
0.0
  0
VERTEX
  5
3F0
330
3EB
100
AcDbEntity
  8
001
 62
   253
370
    50
100
AcDbVertex
100
AcDb2dVertex
 10
61.343518
 20
102.404868
 30
0.0
  0
VERTEX
  5
3F1
330
3EB
100
AcDbEntity
  8
001
 62
   253
370
    50
100
AcDbVertex
100
AcDb2dVertex
 10
60.920393
 20
102.366448
 30
0.0
  0
SEQEND
  5
3EC
330
3EB
100
AcDbEntity
  8
001
370
    50
  0
POLYLINE
  5
3F2
330
1F
100
AcDbEntity
  8
001
 62
   253
370
    50
100
AcDb2dPolyline
 66
     1
 10
0.0
 20
0.0
 30
0.0
  0
VERTEX
  5
3F4
330
3F2
100
AcDbEntity
  8
001
 62
   253
370
    50
100
AcDbVertex
100
AcDb2dVertex
 10
62.962989
 20
103.458575
 30
0.0
  0
VERTEX
  5
3F5
330
3F2
100
AcDbEntity
  8
001
 62
   253
370
    50
100
AcDbVertex
100
AcDb2dVertex
 10
62.968971
 20
103.275712
 30
0.0
  0
VERTEX
  5
3F6
330
3F2
100
AcDbEntity
  8
001
 62
   253
370
    50
100
AcDbVertex
100
AcDb2dVertex
 10
62.979596
 20
103.008525
 30
0.0
  0
VERTEX
  5
3F7
330
3F2
100
AcDbEntity
  8
001
 62
   253
370
    50
100
AcDbVertex
100
AcDb2dVertex
 10
62.992933
 20
102.739444
 30
0.0
  0
VERTEX
  5
3F8
330
3F2
100
AcDbEntity
  8
001
 62
   253
370
    50
100
AcDbVertex
100
AcDb2dVertex
 10
63.003348
 20
102.5554
 30
0.0
  0
SEQEND
  5
3F3
330
3F2
100
AcDbEntity
  8
001
370
    50
  0
POLYLINE
  5
3F9
330
1F
100
AcDbEntity
  8
001
 62
   253
370
    50
100
AcDb2dPolyline
 66
     1
 10
0.0
 20
0.0
 30
0.0
  0
VERTEX
  5
3FB
330
3F9
100
AcDbEntity
  8
001
 62
   253
370
    50
100
AcDbVertex
100
AcDb2dVertex
 10
62.962989
 20
103.458575
 30
0.0
  0
VERTEX
  5
3FC
330
3F9
100
AcDbEntity
  8
001
 62
   253
370
    50
100
AcDbVertex
100
AcDb2dVertex
 10
62.876614
 20
103.450842
 30
0.0
  0
VERTEX
  5
3FD
330
3F9
100
AcDbEntity
  8
001
 62
   253
370
    50
100
AcDbVertex
100
AcDb2dVertex
 10
62.750373
 20
103.439538
 30
0.0
  0
VERTEX
  5
3FE
330
3F9
100
AcDbEntity
  8
001
 62
   253
370
    50
100
AcDbVertex
100
AcDb2dVertex
 10
62.624127
 20
103.428232
 30
0.0
  0
VERTEX
  5
3FF
330
3F9
100
AcDbEntity
  8
001
 62
   253
370
    50
100
AcDbVertex
100
AcDb2dVertex
 10
62.537749
 20
103.420496
 30
0.0
  0
SEQEND
  5
3FA
330
3F9
100
AcDbEntity
  8
001
370
    50
  0
LINE
  5
400
330
1F
100
AcDbEntity
  8
001
 62
   253
370
    50
100
AcDbLine
 10
60.920393
 20
102.366448
 30
0.0
 11
56.006838
 21
100.049321
 31
0.0
  0
LINE
  5
401
330
1F
100
AcDbEntity
  8
001
 62
   253
370
    50
100
AcDbLine
 10
56.006838
 20
100.049321
 30
0.0
 11
56.006838
 21
89.20371
 31
0.0
  0
POLYLINE
  5
402
330
1F
100
AcDbEntity
  8
001
 62
   253
370
    50
100
AcDb2dPolyline
 66
     1
 10
0.0
 20
0.0
 30
0.0
  0
VERTEX
  5
404
330
402
100
AcDbEntity
  8
001
 62
   253
370
    50
100
AcDbVertex
100
AcDb2dVertex
 10
60.27352
 20
89.100919
 30
0.0
  0
VERTEX
  5
405
330
402
100
AcDbEntity
  8
001
 62
   253
370
    50
100
AcDbVertex
100
AcDb2dVertex
 10
60.280518
 20
89.062782
 30
0.0
  0
VERTEX
  5
406
330
402
100
AcDbEntity
  8
001
 62
   253
370
    50
100
AcDbVertex
100
AcDb2dVertex
 10
60.294418
 20
89.010032
 30
0.0
  0
VERTEX
  5
407
330
402
100
AcDbEntity
  8
001
 62
   253
370
    50
100
AcDbVertex
100
AcDb2dVertex
 10
60.336533
 20
88.915134
 30
0.0
  0
VERTEX
  5
408
330
402
100
AcDbEntity
  8
001
 62
   253
370
    50
100
AcDbVertex
100
AcDb2dVertex
 10
60.391832
 20
88.83936
 30
0.0
  0
VERTEX
  5
409
330
402
100
AcDbEntity
  8
001
 62
   253
370
    50
100
AcDbVertex
100
AcDb2dVertex
 10
60.472436
 20
88.752598
 30
0.0
  0
VERTEX
  5
40A
330
402
100
AcDbEntity
  8
001
 62
   253
370
    50
100
AcDbVertex
100
AcDb2dVertex
 10
60.562694
 20
88.670703
 30
0.0
  0
VERTEX
  5
40B
330
402
100
AcDbEntity
  8
001
 62
   253
370
    50
100
AcDbVertex
100
AcDb2dVertex
 10
60.985826
 20
88.405256
 30
0.0
  0
VERTEX
  5
40C
330
402
100
AcDbEntity
  8
001
 62
   253
370
    50
100
AcDbVertex
100
AcDb2dVertex
 10
61.453903
 20
88.226831
 30
0.0
  0
VERTEX
  5
40D
330
402
100
AcDbEntity
  8
001
 62
   253
370
    50
100
AcDbVertex
100
AcDb2dVertex
 10
61.859082
 20
88.112821
 30
0.0
  0
VERTEX
  5
40E
330
402
100
AcDbEntity
  8
001
 62
   253
370
    50
100
AcDbVertex
100
AcDb2dVertex
 10
62.269452
 20
88.026354
 30
0.0
  0
VERTEX
  5
40F
330
402
100
AcDbEntity
  8
001
 62
   253
370
    50
100
AcDbVertex
100
AcDb2dVertex
 10
62.488236
 20
87.991928
 30
0.0
  0
VERTEX
  5
410
330
402
100
AcDbEntity
  8
001
 62
   253
370
    50
100
AcDbVertex
100
AcDb2dVertex
 10
62.708239
 20
87.964851
 30
0.0
  0
VERTEX
  5
411
330
402
100
AcDbEntity
  8
001
 62
   253
370
    50
100
AcDbVertex
100
AcDb2dVertex
 10
62.929004
 20
87.944789
 30
0.0
  0
VERTEX
  5
412
330
402
100
AcDbEntity
  8
001
 62
   253
370
    50
100
AcDbVertex
100
AcDb2dVertex
 10
63.150091
 20
87.931934
 30
0.0
  0
VERTEX
  5
413
330
402
100
AcDbEntity
  8
001
 62
   253
370
    50
100
AcDbVertex
100
AcDb2dVertex
 10
63.569248
 20
87.928582
 30
0.0
  0
VERTEX
  5
414
330
402
100
AcDbEntity
  8
001
 62
   253
370
    50
100
AcDbVertex
100
AcDb2dVertex
 10
63.989603
 20
87.954961
 30
0.0
  0
VERTEX
  5
415
330
402
100
AcDbEntity
  8
001
 62
   253
370
    50
100
AcDbVertex
100
AcDb2dVertex
 10
64.485974
 20
88.03441
 30
0.0
  0
VERTEX
  5
416
330
402
100
AcDbEntity
  8
001
 62
   253
370
    50
100
AcDbVertex
100
AcDb2dVertex
 10
64.954655
 20
88.19981
 30
0.0
  0
VERTEX
  5
417
330
402
100
AcDbEntity
  8
001
 62
   253
370
    50
100
AcDbVertex
100
AcDb2dVertex
 10
65.059486
 20
88.257843
 30
0.0
  0
VERTEX
  5
418
330
402
100
AcDbEntity
  8
001
 62
   253
370
    50
100
AcDbVertex
100
AcDb2dVertex
 10
65.157388
 20
88.328411
 30
0.0
  0
VERTEX
  5
419
330
402
100
AcDbEntity
  8
001
 62
   253
370
    50
100
AcDbVertex
100
AcDb2dVertex
 10
65.229331
 20
88.397877
 30
0.0
  0
VERTEX
  5
41A
330
402
100
AcDbEntity
  8
001
 62
   253
370
    50
100
AcDbVertex
100
AcDb2dVertex
 10
65.28877
 20
88.474551
 30
0.0
  0
VERTEX
  5
41B
330
402
100
AcDbEntity
  8
001
 62
   253
370
    50
100
AcDbVertex
100
AcDb2dVertex
 10
65.325527
 20
88.545644
 30
0.0
  0
VERTEX
  5
41C
330
402
100
AcDbEntity
  8
001
 62
   253
370
    50
100
AcDbVertex
100
AcDb2dVertex
 10
65.344809
 20
88.633791
 30
0.0
  0
VERTEX
  5
41D
330
402
100
AcDbEntity
  8
001
 62
   253
370
    50
100
AcDbVertex
100
AcDb2dVertex
 10
65.346323
 20
88.655917
 30
0.0
  0
VERTEX
  5
41E
330
402
100
AcDbEntity
  8
001
 62
   253
370
    50
100
AcDbVertex
100
AcDb2dVertex
 10
65.346815
 20
88.671402
 30
0.0
  0
SEQEND
  5
403
330
402
100
AcDbEntity
  8
001
370
    50
  0
POLYLINE
  5
41F
330
1F
100
AcDbEntity
  8
001
 62
   253
370
    50
100
AcDb2dPolyline
 66
     1
 10
0.0
 20
0.0
 30
0.0
  0
VERTEX
  5
421
330
41F
100
AcDbEntity
  8
001
 62
   253
370
    50
100
AcDbVertex
100
AcDb2dVertex
 10
65.344701
 20
88.710404
 30
0.0
  0
VERTEX
  5
422
330
41F
100
AcDbEntity
  8
001
 62
   253
370
    50
100
AcDbVertex
100
AcDb2dVertex
 10
65.337702
 20
88.748542
 30
0.0
  0
VERTEX
  5
423
330
41F
100
AcDbEntity
  8
001
 62
   253
370
    50
100
AcDbVertex
100
AcDb2dVertex
 10
65.323802
 20
88.801291
 30
0.0
  0
VERTEX
  5
424
330
41F
100
AcDbEntity
  8
001
 62
   253
370
    50
100
AcDbVertex
100
AcDb2dVertex
 10
65.281687
 20
88.89619
 30
0.0
  0
VERTEX
  5
425
330
41F
100
AcDbEntity
  8
001
 62
   253
370
    50
100
AcDbVertex
100
AcDb2dVertex
 10
65.226388
 20
88.971963
 30
0.0
  0
VERTEX
  5
426
330
41F
100
AcDbEntity
  8
001
 62
   253
370
    50
100
AcDbVertex
100
AcDb2dVertex
 10
65.145784
 20
89.058725
 30
0.0
  0
VERTEX
  5
427
330
41F
100
AcDbEntity
  8
001
 62
   253
370
    50
100
AcDbVertex
100
AcDb2dVertex
 10
65.055526
 20
89.14062
 30
0.0
  0
VERTEX
  5
428
330
41F
100
AcDbEntity
  8
001
 62
   253
370
    50
100
AcDbVertex
100
AcDb2dVertex
 10
64.632394
 20
89.406067
 30
0.0
  0
VERTEX
  5
429
330
41F
100
AcDbEntity
  8
001
 62
   253
370
    50
100
AcDbVertex
100
AcDb2dVertex
 10
64.164317
 20
89.584492
 30
0.0
  0
VERTEX
  5
42A
330
41F
100
AcDbEntity
  8
001
 62
   253
370
    50
100
AcDbVertex
100
AcDb2dVertex
 10
63.759138
 20
89.698503
 30
0.0
  0
VERTEX
  5
42B
330
41F
100
AcDbEntity
  8
001
 62
   253
370
    50
100
AcDbVertex
100
AcDb2dVertex
 10
63.348768
 20
89.784969
 30
0.0
  0
VERTEX
  5
42C
330
41F
100
AcDbEntity
  8
001
 62
   253
370
    50
100
AcDbVertex
100
AcDb2dVertex
 10
63.129983
 20
89.819395
 30
0.0
  0
VERTEX
  5
42D
330
41F
100
AcDbEntity
  8
001
 62
   253
370
    50
100
AcDbVertex
100
AcDb2dVertex
 10
62.909981
 20
89.846472
 30
0.0
  0
VERTEX
  5
42E
330
41F
100
AcDbEntity
  8
001
 62
   253
370
    50
100
AcDbVertex
100
AcDb2dVertex
 10
62.689219
 20
89.866538
 30
0.0
  0
VERTEX
  5
42F
330
41F
100
AcDbEntity
  8
001
 62
   253
370
    50
100
AcDbVertex
100
AcDb2dVertex
 10
62.468129
 20
89.879389
 30
0.0
  0
VERTEX
  5
430
330
41F
100
AcDbEntity
  8
001
 62
   253
370
    50
100
AcDbVertex
100
AcDb2dVertex
 10
62.048952
 20
89.882709
 30
0.0
  0
VERTEX
  5
431
330
41F
100
AcDbEntity
  8
001
 62
   253
370
    50
100
AcDbVertex
100
AcDb2dVertex
 10
61.628617
 20
89.856363
 30
0.0
  0
VERTEX
  5
432
330
41F
100
AcDbEntity
  8
001
 62
   253
370
    50
100
AcDbVertex
100
AcDb2dVertex
 10
61.132349
 20
89.777076
 30
0.0
  0
VERTEX
  5
433
330
41F
100
AcDbEntity
  8
001
 62
   253
370
    50
100
AcDbVertex
100
AcDb2dVertex
 10
60.663566
 20
89.611514
 30
0.0
  0
VERTEX
  5
434
330
41F
100
AcDbEntity
  8
001
 62
   253
370
    50
100
AcDbVertex
100
AcDb2dVertex
 10
60.558666
 20
89.553372
 30
0.0
  0
VERTEX
  5
435
330
41F
100
AcDbEntity
  8
001
 62
   253
370
    50
100
AcDbVertex
100
AcDb2dVertex
 10
60.460832
 20
89.482913
 30
0.0
  0
VERTEX
  5
436
330
41F
100
AcDbEntity
  8
001
 62
   253
370
    50
100
AcDbVertex
100
AcDb2dVertex
 10
60.38906
 20
89.413716
 30
0.0
  0
VERTEX
  5
437
330
41F
100
AcDbEntity
  8
001
 62
   253
370
    50
100
AcDbVertex
100
AcDb2dVertex
 10
60.32945
 20
89.336772
 30
0.0
  0
VERTEX
  5
438
330
41F
100
AcDbEntity
  8
001
 62
   253
370
    50
100
AcDbVertex
100
AcDb2dVertex
 10
60.292191
 20
89.264886
 30
0.0
  0
VERTEX
  5
439
330
41F
100
AcDbEntity
  8
001
 62
   253
370
    50
100
AcDbVertex
100
AcDb2dVertex
 10
60.273411
 20
89.177532
 30
0.0
  0
VERTEX
  5
43A
330
41F
100
AcDbEntity
  8
001
 62
   253
370
    50
100
AcDbVertex
100
AcDb2dVertex
 10
60.272089
 20
89.132723
 30
0.0
  0
VERTEX
  5
43B
330
41F
100
AcDbEntity
  8
001
 62
   253
370
    50
100
AcDbVertex
100
AcDb2dVertex
 10
60.27352
 20
89.100919
 30
0.0
  0
SEQEND
  5
420
330
41F
100
AcDbEntity
  8
001
370
    50
  0
LINE
  5
43C
330
1F
100
AcDbEntity
  8
001
 62
   253
370
    50
100
AcDbLine
 10
62.537749
 20
103.420496
 30
0.0
 11
62.968186
 21
103.2957
 31
0.0
  0
LINE
  5
43D
330
1F
100
AcDbEntity
  8
001
 62
   253
370
    50
100
AcDbLine
 10
55.758654
 20
99.797413
 30
0.0
 11
55.758654
 21
88.798829
 31
0.0
  0
LINE
  5
43E
330
1F
100
AcDbEntity
  8
001
 62
   253
370
    50
100
AcDbLine
 10
56.006838
 20
100.049321
 30
0.0
 11
55.758654
 21
99.797413
 31
0.0
  0
POLYLINE
  5
43F
330
1F
100
AcDbEntity
  8
001
 62
   253
370
    50
100
AcDb2dPolyline
 66
     1
 10
0.0
 20
0.0
 30
0.0
  0
VERTEX
  5
441
330
43F
100
AcDbEntity
  8
001
 62
   253
370
    50
100
AcDbVertex
100
AcDb2dVertex
 10
74.758447
 20
113.289622
 30
0.0
  0
VERTEX
  5
442
330
43F
100
AcDbEntity
  8
001
 62
   253
370
    50
100
AcDbVertex
100
AcDb2dVertex
 10
74.641942
 20
113.105794
 30
0.0
  0
VERTEX
  5
443
330
43F
100
AcDbEntity
  8
001
 62
   253
370
    50
100
AcDbVertex
100
AcDb2dVertex
 10
74.517786
 20
112.927522
 30
0.0
  0
VERTEX
  5
444
330
43F
100
AcDbEntity
  8
001
 62
   253
370
    50
100
AcDbVertex
100
AcDb2dVertex
 10
74.376973
 20
112.75566
 30
0.0
  0
VERTEX
  5
445
330
43F
100
AcDbEntity
  8
001
 62
   253
370
    50
100
AcDbVertex
100
AcDb2dVertex
 10
74.223763
 20
112.594292
 30
0.0
  0
VERTEX
  5
446
330
43F
100
AcDbEntity
  8
001
 62
   253
370
    50
100
AcDbVertex
100
AcDb2dVertex
 10
74.051822
 20
112.434208
 30
0.0
  0
VERTEX
  5
447
330
43F
100
AcDbEntity
  8
001
 62
   253
370
    50
100
AcDbVertex
100
AcDb2dVertex
 10
73.870812
 20
112.284677
 30
0.0
  0
VERTEX
  5
448
330
43F
100
AcDbEntity
  8
001
 62
   253
370
    50
100
AcDbVertex
100
AcDb2dVertex
 10
73.672294
 20
112.139241
 30
0.0
  0
VERTEX
  5
449
330
43F
100
AcDbEntity
  8
001
 62
   253
370
    50
100
AcDbVertex
100
AcDb2dVertex
 10
73.466106
 20
112.004766
 30
0.0
  0
VERTEX
  5
44A
330
43F
100
AcDbEntity
  8
001
 62
   253
370
    50
100
AcDbVertex
100
AcDb2dVertex
 10
73.18728
 20
111.844351
 30
0.0
  0
VERTEX
  5
44B
330
43F
100
AcDbEntity
  8
001
 62
   253
370
    50
100
AcDbVertex
100
AcDb2dVertex
 10
72.899844
 20
111.699902
 30
0.0
  0
VERTEX
  5
44C
330
43F
100
AcDbEntity
  8
001
 62
   253
370
    50
100
AcDbVertex
100
AcDb2dVertex
 10
72.584492
 20
111.561106
 30
0.0
  0
VERTEX
  5
44D
330
43F
100
AcDbEntity
  8
001
 62
   253
370
    50
100
AcDbVertex
100
AcDb2dVertex
 10
72.263105
 20
111.436805
 30
0.0
  0
VERTEX
  5
44E
330
43F
100
AcDbEntity
  8
001
 62
   253
370
    50
100
AcDbVertex
100
AcDb2dVertex
 10
71.904838
 20
111.314935
 30
0.0
  0
VERTEX
  5
44F
330
43F
100
AcDbEntity
  8
001
 62
   253
370
    50
100
AcDbVertex
100
AcDb2dVertex
 10
71.541983
 20
111.207787
 30
0.0
  0
VERTEX
  5
450
330
43F
100
AcDbEntity
  8
001
 62
   253
370
    50
100
AcDbVertex
100
AcDb2dVertex
 10
71.15049
 20
111.108
 30
0.0
  0
VERTEX
  5
451
330
43F
100
AcDbEntity
  8
001
 62
   253
370
    50
100
AcDbVertex
100
AcDb2dVertex
 10
70.756851
 20
111.01647
 30
0.0
  0
SEQEND
  5
440
330
43F
100
AcDbEntity
  8
001
370
    50
  0
POLYLINE
  5
452
330
1F
100
AcDbEntity
  8
001
 62
   253
370
    50
100
AcDb2dPolyline
 66
     1
 10
0.0
 20
0.0
 30
0.0
  0
VERTEX
  5
454
330
452
100
AcDbEntity
  8
001
 62
   253
370
    50
100
AcDbVertex
100
AcDb2dVertex
 10
62.726659
 20
84.974427
 30
0.0
  0
VERTEX
  5
455
330
452
100
AcDbEntity
  8
001
 62
   253
370
    50
100
AcDbVertex
100
AcDb2dVertex
 10
62.3468
 20
83.979022
 30
0.0
  0
VERTEX
  5
456
330
452
100
AcDbEntity
  8
001
 62
   253
370
    50
100
AcDbVertex
100
AcDb2dVertex
 10
61.954089
 20
82.988821
 30
0.0
  0
VERTEX
  5
457
330
452
100
AcDbEntity
  8
001
 62
   253
370
    50
100
AcDbVertex
100
AcDb2dVertex
 10
61.535159
 20
81.999588
 30
0.0
  0
VERTEX
  5
458
330
452
100
AcDbEntity
  8
001
 62
   253
370
    50
100
AcDbVertex
100
AcDb2dVertex
 10
61.095946
 20
81.019001
 30
0.0
  0
VERTEX
  5
459
330
452
100
AcDbEntity
  8
001
 62
   253
370
    50
100
AcDbVertex
100
AcDb2dVertex
 10
60.63603
 20
80.035228
 30
0.0
  0
VERTEX
  5
45A
330
452
100
AcDbEntity
  8
001
 62
   253
370
    50
100
AcDbVertex
100
AcDb2dVertex
 10
60.159373
 20
79.059598
 30
0.0
  0
VERTEX
  5
45B
330
452
100
AcDbEntity
  8
001
 62
   253
370
    50
100
AcDbVertex
100
AcDb2dVertex
 10
59.663345
 20
78.087559
 30
0.0
  0
VERTEX
  5
45C
330
452
100
AcDbEntity
  8
001
 62
   253
370
    50
100
AcDbVertex
100
AcDb2dVertex
 10
59.157849
 20
77.120285
 30
0.0
  0
SEQEND
  5
453
330
452
100
AcDbEntity
  8
001
370
    50
  0
POLYLINE
  5
45D
330
1F
100
AcDbEntity
  8
001
 62
   253
370
    50
100
AcDb2dPolyline
 66
     1
 10
0.0
 20
0.0
 30
0.0
  0
VERTEX
  5
45F
330
45D
100
AcDbEntity
  8
001
 62
   253
370
    50
100
AcDbVertex
100
AcDb2dVertex
 10
61.029222
 20
110.520817
 30
0.0
  0
VERTEX
  5
460
330
45D
100
AcDbEntity
  8
001
 62
   253
370
    50
100
AcDbVertex
100
AcDb2dVertex
 10
61.692171
 20
110.448124
 30
0.0
  0
VERTEX
  5
461
330
45D
100
AcDbEntity
  8
001
 62
   253
370
    50
100
AcDbVertex
100
AcDb2dVertex
 10
62.663348
 20
110.369405
 30
0.0
  0
VERTEX
  5
462
330
45D
100
AcDbEntity
  8
001
 62
   253
370
    50
100
AcDbVertex
100
AcDb2dVertex
 10
63.653874
 20
110.328139
 30
0.0
  0
VERTEX
  5
463
330
45D
100
AcDbEntity
  8
001
 62
   253
370
    50
100
AcDbVertex
100
AcDb2dVertex
 10
64.332394
 20
110.318877
 30
0.0
  0
SEQEND
  5
45E
330
45D
100
AcDbEntity
  8
001
370
    50
  0
POLYLINE
  5
464
330
1F
100
AcDbEntity
  8
001
 62
   253
370
    50
100
AcDb2dPolyline
 66
     1
 10
0.0
 20
0.0
 30
0.0
  0
VERTEX
  5
466
330
464
100
AcDbEntity
  8
001
 62
   253
370
    50
100
AcDbVertex
100
AcDb2dVertex
 10
86.669761
 20
110.318877
 30
0.0
  0
VERTEX
  5
467
330
464
100
AcDbEntity
  8
001
 62
   253
370
    50
100
AcDbVertex
100
AcDb2dVertex
 10
86.717804
 20
110.320079
 30
0.0
  0
VERTEX
  5
468
330
464
100
AcDbEntity
  8
001
 62
   253
370
    50
100
AcDbVertex
100
AcDb2dVertex
 10
86.765903
 20
110.322402
 30
0.0
  0
VERTEX
  5
469
330
464
100
AcDbEntity
  8
001
 62
   253
370
    50
100
AcDbVertex
100
AcDb2dVertex
 10
86.887687
 20
110.339211
 30
0.0
  0
VERTEX
  5
46A
330
464
100
AcDbEntity
  8
001
 62
   253
370
    50
100
AcDbVertex
100
AcDb2dVertex
 10
87.00412
 20
110.378146
 30
0.0
  0
VERTEX
  5
46B
330
464
100
AcDbEntity
  8
001
 62
   253
370
    50
100
AcDbVertex
100
AcDb2dVertex
 10
87.0908
 20
110.431094
 30
0.0
  0
VERTEX
  5
46C
330
464
100
AcDbEntity
  8
001
 62
   253
370
    50
100
AcDbVertex
100
AcDb2dVertex
 10
87.162089
 20
110.502507
 30
0.0
  0
VERTEX
  5
46D
330
464
100
AcDbEntity
  8
001
 62
   253
370
    50
100
AcDbVertex
100
AcDb2dVertex
 10
87.215014
 20
110.59662
 30
0.0
  0
VERTEX
  5
46E
330
464
100
AcDbEntity
  8
001
 62
   253
370
    50
100
AcDbVertex
100
AcDb2dVertex
 10
87.245796
 20
110.701215
 30
0.0
  0
VERTEX
  5
46F
330
464
100
AcDbEntity
  8
001
 62
   253
370
    50
100
AcDbVertex
100
AcDb2dVertex
 10
87.259731
 20
110.836241
 30
0.0
  0
VERTEX
  5
470
330
464
100
AcDbEntity
  8
001
 62
   253
370
    50
100
AcDbVertex
100
AcDb2dVertex
 10
87.253759
 20
110.971693
 30
0.0
  0
VERTEX
  5
471
330
464
100
AcDbEntity
  8
001
 62
   253
370
    50
100
AcDbVertex
100
AcDb2dVertex
 10
87.222102
 20
111.170679
 30
0.0
  0
VERTEX
  5
472
330
464
100
AcDbEntity
  8
001
 62
   253
370
    50
100
AcDbVertex
100
AcDb2dVertex
 10
87.171236
 20
111.365813
 30
0.0
  0
VERTEX
  5
473
330
464
100
AcDbEntity
  8
001
 62
   253
370
    50
100
AcDbVertex
100
AcDb2dVertex
 10
87.087349
 20
111.609998
 30
0.0
  0
VERTEX
  5
474
330
464
100
AcDbEntity
  8
001
 62
   253
370
    50
100
AcDbVertex
100
AcDb2dVertex
 10
86.986914
 20
111.847706
 30
0.0
  0
VERTEX
  5
475
330
464
100
AcDbEntity
  8
001
 62
   253
370
    50
100
AcDbVertex
100
AcDb2dVertex
 10
86.931575
 20
111.964694
 30
0.0
  0
VERTEX
  5
476
330
464
100
AcDbEntity
  8
001
 62
   253
370
    50
100
AcDbVertex
100
AcDb2dVertex
 10
86.874585
 20
112.080888
 30
0.0
  0
SEQEND
  5
465
330
464
100
AcDbEntity
  8
001
370
    50
  0
POLYLINE
  5
477
330
1F
100
AcDbEntity
  8
001
 62
   253
370
    50
100
AcDb2dPolyline
 66
     1
 10
0.0
 20
0.0
 30
0.0
  0
VERTEX
  5
479
330
477
100
AcDbEntity
  8
001
 62
   253
370
    50
100
AcDbVertex
100
AcDb2dVertex
 10
64.332394
 20
110.318877
 30
0.0
  0
VERTEX
  5
47A
330
477
100
AcDbEntity
  8
001
 62
   253
370
    50
100
AcDbVertex
100
AcDb2dVertex
 10
65.626968
 20
110.35313
 30
0.0
  0
VERTEX
  5
47B
330
477
100
AcDbEntity
  8
001
 62
   253
370
    50
100
AcDbVertex
100
AcDb2dVertex
 10
67.512453
 20
110.493785
 30
0.0
  0
VERTEX
  5
47C
330
477
100
AcDbEntity
  8
001
 62
   253
370
    50
100
AcDbVertex
100
AcDb2dVertex
 10
69.444013
 20
110.767255
 30
0.0
  0
VERTEX
  5
47D
330
477
100
AcDbEntity
  8
001
 62
   253
370
    50
100
AcDbVertex
100
AcDb2dVertex
 10
70.756851
 20
111.01647
 30
0.0
  0
SEQEND
  5
478
330
477
100
AcDbEntity
  8
001
370
    50
  0
POLYLINE
  5
47E
330
1F
100
AcDbEntity
  8
001
 62
   253
370
    50
100
AcDb2dPolyline
 66
     1
 10
0.0
 20
0.0
 30
0.0
  0
VERTEX
  5
480
330
47E
100
AcDbEntity
  8
001
 62
   253
370
    50
100
AcDbVertex
100
AcDb2dVertex
 10
61.029222
 20
110.520817
 30
0.0
  0
VERTEX
  5
481
330
47E
100
AcDbEntity
  8
001
 62
   253
370
    50
100
AcDbVertex
100
AcDb2dVertex
 10
61.083428
 20
110.566206
 30
0.0
  0
VERTEX
  5
482
330
47E
100
AcDbEntity
  8
001
 62
   253
370
    50
100
AcDbVertex
100
AcDb2dVertex
 10
61.132127
 20
110.61663
 30
0.0
  0
VERTEX
  5
483
330
47E
100
AcDbEntity
  8
001
 62
   253
370
    50
100
AcDbVertex
100
AcDb2dVertex
 10
61.16823
 20
110.671367
 30
0.0
  0
VERTEX
  5
484
330
47E
100
AcDbEntity
  8
001
 62
   253
370
    50
100
AcDbVertex
100
AcDb2dVertex
 10
61.193721
 20
110.732085
 30
0.0
  0
VERTEX
  5
485
330
47E
100
AcDbEntity
  8
001
 62
   253
370
    50
100
AcDbVertex
100
AcDb2dVertex
 10
61.211244
 20
110.830688
 30
0.0
  0
VERTEX
  5
486
330
47E
100
AcDbEntity
  8
001
 62
   253
370
    50
100
AcDbVertex
100
AcDb2dVertex
 10
61.206831
 20
110.931218
 30
0.0
  0
VERTEX
  5
487
330
47E
100
AcDbEntity
  8
001
 62
   253
370
    50
100
AcDbVertex
100
AcDb2dVertex
 10
61.178213
 20
111.052482
 30
0.0
  0
VERTEX
  5
488
330
47E
100
AcDbEntity
  8
001
 62
   253
370
    50
100
AcDbVertex
100
AcDb2dVertex
 10
61.131616
 20
111.168161
 30
0.0
  0
VERTEX
  5
489
330
47E
100
AcDbEntity
  8
001
 62
   253
370
    50
100
AcDbVertex
100
AcDb2dVertex
 10
61.053843
 20
111.312792
 30
0.0
  0
VERTEX
  5
48A
330
47E
100
AcDbEntity
  8
001
 62
   253
370
    50
100
AcDbVertex
100
AcDb2dVertex
 10
60.963661
 20
111.449982
 30
0.0
  0
VERTEX
  5
48B
330
47E
100
AcDbEntity
  8
001
 62
   253
370
    50
100
AcDbVertex
100
AcDb2dVertex
 10
60.84163
 20
111.61162
 30
0.0
  0
VERTEX
  5
48C
330
47E
100
AcDbEntity
  8
001
 62
   253
370
    50
100
AcDbVertex
100
AcDb2dVertex
 10
60.710811
 20
111.766179
 30
0.0
  0
VERTEX
  5
48D
330
47E
100
AcDbEntity
  8
001
 62
   253
370
    50
100
AcDbVertex
100
AcDb2dVertex
 10
60.565059
 20
111.924131
 30
0.0
  0
VERTEX
  5
48E
330
47E
100
AcDbEntity
  8
001
 62
   253
370
    50
100
AcDbVertex
100
AcDb2dVertex
 10
60.415681
 20
112.078728
 30
0.0
  0
SEQEND
  5
47F
330
47E
100
AcDbEntity
  8
001
370
    50
  0
POLYLINE
  5
48F
330
1F
100
AcDbEntity
  8
001
 62
   253
370
    50
100
AcDb2dPolyline
 66
     1
 10
0.0
 20
0.0
 30
0.0
  0
VERTEX
  5
491
330
48F
100
AcDbEntity
  8
001
 62
   253
370
    50
100
AcDbVertex
100
AcDb2dVertex
 10
59.157849
 20
113.195169
 30
0.0
  0
VERTEX
  5
492
330
48F
100
AcDbEntity
  8
001
 62
   253
370
    50
100
AcDbVertex
100
AcDb2dVertex
 10
60.332946
 20
113.494204
 30
0.0
  0
VERTEX
  5
493
330
48F
100
AcDbEntity
  8
001
 62
   253
370
    50
100
AcDbVertex
100
AcDb2dVertex
 10
62.045249
 20
113.950587
 30
0.0
  0
VERTEX
  5
494
330
48F
100
AcDbEntity
  8
001
 62
   253
370
    50
100
AcDbVertex
100
AcDb2dVertex
 10
63.771725
 20
114.439799
 30
0.0
  0
VERTEX
  5
495
330
48F
100
AcDbEntity
  8
001
 62
   253
370
    50
100
AcDbVertex
100
AcDb2dVertex
 10
64.949253
 20
114.78774
 30
0.0
  0
SEQEND
  5
490
330
48F
100
AcDbEntity
  8
001
370
    50
  0
POLYLINE
  5
496
330
1F
100
AcDbEntity
  8
001
 62
   253
370
    50
100
AcDb2dPolyline
 66
     1
 10
0.0
 20
0.0
 30
0.0
  0
VERTEX
  5
498
330
496
100
AcDbEntity
  8
001
 62
   253
370
    50
100
AcDbVertex
100
AcDb2dVertex
 10
64.949253
 20
114.78774
 30
0.0
  0
VERTEX
  5
499
330
496
100
AcDbEntity
  8
001
 62
   253
370
    50
100
AcDbVertex
100
AcDb2dVertex
 10
65.417668
 20
114.942897
 30
0.0
  0
VERTEX
  5
49A
330
496
100
AcDbEntity
  8
001
 62
   253
370
    50
100
AcDbVertex
100
AcDb2dVertex
 10
65.881253
 20
115.11101
 30
0.0
  0
VERTEX
  5
49B
330
496
100
AcDbEntity
  8
001
 62
   253
370
    50
100
AcDbVertex
100
AcDb2dVertex
 10
66.317844
 20
115.294482
 30
0.0
  0
VERTEX
  5
49C
330
496
100
AcDbEntity
  8
001
 62
   253
370
    50
100
AcDbVertex
100
AcDb2dVertex
 10
66.744553
 20
115.500444
 30
0.0
  0
VERTEX
  5
49D
330
496
100
AcDbEntity
  8
001
 62
   253
370
    50
100
AcDbVertex
100
AcDb2dVertex
 10
67.140156
 20
115.716676
 30
0.0
  0
VERTEX
  5
49E
330
496
100
AcDbEntity
  8
001
 62
   253
370
    50
100
AcDbVertex
100
AcDb2dVertex
 10
67.5229
 20
115.954664
 30
0.0
  0
VERTEX
  5
49F
330
496
100
AcDbEntity
  8
001
 62
   253
370
    50
100
AcDbVertex
100
AcDb2dVertex
 10
67.874147
 20
116.204759
 30
0.0
  0
VERTEX
  5
4A0
330
496
100
AcDbEntity
  8
001
 62
   253
370
    50
100
AcDbVertex
100
AcDb2dVertex
 10
68.208172
 20
116.477495
 30
0.0
  0
VERTEX
  5
4A1
330
496
100
AcDbEntity
  8
001
 62
   253
370
    50
100
AcDbVertex
100
AcDb2dVertex
 10
68.511029
 20
116.761886
 30
0.0
  0
VERTEX
  5
4A2
330
496
100
AcDbEntity
  8
001
 62
   253
370
    50
100
AcDbVertex
100
AcDb2dVertex
 10
68.792299
 20
117.067614
 30
0.0
  0
VERTEX
  5
4A3
330
496
100
AcDbEntity
  8
001
 62
   253
370
    50
100
AcDbVertex
100
AcDb2dVertex
 10
69.040642
 20
117.383322
 30
0.0
  0
VERTEX
  5
4A4
330
496
100
AcDbEntity
  8
001
 62
   253
370
    50
100
AcDbVertex
100
AcDb2dVertex
 10
69.262448
 20
117.718149
 30
0.0
  0
VERTEX
  5
4A5
330
496
100
AcDbEntity
  8
001
 62
   253
370
    50
100
AcDbVertex
100
AcDb2dVertex
 10
69.445112
 20
118.051614
 30
0.0
  0
VERTEX
  5
4A6
330
496
100
AcDbEntity
  8
001
 62
   253
370
    50
100
AcDbVertex
100
AcDb2dVertex
 10
69.599724
 20
118.398915
 30
0.0
  0
VERTEX
  5
4A7
330
496
100
AcDbEntity
  8
001
 62
   253
370
    50
100
AcDbVertex
100
AcDb2dVertex
 10
69.726006
 20
118.759398
 30
0.0
  0
VERTEX
  5
4A8
330
496
100
AcDbEntity
  8
001
 62
   253
370
    50
100
AcDbVertex
100
AcDb2dVertex
 10
69.823605
 20
119.128931
 30
0.0
  0
VERTEX
  5
4A9
330
496
100
AcDbEntity
  8
001
 62
   253
370
    50
100
AcDbVertex
100
AcDb2dVertex
 10
69.893335
 20
119.510135
 30
0.0
  0
VERTEX
  5
4AA
330
496
100
AcDbEntity
  8
001
 62
   253
370
    50
100
AcDbVertex
100
AcDb2dVertex
 10
69.930697
 20
119.895283
 30
0.0
  0
VERTEX
  5
4AB
330
496
100
AcDbEntity
  8
001
 62
   253
370
    50
100
AcDbVertex
100
AcDb2dVertex
 10
69.93516
 20
120.296072
 30
0.0
  0
VERTEX
  5
4AC
330
496
100
AcDbEntity
  8
001
 62
   253
370
    50
100
AcDbVertex
100
AcDb2dVertex
 10
69.920198
 20
120.697418
 30
0.0
  0
SEQEND
  5
497
330
496
100
AcDbEntity
  8
001
370
    50
  0
LINE
  5
4AD
330
1F
100
AcDbEntity
  8
001
 62
   253
370
    50
100
AcDbLine
 10
70.796712
 20
120.635697
 30
0.0
 11
69.920198
 21
120.697418
 31
0.0
  0
POLYLINE
  5
4AE
330
1F
100
AcDbEntity
  8
001
 62
   253
370
    50
100
AcDb2dPolyline
 66
     1
 10
0.0
 20
0.0
 30
0.0
  0
VERTEX
  5
4B0
330
4AE
100
AcDbEntity
  8
001
 62
   253
370
    50
100
AcDbVertex
100
AcDb2dVertex
 10
61.029222
 20
110.520817
 30
0.0
  0
VERTEX
  5
4B1
330
4AE
100
AcDbEntity
  8
001
 62
   253
370
    50
100
AcDbVertex
100
AcDb2dVertex
 10
61.620913
 20
109.610072
 30
0.0
  0
VERTEX
  5
4B2
330
4AE
100
AcDbEntity
  8
001
 62
   253
370
    50
100
AcDbVertex
100
AcDb2dVertex
 10
62.194652
 20
108.688174
 30
0.0
  0
VERTEX
  5
4B3
330
4AE
100
AcDbEntity
  8
001
 62
   253
370
    50
100
AcDbVertex
100
AcDb2dVertex
 10
62.749603
 20
107.719879
 30
0.0
  0
VERTEX
  5
4B4
330
4AE
100
AcDbEntity
  8
001
 62
   253
370
    50
100
AcDbVertex
100
AcDb2dVertex
 10
63.265048
 20
106.729985
 30
0.0
  0
VERTEX
  5
4B5
330
4AE
100
AcDbEntity
  8
001
 62
   253
370
    50
100
AcDbVertex
100
AcDb2dVertex
 10
63.602795
 20
106.026957
 30
0.0
  0
VERTEX
  5
4B6
330
4AE
100
AcDbEntity
  8
001
 62
   253
370
    50
100
AcDbVertex
100
AcDb2dVertex
 10
63.9305
 20
105.31913
 30
0.0
  0
SEQEND
  5
4AF
330
4AE
100
AcDbEntity
  8
001
370
    50
  0
LINE
  5
4B7
330
1F
100
AcDbEntity
  8
001
 62
   253
370
    50
100
AcDbLine
 10
94.058654
 20
67.589522
 30
0.0
 11
95.058654
 21
68.589522
 31
0.0
  0
LINE
  5
4B8
330
1F
100
AcDbEntity
  8
001
 62
   253
370
    50
100
AcDbLine
 10
95.058654
 20
106.589522
 30
0.0
 11
94.058654
 21
107.589522
 31
0.0
  0
LINE
  5
4B9
330
1F
100
AcDbEntity
  8
001
 62
   253
370
    50
100
AcDbLine
 10
95.058654
 20
106.589522
 30
0.0
 11
95.058654
 21
68.589522
 31
0.0
  0
LINE
  5
4BA
330
1F
100
AcDbEntity
  8
001
 62
   253
370
    50
100
AcDbLine
 10
94.058654
 20
107.589522
 30
0.0
 11
94.058654
 21
67.589522
 31
0.0
  0
LINE
  5
4BB
330
1F
100
AcDbEntity
  8
001
 62
   253
370
    50
100
AcDbLine
 10
94.058654
 20
107.589522
 30
0.0
 11
88.520534
 21
107.589522
 31
0.0
  0
LINE
  5
4BC
330
1F
100
AcDbEntity
  8
001
 62
   253
370
    50
100
AcDbLine
 10
88.520534
 20
67.589522
 30
0.0
 11
94.058654
 21
67.589522
 31
0.0
  0
ARC
  5
4BD
330
1F
100
AcDbEntity
  8
001
 62
   253
370
    50
100
AcDbCircle
 10
167.058654
 20
95.589522
 30
0.0
 40
8.0
100
AcDbArc
 50
0.0
 51
90.0
  0
ARC
  5
4BE
330
1F
100
AcDbEntity
  8
001
 62
   253
370
    50
100
AcDbCircle
 10
167.058654
 20
79.589522
 30
0.0
 40
8.0
100
AcDbArc
 50
270.0
 51
0.0
  0
LINE
  5
4BF
330
1F
100
AcDbEntity
  8
001
 62
   253
370
    50
100
AcDbLine
 10
175.058654
 20
95.589522
 30
0.0
 11
175.058654
 21
79.589522
 31
0.0
  0
LINE
  5
4C0
330
1F
100
AcDbEntity
  8
001
 62
   253
370
    50
100
AcDbLine
 10
167.058654
 20
103.589522
 30
0.0
 11
98.058654
 21
103.589522
 31
0.0
  0
LINE
  5
4C1
330
1F
100
AcDbEntity
  8
001
 62
   253
370
    50
100
AcDbLine
 10
98.058654
 20
71.589522
 30
0.0
 11
167.058654
 21
71.589522
 31
0.0
  0
LINE
  5
4C2
330
1F
100
AcDbEntity
  8
001
 62
   253
370
    50
100
AcDbLine
 10
98.058654
 20
103.589522
 30
0.0
 11
98.058654
 21
71.589522
 31
0.0
  0
LINE
  5
4C3
330
1F
100
AcDbEntity
  8
001
 62
   253
370
    50
100
AcDbLine
 10
98.058654
 20
103.089522
 30
0.0
 11
95.058654
 21
103.089522
 31
0.0
  0
LINE
  5
4C4
330
1F
100
AcDbEntity
  8
001
 62
   253
370
    50
100
AcDbLine
 10
95.058654
 20
72.089522
 30
0.0
 11
98.058654
 21
72.089522
 31
0.0
  0
POLYLINE
  5
4C5
330
1F
100
AcDbEntity
  8
001
 62
   253
370
    50
100
AcDb2dPolyline
 66
     1
 10
0.0
 20
0.0
 30
0.0
  0
VERTEX
  5
4C7
330
4C5
100
AcDbEntity
  8
001
 62
   253
370
    50
100
AcDbVertex
100
AcDb2dVertex
 10
60.415681
 20
112.078728
 30
0.0
  0
VERTEX
  5
4C8
330
4C5
100
AcDbEntity
  8
001
 62
   253
370
    50
100
AcDbVertex
100
AcDb2dVertex
 10
60.231422
 20
112.256316
 30
0.0
  0
VERTEX
  5
4C9
330
4C5
100
AcDbEntity
  8
001
 62
   253
370
    50
100
AcDbVertex
100
AcDb2dVertex
 10
60.045105
 20
112.431691
 30
0.0
  0
VERTEX
  5
4CA
330
4C5
100
AcDbEntity
  8
001
 62
   253
370
    50
100
AcDbVertex
100
AcDb2dVertex
 10
59.836563
 20
112.619635
 30
0.0
  0
VERTEX
  5
4CB
330
4C5
100
AcDbEntity
  8
001
 62
   253
370
    50
100
AcDbVertex
100
AcDb2dVertex
 10
59.624443
 20
112.803585
 30
0.0
  0
VERTEX
  5
4CC
330
4C5
100
AcDbEntity
  8
001
 62
   253
370
    50
100
AcDbVertex
100
AcDb2dVertex
 10
59.391794
 20
113.000159
 30
0.0
  0
VERTEX
  5
4CD
330
4C5
100
AcDbEntity
  8
001
 62
   253
370
    50
100
AcDbVertex
100
AcDb2dVertex
 10
59.157849
 20
113.195169
 30
0.0
  0
SEQEND
  5
4C6
330
4C5
100
AcDbEntity
  8
001
370
    50
  0
LINE
  5
4CE
330
1F
100
AcDbEntity
  8
001
 62
   253
370
    50
100
AcDbLine
 10
57.108161
 20
103.756786
 30
0.0
 11
56.020526
 21
104.509646
 31
0.0
  0
LINE
  5
4CF
330
1F
100
AcDbEntity
  8
001
 62
   253
370
    50
100
AcDbLine
 10
56.020526
 20
104.509646
 30
0.0
 11
56.020526
 21
112.129224
 31
0.0
  0
POLYLINE
  5
4D0
330
1F
100
AcDbEntity
  8
001
 62
   253
370
    50
100
AcDb2dPolyline
 66
     1
 10
0.0
 20
0.0
 30
0.0
  0
VERTEX
  5
4D2
330
4D0
100
AcDbEntity
  8
001
 62
   253
370
    50
100
AcDbVertex
100
AcDb2dVertex
 10
56.020526
 20
112.129224
 30
0.0
  0
VERTEX
  5
4D3
330
4D0
100
AcDbEntity
  8
001
 62
   253
370
    50
100
AcDbVertex
100
AcDb2dVertex
 10
57.719898
 20
111.107851
 30
0.0
  0
VERTEX
  5
4D4
330
4D0
100
AcDbEntity
  8
001
 62
   253
370
    50
100
AcDbVertex
100
AcDb2dVertex
 10
59.41132
 20
110.073647
 30
0.0
  0
VERTEX
  5
4D5
330
4D0
100
AcDbEntity
  8
001
 62
   253
370
    50
100
AcDbVertex
100
AcDb2dVertex
 10
60.967219
 20
109.095978
 30
0.0
  0
VERTEX
  5
4D6
330
4D0
100
AcDbEntity
  8
001
 62
   253
370
    50
100
AcDbVertex
100
AcDb2dVertex
 10
62.516288
 20
108.107287
 30
0.0
  0
SEQEND
  5
4D1
330
4D0
100
AcDbEntity
  8
001
370
    50
  0
POLYLINE
  5
4D7
330
1F
100
AcDbEntity
  8
001
 62
   253
370
    50
100
AcDb2dPolyline
 66
     1
 10
0.0
 20
0.0
 30
0.0
  0
VERTEX
  5
4D9
330
4D7
100
AcDbEntity
  8
001
 62
   253
370
    50
100
AcDbVertex
100
AcDb2dVertex
 10
61.139873
 20
110.629307
 30
0.0
  0
VERTEX
  5
4DA
330
4D7
100
AcDbEntity
  8
001
 62
   253
370
    50
100
AcDbVertex
100
AcDb2dVertex
 10
61.117921
 20
110.66127
 30
0.0
  0
VERTEX
  5
4DB
330
4D7
100
AcDbEntity
  8
001
 62
   253
370
    50
100
AcDbVertex
100
AcDb2dVertex
 10
61.095946
 20
110.693219
 30
0.0
  0
VERTEX
  5
4DC
330
4D7
100
AcDbEntity
  8
001
 62
   253
370
    50
100
AcDbVertex
100
AcDb2dVertex
 10
60.637337
 20
111.339363
 30
0.0
  0
VERTEX
  5
4DD
330
4D7
100
AcDbEntity
  8
001
 62
   253
370
    50
100
AcDbVertex
100
AcDb2dVertex
 10
60.159373
 20
111.971284
 30
0.0
  0
VERTEX
  5
4DE
330
4D7
100
AcDbEntity
  8
001
 62
   253
370
    50
100
AcDbVertex
100
AcDb2dVertex
 10
59.663733
 20
112.587322
 30
0.0
  0
VERTEX
  5
4DF
330
4D7
100
AcDbEntity
  8
001
 62
   253
370
    50
100
AcDbVertex
100
AcDb2dVertex
 10
59.157849
 20
113.195169
 30
0.0
  0
SEQEND
  5
4D8
330
4D7
100
AcDbEntity
  8
001
370
    50
  0
LINE
  5
4E0
330
1F
100
AcDbEntity
  8
001
 62
   253
370
    50
100
AcDbLine
 10
65.04215
 20
60.423888
 30
0.0
 11
61.389197
 21
64.110868
 31
0.0
  0
LINE
  5
4E1
330
1F
100
AcDbEntity
  8
001
 62
   253
370
    50
100
AcDbLine
 10
64.508622
 20
67.29767
 30
0.0
 11
61.389197
 21
64.110868
 31
0.0
  0
POLYLINE
  5
4E2
330
1F
100
AcDbEntity
  8
001
 62
   253
370
    50
100
AcDb2dPolyline
 66
     1
 10
0.0
 20
0.0
 30
0.0
  0
VERTEX
  5
4E4
330
4E2
100
AcDbEntity
  8
001
 62
   253
370
    50
100
AcDbVertex
100
AcDb2dVertex
 10
68.935149
 20
52.092582
 30
0.0
  0
VERTEX
  5
4E5
330
4E2
100
AcDbEntity
  8
001
 62
   253
370
    50
100
AcDbVertex
100
AcDb2dVertex
 10
69.313802
 20
52.126303
 30
0.0
  0
VERTEX
  5
4E6
330
4E2
100
AcDbEntity
  8
001
 62
   253
370
    50
100
AcDbVertex
100
AcDb2dVertex
 10
69.86721
 20
52.175672
 30
0.0
  0
VERTEX
  5
4E7
330
4E2
100
AcDbEntity
  8
001
 62
   253
370
    50
100
AcDbVertex
100
AcDb2dVertex
 10
70.419105
 20
52.225026
 30
0.0
  0
VERTEX
  5
4E8
330
4E2
100
AcDbEntity
  8
001
 62
   253
370
    50
100
AcDbVertex
100
AcDb2dVertex
 10
70.796712
 20
52.258852
 30
0.0
  0
SEQEND
  5
4E3
330
4E2
100
AcDbEntity
  8
001
370
    50
  0
POLYLINE
  5
4E9
330
1F
100
AcDbEntity
  8
001
 62
   253
370
    50
100
AcDb2dPolyline
 66
     1
 10
0.0
 20
0.0
 30
0.0
  0
VERTEX
  5
4EB
330
4E9
100
AcDbEntity
  8
001
 62
   253
370
    50
100
AcDbVertex
100
AcDb2dVertex
 10
64.311214
 20
52.089522
 30
0.0
  0
VERTEX
  5
4EC
330
4E9
100
AcDbEntity
  8
001
 62
   253
370
    50
100
AcDbVertex
100
AcDb2dVertex
 10
65.250885
 20
52.089666
 30
0.0
  0
VERTEX
  5
4ED
330
4E9
100
AcDbEntity
  8
001
 62
   253
370
    50
100
AcDbVertex
100
AcDb2dVertex
 10
66.62425
 20
52.090287
 30
0.0
  0
VERTEX
  5
4EE
330
4E9
100
AcDbEntity
  8
001
 62
   253
370
    50
100
AcDbVertex
100
AcDb2dVertex
 10
67.996346
 20
52.091482
 30
0.0
  0
VERTEX
  5
4EF
330
4E9
100
AcDbEntity
  8
001
 62
   253
370
    50
100
AcDbVertex
100
AcDb2dVertex
 10
68.935149
 20
52.092582
 30
0.0
  0
SEQEND
  5
4EA
330
4E9
100
AcDbEntity
  8
001
370
    50
  0
POLYLINE
  5
4F0
330
1F
100
AcDbEntity
  8
001
 62
   253
370
    50
100
AcDb2dPolyline
 66
     1
 10
0.0
 20
0.0
 30
0.0
  0
VERTEX
  5
4F2
330
4F0
100
AcDbEntity
  8
001
 62
   253
370
    50
100
AcDbVertex
100
AcDb2dVertex
 10
65.04215
 20
54.548746
 30
0.0
  0
VERTEX
  5
4F3
330
4F0
100
AcDbEntity
  8
001
 62
   253
370
    50
100
AcDbVertex
100
AcDb2dVertex
 10
65.092595
 20
54.540866
 30
0.0
  0
VERTEX
  5
4F4
330
4F0
100
AcDbEntity
  8
001
 62
   253
370
    50
100
AcDbVertex
100
AcDb2dVertex
 10
65.165831
 20
54.530452
 30
0.0
  0
VERTEX
  5
4F5
330
4F0
100
AcDbEntity
  8
001
 62
   253
370
    50
100
AcDbVertex
100
AcDb2dVertex
 10
65.991285
 20
54.524546
 30
0.0
  0
VERTEX
  5
4F6
330
4F0
100
AcDbEntity
  8
001
 62
   253
370
    50
100
AcDbVertex
100
AcDb2dVertex
 10
66.694094
 20
54.737651
 30
0.0
  0
VERTEX
  5
4F7
330
4F0
100
AcDbEntity
  8
001
 62
   253
370
    50
100
AcDbVertex
100
AcDb2dVertex
 10
66.927778
 20
54.85124
 30
0.0
  0
VERTEX
  5
4F8
330
4F0
100
AcDbEntity
  8
001
 62
   253
370
    50
100
AcDbVertex
100
AcDb2dVertex
 10
67.151387
 20
54.978882
 30
0.0
  0
VERTEX
  5
4F9
330
4F0
100
AcDbEntity
  8
001
 62
   253
370
    50
100
AcDbVertex
100
AcDb2dVertex
 10
67.355943
 20
55.119534
 30
0.0
  0
VERTEX
  5
4FA
330
4F0
100
AcDbEntity
  8
001
 62
   253
370
    50
100
AcDbVertex
100
AcDb2dVertex
 10
67.558617
 20
55.296115
 30
0.0
  0
VERTEX
  5
4FB
330
4F0
100
AcDbEntity
  8
001
 62
   253
370
    50
100
AcDbVertex
100
AcDb2dVertex
 10
67.763987
 20
55.513105
 30
0.0
  0
VERTEX
  5
4FC
330
4F0
100
AcDbEntity
  8
001
 62
   253
370
    50
100
AcDbVertex
100
AcDb2dVertex
 10
67.903412
 20
55.679709
 30
0.0
  0
SEQEND
  5
4F1
330
4F0
100
AcDbEntity
  8
001
370
    50
  0
LINE
  5
4FD
330
1F
100
AcDbEntity
  8
001
 62
   253
370
    50
100
AcDbLine
 10
61.383494
 20
64.129677
 30
0.0
 11
61.317962
 21
64.065082
 31
0.0
  0
LINE
  5
4FE
330
1F
100
AcDbEntity
  8
001
 62
   253
370
    50
100
AcDbLine
 10
56.020526
 20
59.136923
 30
0.0
 11
56.020526
 21
62.125659
 31
0.0
  0
POLYLINE
  5
4FF
330
1F
100
AcDbEntity
  8
001
 62
   253
370
    50
100
AcDb2dPolyline
 66
     1
 10
0.0
 20
0.0
 30
0.0
  0
VERTEX
  5
501
330
4FF
100
AcDbEntity
  8
001
 62
   253
370
    50
100
AcDbVertex
100
AcDb2dVertex
 10
56.020526
 20
62.125659
 30
0.0
  0
VERTEX
  5
502
330
4FF
100
AcDbEntity
  8
001
 62
   253
370
    50
100
AcDbVertex
100
AcDb2dVertex
 10
57.722904
 20
64.027354
 30
0.0
  0
VERTEX
  5
503
330
4FF
100
AcDbEntity
  8
001
 62
   253
370
    50
100
AcDbVertex
100
AcDb2dVertex
 10
59.41132
 20
65.941233
 30
0.0
  0
VERTEX
  5
504
330
4FF
100
AcDbEntity
  8
001
 62
   253
370
    50
100
AcDbVertex
100
AcDb2dVertex
 10
60.84769
 20
67.606861
 30
0.0
  0
VERTEX
  5
505
330
4FF
100
AcDbEntity
  8
001
 62
   253
370
    50
100
AcDbVertex
100
AcDb2dVertex
 10
62.273692
 20
69.281537
 30
0.0
  0
SEQEND
  5
500
330
4FF
100
AcDbEntity
  8
001
370
    50
  0
POLYLINE
  5
506
330
1F
100
AcDbEntity
  8
001
 62
   253
370
    50
100
AcDb2dPolyline
 66
     1
 10
0.0
 20
0.0
 30
0.0
  0
VERTEX
  5
508
330
506
100
AcDbEntity
  8
001
 62
   253
370
    50
100
AcDbVertex
100
AcDb2dVertex
 10
61.140659
 20
71.023447
 30
0.0
  0
VERTEX
  5
509
330
506
100
AcDbEntity
  8
001
 62
   253
370
    50
100
AcDbVertex
100
AcDb2dVertex
 10
61.118304
 20
71.039898
 30
0.0
  0
VERTEX
  5
50A
330
506
100
AcDbEntity
  8
001
 62
   253
370
    50
100
AcDbVertex
100
AcDb2dVertex
 10
61.095946
 20
71.056347
 30
0.0
  0
VERTEX
  5
50B
330
506
100
AcDbEntity
  8
001
 62
   253
370
    50
100
AcDbVertex
100
AcDb2dVertex
 10
60.628544
 20
71.39823
 30
0.0
  0
VERTEX
  5
50C
330
506
100
AcDbEntity
  8
001
 62
   253
370
    50
100
AcDbVertex
100
AcDb2dVertex
 10
60.159373
 20
71.737685
 30
0.0
  0
VERTEX
  5
50D
330
506
100
AcDbEntity
  8
001
 62
   253
370
    50
100
AcDbVertex
100
AcDb2dVertex
 10
59.659085
 20
72.096061
 30
0.0
  0
VERTEX
  5
50E
330
506
100
AcDbEntity
  8
001
 62
   253
370
    50
100
AcDbVertex
100
AcDb2dVertex
 10
59.157849
 20
72.453114
 30
0.0
  0
SEQEND
  5
507
330
506
100
AcDbEntity
  8
001
370
    50
  0
POLYLINE
  5
50F
330
1F
100
AcDbEntity
  8
001
 62
   253
370
    50
100
AcDb2dPolyline
 66
     1
 10
0.0
 20
0.0
 30
0.0
  0
VERTEX
  5
511
330
50F
100
AcDbEntity
  8
001
 62
   253
370
    50
100
AcDbVertex
100
AcDb2dVertex
 10
61.029222
 20
81.881679
 30
0.0
  0
VERTEX
  5
512
330
50F
100
AcDbEntity
  8
001
 62
   253
370
    50
100
AcDbVertex
100
AcDb2dVertex
 10
61.084587
 20
81.537284
 30
0.0
  0
VERTEX
  5
513
330
50F
100
AcDbEntity
  8
001
 62
   253
370
    50
100
AcDbVertex
100
AcDb2dVertex
 10
61.132127
 20
81.191856
 30
0.0
  0
VERTEX
  5
514
330
50F
100
AcDbEntity
  8
001
 62
   253
370
    50
100
AcDbVertex
100
AcDb2dVertex
 10
61.136448
 20
81.154737
 30
0.0
  0
VERTEX
  5
515
330
50F
100
AcDbEntity
  8
001
 62
   253
370
    50
100
AcDbVertex
100
AcDb2dVertex
 10
61.140679
 20
81.117606
 30
0.0
  0
SEQEND
  5
510
330
50F
100
AcDbEntity
  8
001
370
    50
  0
POLYLINE
  5
516
330
1F
100
AcDbEntity
  8
001
 62
   253
370
    50
100
AcDb2dPolyline
 66
     1
 10
0.0
 20
0.0
 30
0.0
  0
VERTEX
  5
518
330
516
100
AcDbEntity
  8
001
 62
   253
370
    50
100
AcDbVertex
100
AcDb2dVertex
 10
60.415683
 20
75.344583
 30
0.0
  0
VERTEX
  5
519
330
516
100
AcDbEntity
  8
001
 62
   253
370
    50
100
AcDbVertex
100
AcDb2dVertex
 10
60.411497
 20
75.33246
 30
0.0
  0
VERTEX
  5
51A
330
516
100
AcDbEntity
  8
001
 62
   253
370
    50
100
AcDbVertex
100
AcDb2dVertex
 10
60.407306
 20
75.320337
 30
0.0
  0
VERTEX
  5
51B
330
516
100
AcDbEntity
  8
001
 62
   253
370
    50
100
AcDbVertex
100
AcDb2dVertex
 10
60.232577
 20
74.836887
 30
0.0
  0
VERTEX
  5
51C
330
516
100
AcDbEntity
  8
001
 62
   253
370
    50
100
AcDbVertex
100
AcDb2dVertex
 10
60.045105
 20
74.35817
 30
0.0
  0
VERTEX
  5
51D
330
516
100
AcDbEntity
  8
001
 62
   253
370
    50
100
AcDbVertex
100
AcDb2dVertex
 10
59.841253
 20
73.874655
 30
0.0
  0
VERTEX
  5
51E
330
516
100
AcDbEntity
  8
001
 62
   253
370
    50
100
AcDbVertex
100
AcDb2dVertex
 10
59.624443
 20
73.396891
 30
0.0
  0
VERTEX
  5
51F
330
516
100
AcDbEntity
  8
001
 62
   253
370
    50
100
AcDbVertex
100
AcDb2dVertex
 10
59.394548
 20
72.923371
 30
0.0
  0
VERTEX
  5
520
330
516
100
AcDbEntity
  8
001
 62
   253
370
    50
100
AcDbVertex
100
AcDb2dVertex
 10
59.157849
 20
72.453114
 30
0.0
  0
SEQEND
  5
517
330
516
100
AcDbEntity
  8
001
370
    50
  0
POLYLINE
  5
521
330
1F
100
AcDbEntity
  8
001
 62
   253
370
    50
100
AcDb2dPolyline
 66
     1
 10
0.0
 20
0.0
 30
0.0
  0
VERTEX
  5
523
330
521
100
AcDbEntity
  8
001
 62
   253
370
    50
100
AcDbVertex
100
AcDb2dVertex
 10
61.029222
 20
81.881679
 30
0.0
  0
VERTEX
  5
524
330
521
100
AcDbEntity
  8
001
 62
   253
370
    50
100
AcDbVertex
100
AcDb2dVertex
 10
61.619426
 20
83.095832
 30
0.0
  0
VERTEX
  5
525
330
521
100
AcDbEntity
  8
001
 62
   253
370
    50
100
AcDbVertex
100
AcDb2dVertex
 10
62.194652
 20
84.316956
 30
0.0
  0
VERTEX
  5
526
330
521
100
AcDbEntity
  8
001
 62
   253
370
    50
100
AcDbVertex
100
AcDb2dVertex
 10
62.368179
 20
84.698476
 30
0.0
  0
VERTEX
  5
527
330
521
100
AcDbEntity
  8
001
 62
   253
370
    50
100
AcDbVertex
100
AcDb2dVertex
 10
62.540262
 20
85.080668
 30
0.0
  0
SEQEND
  5
522
330
521
100
AcDbEntity
  8
001
370
    50
  0
POLYLINE
  5
528
330
1F
100
AcDbEntity
  8
001
 62
   253
370
    50
100
AcDb2dPolyline
 66
     1
 10
0.0
 20
0.0
 30
0.0
  0
VERTEX
  5
52A
330
528
100
AcDbEntity
  8
001
 62
   253
370
    50
100
AcDbVertex
100
AcDb2dVertex
 10
67.903412
 20
55.679709
 30
0.0
  0
VERTEX
  5
52B
330
528
100
AcDbEntity
  8
001
 62
   253
370
    50
100
AcDbVertex
100
AcDb2dVertex
 10
68.024443
 20
55.860036
 30
0.0
  0
VERTEX
  5
52C
330
528
100
AcDbEntity
  8
001
 62
   253
370
    50
100
AcDbVertex
100
AcDb2dVertex
 10
68.175294
 20
56.11801
 30
0.0
  0
VERTEX
  5
52D
330
528
100
AcDbEntity
  8
001
 62
   253
370
    50
100
AcDbVertex
100
AcDb2dVertex
 10
68.287869
 20
56.362584
 30
0.0
  0
VERTEX
  5
52E
330
528
100
AcDbEntity
  8
001
 62
   253
370
    50
100
AcDbVertex
100
AcDb2dVertex
 10
68.366004
 20
56.597701
 30
0.0
  0
VERTEX
  5
52F
330
528
100
AcDbEntity
  8
001
 62
   253
370
    50
100
AcDbVertex
100
AcDb2dVertex
 10
68.42714
 20
56.845762
 30
0.0
  0
VERTEX
  5
530
330
528
100
AcDbEntity
  8
001
 62
   253
370
    50
100
AcDbVertex
100
AcDb2dVertex
 10
68.469747
 20
57.104205
 30
0.0
  0
VERTEX
  5
531
330
528
100
AcDbEntity
  8
001
 62
   253
370
    50
100
AcDbVertex
100
AcDb2dVertex
 10
68.456476
 20
57.883188
 30
0.0
  0
VERTEX
  5
532
330
528
100
AcDbEntity
  8
001
 62
   253
370
    50
100
AcDbVertex
100
AcDb2dVertex
 10
68.241351
 20
58.629444
 30
0.0
  0
VERTEX
  5
533
330
528
100
AcDbEntity
  8
001
 62
   253
370
    50
100
AcDbVertex
100
AcDb2dVertex
 10
67.991853
 20
59.088993
 30
0.0
  0
VERTEX
  5
534
330
528
100
AcDbEntity
  8
001
 62
   253
370
    50
100
AcDbVertex
100
AcDb2dVertex
 10
67.66914
 20
59.498139
 30
0.0
  0
VERTEX
  5
535
330
528
100
AcDbEntity
  8
001
 62
   253
370
    50
100
AcDbVertex
100
AcDb2dVertex
 10
67.482373
 20
59.680994
 30
0.0
  0
VERTEX
  5
536
330
528
100
AcDbEntity
  8
001
 62
   253
370
    50
100
AcDbVertex
100
AcDb2dVertex
 10
67.279423
 20
59.846742
 30
0.0
  0
VERTEX
  5
537
330
528
100
AcDbEntity
  8
001
 62
   253
370
    50
100
AcDbVertex
100
AcDb2dVertex
 10
67.061434
 20
59.994287
 30
0.0
  0
VERTEX
  5
538
330
528
100
AcDbEntity
  8
001
 62
   253
370
    50
100
AcDbVertex
100
AcDb2dVertex
 10
66.835753
 20
60.123438
 30
0.0
  0
VERTEX
  5
539
330
528
100
AcDbEntity
  8
001
 62
   253
370
    50
100
AcDbVertex
100
AcDb2dVertex
 10
66.374645
 20
60.322572
 30
0.0
  0
VERTEX
  5
53A
330
528
100
AcDbEntity
  8
001
 62
   253
370
    50
100
AcDbVertex
100
AcDb2dVertex
 10
65.84171
 20
60.429923
 30
0.0
  0
VERTEX
  5
53B
330
528
100
AcDbEntity
  8
001
 62
   253
370
    50
100
AcDbVertex
100
AcDb2dVertex
 10
65.377184
 20
60.444547
 30
0.0
  0
VERTEX
  5
53C
330
528
100
AcDbEntity
  8
001
 62
   253
370
    50
100
AcDbVertex
100
AcDb2dVertex
 10
65.04215
 20
60.423888
 30
0.0
  0
SEQEND
  5
529
330
528
100
AcDbEntity
  8
001
370
    50
  0
POLYLINE
  5
53D
330
1F
100
AcDbEntity
  8
001
 62
   253
370
    50
100
AcDb2dPolyline
 66
     1
 10
0.0
 20
0.0
 30
0.0
  0
VERTEX
  5
53F
330
53D
100
AcDbEntity
  8
001
 62
   253
370
    50
100
AcDbVertex
100
AcDb2dVertex
 10
65.72531
 20
54.903231
 30
0.0
  0
VERTEX
  5
540
330
53D
100
AcDbEntity
  8
001
 62
   253
370
    50
100
AcDbVertex
100
AcDb2dVertex
 10
66.27459
 20
54.95083
 30
0.0
  0
VERTEX
  5
541
330
53D
100
AcDbEntity
  8
001
 62
   253
370
    50
100
AcDbVertex
100
AcDb2dVertex
 10
66.990067
 20
55.132117
 30
0.0
  0
VERTEX
  5
542
330
53D
100
AcDbEntity
  8
001
 62
   253
370
    50
100
AcDbVertex
100
AcDb2dVertex
 10
67.233495
 20
55.245501
 30
0.0
  0
VERTEX
  5
543
330
53D
100
AcDbEntity
  8
001
 62
   253
370
    50
100
AcDbVertex
100
AcDb2dVertex
 10
67.447359
 20
55.373349
 30
0.0
  0
VERTEX
  5
544
330
53D
100
AcDbEntity
  8
001
 62
   253
370
    50
100
AcDbVertex
100
AcDb2dVertex
 10
67.646945
 20
55.512488
 30
0.0
  0
VERTEX
  5
545
330
53D
100
AcDbEntity
  8
001
 62
   253
370
    50
100
AcDbVertex
100
AcDb2dVertex
 10
67.85459
 20
55.690582
 30
0.0
  0
VERTEX
  5
546
330
53D
100
AcDbEntity
  8
001
 62
   253
370
    50
100
AcDbVertex
100
AcDb2dVertex
 10
67.966262
 20
55.801635
 30
0.0
  0
VERTEX
  5
547
330
53D
100
AcDbEntity
  8
001
 62
   253
370
    50
100
AcDbVertex
100
AcDb2dVertex
 10
68.04305
 20
55.883207
 30
0.0
  0
SEQEND
  5
53E
330
53D
100
AcDbEntity
  8
001
370
    50
  0
POLYLINE
  5
548
330
1F
100
AcDbEntity
  8
001
 62
   253
370
    50
100
AcDb2dPolyline
 66
     1
 10
0.0
 20
0.0
 30
0.0
  0
VERTEX
  5
54A
330
548
100
AcDbEntity
  8
001
 62
   253
370
    50
100
AcDbVertex
100
AcDb2dVertex
 10
65.305254
 20
54.800361
 30
0.0
  0
VERTEX
  5
54B
330
548
100
AcDbEntity
  8
001
 62
   253
370
    50
100
AcDbVertex
100
AcDb2dVertex
 10
65.328488
 20
54.797066
 30
0.0
  0
VERTEX
  5
54C
330
548
100
AcDbEntity
  8
001
 62
   253
370
    50
100
AcDbVertex
100
AcDb2dVertex
 10
65.362484
 20
54.792548
 30
0.0
  0
VERTEX
  5
54D
330
548
100
AcDbEntity
  8
001
 62
   253
370
    50
100
AcDbVertex
100
AcDb2dVertex
 10
65.518705
 20
54.777138
 30
0.0
  0
VERTEX
  5
54E
330
548
100
AcDbEntity
  8
001
 62
   253
370
    50
100
AcDbVertex
100
AcDb2dVertex
 10
65.62599
 20
54.770859
 30
0.0
  0
SEQEND
  5
549
330
548
100
AcDbEntity
  8
001
370
    50
  0
LINE
  5
54F
330
1F
100
AcDbEntity
  8
001
 62
   253
370
    50
100
AcDbLine
 10
65.62599
 20
54.770859
 30
0.0
 11
65.72531
 21
54.903231
 31
0.0
  0
LINE
  5
550
330
1F
100
AcDbEntity
  8
001
 62
   253
370
    50
100
AcDbLine
 10
68.935149
 20
52.089522
 30
0.0
 11
70.796712
 21
52.252388
 31
0.0
  0
LINE
  5
551
330
1F
100
AcDbEntity
  8
001
 62
   253
370
    50
100
AcDbLine
 10
68.935149
 20
52.092582
 30
0.0
 11
68.935149
 21
52.089522
 31
0.0
  0
POLYLINE
  5
552
330
1F
100
AcDbEntity
  8
001
 62
   253
370
    50
100
AcDb2dPolyline
 66
     1
 10
0.0
 20
0.0
 30
0.0
  0
VERTEX
  5
554
330
552
100
AcDbEntity
  8
001
 62
   253
370
    50
100
AcDbVertex
100
AcDb2dVertex
 10
62.540239
 20
52.08997
 30
0.0
  0
VERTEX
  5
555
330
552
100
AcDbEntity
  8
001
 62
   253
370
    50
100
AcDbVertex
100
AcDb2dVertex
 10
62.900027
 20
52.089809
 30
0.0
  0
VERTEX
  5
556
330
552
100
AcDbEntity
  8
001
 62
   253
370
    50
100
AcDbVertex
100
AcDb2dVertex
 10
63.425872
 20
52.089634
 30
0.0
  0
VERTEX
  5
557
330
552
100
AcDbEntity
  8
001
 62
   253
370
    50
100
AcDbVertex
100
AcDb2dVertex
 10
63.951544
 20
52.089543
 30
0.0
  0
VERTEX
  5
558
330
552
100
AcDbEntity
  8
001
 62
   253
370
    50
100
AcDbVertex
100
AcDb2dVertex
 10
64.311214
 20
52.089522
 30
0.0
  0
SEQEND
  5
553
330
552
100
AcDbEntity
  8
001
370
    50
  0
LINE
  5
559
330
1F
100
AcDbEntity
  8
001
 62
   253
370
    50
100
AcDbLine
 10
64.311214
 20
52.089522
 30
0.0
 11
68.935149
 21
52.089522
 31
0.0
  0
LINE
  5
55A
330
1F
100
AcDbEntity
  8
001
 62
   253
370
    50
100
AcDbLine
 10
65.592125
 20
54.772342
 30
0.0
 11
65.72531
 21
54.903231
 31
0.0
  0
LINE
  5
55B
330
1F
100
AcDbEntity
  8
001
 62
   253
370
    50
100
AcDbLine
 10
55.758654
 20
58.879565
 30
0.0
 11
55.758654
 21
61.442145
 31
0.0
  0
LINE
  5
55C
330
1F
100
AcDbEntity
  8
001
 62
   253
370
    50
100
AcDbLine
 10
55.758654
 20
61.442145
 30
0.0
 11
56.020526
 21
62.125659
 31
0.0
  0
LINE
  5
55D
330
1F
100
AcDbEntity
  8
001
 62
   253
370
    50
100
AcDbLine
 10
55.758654
 20
112.527594
 30
0.0
 11
56.020526
 21
112.129224
 31
0.0
  0
LINE
  5
55E
330
1F
100
AcDbEntity
  8
001
 62
   253
370
    50
100
AcDbLine
 10
55.758654
 20
112.829481
 30
0.0
 11
56.006838
 21
113.234153
 31
0.0
  0
LINE
  5
55F
330
1F
100
AcDbEntity
  8
001
 62
   253
370
    50
100
AcDbLine
 10
56.006838
 20
113.234153
 30
0.0
 11
60.920393
 21
116.684653
 31
0.0
  0
POLYLINE
  5
560
330
1F
100
AcDbEntity
  8
001
 62
   253
370
    50
100
AcDb2dPolyline
 66
     1
 10
0.0
 20
0.0
 30
0.0
  0
VERTEX
  5
562
330
560
100
AcDbEntity
  8
001
 62
   253
370
    50
100
AcDbVertex
100
AcDb2dVertex
 10
68.854928
 20
117.153923
 30
0.0
  0
VERTEX
  5
563
330
560
100
AcDbEntity
  8
001
 62
   253
370
    50
100
AcDbVertex
100
AcDb2dVertex
 10
67.246291
 20
117.059765
 30
0.0
  0
VERTEX
  5
564
330
560
100
AcDbEntity
  8
001
 62
   253
370
    50
100
AcDbVertex
100
AcDb2dVertex
 10
64.895255
 20
116.921307
 30
0.0
  0
VERTEX
  5
565
330
560
100
AcDbEntity
  8
001
 62
   253
370
    50
100
AcDbVertex
100
AcDb2dVertex
 10
62.53516
 20
116.781136
 30
0.0
  0
VERTEX
  5
566
330
560
100
AcDbEntity
  8
001
 62
   253
370
    50
100
AcDbVertex
100
AcDb2dVertex
 10
60.920393
 20
116.684653
 30
0.0
  0
SEQEND
  5
561
330
560
100
AcDbEntity
  8
001
370
    50
  0
POLYLINE
  5
567
330
1F
100
AcDbEntity
  8
001
 62
   253
370
    50
100
AcDb2dPolyline
 66
     1
 10
0.0
 20
0.0
 30
0.0
  0
VERTEX
  5
569
330
567
100
AcDbEntity
  8
001
 62
   253
370
    50
100
AcDbVertex
100
AcDb2dVertex
 10
65.258933
 20
114.893446
 30
0.0
  0
VERTEX
  5
56A
330
567
100
AcDbEntity
  8
001
 62
   253
370
    50
100
AcDbVertex
100
AcDb2dVertex
 10
65.206567
 20
114.986937
 30
0.0
  0
VERTEX
  5
56B
330
567
100
AcDbEntity
  8
001
 62
   253
370
    50
100
AcDbVertex
100
AcDb2dVertex
 10
65.12382
 20
115.11031
 30
0.0
  0
VERTEX
  5
56C
330
567
100
AcDbEntity
  8
001
 62
   253
370
    50
100
AcDbVertex
100
AcDb2dVertex
 10
65.018443
 20
115.231105
 30
0.0
  0
VERTEX
  5
56D
330
567
100
AcDbEntity
  8
001
 62
   253
370
    50
100
AcDbVertex
100
AcDb2dVertex
 10
64.908021
 20
115.325591
 30
0.0
  0
VERTEX
  5
56E
330
567
100
AcDbEntity
  8
001
 62
   253
370
    50
100
AcDbVertex
100
AcDb2dVertex
 10
64.443767
 20
115.592676
 30
0.0
  0
VERTEX
  5
56F
330
567
100
AcDbEntity
  8
001
 62
   253
370
    50
100
AcDbVertex
100
AcDb2dVertex
 10
63.913638
 20
115.763466
 30
0.0
  0
VERTEX
  5
570
330
567
100
AcDbEntity
  8
001
 62
   253
370
    50
100
AcDbVertex
100
AcDb2dVertex
 10
63.48993
 20
115.827925
 30
0.0
  0
VERTEX
  5
571
330
567
100
AcDbEntity
  8
001
 62
   253
370
    50
100
AcDbVertex
100
AcDb2dVertex
 10
63.065605
 20
115.840839
 30
0.0
  0
VERTEX
  5
572
330
567
100
AcDbEntity
  8
001
 62
   253
370
    50
100
AcDbVertex
100
AcDb2dVertex
 10
62.844193
 20
115.8308
 30
0.0
  0
VERTEX
  5
573
330
567
100
AcDbEntity
  8
001
 62
   253
370
    50
100
AcDbVertex
100
AcDb2dVertex
 10
62.623297
 20
115.809603
 30
0.0
  0
VERTEX
  5
574
330
567
100
AcDbEntity
  8
001
 62
   253
370
    50
100
AcDbVertex
100
AcDb2dVertex
 10
62.403876
 20
115.776877
 30
0.0
  0
VERTEX
  5
575
330
567
100
AcDbEntity
  8
001
 62
   253
370
    50
100
AcDbVertex
100
AcDb2dVertex
 10
62.186635
 20
115.732543
 30
0.0
  0
VERTEX
  5
576
330
567
100
AcDbEntity
  8
001
 62
   253
370
    50
100
AcDbVertex
100
AcDb2dVertex
 10
61.777726
 20
115.6145
 30
0.0
  0
VERTEX
  5
577
330
567
100
AcDbEntity
  8
001
 62
   253
370
    50
100
AcDbVertex
100
AcDb2dVertex
 10
61.382745
 20
115.451639
 30
0.0
  0
VERTEX
  5
578
330
567
100
AcDbEntity
  8
001
 62
   253
370
    50
100
AcDbVertex
100
AcDb2dVertex
 10
60.91236
 20
115.171399
 30
0.0
  0
VERTEX
  5
579
330
567
100
AcDbEntity
  8
001
 62
   253
370
    50
100
AcDbVertex
100
AcDb2dVertex
 10
60.524386
 20
114.785491
 30
0.0
  0
VERTEX
  5
57A
330
567
100
AcDbEntity
  8
001
 62
   253
370
    50
100
AcDbVertex
100
AcDb2dVertex
 10
60.438259
 20
114.655796
 30
0.0
  0
VERTEX
  5
57B
330
567
100
AcDbEntity
  8
001
 62
   253
370
    50
100
AcDbVertex
100
AcDb2dVertex
 10
60.367297
 20
114.524267
 30
0.0
  0
VERTEX
  5
57C
330
567
100
AcDbEntity
  8
001
 62
   253
370
    50
100
AcDbVertex
100
AcDb2dVertex
 10
60.318357
 20
114.402853
 30
0.0
  0
VERTEX
  5
57D
330
567
100
AcDbEntity
  8
001
 62
   253
370
    50
100
AcDbVertex
100
AcDb2dVertex
 10
60.284401
 20
114.256273
 30
0.0
  0
VERTEX
  5
57E
330
567
100
AcDbEntity
  8
001
 62
   253
370
    50
100
AcDbVertex
100
AcDb2dVertex
 10
60.280984
 20
114.233772
 30
0.0
  0
VERTEX
  5
57F
330
567
100
AcDbEntity
  8
001
 62
   253
370
    50
100
AcDbVertex
100
AcDb2dVertex
 10
60.27882
 20
114.218137
 30
0.0
  0
SEQEND
  5
568
330
567
100
AcDbEntity
  8
001
370
    50
  0
POLYLINE
  5
580
330
1F
100
AcDbEntity
  8
001
 62
   253
370
    50
100
AcDb2dPolyline
 66
     1
 10
0.0
 20
0.0
 30
0.0
  0
VERTEX
  5
582
330
580
100
AcDbEntity
  8
001
 62
   253
370
    50
100
AcDbVertex
100
AcDb2dVertex
 10
60.27882
 20
114.218137
 30
0.0
  0
VERTEX
  5
583
330
580
100
AcDbEntity
  8
001
 62
   253
370
    50
100
AcDbVertex
100
AcDb2dVertex
 10
60.274279
 20
114.121456
 30
0.0
  0
VERTEX
  5
584
330
580
100
AcDbEntity
  8
001
 62
   253
370
    50
100
AcDbVertex
100
AcDb2dVertex
 10
60.278217
 20
113.989653
 30
0.0
  0
VERTEX
  5
585
330
580
100
AcDbEntity
  8
001
 62
   253
370
    50
100
AcDbVertex
100
AcDb2dVertex
 10
60.300209
 20
113.857379
 30
0.0
  0
VERTEX
  5
586
330
580
100
AcDbEntity
  8
001
 62
   253
370
    50
100
AcDbVertex
100
AcDb2dVertex
 10
60.348933
 20
113.732508
 30
0.0
  0
VERTEX
  5
587
330
580
100
AcDbEntity
  8
001
 62
   253
370
    50
100
AcDbVertex
100
AcDb2dVertex
 10
60.413748
 20
113.612711
 30
0.0
  0
VERTEX
  5
588
330
580
100
AcDbEntity
  8
001
 62
   253
370
    50
100
AcDbVertex
100
AcDb2dVertex
 10
60.467288
 20
113.528153
 30
0.0
  0
SEQEND
  5
581
330
580
100
AcDbEntity
  8
001
370
    50
  0
LINE
  5
589
330
1F
100
AcDbEntity
  8
001
 62
   253
370
    50
100
AcDbLine
 10
55.758654
 20
104.918609
 30
0.0
 11
55.758654
 21
112.829481
 31
0.0
  0
LINE
  5
58A
330
1F
100
AcDbEntity
  8
001
 62
   253
370
    50
100
AcDbLine
 10
56.020526
 20
104.509646
 30
0.0
 11
55.758654
 21
104.918609
 31
0.0
  0
LINE
  5
58B
330
1F
100
AcDbEntity
  8
001
  6
PHANTOM
370
     9
100
AcDbLine
 10
61.291899
 20
51.321875
 30
0.0
 11
55.058654
 21
51.321875
 31
0.0
  0
LINE
  5
58C
330
1F
100
AcDbEntity
  8
001
  6
PHANTOM
370
     9
100
AcDbLine
 10
55.060306
 20
57.576404
 30
0.0
 11
52.48039
 21
57.576404
 31
0.0
  0
LINE
  5
58D
330
1F
100
AcDbEntity
  8
001
  6
CENTER
370
     9
100
AcDbLine
 10
181.115695
 20
87.589522
 30
0.0
 11
47.789983
 21
87.589522
 31
0.0
  0
LINE
  5
58E
330
1F
100
AcDbEntity
  8
001
  6
DASHED
 62
   253
370
    50
100
AcDbLine
 10
67.058654
 20
102.589522
 30
0.0
 11
67.058654
 21
72.589522
 31
0.0
  0
LINE
  5
58F
330
1F
100
AcDbEntity
  8
001
  6
DASHED
 62
   253
370
    50
100
AcDbLine
 10
65.058654
 20
70.589522
 30
0.0
 11
67.058654
 21
72.589522
 31
0.0
  0
LINE
  5
590
330
1F
100
AcDbEntity
  8
001
  6
DASHED
 62
   253
370
    50
100
AcDbLine
 10
67.058654
 20
102.589522
 30
0.0
 11
65.058654
 21
104.589522
 31
0.0
  0
LINE
  5
591
330
1F
100
AcDbEntity
  8
001
  6
DASHED
 62
   253
370
    50
100
AcDbLine
 10
82.058654
 20
102.589522
 30
0.0
 11
82.058654
 21
72.589522
 31
0.0
  0
LINE
  5
592
330
1F
100
AcDbEntity
  8
001
  6
DASHED
 62
   253
370
    50
100
AcDbLine
 10
82.058654
 20
102.589522
 30
0.0
 11
67.058654
 21
102.589522
 31
0.0
  0
LINE
  5
593
330
1F
100
AcDbEntity
  8
001
  6
DASHED
 62
   253
370
    50
100
AcDbLine
 10
67.058654
 20
72.589522
 30
0.0
 11
82.058654
 21
72.589522
 31
0.0
  0
LINE
  5
594
330
1F
100
AcDbEntity
  8
001
  6
DASHED
 62
   253
370
    50
100
AcDbLine
 10
65.058654
 20
107.435755
 30
0.0
 11
65.058654
 21
67.74329
 31
0.0
  0
LINE
  5
595
330
1F
100
AcDbEntity
  8
001
 62
   253
370
    50
100
AcDbLine
 10
55.060306
 20
87.589522
 30
0.0
 11
52.15912
 21
85.914522
 31
0.0
  0
LINE
  5
596
330
1F
100
AcDbEntity
  8
001
 62
   253
370
    50
100
AcDbLine
 10
55.060306
 20
87.589522
 30
0.0
 11
52.15912
 21
89.264522
 31
0.0
  0
LINE
  5
597
330
1F
100
AcDbEntity
  8
001
 62
   253
370
    50
100
AcDbLine
 10
175.058654
 20
87.589522
 30
0.0
 11
177.959839
 21
89.264522
 31
0.0
  0
LINE
  5
598
330
1F
100
AcDbEntity
  8
001
 62
   253
370
    50
100
AcDbLine
 10
175.058654
 20
87.589522
 30
0.0
 11
177.959839
 21
85.914522
 31
0.0
  0
TEXT
  5
599
330
1F
100
AcDbEntity
  8
001
370
    30
100
AcDbText
 10
4.067852
 20
135.883971
 30
0.0
 40
8.0
  1
ＮＥＷ　Ｔｉｋｏかったぁ　ＴＫＮ３２－６０Ｓ－０３
 41
0.833333
100
AcDbText
  0
ENDSEC
  0
SECTION
  2
OBJECTS
  0
DICTIONARY
  5
C
330
0
100
AcDbDictionary
281
     1
  3
ACAD_GROUP
350
D
  3
ACAD_LAYOUT
350
1A
  3
ACAD_MLEADERSTYLE
350
59D
  3
ACAD_MLINESTYLE
350
17
  3
ACAD_PLOTSETTINGS
350
19
  3
ACAD_PLOTSTYLENAME
350
E
  3
ACAD_SCALELIST
350
3B
  3
ACAD_TABLESTYLE
350
59C
  3
ACAD_VISUALSTYLE
350
2A
  3
AcDbVariableDictionary
350
59A
  0
DICTIONARY
  5
D
102
{ACAD_REACTORS
330
C
102
}
330
C
100
AcDbDictionary
281
     1
  0
DICTIONARY
  5
1A
102
{ACAD_REACTORS
330
C
102
}
330
C
100
AcDbDictionary
281
     1
  3
Layout1
350
1E
  3
Layout2
350
26
  3
Model
350
22
  0
DICTIONARY
  5
59D
102
{ACAD_REACTORS
330
C
102
}
330
C
100
AcDbDictionary
281
     1
  0
DICTIONARY
  5
17
102
{ACAD_REACTORS
330
C
102
}
330
C
100
AcDbDictionary
281
     1
  3
Standard
350
18
  0
DICTIONARY
  5
19
102
{ACAD_REACTORS
330
C
102
}
330
C
100
AcDbDictionary
281
     1
  0
ACDBDICTIONARYWDFLT
  5
E
102
{ACAD_REACTORS
330
C
102
}
330
C
100
AcDbDictionary
281
     1
  3
Normal
350
F
100
AcDbDictionaryWithDefault
340
F
  0
DICTIONARY
  5
3B
102
{ACAD_REACTORS
330
C
102
}
330
C
100
AcDbDictionary
281
     1
  3
A0
350
3C
  3
A1
350
3D
  3
A2
350
3E
  3
A3
350
3F
  3
A4
350
40
  3
A5
350
41
  3
A6
350
42
  3
A7
350
43
  3
A8
350
44
  3
A9
350
45
  3
B0
350
46
  3
B1
350
47
  3
B2
350
48
  3
B3
350
49
  3
B4
350
4A
  3
B5
350
4B
  3
B6
350
4C
  3
B7
350
4D
  3
B8
350
4E
  3
B9
350
4F
  3
C0
350
50
  3
C1
350
51
  3
C2
350
52
  3
C3
350
53
  3
C4
350
54
  3
C5
350
55
  3
C6
350
56
  3
C7
350
57
  3
C8
350
58
  3
C9
350
59
  3
D0
350
5A
  3
D1
350
5B
  3
D2
350
5C
  0
DICTIONARY
  5
59C
102
{ACAD_REACTORS
330
C
102
}
330
C
100
AcDbDictionary
281
     1
  0
DICTIONARY
  5
2A
102
{ACAD_REACTORS
330
C
102
}
330
C
100
AcDbDictionary
281
     1
  3
2dWireframe
350
2F
  3
3D Hidden
350
31
  3
3dWireframe
350
30
  3
Basic
350
32
  3
Brighten
350
36
  3
ColorChange
350
3A
  3
Conceptual
350
34
  3
Dim
350
35
  3
Facepattern
350
39
  3
Flat
350
2B
  3
FlatWithEdges
350
2C
  3
Gouraud
350
2D
  3
GouraudWithEdges
350
2E
  3
Linepattern
350
38
  3
Realistic
350
33
  3
Thicken
350
37
  0
DICTIONARY
  5
59A
102
{ACAD_REACTORS
330
C
102
}
330
C
100
AcDbDictionary
281
     1
  3
CANNOSCALE
350
59B
  3
PSOLHEIGHT
350
59F
  3
PSOLWIDTH
350
59E
  0
LAYOUT
  5
1E
102
{ACAD_REACTORS
330
1A
102
}
330
1A
100
AcDbPlotSettings
  1

  2
none_device
  4

  6

 40
0.0
 41
0.0
 42
0.0
 43
0.0
 44
0.0
 45
0.0
 46
0.0
 47
0.0
 48
0.0
 49
0.0
140
0.0
141
0.0
142
1.0
143
1.0
 70
   688
 72
     0
 73
     0
 74
     5
  7

 75
    16
147
1.0
148
0.0
149
0.0
100
AcDbLayout
  1
Layout1
 70
     1
 71
     1
 10
0.0
 20
0.0
 11
12.0
 21
9.0
 12
0.0
 22
0.0
 32
0.0
 14
1.000000E+20
 24
1.000000E+20
 34
0.0
 15
-1.000000E+20
 25
-1.000000E+20
 35
0.0
146
0.0
 13
0.0
 23
0.0
 33
0.0
 16
1.0
 26
0.0
 36
0.0
 17
0.0
 27
1.0
 37
0.0
 76
     0
330
1B
  0
LAYOUT
  5
26
102
{ACAD_REACTORS
330
1A
102
}
330
1A
100
AcDbPlotSettings
  1

  2
none_device
  4

  6

 40
0.0
 41
0.0
 42
0.0
 43
0.0
 44
0.0
 45
0.0
 46
0.0
 47
0.0
 48
0.0
 49
0.0
140
0.0
141
0.0
142
1.0
143
1.0
 70
   688
 72
     0
 73
     0
 74
     5
  7

 75
    16
147
1.0
148
0.0
149
0.0
100
AcDbLayout
  1
Layout2
 70
     1
 71
     2
 10
0.0
 20
0.0
 11
0.0
 21
0.0
 12
0.0
 22
0.0
 32
0.0
 14
0.0
 24
0.0
 34
0.0
 15
0.0
 25
0.0
 35
0.0
146
0.0
 13
0.0
 23
0.0
 33
0.0
 16
1.0
 26
0.0
 36
0.0
 17
0.0
 27
1.0
 37
0.0
 76
     0
330
23
  0
LAYOUT
  5
22
102
{ACAD_REACTORS
330
1A
102
}
330
1A
100
AcDbPlotSettings
  1

  2
none_device
  4

  6

 40
0.0
 41
0.0
 42
0.0
 43
0.0
 44
0.0
 45
0.0
 46
0.0
 47
0.0
 48
0.0
 49
0.0
140
0.0
141
0.0
142
1.0
143
1.0
 70
  1712
 72
     0
 73
     0
 74
     0
  7

 75
     0
147
1.0
148
0.0
149
0.0
100
AcDbLayout
  1
Model
 70
     1
 71
     0
 10
0.0
 20
0.0
 11
12.0
 21
9.0
 12
0.0
 22
0.0
 32
0.0
 14
4.067856
 24
19.119923
 34
0.0
 15
204.067856
 25
143.883972
 35
0.0
146
0.0
 13
0.0
 23
0.0
 33
0.0
 16
1.0
 26
0.0
 36
0.0
 17
0.0
 27
1.0
 37
0.0
 76
     0
330
1F
331
29
  0
MLINESTYLE
  5
18
102
{ACAD_REACTORS
330
17
102
}
330
17
100
AcDbMlineStyle
  2
Standard
 70
     0
  3

 62
   256
 51
90.0
 52
90.0
 71
     2
 49
0.5
 62
   256
  6
BYLAYER
 49
-0.5
 62
   256
  6
BYLAYER
  0
ACDBPLACEHOLDER
  5
F
102
{ACAD_REACTORS
330
E
102
}
330
E
  0
SCALE
  5
3C
102
{ACAD_REACTORS
330
3B
102
}
330
3B
100
AcDbScale
 70
     0
300
1:1
140
1.0
141
1.0
290
     1
  0
SCALE
  5
3D
102
{ACAD_REACTORS
330
3B
102
}
330
3B
100
AcDbScale
 70
     0
300
1:2
140
1.0
141
2.0
290
     0
  0
SCALE
  5
3E
102
{ACAD_REACTORS
330
3B
102
}
330
3B
100
AcDbScale
 70
     0
300
1:4
140
1.0
141
4.0
290
     0
  0
SCALE
  5
3F
102
{ACAD_REACTORS
330
3B
102
}
330
3B
100
AcDbScale
 70
     0
300
1:5
140
1.0
141
5.0
290
     0
  0
SCALE
  5
40
102
{ACAD_REACTORS
330
3B
102
}
330
3B
100
AcDbScale
 70
     0
300
1:8
140
1.0
141
8.0
290
     0
  0
SCALE
  5
41
102
{ACAD_REACTORS
330
3B
102
}
330
3B
100
AcDbScale
 70
     0
300
1:10
140
1.0
141
10.0
290
     0
  0
SCALE
  5
42
102
{ACAD_REACTORS
330
3B
102
}
330
3B
100
AcDbScale
 70
     0
300
1:16
140
1.0
141
16.0
290
     0
  0
SCALE
  5
43
102
{ACAD_REACTORS
330
3B
102
}
330
3B
100
AcDbScale
 70
     0
300
1:20
140
1.0
141
20.0
290
     0
  0
SCALE
  5
44
102
{ACAD_REACTORS
330
3B
102
}
330
3B
100
AcDbScale
 70
     0
300
1:30
140
1.0
141
30.0
290
     0
  0
SCALE
  5
45
102
{ACAD_REACTORS
330
3B
102
}
330
3B
100
AcDbScale
 70
     0
300
1:40
140
1.0
141
40.0
290
     0
  0
SCALE
  5
46
102
{ACAD_REACTORS
330
3B
102
}
330
3B
100
AcDbScale
 70
     0
300
1:50
140
1.0
141
50.0
290
     0
  0
SCALE
  5
47
102
{ACAD_REACTORS
330
3B
102
}
330
3B
100
AcDbScale
 70
     0
300
1:100
140
1.0
141
100.0
290
     0
  0
SCALE
  5
48
102
{ACAD_REACTORS
330
3B
102
}
330
3B
100
AcDbScale
 70
     0
300
2:1
140
2.0
141
1.0
290
     0
  0
SCALE
  5
49
102
{ACAD_REACTORS
330
3B
102
}
330
3B
100
AcDbScale
 70
     0
300
4:1
140
4.0
141
1.0
290
     0
  0
SCALE
  5
4A
102
{ACAD_REACTORS
330
3B
102
}
330
3B
100
AcDbScale
 70
     0
300
8:1
140
8.0
141
1.0
290
     0
  0
SCALE
  5
4B
102
{ACAD_REACTORS
330
3B
102
}
330
3B
100
AcDbScale
 70
     0
300
10:1
140
10.0
141
1.0
290
     0
  0
SCALE
  5
4C
102
{ACAD_REACTORS
330
3B
102
}
330
3B
100
AcDbScale
 70
     0
300
100:1
140
100.0
141
1.0
290
     0
  0
SCALE
  5
4D
102
{ACAD_REACTORS
330
3B
102
}
330
3B
100
AcDbScale
 70
     0
300
1/128" = 1'-0"
140
0.007812
141
12.0
290
     0
  0
SCALE
  5
4E
102
{ACAD_REACTORS
330
3B
102
}
330
3B
100
AcDbScale
 70
     0
300
1/64" = 1'-0"
140
0.015625
141
12.0
290
     0
  0
SCALE
  5
4F
102
{ACAD_REACTORS
330
3B
102
}
330
3B
100
AcDbScale
 70
     0
300
1/32" = 1'-0"
140
0.03125
141
12.0
290
     0
  0
SCALE
  5
50
102
{ACAD_REACTORS
330
3B
102
}
330
3B
100
AcDbScale
 70
     0
300
1/16" = 1'-0"
140
0.0625
141
12.0
290
     0
  0
SCALE
  5
51
102
{ACAD_REACTORS
330
3B
102
}
330
3B
100
AcDbScale
 70
     0
300
3/32" = 1'-0"
140
0.09375
141
12.0
290
     0
  0
SCALE
  5
52
102
{ACAD_REACTORS
330
3B
102
}
330
3B
100
AcDbScale
 70
     0
300
1/8" = 1'-0"
140
0.125
141
12.0
290
     0
  0
SCALE
  5
53
102
{ACAD_REACTORS
330
3B
102
}
330
3B
100
AcDbScale
 70
     0
300
3/16" = 1'-0"
140
0.1875
141
12.0
290
     0
  0
SCALE
  5
54
102
{ACAD_REACTORS
330
3B
102
}
330
3B
100
AcDbScale
 70
     0
300
1/4" = 1'-0"
140
0.25
141
12.0
290
     0
  0
SCALE
  5
55
102
{ACAD_REACTORS
330
3B
102
}
330
3B
100
AcDbScale
 70
     0
300
3/8" = 1'-0"
140
0.375
141
12.0
290
     0
  0
SCALE
  5
56
102
{ACAD_REACTORS
330
3B
102
}
330
3B
100
AcDbScale
 70
     0
300
1/2" = 1'-0"
140
0.5
141
12.0
290
     0
  0
SCALE
  5
57
102
{ACAD_REACTORS
330
3B
102
}
330
3B
100
AcDbScale
 70
     0
300
3/4" = 1'-0"
140
0.75
141
12.0
290
     0
  0
SCALE
  5
58
102
{ACAD_REACTORS
330
3B
102
}
330
3B
100
AcDbScale
 70
     0
300
1" = 1'-0"
140
1.0
141
12.0
290
     0
  0
SCALE
  5
59
102
{ACAD_REACTORS
330
3B
102
}
330
3B
100
AcDbScale
 70
     0
300
1-1/2" = 1'-0"
140
1.5
141
12.0
290
     0
  0
SCALE
  5
5A
102
{ACAD_REACTORS
330
3B
102
}
330
3B
100
AcDbScale
 70
     0
300
3" = 1'-0"
140
3.0
141
12.0
290
     0
  0
SCALE
  5
5B
102
{ACAD_REACTORS
330
3B
102
}
330
3B
100
AcDbScale
 70
     0
300
6" = 1'-0"
140
6.0
141
12.0
290
     0
  0
SCALE
  5
5C
102
{ACAD_REACTORS
330
3B
102
}
330
3B
100
AcDbScale
 70
     0
300
1'-0" = 1'-0"
140
12.0
141
12.0
290
     0
  0
VISUALSTYLE
  5
2F
102
{ACAD_REACTORS
330
2A
102
}
330
2A
100
AcDbVisualStyle
  2
2dWireframe
 70
     4
 71
     0
 72
     2
 73
     0
 90
        0
 40
-0.6
 41
-30.0
 62
     5
 63
     7
 74
     1
 91
        4
 64
     7
 65
   257
 75
     1
175
     1
 42
1.0
 92
        0
 66
   257
 43
1.0
 76
     1
 77
     6
 78
     2
 67
     7
 79
     5
170
     0
171
     0
290
     0
174
     0
 93
        1
 44
0.0
173
     0
291
     0
 45
0.0
1001
ACAD
1000
AcDbSavedByObjectVersion
1070
     0
  0
VISUALSTYLE
  5
31
102
{ACAD_REACTORS
330
2A
102
}
330
2A
100
AcDbVisualStyle
  2
3D Hidden
 70
     6
 71
     1
 72
     2
 73
     2
 90
        0
 40
-0.6
 41
-30.0
 62
     5
 63
     7
 74
     2
 91
        2
 64
     7
 65
   257
 75
     2
175
     1
 42
40.0
 92
        0
 66
   257
 43
1.0
 76
     1
 77
     6
 78
     2
 67
     7
 79
     3
170
     0
171
     0
290
     0
174
     0
 93
        1
 44
0.0
173
     0
291
     0
 45
0.0
1001
ACAD
1000
AcDbSavedByObjectVersion
1070
     0
  0
VISUALSTYLE
  5
30
102
{ACAD_REACTORS
330
2A
102
}
330
2A
100
AcDbVisualStyle
  2
3dWireframe
 70
     5
 71
     0
 72
     2
 73
     0
 90
        0
 40
-0.6
 41
-30.0
 62
     5
 63
     7
 74
     1
 91
        4
 64
     7
 65
   257
 75
     1
175
     1
 42
1.0
 92
        0
 66
   257
 43
1.0
 76
     1
 77
     6
 78
     2
 67
     7
 79
     5
170
     0
171
     0
290
     0
174
     0
 93
        1
 44
0.0
173
     0
291
     0
 45
0.0
1001
ACAD
1000
AcDbSavedByObjectVersion
1070
     0
  0
VISUALSTYLE
  5
32
102
{ACAD_REACTORS
330
2A
102
}
330
2A
100
AcDbVisualStyle
  2
Basic
 70
     7
 71
     1
 72
     0
 73
     1
 90
        0
 40
-0.6
 41
-30.0
 62
     5
 63
     7
 74
     0
 91
        4
 64
     7
 65
   257
 75
     1
175
     1
 42
1.0
 92
        8
 66
     7
 43
1.0
 76
     1
 77
     6
 78
     2
 67
     7
 79
     5
170
     0
171
     0
290
     0
174
     0
 93
        1
 44
0.0
173
     0
291
     1
 45
0.0
1001
ACAD
1000
AcDbSavedByObjectVersion
1070
     0
  0
VISUALSTYLE
  5
36
102
{ACAD_REACTORS
330
2A
102
}
330
2A
100
AcDbVisualStyle
  2
Brighten
 70
    12
 71
     2
 72
     2
 73
     0
 90
        0
 40
-0.6
 41
-30.0
 62
     5
 63
     7
 74
     1
 91
        4
 64
     7
 65
   257
 75
     1
175
     1
 42
1.0
 92
        8
 66
     7
 43
1.0
 76
     1
 77
     6
 78
     2
 67
     7
 79
     5
170
     0
171
     0
290
     0
174
     0
 93
        1
 44
50.0
173
     0
291
     1
 45
0.0
1001
ACAD
1000
AcDbSavedByObjectVersion
1070
     0
  0
VISUALSTYLE
  5
3A
102
{ACAD_REACTORS
330
2A
102
}
330
2A
100
AcDbVisualStyle
  2
ColorChange
 70
    16
 71
     2
 72
     2
 73
     3
 90
        0
 40
-0.6
 41
-30.0
 62
     5
 63
     8
 74
     1
 91
        4
 64
     7
 65
   257
 75
     1
175
     1
 42
1.0
 92
        8
 66
     8
 43
1.0
 76
     1
 77
     6
 78
     2
 67
     7
 79
     5
170
     0
171
     0
290
     0
174
     0
 93
        1
 44
0.0
173
     0
291
     1
 45
0.0
1001
ACAD
1000
AcDbSavedByObjectVersion
1070
     0
  0
VISUALSTYLE
  5
34
102
{ACAD_REACTORS
330
2A
102
}
330
2A
100
AcDbVisualStyle
  2
Conceptual
 70
     9
 71
     3
 72
     2
 73
     0
 90
        0
 40
-0.6
 41
-30.0
 62
     5
 63
     7
 74
     2
 91
        2
 64
     7
 65
   257
 75
     1
175
     1
 42
40.0
 92
        8
 66
     7
 43
1.0
 76
     1
 77
     6
 78
     2
 67
     7
 79
     3
170
     0
171
     0
290
     0
174
     0
 93
        1
 44
0.0
173
     0
291
     0
 45
0.0
1001
ACAD
1000
AcDbSavedByObjectVersion
1070
     0
  0
VISUALSTYLE
  5
35
102
{ACAD_REACTORS
330
2A
102
}
330
2A
100
AcDbVisualStyle
  2
Dim
 70
    11
 71
     2
 72
     2
 73
     0
 90
        0
 40
-0.6
 41
-30.0
 62
     5
 63
     7
 74
     1
 91
        4
 64
     7
 65
   257
 75
     1
175
     1
 42
1.0
 92
        8
 66
     7
 43
1.0
 76
     1
 77
     6
 78
     2
 67
     7
 79
     5
170
     0
171
     0
290
     0
174
     0
 93
        1
 44
-50.0
173
     0
291
     1
 45
0.0
1001
ACAD
1000
AcDbSavedByObjectVersion
1070
     0
  0
VISUALSTYLE
  5
39
102
{ACAD_REACTORS
330
2A
102
}
330
2A
100
AcDbVisualStyle
  2
Facepattern
 70
    15
 71
     2
 72
     2
 73
     0
 90
        0
 40
-0.6
 41
-30.0
 62
     5
 63
     7
 74
     1
 91
        4
 64
     7
 65
   257
 75
     1
175
     1
 42
1.0
 92
        8
 66
     7
 43
1.0
 76
     1
 77
     6
 78
     2
 67
     7
 79
     5
170
     0
171
     0
290
     0
174
     0
 93
        1
 44
0.0
173
     0
291
     1
 45
0.0
1001
ACAD
1000
AcDbSavedByObjectVersion
1070
     0
  0
VISUALSTYLE
  5
2B
102
{ACAD_REACTORS
330
2A
102
}
330
2A
100
AcDbVisualStyle
  2
Flat
 70
     0
 71
     2
 72
     1
 73
     1
 90
        2
 40
-0.6
 41
30.0
 62
     5
 63
     7
 74
     0
 91
        4
 64
     7
 65
   257
 75
     1
175
     1
 42
1.0
 92
        8
 66
     7
 43
1.0
 76
     1
 77
     6
 78
     2
 67
     7
 79
     5
170
     0
171
     0
290
     0
174
     0
 93
       13
 44
0.0
173
     0
291
     1
 45
0.0
1001
ACAD
1000
AcDbSavedByObjectVersion
1070
     0
  0
VISUALSTYLE
  5
2C
102
{ACAD_REACTORS
330
2A
102
}
330
2A
100
AcDbVisualStyle
  2
FlatWithEdges
 70
     1
 71
     2
 72
     1
 73
     1
 90
        2
 40
-0.6
 41
30.0
 62
     5
 63
     7
 74
     1
 91
        4
 64
     7
 65
   257
 75
     1
175
     1
 42
1.0
 92
        0
 66
   257
 43
1.0
 76
     1
 77
     6
 78
     2
 67
     7
 79
     5
170
     0
171
     0
290
     0
174
     0
 93
       13
 44
0.0
173
     0
291
     1
 45
0.0
1001
ACAD
1000
AcDbSavedByObjectVersion
1070
     0
  0
VISUALSTYLE
  5
2D
102
{ACAD_REACTORS
330
2A
102
}
330
2A
100
AcDbVisualStyle
  2
Gouraud
 70
     2
 71
     2
 72
     2
 73
     1
 90
        2
 40
-0.6
 41
30.0
 62
     5
 63
     7
 74
     0
 91
        4
 64
     7
 65
   257
 75
     1
175
     1
 42
1.0
 92
        0
 66
     7
 43
1.0
 76
     1
 77
     6
 78
     2
 67
     7
 79
     5
170
     0
171
     0
290
     0
174
     0
 93
       13
 44
0.0
173
     0
291
     1
 45
0.0
1001
ACAD
1000
AcDbSavedByObjectVersion
1070
     0
  0
VISUALSTYLE
  5
2E
102
{ACAD_REACTORS
330
2A
102
}
330
2A
100
AcDbVisualStyle
  2
GouraudWithEdges
 70
     3
 71
     2
 72
     2
 73
     1
 90
        2
 40
-0.6
 41
30.0
 62
     5
 63
     7
 74
     1
 91
        4
 64
     7
 65
   257
 75
     1
175
     1
 42
1.0
 92
        0
 66
   257
 43
1.0
 76
     1
 77
     6
 78
     2
 67
     7
 79
     5
170
     0
171
     0
290
     0
174
     0
 93
       13
 44
0.0
173
     0
291
     1
 45
0.0
1001
ACAD
1000
AcDbSavedByObjectVersion
1070
     0
  0
VISUALSTYLE
  5
38
102
{ACAD_REACTORS
330
2A
102
}
330
2A
100
AcDbVisualStyle
  2
Linepattern
 70
    14
 71
     2
 72
     2
 73
     0
 90
        0
 40
-0.6
 41
-30.0
 62
     5
 63
     7
 74
     1
 91
        4
 64
     7
 65
   257
 75
     7
175
     7
 42
1.0
 92
        8
 66
     7
 43
1.0
 76
     1
 77
     6
 78
     2
 67
     7
 79
     5
170
     0
171
     0
290
     0
174
     0
 93
        1
 44
0.0
173
     0
291
     1
 45
0.0
1001
ACAD
1000
AcDbSavedByObjectVersion
1070
     0
  0
VISUALSTYLE
  5
33
102
{ACAD_REACTORS
330
2A
102
}
330
2A
100
AcDbVisualStyle
  2
Realistic
 70
     8
 71
     2
 72
     2
 73
     0
 90
        0
 40
-0.6
 41
-30.0
 62
     5
 63
     7
 74
     1
 91
        0
 64
     7
 65
   257
 75
     1
175
     1
 42
1.0
 92
        8
 66
     8
 43
1.0
 76
     1
 77
     6
 78
     2
 67
     7
 79
     5
170
     0
171
     0
290
     0
174
     0
 93
       13
 44
0.0
173
     0
291
     0
 45
0.0
1001
ACAD
1000
AcDbSavedByObjectVersion
1070
     0
  0
VISUALSTYLE
  5
37
102
{ACAD_REACTORS
330
2A
102
}
330
2A
100
AcDbVisualStyle
  2
Thicken
 70
    13
 71
     2
 72
     2
 73
     0
 90
        0
 40
-0.6
 41
-30.0
 62
     5
 63
     7
 74
     1
 91
        4
 64
     7
 65
   257
 75
     1
175
     1
 42
1.0
 92
       12
 66
     7
 43
1.0
 76
     1
 77
     6
 78
     2
 67
     7
 79
     5
170
     0
171
     0
290
     0
174
     0
 93
        1
 44
0.0
173
     0
291
     1
 45
0.0
1001
ACAD
1000
AcDbSavedByObjectVersion
1070
     0
  0
DICTIONARYVAR
  5
59B
102
{ACAD_REACTORS
330
59A
102
}
330
59A
100
DictionaryVariables
280
     0
  1
1:1
  0
DICTIONARYVAR
  5
59F
102
{ACAD_REACTORS
330
59A
102
}
330
59A
100
DictionaryVariables
280
     0
  1
80.000000
  0
DICTIONARYVAR
  5
59E
102
{ACAD_REACTORS
330
59A
102
}
330
59A
100
DictionaryVariables
280
     0
  1
5.000000
  0
ENDSEC
  0
EOF
