  0
SECTION
  2
HEADER
  9
$ACADVER
  1
AC1015
  9
$ACADMAINTVER
 70
     6
  9
$DWGCODEPAGE
  3
ANSI_932
  9
$INSBASE
 10
0.0
 20
0.0
 30
0.0
  9
$EXTMIN
 10
4.067856
 20
-1.192337
 30
0.0
  9
$EXTMAX
 10
204.067856
 20
143.883972
 30
0.0
  9
$LIMMIN
 10
0.0
 20
0.0
  9
$LIMMAX
 10
12.0
 20
9.0
  9
$ORTHOMODE
 70
     0
  9
$REGENMODE
 70
     1
  9
$FILLMODE
 70
     1
  9
$QTEXTMODE
 70
     0
  9
$MIRRTEXT
 70
     1
  9
$LTSCALE
 40
2.470772
  9
$ATTMODE
 70
     1
  9
$TEXTSIZE
 40
3.2
  9
$TRACEWID
 40
1.0
  9
$TEXTSTYLE
  7
Standard
  9
$CLAYER
  8
0
  9
$CELTYPE
  6
ByLayer
  9
$CECOLOR
 62
   256
  9
$CELTSCALE
 40
1.0
  9
$DISPSILH
 70
     0
  9
$DIMSCALE
 40
1.0
  9
$DIMASZ
 40
2.5
  9
$DIMEXO
 40
0.625
  9
$DIMDLI
 40
3.75
  9
$DIMRND
 40
0.0
  9
$DIMDLE
 40
0.0
  9
$DIMEXE
 40
1.25
  9
$DIMTP
 40
0.0
  9
$DIMTM
 40
0.0
  9
$DIMTXT
 40
2.5
  9
$DIMCEN
 40
0.09
  9
$DIMTSZ
 40
0.0
  9
$DIMTOL
 70
     0
  9
$DIMLIM
 70
     0
  9
$DIMTIH
 70
     0
  9
$DIMTOH
 70
     0
  9
$DIMSE1
 70
     0
  9
$DIMSE2
 70
     0
  9
$DIMTAD
 70
     0
  9
$DIMZIN
 70
     8
  9
$DIMBLK
  1

  9
$DIMASO
 70
     1
  9
$DIMSHO
 70
     0
  9
$DIMPOST
  1

  9
$DIMAPOST
  1

  9
$DIMALT
 70
     0
  9
$DIMALTD
 70
     3
  9
$DIMALTF
 40
0.03937
  9
$DIMLFAC
 40
1.0
  9
$DIMTOFL
 70
     1
  9
$DIMTVP
 40
0.0
  9
$DIMTIX
 70
     0
  9
$DIMSOXD
 70
     0
  9
$DIMSAH
 70
     0
  9
$DIMBLK1
  1

  9
$DIMBLK2
  1

  9
$DIMSTYLE
  2
ISO-25
  9
$DIMCLRD
 70
     0
  9
$DIMCLRE
 70
     0
  9
$DIMCLRT
 70
     0
  9
$DIMTFAC
 40
1.0
  9
$DIMGAP
 40
0.625
  9
$DIMJUST
 70
     0
  9
$DIMSD1
 70
     0
  9
$DIMSD2
 70
     0
  9
$DIMTOLJ
 70
     0
  9
$DIMTZIN
 70
     8
  9
$DIMALTZ
 70
     0
  9
$DIMALTTZ
 70
     0
  9
$DIMUPT
 70
     0
  9
$DIMDEC
 70
     2
  9
$DIMTDEC
 70
     2
  9
$DIMALTU
 70
     2
  9
$DIMALTTD
 70
     3
  9
$DIMTXSTY
  7
Standard
  9
$DIMAUNIT
 70
     0
  9
$DIMADEC
 70
     0
  9
$DIMALTRND
 40
0.0
  9
$DIMAZIN
 70
     0
  9
$DIMDSEP
 70
    44
  9
$DIMATFIT
 70
     3
  9
$DIMFRAC
 70
     0
  9
$DIMLDRBLK
  1

  9
$DIMLUNIT
 70
     2
  9
$DIMLWD
 70
    -2
  9
$DIMLWE
 70
    -2
  9
$DIMTMOVE
 70
     0
  9
$LUNITS
 70
     2
  9
$LUPREC
 70
     4
  9
$SKETCHINC
 40
1.0
  9
$FILLETRAD
 40
0.0
  9
$AUNITS
 70
     0
  9
$AUPREC
 70
     0
  9
$MENU
  1
.
  9
$ELEVATION
 40
0.0
  9
$PELEVATION
 40
0.0
  9
$THICKNESS
 40
0.0
  9
$LIMCHECK
 70
     0
  9
$CHAMFERA
 40
10.0
  9
$CHAMFERB
 40
10.0
  9
$CHAMFERC
 40
20.0
  9
$CHAMFERD
 40
0.0
  9
$SKPOLY
 70
     0
  9
$TDCREATE
 40
2456275.60563603
  9
$TDUCREATE
 40
2456275.23063603
  9
$TDUPDATE
 40
2456275.605636042
  9
$TDUUPDATE
 40
2456275.230636042
  9
$TDINDWG
 40
0.0000000116
  9
$TDUSRTIMER
 40
0.0000000116
  9
$USRTIMER
 70
     1
  9
$ANGBASE
 50
0.0
  9
$ANGDIR
 70
     0
  9
$PDMODE
 70
     0
  9
$PDSIZE
 40
0.0
  9
$PLINEWID
 40
0.0
  9
$SPLFRAME
 70
     0
  9
$SPLINETYPE
 70
     6
  9
$SPLINESEGS
 70
     8
  9
$HANDSEED
  5
5BB
  9
$SURFTAB1
 70
     6
  9
$SURFTAB2
 70
     6
  9
$SURFTYPE
 70
     6
  9
$SURFU
 70
     6
  9
$SURFV
 70
     6
  9
$UCSBASE
  2

  9
$UCSNAME
  2

  9
$UCSORG
 10
0.0
 20
0.0
 30
0.0
  9
$UCSXDIR
 10
1.0
 20
0.0
 30
0.0
  9
$UCSYDIR
 10
0.0
 20
1.0
 30
0.0
  9
$UCSORTHOREF
  2

  9
$UCSORTHOVIEW
 70
     0
  9
$UCSORGTOP
 10
0.0
 20
0.0
 30
0.0
  9
$UCSORGBOTTOM
 10
0.0
 20
0.0
 30
0.0
  9
$UCSORGLEFT
 10
0.0
 20
0.0
 30
0.0
  9
$UCSORGRIGHT
 10
0.0
 20
0.0
 30
0.0
  9
$UCSORGFRONT
 10
0.0
 20
0.0
 30
0.0
  9
$UCSORGBACK
 10
0.0
 20
0.0
 30
0.0
  9
$PUCSBASE
  2

  9
$PUCSNAME
  2

  9
$PUCSORG
 10
0.0
 20
0.0
 30
0.0
  9
$PUCSXDIR
 10
1.0
 20
0.0
 30
0.0
  9
$PUCSYDIR
 10
0.0
 20
1.0
 30
0.0
  9
$PUCSORTHOREF
  2

  9
$PUCSORTHOVIEW
 70
     0
  9
$PUCSORGTOP
 10
0.0
 20
0.0
 30
0.0
  9
$PUCSORGBOTTOM
 10
0.0
 20
0.0
 30
0.0
  9
$PUCSORGLEFT
 10
0.0
 20
0.0
 30
0.0
  9
$PUCSORGRIGHT
 10
0.0
 20
0.0
 30
0.0
  9
$PUCSORGFRONT
 10
0.0
 20
0.0
 30
0.0
  9
$PUCSORGBACK
 10
0.0
 20
0.0
 30
0.0
  9
$USERI1
 70
     0
  9
$USERI2
 70
     0
  9
$USERI3
 70
     0
  9
$USERI4
 70
     0
  9
$USERI5
 70
     0
  9
$USERR1
 40
0.0
  9
$USERR2
 40
0.0
  9
$USERR3
 40
0.0
  9
$USERR4
 40
0.0
  9
$USERR5
 40
0.0
  9
$WORLDVIEW
 70
     1
  9
$SHADEDGE
 70
     3
  9
$SHADEDIF
 70
    70
  9
$TILEMODE
 70
     1
  9
$MAXACTVP
 70
    64
  9
$PINSBASE
 10
0.0
 20
0.0
 30
0.0
  9
$PLIMCHECK
 70
     0
  9
$PEXTMIN
 10
1.000000E+20
 20
1.000000E+20
 30
0.0
  9
$PEXTMAX
 10
-1.000000E+20
 20
-1.000000E+20
 30
0.0
  9
$PLIMMIN
 10
0.0
 20
0.0
  9
$PLIMMAX
 10
12.0
 20
9.0
  9
$UNITMODE
 70
     0
  9
$VISRETAIN
 70
     1
  9
$PLINEGEN
 70
     0
  9
$PSLTSCALE
 70
     1
  9
$TREEDEPTH
 70
  3020
  9
$CMLSTYLE
  2
Standard
  9
$CMLJUST
 70
     0
  9
$CMLSCALE
 40
20.0
  9
$PROXYGRAPHICS
 70
     1
  9
$MEASUREMENT
 70
     1
  9
$CELWEIGHT
370
    -1
  9
$ENDCAPS
280
     0
  9
$JOINSTYLE
280
     0
  9
$LWDISPLAY
290
     0
  9
$INSUNITS
 70
     4
  9
$HYPERLINKBASE
  1

  9
$STYLESHEET
  1

  9
$XEDIT
290
     1
  9
$CEPSNTYPE
380
     0
  9
$PSTYLEMODE
290
     1
  9
$FINGERPRINTGUID
  2
{FEB6E678-DBAA-4A21-8D34-43ABB4F7F7AC}
  9
$VERSIONGUID
  2
{FAEB1C32-E019-11D5-929B-00C0DF256EC4}
  9
$EXTNAMES
290
     1
  9
$PSVPSCALE
 40
0.0
  9
$OLESTARTUP
290
     0
  0
ENDSEC
  0
SECTION
  2
CLASSES
  0
CLASS
  1
ACDBDICTIONARYWDFLT
  2
AcDbDictionaryWithDefault
  3
ObjectDBX Classes
 90
        0
280
     0
281
     0
  0
CLASS
  1
VISUALSTYLE
  2
AcDbVisualStyle
  3
ObjectDBX Classes
 90
     4095
280
     0
281
     0
  0
CLASS
  1
SCALE
  2
AcDbScale
  3
ObjectDBX Classes
 90
     1153
280
     0
281
     0
  0
CLASS
  1
DICTIONARYVAR
  2
AcDbDictionaryVar
  3
ObjectDBX Classes
 90
        0
280
     0
281
     0
  0
CLASS
  1
ACDBPLACEHOLDER
  2
AcDbPlaceHolder
  3
ObjectDBX Classes
 90
        0
280
     0
281
     0
  0
CLASS
  1
LAYOUT
  2
AcDbLayout
  3
ObjectDBX Classes
 90
        0
280
     0
281
     0
  0
ENDSEC
  0
SECTION
  2
TABLES
  0
TABLE
  2
VPORT
  5
8
330
0
100
AcDbSymbolTable
 70
     1
  0
VPORT
  5
29
330
8
100
AcDbSymbolTableRecord
100
AcDbViewportTableRecord
  2
*Active
 70
     0
 10
0.0
 20
0.0
 11
1.0
 21
1.0
 12
104.067856
 22
71.345818
 13
0.0
 23
0.0
 14
1.0
 24
1.0
 15
0.0
 25
0.0
 16
0.0
 26
0.0
 36
1.0
 17
0.0
 27
0.0
 37
0.0
 40
146.527072
 41
1.691288
 42
50.0
 43
0.0
 44
0.0
 50
0.0
 51
0.0
 71
     0
 72
   100
 73
     1
 74
     3
 75
     0
 76
     0
 77
     0
 78
     0
281
     0
 65
     1
110
0.0
120
0.0
130
0.0
111
1.0
121
0.0
131
0.0
112
0.0
122
1.0
132
0.0
 79
     0
146
0.0
  0
ENDTAB
  0
TABLE
  2
LTYPE
  5
5
330
0
100
AcDbSymbolTable
 70
     5
  0
LTYPE
  5
14
330
5
100
AcDbSymbolTableRecord
100
AcDbLinetypeTableRecord
  2
ByBlock
 70
     0
  3

 72
    65
 73
     0
 40
0.0
  0
LTYPE
  5
15
330
5
100
AcDbSymbolTableRecord
100
AcDbLinetypeTableRecord
  2
ByLayer
 70
     0
  3

 72
    65
 73
     0
 40
0.0
  0
LTYPE
  5
16
330
5
100
AcDbSymbolTableRecord
100
AcDbLinetypeTableRecord
  2
Continuous
 70
     0
  3
Solid line
 72
    65
 73
     0
 40
0.0
  0
LTYPE
  5
5D
330
5
100
AcDbSymbolTableRecord
100
AcDbLinetypeTableRecord
  2
DASHED
 70
     0
  3
DASHED
 72
    83
 73
     2
 40
0.75
 49
0.5
 74
     0
 49
-0.25
 74
     0
  0
LTYPE
  5
5E
330
5
100
AcDbSymbolTableRecord
100
AcDbLinetypeTableRecord
  2
HIDDEN
 70
     0
  3
HIDDEN
 72
    83
 73
     2
 40
0.375
 49
0.25
 74
     0
 49
-0.125
 74
     0
  0
LTYPE
  5
5F
330
5
100
AcDbSymbolTableRecord
100
AcDbLinetypeTableRecord
  2
CENTER
 70
     0
  3
CENTER
 72
    83
 73
     4
 40
2.0
 49
1.25
 74
     0
 49
-0.25
 74
     0
 49
0.25
 74
     0
 49
-0.25
 74
     0
  0
LTYPE
  5
60
330
5
100
AcDbSymbolTableRecord
100
AcDbLinetypeTableRecord
  2
PHANTOM
 70
     0
  3
PHANTOM
 72
    83
 73
     6
 40
2.5
 49
1.25
 74
     0
 49
-0.25
 74
     0
 49
0.25
 74
     0
 49
-0.25
 74
     0
 49
0.25
 74
     0
 49
-0.25
 74
     0
  0
ENDTAB
  0
TABLE
  2
LAYER
  5
2
330
0
100
AcDbSymbolTable
 70
     2
  0
LAYER
  5
10
330
2
100
AcDbSymbolTableRecord
100
AcDbLayerTableRecord
  2
0
 70
     0
 62
     7
  6
Continuous
370
    -3
390
F
  0
LAYER
  5
61
330
2
100
AcDbSymbolTableRecord
100
AcDbLayerTableRecord
  2
001
 70
     0
 62
     7
  6
Continuous
370
    -3
390
F
  0
ENDTAB
  0
TABLE
  2
STYLE
  5
3
330
0
100
AcDbSymbolTable
 70
     2
  0
STYLE
  5
11
330
3
100
AcDbSymbolTableRecord
100
AcDbTextStyleTableRecord
  2
Standard
 70
     0
 40
0.0
 41
1.0
 50
0.0
 71
     0
 42
0.2
  3
TXT
  4
BIGFONT
  0
STYLE
  5
62
330
3
100
AcDbSymbolTableRecord
100
AcDbTextStyleTableRecord
  2
TATEGAKI
 70
     4
 40
1.0
 41
1.0
 50
0.0
 71
     0
 42
0.2
  3
TXT
  4
BIGFONT
  0
ENDTAB
  0
TABLE
  2
VIEW
  5
6
330
0
100
AcDbSymbolTable
 70
     0
  0
ENDTAB
  0
TABLE
  2
UCS
  5
7
330
0
100
AcDbSymbolTable
 70
     0
  0
ENDTAB
  0
TABLE
  2
APPID
  5
9
330
0
100
AcDbSymbolTable
 70
     1
  0
APPID
  5
12
330
9
100
AcDbSymbolTableRecord
100
AcDbRegAppTableRecord
  2
ACAD
 70
     0
  0
ENDTAB
  0
TABLE
  2
DIMSTYLE
  5
A
330
0
100
AcDbSymbolTable
 70
     2
100
AcDbDimStyleTable
  0
DIMSTYLE
105
27
330
A
100
AcDbSymbolTableRecord
100
AcDbDimStyleTableRecord
  2
ISO-25
 70
     0
 41
2.5
 42
0.625
 43
3.75
 44
1.25
 73
     0
 74
     0
 77
     1
 78
     8
140
2.5
141
2.5
143
0.03937
147
0.625
171
     3
172
     1
271
     2
272
     2
274
     3
278
    44
283
     0
284
     8
340
11
  0
DIMSTYLE
105
63
102
{ACAD_REACTORS
330
B4
330
B5
330
CE
330
CF
102
}
330
A
100
AcDbSymbolTableRecord
100
AcDbDimStyleTableRecord
  2
Standard
 70
     0
 41
1.5
 42
0.0
 44
0.5
 73
     0
 74
     0
 77
     1
 78
     8
 79
     2
140
4.0
146
0.8
147
1.0
172
     1
179
     1
271
     1
340
11
  0
ENDTAB
  0
TABLE
  2
BLOCK_RECORD
  5
1
330
0
100
AcDbSymbolTable
 70
     5
  0
BLOCK_RECORD
  5
1F
330
1
100
AcDbSymbolTableRecord
100
AcDbBlockTableRecord
  2
*Model_Space
340
22
  0
BLOCK_RECORD
  5
1B
330
1
100
AcDbSymbolTableRecord
100
AcDbBlockTableRecord
  2
*Paper_Space
340
1E
  0
BLOCK_RECORD
  5
23
330
1
100
AcDbSymbolTableRecord
100
AcDbBlockTableRecord
  2
*Paper_Space0
340
26
  0
BLOCK_RECORD
  5
64
330
1
100
AcDbSymbolTableRecord
100
AcDbBlockTableRecord
  2
*D1
340
0
  0
BLOCK_RECORD
  5
78
330
1
100
AcDbSymbolTableRecord
100
AcDbBlockTableRecord
  2
*D2
340
0
  0
BLOCK_RECORD
  5
8C
330
1
100
AcDbSymbolTableRecord
100
AcDbBlockTableRecord
  2
*D3
340
0
  0
BLOCK_RECORD
  5
A0
330
1
100
AcDbSymbolTableRecord
100
AcDbBlockTableRecord
  2
*D4
340
0
  0
ENDTAB
  0
ENDSEC
  0
SECTION
  2
BLOCKS
  0
BLOCK
  5
20
330
1F
100
AcDbEntity
  8
0
100
AcDbBlockBegin
  2
*Model_Space
 70
     0
 10
0.0
 20
0.0
 30
0.0
  3
*Model_Space
  1

  0
ENDBLK
  5
21
330
1F
100
AcDbEntity
  8
0
100
AcDbBlockEnd
  0
BLOCK
  5
1C
330
1B
100
AcDbEntity
 67
     1
  8
0
100
AcDbBlockBegin
  2
*Paper_Space
 70
     0
 10
0.0
 20
0.0
 30
0.0
  3
*Paper_Space
  1

  0
ENDBLK
  5
1D
330
1B
100
AcDbEntity
 67
     1
  8
0
100
AcDbBlockEnd
  0
BLOCK
  5
24
330
23
100
AcDbEntity
  8
0
100
AcDbBlockBegin
  2
*Paper_Space0
 70
     0
 10
0.0
 20
0.0
 30
0.0
  3
*Paper_Space0
  1

  0
ENDBLK
  5
25
330
23
100
AcDbEntity
  8
0
100
AcDbBlockEnd
  0
BLOCK
  5
65
330
64
100
AcDbEntity
  8
0
100
AcDbBlockBegin
  2
*D1
 70
     1
 10
0.0
 20
0.0
 30
0.0
  3
*D1
  1

  0
LINE
  5
67
330
64
100
AcDbEntity
  8
001
370
    50
100
AcDbLine
 10
168.820049
 20
67.41482
 30
0.0
 11
168.820049
 21
-1.192342
 31
0.0
  0
LINE
  5
68
330
64
100
AcDbEntity
  8
001
370
    50
100
AcDbLine
 10
48.820049
 20
35.402991
 30
0.0
 11
48.820049
 21
-1.192342
 31
0.0
  0
LINE
  5
69
330
64
100
AcDbEntity
  8
001
370
    50
100
AcDbLine
 10
168.820049
 20
-0.692342
 30
0.0
 11
48.820049
 21
-0.692342
 31
0.0
  0
POLYLINE
  5
6A
330
64
100
AcDbEntity
  8
001
370
    50
100
AcDb2dPolyline
 66
     1
 10
0.0
 20
0.0
 30
0.0
  0
VERTEX
  5
6C
330
6A
100
AcDbEntity
  8
001
370
    50
100
AcDbVertex
100
AcDb2dVertex
 10
167.320049
 20
-0.290418
 30
0.0
  0
VERTEX
  5
6D
330
6A
100
AcDbEntity
  8
001
370
    50
100
AcDbVertex
100
AcDb2dVertex
 10
168.820049
 20
-0.692342
 30
0.0
  0
VERTEX
  5
6E
330
6A
100
AcDbEntity
  8
001
370
    50
100
AcDbVertex
100
AcDb2dVertex
 10
167.320049
 20
-1.094265
 30
0.0
  0
SEQEND
  5
6B
330
6A
100
AcDbEntity
  8
001
370
    50
  0
POLYLINE
  5
6F
330
64
100
AcDbEntity
  8
001
370
    50
100
AcDb2dPolyline
 66
     1
 10
0.0
 20
0.0
 30
0.0
  0
VERTEX
  5
71
330
6F
100
AcDbEntity
  8
001
370
    50
100
AcDbVertex
100
AcDb2dVertex
 10
50.320049
 20
-1.094265
 30
0.0
  0
VERTEX
  5
72
330
6F
100
AcDbEntity
  8
001
370
    50
100
AcDbVertex
100
AcDb2dVertex
 10
48.820049
 20
-0.692342
 30
0.0
  0
VERTEX
  5
73
330
6F
100
AcDbEntity
  8
001
370
    50
100
AcDbVertex
100
AcDb2dVertex
 10
50.320049
 20
-0.290418
 30
0.0
  0
SEQEND
  5
70
330
6F
100
AcDbEntity
  8
001
370
    50
  0
TEXT
  5
74
330
64
100
AcDbEntity
  8
001
370
    30
100
AcDbText
 10
102.820049
 20
0.307658
 30
0.0
 40
4.0
  1
１２０
 41
0.833333
100
AcDbText
  0
POINT
  5
75
330
64
100
AcDbEntity
  8
001
370
    50
100
AcDbPoint
 10
168.820049
 20
67.41482
 30
0.0
  0
POINT
  5
76
330
64
100
AcDbEntity
  8
001
370
    50
100
AcDbPoint
 10
48.820049
 20
35.402991
 30
0.0
  0
POINT
  5
77
330
64
100
AcDbEntity
  8
001
370
    50
100
AcDbPoint
 10
48.820049
 20
-0.692342
 30
0.0
  0
ENDBLK
  5
66
330
64
100
AcDbEntity
  8
0
100
AcDbBlockEnd
  0
BLOCK
  5
79
330
78
100
AcDbEntity
  8
0
100
AcDbBlockBegin
  2
*D2
 70
     1
 10
0.0
 20
0.0
 30
0.0
  3
*D2
  1

  0
LINE
  5
7B
330
78
100
AcDbEntity
  8
001
370
    50
100
AcDbLine
 10
88.820049
 20
51.41482
 30
0.0
 11
88.820049
 21
9.719922
 31
0.0
  0
LINE
  5
7C
330
78
100
AcDbEntity
  8
001
370
    50
100
AcDbLine
 10
48.820049
 20
29.14035
 30
0.0
 11
48.820049
 21
9.719922
 31
0.0
  0
LINE
  5
7D
330
78
100
AcDbEntity
  8
001
370
    50
100
AcDbLine
 10
88.820049
 20
10.219922
 30
0.0
 11
48.820049
 21
10.219922
 31
0.0
  0
POLYLINE
  5
7E
330
78
100
AcDbEntity
  8
001
370
    50
100
AcDb2dPolyline
 66
     1
 10
0.0
 20
0.0
 30
0.0
  0
VERTEX
  5
80
330
7E
100
AcDbEntity
  8
001
370
    50
100
AcDbVertex
100
AcDb2dVertex
 10
87.320049
 20
10.621846
 30
0.0
  0
VERTEX
  5
81
330
7E
100
AcDbEntity
  8
001
370
    50
100
AcDbVertex
100
AcDb2dVertex
 10
88.820049
 20
10.219922
 30
0.0
  0
VERTEX
  5
82
330
7E
100
AcDbEntity
  8
001
370
    50
100
AcDbVertex
100
AcDb2dVertex
 10
87.320049
 20
9.817998
 30
0.0
  0
SEQEND
  5
7F
330
7E
100
AcDbEntity
  8
001
370
    50
  0
POLYLINE
  5
83
330
78
100
AcDbEntity
  8
001
370
    50
100
AcDb2dPolyline
 66
     1
 10
0.0
 20
0.0
 30
0.0
  0
VERTEX
  5
85
330
83
100
AcDbEntity
  8
001
370
    50
100
AcDbVertex
100
AcDb2dVertex
 10
50.320049
 20
9.817998
 30
0.0
  0
VERTEX
  5
86
330
83
100
AcDbEntity
  8
001
370
    50
100
AcDbVertex
100
AcDb2dVertex
 10
48.820049
 20
10.219922
 30
0.0
  0
VERTEX
  5
87
330
83
100
AcDbEntity
  8
001
370
    50
100
AcDbVertex
100
AcDb2dVertex
 10
50.320049
 20
10.621846
 30
0.0
  0
SEQEND
  5
84
330
83
100
AcDbEntity
  8
001
370
    50
  0
TEXT
  5
88
330
78
100
AcDbEntity
  8
001
370
    30
100
AcDbText
 10
64.820049
 20
11.219922
 30
0.0
 40
4.0
  1
４０
 41
0.833333
100
AcDbText
  0
POINT
  5
89
330
78
100
AcDbEntity
  8
001
370
    50
100
AcDbPoint
 10
88.820049
 20
51.41482
 30
0.0
  0
POINT
  5
8A
330
78
100
AcDbEntity
  8
001
370
    50
100
AcDbPoint
 10
48.820049
 20
29.14035
 30
0.0
  0
POINT
  5
8B
330
78
100
AcDbEntity
  8
001
370
    50
100
AcDbPoint
 10
48.820049
 20
10.219922
 30
0.0
  0
ENDBLK
  5
7A
330
78
100
AcDbEntity
  8
0
100
AcDbBlockEnd
  0
BLOCK
  5
8D
330
8C
100
AcDbEntity
  8
0
100
AcDbBlockBegin
  2
*D3
 70
     1
 10
0.0
 20
0.0
 30
0.0
  3
*D3
  1

  0
LINE
  5
8F
330
8C
100
AcDbEntity
  8
001
370
    50
100
AcDbLine
 10
168.820049
 20
70.41482
 30
0.0
 11
168.820049
 21
9.719922
 31
0.0
  0
LINE
  5
90
330
8C
100
AcDbEntity
  8
001
370
    50
100
AcDbLine
 10
88.820049
 20
51.41482
 30
0.0
 11
88.820049
 21
9.719922
 31
0.0
  0
LINE
  5
91
330
8C
100
AcDbEntity
  8
001
370
    50
100
AcDbLine
 10
168.820049
 20
10.219922
 30
0.0
 11
88.820049
 21
10.219922
 31
0.0
  0
POLYLINE
  5
92
330
8C
100
AcDbEntity
  8
001
370
    50
100
AcDb2dPolyline
 66
     1
 10
0.0
 20
0.0
 30
0.0
  0
VERTEX
  5
94
330
92
100
AcDbEntity
  8
001
370
    50
100
AcDbVertex
100
AcDb2dVertex
 10
167.320049
 20
10.621846
 30
0.0
  0
VERTEX
  5
95
330
92
100
AcDbEntity
  8
001
370
    50
100
AcDbVertex
100
AcDb2dVertex
 10
168.820049
 20
10.219922
 30
0.0
  0
VERTEX
  5
96
330
92
100
AcDbEntity
  8
001
370
    50
100
AcDbVertex
100
AcDb2dVertex
 10
167.320049
 20
9.817998
 30
0.0
  0
SEQEND
  5
93
330
92
100
AcDbEntity
  8
001
370
    50
  0
POLYLINE
  5
97
330
8C
100
AcDbEntity
  8
001
370
    50
100
AcDb2dPolyline
 66
     1
 10
0.0
 20
0.0
 30
0.0
  0
VERTEX
  5
99
330
97
100
AcDbEntity
  8
001
370
    50
100
AcDbVertex
100
AcDb2dVertex
 10
90.320049
 20
9.817998
 30
0.0
  0
VERTEX
  5
9A
330
97
100
AcDbEntity
  8
001
370
    50
100
AcDbVertex
100
AcDb2dVertex
 10
88.820049
 20
10.219922
 30
0.0
  0
VERTEX
  5
9B
330
97
100
AcDbEntity
  8
001
370
    50
100
AcDbVertex
100
AcDb2dVertex
 10
90.320049
 20
10.621846
 30
0.0
  0
SEQEND
  5
98
330
97
100
AcDbEntity
  8
001
370
    50
  0
TEXT
  5
9C
330
8C
100
AcDbEntity
  8
001
370
    30
100
AcDbText
 10
124.820049
 20
11.219922
 30
0.0
 40
4.0
  1
８０
 41
0.833333
100
AcDbText
  0
POINT
  5
9D
330
8C
100
AcDbEntity
  8
001
370
    50
100
AcDbPoint
 10
168.820049
 20
70.41482
 30
0.0
  0
POINT
  5
9E
330
8C
100
AcDbEntity
  8
001
370
    50
100
AcDbPoint
 10
88.820049
 20
51.41482
 30
0.0
  0
POINT
  5
9F
330
8C
100
AcDbEntity
  8
001
370
    50
100
AcDbPoint
 10
88.820049
 20
10.219922
 30
0.0
  0
ENDBLK
  5
8E
330
8C
100
AcDbEntity
  8
0
100
AcDbBlockEnd
  0
BLOCK
  5
A1
330
A0
100
AcDbEntity
  8
0
100
AcDbBlockBegin
  2
*D4
 70
     1
 10
0.0
 20
0.0
 30
0.0
  3
*D4
  1

  0
LINE
  5
A3
330
A0
100
AcDbEntity
  8
001
370
    50
100
AcDbLine
 10
163.820049
 20
85.41482
 30
0.0
 11
192.282719
 21
85.41482
 31
0.0
  0
LINE
  5
A4
330
A0
100
AcDbEntity
  8
001
370
    50
100
AcDbLine
 10
163.820049
 20
65.41482
 30
0.0
 11
192.282719
 21
65.41482
 31
0.0
  0
LINE
  5
A5
330
A0
100
AcDbEntity
  8
001
370
    50
100
AcDbLine
 10
191.782719
 20
85.41482
 30
0.0
 11
191.782719
 21
65.41482
 31
0.0
  0
POLYLINE
  5
A6
330
A0
100
AcDbEntity
  8
001
370
    50
100
AcDb2dPolyline
 66
     1
 10
0.0
 20
0.0
 30
0.0
  0
VERTEX
  5
A8
330
A6
100
AcDbEntity
  8
001
370
    50
100
AcDbVertex
100
AcDb2dVertex
 10
191.380796
 20
83.91482
 30
0.0
  0
VERTEX
  5
A9
330
A6
100
AcDbEntity
  8
001
370
    50
100
AcDbVertex
100
AcDb2dVertex
 10
191.782719
 20
85.41482
 30
0.0
  0
VERTEX
  5
AA
330
A6
100
AcDbEntity
  8
001
370
    50
100
AcDbVertex
100
AcDb2dVertex
 10
192.184643
 20
83.91482
 30
0.0
  0
SEQEND
  5
A7
330
A6
100
AcDbEntity
  8
001
370
    50
  0
POLYLINE
  5
AB
330
A0
100
AcDbEntity
  8
001
370
    50
100
AcDb2dPolyline
 66
     1
 10
0.0
 20
0.0
 30
0.0
  0
VERTEX
  5
AD
330
AB
100
AcDbEntity
  8
001
370
    50
100
AcDbVertex
100
AcDb2dVertex
 10
192.184643
 20
66.91482
 30
0.0
  0
VERTEX
  5
AE
330
AB
100
AcDbEntity
  8
001
370
    50
100
AcDbVertex
100
AcDb2dVertex
 10
191.782719
 20
65.41482
 30
0.0
  0
VERTEX
  5
AF
330
AB
100
AcDbEntity
  8
001
370
    50
100
AcDbVertex
100
AcDb2dVertex
 10
191.380796
 20
66.91482
 30
0.0
  0
SEQEND
  5
AC
330
AB
100
AcDbEntity
  8
001
370
    50
  0
TEXT
  5
B0
330
A0
100
AcDbEntity
  8
001
370
    30
100
AcDbText
 10
190.782719
 20
69.41482
 30
0.0
 40
4.0
  1
%%c２０
 50
90.000003
 41
0.882353
100
AcDbText
  0
POINT
  5
B1
330
A0
100
AcDbEntity
  8
001
370
    50
100
AcDbPoint
 10
163.820049
 20
85.41482
 30
0.0
  0
POINT
  5
B2
330
A0
100
AcDbEntity
  8
001
370
    50
100
AcDbPoint
 10
163.820049
 20
65.41482
 30
0.0
  0
POINT
  5
B3
330
A0
100
AcDbEntity
  8
001
370
    50
100
AcDbPoint
 10
191.782719
 20
65.41482
 30
0.0
  0
ENDBLK
  5
A2
330
A0
100
AcDbEntity
  8
0
100
AcDbBlockEnd
  0
ENDSEC
  0
SECTION
  2
ENTITIES
  0
DIMENSION
  5
B4
330
1F
100
AcDbEntity
  8
001
370
    50
100
AcDbDimension
  2
*D1
 10
48.820049
 20
-0.692342
 30
0.0
 11
108.820049
 21
2.307658
 31
0.0
 70
   160
 71
     5
 42
-1.0
  3
Standard
100
AcDbAlignedDimension
 13
168.820049
 23
67.41482
 33
0.0
 14
48.820049
 24
35.402991
 34
0.0
 50
180.0
100
AcDbRotatedDimension
  0
DIMENSION
  5
B5
330
1F
100
AcDbEntity
  8
001
370
    50
100
AcDbDimension
  2
*D2
 10
48.820049
 20
10.219922
 30
0.0
 11
68.820049
 21
13.219922
 31
0.0
 70
   160
 71
     5
 42
-1.0
  3
Standard
100
AcDbAlignedDimension
 13
88.820049
 23
51.41482
 33
0.0
 14
48.820049
 24
29.14035
 34
0.0
 50
180.0
100
AcDbRotatedDimension
  0
TEXT
  5
B6
330
1F
100
AcDbEntity
  8
001
370
    30
100
AcDbText
 10
30.695999
 20
69.41482
 30
0.0
 40
4.0
  1
%%c８０
 50
90.000003
 41
0.882353
100
AcDbText
  0
POLYLINE
  5
B7
330
1F
100
AcDbEntity
  8
001
370
    50
100
AcDb2dPolyline
 66
     1
 10
0.0
 20
0.0
 30
0.0
  0
VERTEX
  5
B9
330
B7
100
AcDbEntity
  8
001
370
    50
100
AcDbVertex
100
AcDb2dVertex
 10
32.097923
 20
36.902991
 30
0.0
  0
VERTEX
  5
BA
330
B7
100
AcDbEntity
  8
001
370
    50
100
AcDbVertex
100
AcDb2dVertex
 10
31.695999
 20
35.402991
 30
0.0
  0
VERTEX
  5
BB
330
B7
100
AcDbEntity
  8
001
370
    50
100
AcDbVertex
100
AcDb2dVertex
 10
31.294076
 20
36.902991
 30
0.0
  0
SEQEND
  5
B8
330
B7
100
AcDbEntity
  8
001
370
    50
  0
LINE
  5
BC
330
1F
100
AcDbEntity
  8
001
370
    50
100
AcDbLine
 10
31.695999
 20
115.426648
 30
0.0
 11
31.695999
 21
35.402991
 31
0.0
  0
POLYLINE
  5
BD
330
1F
100
AcDbEntity
  8
001
370
    50
100
AcDb2dPolyline
 66
     1
 10
0.0
 20
0.0
 30
0.0
  0
VERTEX
  5
BF
330
BD
100
AcDbEntity
  8
001
370
    50
100
AcDbVertex
100
AcDb2dVertex
 10
47.341752
 20
35.402991
 30
0.0
  0
VERTEX
  5
C0
330
BD
100
AcDbEntity
  8
001
370
    50
100
AcDbVertex
100
AcDb2dVertex
 10
31.695999
 20
35.402991
 30
0.0
  0
VERTEX
  5
C1
330
BD
100
AcDbEntity
  8
001
370
    50
100
AcDbVertex
100
AcDb2dVertex
 10
31.195999
 20
35.402991
 30
0.0
  0
SEQEND
  5
BE
330
BD
100
AcDbEntity
  8
001
370
    50
  0
TEXT
  5
C2
330
1F
100
AcDbEntity
  8
001
370
    30
100
AcDbText
 10
18.973886
 20
65.41482
 30
0.0
 40
4.0
  1
%%c９２．５
 50
90.000003
 41
0.862069
100
AcDbText
  0
POLYLINE
  5
C3
330
1F
100
AcDbEntity
  8
001
370
    50
100
AcDb2dPolyline
 66
     1
 10
0.0
 20
0.0
 30
0.0
  0
VERTEX
  5
C5
330
C3
100
AcDbEntity
  8
001
370
    50
100
AcDbVertex
100
AcDb2dVertex
 10
20.37581
 20
30.64035
 30
0.0
  0
VERTEX
  5
C6
330
C3
100
AcDbEntity
  8
001
370
    50
100
AcDbVertex
100
AcDb2dVertex
 10
19.973886
 20
29.14035
 30
0.0
  0
VERTEX
  5
C7
330
C3
100
AcDbEntity
  8
001
370
    50
100
AcDbVertex
100
AcDb2dVertex
 10
19.571962
 20
30.64035
 30
0.0
  0
SEQEND
  5
C4
330
C3
100
AcDbEntity
  8
001
370
    50
  0
LINE
  5
C8
330
1F
100
AcDbEntity
  8
001
370
    50
100
AcDbLine
 10
19.973886
 20
121.68929
 30
0.0
 11
19.973886
 21
29.14035
 31
0.0
  0
POLYLINE
  5
C9
330
1F
100
AcDbEntity
  8
001
370
    50
100
AcDb2dPolyline
 66
     1
 10
0.0
 20
0.0
 30
0.0
  0
VERTEX
  5
CB
330
C9
100
AcDbEntity
  8
001
370
    50
100
AcDbVertex
100
AcDb2dVertex
 10
48.820049
 20
29.14035
 30
0.0
  0
VERTEX
  5
CC
330
C9
100
AcDbEntity
  8
001
370
    50
100
AcDbVertex
100
AcDb2dVertex
 10
19.973886
 20
29.14035
 30
0.0
  0
VERTEX
  5
CD
330
C9
100
AcDbEntity
  8
001
370
    50
100
AcDbVertex
100
AcDb2dVertex
 10
19.473886
 20
29.14035
 30
0.0
  0
SEQEND
  5
CA
330
C9
100
AcDbEntity
  8
001
370
    50
  0
DIMENSION
  5
CE
330
1F
100
AcDbEntity
  8
001
370
    50
100
AcDbDimension
  2
*D3
 10
88.820049
 20
10.219922
 30
0.0
 11
128.820049
 21
13.219922
 31
0.0
 70
   160
 71
     5
 42
-1.0
  3
Standard
100
AcDbAlignedDimension
 13
168.820049
 23
70.41482
 33
0.0
 14
88.820049
 24
51.41482
 34
0.0
 50
180.0
100
AcDbRotatedDimension
  0
DIMENSION
  5
CF
330
1F
100
AcDbEntity
  8
001
370
    50
100
AcDbDimension
  2
*D4
 10
191.782719
 20
65.41482
 30
0.0
 11
188.782719
 21
75.41482
 31
0.0
 70
   160
 71
     5
 42
-1.0
  3
Standard
100
AcDbAlignedDimension
 13
163.820049
 23
85.41482
 33
0.0
 14
163.820049
 24
65.41482
 34
0.0
 50
270.0
100
AcDbRotatedDimension
  0
TEXT
  5
D0
330
1F
100
AcDbEntity
  8
001
370
    30
100
AcDbText
 10
4.067852
 20
135.883971
 30
0.0
 40
8.0
  1
ＮＥＷ　Ｔｉｋｏかったぁ　ＴＫＮ２０－８０Ｓ－０３
 41
0.833333
100
AcDbText
  0
LINE
  5
D1
330
1F
100
AcDbEntity
  8
001
  6
CENTER
 62
   253
370
     9
100
AcDbLine
 10
44.350882
 20
75.41482
 30
0.0
 11
172.46981
 21
75.41482
 31
0.0
  0
LINE
  5
D2
330
1F
100
AcDbEntity
  8
001
 62
    60
370
    50
100
AcDbLine
 10
49.520049
 20
92.203723
 30
0.0
 11
49.482997
 21
92.215651
 31
0.0
  0
POLYLINE
  5
D3
330
1F
100
AcDbEntity
  8
001
 62
    60
370
    50
100
AcDb2dPolyline
 66
     1
 10
0.0
 20
0.0
 30
0.0
  0
VERTEX
  5
D5
330
D3
100
AcDbEntity
  8
001
 62
    60
370
    50
100
AcDbVertex
100
AcDb2dVertex
 10
49.137071
 20
92.508329
 30
0.0
  0
VERTEX
  5
D6
330
D3
100
AcDbEntity
  8
001
 62
    60
370
    50
100
AcDbVertex
100
AcDb2dVertex
 10
49.145682
 20
92.47295
 30
0.0
  0
VERTEX
  5
D7
330
D3
100
AcDbEntity
  8
001
 62
    60
370
    50
100
AcDbVertex
100
AcDb2dVertex
 10
49.164261
 20
92.426242
 30
0.0
  0
VERTEX
  5
D8
330
D3
100
AcDbEntity
  8
001
 62
    60
370
    50
100
AcDbVertex
100
AcDb2dVertex
 10
49.192977
 20
92.383535
 30
0.0
  0
VERTEX
  5
D9
330
D3
100
AcDbEntity
  8
001
 62
    60
370
    50
100
AcDbVertex
100
AcDb2dVertex
 10
49.226597
 20
92.350587
 30
0.0
  0
VERTEX
  5
DA
330
D3
100
AcDbEntity
  8
001
 62
    60
370
    50
100
AcDbVertex
100
AcDb2dVertex
 10
49.270531
 20
92.315804
 30
0.0
  0
VERTEX
  5
DB
330
D3
100
AcDbEntity
  8
001
 62
    60
370
    50
100
AcDbVertex
100
AcDb2dVertex
 10
49.322185
 20
92.283663
 30
0.0
  0
VERTEX
  5
DC
330
D3
100
AcDbEntity
  8
001
 62
    60
370
    50
100
AcDbVertex
100
AcDb2dVertex
 10
49.413596
 20
92.241383
 30
0.0
  0
VERTEX
  5
DD
330
D3
100
AcDbEntity
  8
001
 62
    60
370
    50
100
AcDbVertex
100
AcDb2dVertex
 10
49.482997
 20
92.215651
 30
0.0
  0
SEQEND
  5
D4
330
D3
100
AcDbEntity
  8
001
370
    50
  0
LINE
  5
DE
330
1F
100
AcDbEntity
  8
001
 62
    60
370
    50
100
AcDbLine
 10
49.482997
 20
92.907732
 30
0.0
 11
54.508887
 21
95.440447
 31
0.0
  0
POLYLINE
  5
DF
330
1F
100
AcDbEntity
  8
001
 62
    60
370
    50
100
AcDb2dPolyline
 66
     1
 10
0.0
 20
0.0
 30
0.0
  0
VERTEX
  5
E1
330
DF
100
AcDbEntity
  8
001
 62
    60
370
    50
100
AcDbVertex
100
AcDb2dVertex
 10
56.184887
 20
95.59296
 30
0.0
  0
VERTEX
  5
E2
330
DF
100
AcDbEntity
  8
001
 62
    60
370
    50
100
AcDbVertex
100
AcDb2dVertex
 10
56.063554
 20
95.623289
 30
0.0
  0
VERTEX
  5
E3
330
DF
100
AcDbEntity
  8
001
 62
    60
370
    50
100
AcDbVertex
100
AcDb2dVertex
 10
55.892954
 20
95.654683
 30
0.0
  0
VERTEX
  5
E4
330
DF
100
AcDbEntity
  8
001
 62
    60
370
    50
100
AcDbVertex
100
AcDb2dVertex
 10
55.688469
 20
95.672704
 30
0.0
  0
VERTEX
  5
E5
330
DF
100
AcDbEntity
  8
001
 62
    60
370
    50
100
AcDbVertex
100
AcDb2dVertex
 10
55.500282
 20
95.66988
 30
0.0
  0
VERTEX
  5
E6
330
DF
100
AcDbEntity
  8
001
 62
    60
370
    50
100
AcDbVertex
100
AcDb2dVertex
 10
55.398085
 20
95.664003
 30
0.0
  0
VERTEX
  5
E7
330
DF
100
AcDbEntity
  8
001
 62
    60
370
    50
100
AcDbVertex
100
AcDb2dVertex
 10
55.293891
 20
95.654726
 30
0.0
  0
VERTEX
  5
E8
330
DF
100
AcDbEntity
  8
001
 62
    60
370
    50
100
AcDbVertex
100
AcDb2dVertex
 10
55.19007
 20
95.641243
 30
0.0
  0
VERTEX
  5
E9
330
DF
100
AcDbEntity
  8
001
 62
    60
370
    50
100
AcDbVertex
100
AcDb2dVertex
 10
55.089109
 20
95.624864
 30
0.0
  0
VERTEX
  5
EA
330
DF
100
AcDbEntity
  8
001
 62
    60
370
    50
100
AcDbVertex
100
AcDb2dVertex
 10
54.90589
 20
95.586917
 30
0.0
  0
VERTEX
  5
EB
330
DF
100
AcDbEntity
  8
001
 62
    60
370
    50
100
AcDbVertex
100
AcDb2dVertex
 10
54.709028
 20
95.525064
 30
0.0
  0
VERTEX
  5
EC
330
DF
100
AcDbEntity
  8
001
 62
    60
370
    50
100
AcDbVertex
100
AcDb2dVertex
 10
54.591407
 20
95.477739
 30
0.0
  0
VERTEX
  5
ED
330
DF
100
AcDbEntity
  8
001
 62
    60
370
    50
100
AcDbVertex
100
AcDb2dVertex
 10
54.508887
 20
95.440447
 30
0.0
  0
SEQEND
  5
E0
330
DF
100
AcDbEntity
  8
001
370
    50
  0
LINE
  5
EE
330
1F
100
AcDbEntity
  8
001
 62
    60
370
    50
100
AcDbLine
 10
56.184887
 20
95.59296
 30
0.0
 11
56.403116
 21
95.522704
 31
0.0
  0
POLYLINE
  5
EF
330
1F
100
AcDbEntity
  8
001
 62
    60
370
    50
100
AcDb2dPolyline
 66
     1
 10
0.0
 20
0.0
 30
0.0
  0
VERTEX
  5
F1
330
EF
100
AcDbEntity
  8
001
 62
    60
370
    50
100
AcDbVertex
100
AcDb2dVertex
 10
55.86905
 20
98.477778
 30
0.0
  0
VERTEX
  5
F2
330
EF
100
AcDbEntity
  8
001
 62
    60
370
    50
100
AcDbVertex
100
AcDb2dVertex
 10
55.747717
 20
98.508107
 30
0.0
  0
VERTEX
  5
F3
330
EF
100
AcDbEntity
  8
001
 62
    60
370
    50
100
AcDbVertex
100
AcDb2dVertex
 10
55.577117
 20
98.539501
 30
0.0
  0
VERTEX
  5
F4
330
EF
100
AcDbEntity
  8
001
 62
    60
370
    50
100
AcDbVertex
100
AcDb2dVertex
 10
55.372632
 20
98.557522
 30
0.0
  0
VERTEX
  5
F5
330
EF
100
AcDbEntity
  8
001
 62
    60
370
    50
100
AcDbVertex
100
AcDb2dVertex
 10
55.184446
 20
98.554698
 30
0.0
  0
VERTEX
  5
F6
330
EF
100
AcDbEntity
  8
001
 62
    60
370
    50
100
AcDbVertex
100
AcDb2dVertex
 10
55.082248
 20
98.54882
 30
0.0
  0
VERTEX
  5
F7
330
EF
100
AcDbEntity
  8
001
 62
    60
370
    50
100
AcDbVertex
100
AcDb2dVertex
 10
54.978054
 20
98.539544
 30
0.0
  0
VERTEX
  5
F8
330
EF
100
AcDbEntity
  8
001
 62
    60
370
    50
100
AcDbVertex
100
AcDb2dVertex
 10
54.874233
 20
98.526061
 30
0.0
  0
VERTEX
  5
F9
330
EF
100
AcDbEntity
  8
001
 62
    60
370
    50
100
AcDbVertex
100
AcDb2dVertex
 10
54.773273
 20
98.509682
 30
0.0
  0
VERTEX
  5
FA
330
EF
100
AcDbEntity
  8
001
 62
    60
370
    50
100
AcDbVertex
100
AcDb2dVertex
 10
54.590054
 20
98.471735
 30
0.0
  0
VERTEX
  5
FB
330
EF
100
AcDbEntity
  8
001
 62
    60
370
    50
100
AcDbVertex
100
AcDb2dVertex
 10
54.393191
 20
98.409882
 30
0.0
  0
VERTEX
  5
FC
330
EF
100
AcDbEntity
  8
001
 62
    60
370
    50
100
AcDbVertex
100
AcDb2dVertex
 10
54.27557
 20
98.362557
 30
0.0
  0
VERTEX
  5
FD
330
EF
100
AcDbEntity
  8
001
 62
    60
370
    50
100
AcDbVertex
100
AcDb2dVertex
 10
54.19305
 20
98.325265
 30
0.0
  0
SEQEND
  5
F0
330
EF
100
AcDbEntity
  8
001
370
    50
  0
LINE
  5
FE
330
1F
100
AcDbEntity
  8
001
 62
    60
370
    50
100
AcDbLine
 10
49.16716
 20
95.792549
 30
0.0
 11
54.19305
 21
98.325265
 31
0.0
  0
LINE
  5
FF
330
1F
100
AcDbEntity
  8
001
 62
    60
370
    50
100
AcDbLine
 10
55.86905
 20
98.477778
 30
0.0
 11
56.735246
 21
98.198917
 31
0.0
  0
POLYLINE
  5
100
330
1F
100
AcDbEntity
  8
001
 62
    60
370
    50
100
AcDb2dPolyline
 66
     1
 10
0.0
 20
0.0
 30
0.0
  0
VERTEX
  5
102
330
100
100
AcDbEntity
  8
001
 62
    60
370
    50
100
AcDbVertex
100
AcDb2dVertex
 10
49.16716
 20
95.792549
 30
0.0
  0
VERTEX
  5
103
330
100
100
AcDbEntity
  8
001
 62
    60
370
    50
100
AcDbVertex
100
AcDb2dVertex
 10
49.072322
 20
95.73831
 30
0.0
  0
VERTEX
  5
104
330
100
100
AcDbEntity
  8
001
 62
    60
370
    50
100
AcDbVertex
100
AcDb2dVertex
 10
48.953352
 20
95.652544
 30
0.0
  0
VERTEX
  5
105
330
100
100
AcDbEntity
  8
001
 62
    60
370
    50
100
AcDbVertex
100
AcDb2dVertex
 10
48.910195
 20
95.61023
 30
0.0
  0
VERTEX
  5
106
330
100
100
AcDbEntity
  8
001
 62
    60
370
    50
100
AcDbVertex
100
AcDb2dVertex
 10
48.874508
 20
95.566523
 30
0.0
  0
VERTEX
  5
107
330
100
100
AcDbEntity
  8
001
 62
    60
370
    50
100
AcDbVertex
100
AcDb2dVertex
 10
48.84875
 20
95.527032
 30
0.0
  0
VERTEX
  5
108
330
100
100
AcDbEntity
  8
001
 62
    60
370
    50
100
AcDbVertex
100
AcDb2dVertex
 10
48.830018
 20
95.479173
 30
0.0
  0
VERTEX
  5
109
330
100
100
AcDbEntity
  8
001
 62
    60
370
    50
100
AcDbVertex
100
AcDb2dVertex
 10
48.821997
 20
95.429559
 30
0.0
  0
VERTEX
  5
10A
330
100
100
AcDbEntity
  8
001
 62
    60
370
    50
100
AcDbVertex
100
AcDb2dVertex
 10
48.821234
 20
95.393147
 30
0.0
  0
SEQEND
  5
101
330
100
100
AcDbEntity
  8
001
370
    50
  0
POLYLINE
  5
10B
330
1F
100
AcDbEntity
  8
001
 62
    60
370
    50
100
AcDb2dPolyline
 66
     1
 10
0.0
 20
0.0
 30
0.0
  0
VERTEX
  5
10D
330
10B
100
AcDbEntity
  8
001
 62
    60
370
    50
100
AcDbVertex
100
AcDb2dVertex
 10
49.482997
 20
92.907732
 30
0.0
  0
VERTEX
  5
10E
330
10B
100
AcDbEntity
  8
001
 62
    60
370
    50
100
AcDbVertex
100
AcDb2dVertex
 10
49.388159
 20
92.853492
 30
0.0
  0
VERTEX
  5
10F
330
10B
100
AcDbEntity
  8
001
 62
    60
370
    50
100
AcDbVertex
100
AcDb2dVertex
 10
49.269189
 20
92.767726
 30
0.0
  0
VERTEX
  5
110
330
10B
100
AcDbEntity
  8
001
 62
    60
370
    50
100
AcDbVertex
100
AcDb2dVertex
 10
49.226032
 20
92.725412
 30
0.0
  0
VERTEX
  5
111
330
10B
100
AcDbEntity
  8
001
 62
    60
370
    50
100
AcDbVertex
100
AcDb2dVertex
 10
49.190345
 20
92.681705
 30
0.0
  0
VERTEX
  5
112
330
10B
100
AcDbEntity
  8
001
 62
    60
370
    50
100
AcDbVertex
100
AcDb2dVertex
 10
49.164586
 20
92.642214
 30
0.0
  0
VERTEX
  5
113
330
10B
100
AcDbEntity
  8
001
 62
    60
370
    50
100
AcDbVertex
100
AcDb2dVertex
 10
49.145855
 20
92.594355
 30
0.0
  0
VERTEX
  5
114
330
10B
100
AcDbEntity
  8
001
 62
    60
370
    50
100
AcDbVertex
100
AcDb2dVertex
 10
49.137834
 20
92.544741
 30
0.0
  0
VERTEX
  5
115
330
10B
100
AcDbEntity
  8
001
 62
    60
370
    50
100
AcDbVertex
100
AcDb2dVertex
 10
49.137071
 20
92.508329
 30
0.0
  0
SEQEND
  5
10C
330
10B
100
AcDbEntity
  8
001
370
    50
  0
LINE
  5
116
330
1F
100
AcDbEntity
  8
001
 62
    60
370
    50
100
AcDbLine
 10
48.821235
 20
95.393147
 30
0.0
 11
49.137071
 21
92.508329
 31
0.0
  0
POLYLINE
  5
117
330
1F
100
AcDbEntity
  8
001
 62
     5
370
    50
100
AcDb2dPolyline
 66
     1
 10
0.0
 20
0.0
 30
0.0
  0
VERTEX
  5
119
330
117
100
AcDbEntity
  8
001
 62
     5
370
    50
100
AcDbVertex
100
AcDb2dVertex
 10
54.801872
 20
82.816501
 30
0.0
  0
VERTEX
  5
11A
330
117
100
AcDbEntity
  8
001
 62
     5
370
    50
100
AcDbVertex
100
AcDb2dVertex
 10
54.84645
 20
82.785522
 30
0.0
  0
VERTEX
  5
11B
330
117
100
AcDbEntity
  8
001
 62
     5
370
    50
100
AcDbVertex
100
AcDb2dVertex
 10
54.911988
 20
82.744213
 30
0.0
  0
VERTEX
  5
11C
330
117
100
AcDbEntity
  8
001
 62
     5
370
    50
100
AcDbVertex
100
AcDb2dVertex
 10
55.246403
 20
82.598803
 30
0.0
  0
VERTEX
  5
11D
330
117
100
AcDbEntity
  8
001
 62
     5
370
    50
100
AcDbVertex
100
AcDb2dVertex
 10
55.596237
 20
82.54814
 30
0.0
  0
VERTEX
  5
11E
330
117
100
AcDbEntity
  8
001
 62
     5
370
    50
100
AcDbVertex
100
AcDb2dVertex
 10
55.880081
 20
82.52948
 30
0.0
  0
VERTEX
  5
11F
330
117
100
AcDbEntity
  8
001
 62
     5
370
    50
100
AcDbVertex
100
AcDb2dVertex
 10
56.088
 20
82.522633
 30
0.0
  0
SEQEND
  5
118
330
117
100
AcDbEntity
  8
001
370
    50
  0
POLYLINE
  5
120
330
1F
100
AcDbEntity
  8
001
 62
     5
370
    50
100
AcDb2dPolyline
 66
     1
 10
0.0
 20
0.0
 30
0.0
  0
VERTEX
  5
122
330
120
100
AcDbEntity
  8
001
 62
     5
370
    50
100
AcDbVertex
100
AcDb2dVertex
 10
56.088
 20
82.522633
 30
0.0
  0
VERTEX
  5
123
330
120
100
AcDbEntity
  8
001
 62
     5
370
    50
100
AcDbVertex
100
AcDb2dVertex
 10
56.130029
 20
82.523487
 30
0.0
  0
VERTEX
  5
124
330
120
100
AcDbEntity
  8
001
 62
     5
370
    50
100
AcDbVertex
100
AcDb2dVertex
 10
56.189695
 20
82.525173
 30
0.0
  0
VERTEX
  5
125
330
120
100
AcDbEntity
  8
001
 62
     5
370
    50
100
AcDbVertex
100
AcDb2dVertex
 10
56.355161
 20
82.53377
 30
0.0
  0
VERTEX
  5
126
330
120
100
AcDbEntity
  8
001
 62
     5
370
    50
100
AcDbVertex
100
AcDb2dVertex
 10
56.501622
 20
82.548076
 30
0.0
  0
VERTEX
  5
127
330
120
100
AcDbEntity
  8
001
 62
     5
370
    50
100
AcDbVertex
100
AcDb2dVertex
 10
56.655769
 20
82.568563
 30
0.0
  0
VERTEX
  5
128
330
120
100
AcDbEntity
  8
001
 62
     5
370
    50
100
AcDbVertex
100
AcDb2dVertex
 10
56.811115
 20
82.593207
 30
0.0
  0
VERTEX
  5
129
330
120
100
AcDbEntity
  8
001
 62
     5
370
    50
100
AcDbVertex
100
AcDb2dVertex
 10
57.08575
 20
82.650219
 30
0.0
  0
VERTEX
  5
12A
330
120
100
AcDbEntity
  8
001
 62
     5
370
    50
100
AcDbVertex
100
AcDb2dVertex
 10
57.385545
 20
82.744038
 30
0.0
  0
VERTEX
  5
12B
330
120
100
AcDbEntity
  8
001
 62
     5
370
    50
100
AcDbVertex
100
AcDb2dVertex
 10
57.455641
 20
82.770137
 30
0.0
  0
VERTEX
  5
12C
330
120
100
AcDbEntity
  8
001
 62
     5
370
    50
100
AcDbVertex
100
AcDb2dVertex
 10
57.504396
 20
82.789066
 30
0.0
  0
SEQEND
  5
121
330
120
100
AcDbEntity
  8
001
370
    50
  0
POLYLINE
  5
12D
330
1F
100
AcDbEntity
  8
001
 62
     5
370
    50
100
AcDb2dPolyline
 66
     1
 10
0.0
 20
0.0
 30
0.0
  0
VERTEX
  5
12F
330
12D
100
AcDbEntity
  8
001
 62
     5
370
    50
100
AcDbVertex
100
AcDb2dVertex
 10
56.020897
 20
82.612601
 30
0.0
  0
VERTEX
  5
130
330
12D
100
AcDbEntity
  8
001
 62
     5
370
    50
100
AcDbVertex
100
AcDb2dVertex
 10
55.916426
 20
82.698234
 30
0.0
  0
VERTEX
  5
131
330
12D
100
AcDbEntity
  8
001
 62
     5
370
    50
100
AcDbVertex
100
AcDb2dVertex
 10
55.809379
 20
82.78064
 30
0.0
  0
VERTEX
  5
132
330
12D
100
AcDbEntity
  8
001
 62
     5
370
    50
100
AcDbVertex
100
AcDb2dVertex
 10
55.701388
 20
82.854223
 30
0.0
  0
VERTEX
  5
133
330
12D
100
AcDbEntity
  8
001
 62
     5
370
    50
100
AcDbVertex
100
AcDb2dVertex
 10
55.588148
 20
82.919185
 30
0.0
  0
VERTEX
  5
134
330
12D
100
AcDbEntity
  8
001
 62
     5
370
    50
100
AcDbVertex
100
AcDb2dVertex
 10
55.553082
 20
82.936723
 30
0.0
  0
VERTEX
  5
135
330
12D
100
AcDbEntity
  8
001
 62
     5
370
    50
100
AcDbVertex
100
AcDb2dVertex
 10
55.51776
 20
82.953756
 30
0.0
  0
SEQEND
  5
12E
330
12D
100
AcDbEntity
  8
001
370
    50
  0
POLYLINE
  5
136
330
1F
100
AcDbEntity
  8
001
 62
     5
370
    50
100
AcDb2dPolyline
 66
     1
 10
0.0
 20
0.0
 30
0.0
  0
VERTEX
  5
138
330
136
100
AcDbEntity
  8
001
 62
     5
370
    50
100
AcDbVertex
100
AcDb2dVertex
 10
56.597993
 20
82.935069
 30
0.0
  0
VERTEX
  5
139
330
136
100
AcDbEntity
  8
001
 62
     5
370
    50
100
AcDbVertex
100
AcDb2dVertex
 10
56.499328
 20
82.893753
 30
0.0
  0
VERTEX
  5
13A
330
136
100
AcDbEntity
  8
001
 62
     5
370
    50
100
AcDbVertex
100
AcDb2dVertex
 10
56.402124
 20
82.849339
 30
0.0
  0
VERTEX
  5
13B
330
136
100
AcDbEntity
  8
001
 62
     5
370
    50
100
AcDbVertex
100
AcDb2dVertex
 10
56.303461
 20
82.797111
 30
0.0
  0
VERTEX
  5
13C
330
136
100
AcDbEntity
  8
001
 62
     5
370
    50
100
AcDbVertex
100
AcDb2dVertex
 10
56.207788
 20
82.739455
 30
0.0
  0
VERTEX
  5
13D
330
136
100
AcDbEntity
  8
001
 62
     5
370
    50
100
AcDbVertex
100
AcDb2dVertex
 10
56.113627
 20
82.677077
 30
0.0
  0
VERTEX
  5
13E
330
136
100
AcDbEntity
  8
001
 62
     5
370
    50
100
AcDbVertex
100
AcDb2dVertex
 10
56.020897
 20
82.612601
 30
0.0
  0
SEQEND
  5
137
330
136
100
AcDbEntity
  8
001
370
    50
  0
LINE
  5
13F
330
1F
100
AcDbEntity
  8
001
 62
     5
370
    50
100
AcDbLine
 10
55.981584
 20
82.971682
 30
0.0
 11
56.020897
 21
82.612601
 31
0.0
  0
POLYLINE
  5
140
330
1F
100
AcDbEntity
  8
001
 62
     5
370
    50
100
AcDb2dPolyline
 66
     1
 10
0.0
 20
0.0
 30
0.0
  0
VERTEX
  5
142
330
140
100
AcDbEntity
  8
001
 62
     5
370
    50
100
AcDbVertex
100
AcDb2dVertex
 10
54.729334
 20
106.70058
 30
0.0
  0
VERTEX
  5
143
330
140
100
AcDbEntity
  8
001
 62
     5
370
    50
100
AcDbVertex
100
AcDb2dVertex
 10
54.70961
 20
106.665398
 30
0.0
  0
VERTEX
  5
144
330
140
100
AcDbEntity
  8
001
 62
     5
370
    50
100
AcDbVertex
100
AcDb2dVertex
 10
54.684298
 20
106.615601
 30
0.0
  0
VERTEX
  5
145
330
140
100
AcDbEntity
  8
001
 62
     5
370
    50
100
AcDbVertex
100
AcDb2dVertex
 10
54.650499
 20
106.529378
 30
0.0
  0
VERTEX
  5
146
330
140
100
AcDbEntity
  8
001
 62
     5
370
    50
100
AcDbVertex
100
AcDb2dVertex
 10
54.634984
 20
106.438631
 30
0.0
  0
VERTEX
  5
147
330
140
100
AcDbEntity
  8
001
 62
     5
370
    50
100
AcDbVertex
100
AcDb2dVertex
 10
54.63147
 20
106.376568
 30
0.0
  0
VERTEX
  5
148
330
140
100
AcDbEntity
  8
001
 62
     5
370
    50
100
AcDbVertex
100
AcDb2dVertex
 10
54.631284
 20
106.331447
 30
0.0
  0
SEQEND
  5
141
330
140
100
AcDbEntity
  8
001
370
    50
  0
LINE
  5
149
330
1F
100
AcDbEntity
  8
001
 62
     5
370
    50
100
AcDbLine
 10
54.898297
 20
106.203222
 30
0.0
 11
54.941643
 21
106.30187
 31
0.0
  0
LINE
  5
14A
330
1F
100
AcDbEntity
  8
001
 62
    60
370
    50
100
AcDbLine
 10
50.77263
 20
96.6016
 30
0.0
 11
49.482997
 21
97.463091
 31
0.0
  0
POLYLINE
  5
14B
330
1F
100
AcDbEntity
  8
001
 62
    60
370
    50
100
AcDb2dPolyline
 66
     1
 10
0.0
 20
0.0
 30
0.0
  0
VERTEX
  5
14D
330
14B
100
AcDbEntity
  8
001
 62
    60
370
    50
100
AcDbVertex
100
AcDb2dVertex
 10
49.138901
 20
98.032465
 30
0.0
  0
VERTEX
  5
14E
330
14B
100
AcDbEntity
  8
001
 62
    60
370
    50
100
AcDbVertex
100
AcDb2dVertex
 10
49.137203
 20
97.981326
 30
0.0
  0
VERTEX
  5
14F
330
14B
100
AcDbEntity
  8
001
 62
    60
370
    50
100
AcDbVertex
100
AcDb2dVertex
 10
49.142189
 20
97.910953
 30
0.0
  0
VERTEX
  5
150
330
14B
100
AcDbEntity
  8
001
 62
    60
370
    50
100
AcDbVertex
100
AcDb2dVertex
 10
49.157703
 20
97.845465
 30
0.0
  0
VERTEX
  5
151
330
14B
100
AcDbEntity
  8
001
 62
    60
370
    50
100
AcDbVertex
100
AcDb2dVertex
 10
49.181294
 20
97.788716
 30
0.0
  0
VERTEX
  5
152
330
14B
100
AcDbEntity
  8
001
 62
    60
370
    50
100
AcDbVertex
100
AcDb2dVertex
 10
49.213374
 20
97.72904
 30
0.0
  0
VERTEX
  5
153
330
14B
100
AcDbEntity
  8
001
 62
    60
370
    50
100
AcDbVertex
100
AcDb2dVertex
 10
49.255029
 20
97.669469
 30
0.0
  0
VERTEX
  5
154
330
14B
100
AcDbEntity
  8
001
 62
    60
370
    50
100
AcDbVertex
100
AcDb2dVertex
 10
49.37932
 20
97.544138
 30
0.0
  0
VERTEX
  5
155
330
14B
100
AcDbEntity
  8
001
 62
    60
370
    50
100
AcDbVertex
100
AcDb2dVertex
 10
49.482997
 20
97.463091
 30
0.0
  0
SEQEND
  5
14C
330
14B
100
AcDbEntity
  8
001
370
    50
  0
LINE
  5
156
330
1F
100
AcDbEntity
  8
001
 62
    60
370
    50
100
AcDbLine
 10
49.482997
 20
98.446897
 30
0.0
 11
49.520049
 21
98.465645
 31
0.0
  0
POLYLINE
  5
157
330
1F
100
AcDbEntity
  8
001
 62
    60
370
    50
100
AcDb2dPolyline
 66
     1
 10
0.0
 20
0.0
 30
0.0
  0
VERTEX
  5
159
330
157
100
AcDbEntity
  8
001
 62
    60
370
    50
100
AcDbVertex
100
AcDb2dVertex
 10
49.482997
 20
98.446897
 30
0.0
  0
VERTEX
  5
15A
330
157
100
AcDbEntity
  8
001
 62
    60
370
    50
100
AcDbVertex
100
AcDb2dVertex
 10
49.420826
 20
98.411439
 30
0.0
  0
VERTEX
  5
15B
330
157
100
AcDbEntity
  8
001
 62
    60
370
    50
100
AcDbVertex
100
AcDb2dVertex
 10
49.339515
 20
98.35651
 30
0.0
  0
VERTEX
  5
15C
330
157
100
AcDbEntity
  8
001
 62
    60
370
    50
100
AcDbVertex
100
AcDb2dVertex
 10
49.284069
 20
98.308316
 30
0.0
  0
VERTEX
  5
15D
330
157
100
AcDbEntity
  8
001
 62
    60
370
    50
100
AcDbVertex
100
AcDb2dVertex
 10
49.239086
 20
98.25868
 30
0.0
  0
VERTEX
  5
15E
330
157
100
AcDbEntity
  8
001
 62
    60
370
    50
100
AcDbVertex
100
AcDb2dVertex
 10
49.202587
 20
98.209452
 30
0.0
  0
VERTEX
  5
15F
330
157
100
AcDbEntity
  8
001
 62
    60
370
    50
100
AcDbVertex
100
AcDb2dVertex
 10
49.171531
 20
98.14956
 30
0.0
  0
VERTEX
  5
160
330
157
100
AcDbEntity
  8
001
 62
    60
370
    50
100
AcDbVertex
100
AcDb2dVertex
 10
49.149617
 20
98.08247
 30
0.0
  0
VERTEX
  5
161
330
157
100
AcDbEntity
  8
001
 62
    60
370
    50
100
AcDbVertex
100
AcDb2dVertex
 10
49.138901
 20
98.032465
 30
0.0
  0
SEQEND
  5
158
330
157
100
AcDbEntity
  8
001
370
    50
  0
LINE
  5
162
330
1F
100
AcDbEntity
  8
001
 62
    60
370
    50
100
AcDbLine
 10
49.138901
 20
98.032465
 30
0.0
 11
48.823064
 21
95.464065
 31
0.0
  0
POLYLINE
  5
163
330
1F
100
AcDbEntity
  8
001
 62
    60
370
    50
100
AcDb2dPolyline
 66
     1
 10
0.0
 20
0.0
 30
0.0
  0
VERTEX
  5
165
330
163
100
AcDbEntity
  8
001
 62
    60
370
    50
100
AcDbVertex
100
AcDb2dVertex
 10
48.820049
 20
95.415125
 30
0.0
  0
VERTEX
  5
166
330
163
100
AcDbEntity
  8
001
 62
    60
370
    50
100
AcDbVertex
100
AcDb2dVertex
 10
48.821248
 20
95.385499
 30
0.0
  0
VERTEX
  5
167
330
163
100
AcDbEntity
  8
001
 62
    60
370
    50
100
AcDbVertex
100
AcDb2dVertex
 10
48.826352
 20
95.342553
 30
0.0
  0
VERTEX
  5
168
330
163
100
AcDbEntity
  8
001
 62
    60
370
    50
100
AcDbVertex
100
AcDb2dVertex
 10
48.826977
 20
95.339051
 30
0.0
  0
VERTEX
  5
169
330
163
100
AcDbEntity
  8
001
 62
    60
370
    50
100
AcDbVertex
100
AcDb2dVertex
 10
48.827419
 20
95.336657
 30
0.0
  0
SEQEND
  5
164
330
163
100
AcDbEntity
  8
001
370
    50
  0
POLYLINE
  5
16A
330
1F
100
AcDbEntity
  8
001
 62
    60
370
    50
100
AcDb2dPolyline
 66
     1
 10
0.0
 20
0.0
 30
0.0
  0
VERTEX
  5
16C
330
16A
100
AcDbEntity
  8
001
 62
    60
370
    50
100
AcDbVertex
100
AcDb2dVertex
 10
48.823064
 20
95.464065
 30
0.0
  0
VERTEX
  5
16D
330
16A
100
AcDbEntity
  8
001
 62
    60
370
    50
100
AcDbVertex
100
AcDb2dVertex
 10
48.821988
 20
95.454168
 30
0.0
  0
VERTEX
  5
16E
330
16A
100
AcDbEntity
  8
001
 62
    60
370
    50
100
AcDbVertex
100
AcDb2dVertex
 10
48.820815
 20
95.439671
 30
0.0
  0
VERTEX
  5
16F
330
16A
100
AcDbEntity
  8
001
 62
    60
370
    50
100
AcDbVertex
100
AcDb2dVertex
 10
48.820198
 20
95.425104
 30
0.0
  0
VERTEX
  5
170
330
16A
100
AcDbEntity
  8
001
 62
    60
370
    50
100
AcDbVertex
100
AcDb2dVertex
 10
48.820049
 20
95.415125
 30
0.0
  0
SEQEND
  5
16B
330
16A
100
AcDbEntity
  8
001
370
    50
  0
POLYLINE
  5
171
330
1F
100
AcDbEntity
  8
001
 62
     5
370
    50
100
AcDb2dPolyline
 66
     1
 10
0.0
 20
0.0
 30
0.0
  0
VERTEX
  5
173
330
171
100
AcDbEntity
  8
001
 62
     5
370
    50
100
AcDbVertex
100
AcDb2dVertex
 10
55.403638
 20
33.570725
 30
0.0
  0
VERTEX
  5
174
330
171
100
AcDbEntity
  8
001
 62
     5
370
    50
100
AcDbVertex
100
AcDb2dVertex
 10
55.463629
 20
33.582948
 30
0.0
  0
VERTEX
  5
175
330
171
100
AcDbEntity
  8
001
 62
     5
370
    50
100
AcDbVertex
100
AcDb2dVertex
 10
55.547795
 20
33.602659
 30
0.0
  0
VERTEX
  5
176
330
171
100
AcDbEntity
  8
001
 62
     5
370
    50
100
AcDbVertex
100
AcDb2dVertex
 10
55.710626
 20
33.653048
 30
0.0
  0
VERTEX
  5
177
330
171
100
AcDbEntity
  8
001
 62
     5
370
    50
100
AcDbVertex
100
AcDb2dVertex
 10
55.848671
 20
33.711177
 30
0.0
  0
VERTEX
  5
178
330
171
100
AcDbEntity
  8
001
 62
     5
370
    50
100
AcDbVertex
100
AcDb2dVertex
 10
55.983548
 20
33.77954
 30
0.0
  0
VERTEX
  5
179
330
171
100
AcDbEntity
  8
001
 62
     5
370
    50
100
AcDbVertex
100
AcDb2dVertex
 10
56.12561
 20
33.870482
 30
0.0
  0
VERTEX
  5
17A
330
171
100
AcDbEntity
  8
001
 62
     5
370
    50
100
AcDbVertex
100
AcDb2dVertex
 10
56.270806
 20
33.985752
 30
0.0
  0
VERTEX
  5
17B
330
171
100
AcDbEntity
  8
001
 62
     5
370
    50
100
AcDbVertex
100
AcDb2dVertex
 10
56.370196
 20
34.075735
 30
0.0
  0
SEQEND
  5
172
330
171
100
AcDbEntity
  8
001
370
    50
  0
POLYLINE
  5
17C
330
1F
100
AcDbEntity
  8
001
 62
     5
370
    50
100
AcDb2dPolyline
 66
     1
 10
0.0
 20
0.0
 30
0.0
  0
VERTEX
  5
17E
330
17C
100
AcDbEntity
  8
001
 62
     5
370
    50
100
AcDbVertex
100
AcDb2dVertex
 10
53.934027
 20
36.447835
 30
0.0
  0
VERTEX
  5
17F
330
17C
100
AcDbEntity
  8
001
 62
     5
370
    50
100
AcDbVertex
100
AcDb2dVertex
 10
53.843709
 20
36.349004
 30
0.0
  0
VERTEX
  5
180
330
17C
100
AcDbEntity
  8
001
 62
     5
370
    50
100
AcDbVertex
100
AcDb2dVertex
 10
53.762436
 20
36.242595
 30
0.0
  0
VERTEX
  5
181
330
17C
100
AcDbEntity
  8
001
 62
     5
370
    50
100
AcDbVertex
100
AcDb2dVertex
 10
53.690815
 20
36.12935
 30
0.0
  0
VERTEX
  5
182
330
17C
100
AcDbEntity
  8
001
 62
     5
370
    50
100
AcDbVertex
100
AcDb2dVertex
 10
53.629391
 20
36.01032
 30
0.0
  0
VERTEX
  5
183
330
17C
100
AcDbEntity
  8
001
 62
     5
370
    50
100
AcDbVertex
100
AcDb2dVertex
 10
53.578577
 20
35.886312
 30
0.0
  0
VERTEX
  5
184
330
17C
100
AcDbEntity
  8
001
 62
     5
370
    50
100
AcDbVertex
100
AcDb2dVertex
 10
53.538935
 20
35.758068
 30
0.0
  0
VERTEX
  5
185
330
17C
100
AcDbEntity
  8
001
 62
     5
370
    50
100
AcDbVertex
100
AcDb2dVertex
 10
53.489686
 20
35.359146
 30
0.0
  0
VERTEX
  5
186
330
17C
100
AcDbEntity
  8
001
 62
     5
370
    50
100
AcDbVertex
100
AcDb2dVertex
 10
53.543653
 20
34.959717
 30
0.0
  0
VERTEX
  5
187
330
17C
100
AcDbEntity
  8
001
 62
     5
370
    50
100
AcDbVertex
100
AcDb2dVertex
 10
53.637245
 20
34.706118
 30
0.0
  0
VERTEX
  5
188
330
17C
100
AcDbEntity
  8
001
 62
     5
370
    50
100
AcDbVertex
100
AcDb2dVertex
 10
53.772893
 20
34.473347
 30
0.0
  0
VERTEX
  5
189
330
17C
100
AcDbEntity
  8
001
 62
     5
370
    50
100
AcDbVertex
100
AcDb2dVertex
 10
53.855473
 20
34.366235
 30
0.0
  0
VERTEX
  5
18A
330
17C
100
AcDbEntity
  8
001
 62
     5
370
    50
100
AcDbVertex
100
AcDb2dVertex
 10
53.946919
 20
34.2667
 30
0.0
  0
VERTEX
  5
18B
330
17C
100
AcDbEntity
  8
001
 62
     5
370
    50
100
AcDbVertex
100
AcDb2dVertex
 10
54.046622
 20
34.175437
 30
0.0
  0
VERTEX
  5
18C
330
17C
100
AcDbEntity
  8
001
 62
     5
370
    50
100
AcDbVertex
100
AcDb2dVertex
 10
54.153885
 20
34.093055
 30
0.0
  0
VERTEX
  5
18D
330
17C
100
AcDbEntity
  8
001
 62
     5
370
    50
100
AcDbVertex
100
AcDb2dVertex
 10
54.386905
 20
33.957835
 30
0.0
  0
VERTEX
  5
18E
330
17C
100
AcDbEntity
  8
001
 62
     5
370
    50
100
AcDbVertex
100
AcDb2dVertex
 10
54.640676
 20
33.86471
 30
0.0
  0
VERTEX
  5
18F
330
17C
100
AcDbEntity
  8
001
 62
     5
370
    50
100
AcDbVertex
100
AcDb2dVertex
 10
55.040204
 20
33.811478
 30
0.0
  0
VERTEX
  5
190
330
17C
100
AcDbEntity
  8
001
 62
     5
370
    50
100
AcDbVertex
100
AcDb2dVertex
 10
55.439034
 20
33.86146
 30
0.0
  0
VERTEX
  5
191
330
17C
100
AcDbEntity
  8
001
 62
     5
370
    50
100
AcDbVertex
100
AcDb2dVertex
 10
55.567206
 20
33.901338
 30
0.0
  0
VERTEX
  5
192
330
17C
100
AcDbEntity
  8
001
 62
     5
370
    50
100
AcDbVertex
100
AcDb2dVertex
 10
55.69112
 20
33.95238
 30
0.0
  0
VERTEX
  5
193
330
17C
100
AcDbEntity
  8
001
 62
     5
370
    50
100
AcDbVertex
100
AcDb2dVertex
 10
55.810037
 20
34.014023
 30
0.0
  0
VERTEX
  5
194
330
17C
100
AcDbEntity
  8
001
 62
     5
370
    50
100
AcDbVertex
100
AcDb2dVertex
 10
55.92315
 20
34.085852
 30
0.0
  0
VERTEX
  5
195
330
17C
100
AcDbEntity
  8
001
 62
     5
370
    50
100
AcDbVertex
100
AcDb2dVertex
 10
56.029409
 20
34.167321
 30
0.0
  0
VERTEX
  5
196
330
17C
100
AcDbEntity
  8
001
 62
     5
370
    50
100
AcDbVertex
100
AcDb2dVertex
 10
56.128073
 20
34.257821
 30
0.0
  0
VERTEX
  5
197
330
17C
100
AcDbEntity
  8
001
 62
     5
370
    50
100
AcDbVertex
100
AcDb2dVertex
 10
56.218391
 20
34.356652
 30
0.0
  0
VERTEX
  5
198
330
17C
100
AcDbEntity
  8
001
 62
     5
370
    50
100
AcDbVertex
100
AcDb2dVertex
 10
56.299665
 20
34.46306
 30
0.0
  0
VERTEX
  5
199
330
17C
100
AcDbEntity
  8
001
 62
     5
370
    50
100
AcDbVertex
100
AcDb2dVertex
 10
56.371286
 20
34.576305
 30
0.0
  0
VERTEX
  5
19A
330
17C
100
AcDbEntity
  8
001
 62
     5
370
    50
100
AcDbVertex
100
AcDb2dVertex
 10
56.43271
 20
34.695335
 30
0.0
  0
VERTEX
  5
19B
330
17C
100
AcDbEntity
  8
001
 62
     5
370
    50
100
AcDbVertex
100
AcDb2dVertex
 10
56.483524
 20
34.819343
 30
0.0
  0
VERTEX
  5
19C
330
17C
100
AcDbEntity
  8
001
 62
     5
370
    50
100
AcDbVertex
100
AcDb2dVertex
 10
56.523166
 20
34.947588
 30
0.0
  0
VERTEX
  5
19D
330
17C
100
AcDbEntity
  8
001
 62
     5
370
    50
100
AcDbVertex
100
AcDb2dVertex
 10
56.572414
 20
35.346509
 30
0.0
  0
VERTEX
  5
19E
330
17C
100
AcDbEntity
  8
001
 62
     5
370
    50
100
AcDbVertex
100
AcDb2dVertex
 10
56.518447
 20
35.745938
 30
0.0
  0
VERTEX
  5
19F
330
17C
100
AcDbEntity
  8
001
 62
     5
370
    50
100
AcDbVertex
100
AcDb2dVertex
 10
56.424855
 20
35.999537
 30
0.0
  0
VERTEX
  5
1A0
330
17C
100
AcDbEntity
  8
001
 62
     5
370
    50
100
AcDbVertex
100
AcDb2dVertex
 10
56.289207
 20
36.232308
 30
0.0
  0
VERTEX
  5
1A1
330
17C
100
AcDbEntity
  8
001
 62
     5
370
    50
100
AcDbVertex
100
AcDb2dVertex
 10
56.206628
 20
36.33942
 30
0.0
  0
VERTEX
  5
1A2
330
17C
100
AcDbEntity
  8
001
 62
     5
370
    50
100
AcDbVertex
100
AcDb2dVertex
 10
56.115182
 20
36.438955
 30
0.0
  0
VERTEX
  5
1A3
330
17C
100
AcDbEntity
  8
001
 62
     5
370
    50
100
AcDbVertex
100
AcDb2dVertex
 10
56.015479
 20
36.530218
 30
0.0
  0
VERTEX
  5
1A4
330
17C
100
AcDbEntity
  8
001
 62
     5
370
    50
100
AcDbVertex
100
AcDb2dVertex
 10
55.908215
 20
36.6126
 30
0.0
  0
VERTEX
  5
1A5
330
17C
100
AcDbEntity
  8
001
 62
     5
370
    50
100
AcDbVertex
100
AcDb2dVertex
 10
55.675195
 20
36.74782
 30
0.0
  0
VERTEX
  5
1A6
330
17C
100
AcDbEntity
  8
001
 62
     5
370
    50
100
AcDbVertex
100
AcDb2dVertex
 10
55.421424
 20
36.840945
 30
0.0
  0
VERTEX
  5
1A7
330
17C
100
AcDbEntity
  8
001
 62
     5
370
    50
100
AcDbVertex
100
AcDb2dVertex
 10
55.021896
 20
36.894177
 30
0.0
  0
VERTEX
  5
1A8
330
17C
100
AcDbEntity
  8
001
 62
     5
370
    50
100
AcDbVertex
100
AcDb2dVertex
 10
54.623066
 20
36.844195
 30
0.0
  0
VERTEX
  5
1A9
330
17C
100
AcDbEntity
  8
001
 62
     5
370
    50
100
AcDbVertex
100
AcDb2dVertex
 10
54.494895
 20
36.804318
 30
0.0
  0
VERTEX
  5
1AA
330
17C
100
AcDbEntity
  8
001
 62
     5
370
    50
100
AcDbVertex
100
AcDb2dVertex
 10
54.370981
 20
36.753275
 30
0.0
  0
VERTEX
  5
1AB
330
17C
100
AcDbEntity
  8
001
 62
     5
370
    50
100
AcDbVertex
100
AcDb2dVertex
 10
54.252064
 20
36.691633
 30
0.0
  0
VERTEX
  5
1AC
330
17C
100
AcDbEntity
  8
001
 62
     5
370
    50
100
AcDbVertex
100
AcDb2dVertex
 10
54.138951
 20
36.619803
 30
0.0
  0
VERTEX
  5
1AD
330
17C
100
AcDbEntity
  8
001
 62
     5
370
    50
100
AcDbVertex
100
AcDb2dVertex
 10
54.032692
 20
36.538334
 30
0.0
  0
VERTEX
  5
1AE
330
17C
100
AcDbEntity
  8
001
 62
     5
370
    50
100
AcDbVertex
100
AcDb2dVertex
 10
53.934027
 20
36.447835
 30
0.0
  0
SEQEND
  5
17D
330
17C
100
AcDbEntity
  8
001
370
    50
  0
POLYLINE
  5
1AF
330
1F
100
AcDbEntity
  8
001
 62
     5
370
    50
100
AcDb2dPolyline
 66
     1
 10
0.0
 20
0.0
 30
0.0
  0
VERTEX
  5
1B1
330
1AF
100
AcDbEntity
  8
001
 62
     5
370
    50
100
AcDbVertex
100
AcDb2dVertex
 10
53.751496
 20
36.689622
 30
0.0
  0
VERTEX
  5
1B2
330
1AF
100
AcDbEntity
  8
001
 62
     5
370
    50
100
AcDbVertex
100
AcDb2dVertex
 10
53.661627
 20
36.589626
 30
0.0
  0
VERTEX
  5
1B3
330
1AF
100
AcDbEntity
  8
001
 62
     5
370
    50
100
AcDbVertex
100
AcDb2dVertex
 10
53.546694
 20
36.444659
 30
0.0
  0
VERTEX
  5
1B4
330
1AF
100
AcDbEntity
  8
001
 62
     5
370
    50
100
AcDbVertex
100
AcDb2dVertex
 10
53.456358
 20
36.304636
 30
0.0
  0
VERTEX
  5
1B5
330
1AF
100
AcDbEntity
  8
001
 62
     5
370
    50
100
AcDbVertex
100
AcDb2dVertex
 10
53.387898
 20
36.167428
 30
0.0
  0
VERTEX
  5
1B6
330
1AF
100
AcDbEntity
  8
001
 62
     5
370
    50
100
AcDbVertex
100
AcDb2dVertex
 10
53.32871
 20
36.020879
 30
0.0
  0
VERTEX
  5
1B7
330
1AF
100
AcDbEntity
  8
001
 62
     5
370
    50
100
AcDbVertex
100
AcDb2dVertex
 10
53.279934
 20
35.866352
 30
0.0
  0
VERTEX
  5
1B8
330
1AF
100
AcDbEntity
  8
001
 62
     5
370
    50
100
AcDbVertex
100
AcDb2dVertex
 10
53.219607
 20
35.38874
 30
0.0
  0
VERTEX
  5
1B9
330
1AF
100
AcDbEntity
  8
001
 62
     5
370
    50
100
AcDbVertex
100
AcDb2dVertex
 10
53.285566
 20
34.913482
 30
0.0
  0
VERTEX
  5
1BA
330
1AF
100
AcDbEntity
  8
001
 62
     5
370
    50
100
AcDbVertex
100
AcDb2dVertex
 10
53.397688
 20
34.611041
 30
0.0
  0
VERTEX
  5
1BB
330
1AF
100
AcDbEntity
  8
001
 62
     5
370
    50
100
AcDbVertex
100
AcDb2dVertex
 10
53.559175
 20
34.332975
 30
0.0
  0
VERTEX
  5
1BC
330
1AF
100
AcDbEntity
  8
001
 62
     5
370
    50
100
AcDbVertex
100
AcDb2dVertex
 10
53.657405
 20
34.205058
 30
0.0
  0
VERTEX
  5
1BD
330
1AF
100
AcDbEntity
  8
001
 62
     5
370
    50
100
AcDbVertex
100
AcDb2dVertex
 10
53.766883
 20
34.086333
 30
0.0
  0
VERTEX
  5
1BE
330
1AF
100
AcDbEntity
  8
001
 62
     5
370
    50
100
AcDbVertex
100
AcDb2dVertex
 10
53.886964
 20
33.977598
 30
0.0
  0
VERTEX
  5
1BF
330
1AF
100
AcDbEntity
  8
001
 62
     5
370
    50
100
AcDbVertex
100
AcDb2dVertex
 10
54.013907
 20
33.879079
 30
0.0
  0
VERTEX
  5
1C0
330
1AF
100
AcDbEntity
  8
001
 62
     5
370
    50
100
AcDbVertex
100
AcDb2dVertex
 10
54.28122
 20
33.71581
 30
0.0
  0
VERTEX
  5
1C1
330
1AF
100
AcDbEntity
  8
001
 62
     5
370
    50
100
AcDbVertex
100
AcDb2dVertex
 10
54.594916
 20
33.606538
 30
0.0
  0
VERTEX
  5
1C2
330
1AF
100
AcDbEntity
  8
001
 62
     5
370
    50
100
AcDbVertex
100
AcDb2dVertex
 10
55.059614
 20
33.555136
 30
0.0
  0
VERTEX
  5
1C3
330
1AF
100
AcDbEntity
  8
001
 62
     5
370
    50
100
AcDbVertex
100
AcDb2dVertex
 10
55.403638
 20
33.570725
 30
0.0
  0
SEQEND
  5
1B0
330
1AF
100
AcDbEntity
  8
001
370
    50
  0
POLYLINE
  5
1C4
330
1F
100
AcDbEntity
  8
001
 62
     5
370
    50
100
AcDb2dPolyline
 66
     1
 10
0.0
 20
0.0
 30
0.0
  0
VERTEX
  5
1C6
330
1C4
100
AcDbEntity
  8
001
 62
     5
370
    50
100
AcDbVertex
100
AcDb2dVertex
 10
56.370196
 20
34.075735
 30
0.0
  0
VERTEX
  5
1C7
330
1C4
100
AcDbEntity
  8
001
 62
     5
370
    50
100
AcDbVertex
100
AcDb2dVertex
 10
56.460065
 20
34.175731
 30
0.0
  0
VERTEX
  5
1C8
330
1C4
100
AcDbEntity
  8
001
 62
     5
370
    50
100
AcDbVertex
100
AcDb2dVertex
 10
56.574999
 20
34.320698
 30
0.0
  0
VERTEX
  5
1C9
330
1C4
100
AcDbEntity
  8
001
 62
     5
370
    50
100
AcDbVertex
100
AcDb2dVertex
 10
56.665333
 20
34.460721
 30
0.0
  0
VERTEX
  5
1CA
330
1C4
100
AcDbEntity
  8
001
 62
     5
370
    50
100
AcDbVertex
100
AcDb2dVertex
 10
56.733794
 20
34.597929
 30
0.0
  0
VERTEX
  5
1CB
330
1C4
100
AcDbEntity
  8
001
 62
     5
370
    50
100
AcDbVertex
100
AcDb2dVertex
 10
56.792986
 20
34.744479
 30
0.0
  0
VERTEX
  5
1CC
330
1C4
100
AcDbEntity
  8
001
 62
     5
370
    50
100
AcDbVertex
100
AcDb2dVertex
 10
56.841758
 20
34.899005
 30
0.0
  0
VERTEX
  5
1CD
330
1C4
100
AcDbEntity
  8
001
 62
     5
370
    50
100
AcDbVertex
100
AcDb2dVertex
 10
56.902
 20
35.376601
 30
0.0
  0
VERTEX
  5
1CE
330
1C4
100
AcDbEntity
  8
001
 62
     5
370
    50
100
AcDbVertex
100
AcDb2dVertex
 10
56.836126
 20
35.851875
 30
0.0
  0
VERTEX
  5
1CF
330
1C4
100
AcDbEntity
  8
001
 62
     5
370
    50
100
AcDbVertex
100
AcDb2dVertex
 10
56.724219
 20
36.154357
 30
0.0
  0
VERTEX
  5
1D0
330
1C4
100
AcDbEntity
  8
001
 62
     5
370
    50
100
AcDbVertex
100
AcDb2dVertex
 10
56.562518
 20
36.432381
 30
0.0
  0
VERTEX
  5
1D1
330
1C4
100
AcDbEntity
  8
001
 62
     5
370
    50
100
AcDbVertex
100
AcDb2dVertex
 10
56.463969
 20
36.560239
 30
0.0
  0
VERTEX
  5
1D2
330
1C4
100
AcDbEntity
  8
001
 62
     5
370
    50
100
AcDbVertex
100
AcDb2dVertex
 10
56.35481
 20
36.679024
 30
0.0
  0
VERTEX
  5
1D3
330
1C4
100
AcDbEntity
  8
001
 62
     5
370
    50
100
AcDbVertex
100
AcDb2dVertex
 10
56.235824
 20
36.787965
 30
0.0
  0
VERTEX
  5
1D4
330
1C4
100
AcDbEntity
  8
001
 62
     5
370
    50
100
AcDbVertex
100
AcDb2dVertex
 10
56.107785
 20
36.886278
 30
0.0
  0
VERTEX
  5
1D5
330
1C4
100
AcDbEntity
  8
001
 62
     5
370
    50
100
AcDbVertex
100
AcDb2dVertex
 10
55.829463
 20
37.047468
 30
0.0
  0
VERTEX
  5
1D6
330
1C4
100
AcDbEntity
  8
001
 62
     5
370
    50
100
AcDbVertex
100
AcDb2dVertex
 10
55.526776
 20
37.158819
 30
0.0
  0
VERTEX
  5
1D7
330
1C4
100
AcDbEntity
  8
001
 62
     5
370
    50
100
AcDbVertex
100
AcDb2dVertex
 10
55.051382
 20
37.223818
 30
0.0
  0
VERTEX
  5
1D8
330
1C4
100
AcDbEntity
  8
001
 62
     5
370
    50
100
AcDbVertex
100
AcDb2dVertex
 10
54.573897
 20
37.162698
 30
0.0
  0
VERTEX
  5
1D9
330
1C4
100
AcDbEntity
  8
001
 62
     5
370
    50
100
AcDbVertex
100
AcDb2dVertex
 10
54.419461
 20
37.113642
 30
0.0
  0
VERTEX
  5
1DA
330
1C4
100
AcDbEntity
  8
001
 62
     5
370
    50
100
AcDbVertex
100
AcDb2dVertex
 10
54.273021
 20
37.05418
 30
0.0
  0
VERTEX
  5
1DB
330
1C4
100
AcDbEntity
  8
001
 62
     5
370
    50
100
AcDbVertex
100
AcDb2dVertex
 10
54.135939
 20
36.985466
 30
0.0
  0
VERTEX
  5
1DC
330
1C4
100
AcDbEntity
  8
001
 62
     5
370
    50
100
AcDbVertex
100
AcDb2dVertex
 10
53.996082
 20
36.894875
 30
0.0
  0
VERTEX
  5
1DD
330
1C4
100
AcDbEntity
  8
001
 62
     5
370
    50
100
AcDbVertex
100
AcDb2dVertex
 10
53.851327
 20
36.779675
 30
0.0
  0
VERTEX
  5
1DE
330
1C4
100
AcDbEntity
  8
001
 62
     5
370
    50
100
AcDbVertex
100
AcDb2dVertex
 10
53.751496
 20
36.689622
 30
0.0
  0
SEQEND
  5
1C5
330
1C4
100
AcDbEntity
  8
001
370
    50
  0
LINE
  5
1DF
330
1F
100
AcDbEntity
  8
001
 62
     5
370
    50
100
AcDbLine
 10
54.079289
 20
37.018018
 30
0.0
 11
53.751496
 21
36.689622
 31
0.0
  0
LINE
  5
1E0
330
1F
100
AcDbEntity
  8
001
 62
     5
370
    50
100
AcDbLine
 10
56.370196
 20
34.075735
 30
0.0
 11
56.697989
 21
34.404131
 31
0.0
  0
POLYLINE
  5
1E1
330
1F
100
AcDbEntity
  8
001
 62
    60
370
    50
100
AcDb2dPolyline
 66
     1
 10
0.0
 20
0.0
 30
0.0
  0
VERTEX
  5
1E3
330
1E1
100
AcDbEntity
  8
001
 62
    60
370
    50
100
AcDbVertex
100
AcDb2dVertex
 10
55.86905
 20
41.207954
 30
0.0
  0
VERTEX
  5
1E4
330
1E1
100
AcDbEntity
  8
001
 62
    60
370
    50
100
AcDbVertex
100
AcDb2dVertex
 10
55.86703
 20
41.209987
 30
0.0
  0
VERTEX
  5
1E5
330
1E1
100
AcDbEntity
  8
001
 62
    60
370
    50
100
AcDbVertex
100
AcDb2dVertex
 10
55.864083
 20
41.212941
 30
0.0
  0
VERTEX
  5
1E6
330
1E1
100
AcDbEntity
  8
001
 62
    60
370
    50
100
AcDbVertex
100
AcDb2dVertex
 10
55.781504
 20
41.289114
 30
0.0
  0
VERTEX
  5
1E7
330
1E1
100
AcDbEntity
  8
001
 62
    60
370
    50
100
AcDbVertex
100
AcDb2dVertex
 10
55.705053
 20
41.346368
 30
0.0
  0
VERTEX
  5
1E8
330
1E1
100
AcDbEntity
  8
001
 62
    60
370
    50
100
AcDbVertex
100
AcDb2dVertex
 10
55.529911
 20
41.446058
 30
0.0
  0
VERTEX
  5
1E9
330
1E1
100
AcDbEntity
  8
001
 62
    60
370
    50
100
AcDbVertex
100
AcDb2dVertex
 10
55.331008
 20
41.521825
 30
0.0
  0
VERTEX
  5
1EA
330
1E1
100
AcDbEntity
  8
001
 62
    60
370
    50
100
AcDbVertex
100
AcDb2dVertex
 10
55.02337
 20
41.565303
 30
0.0
  0
VERTEX
  5
1EB
330
1E1
100
AcDbEntity
  8
001
 62
    60
370
    50
100
AcDbVertex
100
AcDb2dVertex
 10
54.717561
 20
41.524323
 30
0.0
  0
VERTEX
  5
1EC
330
1E1
100
AcDbEntity
  8
001
 62
    60
370
    50
100
AcDbVertex
100
AcDb2dVertex
 10
54.618201
 20
41.492648
 30
0.0
  0
VERTEX
  5
1ED
330
1E1
100
AcDbEntity
  8
001
 62
    60
370
    50
100
AcDbVertex
100
AcDb2dVertex
 10
54.523861
 20
41.454461
 30
0.0
  0
VERTEX
  5
1EE
330
1E1
100
AcDbEntity
  8
001
 62
    60
370
    50
100
AcDbVertex
100
AcDb2dVertex
 10
54.435655
 20
41.410275
 30
0.0
  0
VERTEX
  5
1EF
330
1E1
100
AcDbEntity
  8
001
 62
    60
370
    50
100
AcDbVertex
100
AcDb2dVertex
 10
54.345573
 20
41.351903
 30
0.0
  0
VERTEX
  5
1F0
330
1E1
100
AcDbEntity
  8
001
 62
    60
370
    50
100
AcDbVertex
100
AcDb2dVertex
 10
54.255345
 20
41.280393
 30
0.0
  0
VERTEX
  5
1F1
330
1E1
100
AcDbEntity
  8
001
 62
    60
370
    50
100
AcDbVertex
100
AcDb2dVertex
 10
54.19305
 20
41.224682
 30
0.0
  0
SEQEND
  5
1E2
330
1E1
100
AcDbEntity
  8
001
370
    50
  0
POLYLINE
  5
1F2
330
1F
100
AcDbEntity
  8
001
 62
    60
370
    50
100
AcDb2dPolyline
 66
     1
 10
0.0
 20
0.0
 30
0.0
  0
VERTEX
  5
1F4
330
1F2
100
AcDbEntity
  8
001
 62
    60
370
    50
100
AcDbVertex
100
AcDb2dVertex
 10
55.246565
 20
41.876572
 30
0.0
  0
VERTEX
  5
1F5
330
1F2
100
AcDbEntity
  8
001
 62
    60
370
    50
100
AcDbVertex
100
AcDb2dVertex
 10
55.156383
 20
41.865002
 30
0.0
  0
VERTEX
  5
1F6
330
1F2
100
AcDbEntity
  8
001
 62
    60
370
    50
100
AcDbVertex
100
AcDb2dVertex
 10
55.033397
 20
41.840741
 30
0.0
  0
VERTEX
  5
1F7
330
1F2
100
AcDbEntity
  8
001
 62
    60
370
    50
100
AcDbVertex
100
AcDb2dVertex
 10
54.929908
 20
41.808914
 30
0.0
  0
VERTEX
  5
1F8
330
1F2
100
AcDbEntity
  8
001
 62
    60
370
    50
100
AcDbVertex
100
AcDb2dVertex
 10
54.839698
 20
41.770879
 30
0.0
  0
VERTEX
  5
1F9
330
1F2
100
AcDbEntity
  8
001
 62
    60
370
    50
100
AcDbVertex
100
AcDb2dVertex
 10
54.752572
 20
41.726733
 30
0.0
  0
VERTEX
  5
1FA
330
1F2
100
AcDbEntity
  8
001
 62
    60
370
    50
100
AcDbVertex
100
AcDb2dVertex
 10
54.661409
 20
41.668321
 30
0.0
  0
VERTEX
  5
1FB
330
1F2
100
AcDbEntity
  8
001
 62
    60
370
    50
100
AcDbVertex
100
AcDb2dVertex
 10
54.570976
 20
41.596803
 30
0.0
  0
VERTEX
  5
1FC
330
1F2
100
AcDbEntity
  8
001
 62
    60
370
    50
100
AcDbVertex
100
AcDb2dVertex
 10
54.508887
 20
41.541101
 30
0.0
  0
SEQEND
  5
1F3
330
1F2
100
AcDbEntity
  8
001
370
    50
  0
POLYLINE
  5
1FD
330
1F
100
AcDbEntity
  8
001
 62
    60
370
    50
100
AcDb2dPolyline
 66
     1
 10
0.0
 20
0.0
 30
0.0
  0
VERTEX
  5
1FF
330
1FD
100
AcDbEntity
  8
001
 62
    60
370
    50
100
AcDbVertex
100
AcDb2dVertex
 10
53.399671
 20
36.981209
 30
0.0
  0
VERTEX
  5
200
330
1FD
100
AcDbEntity
  8
001
 62
    60
370
    50
100
AcDbVertex
100
AcDb2dVertex
 10
53.265359
 20
36.834238
 30
0.0
  0
VERTEX
  5
201
330
1FD
100
AcDbEntity
  8
001
 62
    60
370
    50
100
AcDbVertex
100
AcDb2dVertex
 10
53.144498
 20
36.675998
 30
0.0
  0
VERTEX
  5
202
330
1FD
100
AcDbEntity
  8
001
 62
    60
370
    50
100
AcDbVertex
100
AcDb2dVertex
 10
53.03799
 20
36.507592
 30
0.0
  0
VERTEX
  5
203
330
1FD
100
AcDbEntity
  8
001
 62
    60
370
    50
100
AcDbVertex
100
AcDb2dVertex
 10
52.946647
 20
36.330583
 30
0.0
  0
VERTEX
  5
204
330
1FD
100
AcDbEntity
  8
001
 62
    60
370
    50
100
AcDbVertex
100
AcDb2dVertex
 10
52.871081
 20
36.146171
 30
0.0
  0
VERTEX
  5
205
330
1FD
100
AcDbEntity
  8
001
 62
    60
370
    50
100
AcDbVertex
100
AcDb2dVertex
 10
52.81213
 20
35.955459
 30
0.0
  0
VERTEX
  5
206
330
1FD
100
AcDbEntity
  8
001
 62
    60
370
    50
100
AcDbVertex
100
AcDb2dVertex
 10
52.738893
 20
35.362224
 30
0.0
  0
VERTEX
  5
207
330
1FD
100
AcDbEntity
  8
001
 62
    60
370
    50
100
AcDbVertex
100
AcDb2dVertex
 10
52.819147
 20
34.768234
 30
0.0
  0
VERTEX
  5
208
330
1FD
100
AcDbEntity
  8
001
 62
    60
370
    50
100
AcDbVertex
100
AcDb2dVertex
 10
52.958327
 20
34.391108
 30
0.0
  0
VERTEX
  5
209
330
1FD
100
AcDbEntity
  8
001
 62
    60
370
    50
100
AcDbVertex
100
AcDb2dVertex
 10
53.160049
 20
34.044955
 30
0.0
  0
VERTEX
  5
20A
330
1FD
100
AcDbEntity
  8
001
 62
    60
370
    50
100
AcDbVertex
100
AcDb2dVertex
 10
53.282853
 20
33.885669
 30
0.0
  0
VERTEX
  5
20B
330
1FD
100
AcDbEntity
  8
001
 62
    60
370
    50
100
AcDbVertex
100
AcDb2dVertex
 10
53.418842
 20
33.737651
 30
0.0
  0
VERTEX
  5
20C
330
1FD
100
AcDbEntity
  8
001
 62
    60
370
    50
100
AcDbVertex
100
AcDb2dVertex
 10
53.56711
 20
33.601934
 30
0.0
  0
VERTEX
  5
20D
330
1FD
100
AcDbEntity
  8
001
 62
    60
370
    50
100
AcDbVertex
100
AcDb2dVertex
 10
53.726621
 20
33.479424
 30
0.0
  0
VERTEX
  5
20E
330
1FD
100
AcDbEntity
  8
001
 62
    60
370
    50
100
AcDbVertex
100
AcDb2dVertex
 10
54.073145
 20
33.278339
 30
0.0
  0
VERTEX
  5
20F
330
1FD
100
AcDbEntity
  8
001
 62
    60
370
    50
100
AcDbVertex
100
AcDb2dVertex
 10
54.450526
 20
33.139853
 30
0.0
  0
VERTEX
  5
210
330
1FD
100
AcDbEntity
  8
001
 62
    60
370
    50
100
AcDbVertex
100
AcDb2dVertex
 10
55.044663
 20
33.060692
 30
0.0
  0
VERTEX
  5
211
330
1FD
100
AcDbEntity
  8
001
 62
    60
370
    50
100
AcDbVertex
100
AcDb2dVertex
 10
55.637762
 20
33.13502
 30
0.0
  0
VERTEX
  5
212
330
1FD
100
AcDbEntity
  8
001
 62
    60
370
    50
100
AcDbVertex
100
AcDb2dVertex
 10
55.828366
 20
33.194322
 30
0.0
  0
VERTEX
  5
213
330
1FD
100
AcDbEntity
  8
001
 62
    60
370
    50
100
AcDbVertex
100
AcDb2dVertex
 10
56.012638
 20
33.270227
 30
0.0
  0
VERTEX
  5
214
330
1FD
100
AcDbEntity
  8
001
 62
    60
370
    50
100
AcDbVertex
100
AcDb2dVertex
 10
56.189478
 20
33.361895
 30
0.0
  0
VERTEX
  5
215
330
1FD
100
AcDbEntity
  8
001
 62
    60
370
    50
100
AcDbVertex
100
AcDb2dVertex
 10
56.357688
 20
33.468713
 30
0.0
  0
VERTEX
  5
216
330
1FD
100
AcDbEntity
  8
001
 62
    60
370
    50
100
AcDbVertex
100
AcDb2dVertex
 10
56.515706
 20
33.589864
 30
0.0
  0
VERTEX
  5
217
330
1FD
100
AcDbEntity
  8
001
 62
    60
370
    50
100
AcDbVertex
100
AcDb2dVertex
 10
56.66243
 20
33.724446
 30
0.0
  0
VERTEX
  5
218
330
1FD
100
AcDbEntity
  8
001
 62
    60
370
    50
100
AcDbVertex
100
AcDb2dVertex
 10
56.796741
 20
33.871417
 30
0.0
  0
VERTEX
  5
219
330
1FD
100
AcDbEntity
  8
001
 62
    60
370
    50
100
AcDbVertex
100
AcDb2dVertex
 10
56.917602
 20
34.029658
 30
0.0
  0
VERTEX
  5
21A
330
1FD
100
AcDbEntity
  8
001
 62
    60
370
    50
100
AcDbVertex
100
AcDb2dVertex
 10
57.02411
 20
34.198064
 30
0.0
  0
VERTEX
  5
21B
330
1FD
100
AcDbEntity
  8
001
 62
    60
370
    50
100
AcDbVertex
100
AcDb2dVertex
 10
57.115453
 20
34.375073
 30
0.0
  0
VERTEX
  5
21C
330
1FD
100
AcDbEntity
  8
001
 62
    60
370
    50
100
AcDbVertex
100
AcDb2dVertex
 10
57.191019
 20
34.559484
 30
0.0
  0
VERTEX
  5
21D
330
1FD
100
AcDbEntity
  8
001
 62
    60
370
    50
100
AcDbVertex
100
AcDb2dVertex
 10
57.249971
 20
34.750196
 30
0.0
  0
VERTEX
  5
21E
330
1FD
100
AcDbEntity
  8
001
 62
    60
370
    50
100
AcDbVertex
100
AcDb2dVertex
 10
57.323207
 20
35.343431
 30
0.0
  0
VERTEX
  5
21F
330
1FD
100
AcDbEntity
  8
001
 62
    60
370
    50
100
AcDbVertex
100
AcDb2dVertex
 10
57.242953
 20
35.937421
 30
0.0
  0
VERTEX
  5
220
330
1FD
100
AcDbEntity
  8
001
 62
    60
370
    50
100
AcDbVertex
100
AcDb2dVertex
 10
57.103773
 20
36.314548
 30
0.0
  0
VERTEX
  5
221
330
1FD
100
AcDbEntity
  8
001
 62
    60
370
    50
100
AcDbVertex
100
AcDb2dVertex
 10
56.902052
 20
36.660701
 30
0.0
  0
VERTEX
  5
222
330
1FD
100
AcDbEntity
  8
001
 62
    60
370
    50
100
AcDbVertex
100
AcDb2dVertex
 10
56.779248
 20
36.819986
 30
0.0
  0
VERTEX
  5
223
330
1FD
100
AcDbEntity
  8
001
 62
    60
370
    50
100
AcDbVertex
100
AcDb2dVertex
 10
56.643259
 20
36.968004
 30
0.0
  0
VERTEX
  5
224
330
1FD
100
AcDbEntity
  8
001
 62
    60
370
    50
100
AcDbVertex
100
AcDb2dVertex
 10
56.494991
 20
37.103721
 30
0.0
  0
VERTEX
  5
225
330
1FD
100
AcDbEntity
  8
001
 62
    60
370
    50
100
AcDbVertex
100
AcDb2dVertex
 10
56.33548
 20
37.226232
 30
0.0
  0
VERTEX
  5
226
330
1FD
100
AcDbEntity
  8
001
 62
    60
370
    50
100
AcDbVertex
100
AcDb2dVertex
 10
55.988956
 20
37.427316
 30
0.0
  0
VERTEX
  5
227
330
1FD
100
AcDbEntity
  8
001
 62
    60
370
    50
100
AcDbVertex
100
AcDb2dVertex
 10
55.611574
 20
37.565802
 30
0.0
  0
VERTEX
  5
228
330
1FD
100
AcDbEntity
  8
001
 62
    60
370
    50
100
AcDbVertex
100
AcDb2dVertex
 10
55.017438
 20
37.644964
 30
0.0
  0
VERTEX
  5
229
330
1FD
100
AcDbEntity
  8
001
 62
    60
370
    50
100
AcDbVertex
100
AcDb2dVertex
 10
54.424338
 20
37.570636
 30
0.0
  0
VERTEX
  5
22A
330
1FD
100
AcDbEntity
  8
001
 62
    60
370
    50
100
AcDbVertex
100
AcDb2dVertex
 10
54.233735
 20
37.511334
 30
0.0
  0
VERTEX
  5
22B
330
1FD
100
AcDbEntity
  8
001
 62
    60
370
    50
100
AcDbVertex
100
AcDb2dVertex
 10
54.049463
 20
37.435429
 30
0.0
  0
VERTEX
  5
22C
330
1FD
100
AcDbEntity
  8
001
 62
    60
370
    50
100
AcDbVertex
100
AcDb2dVertex
 10
53.872622
 20
37.34376
 30
0.0
  0
VERTEX
  5
22D
330
1FD
100
AcDbEntity
  8
001
 62
    60
370
    50
100
AcDbVertex
100
AcDb2dVertex
 10
53.704412
 20
37.236943
 30
0.0
  0
VERTEX
  5
22E
330
1FD
100
AcDbEntity
  8
001
 62
    60
370
    50
100
AcDbVertex
100
AcDb2dVertex
 10
53.546395
 20
37.115791
 30
0.0
  0
VERTEX
  5
22F
330
1FD
100
AcDbEntity
  8
001
 62
    60
370
    50
100
AcDbVertex
100
AcDb2dVertex
 10
53.399671
 20
36.981209
 30
0.0
  0
SEQEND
  5
1FE
330
1FD
100
AcDbEntity
  8
001
370
    50
  0
POLYLINE
  5
230
330
1F
100
AcDbEntity
  8
001
 62
    60
370
    50
100
AcDb2dPolyline
 66
     1
 10
0.0
 20
0.0
 30
0.0
  0
VERTEX
  5
232
330
230
100
AcDbEntity
  8
001
 62
    60
370
    50
100
AcDbVertex
100
AcDb2dVertex
 10
54.19305
 20
29.497701
 30
0.0
  0
VERTEX
  5
233
330
230
100
AcDbEntity
  8
001
 62
    60
370
    50
100
AcDbVertex
100
AcDb2dVertex
 10
54.19507
 20
29.495669
 30
0.0
  0
VERTEX
  5
234
330
230
100
AcDbEntity
  8
001
 62
    60
370
    50
100
AcDbVertex
100
AcDb2dVertex
 10
54.198018
 20
29.492714
 30
0.0
  0
VERTEX
  5
235
330
230
100
AcDbEntity
  8
001
 62
    60
370
    50
100
AcDbVertex
100
AcDb2dVertex
 10
54.280597
 20
29.416541
 30
0.0
  0
VERTEX
  5
236
330
230
100
AcDbEntity
  8
001
 62
    60
370
    50
100
AcDbVertex
100
AcDb2dVertex
 10
54.357048
 20
29.359287
 30
0.0
  0
VERTEX
  5
237
330
230
100
AcDbEntity
  8
001
 62
    60
370
    50
100
AcDbVertex
100
AcDb2dVertex
 10
54.53219
 20
29.259597
 30
0.0
  0
VERTEX
  5
238
330
230
100
AcDbEntity
  8
001
 62
    60
370
    50
100
AcDbVertex
100
AcDb2dVertex
 10
54.731092
 20
29.18383
 30
0.0
  0
VERTEX
  5
239
330
230
100
AcDbEntity
  8
001
 62
    60
370
    50
100
AcDbVertex
100
AcDb2dVertex
 10
55.03873
 20
29.140352
 30
0.0
  0
VERTEX
  5
23A
330
230
100
AcDbEntity
  8
001
 62
    60
370
    50
100
AcDbVertex
100
AcDb2dVertex
 10
55.34454
 20
29.181333
 30
0.0
  0
VERTEX
  5
23B
330
230
100
AcDbEntity
  8
001
 62
    60
370
    50
100
AcDbVertex
100
AcDb2dVertex
 10
55.4439
 20
29.213007
 30
0.0
  0
VERTEX
  5
23C
330
230
100
AcDbEntity
  8
001
 62
    60
370
    50
100
AcDbVertex
100
AcDb2dVertex
 10
55.538239
 20
29.251194
 30
0.0
  0
VERTEX
  5
23D
330
230
100
AcDbEntity
  8
001
 62
    60
370
    50
100
AcDbVertex
100
AcDb2dVertex
 10
55.626446
 20
29.29538
 30
0.0
  0
VERTEX
  5
23E
330
230
100
AcDbEntity
  8
001
 62
    60
370
    50
100
AcDbVertex
100
AcDb2dVertex
 10
55.716528
 20
29.353753
 30
0.0
  0
VERTEX
  5
23F
330
230
100
AcDbEntity
  8
001
 62
    60
370
    50
100
AcDbVertex
100
AcDb2dVertex
 10
55.806755
 20
29.425263
 30
0.0
  0
VERTEX
  5
240
330
230
100
AcDbEntity
  8
001
 62
    60
370
    50
100
AcDbVertex
100
AcDb2dVertex
 10
55.86905
 20
29.480973
 30
0.0
  0
SEQEND
  5
231
330
230
100
AcDbEntity
  8
001
370
    50
  0
LINE
  5
241
330
1F
100
AcDbEntity
  8
001
 62
    60
370
    50
100
AcDbLine
 10
49.16716
 20
34.573412
 30
0.0
 11
54.19305
 21
29.497701
 31
0.0
  0
POLYLINE
  5
242
330
1F
100
AcDbEntity
  8
001
 62
    60
370
    50
100
AcDb2dPolyline
 66
     1
 10
0.0
 20
0.0
 30
0.0
  0
VERTEX
  5
244
330
242
100
AcDbEntity
  8
001
 62
    60
370
    50
100
AcDbVertex
100
AcDb2dVertex
 10
49.16716
 20
36.249298
 30
0.0
  0
VERTEX
  5
245
330
242
100
AcDbEntity
  8
001
 62
    60
370
    50
100
AcDbVertex
100
AcDb2dVertex
 10
49.165147
 20
36.247298
 30
0.0
  0
VERTEX
  5
246
330
242
100
AcDbEntity
  8
001
 62
    60
370
    50
100
AcDbVertex
100
AcDb2dVertex
 10
49.162222
 20
36.24438
 30
0.0
  0
VERTEX
  5
247
330
242
100
AcDbEntity
  8
001
 62
    60
370
    50
100
AcDbVertex
100
AcDb2dVertex
 10
49.087214
 20
36.162907
 30
0.0
  0
VERTEX
  5
248
330
242
100
AcDbEntity
  8
001
 62
    60
370
    50
100
AcDbVertex
100
AcDb2dVertex
 10
49.030373
 20
36.086677
 30
0.0
  0
VERTEX
  5
249
330
242
100
AcDbEntity
  8
001
 62
    60
370
    50
100
AcDbVertex
100
AcDb2dVertex
 10
48.976901
 20
36.001114
 30
0.0
  0
VERTEX
  5
24A
330
242
100
AcDbEntity
  8
001
 62
    60
370
    50
100
AcDbVertex
100
AcDb2dVertex
 10
48.928143
 20
35.9082
 30
0.0
  0
VERTEX
  5
24B
330
242
100
AcDbEntity
  8
001
 62
    60
370
    50
100
AcDbVertex
100
AcDb2dVertex
 10
48.888468
 20
35.81264
 30
0.0
  0
VERTEX
  5
24C
330
242
100
AcDbEntity
  8
001
 62
    60
370
    50
100
AcDbVertex
100
AcDb2dVertex
 10
48.858638
 20
35.714372
 30
0.0
  0
VERTEX
  5
24D
330
242
100
AcDbEntity
  8
001
 62
    60
370
    50
100
AcDbVertex
100
AcDb2dVertex
 10
48.824605
 20
35.404912
 30
0.0
  0
VERTEX
  5
24E
330
242
100
AcDbEntity
  8
001
 62
    60
370
    50
100
AcDbVertex
100
AcDb2dVertex
 10
48.862264
 20
35.10093
 30
0.0
  0
VERTEX
  5
24F
330
242
100
AcDbEntity
  8
001
 62
    60
370
    50
100
AcDbVertex
100
AcDb2dVertex
 10
48.925689
 20
34.914517
 30
0.0
  0
VERTEX
  5
250
330
242
100
AcDbEntity
  8
001
 62
    60
370
    50
100
AcDbVertex
100
AcDb2dVertex
 10
49.038408
 20
34.727209
 30
0.0
  0
VERTEX
  5
251
330
242
100
AcDbEntity
  8
001
 62
    60
370
    50
100
AcDbVertex
100
AcDb2dVertex
 10
49.111565
 20
34.635523
 30
0.0
  0
VERTEX
  5
252
330
242
100
AcDbEntity
  8
001
 62
    60
370
    50
100
AcDbVertex
100
AcDb2dVertex
 10
49.16716
 20
34.573412
 30
0.0
  0
SEQEND
  5
243
330
242
100
AcDbEntity
  8
001
370
    50
  0
LINE
  5
253
330
1F
100
AcDbEntity
  8
001
 62
    60
370
    50
100
AcDbLine
 10
54.19305
 20
41.224682
 30
0.0
 11
49.16716
 21
36.249298
 31
0.0
  0
LINE
  5
254
330
1F
100
AcDbEntity
  8
001
 62
    60
370
    50
100
AcDbLine
 10
60.89494
 20
36.132243
 30
0.0
 11
55.86905
 21
41.207954
 31
0.0
  0
POLYLINE
  5
255
330
1F
100
AcDbEntity
  8
001
 62
    60
370
    50
100
AcDb2dPolyline
 66
     1
 10
0.0
 20
0.0
 30
0.0
  0
VERTEX
  5
257
330
255
100
AcDbEntity
  8
001
 62
    60
370
    50
100
AcDbVertex
100
AcDb2dVertex
 10
60.89494
 20
34.456357
 30
0.0
  0
VERTEX
  5
258
330
255
100
AcDbEntity
  8
001
 62
    60
370
    50
100
AcDbVertex
100
AcDb2dVertex
 10
60.896953
 20
34.458357
 30
0.0
  0
VERTEX
  5
259
330
255
100
AcDbEntity
  8
001
 62
    60
370
    50
100
AcDbVertex
100
AcDb2dVertex
 10
60.899879
 20
34.461275
 30
0.0
  0
VERTEX
  5
25A
330
255
100
AcDbEntity
  8
001
 62
    60
370
    50
100
AcDbVertex
100
AcDb2dVertex
 10
60.974886
 20
34.542748
 30
0.0
  0
VERTEX
  5
25B
330
255
100
AcDbEntity
  8
001
 62
    60
370
    50
100
AcDbVertex
100
AcDb2dVertex
 10
61.031727
 20
34.618978
 30
0.0
  0
VERTEX
  5
25C
330
255
100
AcDbEntity
  8
001
 62
    60
370
    50
100
AcDbVertex
100
AcDb2dVertex
 10
61.0852
 20
34.704541
 30
0.0
  0
VERTEX
  5
25D
330
255
100
AcDbEntity
  8
001
 62
    60
370
    50
100
AcDbVertex
100
AcDb2dVertex
 10
61.133957
 20
34.797455
 30
0.0
  0
VERTEX
  5
25E
330
255
100
AcDbEntity
  8
001
 62
    60
370
    50
100
AcDbVertex
100
AcDb2dVertex
 10
61.173632
 20
34.893015
 30
0.0
  0
VERTEX
  5
25F
330
255
100
AcDbEntity
  8
001
 62
    60
370
    50
100
AcDbVertex
100
AcDb2dVertex
 10
61.203463
 20
34.991283
 30
0.0
  0
VERTEX
  5
260
330
255
100
AcDbEntity
  8
001
 62
    60
370
    50
100
AcDbVertex
100
AcDb2dVertex
 10
61.237495
 20
35.300743
 30
0.0
  0
VERTEX
  5
261
330
255
100
AcDbEntity
  8
001
 62
    60
370
    50
100
AcDbVertex
100
AcDb2dVertex
 10
61.199837
 20
35.604725
 30
0.0
  0
VERTEX
  5
262
330
255
100
AcDbEntity
  8
001
 62
    60
370
    50
100
AcDbVertex
100
AcDb2dVertex
 10
61.136412
 20
35.791139
 30
0.0
  0
VERTEX
  5
263
330
255
100
AcDbEntity
  8
001
 62
    60
370
    50
100
AcDbVertex
100
AcDb2dVertex
 10
61.023692
 20
35.978446
 30
0.0
  0
VERTEX
  5
264
330
255
100
AcDbEntity
  8
001
 62
    60
370
    50
100
AcDbVertex
100
AcDb2dVertex
 10
60.950535
 20
36.070132
 30
0.0
  0
VERTEX
  5
265
330
255
100
AcDbEntity
  8
001
 62
    60
370
    50
100
AcDbVertex
100
AcDb2dVertex
 10
60.89494
 20
36.132243
 30
0.0
  0
SEQEND
  5
256
330
255
100
AcDbEntity
  8
001
370
    50
  0
LINE
  5
266
330
1F
100
AcDbEntity
  8
001
 62
    60
370
    50
100
AcDbLine
 10
55.86905
 20
29.480973
 30
0.0
 11
60.89494
 21
34.456357
 31
0.0
  0
LINE
  5
267
330
1F
100
AcDbEntity
  8
001
 62
    60
370
    50
100
AcDbLine
 10
61.210777
 20
36.448661
 30
0.0
 11
59.364765
 21
38.312973
 31
0.0
  0
LINE
  5
268
330
1F
100
AcDbEntity
  8
001
 62
    60
370
    50
100
AcDbLine
 10
61.210777
 20
34.772775
 30
0.0
 11
60.89494
 21
34.456357
 31
0.0
  0
POLYLINE
  5
269
330
1F
100
AcDbEntity
  8
001
 62
    60
370
    50
100
AcDb2dPolyline
 66
     1
 10
0.0
 20
0.0
 30
0.0
  0
VERTEX
  5
26B
330
269
100
AcDbEntity
  8
001
 62
    60
370
    50
100
AcDbVertex
100
AcDb2dVertex
 10
61.210777
 20
34.772775
 30
0.0
  0
VERTEX
  5
26C
330
269
100
AcDbEntity
  8
001
 62
    60
370
    50
100
AcDbVertex
100
AcDb2dVertex
 10
61.21279
 20
34.774775
 30
0.0
  0
VERTEX
  5
26D
330
269
100
AcDbEntity
  8
001
 62
    60
370
    50
100
AcDbVertex
100
AcDb2dVertex
 10
61.215716
 20
34.777693
 30
0.0
  0
VERTEX
  5
26E
330
269
100
AcDbEntity
  8
001
 62
    60
370
    50
100
AcDbVertex
100
AcDb2dVertex
 10
61.290723
 20
34.859166
 30
0.0
  0
VERTEX
  5
26F
330
269
100
AcDbEntity
  8
001
 62
    60
370
    50
100
AcDbVertex
100
AcDb2dVertex
 10
61.347564
 20
34.935397
 30
0.0
  0
VERTEX
  5
270
330
269
100
AcDbEntity
  8
001
 62
    60
370
    50
100
AcDbVertex
100
AcDb2dVertex
 10
61.401036
 20
35.02096
 30
0.0
  0
VERTEX
  5
271
330
269
100
AcDbEntity
  8
001
 62
    60
370
    50
100
AcDbVertex
100
AcDb2dVertex
 10
61.449794
 20
35.113874
 30
0.0
  0
VERTEX
  5
272
330
269
100
AcDbEntity
  8
001
 62
    60
370
    50
100
AcDbVertex
100
AcDb2dVertex
 10
61.489469
 20
35.209434
 30
0.0
  0
VERTEX
  5
273
330
269
100
AcDbEntity
  8
001
 62
    60
370
    50
100
AcDbVertex
100
AcDb2dVertex
 10
61.5193
 20
35.307701
 30
0.0
  0
VERTEX
  5
274
330
269
100
AcDbEntity
  8
001
 62
    60
370
    50
100
AcDbVertex
100
AcDb2dVertex
 10
61.553332
 20
35.617162
 30
0.0
  0
VERTEX
  5
275
330
269
100
AcDbEntity
  8
001
 62
    60
370
    50
100
AcDbVertex
100
AcDb2dVertex
 10
61.515674
 20
35.921143
 30
0.0
  0
VERTEX
  5
276
330
269
100
AcDbEntity
  8
001
 62
    60
370
    50
100
AcDbVertex
100
AcDb2dVertex
 10
61.452249
 20
36.107557
 30
0.0
  0
VERTEX
  5
277
330
269
100
AcDbEntity
  8
001
 62
    60
370
    50
100
AcDbVertex
100
AcDb2dVertex
 10
61.339529
 20
36.294864
 30
0.0
  0
VERTEX
  5
278
330
269
100
AcDbEntity
  8
001
 62
    60
370
    50
100
AcDbVertex
100
AcDb2dVertex
 10
61.266372
 20
36.38655
 30
0.0
  0
VERTEX
  5
279
330
269
100
AcDbEntity
  8
001
 62
    60
370
    50
100
AcDbVertex
100
AcDb2dVertex
 10
61.210777
 20
36.448661
 30
0.0
  0
SEQEND
  5
26A
330
269
100
AcDbEntity
  8
001
370
    50
  0
LINE
  5
27A
330
1F
100
AcDbEntity
  8
001
 62
    60
370
    50
100
AcDbLine
 10
49.482997
 20
36.565717
 30
0.0
 11
49.16716
 21
36.249298
 31
0.0
  0
LINE
  5
27B
330
1F
100
AcDbEntity
  8
001
 62
    60
370
    50
100
AcDbLine
 10
54.508887
 20
41.541101
 30
0.0
 11
49.482997
 21
36.565717
 31
0.0
  0
POLYLINE
  5
27C
330
1F
100
AcDbEntity
  8
001
 62
    60
370
    50
100
AcDb2dPolyline
 66
     1
 10
0.0
 20
0.0
 30
0.0
  0
VERTEX
  5
27E
330
27C
100
AcDbEntity
  8
001
 62
    60
370
    50
100
AcDbVertex
100
AcDb2dVertex
 10
53.7304
 20
36.746294
 30
0.0
  0
VERTEX
  5
27F
330
27C
100
AcDbEntity
  8
001
 62
    60
370
    50
100
AcDbVertex
100
AcDb2dVertex
 10
53.727181
 20
36.743095
 30
0.0
  0
VERTEX
  5
280
330
27C
100
AcDbEntity
  8
001
 62
    60
370
    50
100
AcDbVertex
100
AcDb2dVertex
 10
53.722501
 20
36.738428
 30
0.0
  0
VERTEX
  5
281
330
27C
100
AcDbEntity
  8
001
 62
    60
370
    50
100
AcDbVertex
100
AcDb2dVertex
 10
53.602542
 20
36.608096
 30
0.0
  0
VERTEX
  5
282
330
27C
100
AcDbEntity
  8
001
 62
    60
370
    50
100
AcDbVertex
100
AcDb2dVertex
 10
53.51161
 20
36.486181
 30
0.0
  0
VERTEX
  5
283
330
27C
100
AcDbEntity
  8
001
 62
    60
370
    50
100
AcDbVertex
100
AcDb2dVertex
 10
53.426008
 20
36.349398
 30
0.0
  0
VERTEX
  5
284
330
27C
100
AcDbEntity
  8
001
 62
    60
370
    50
100
AcDbVertex
100
AcDb2dVertex
 10
53.348094
 20
36.200708
 30
0.0
  0
VERTEX
  5
285
330
27C
100
AcDbEntity
  8
001
 62
    60
370
    50
100
AcDbVertex
100
AcDb2dVertex
 10
53.284913
 20
36.047578
 30
0.0
  0
VERTEX
  5
286
330
27C
100
AcDbEntity
  8
001
 62
    60
370
    50
100
AcDbVertex
100
AcDb2dVertex
 10
53.23692
 20
35.890682
 30
0.0
  0
VERTEX
  5
287
330
27C
100
AcDbEntity
  8
001
 62
    60
370
    50
100
AcDbVertex
100
AcDb2dVertex
 10
53.177125
 20
35.401119
 30
0.0
  0
VERTEX
  5
288
330
27C
100
AcDbEntity
  8
001
 62
    60
370
    50
100
AcDbVertex
100
AcDb2dVertex
 10
53.242719
 20
34.909483
 30
0.0
  0
VERTEX
  5
289
330
27C
100
AcDbEntity
  8
001
 62
    60
370
    50
100
AcDbVertex
100
AcDb2dVertex
 10
53.35764
 20
34.597696
 30
0.0
  0
VERTEX
  5
28A
330
27C
100
AcDbEntity
  8
001
 62
    60
370
    50
100
AcDbVertex
100
AcDb2dVertex
 10
53.524462
 20
34.311718
 30
0.0
  0
VERTEX
  5
28B
330
27C
100
AcDbEntity
  8
001
 62
    60
370
    50
100
AcDbVertex
100
AcDb2dVertex
 10
53.625972
 20
34.180091
 30
0.0
  0
VERTEX
  5
28C
330
27C
100
AcDbEntity
  8
001
 62
    60
370
    50
100
AcDbVertex
100
AcDb2dVertex
 10
53.738346
 20
34.057743
 30
0.0
  0
VERTEX
  5
28D
330
27C
100
AcDbEntity
  8
001
 62
    60
370
    50
100
AcDbVertex
100
AcDb2dVertex
 10
53.86086
 20
33.945554
 30
0.0
  0
VERTEX
  5
28E
330
27C
100
AcDbEntity
  8
001
 62
    60
370
    50
100
AcDbVertex
100
AcDb2dVertex
 10
53.992714
 20
33.844327
 30
0.0
  0
VERTEX
  5
28F
330
27C
100
AcDbEntity
  8
001
 62
    60
370
    50
100
AcDbVertex
100
AcDb2dVertex
 10
54.279316
 20
33.678351
 30
0.0
  0
VERTEX
  5
290
330
27C
100
AcDbEntity
  8
001
 62
    60
370
    50
100
AcDbVertex
100
AcDb2dVertex
 10
54.590996
 20
33.563684
 30
0.0
  0
VERTEX
  5
291
330
27C
100
AcDbEntity
  8
001
 62
    60
370
    50
100
AcDbVertex
100
AcDb2dVertex
 10
55.080521
 20
33.49675
 30
0.0
  0
VERTEX
  5
292
330
27C
100
AcDbEntity
  8
001
 62
    60
370
    50
100
AcDbVertex
100
AcDb2dVertex
 10
55.572204
 20
33.55969
 30
0.0
  0
VERTEX
  5
293
330
27C
100
AcDbEntity
  8
001
 62
    60
370
    50
100
AcDbVertex
100
AcDb2dVertex
 10
55.731231
 20
33.610204
 30
0.0
  0
VERTEX
  5
294
330
27C
100
AcDbEntity
  8
001
 62
    60
370
    50
100
AcDbVertex
100
AcDb2dVertex
 10
55.882025
 20
33.671434
 30
0.0
  0
VERTEX
  5
295
330
27C
100
AcDbEntity
  8
001
 62
    60
370
    50
100
AcDbVertex
100
AcDb2dVertex
 10
56.023183
 20
33.74219
 30
0.0
  0
VERTEX
  5
296
330
27C
100
AcDbEntity
  8
001
 62
    60
370
    50
100
AcDbVertex
100
AcDb2dVertex
 10
56.167197
 20
33.835475
 30
0.0
  0
VERTEX
  5
297
330
27C
100
AcDbEntity
  8
001
 62
    60
370
    50
100
AcDbVertex
100
AcDb2dVertex
 10
56.316256
 20
33.9541
 30
0.0
  0
VERTEX
  5
298
330
27C
100
AcDbEntity
  8
001
 62
    60
370
    50
100
AcDbVertex
100
AcDb2dVertex
 10
56.419055
 20
34.04683
 30
0.0
  0
SEQEND
  5
27D
330
27C
100
AcDbEntity
  8
001
370
    50
  0
POLYLINE
  5
299
330
1F
100
AcDbEntity
  8
001
 62
    60
370
    50
100
AcDb2dPolyline
 66
     1
 10
0.0
 20
0.0
 30
0.0
  0
VERTEX
  5
29B
330
299
100
AcDbEntity
  8
001
 62
    60
370
    50
100
AcDbVertex
100
AcDb2dVertex
 10
56.419055
 20
34.04683
 30
0.0
  0
VERTEX
  5
29C
330
299
100
AcDbEntity
  8
001
 62
    60
370
    50
100
AcDbVertex
100
AcDb2dVertex
 10
56.511596
 20
34.149799
 30
0.0
  0
VERTEX
  5
29D
330
299
100
AcDbEntity
  8
001
 62
    60
370
    50
100
AcDbVertex
100
AcDb2dVertex
 10
56.629946
 20
34.299076
 30
0.0
  0
VERTEX
  5
29E
330
299
100
AcDbEntity
  8
001
 62
    60
370
    50
100
AcDbVertex
100
AcDb2dVertex
 10
56.722966
 20
34.443261
 30
0.0
  0
VERTEX
  5
29F
330
299
100
AcDbEntity
  8
001
 62
    60
370
    50
100
AcDbVertex
100
AcDb2dVertex
 10
56.793463
 20
34.584549
 30
0.0
  0
VERTEX
  5
2A0
330
299
100
AcDbEntity
  8
001
 62
    60
370
    50
100
AcDbVertex
100
AcDb2dVertex
 10
56.854414
 20
34.735455
 30
0.0
  0
VERTEX
  5
2A1
330
299
100
AcDbEntity
  8
001
 62
    60
370
    50
100
AcDbVertex
100
AcDb2dVertex
 10
56.904636
 20
34.894576
 30
0.0
  0
VERTEX
  5
2A2
330
299
100
AcDbEntity
  8
001
 62
    60
370
    50
100
AcDbVertex
100
AcDb2dVertex
 10
56.966669
 20
35.38637
 30
0.0
  0
VERTEX
  5
2A3
330
299
100
AcDbEntity
  8
001
 62
    60
370
    50
100
AcDbVertex
100
AcDb2dVertex
 10
56.898837
 20
35.875774
 30
0.0
  0
VERTEX
  5
2A4
330
299
100
AcDbEntity
  8
001
 62
    60
370
    50
100
AcDbVertex
100
AcDb2dVertex
 10
56.783603
 20
36.187249
 30
0.0
  0
VERTEX
  5
2A5
330
299
100
AcDbEntity
  8
001
 62
    60
370
    50
100
AcDbVertex
100
AcDb2dVertex
 10
56.617094
 20
36.473539
 30
0.0
  0
VERTEX
  5
2A6
330
299
100
AcDbEntity
  8
001
 62
    60
370
    50
100
AcDbVertex
100
AcDb2dVertex
 10
56.515616
 20
36.605198
 30
0.0
  0
VERTEX
  5
2A7
330
299
100
AcDbEntity
  8
001
 62
    60
370
    50
100
AcDbVertex
100
AcDb2dVertex
 10
56.403211
 20
36.727514
 30
0.0
  0
VERTEX
  5
2A8
330
299
100
AcDbEntity
  8
001
 62
    60
370
    50
100
AcDbVertex
100
AcDb2dVertex
 10
56.280688
 20
36.839694
 30
0.0
  0
VERTEX
  5
2A9
330
299
100
AcDbEntity
  8
001
 62
    60
370
    50
100
AcDbVertex
100
AcDb2dVertex
 10
56.148842
 20
36.94093
 30
0.0
  0
VERTEX
  5
2AA
330
299
100
AcDbEntity
  8
001
 62
    60
370
    50
100
AcDbVertex
100
AcDb2dVertex
 10
55.862242
 20
37.10691
 30
0.0
  0
VERTEX
  5
2AB
330
299
100
AcDbEntity
  8
001
 62
    60
370
    50
100
AcDbVertex
100
AcDb2dVertex
 10
55.55056
 20
37.221573
 30
0.0
  0
VERTEX
  5
2AC
330
299
100
AcDbEntity
  8
001
 62
    60
370
    50
100
AcDbVertex
100
AcDb2dVertex
 10
55.061065
 20
37.288519
 30
0.0
  0
VERTEX
  5
2AD
330
299
100
AcDbEntity
  8
001
 62
    60
370
    50
100
AcDbVertex
100
AcDb2dVertex
 10
54.569353
 20
37.225568
 30
0.0
  0
VERTEX
  5
2AE
330
299
100
AcDbEntity
  8
001
 62
    60
370
    50
100
AcDbVertex
100
AcDb2dVertex
 10
54.410293
 20
37.175039
 30
0.0
  0
VERTEX
  5
2AF
330
299
100
AcDbEntity
  8
001
 62
    60
370
    50
100
AcDbVertex
100
AcDb2dVertex
 10
54.259531
 20
37.113824
 30
0.0
  0
VERTEX
  5
2B0
330
299
100
AcDbEntity
  8
001
 62
    60
370
    50
100
AcDbVertex
100
AcDb2dVertex
 10
54.11848
 20
37.043114
 30
0.0
  0
VERTEX
  5
2B1
330
299
100
AcDbEntity
  8
001
 62
    60
370
    50
100
AcDbVertex
100
AcDb2dVertex
 10
53.974359
 20
36.949782
 30
0.0
  0
VERTEX
  5
2B2
330
299
100
AcDbEntity
  8
001
 62
    60
370
    50
100
AcDbVertex
100
AcDb2dVertex
 10
53.830034
 20
36.835409
 30
0.0
  0
VERTEX
  5
2B3
330
299
100
AcDbEntity
  8
001
 62
    60
370
    50
100
AcDbVertex
100
AcDb2dVertex
 10
53.7304
 20
36.746294
 30
0.0
  0
SEQEND
  5
29A
330
299
100
AcDbEntity
  8
001
370
    50
  0
POLYLINE
  5
2B4
330
1F
100
AcDbEntity
  8
001
 62
   253
370
    50
100
AcDb2dPolyline
 66
     1
 10
0.0
 20
0.0
 30
0.0
  0
VERTEX
  5
2B6
330
2B4
100
AcDbEntity
  8
001
 62
   253
370
    50
100
AcDbVertex
100
AcDb2dVertex
 10
60.695226
 20
71.479488
 30
0.0
  0
VERTEX
  5
2B7
330
2B4
100
AcDbEntity
  8
001
 62
   253
370
    50
100
AcDbVertex
100
AcDb2dVertex
 10
61.222839
 20
71.730251
 30
0.0
  0
VERTEX
  5
2B8
330
2B4
100
AcDbEntity
  8
001
 62
   253
370
    50
100
AcDbVertex
100
AcDb2dVertex
 10
61.739838
 20
72.000899
 30
0.0
  0
VERTEX
  5
2B9
330
2B4
100
AcDbEntity
  8
001
 62
   253
370
    50
100
AcDbVertex
100
AcDb2dVertex
 10
61.970574
 20
72.136724
 30
0.0
  0
VERTEX
  5
2BA
330
2B4
100
AcDbEntity
  8
001
 62
   253
370
    50
100
AcDbVertex
100
AcDb2dVertex
 10
62.196452
 20
72.280476
 30
0.0
  0
VERTEX
  5
2BB
330
2B4
100
AcDbEntity
  8
001
 62
   253
370
    50
100
AcDbVertex
100
AcDb2dVertex
 10
62.39749
 20
72.418092
 30
0.0
  0
VERTEX
  5
2BC
330
2B4
100
AcDbEntity
  8
001
 62
   253
370
    50
100
AcDbVertex
100
AcDb2dVertex
 10
62.593667
 20
72.562943
 30
0.0
  0
VERTEX
  5
2BD
330
2B4
100
AcDbEntity
  8
001
 62
   253
370
    50
100
AcDbVertex
100
AcDb2dVertex
 10
62.903016
 20
72.820414
 30
0.0
  0
VERTEX
  5
2BE
330
2B4
100
AcDbEntity
  8
001
 62
   253
370
    50
100
AcDbVertex
100
AcDb2dVertex
 10
63.184245
 20
73.106951
 30
0.0
  0
VERTEX
  5
2BF
330
2B4
100
AcDbEntity
  8
001
 62
   253
370
    50
100
AcDbVertex
100
AcDb2dVertex
 10
63.291469
 20
73.238661
 30
0.0
  0
VERTEX
  5
2C0
330
2B4
100
AcDbEntity
  8
001
 62
   253
370
    50
100
AcDbVertex
100
AcDb2dVertex
 10
63.38989
 20
73.377565
 30
0.0
  0
VERTEX
  5
2C1
330
2B4
100
AcDbEntity
  8
001
 62
   253
370
    50
100
AcDbVertex
100
AcDb2dVertex
 10
63.465752
 20
73.504107
 30
0.0
  0
VERTEX
  5
2C2
330
2B4
100
AcDbEntity
  8
001
 62
   253
370
    50
100
AcDbVertex
100
AcDb2dVertex
 10
63.526659
 20
73.637563
 30
0.0
  0
VERTEX
  5
2C3
330
2B4
100
AcDbEntity
  8
001
 62
   253
370
    50
100
AcDbVertex
100
AcDb2dVertex
 10
63.566439
 20
73.769835
 30
0.0
  0
VERTEX
  5
2C4
330
2B4
100
AcDbEntity
  8
001
 62
   253
370
    50
100
AcDbVertex
100
AcDb2dVertex
 10
63.596296
 20
73.9056
 30
0.0
  0
SEQEND
  5
2B5
330
2B4
100
AcDbEntity
  8
001
370
    50
  0
LINE
  5
2C5
330
1F
100
AcDbEntity
  8
001
 62
   253
370
    50
100
AcDbLine
 10
65.175476
 20
74.360224
 30
0.0
 11
63.503068
 21
74.360224
 31
0.0
  0
POLYLINE
  5
2C6
330
1F
100
AcDbEntity
  8
001
 62
   253
370
    50
100
AcDb2dPolyline
 66
     1
 10
0.0
 20
0.0
 30
0.0
  0
VERTEX
  5
2C8
330
2C6
100
AcDbEntity
  8
001
 62
   253
370
    50
100
AcDbVertex
100
AcDb2dVertex
 10
70.525761
 20
37.171354
 30
0.0
  0
VERTEX
  5
2C9
330
2C6
100
AcDbEntity
  8
001
 62
   253
370
    50
100
AcDbVertex
100
AcDb2dVertex
 10
71.022181
 20
37.741208
 30
0.0
  0
VERTEX
  5
2CA
330
2C6
100
AcDbEntity
  8
001
 62
   253
370
    50
100
AcDbVertex
100
AcDb2dVertex
 10
71.508414
 20
38.319505
 30
0.0
  0
VERTEX
  5
2CB
330
2C6
100
AcDbEntity
  8
001
 62
   253
370
    50
100
AcDbVertex
100
AcDb2dVertex
 10
72.16406
 20
39.162798
 30
0.0
  0
VERTEX
  5
2CC
330
2C6
100
AcDbEntity
  8
001
 62
   253
370
    50
100
AcDbVertex
100
AcDb2dVertex
 10
72.783018
 20
40.033861
 30
0.0
  0
VERTEX
  5
2CD
330
2C6
100
AcDbEntity
  8
001
 62
   253
370
    50
100
AcDbVertex
100
AcDb2dVertex
 10
73.368456
 20
40.927624
 30
0.0
  0
VERTEX
  5
2CE
330
2C6
100
AcDbEntity
  8
001
 62
   253
370
    50
100
AcDbVertex
100
AcDb2dVertex
 10
73.92004
 20
41.842467
 30
0.0
  0
VERTEX
  5
2CF
330
2C6
100
AcDbEntity
  8
001
 62
   253
370
    50
100
AcDbVertex
100
AcDb2dVertex
 10
74.433604
 20
42.771615
 30
0.0
  0
VERTEX
  5
2D0
330
2C6
100
AcDbEntity
  8
001
 62
   253
370
    50
100
AcDbVertex
100
AcDb2dVertex
 10
74.912229
 20
43.719304
 30
0.0
  0
VERTEX
  5
2D1
330
2C6
100
AcDbEntity
  8
001
 62
   253
370
    50
100
AcDbVertex
100
AcDb2dVertex
 10
75.349862
 20
44.671159
 30
0.0
  0
VERTEX
  5
2D2
330
2C6
100
AcDbEntity
  8
001
 62
   253
370
    50
100
AcDbVertex
100
AcDb2dVertex
 10
75.75233
 20
45.638354
 30
0.0
  0
VERTEX
  5
2D3
330
2C6
100
AcDbEntity
  8
001
 62
   253
370
    50
100
AcDbVertex
100
AcDb2dVertex
 10
76.098804
 20
46.562101
 30
0.0
  0
VERTEX
  5
2D4
330
2C6
100
AcDbEntity
  8
001
 62
   253
370
    50
100
AcDbVertex
100
AcDb2dVertex
 10
76.41461
 20
47.496794
 30
0.0
  0
VERTEX
  5
2D5
330
2C6
100
AcDbEntity
  8
001
 62
   253
370
    50
100
AcDbVertex
100
AcDb2dVertex
 10
76.697523
 20
48.429066
 30
0.0
  0
VERTEX
  5
2D6
330
2C6
100
AcDbEntity
  8
001
 62
   253
370
    50
100
AcDbVertex
100
AcDb2dVertex
 10
76.952528
 20
49.369348
 30
0.0
  0
VERTEX
  5
2D7
330
2C6
100
AcDbEntity
  8
001
 62
   253
370
    50
100
AcDbVertex
100
AcDb2dVertex
 10
77.176512
 20
50.299536
 30
0.0
  0
VERTEX
  5
2D8
330
2C6
100
AcDbEntity
  8
001
 62
   253
370
    50
100
AcDbVertex
100
AcDb2dVertex
 10
77.374788
 20
51.235532
 30
0.0
  0
VERTEX
  5
2D9
330
2C6
100
AcDbEntity
  8
001
 62
   253
370
    50
100
AcDbVertex
100
AcDb2dVertex
 10
77.543941
 20
52.153223
 30
0.0
  0
VERTEX
  5
2DA
330
2C6
100
AcDbEntity
  8
001
 62
   253
370
    50
100
AcDbVertex
100
AcDb2dVertex
 10
77.690094
 20
53.074865
 30
0.0
  0
VERTEX
  5
2DB
330
2C6
100
AcDbEntity
  8
001
 62
   253
370
    50
100
AcDbVertex
100
AcDb2dVertex
 10
77.822623
 20
54.069132
 30
0.0
  0
VERTEX
  5
2DC
330
2C6
100
AcDbEntity
  8
001
 62
   253
370
    50
100
AcDbVertex
100
AcDb2dVertex
 10
77.930438
 20
55.066388
 30
0.0
  0
VERTEX
  5
2DD
330
2C6
100
AcDbEntity
  8
001
 62
   253
370
    50
100
AcDbVertex
100
AcDb2dVertex
 10
78.011914
 20
56.03664
 30
0.0
  0
VERTEX
  5
2DE
330
2C6
100
AcDbEntity
  8
001
 62
   253
370
    50
100
AcDbVertex
100
AcDb2dVertex
 10
78.070266
 20
57.008545
 30
0.0
  0
VERTEX
  5
2DF
330
2C6
100
AcDbEntity
  8
001
 62
   253
370
    50
100
AcDbVertex
100
AcDb2dVertex
 10
78.104221
 20
57.947322
 30
0.0
  0
VERTEX
  5
2E0
330
2C6
100
AcDbEntity
  8
001
 62
   253
370
    50
100
AcDbVertex
100
AcDb2dVertex
 10
78.115894
 20
58.886641
 30
0.0
  0
VERTEX
  5
2E1
330
2C6
100
AcDbEntity
  8
001
 62
   253
370
    50
100
AcDbVertex
100
AcDb2dVertex
 10
78.105733
 20
59.786566
 30
0.0
  0
VERTEX
  5
2E2
330
2C6
100
AcDbEntity
  8
001
 62
   253
370
    50
100
AcDbVertex
100
AcDb2dVertex
 10
78.073636
 20
60.685981
 30
0.0
  0
VERTEX
  5
2E3
330
2C6
100
AcDbEntity
  8
001
 62
   253
370
    50
100
AcDbVertex
100
AcDb2dVertex
 10
78.023293
 20
61.512681
 30
0.0
  0
VERTEX
  5
2E4
330
2C6
100
AcDbEntity
  8
001
 62
   253
370
    50
100
AcDbVertex
100
AcDb2dVertex
 10
77.950047
 20
62.337648
 30
0.0
  0
VERTEX
  5
2E5
330
2C6
100
AcDbEntity
  8
001
 62
   253
370
    50
100
AcDbVertex
100
AcDb2dVertex
 10
77.855145
 20
63.126467
 30
0.0
  0
VERTEX
  5
2E6
330
2C6
100
AcDbEntity
  8
001
 62
   253
370
    50
100
AcDbVertex
100
AcDb2dVertex
 10
77.732906
 20
63.91152
 30
0.0
  0
VERTEX
  5
2E7
330
2C6
100
AcDbEntity
  8
001
 62
   253
370
    50
100
AcDbVertex
100
AcDb2dVertex
 10
77.587356
 20
64.65719
 30
0.0
  0
VERTEX
  5
2E8
330
2C6
100
AcDbEntity
  8
001
 62
   253
370
    50
100
AcDbVertex
100
AcDb2dVertex
 10
77.410198
 20
65.395965
 30
0.0
  0
VERTEX
  5
2E9
330
2C6
100
AcDbEntity
  8
001
 62
   253
370
    50
100
AcDbVertex
100
AcDb2dVertex
 10
77.207923
 20
66.093335
 30
0.0
  0
VERTEX
  5
2EA
330
2C6
100
AcDbEntity
  8
001
 62
   253
370
    50
100
AcDbVertex
100
AcDb2dVertex
 10
76.969905
 20
66.779347
 30
0.0
  0
VERTEX
  5
2EB
330
2C6
100
AcDbEntity
  8
001
 62
   253
370
    50
100
AcDbVertex
100
AcDb2dVertex
 10
76.704692
 20
67.423595
 30
0.0
  0
VERTEX
  5
2EC
330
2C6
100
AcDbEntity
  8
001
 62
   253
370
    50
100
AcDbVertex
100
AcDb2dVertex
 10
76.400011
 20
68.050031
 30
0.0
  0
VERTEX
  5
2ED
330
2C6
100
AcDbEntity
  8
001
 62
   253
370
    50
100
AcDbVertex
100
AcDb2dVertex
 10
76.080089
 20
68.610752
 30
0.0
  0
VERTEX
  5
2EE
330
2C6
100
AcDbEntity
  8
001
 62
   253
370
    50
100
AcDbVertex
100
AcDb2dVertex
 10
75.724005
 20
69.149249
 30
0.0
  0
VERTEX
  5
2EF
330
2C6
100
AcDbEntity
  8
001
 62
   253
370
    50
100
AcDbVertex
100
AcDb2dVertex
 10
75.333727
 20
69.661276
 30
0.0
  0
VERTEX
  5
2F0
330
2C6
100
AcDbEntity
  8
001
 62
   253
370
    50
100
AcDbVertex
100
AcDb2dVertex
 10
74.910174
 20
70.146149
 30
0.0
  0
VERTEX
  5
2F1
330
2C6
100
AcDbEntity
  8
001
 62
   253
370
    50
100
AcDbVertex
100
AcDb2dVertex
 10
74.450131
 20
70.607032
 30
0.0
  0
VERTEX
  5
2F2
330
2C6
100
AcDbEntity
  8
001
 62
   253
370
    50
100
AcDbVertex
100
AcDb2dVertex
 10
73.96088
 20
71.036796
 30
0.0
  0
VERTEX
  5
2F3
330
2C6
100
AcDbEntity
  8
001
 62
   253
370
    50
100
AcDbVertex
100
AcDb2dVertex
 10
73.43191
 20
71.443989
 30
0.0
  0
VERTEX
  5
2F4
330
2C6
100
AcDbEntity
  8
001
 62
   253
370
    50
100
AcDbVertex
100
AcDb2dVertex
 10
72.878487
 20
71.817253
 30
0.0
  0
VERTEX
  5
2F5
330
2C6
100
AcDbEntity
  8
001
 62
   253
370
    50
100
AcDbVertex
100
AcDb2dVertex
 10
72.279177
 20
72.17091
 30
0.0
  0
VERTEX
  5
2F6
330
2C6
100
AcDbEntity
  8
001
 62
   253
370
    50
100
AcDbVertex
100
AcDb2dVertex
 10
71.661187
 20
72.490966
 30
0.0
  0
VERTEX
  5
2F7
330
2C6
100
AcDbEntity
  8
001
 62
   253
370
    50
100
AcDbVertex
100
AcDb2dVertex
 10
70.99437
 20
72.795082
 30
0.0
  0
VERTEX
  5
2F8
330
2C6
100
AcDbEntity
  8
001
 62
   253
370
    50
100
AcDbVertex
100
AcDb2dVertex
 10
70.314338
 20
73.068285
 30
0.0
  0
VERTEX
  5
2F9
330
2C6
100
AcDbEntity
  8
001
 62
   253
370
    50
100
AcDbVertex
100
AcDb2dVertex
 10
69.587694
 20
73.325467
 30
0.0
  0
VERTEX
  5
2FA
330
2C6
100
AcDbEntity
  8
001
 62
   253
370
    50
100
AcDbVertex
100
AcDb2dVertex
 10
68.851811
 20
73.555151
 30
0.0
  0
VERTEX
  5
2FB
330
2C6
100
AcDbEntity
  8
001
 62
   253
370
    50
100
AcDbVertex
100
AcDb2dVertex
 10
68.072954
 20
73.769515
 30
0.0
  0
VERTEX
  5
2FC
330
2C6
100
AcDbEntity
  8
001
 62
   253
370
    50
100
AcDbVertex
100
AcDb2dVertex
 10
67.287479
 20
73.957504
 30
0.0
  0
VERTEX
  5
2FD
330
2C6
100
AcDbEntity
  8
001
 62
   253
370
    50
100
AcDbVertex
100
AcDb2dVertex
 10
66.233927
 20
74.170591
 30
0.0
  0
VERTEX
  5
2FE
330
2C6
100
AcDbEntity
  8
001
 62
   253
370
    50
100
AcDbVertex
100
AcDb2dVertex
 10
65.175476
 20
74.360224
 30
0.0
  0
SEQEND
  5
2C7
330
2C6
100
AcDbEntity
  8
001
370
    50
  0
POLYLINE
  5
2FF
330
1F
100
AcDbEntity
  8
001
 62
   253
370
    50
100
AcDb2dPolyline
 66
     1
 10
0.0
 20
0.0
 30
0.0
  0
VERTEX
  5
301
330
2FF
100
AcDbEntity
  8
001
 62
   253
370
    50
100
AcDbVertex
100
AcDb2dVertex
 10
56.355566
 20
50.071335
 30
0.0
  0
VERTEX
  5
302
330
2FF
100
AcDbEntity
  8
001
 62
   253
370
    50
100
AcDbVertex
100
AcDb2dVertex
 10
56.546893
 20
50.008775
 30
0.0
  0
VERTEX
  5
303
330
2FF
100
AcDbEntity
  8
001
 62
   253
370
    50
100
AcDbVertex
100
AcDb2dVertex
 10
56.737849
 20
49.945101
 30
0.0
  0
VERTEX
  5
304
330
2FF
100
AcDbEntity
  8
001
 62
   253
370
    50
100
AcDbVertex
100
AcDb2dVertex
 10
57.566624
 20
49.641149
 30
0.0
  0
VERTEX
  5
305
330
2FF
100
AcDbEntity
  8
001
 62
   253
370
    50
100
AcDbVertex
100
AcDb2dVertex
 10
58.380622
 20
49.29892
 30
0.0
  0
VERTEX
  5
306
330
2FF
100
AcDbEntity
  8
001
 62
   253
370
    50
100
AcDbVertex
100
AcDb2dVertex
 10
59.179753
 20
48.922156
 30
0.0
  0
VERTEX
  5
307
330
2FF
100
AcDbEntity
  8
001
 62
   253
370
    50
100
AcDbVertex
100
AcDb2dVertex
 10
59.96253
 20
48.512719
 30
0.0
  0
VERTEX
  5
308
330
2FF
100
AcDbEntity
  8
001
 62
   253
370
    50
100
AcDbVertex
100
AcDb2dVertex
 10
60.727196
 20
48.072255
 30
0.0
  0
VERTEX
  5
309
330
2FF
100
AcDbEntity
  8
001
 62
   253
370
    50
100
AcDbVertex
100
AcDb2dVertex
 10
61.473885
 20
47.601904
 30
0.0
  0
VERTEX
  5
30A
330
2FF
100
AcDbEntity
  8
001
 62
   253
370
    50
100
AcDbVertex
100
AcDb2dVertex
 10
62.199011
 20
47.10533
 30
0.0
  0
VERTEX
  5
30B
330
2FF
100
AcDbEntity
  8
001
 62
   253
370
    50
100
AcDbVertex
100
AcDb2dVertex
 10
62.905001
 20
46.581883
 30
0.0
  0
VERTEX
  5
30C
330
2FF
100
AcDbEntity
  8
001
 62
   253
370
    50
100
AcDbVertex
100
AcDb2dVertex
 10
63.836811
 20
45.826089
 30
0.0
  0
VERTEX
  5
30D
330
2FF
100
AcDbEntity
  8
001
 62
   253
370
    50
100
AcDbVertex
100
AcDb2dVertex
 10
64.730918
 20
45.025832
 30
0.0
  0
VERTEX
  5
30E
330
2FF
100
AcDbEntity
  8
001
 62
   253
370
    50
100
AcDbVertex
100
AcDb2dVertex
 10
65.590174
 20
44.180577
 30
0.0
  0
VERTEX
  5
30F
330
2FF
100
AcDbEntity
  8
001
 62
   253
370
    50
100
AcDbVertex
100
AcDb2dVertex
 10
66.40923
 20
43.296488
 30
0.0
  0
VERTEX
  5
310
330
2FF
100
AcDbEntity
  8
001
 62
   253
370
    50
100
AcDbVertex
100
AcDb2dVertex
 10
67.188132
 20
42.374986
 30
0.0
  0
VERTEX
  5
311
330
2FF
100
AcDbEntity
  8
001
 62
   253
370
    50
100
AcDbVertex
100
AcDb2dVertex
 10
67.926478
 20
41.420341
 30
0.0
  0
VERTEX
  5
312
330
2FF
100
AcDbEntity
  8
001
 62
   253
370
    50
100
AcDbVertex
100
AcDb2dVertex
 10
68.645185
 20
40.403766
 30
0.0
  0
VERTEX
  5
313
330
2FF
100
AcDbEntity
  8
001
 62
   253
370
    50
100
AcDbVertex
100
AcDb2dVertex
 10
69.314347
 20
39.354624
 30
0.0
  0
VERTEX
  5
314
330
2FF
100
AcDbEntity
  8
001
 62
   253
370
    50
100
AcDbVertex
100
AcDb2dVertex
 10
69.934413
 20
38.271397
 30
0.0
  0
VERTEX
  5
315
330
2FF
100
AcDbEntity
  8
001
 62
   253
370
    50
100
AcDbVertex
100
AcDb2dVertex
 10
70.525761
 20
37.171354
 30
0.0
  0
SEQEND
  5
300
330
2FF
100
AcDbEntity
  8
001
370
    50
  0
POLYLINE
  5
316
330
1F
100
AcDbEntity
  8
001
 62
   253
370
    50
100
AcDb2dPolyline
 66
     1
 10
0.0
 20
0.0
 30
0.0
  0
VERTEX
  5
318
330
316
100
AcDbEntity
  8
001
 62
   253
370
    50
100
AcDbVertex
100
AcDb2dVertex
 10
56.355566
 20
50.071335
 30
0.0
  0
VERTEX
  5
319
330
316
100
AcDbEntity
  8
001
 62
   253
370
    50
100
AcDbVertex
100
AcDb2dVertex
 10
56.758913
 20
50.923936
 30
0.0
  0
VERTEX
  5
31A
330
316
100
AcDbEntity
  8
001
 62
   253
370
    50
100
AcDbVertex
100
AcDb2dVertex
 10
57.145454
 20
51.783965
 30
0.0
  0
VERTEX
  5
31B
330
316
100
AcDbEntity
  8
001
 62
   253
370
    50
100
AcDbVertex
100
AcDb2dVertex
 10
57.429908
 20
52.47416
 30
0.0
  0
VERTEX
  5
31C
330
316
100
AcDbEntity
  8
001
 62
   253
370
    50
100
AcDbVertex
100
AcDb2dVertex
 10
57.693765
 20
53.172627
 30
0.0
  0
VERTEX
  5
31D
330
316
100
AcDbEntity
  8
001
 62
   253
370
    50
100
AcDbVertex
100
AcDb2dVertex
 10
57.932028
 20
53.863759
 30
0.0
  0
VERTEX
  5
31E
330
316
100
AcDbEntity
  8
001
 62
   253
370
    50
100
AcDbVertex
100
AcDb2dVertex
 10
58.147949
 20
54.562135
 30
0.0
  0
VERTEX
  5
31F
330
316
100
AcDbEntity
  8
001
 62
   253
370
    50
100
AcDbVertex
100
AcDb2dVertex
 10
58.338464
 20
55.267564
 30
0.0
  0
VERTEX
  5
320
330
316
100
AcDbEntity
  8
001
 62
   253
370
    50
100
AcDbVertex
100
AcDb2dVertex
 10
58.500981
 20
55.979968
 30
0.0
  0
VERTEX
  5
321
330
316
100
AcDbEntity
  8
001
 62
   253
370
    50
100
AcDbVertex
100
AcDb2dVertex
 10
58.629789
 20
56.678781
 30
0.0
  0
VERTEX
  5
322
330
316
100
AcDbEntity
  8
001
 62
   253
370
    50
100
AcDbVertex
100
AcDb2dVertex
 10
58.727989
 20
57.382554
 30
0.0
  0
VERTEX
  5
323
330
316
100
AcDbEntity
  8
001
 62
   253
370
    50
100
AcDbVertex
100
AcDb2dVertex
 10
58.768602
 20
57.777653
 30
0.0
  0
VERTEX
  5
324
330
316
100
AcDbEntity
  8
001
 62
   253
370
    50
100
AcDbVertex
100
AcDb2dVertex
 10
58.796877
 20
58.173703
 30
0.0
  0
VERTEX
  5
325
330
316
100
AcDbEntity
  8
001
 62
   253
370
    50
100
AcDbVertex
100
AcDb2dVertex
 10
58.81201
 20
58.564738
 30
0.0
  0
VERTEX
  5
326
330
316
100
AcDbEntity
  8
001
 62
   253
370
    50
100
AcDbVertex
100
AcDb2dVertex
 10
58.820049
 20
58.95611
 30
0.0
  0
SEQEND
  5
317
330
316
100
AcDbEntity
  8
001
370
    50
  0
POLYLINE
  5
327
330
1F
100
AcDbEntity
  8
001
 62
   253
370
    50
100
AcDb2dPolyline
 66
     1
 10
0.0
 20
0.0
 30
0.0
  0
VERTEX
  5
329
330
327
100
AcDbEntity
  8
001
 62
   253
370
    50
100
AcDbVertex
100
AcDb2dVertex
 10
58.820049
 20
58.95611
 30
0.0
  0
VERTEX
  5
32A
330
327
100
AcDbEntity
  8
001
 62
   253
370
    50
100
AcDbVertex
100
AcDb2dVertex
 10
58.808233
 20
59.426772
 30
0.0
  0
VERTEX
  5
32B
330
327
100
AcDbEntity
  8
001
 62
   253
370
    50
100
AcDbVertex
100
AcDb2dVertex
 10
58.785161
 20
59.896778
 30
0.0
  0
VERTEX
  5
32C
330
327
100
AcDbEntity
  8
001
 62
   253
370
    50
100
AcDbVertex
100
AcDb2dVertex
 10
58.742967
 20
60.356133
 30
0.0
  0
VERTEX
  5
32D
330
327
100
AcDbEntity
  8
001
 62
   253
370
    50
100
AcDbVertex
100
AcDb2dVertex
 10
58.68167
 20
60.813515
 30
0.0
  0
VERTEX
  5
32E
330
327
100
AcDbEntity
  8
001
 62
   253
370
    50
100
AcDbVertex
100
AcDb2dVertex
 10
58.603461
 20
61.267232
 30
0.0
  0
VERTEX
  5
32F
330
327
100
AcDbEntity
  8
001
 62
   253
370
    50
100
AcDbVertex
100
AcDb2dVertex
 10
58.508164
 20
61.71758
 30
0.0
  0
VERTEX
  5
330
330
327
100
AcDbEntity
  8
001
 62
   253
370
    50
100
AcDbVertex
100
AcDb2dVertex
 10
58.397405
 20
62.156372
 30
0.0
  0
VERTEX
  5
331
330
327
100
AcDbEntity
  8
001
 62
   253
370
    50
100
AcDbVertex
100
AcDb2dVertex
 10
58.269883
 20
62.590652
 30
0.0
  0
VERTEX
  5
332
330
327
100
AcDbEntity
  8
001
 62
   253
370
    50
100
AcDbVertex
100
AcDb2dVertex
 10
58.022696
 20
63.2988
 30
0.0
  0
VERTEX
  5
333
330
327
100
AcDbEntity
  8
001
 62
   253
370
    50
100
AcDbVertex
100
AcDb2dVertex
 10
57.732831
 20
63.990719
 30
0.0
  0
VERTEX
  5
334
330
327
100
AcDbEntity
  8
001
 62
   253
370
    50
100
AcDbVertex
100
AcDb2dVertex
 10
57.409461
 20
64.651625
 30
0.0
  0
VERTEX
  5
335
330
327
100
AcDbEntity
  8
001
 62
   253
370
    50
100
AcDbVertex
100
AcDb2dVertex
 10
57.049844
 20
65.293431
 30
0.0
  0
VERTEX
  5
336
330
327
100
AcDbEntity
  8
001
 62
   253
370
    50
100
AcDbVertex
100
AcDb2dVertex
 10
56.651878
 20
65.922094
 30
0.0
  0
VERTEX
  5
337
330
327
100
AcDbEntity
  8
001
 62
   253
370
    50
100
AcDbVertex
100
AcDb2dVertex
 10
56.22292
 20
66.530216
 30
0.0
  0
VERTEX
  5
338
330
327
100
AcDbEntity
  8
001
 62
   253
370
    50
100
AcDbVertex
100
AcDb2dVertex
 10
55.77147
 20
67.110809
 30
0.0
  0
VERTEX
  5
339
330
327
100
AcDbEntity
  8
001
 62
   253
370
    50
100
AcDbVertex
100
AcDb2dVertex
 10
55.292861
 20
67.668861
 30
0.0
  0
VERTEX
  5
33A
330
327
100
AcDbEntity
  8
001
 62
   253
370
    50
100
AcDbVertex
100
AcDb2dVertex
 10
54.946301
 20
68.041891
 30
0.0
  0
VERTEX
  5
33B
330
327
100
AcDbEntity
  8
001
 62
   253
370
    50
100
AcDbVertex
100
AcDb2dVertex
 10
54.593122
 20
68.408833
 30
0.0
  0
SEQEND
  5
328
330
327
100
AcDbEntity
  8
001
370
    50
  0
POLYLINE
  5
33C
330
1F
100
AcDbEntity
  8
001
 62
   253
370
    50
100
AcDb2dPolyline
 66
     1
 10
0.0
 20
0.0
 30
0.0
  0
VERTEX
  5
33E
330
33C
100
AcDbEntity
  8
001
 62
   253
370
    50
100
AcDbVertex
100
AcDb2dVertex
 10
60.695226
 20
71.479488
 30
0.0
  0
VERTEX
  5
33F
330
33C
100
AcDbEntity
  8
001
 62
   253
370
    50
100
AcDbVertex
100
AcDb2dVertex
 10
59.755985
 20
71.056933
 30
0.0
  0
VERTEX
  5
340
330
33C
100
AcDbEntity
  8
001
 62
   253
370
    50
100
AcDbVertex
100
AcDb2dVertex
 10
58.394813
 20
70.414915
 30
0.0
  0
VERTEX
  5
341
330
33C
100
AcDbEntity
  8
001
 62
   253
370
    50
100
AcDbVertex
100
AcDb2dVertex
 10
56.123725
 20
69.250687
 30
0.0
  0
VERTEX
  5
342
330
33C
100
AcDbEntity
  8
001
 62
   253
370
    50
100
AcDbVertex
100
AcDb2dVertex
 10
54.593122
 20
68.408833
 30
0.0
  0
SEQEND
  5
33D
330
33C
100
AcDbEntity
  8
001
370
    50
  0
POLYLINE
  5
343
330
1F
100
AcDbEntity
  8
001
 62
   253
370
    50
100
AcDb2dPolyline
 66
     1
 10
0.0
 20
0.0
 30
0.0
  0
VERTEX
  5
345
330
343
100
AcDbEntity
  8
001
 62
   253
370
    50
100
AcDbVertex
100
AcDb2dVertex
 10
78.044488
 20
103.837183
 30
0.0
  0
VERTEX
  5
346
330
343
100
AcDbEntity
  8
001
 62
   253
370
    50
100
AcDbVertex
100
AcDb2dVertex
 10
77.978829
 20
104.033333
 30
0.0
  0
VERTEX
  5
347
330
343
100
AcDbEntity
  8
001
 62
   253
370
    50
100
AcDbVertex
100
AcDb2dVertex
 10
77.908629
 20
104.227741
 30
0.0
  0
VERTEX
  5
348
330
343
100
AcDbEntity
  8
001
 62
   253
370
    50
100
AcDbVertex
100
AcDb2dVertex
 10
77.7638
 20
104.56687
 30
0.0
  0
VERTEX
  5
349
330
343
100
AcDbEntity
  8
001
 62
   253
370
    50
100
AcDbVertex
100
AcDb2dVertex
 10
77.599713
 20
104.897621
 30
0.0
  0
VERTEX
  5
34A
330
343
100
AcDbEntity
  8
001
 62
   253
370
    50
100
AcDbVertex
100
AcDb2dVertex
 10
77.448915
 20
105.178163
 30
0.0
  0
VERTEX
  5
34B
330
343
100
AcDbEntity
  8
001
 62
   253
370
    50
100
AcDbVertex
100
AcDb2dVertex
 10
77.290723
 20
105.454395
 30
0.0
  0
VERTEX
  5
34C
330
343
100
AcDbEntity
  8
001
 62
   253
370
    50
100
AcDbVertex
100
AcDb2dVertex
 10
77.096472
 20
105.77172
 30
0.0
  0
VERTEX
  5
34D
330
343
100
AcDbEntity
  8
001
 62
   253
370
    50
100
AcDbVertex
100
AcDb2dVertex
 10
76.893203
 20
106.083446
 30
0.0
  0
VERTEX
  5
34E
330
343
100
AcDbEntity
  8
001
 62
   253
370
    50
100
AcDbVertex
100
AcDb2dVertex
 10
76.651226
 20
106.433567
 30
0.0
  0
VERTEX
  5
34F
330
343
100
AcDbEntity
  8
001
 62
   253
370
    50
100
AcDbVertex
100
AcDb2dVertex
 10
76.400011
 20
106.777093
 30
0.0
  0
VERTEX
  5
350
330
343
100
AcDbEntity
  8
001
 62
   253
370
    50
100
AcDbVertex
100
AcDb2dVertex
 10
76.073579
 20
107.198212
 30
0.0
  0
VERTEX
  5
351
330
343
100
AcDbEntity
  8
001
 62
   253
370
    50
100
AcDbVertex
100
AcDb2dVertex
 10
75.735175
 20
107.609815
 30
0.0
  0
VERTEX
  5
352
330
343
100
AcDbEntity
  8
001
 62
   253
370
    50
100
AcDbVertex
100
AcDb2dVertex
 10
75.34326
 20
108.060309
 30
0.0
  0
VERTEX
  5
353
330
343
100
AcDbEntity
  8
001
 62
   253
370
    50
100
AcDbVertex
100
AcDb2dVertex
 10
74.939044
 20
108.499795
 30
0.0
  0
VERTEX
  5
354
330
343
100
AcDbEntity
  8
001
 62
   253
370
    50
100
AcDbVertex
100
AcDb2dVertex
 10
74.465711
 20
108.986602
 30
0.0
  0
VERTEX
  5
355
330
343
100
AcDbEntity
  8
001
 62
   253
370
    50
100
AcDbVertex
100
AcDb2dVertex
 10
73.979107
 20
109.460172
 30
0.0
  0
VERTEX
  5
356
330
343
100
AcDbEntity
  8
001
 62
   253
370
    50
100
AcDbVertex
100
AcDb2dVertex
 10
73.435419
 20
109.96152
 30
0.0
  0
VERTEX
  5
357
330
343
100
AcDbEntity
  8
001
 62
   253
370
    50
100
AcDbVertex
100
AcDb2dVertex
 10
72.878487
 20
110.448107
 30
0.0
  0
VERTEX
  5
358
330
343
100
AcDbEntity
  8
001
 62
   253
370
    50
100
AcDbVertex
100
AcDb2dVertex
 10
72.284135
 20
110.94049
 30
0.0
  0
VERTEX
  5
359
330
343
100
AcDbEntity
  8
001
 62
   253
370
    50
100
AcDbVertex
100
AcDb2dVertex
 10
71.677405
 20
111.417565
 30
0.0
  0
VERTEX
  5
35A
330
343
100
AcDbEntity
  8
001
 62
   253
370
    50
100
AcDbVertex
100
AcDb2dVertex
 10
71.021913
 20
111.906901
 30
0.0
  0
VERTEX
  5
35B
330
343
100
AcDbEntity
  8
001
 62
   253
370
    50
100
AcDbVertex
100
AcDb2dVertex
 10
70.354258
 20
112.379459
 30
0.0
  0
VERTEX
  5
35C
330
343
100
AcDbEntity
  8
001
 62
   253
370
    50
100
AcDbVertex
100
AcDb2dVertex
 10
69.621094
 20
112.870532
 30
0.0
  0
VERTEX
  5
35D
330
343
100
AcDbEntity
  8
001
 62
   253
370
    50
100
AcDbVertex
100
AcDb2dVertex
 10
68.875796
 20
113.343165
 30
0.0
  0
VERTEX
  5
35E
330
343
100
AcDbEntity
  8
001
 62
   253
370
    50
100
AcDbVertex
100
AcDb2dVertex
 10
68.088074
 20
113.816033
 30
0.0
  0
VERTEX
  5
35F
330
343
100
AcDbEntity
  8
001
 62
   253
370
    50
100
AcDbVertex
100
AcDb2dVertex
 10
67.287479
 20
114.266338
 30
0.0
  0
VERTEX
  5
360
330
343
100
AcDbEntity
  8
001
 62
   253
370
    50
100
AcDbVertex
100
AcDb2dVertex
 10
66.237312
 20
114.812019
 30
0.0
  0
VERTEX
  5
361
330
343
100
AcDbEntity
  8
001
 62
   253
370
    50
100
AcDbVertex
100
AcDb2dVertex
 10
65.175476
 20
115.335688
 30
0.0
  0
SEQEND
  5
344
330
343
100
AcDbEntity
  8
001
370
    50
  0
ARC
  5
362
330
1F
100
AcDbEntity
  8
001
 62
   253
370
    50
100
AcDbCircle
 10
49.224216
 20
55.32264
 30
0.0
 40
30.0
100
AcDbArc
 50
302.120975
 51
350.584433
  0
ARC
  5
363
330
1F
100
AcDbEntity
  8
001
 62
   253
370
    50
100
AcDbCircle
 10
49.224216
 20
95.507
 30
0.0
 40
30.0
100
AcDbArc
 50
9.415567
 51
16.158028
  0
LINE
  5
364
330
1F
100
AcDbEntity
  8
001
 62
   253
370
    50
100
AcDbLine
 10
78.820049
 20
100.41482
 30
0.0
 11
78.820049
 21
50.41482
 31
0.0
  0
POLYLINE
  5
365
330
1F
100
AcDbEntity
  8
001
 62
   253
370
    50
100
AcDb2dPolyline
 66
     1
 10
0.0
 20
0.0
 30
0.0
  0
VERTEX
  5
367
330
365
100
AcDbEntity
  8
001
 62
   253
370
    50
100
AcDbVertex
100
AcDb2dVertex
 10
70.525761
 20
107.847773
 30
0.0
  0
VERTEX
  5
368
330
365
100
AcDbEntity
  8
001
 62
   253
370
    50
100
AcDbVertex
100
AcDb2dVertex
 10
71.018076
 20
107.589375
 30
0.0
  0
VERTEX
  5
369
330
365
100
AcDbEntity
  8
001
 62
   253
370
    50
100
AcDbVertex
100
AcDb2dVertex
 10
71.508414
 20
107.327302
 30
0.0
  0
VERTEX
  5
36A
330
365
100
AcDbEntity
  8
001
 62
   253
370
    50
100
AcDbVertex
100
AcDb2dVertex
 10
72.14144
 20
106.97612
 30
0.0
  0
VERTEX
  5
36B
330
365
100
AcDbEntity
  8
001
 62
   253
370
    50
100
AcDbVertex
100
AcDb2dVertex
 10
72.768345
 20
106.614042
 30
0.0
  0
VERTEX
  5
36C
330
365
100
AcDbEntity
  8
001
 62
   253
370
    50
100
AcDbVertex
100
AcDb2dVertex
 10
73.33192
 20
106.27731
 30
0.0
  0
VERTEX
  5
36D
330
365
100
AcDbEntity
  8
001
 62
   253
370
    50
100
AcDbVertex
100
AcDb2dVertex
 10
73.890552
 20
105.932471
 30
0.0
  0
VERTEX
  5
36E
330
365
100
AcDbEntity
  8
001
 62
   253
370
    50
100
AcDbVertex
100
AcDb2dVertex
 10
74.396533
 20
105.609933
 30
0.0
  0
VERTEX
  5
36F
330
365
100
AcDbEntity
  8
001
 62
   253
370
    50
100
AcDbVertex
100
AcDb2dVertex
 10
74.89807
 20
105.280545
 30
0.0
  0
VERTEX
  5
370
330
365
100
AcDbEntity
  8
001
 62
   253
370
    50
100
AcDbVertex
100
AcDb2dVertex
 10
75.326773
 20
104.991399
 30
0.0
  0
VERTEX
  5
371
330
365
100
AcDbEntity
  8
001
 62
   253
370
    50
100
AcDbVertex
100
AcDb2dVertex
 10
75.75233
 20
104.697579
 30
0.0
  0
VERTEX
  5
372
330
365
100
AcDbEntity
  8
001
 62
   253
370
    50
100
AcDbVertex
100
AcDb2dVertex
 10
76.081638
 20
104.465826
 30
0.0
  0
VERTEX
  5
373
330
365
100
AcDbEntity
  8
001
 62
   253
370
    50
100
AcDbVertex
100
AcDb2dVertex
 10
76.409493
 20
104.232203
 30
0.0
  0
VERTEX
  5
374
330
365
100
AcDbEntity
  8
001
 62
   253
370
    50
100
AcDbVertex
100
AcDb2dVertex
 10
76.676297
 20
104.040793
 30
0.0
  0
VERTEX
  5
375
330
365
100
AcDbEntity
  8
001
 62
   253
370
    50
100
AcDbVertex
100
AcDb2dVertex
 10
76.943329
 20
103.849195
 30
0.0
  0
VERTEX
  5
376
330
365
100
AcDbEntity
  8
001
 62
   253
370
    50
100
AcDbVertex
100
AcDb2dVertex
 10
77.156148
 20
103.697967
 30
0.0
  0
VERTEX
  5
377
330
365
100
AcDbEntity
  8
001
 62
   253
370
    50
100
AcDbVertex
100
AcDb2dVertex
 10
77.370936
 20
103.550893
 30
0.0
  0
VERTEX
  5
378
330
365
100
AcDbEntity
  8
001
 62
   253
370
    50
100
AcDbVertex
100
AcDb2dVertex
 10
77.528056
 20
103.449554
 30
0.0
  0
VERTEX
  5
379
330
365
100
AcDbEntity
  8
001
 62
   253
370
    50
100
AcDbVertex
100
AcDb2dVertex
 10
77.690094
 20
103.352828
 30
0.0
  0
VERTEX
  5
37A
330
365
100
AcDbEntity
  8
001
 62
   253
370
    50
100
AcDbVertex
100
AcDb2dVertex
 10
77.805305
 20
103.293153
 30
0.0
  0
VERTEX
  5
37B
330
365
100
AcDbEntity
  8
001
 62
   253
370
    50
100
AcDbVertex
100
AcDb2dVertex
 10
77.927151
 20
103.256265
 30
0.0
  0
VERTEX
  5
37C
330
365
100
AcDbEntity
  8
001
 62
   253
370
    50
100
AcDbVertex
100
AcDb2dVertex
 10
77.950954
 20
103.253396
 30
0.0
  0
VERTEX
  5
37D
330
365
100
AcDbEntity
  8
001
 62
   253
370
    50
100
AcDbVertex
100
AcDb2dVertex
 10
77.974923
 20
103.251287
 30
0.0
  0
SEQEND
  5
366
330
365
100
AcDbEntity
  8
001
370
    50
  0
LINE
  5
37E
330
1F
100
AcDbEntity
  8
001
 62
   253
370
    50
100
AcDbLine
 10
65.175476
 20
29.923465
 30
0.0
 11
65.175476
 21
29.91482
 31
0.0
  0
POLYLINE
  5
37F
330
1F
100
AcDbEntity
  8
001
 62
   253
370
    50
100
AcDb2dPolyline
 66
     1
 10
0.0
 20
0.0
 30
0.0
  0
VERTEX
  5
381
330
37F
100
AcDbEntity
  8
001
 62
   253
370
    50
100
AcDbVertex
100
AcDb2dVertex
 10
65.175476
 20
29.923465
 30
0.0
  0
VERTEX
  5
382
330
37F
100
AcDbEntity
  8
001
 62
   253
370
    50
100
AcDbVertex
100
AcDb2dVertex
 10
66.157432
 20
30.581247
 30
0.0
  0
VERTEX
  5
383
330
37F
100
AcDbEntity
  8
001
 62
   253
370
    50
100
AcDbVertex
100
AcDb2dVertex
 10
67.122116
 20
31.263168
 30
0.0
  0
VERTEX
  5
384
330
37F
100
AcDbEntity
  8
001
 62
   253
370
    50
100
AcDbVertex
100
AcDb2dVertex
 10
67.748671
 20
31.742304
 30
0.0
  0
VERTEX
  5
385
330
37F
100
AcDbEntity
  8
001
 62
   253
370
    50
100
AcDbVertex
100
AcDb2dVertex
 10
68.359402
 20
32.241546
 30
0.0
  0
VERTEX
  5
386
330
37F
100
AcDbEntity
  8
001
 62
   253
370
    50
100
AcDbVertex
100
AcDb2dVertex
 10
68.956882
 20
32.759571
 30
0.0
  0
VERTEX
  5
387
330
37F
100
AcDbEntity
  8
001
 62
   253
370
    50
100
AcDbVertex
100
AcDb2dVertex
 10
69.54619
 20
33.286997
 30
0.0
  0
SEQEND
  5
380
330
37F
100
AcDbEntity
  8
001
370
    50
  0
POLYLINE
  5
388
330
1F
100
AcDbEntity
  8
001
 62
   253
370
    50
100
AcDb2dPolyline
 66
     1
 10
0.0
 20
0.0
 30
0.0
  0
VERTEX
  5
38A
330
388
100
AcDbEntity
  8
001
 62
   253
370
    50
100
AcDbVertex
100
AcDb2dVertex
 10
69.54619
 20
33.286997
 30
0.0
  0
VERTEX
  5
38B
330
388
100
AcDbEntity
  8
001
 62
   253
370
    50
100
AcDbVertex
100
AcDb2dVertex
 10
69.417775
 20
33.235993
 30
0.0
  0
VERTEX
  5
38C
330
388
100
AcDbEntity
  8
001
 62
   253
370
    50
100
AcDbVertex
100
AcDb2dVertex
 10
69.286256
 20
33.202124
 30
0.0
  0
VERTEX
  5
38D
330
388
100
AcDbEntity
  8
001
 62
   253
370
    50
100
AcDbVertex
100
AcDb2dVertex
 10
69.14328
 20
33.198736
 30
0.0
  0
VERTEX
  5
38E
330
388
100
AcDbEntity
  8
001
 62
   253
370
    50
100
AcDbVertex
100
AcDb2dVertex
 10
69.00017
 20
33.222885
 30
0.0
  0
VERTEX
  5
38F
330
388
100
AcDbEntity
  8
001
 62
   253
370
    50
100
AcDbVertex
100
AcDb2dVertex
 10
68.836915
 20
33.27539
 30
0.0
  0
VERTEX
  5
390
330
388
100
AcDbEntity
  8
001
 62
   253
370
    50
100
AcDbVertex
100
AcDb2dVertex
 10
68.682151
 20
33.347127
 30
0.0
  0
VERTEX
  5
391
330
388
100
AcDbEntity
  8
001
 62
   253
370
    50
100
AcDbVertex
100
AcDb2dVertex
 10
68.50179
 20
33.453557
 30
0.0
  0
VERTEX
  5
392
330
388
100
AcDbEntity
  8
001
 62
   253
370
    50
100
AcDbVertex
100
AcDb2dVertex
 10
68.327226
 20
33.570443
 30
0.0
  0
SEQEND
  5
389
330
388
100
AcDbEntity
  8
001
370
    50
  0
POLYLINE
  5
393
330
1F
100
AcDbEntity
  8
001
 62
   253
370
    50
100
AcDb2dPolyline
 66
     1
 10
0.0
 20
0.0
 30
0.0
  0
VERTEX
  5
395
330
393
100
AcDbEntity
  8
001
 62
   253
370
    50
100
AcDbVertex
100
AcDb2dVertex
 10
68.327226
 20
33.570443
 30
0.0
  0
VERTEX
  5
396
330
393
100
AcDbEntity
  8
001
 62
   253
370
    50
100
AcDbVertex
100
AcDb2dVertex
 10
68.935683
 20
34.428665
 30
0.0
  0
VERTEX
  5
397
330
393
100
AcDbEntity
  8
001
 62
   253
370
    50
100
AcDbVertex
100
AcDb2dVertex
 10
69.510821
 20
35.307242
 30
0.0
  0
VERTEX
  5
398
330
393
100
AcDbEntity
  8
001
 62
   253
370
    50
100
AcDbVertex
100
AcDb2dVertex
 10
70.035281
 20
36.228919
 30
0.0
  0
VERTEX
  5
399
330
393
100
AcDbEntity
  8
001
 62
   253
370
    50
100
AcDbVertex
100
AcDb2dVertex
 10
70.525761
 20
37.171354
 30
0.0
  0
SEQEND
  5
394
330
393
100
AcDbEntity
  8
001
370
    50
  0
LINE
  5
39A
330
1F
100
AcDbEntity
  8
001
 62
   253
370
    50
100
AcDbLine
 10
65.175476
 20
98.928609
 30
0.0
 11
65.175476
 21
74.360224
 31
0.0
  0
POLYLINE
  5
39B
330
1F
100
AcDbEntity
  8
001
 62
   253
370
    50
100
AcDb2dPolyline
 66
     1
 10
0.0
 20
0.0
 30
0.0
  0
VERTEX
  5
39D
330
39B
100
AcDbEntity
  8
001
 62
   253
370
    50
100
AcDbVertex
100
AcDb2dVertex
 10
65.175476
 20
98.928609
 30
0.0
  0
VERTEX
  5
39E
330
39B
100
AcDbEntity
  8
001
 62
   253
370
    50
100
AcDbVertex
100
AcDb2dVertex
 10
65.443597
 20
98.880762
 30
0.0
  0
VERTEX
  5
39F
330
39B
100
AcDbEntity
  8
001
 62
   253
370
    50
100
AcDbVertex
100
AcDb2dVertex
 10
65.711587
 20
98.832109
 30
0.0
  0
VERTEX
  5
3A0
330
39B
100
AcDbEntity
  8
001
 62
   253
370
    50
100
AcDbVertex
100
AcDb2dVertex
 10
66.701142
 20
98.637497
 30
0.0
  0
VERTEX
  5
3A1
330
39B
100
AcDbEntity
  8
001
 62
   253
370
    50
100
AcDbVertex
100
AcDb2dVertex
 10
67.684692
 20
98.415094
 30
0.0
  0
VERTEX
  5
3A2
330
39B
100
AcDbEntity
  8
001
 62
   253
370
    50
100
AcDbVertex
100
AcDb2dVertex
 10
68.617362
 20
98.174836
 30
0.0
  0
VERTEX
  5
3A3
330
39B
100
AcDbEntity
  8
001
 62
   253
370
    50
100
AcDbVertex
100
AcDb2dVertex
 10
69.54619
 20
97.919304
 30
0.0
  0
SEQEND
  5
39C
330
39B
100
AcDbEntity
  8
001
370
    50
  0
POLYLINE
  5
3A4
330
1F
100
AcDbEntity
  8
001
 62
   253
370
    50
100
AcDb2dPolyline
 66
     1
 10
0.0
 20
0.0
 30
0.0
  0
VERTEX
  5
3A6
330
3A4
100
AcDbEntity
  8
001
 62
   253
370
    50
100
AcDbVertex
100
AcDb2dVertex
 10
69.54619
 20
97.919304
 30
0.0
  0
VERTEX
  5
3A7
330
3A4
100
AcDbEntity
  8
001
 62
   253
370
    50
100
AcDbVertex
100
AcDb2dVertex
 10
69.418804
 20
98.931514
 30
0.0
  0
VERTEX
  5
3A8
330
3A4
100
AcDbEntity
  8
001
 62
   253
370
    50
100
AcDbVertex
100
AcDb2dVertex
 10
69.286256
 20
99.943031
 30
0.0
  0
VERTEX
  5
3A9
330
3A4
100
AcDbEntity
  8
001
 62
   253
370
    50
100
AcDbVertex
100
AcDb2dVertex
 10
69.14769
 20
100.930654
 30
0.0
  0
VERTEX
  5
3AA
330
3A4
100
AcDbEntity
  8
001
 62
   253
370
    50
100
AcDbVertex
100
AcDb2dVertex
 10
69.00017
 20
101.917019
 30
0.0
  0
VERTEX
  5
3AB
330
3A4
100
AcDbEntity
  8
001
 62
   253
370
    50
100
AcDbVertex
100
AcDb2dVertex
 10
68.846976
 20
102.882502
 30
0.0
  0
VERTEX
  5
3AC
330
3A4
100
AcDbEntity
  8
001
 62
   253
370
    50
100
AcDbVertex
100
AcDb2dVertex
 10
68.682151
 20
103.846008
 30
0.0
  0
VERTEX
  5
3AD
330
3A4
100
AcDbEntity
  8
001
 62
   253
370
    50
100
AcDbVertex
100
AcDb2dVertex
 10
68.50838
 20
104.782943
 30
0.0
  0
VERTEX
  5
3AE
330
3A4
100
AcDbEntity
  8
001
 62
   253
370
    50
100
AcDbVertex
100
AcDb2dVertex
 10
68.327226
 20
105.718544
 30
0.0
  0
SEQEND
  5
3A5
330
3A4
100
AcDbEntity
  8
001
370
    50
  0
POLYLINE
  5
3AF
330
1F
100
AcDbEntity
  8
001
 62
   253
370
    50
100
AcDb2dPolyline
 66
     1
 10
0.0
 20
0.0
 30
0.0
  0
VERTEX
  5
3B1
330
3AF
100
AcDbEntity
  8
001
 62
   253
370
    50
100
AcDbVertex
100
AcDb2dVertex
 10
68.327226
 20
105.718544
 30
0.0
  0
VERTEX
  5
3B2
330
3AF
100
AcDbEntity
  8
001
 62
   253
370
    50
100
AcDbVertex
100
AcDb2dVertex
 10
68.923884
 20
106.261556
 30
0.0
  0
VERTEX
  5
3B3
330
3AF
100
AcDbEntity
  8
001
 62
   253
370
    50
100
AcDbVertex
100
AcDb2dVertex
 10
69.510821
 20
106.814719
 30
0.0
  0
VERTEX
  5
3B4
330
3AF
100
AcDbEntity
  8
001
 62
   253
370
    50
100
AcDbVertex
100
AcDb2dVertex
 10
69.761424
 20
107.060964
 30
0.0
  0
VERTEX
  5
3B5
330
3AF
100
AcDbEntity
  8
001
 62
   253
370
    50
100
AcDbVertex
100
AcDb2dVertex
 10
70.010182
 20
107.309136
 30
0.0
  0
SEQEND
  5
3B0
330
3AF
100
AcDbEntity
  8
001
370
    50
  0
POLYLINE
  5
3B6
330
1F
100
AcDbEntity
  8
001
 62
   253
370
    50
100
AcDb2dPolyline
 66
     1
 10
0.0
 20
0.0
 30
0.0
  0
VERTEX
  5
3B8
330
3B6
100
AcDbEntity
  8
001
 62
   253
370
    50
100
AcDbVertex
100
AcDb2dVertex
 10
56.307063
 20
98.161725
 30
0.0
  0
VERTEX
  5
3B9
330
3B6
100
AcDbEntity
  8
001
 62
   253
370
    50
100
AcDbVertex
100
AcDb2dVertex
 10
56.307237
 20
98.016125
 30
0.0
  0
VERTEX
  5
3BA
330
3B6
100
AcDbEntity
  8
001
 62
   253
370
    50
100
AcDbVertex
100
AcDb2dVertex
 10
56.308499
 20
97.803333
 30
0.0
  0
VERTEX
  5
3BB
330
3B6
100
AcDbEntity
  8
001
 62
   253
370
    50
100
AcDbVertex
100
AcDb2dVertex
 10
56.326481
 20
96.97908
 30
0.0
  0
VERTEX
  5
3BC
330
3B6
100
AcDbEntity
  8
001
 62
   253
370
    50
100
AcDbVertex
100
AcDb2dVertex
 10
56.348895
 20
96.41536
 30
0.0
  0
SEQEND
  5
3B7
330
3B6
100
AcDbEntity
  8
001
370
    50
  0
POLYLINE
  5
3BD
330
1F
100
AcDbEntity
  8
001
 62
   253
370
    50
100
AcDb2dPolyline
 66
     1
 10
0.0
 20
0.0
 30
0.0
  0
VERTEX
  5
3BF
330
3BD
100
AcDbEntity
  8
001
 62
   253
370
    50
100
AcDbVertex
100
AcDb2dVertex
 10
65.175476
 20
98.928609
 30
0.0
  0
VERTEX
  5
3C0
330
3BD
100
AcDbEntity
  8
001
 62
   253
370
    50
100
AcDbVertex
100
AcDb2dVertex
 10
63.375035
 20
98.773482
 30
0.0
  0
VERTEX
  5
3C1
330
3BD
100
AcDbEntity
  8
001
 62
   253
370
    50
100
AcDbVertex
100
AcDb2dVertex
 10
60.743663
 20
98.546275
 30
0.0
  0
VERTEX
  5
3C2
330
3BD
100
AcDbEntity
  8
001
 62
   253
370
    50
100
AcDbVertex
100
AcDb2dVertex
 10
58.109415
 20
98.318144
 30
0.0
  0
VERTEX
  5
3C3
330
3BD
100
AcDbEntity
  8
001
 62
   253
370
    50
100
AcDbVertex
100
AcDb2dVertex
 10
56.307063
 20
98.161725
 30
0.0
  0
SEQEND
  5
3BE
330
3BD
100
AcDbEntity
  8
001
370
    50
  0
POLYLINE
  5
3C4
330
1F
100
AcDbEntity
  8
001
 62
   253
370
    50
100
AcDb2dPolyline
 66
     1
 10
0.0
 20
0.0
 30
0.0
  0
VERTEX
  5
3C6
330
3C4
100
AcDbEntity
  8
001
 62
   253
370
    50
100
AcDbVertex
100
AcDb2dVertex
 10
63.453612
 20
83.028874
 30
0.0
  0
VERTEX
  5
3C7
330
3C4
100
AcDbEntity
  8
001
 62
   253
370
    50
100
AcDbVertex
100
AcDb2dVertex
 10
63.478378
 20
81.958752
 30
0.0
  0
VERTEX
  5
3C8
330
3C4
100
AcDbEntity
  8
001
 62
   253
370
    50
100
AcDbVertex
100
AcDb2dVertex
 10
63.50197
 20
80.888611
 30
0.0
  0
VERTEX
  5
3C9
330
3C4
100
AcDbEntity
  8
001
 62
   253
370
    50
100
AcDbVertex
100
AcDb2dVertex
 10
63.523239
 20
79.809787
 30
0.0
  0
VERTEX
  5
3CA
330
3C4
100
AcDbEntity
  8
001
 62
   253
370
    50
100
AcDbVertex
100
AcDb2dVertex
 10
63.540124
 20
78.730863
 30
0.0
  0
VERTEX
  5
3CB
330
3C4
100
AcDbEntity
  8
001
 62
   253
370
    50
100
AcDbVertex
100
AcDb2dVertex
 10
63.550089
 20
77.640269
 30
0.0
  0
VERTEX
  5
3CC
330
3C4
100
AcDbEntity
  8
001
 62
   253
370
    50
100
AcDbVertex
100
AcDb2dVertex
 10
63.547824
 20
76.549697
 30
0.0
  0
VERTEX
  5
3CD
330
3C4
100
AcDbEntity
  8
001
 62
   253
370
    50
100
AcDbVertex
100
AcDb2dVertex
 10
63.529966
 20
75.454908
 30
0.0
  0
VERTEX
  5
3CE
330
3C4
100
AcDbEntity
  8
001
 62
   253
370
    50
100
AcDbVertex
100
AcDb2dVertex
 10
63.503068
 20
74.360224
 30
0.0
  0
SEQEND
  5
3C5
330
3C4
100
AcDbEntity
  8
001
370
    50
  0
POLYLINE
  5
3CF
330
1F
100
AcDbEntity
  8
001
 62
   253
370
    50
100
AcDb2dPolyline
 66
     1
 10
0.0
 20
0.0
 30
0.0
  0
VERTEX
  5
3D1
330
3CF
100
AcDbEntity
  8
001
 62
   253
370
    50
100
AcDbVertex
100
AcDb2dVertex
 10
63.453612
 20
83.028874
 30
0.0
  0
VERTEX
  5
3D2
330
3CF
100
AcDbEntity
  8
001
 62
   253
370
    50
100
AcDbVertex
100
AcDb2dVertex
 10
61.660295
 20
83.211077
 30
0.0
  0
VERTEX
  5
3D3
330
3CF
100
AcDbEntity
  8
001
 62
   253
370
    50
100
AcDbVertex
100
AcDb2dVertex
 10
59.039241
 20
83.476861
 30
0.0
  0
VERTEX
  5
3D4
330
3CF
100
AcDbEntity
  8
001
 62
   253
370
    50
100
AcDbVertex
100
AcDb2dVertex
 10
56.411662
 20
83.742583
 30
0.0
  0
VERTEX
  5
3D5
330
3CF
100
AcDbEntity
  8
001
 62
   253
370
    50
100
AcDbVertex
100
AcDb2dVertex
 10
54.61381
 20
83.924041
 30
0.0
  0
SEQEND
  5
3D0
330
3CF
100
AcDbEntity
  8
001
370
    50
  0
LINE
  5
3D6
330
1F
100
AcDbEntity
  8
001
 62
   253
370
    50
100
AcDbLine
 10
54.61381
 20
95.362255
 30
0.0
 11
54.61381
 21
83.924041
 31
0.0
  0
POLYLINE
  5
3D7
330
1F
100
AcDbEntity
  8
001
 62
   253
370
    50
100
AcDb2dPolyline
 66
     1
 10
0.0
 20
0.0
 30
0.0
  0
VERTEX
  5
3D9
330
3D7
100
AcDbEntity
  8
001
 62
   253
370
    50
100
AcDbVertex
100
AcDb2dVertex
 10
56.826747
 20
95.560649
 30
0.0
  0
VERTEX
  5
3DA
330
3D7
100
AcDbEntity
  8
001
 62
   253
370
    50
100
AcDbVertex
100
AcDb2dVertex
 10
56.377261
 20
95.520386
 30
0.0
  0
VERTEX
  5
3DB
330
3D7
100
AcDbEntity
  8
001
 62
   253
370
    50
100
AcDbVertex
100
AcDb2dVertex
 10
55.720322
 20
95.461511
 30
0.0
  0
VERTEX
  5
3DC
330
3D7
100
AcDbEntity
  8
001
 62
   253
370
    50
100
AcDbVertex
100
AcDb2dVertex
 10
55.063329
 20
95.40259
 30
0.0
  0
VERTEX
  5
3DD
330
3D7
100
AcDbEntity
  8
001
 62
   253
370
    50
100
AcDbVertex
100
AcDb2dVertex
 10
54.61381
 20
95.362255
 30
0.0
  0
SEQEND
  5
3D8
330
3D7
100
AcDbEntity
  8
001
370
    50
  0
POLYLINE
  5
3DE
330
1F
100
AcDbEntity
  8
001
 62
   253
370
    50
100
AcDb2dPolyline
 66
     1
 10
0.0
 20
0.0
 30
0.0
  0
VERTEX
  5
3E0
330
3DE
100
AcDbEntity
  8
001
 62
   253
370
    50
100
AcDbVertex
100
AcDb2dVertex
 10
56.773458
 20
96.453005
 30
0.0
  0
VERTEX
  5
3E1
330
3DE
100
AcDbEntity
  8
001
 62
   253
370
    50
100
AcDbVertex
100
AcDb2dVertex
 10
56.782567
 20
96.272218
 30
0.0
  0
VERTEX
  5
3E2
330
3DE
100
AcDbEntity
  8
001
 62
   253
370
    50
100
AcDbVertex
100
AcDb2dVertex
 10
56.797328
 20
96.008072
 30
0.0
  0
VERTEX
  5
3E3
330
3DE
100
AcDbEntity
  8
001
 62
   253
370
    50
100
AcDbVertex
100
AcDb2dVertex
 10
56.814206
 20
95.742377
 30
0.0
  0
VERTEX
  5
3E4
330
3DE
100
AcDbEntity
  8
001
 62
   253
370
    50
100
AcDbVertex
100
AcDb2dVertex
 10
56.826747
 20
95.560649
 30
0.0
  0
SEQEND
  5
3DF
330
3DE
100
AcDbEntity
  8
001
370
    50
  0
POLYLINE
  5
3E5
330
1F
100
AcDbEntity
  8
001
 62
   253
370
    50
100
AcDb2dPolyline
 66
     1
 10
0.0
 20
0.0
 30
0.0
  0
VERTEX
  5
3E7
330
3E5
100
AcDbEntity
  8
001
 62
   253
370
    50
100
AcDbVertex
100
AcDb2dVertex
 10
56.773458
 20
96.453005
 30
0.0
  0
VERTEX
  5
3E8
330
3E5
100
AcDbEntity
  8
001
 62
   253
370
    50
100
AcDbVertex
100
AcDb2dVertex
 10
56.68722
 20
96.44536
 30
0.0
  0
VERTEX
  5
3E9
330
3E5
100
AcDbEntity
  8
001
 62
   253
370
    50
100
AcDbVertex
100
AcDb2dVertex
 10
56.56118
 20
96.434185
 30
0.0
  0
VERTEX
  5
3EA
330
3E5
100
AcDbEntity
  8
001
 62
   253
370
    50
100
AcDbVertex
100
AcDb2dVertex
 10
56.435136
 20
96.423008
 30
0.0
  0
VERTEX
  5
3EB
330
3E5
100
AcDbEntity
  8
001
 62
   253
370
    50
100
AcDbVertex
100
AcDb2dVertex
 10
56.348895
 20
96.41536
 30
0.0
  0
SEQEND
  5
3E6
330
3E5
100
AcDbEntity
  8
001
370
    50
  0
POLYLINE
  5
3EC
330
1F
100
AcDbEntity
  8
001
 62
   253
370
    50
100
AcDb2dPolyline
 66
     1
 10
0.0
 20
0.0
 30
0.0
  0
VERTEX
  5
3EE
330
3EC
100
AcDbEntity
  8
001
 62
   253
370
    50
100
AcDbVertex
100
AcDb2dVertex
 10
63.596296
 20
73.9056
 30
0.0
  0
VERTEX
  5
3EF
330
3EC
100
AcDbEntity
  8
001
 62
   253
370
    50
100
AcDbVertex
100
AcDb2dVertex
 10
63.600082
 20
73.961021
 30
0.0
  0
VERTEX
  5
3F0
330
3EC
100
AcDbEntity
  8
001
 62
   253
370
    50
100
AcDbVertex
100
AcDb2dVertex
 10
63.600796
 20
74.016077
 30
0.0
  0
VERTEX
  5
3F1
330
3EC
100
AcDbEntity
  8
001
 62
   253
370
    50
100
AcDbVertex
100
AcDb2dVertex
 10
63.568016
 20
74.190057
 30
0.0
  0
VERTEX
  5
3F2
330
3EC
100
AcDbEntity
  8
001
 62
   253
370
    50
100
AcDbVertex
100
AcDb2dVertex
 10
63.503068
 20
74.360224
 30
0.0
  0
SEQEND
  5
3ED
330
3EC
100
AcDbEntity
  8
001
370
    50
  0
POLYLINE
  5
3F3
330
1F
100
AcDbEntity
  8
001
 62
   253
370
    50
100
AcDb2dPolyline
 66
     1
 10
0.0
 20
0.0
 30
0.0
  0
VERTEX
  5
3F5
330
3F3
100
AcDbEntity
  8
001
 62
   253
370
    50
100
AcDbVertex
100
AcDb2dVertex
 10
61.471237
 20
78.567485
 30
0.0
  0
VERTEX
  5
3F6
330
3F3
100
AcDbEntity
  8
001
 62
   253
370
    50
100
AcDbVertex
100
AcDb2dVertex
 10
62.034834
 20
78.76799
 30
0.0
  0
VERTEX
  5
3F7
330
3F3
100
AcDbEntity
  8
001
 62
   253
370
    50
100
AcDbVertex
100
AcDb2dVertex
 10
62.821458
 20
79.138534
 30
0.0
  0
VERTEX
  5
3F8
330
3F3
100
AcDbEntity
  8
001
 62
   253
370
    50
100
AcDbVertex
100
AcDb2dVertex
 10
63.260643
 20
79.417362
 30
0.0
  0
VERTEX
  5
3F9
330
3F3
100
AcDbEntity
  8
001
 62
   253
370
    50
100
AcDbVertex
100
AcDb2dVertex
 10
63.545734
 20
79.631885
 30
0.0
  0
SEQEND
  5
3F4
330
3F3
100
AcDbEntity
  8
001
370
    50
  0
LINE
  5
3FA
330
1F
100
AcDbEntity
  8
001
 62
   253
370
    50
100
AcDbLine
 10
57.04648
 20
77.14299
 30
0.0
 11
61.471237
 21
78.567485
 31
0.0
  0
POLYLINE
  5
3FB
330
1F
100
AcDbEntity
  8
001
 62
   253
370
    50
100
AcDb2dPolyline
 66
     1
 10
0.0
 20
0.0
 30
0.0
  0
VERTEX
  5
3FD
330
3FB
100
AcDbEntity
  8
001
 62
   253
370
    50
100
AcDbVertex
100
AcDb2dVertex
 10
49.775585
 20
81.640927
 30
0.0
  0
VERTEX
  5
3FE
330
3FB
100
AcDbEntity
  8
001
 62
   253
370
    50
100
AcDbVertex
100
AcDb2dVertex
 10
51.606447
 20
80.521862
 30
0.0
  0
VERTEX
  5
3FF
330
3FB
100
AcDbEntity
  8
001
 62
   253
370
    50
100
AcDbVertex
100
AcDb2dVertex
 10
53.433983
 20
79.397423
 30
0.0
  0
VERTEX
  5
400
330
3FB
100
AcDbEntity
  8
001
 62
   253
370
    50
100
AcDbVertex
100
AcDb2dVertex
 10
55.241869
 20
78.272852
 30
0.0
  0
VERTEX
  5
401
330
3FB
100
AcDbEntity
  8
001
 62
   253
370
    50
100
AcDbVertex
100
AcDb2dVertex
 10
57.04648
 20
77.14299
 30
0.0
  0
SEQEND
  5
3FC
330
3FB
100
AcDbEntity
  8
001
370
    50
  0
LINE
  5
402
330
1F
100
AcDbEntity
  8
001
 62
   253
370
    50
100
AcDbLine
 10
49.520049
 20
81.930308
 30
0.0
 11
49.775585
 21
81.640927
 31
0.0
  0
LINE
  5
403
330
1F
100
AcDbEntity
  8
001
 62
   253
370
    50
100
AcDbLine
 10
49.520049
 20
82.127805
 30
0.0
 11
49.775747
 21
82.365306
 31
0.0
  0
LINE
  5
404
330
1F
100
AcDbEntity
  8
001
 62
   253
370
    50
100
AcDbLine
 10
49.775747
 20
82.365306
 30
0.0
 11
54.61381
 21
83.924041
 31
0.0
  0
POLYLINE
  5
405
330
1F
100
AcDbEntity
  8
001
 62
   253
370
    50
100
AcDb2dPolyline
 66
     1
 10
0.0
 20
0.0
 30
0.0
  0
VERTEX
  5
407
330
405
100
AcDbEntity
  8
001
 62
   253
370
    50
100
AcDbVertex
100
AcDb2dVertex
 10
59.10821
 20
81.687975
 30
0.0
  0
VERTEX
  5
408
330
405
100
AcDbEntity
  8
001
 62
   253
370
    50
100
AcDbVertex
100
AcDb2dVertex
 10
59.10809
 20
81.697336
 30
0.0
  0
VERTEX
  5
409
330
405
100
AcDbEntity
  8
001
 62
   253
370
    50
100
AcDbVertex
100
AcDb2dVertex
 10
59.107576
 20
81.711006
 30
0.0
  0
VERTEX
  5
40A
330
405
100
AcDbEntity
  8
001
 62
   253
370
    50
100
AcDbVertex
100
AcDb2dVertex
 10
59.106583
 20
81.724753
 30
0.0
  0
VERTEX
  5
40B
330
405
100
AcDbEntity
  8
001
 62
   253
370
    50
100
AcDbVertex
100
AcDb2dVertex
 10
59.105672
 20
81.734142
 30
0.0
  0
SEQEND
  5
406
330
405
100
AcDbEntity
  8
001
370
    50
  0
LINE
  5
40C
330
1F
100
AcDbEntity
  8
001
 62
   253
370
    50
100
AcDbLine
 10
54.61381
 20
95.362255
 30
0.0
 11
49.775747
 21
92.938613
 31
0.0
  0
LINE
  5
40D
330
1F
100
AcDbEntity
  8
001
 62
   253
370
    50
100
AcDbLine
 10
49.775747
 20
92.938613
 30
0.0
 11
49.775747
 21
82.365306
 31
0.0
  0
POLYLINE
  5
40E
330
1F
100
AcDbEntity
  8
001
 62
   253
370
    50
100
AcDb2dPolyline
 66
     1
 10
0.0
 20
0.0
 30
0.0
  0
VERTEX
  5
410
330
40E
100
AcDbEntity
  8
001
 62
   253
370
    50
100
AcDbVertex
100
AcDb2dVertex
 10
54.035339
 20
82.10366
 30
0.0
  0
VERTEX
  5
411
330
40E
100
AcDbEntity
  8
001
 62
   253
370
    50
100
AcDbVertex
100
AcDb2dVertex
 10
54.041873
 20
82.066003
 30
0.0
  0
VERTEX
  5
412
330
40E
100
AcDbEntity
  8
001
 62
   253
370
    50
100
AcDbVertex
100
AcDb2dVertex
 10
54.054552
 20
82.013643
 30
0.0
  0
VERTEX
  5
413
330
40E
100
AcDbEntity
  8
001
 62
   253
370
    50
100
AcDbVertex
100
AcDb2dVertex
 10
54.095617
 20
81.912101
 30
0.0
  0
VERTEX
  5
414
330
40E
100
AcDbEntity
  8
001
 62
   253
370
    50
100
AcDbVertex
100
AcDb2dVertex
 10
54.150347
 20
81.830116
 30
0.0
  0
VERTEX
  5
415
330
40E
100
AcDbEntity
  8
001
 62
   253
370
    50
100
AcDbVertex
100
AcDb2dVertex
 10
54.229756
 20
81.737339
 30
0.0
  0
VERTEX
  5
416
330
40E
100
AcDbEntity
  8
001
 62
   253
370
    50
100
AcDbVertex
100
AcDb2dVertex
 10
54.319677
 20
81.649287
 30
0.0
  0
VERTEX
  5
417
330
40E
100
AcDbEntity
  8
001
 62
   253
370
    50
100
AcDbVertex
100
AcDb2dVertex
 10
54.73845
 20
81.367616
 30
0.0
  0
VERTEX
  5
418
330
40E
100
AcDbEntity
  8
001
 62
   253
370
    50
100
AcDbVertex
100
AcDb2dVertex
 10
55.207259
 20
81.176525
 30
0.0
  0
VERTEX
  5
419
330
40E
100
AcDbEntity
  8
001
 62
   253
370
    50
100
AcDbVertex
100
AcDb2dVertex
 10
55.611374
 20
81.056246
 30
0.0
  0
VERTEX
  5
41A
330
40E
100
AcDbEntity
  8
001
 62
   253
370
    50
100
AcDbVertex
100
AcDb2dVertex
 10
56.021548
 20
80.965943
 30
0.0
  0
VERTEX
  5
41B
330
40E
100
AcDbEntity
  8
001
 62
   253
370
    50
100
AcDbVertex
100
AcDb2dVertex
 10
56.240169
 20
80.930361
 30
0.0
  0
VERTEX
  5
41C
330
40E
100
AcDbEntity
  8
001
 62
   253
370
    50
100
AcDbVertex
100
AcDb2dVertex
 10
56.460122
 20
80.902683
 30
0.0
  0
VERTEX
  5
41D
330
40E
100
AcDbEntity
  8
001
 62
   253
370
    50
100
AcDbVertex
100
AcDb2dVertex
 10
56.68091
 20
80.882605
 30
0.0
  0
VERTEX
  5
41E
330
40E
100
AcDbEntity
  8
001
 62
   253
370
    50
100
AcDbVertex
100
AcDb2dVertex
 10
56.90205
 20
80.870301
 30
0.0
  0
VERTEX
  5
41F
330
40E
100
AcDbEntity
  8
001
 62
   253
370
    50
100
AcDbVertex
100
AcDb2dVertex
 10
57.321829
 20
80.869578
 30
0.0
  0
VERTEX
  5
420
330
40E
100
AcDbEntity
  8
001
 62
   253
370
    50
100
AcDbVertex
100
AcDb2dVertex
 10
57.742562
 20
80.901136
 30
0.0
  0
VERTEX
  5
421
330
40E
100
AcDbEntity
  8
001
 62
   253
370
    50
100
AcDbVertex
100
AcDb2dVertex
 10
58.2426
 20
80.99145
 30
0.0
  0
VERTEX
  5
422
330
40E
100
AcDbEntity
  8
001
 62
   253
370
    50
100
AcDbVertex
100
AcDb2dVertex
 10
58.710951
 20
81.172297
 30
0.0
  0
VERTEX
  5
423
330
40E
100
AcDbEntity
  8
001
 62
   253
370
    50
100
AcDbVertex
100
AcDb2dVertex
 10
58.816907
 20
81.236033
 30
0.0
  0
VERTEX
  5
424
330
40E
100
AcDbEntity
  8
001
 62
   253
370
    50
100
AcDbVertex
100
AcDb2dVertex
 10
58.915158
 20
81.312552
 30
0.0
  0
VERTEX
  5
425
330
40E
100
AcDbEntity
  8
001
 62
   253
370
    50
100
AcDbVertex
100
AcDb2dVertex
 10
58.988195
 20
81.388452
 30
0.0
  0
VERTEX
  5
426
330
40E
100
AcDbEntity
  8
001
 62
   253
370
    50
100
AcDbVertex
100
AcDb2dVertex
 10
59.048124
 20
81.471231
 30
0.0
  0
VERTEX
  5
427
330
40E
100
AcDbEntity
  8
001
 62
   253
370
    50
100
AcDbVertex
100
AcDb2dVertex
 10
59.085808
 20
81.548592
 30
0.0
  0
VERTEX
  5
428
330
40E
100
AcDbEntity
  8
001
 62
   253
370
    50
100
AcDbVertex
100
AcDb2dVertex
 10
59.105809
 20
81.643511
 30
0.0
  0
VERTEX
  5
429
330
40E
100
AcDbEntity
  8
001
 62
   253
370
    50
100
AcDbVertex
100
AcDb2dVertex
 10
59.10762
 20
81.66965
 30
0.0
  0
VERTEX
  5
42A
330
40E
100
AcDbEntity
  8
001
 62
   253
370
    50
100
AcDbVertex
100
AcDb2dVertex
 10
59.10821
 20
81.687975
 30
0.0
  0
SEQEND
  5
40F
330
40E
100
AcDbEntity
  8
001
370
    50
  0
POLYLINE
  5
42B
330
1F
100
AcDbEntity
  8
001
 62
   253
370
    50
100
AcDb2dPolyline
 66
     1
 10
0.0
 20
0.0
 30
0.0
  0
VERTEX
  5
42D
330
42B
100
AcDbEntity
  8
001
 62
   253
370
    50
100
AcDbVertex
100
AcDb2dVertex
 10
59.105672
 20
81.734142
 30
0.0
  0
VERTEX
  5
42E
330
42B
100
AcDbEntity
  8
001
 62
   253
370
    50
100
AcDbVertex
100
AcDb2dVertex
 10
59.099138
 20
81.771799
 30
0.0
  0
VERTEX
  5
42F
330
42B
100
AcDbEntity
  8
001
 62
   253
370
    50
100
AcDbVertex
100
AcDb2dVertex
 10
59.086459
 20
81.824159
 30
0.0
  0
VERTEX
  5
430
330
42B
100
AcDbEntity
  8
001
 62
   253
370
    50
100
AcDbVertex
100
AcDb2dVertex
 10
59.045394
 20
81.9257
 30
0.0
  0
VERTEX
  5
431
330
42B
100
AcDbEntity
  8
001
 62
   253
370
    50
100
AcDbVertex
100
AcDb2dVertex
 10
58.990664
 20
82.007686
 30
0.0
  0
VERTEX
  5
432
330
42B
100
AcDbEntity
  8
001
 62
   253
370
    50
100
AcDbVertex
100
AcDb2dVertex
 10
58.911255
 20
82.100463
 30
0.0
  0
VERTEX
  5
433
330
42B
100
AcDbEntity
  8
001
 62
   253
370
    50
100
AcDbVertex
100
AcDb2dVertex
 10
58.821334
 20
82.188515
 30
0.0
  0
VERTEX
  5
434
330
42B
100
AcDbEntity
  8
001
 62
   253
370
    50
100
AcDbVertex
100
AcDb2dVertex
 10
58.402561
 20
82.470185
 30
0.0
  0
VERTEX
  5
435
330
42B
100
AcDbEntity
  8
001
 62
   253
370
    50
100
AcDbVertex
100
AcDb2dVertex
 10
57.933752
 20
82.661276
 30
0.0
  0
VERTEX
  5
436
330
42B
100
AcDbEntity
  8
001
 62
   253
370
    50
100
AcDbVertex
100
AcDb2dVertex
 10
57.529637
 20
82.781556
 30
0.0
  0
VERTEX
  5
437
330
42B
100
AcDbEntity
  8
001
 62
   253
370
    50
100
AcDbVertex
100
AcDb2dVertex
 10
57.119463
 20
82.871859
 30
0.0
  0
VERTEX
  5
438
330
42B
100
AcDbEntity
  8
001
 62
   253
370
    50
100
AcDbVertex
100
AcDb2dVertex
 10
56.900842
 20
82.90744
 30
0.0
  0
VERTEX
  5
439
330
42B
100
AcDbEntity
  8
001
 62
   253
370
    50
100
AcDbVertex
100
AcDb2dVertex
 10
56.680889
 20
82.935119
 30
0.0
  0
VERTEX
  5
43A
330
42B
100
AcDbEntity
  8
001
 62
   253
370
    50
100
AcDbVertex
100
AcDb2dVertex
 10
56.460103
 20
82.9552
 30
0.0
  0
VERTEX
  5
43B
330
42B
100
AcDbEntity
  8
001
 62
   253
370
    50
100
AcDbVertex
100
AcDb2dVertex
 10
56.238961
 20
82.967501
 30
0.0
  0
VERTEX
  5
43C
330
42B
100
AcDbEntity
  8
001
 62
   253
370
    50
100
AcDbVertex
100
AcDb2dVertex
 10
55.819163
 20
82.968191
 30
0.0
  0
VERTEX
  5
43D
330
42B
100
AcDbEntity
  8
001
 62
   253
370
    50
100
AcDbVertex
100
AcDb2dVertex
 10
55.398449
 20
82.936666
 30
0.0
  0
VERTEX
  5
43E
330
42B
100
AcDbEntity
  8
001
 62
   253
370
    50
100
AcDbVertex
100
AcDb2dVertex
 10
54.898512
 20
82.846521
 30
0.0
  0
VERTEX
  5
43F
330
42B
100
AcDbEntity
  8
001
 62
   253
370
    50
100
AcDbVertex
100
AcDb2dVertex
 10
54.430061
 20
82.665504
 30
0.0
  0
VERTEX
  5
440
330
42B
100
AcDbEntity
  8
001
 62
   253
370
    50
100
AcDbVertex
100
AcDb2dVertex
 10
54.324035
 20
82.601653
 30
0.0
  0
VERTEX
  5
441
330
42B
100
AcDbEntity
  8
001
 62
   253
370
    50
100
AcDbVertex
100
AcDb2dVertex
 10
54.225853
 20
82.52525
 30
0.0
  0
VERTEX
  5
442
330
42B
100
AcDbEntity
  8
001
 62
   253
370
    50
100
AcDbVertex
100
AcDb2dVertex
 10
54.152993
 20
82.449646
 30
0.0
  0
VERTEX
  5
443
330
42B
100
AcDbEntity
  8
001
 62
   253
370
    50
100
AcDbVertex
100
AcDb2dVertex
 10
54.092887
 20
82.366571
 30
0.0
  0
VERTEX
  5
444
330
42B
100
AcDbEntity
  8
001
 62
   253
370
    50
100
AcDbVertex
100
AcDb2dVertex
 10
54.054666
 20
82.288312
 30
0.0
  0
VERTEX
  5
445
330
42B
100
AcDbEntity
  8
001
 62
   253
370
    50
100
AcDbVertex
100
AcDb2dVertex
 10
54.035202
 20
82.194291
 30
0.0
  0
VERTEX
  5
446
330
42B
100
AcDbEntity
  8
001
 62
   253
370
    50
100
AcDbVertex
100
AcDb2dVertex
 10
54.033621
 20
82.141338
 30
0.0
  0
VERTEX
  5
447
330
42B
100
AcDbEntity
  8
001
 62
   253
370
    50
100
AcDbVertex
100
AcDb2dVertex
 10
54.035339
 20
82.10366
 30
0.0
  0
SEQEND
  5
42C
330
42B
100
AcDbEntity
  8
001
370
    50
  0
LINE
  5
448
330
1F
100
AcDbEntity
  8
001
 62
   253
370
    50
100
AcDbLine
 10
56.348895
 20
96.41536
 30
0.0
 11
56.782314
 21
96.275826
 31
0.0
  0
LINE
  5
449
330
1F
100
AcDbEntity
  8
001
 62
   253
370
    50
100
AcDbLine
 10
49.520049
 20
92.660438
 30
0.0
 11
49.520049
 21
81.930308
 31
0.0
  0
LINE
  5
44A
330
1F
100
AcDbEntity
  8
001
 62
   253
370
    50
100
AcDbLine
 10
49.775747
 20
92.938613
 30
0.0
 11
49.520049
 21
92.660438
 31
0.0
  0
POLYLINE
  5
44B
330
1F
100
AcDbEntity
  8
001
 62
   253
370
    50
100
AcDb2dPolyline
 66
     1
 10
0.0
 20
0.0
 30
0.0
  0
VERTEX
  5
44D
330
44B
100
AcDbEntity
  8
001
 62
   253
370
    50
100
AcDbVertex
100
AcDb2dVertex
 10
57.04648
 20
77.14299
 30
0.0
  0
VERTEX
  5
44E
330
44B
100
AcDbEntity
  8
001
 62
   253
370
    50
100
AcDbVertex
100
AcDb2dVertex
 10
56.793483
 20
76.056005
 30
0.0
  0
VERTEX
  5
44F
330
44B
100
AcDbEntity
  8
001
 62
   253
370
    50
100
AcDbVertex
100
AcDb2dVertex
 10
56.530623
 20
74.971463
 30
0.0
  0
VERTEX
  5
450
330
44B
100
AcDbEntity
  8
001
 62
   253
370
    50
100
AcDbVertex
100
AcDb2dVertex
 10
56.247164
 20
73.879454
 30
0.0
  0
VERTEX
  5
451
330
44B
100
AcDbEntity
  8
001
 62
   253
370
    50
100
AcDbVertex
100
AcDb2dVertex
 10
55.947593
 20
72.791658
 30
0.0
  0
VERTEX
  5
452
330
44B
100
AcDbEntity
  8
001
 62
   253
370
    50
100
AcDbVertex
100
AcDb2dVertex
 10
55.630887
 20
71.693862
 30
0.0
  0
VERTEX
  5
453
330
44B
100
AcDbEntity
  8
001
 62
   253
370
    50
100
AcDbVertex
100
AcDb2dVertex
 10
55.299619
 20
70.600452
 30
0.0
  0
VERTEX
  5
454
330
44B
100
AcDbEntity
  8
001
 62
   253
370
    50
100
AcDbVertex
100
AcDb2dVertex
 10
54.950624
 20
69.503309
 30
0.0
  0
VERTEX
  5
455
330
44B
100
AcDbEntity
  8
001
 62
   253
370
    50
100
AcDbVertex
100
AcDb2dVertex
 10
54.593122
 20
68.408833
 30
0.0
  0
SEQEND
  5
44C
330
44B
100
AcDbEntity
  8
001
370
    50
  0
POLYLINE
  5
456
330
1F
100
AcDbEntity
  8
001
 62
   253
370
    50
100
AcDb2dPolyline
 66
     1
 10
0.0
 20
0.0
 30
0.0
  0
VERTEX
  5
458
330
456
100
AcDbEntity
  8
001
 62
   253
370
    50
100
AcDbVertex
100
AcDb2dVertex
 10
67.671564
 20
104.932784
 30
0.0
  0
VERTEX
  5
459
330
456
100
AcDbEntity
  8
001
 62
   253
370
    50
100
AcDbVertex
100
AcDb2dVertex
 10
67.932617
 20
105.214977
 30
0.0
  0
VERTEX
  5
45A
330
456
100
AcDbEntity
  8
001
 62
   253
370
    50
100
AcDbVertex
100
AcDb2dVertex
 10
68.281788
 20
105.653574
 30
0.0
  0
VERTEX
  5
45B
330
456
100
AcDbEntity
  8
001
 62
   253
370
    50
100
AcDbVertex
100
AcDb2dVertex
 10
68.308875
 20
105.692072
 30
0.0
  0
VERTEX
  5
45C
330
456
100
AcDbEntity
  8
001
 62
   253
370
    50
100
AcDbVertex
100
AcDb2dVertex
 10
68.327226
 20
105.718544
 30
0.0
  0
SEQEND
  5
457
330
456
100
AcDbEntity
  8
001
370
    50
  0
LINE
  5
45D
330
1F
100
AcDbEntity
  8
001
 62
   253
370
    50
100
AcDbLine
 10
55.430994
 20
98.548826
 30
0.0
 11
54.878162
 21
100.127049
 31
0.0
  0
LINE
  5
45E
330
1F
100
AcDbEntity
  8
001
 62
   253
370
    50
100
AcDbLine
 10
70.010182
 20
107.309136
 30
0.0
 11
70.525761
 21
107.847773
 31
0.0
  0
POLYLINE
  5
45F
330
1F
100
AcDbEntity
  8
001
 62
   253
370
    50
100
AcDb2dPolyline
 66
     1
 10
0.0
 20
0.0
 30
0.0
  0
VERTEX
  5
461
330
45F
100
AcDbEntity
  8
001
 62
   253
370
    50
100
AcDbVertex
100
AcDb2dVertex
 10
54.878162
 20
100.127049
 30
0.0
  0
VERTEX
  5
462
330
45F
100
AcDbEntity
  8
001
 62
   253
370
    50
100
AcDbVertex
100
AcDb2dVertex
 10
55.88019
 20
100.260025
 30
0.0
  0
VERTEX
  5
463
330
45F
100
AcDbEntity
  8
001
 62
   253
370
    50
100
AcDbVertex
100
AcDb2dVertex
 10
57.288409
 20
100.484262
 30
0.0
  0
VERTEX
  5
464
330
45F
100
AcDbEntity
  8
001
 62
   253
370
    50
100
AcDbVertex
100
AcDb2dVertex
 10
59.865871
 20
101.062365
 30
0.0
  0
VERTEX
  5
465
330
45F
100
AcDbEntity
  8
001
 62
   253
370
    50
100
AcDbVertex
100
AcDb2dVertex
 10
62.075327
 20
101.741183
 30
0.0
  0
VERTEX
  5
466
330
45F
100
AcDbEntity
  8
001
 62
   253
370
    50
100
AcDbVertex
100
AcDb2dVertex
 10
64.648587
 20
102.753504
 30
0.0
  0
VERTEX
  5
467
330
45F
100
AcDbEntity
  8
001
 62
   253
370
    50
100
AcDbVertex
100
AcDb2dVertex
 10
67.288788
 20
104.570188
 30
0.0
  0
VERTEX
  5
468
330
45F
100
AcDbEntity
  8
001
 62
   253
370
    50
100
AcDbVertex
100
AcDb2dVertex
 10
67.517123
 20
104.782725
 30
0.0
  0
VERTEX
  5
469
330
45F
100
AcDbEntity
  8
001
 62
   253
370
    50
100
AcDbVertex
100
AcDb2dVertex
 10
67.671564
 20
104.932784
 30
0.0
  0
SEQEND
  5
460
330
45F
100
AcDbEntity
  8
001
370
    50
  0
POLYLINE
  5
46A
330
1F
100
AcDbEntity
  8
001
 62
   253
370
    50
100
AcDb2dPolyline
 66
     1
 10
0.0
 20
0.0
 30
0.0
  0
VERTEX
  5
46C
330
46A
100
AcDbEntity
  8
001
 62
   253
370
    50
100
AcDbVertex
100
AcDb2dVertex
 10
56.355566
 20
103.719858
 30
0.0
  0
VERTEX
  5
46D
330
46A
100
AcDbEntity
  8
001
 62
   253
370
    50
100
AcDbVertex
100
AcDb2dVertex
 10
57.053679
 20
103.760586
 30
0.0
  0
VERTEX
  5
46E
330
46A
100
AcDbEntity
  8
001
 62
   253
370
    50
100
AcDbVertex
100
AcDb2dVertex
 10
57.751486
 20
103.805875
 30
0.0
  0
VERTEX
  5
46F
330
46A
100
AcDbEntity
  8
001
 62
   253
370
    50
100
AcDbVertex
100
AcDb2dVertex
 10
58.427428
 20
103.857715
 30
0.0
  0
VERTEX
  5
470
330
46A
100
AcDbEntity
  8
001
 62
   253
370
    50
100
AcDbVertex
100
AcDb2dVertex
 10
59.102697
 20
103.917904
 30
0.0
  0
VERTEX
  5
471
330
46A
100
AcDbEntity
  8
001
 62
   253
370
    50
100
AcDbVertex
100
AcDb2dVertex
 10
59.768245
 20
103.98549
 30
0.0
  0
VERTEX
  5
472
330
46A
100
AcDbEntity
  8
001
 62
   253
370
    50
100
AcDbVertex
100
AcDb2dVertex
 10
60.432796
 20
104.062146
 30
0.0
  0
VERTEX
  5
473
330
46A
100
AcDbEntity
  8
001
 62
   253
370
    50
100
AcDbVertex
100
AcDb2dVertex
 10
61.071801
 20
104.145637
 30
0.0
  0
VERTEX
  5
474
330
46A
100
AcDbEntity
  8
001
 62
   253
370
    50
100
AcDbVertex
100
AcDb2dVertex
 10
61.709374
 20
104.239579
 30
0.0
  0
VERTEX
  5
475
330
46A
100
AcDbEntity
  8
001
 62
   253
370
    50
100
AcDbVertex
100
AcDb2dVertex
 10
62.54974
 20
104.381602
 30
0.0
  0
VERTEX
  5
476
330
46A
100
AcDbEntity
  8
001
 62
   253
370
    50
100
AcDbVertex
100
AcDb2dVertex
 10
63.385916
 20
104.546442
 30
0.0
  0
VERTEX
  5
477
330
46A
100
AcDbEntity
  8
001
 62
   253
370
    50
100
AcDbVertex
100
AcDb2dVertex
 10
64.171768
 20
104.726032
 30
0.0
  0
VERTEX
  5
478
330
46A
100
AcDbEntity
  8
001
 62
   253
370
    50
100
AcDbVertex
100
AcDb2dVertex
 10
64.951277
 20
104.931634
 30
0.0
  0
VERTEX
  5
479
330
46A
100
AcDbEntity
  8
001
 62
   253
370
    50
100
AcDbVertex
100
AcDb2dVertex
 10
65.701327
 20
105.159499
 30
0.0
  0
VERTEX
  5
47A
330
46A
100
AcDbEntity
  8
001
 62
   253
370
    50
100
AcDbVertex
100
AcDb2dVertex
 10
66.440972
 20
105.418534
 30
0.0
  0
VERTEX
  5
47B
330
46A
100
AcDbEntity
  8
001
 62
   253
370
    50
100
AcDbVertex
100
AcDb2dVertex
 10
67.129261
 20
105.695566
 30
0.0
  0
VERTEX
  5
47C
330
46A
100
AcDbEntity
  8
001
 62
   253
370
    50
100
AcDbVertex
100
AcDb2dVertex
 10
67.804206
 20
106.005004
 30
0.0
  0
VERTEX
  5
47D
330
46A
100
AcDbEntity
  8
001
 62
   253
370
    50
100
AcDbVertex
100
AcDb2dVertex
 10
68.545791
 20
106.396071
 30
0.0
  0
VERTEX
  5
47E
330
46A
100
AcDbEntity
  8
001
 62
   253
370
    50
100
AcDbVertex
100
AcDb2dVertex
 10
69.254248
 20
106.841585
 30
0.0
  0
VERTEX
  5
47F
330
46A
100
AcDbEntity
  8
001
 62
   253
370
    50
100
AcDbVertex
100
AcDb2dVertex
 10
69.901158
 20
107.32915
 30
0.0
  0
VERTEX
  5
480
330
46A
100
AcDbEntity
  8
001
 62
   253
370
    50
100
AcDbVertex
100
AcDb2dVertex
 10
70.525761
 20
107.847773
 30
0.0
  0
SEQEND
  5
46B
330
46A
100
AcDbEntity
  8
001
370
    50
  0
POLYLINE
  5
481
330
1F
100
AcDbEntity
  8
001
 62
   253
370
    50
100
AcDb2dPolyline
 66
     1
 10
0.0
 20
0.0
 30
0.0
  0
VERTEX
  5
483
330
481
100
AcDbEntity
  8
001
 62
   253
370
    50
100
AcDbVertex
100
AcDb2dVertex
 10
54.878162
 20
100.127049
 30
0.0
  0
VERTEX
  5
484
330
481
100
AcDbEntity
  8
001
 62
   253
370
    50
100
AcDbVertex
100
AcDb2dVertex
 10
55.163724
 20
100.570111
 30
0.0
  0
VERTEX
  5
485
330
481
100
AcDbEntity
  8
001
 62
   253
370
    50
100
AcDbVertex
100
AcDb2dVertex
 10
55.433542
 20
101.022163
 30
0.0
  0
VERTEX
  5
486
330
481
100
AcDbEntity
  8
001
 62
   253
370
    50
100
AcDbVertex
100
AcDb2dVertex
 10
55.663723
 20
101.466584
 30
0.0
  0
VERTEX
  5
487
330
481
100
AcDbEntity
  8
001
 62
   253
370
    50
100
AcDbVertex
100
AcDb2dVertex
 10
55.867963
 20
101.924274
 30
0.0
  0
VERTEX
  5
488
330
481
100
AcDbEntity
  8
001
 62
   253
370
    50
100
AcDbVertex
100
AcDb2dVertex
 10
56.038843
 20
102.371063
 30
0.0
  0
VERTEX
  5
489
330
481
100
AcDbEntity
  8
001
 62
   253
370
    50
100
AcDbVertex
100
AcDb2dVertex
 10
56.17804
 20
102.827744
 30
0.0
  0
VERTEX
  5
48A
330
481
100
AcDbEntity
  8
001
 62
   253
370
    50
100
AcDbVertex
100
AcDb2dVertex
 10
56.276334
 20
103.27144
 30
0.0
  0
VERTEX
  5
48B
330
481
100
AcDbEntity
  8
001
 62
   253
370
    50
100
AcDbVertex
100
AcDb2dVertex
 10
56.355566
 20
103.719858
 30
0.0
  0
SEQEND
  5
482
330
481
100
AcDbEntity
  8
001
370
    50
  0
POLYLINE
  5
48C
330
1F
100
AcDbEntity
  8
001
 62
   253
370
    50
100
AcDb2dPolyline
 66
     1
 10
0.0
 20
0.0
 30
0.0
  0
VERTEX
  5
48E
330
48C
100
AcDbEntity
  8
001
 62
   253
370
    50
100
AcDbVertex
100
AcDb2dVertex
 10
77.974923
 20
103.251287
 30
0.0
  0
VERTEX
  5
48F
330
48C
100
AcDbEntity
  8
001
 62
   253
370
    50
100
AcDbVertex
100
AcDb2dVertex
 10
78.023939
 20
103.263253
 30
0.0
  0
VERTEX
  5
490
330
48C
100
AcDbEntity
  8
001
 62
   253
370
    50
100
AcDbVertex
100
AcDb2dVertex
 10
78.065023
 20
103.283778
 30
0.0
  0
VERTEX
  5
491
330
48C
100
AcDbEntity
  8
001
 62
   253
370
    50
100
AcDbVertex
100
AcDb2dVertex
 10
78.103897
 20
103.351783
 30
0.0
  0
VERTEX
  5
492
330
48C
100
AcDbEntity
  8
001
 62
   253
370
    50
100
AcDbVertex
100
AcDb2dVertex
 10
78.11411
 20
103.441051
 30
0.0
  0
VERTEX
  5
493
330
48C
100
AcDbEntity
  8
001
 62
   253
370
    50
100
AcDbVertex
100
AcDb2dVertex
 10
78.10363
 20
103.589468
 30
0.0
  0
VERTEX
  5
494
330
48C
100
AcDbEntity
  8
001
 62
   253
370
    50
100
AcDbVertex
100
AcDb2dVertex
 10
78.073636
 20
103.727958
 30
0.0
  0
VERTEX
  5
495
330
48C
100
AcDbEntity
  8
001
 62
   253
370
    50
100
AcDbVertex
100
AcDb2dVertex
 10
78.059326
 20
103.782369
 30
0.0
  0
VERTEX
  5
496
330
48C
100
AcDbEntity
  8
001
 62
   253
370
    50
100
AcDbVertex
100
AcDb2dVertex
 10
78.044488
 20
103.837183
 30
0.0
  0
SEQEND
  5
48D
330
48C
100
AcDbEntity
  8
001
370
    50
  0
POLYLINE
  5
497
330
1F
100
AcDbEntity
  8
001
 62
   253
370
    50
100
AcDb2dPolyline
 66
     1
 10
0.0
 20
0.0
 30
0.0
  0
VERTEX
  5
499
330
497
100
AcDbEntity
  8
001
 62
   253
370
    50
100
AcDbVertex
100
AcDb2dVertex
 10
54.593122
 20
107.036254
 30
0.0
  0
VERTEX
  5
49A
330
497
100
AcDbEntity
  8
001
 62
   253
370
    50
100
AcDbVertex
100
AcDb2dVertex
 10
55.865717
 20
107.593385
 30
0.0
  0
VERTEX
  5
49B
330
497
100
AcDbEntity
  8
001
 62
   253
370
    50
100
AcDbVertex
100
AcDb2dVertex
 10
57.704684
 20
108.452677
 30
0.0
  0
VERTEX
  5
49C
330
497
100
AcDbEntity
  8
001
 62
   253
370
    50
100
AcDbVertex
100
AcDb2dVertex
 10
59.488808
 20
109.359356
 30
0.0
  0
VERTEX
  5
49D
330
497
100
AcDbEntity
  8
001
 62
   253
370
    50
100
AcDbVertex
100
AcDb2dVertex
 10
60.695226
 20
110.007874
 30
0.0
  0
SEQEND
  5
498
330
497
100
AcDbEntity
  8
001
370
    50
  0
POLYLINE
  5
49E
330
1F
100
AcDbEntity
  8
001
 62
   253
370
    50
100
AcDb2dPolyline
 66
     1
 10
0.0
 20
0.0
 30
0.0
  0
VERTEX
  5
4A0
330
49E
100
AcDbEntity
  8
001
 62
   253
370
    50
100
AcDbVertex
100
AcDb2dVertex
 10
60.695226
 20
110.007874
 30
0.0
  0
VERTEX
  5
4A1
330
49E
100
AcDbEntity
  8
001
 62
   253
370
    50
100
AcDbVertex
100
AcDb2dVertex
 10
61.229051
 20
110.338736
 30
0.0
  0
VERTEX
  5
4A2
330
49E
100
AcDbEntity
  8
001
 62
   253
370
    50
100
AcDbVertex
100
AcDb2dVertex
 10
61.739838
 20
110.700815
 30
0.0
  0
VERTEX
  5
4A3
330
49E
100
AcDbEntity
  8
001
 62
   253
370
    50
100
AcDbVertex
100
AcDb2dVertex
 10
61.973655
 20
110.896795
 30
0.0
  0
VERTEX
  5
4A4
330
49E
100
AcDbEntity
  8
001
 62
   253
370
    50
100
AcDbVertex
100
AcDb2dVertex
 10
62.196452
 20
111.105586
 30
0.0
  0
VERTEX
  5
4A5
330
49E
100
AcDbEntity
  8
001
 62
   253
370
    50
100
AcDbVertex
100
AcDb2dVertex
 10
62.401026
 20
111.318181
 30
0.0
  0
VERTEX
  5
4A6
330
49E
100
AcDbEntity
  8
001
 62
   253
370
    50
100
AcDbVertex
100
AcDb2dVertex
 10
62.593667
 20
111.541708
 30
0.0
  0
VERTEX
  5
4A7
330
49E
100
AcDbEntity
  8
001
 62
   253
370
    50
100
AcDbVertex
100
AcDb2dVertex
 10
62.916824
 20
111.990022
 30
0.0
  0
VERTEX
  5
4A8
330
49E
100
AcDbEntity
  8
001
 62
   253
370
    50
100
AcDbVertex
100
AcDb2dVertex
 10
63.184245
 20
112.473534
 30
0.0
  0
VERTEX
  5
4A9
330
49E
100
AcDbEntity
  8
001
 62
   253
370
    50
100
AcDbVertex
100
AcDb2dVertex
 10
63.295552
 20
112.729385
 30
0.0
  0
VERTEX
  5
4AA
330
49E
100
AcDbEntity
  8
001
 62
   253
370
    50
100
AcDbVertex
100
AcDb2dVertex
 10
63.38989
 20
112.991772
 30
0.0
  0
VERTEX
  5
4AB
330
49E
100
AcDbEntity
  8
001
 62
   253
370
    50
100
AcDbVertex
100
AcDb2dVertex
 10
63.466827
 20
113.259538
 30
0.0
  0
VERTEX
  5
4AC
330
49E
100
AcDbEntity
  8
001
 62
   253
370
    50
100
AcDbVertex
100
AcDb2dVertex
 10
63.526659
 20
113.531877
 30
0.0
  0
VERTEX
  5
4AD
330
49E
100
AcDbEntity
  8
001
 62
   253
370
    50
100
AcDbVertex
100
AcDb2dVertex
 10
63.586473
 20
113.969592
 30
0.0
  0
VERTEX
  5
4AE
330
49E
100
AcDbEntity
  8
001
 62
   253
370
    50
100
AcDbVertex
100
AcDb2dVertex
 10
63.600796
 20
114.410655
 30
0.0
  0
VERTEX
  5
4AF
330
49E
100
AcDbEntity
  8
001
 62
   253
370
    50
100
AcDbVertex
100
AcDb2dVertex
 10
63.586903
 20
114.684552
 30
0.0
  0
VERTEX
  5
4B0
330
49E
100
AcDbEntity
  8
001
 62
   253
370
    50
100
AcDbVertex
100
AcDb2dVertex
 10
63.563515
 20
114.958012
 30
0.0
  0
SEQEND
  5
49F
330
49E
100
AcDbEntity
  8
001
370
    50
  0
LINE
  5
4B1
330
1F
100
AcDbEntity
  8
001
 62
   253
370
    50
100
AcDbLine
 10
65.175476
 20
115.335688
 30
0.0
 11
63.503068
 21
115.335688
 31
0.0
  0
LINE
  5
4B2
330
1F
100
AcDbEntity
  8
001
 62
   253
370
    50
100
AcDbLine
 10
87.820049
 20
50.41482
 30
0.0
 11
88.820049
 21
51.41482
 31
0.0
  0
LINE
  5
4B3
330
1F
100
AcDbEntity
  8
001
 62
   253
370
    50
100
AcDbLine
 10
88.820049
 20
99.41482
 30
0.0
 11
87.820049
 21
100.41482
 31
0.0
  0
LINE
  5
4B4
330
1F
100
AcDbEntity
  8
001
 62
   253
370
    50
100
AcDbLine
 10
88.820049
 20
99.41482
 30
0.0
 11
88.820049
 21
51.41482
 31
0.0
  0
LINE
  5
4B5
330
1F
100
AcDbEntity
  8
001
 62
   253
370
    50
100
AcDbLine
 10
87.820049
 20
100.41482
 30
0.0
 11
87.820049
 21
50.41482
 31
0.0
  0
LINE
  5
4B6
330
1F
100
AcDbEntity
  8
001
 62
   253
370
    50
100
AcDbLine
 10
87.820049
 20
100.41482
 30
0.0
 11
78.820049
 21
100.41482
 31
0.0
  0
LINE
  5
4B7
330
1F
100
AcDbEntity
  8
001
 62
   253
370
    50
100
AcDbLine
 10
78.820049
 20
50.41482
 30
0.0
 11
87.820049
 21
50.41482
 31
0.0
  0
LINE
  5
4B8
330
1F
100
AcDbEntity
  8
001
 62
   253
370
    50
100
AcDbLine
 10
54.701664
 20
42.384358
 30
0.0
 11
51.261393
 21
38.324865
 31
0.0
  0
LINE
  5
4B9
330
1F
100
AcDbEntity
  8
001
 62
   253
370
    50
100
AcDbLine
 10
49.775585
 20
36.855365
 30
0.0
 11
49.775585
 21
38.997703
 31
0.0
  0
POLYLINE
  5
4BA
330
1F
100
AcDbEntity
  8
001
 62
   253
370
    50
100
AcDb2dPolyline
 66
     1
 10
0.0
 20
0.0
 30
0.0
  0
VERTEX
  5
4BC
330
4BA
100
AcDbEntity
  8
001
 62
   253
370
    50
100
AcDbVertex
100
AcDb2dVertex
 10
49.775585
 20
38.997703
 30
0.0
  0
VERTEX
  5
4BD
330
4BA
100
AcDbEntity
  8
001
 62
   253
370
    50
100
AcDbVertex
100
AcDb2dVertex
 10
51.608883
 20
41.326044
 30
0.0
  0
VERTEX
  5
4BE
330
4BA
100
AcDbEntity
  8
001
 62
   253
370
    50
100
AcDbVertex
100
AcDb2dVertex
 10
53.433983
 20
43.660766
 30
0.0
  0
VERTEX
  5
4BF
330
4BA
100
AcDbEntity
  8
001
 62
   253
370
    50
100
AcDbVertex
100
AcDb2dVertex
 10
54.584042
 20
45.146516
 30
0.0
  0
VERTEX
  5
4C0
330
4BA
100
AcDbEntity
  8
001
 62
   253
370
    50
100
AcDbVertex
100
AcDb2dVertex
 10
55.730806
 20
46.634832
 30
0.0
  0
SEQEND
  5
4BB
330
4BA
100
AcDbEntity
  8
001
370
    50
  0
POLYLINE
  5
4C1
330
1F
100
AcDbEntity
  8
001
 62
   253
370
    50
100
AcDb2dPolyline
 66
     1
 10
0.0
 20
0.0
 30
0.0
  0
VERTEX
  5
4C3
330
4C1
100
AcDbEntity
  8
001
 62
   253
370
    50
100
AcDbVertex
100
AcDb2dVertex
 10
56.254753
 20
49.147737
 30
0.0
  0
VERTEX
  5
4C4
330
4C1
100
AcDbEntity
  8
001
 62
   253
370
    50
100
AcDbVertex
100
AcDb2dVertex
 10
56.101176
 20
49.300465
 30
0.0
  0
VERTEX
  5
4C5
330
4C1
100
AcDbEntity
  8
001
 62
   253
370
    50
100
AcDbVertex
100
AcDb2dVertex
 10
55.947593
 20
49.453187
 30
0.0
  0
VERTEX
  5
4C6
330
4C1
100
AcDbEntity
  8
001
 62
   253
370
    50
100
AcDbVertex
100
AcDb2dVertex
 10
55.623626
 20
49.775276
 30
0.0
  0
VERTEX
  5
4C7
330
4C1
100
AcDbEntity
  8
001
 62
   253
370
    50
100
AcDbVertex
100
AcDb2dVertex
 10
55.299619
 20
50.097325
 30
0.0
  0
VERTEX
  5
4C8
330
4C1
100
AcDbEntity
  8
001
 62
   253
370
    50
100
AcDbVertex
100
AcDb2dVertex
 10
54.94638
 20
50.448359
 30
0.0
  0
VERTEX
  5
4C9
330
4C1
100
AcDbEntity
  8
001
 62
   253
370
    50
100
AcDbVertex
100
AcDb2dVertex
 10
54.593122
 20
50.799373
 30
0.0
  0
SEQEND
  5
4C2
330
4C1
100
AcDbEntity
  8
001
370
    50
  0
POLYLINE
  5
4CA
330
1F
100
AcDbEntity
  8
001
 62
   253
370
    50
100
AcDb2dPolyline
 66
     1
 10
0.0
 20
0.0
 30
0.0
  0
VERTEX
  5
4CC
330
4CA
100
AcDbEntity
  8
001
 62
   253
370
    50
100
AcDbVertex
100
AcDb2dVertex
 10
58.615409
 20
61.202144
 30
0.0
  0
VERTEX
  5
4CD
330
4CA
100
AcDbEntity
  8
001
 62
   253
370
    50
100
AcDbVertex
100
AcDb2dVertex
 10
58.563304
 20
60.885759
 30
0.0
  0
VERTEX
  5
4CE
330
4CA
100
AcDbEntity
  8
001
 62
   253
370
    50
100
AcDbVertex
100
AcDb2dVertex
 10
58.508164
 20
60.56992
 30
0.0
  0
VERTEX
  5
4CF
330
4CA
100
AcDbEntity
  8
001
 62
   253
370
    50
100
AcDbVertex
100
AcDb2dVertex
 10
58.397187
 20
60.01415
 30
0.0
  0
VERTEX
  5
4D0
330
4CA
100
AcDbEntity
  8
001
 62
   253
370
    50
100
AcDbVertex
100
AcDb2dVertex
 10
58.269883
 20
59.461774
 30
0.0
  0
VERTEX
  5
4D1
330
4CA
100
AcDbEntity
  8
001
 62
   253
370
    50
100
AcDbVertex
100
AcDb2dVertex
 10
58.019927
 20
58.524152
 30
0.0
  0
VERTEX
  5
4D2
330
4CA
100
AcDbEntity
  8
001
 62
   253
370
    50
100
AcDbVertex
100
AcDb2dVertex
 10
57.732831
 20
57.597209
 30
0.0
  0
VERTEX
  5
4D3
330
4CA
100
AcDbEntity
  8
001
 62
   253
370
    50
100
AcDbVertex
100
AcDb2dVertex
 10
57.407131
 20
56.669449
 30
0.0
  0
VERTEX
  5
4D4
330
4CA
100
AcDbEntity
  8
001
 62
   253
370
    50
100
AcDbVertex
100
AcDb2dVertex
 10
57.049844
 20
55.753395
 30
0.0
  0
VERTEX
  5
4D5
330
4CA
100
AcDbEntity
  8
001
 62
   253
370
    50
100
AcDbVertex
100
AcDb2dVertex
 10
56.649656
 20
54.815576
 30
0.0
  0
VERTEX
  5
4D6
330
4CA
100
AcDbEntity
  8
001
 62
   253
370
    50
100
AcDbVertex
100
AcDb2dVertex
 10
56.22292
 20
53.889485
 30
0.0
  0
VERTEX
  5
4D7
330
4CA
100
AcDbEntity
  8
001
 62
   253
370
    50
100
AcDbVertex
100
AcDb2dVertex
 10
55.769426
 20
52.968102
 30
0.0
  0
VERTEX
  5
4D8
330
4CA
100
AcDbEntity
  8
001
 62
   253
370
    50
100
AcDbVertex
100
AcDb2dVertex
 10
55.292861
 20
52.058539
 30
0.0
  0
VERTEX
  5
4D9
330
4CA
100
AcDbEntity
  8
001
 62
   253
370
    50
100
AcDbVertex
100
AcDb2dVertex
 10
54.945811
 20
51.427411
 30
0.0
  0
VERTEX
  5
4DA
330
4CA
100
AcDbEntity
  8
001
 62
   253
370
    50
100
AcDbVertex
100
AcDb2dVertex
 10
54.593122
 20
50.799373
 30
0.0
  0
SEQEND
  5
4CB
330
4CA
100
AcDbEntity
  8
001
370
    50
  0
POLYLINE
  5
4DB
330
1F
100
AcDbEntity
  8
001
 62
   253
370
    50
100
AcDb2dPolyline
 66
     1
 10
0.0
 20
0.0
 30
0.0
  0
VERTEX
  5
4DD
330
4DB
100
AcDbEntity
  8
001
 62
   253
370
    50
100
AcDbVertex
100
AcDb2dVertex
 10
54.878162
 20
44.281045
 30
0.0
  0
VERTEX
  5
4DE
330
4DB
100
AcDbEntity
  8
001
 62
   253
370
    50
100
AcDbVertex
100
AcDb2dVertex
 10
55.165061
 20
44.979459
 30
0.0
  0
VERTEX
  5
4DF
330
4DB
100
AcDbEntity
  8
001
 62
   253
370
    50
100
AcDbVertex
100
AcDb2dVertex
 10
55.433542
 20
45.6846
 30
0.0
  0
VERTEX
  5
4E0
330
4DB
100
AcDbEntity
  8
001
 62
   253
370
    50
100
AcDbVertex
100
AcDb2dVertex
 10
55.666559
 20
46.39345
 30
0.0
  0
VERTEX
  5
4E1
330
4DB
100
AcDbEntity
  8
001
 62
   253
370
    50
100
AcDbVertex
100
AcDb2dVertex
 10
55.867963
 20
47.112476
 30
0.0
  0
VERTEX
  5
4E2
330
4DB
100
AcDbEntity
  8
001
 62
   253
370
    50
100
AcDbVertex
100
AcDb2dVertex
 10
56.040618
 20
47.841449
 30
0.0
  0
VERTEX
  5
4E3
330
4DB
100
AcDbEntity
  8
001
 62
   253
370
    50
100
AcDbVertex
100
AcDb2dVertex
 10
56.17804
 20
48.577256
 30
0.0
  0
VERTEX
  5
4E4
330
4DB
100
AcDbEntity
  8
001
 62
   253
370
    50
100
AcDbVertex
100
AcDb2dVertex
 10
56.277679
 20
49.322673
 30
0.0
  0
VERTEX
  5
4E5
330
4DB
100
AcDbEntity
  8
001
 62
   253
370
    50
100
AcDbVertex
100
AcDb2dVertex
 10
56.355566
 20
50.071335
 30
0.0
  0
SEQEND
  5
4DC
330
4DB
100
AcDbEntity
  8
001
370
    50
  0
LINE
  5
4E6
330
1F
100
AcDbEntity
  8
001
 62
   253
370
    50
100
AcDbLine
 10
54.738124
 20
42.390052
 30
0.0
 11
56.174233
 21
44.115218
 31
0.0
  0
POLYLINE
  5
4E7
330
1F
100
AcDbEntity
  8
001
 62
   253
370
    50
100
AcDb2dPolyline
 66
     1
 10
0.0
 20
0.0
 30
0.0
  0
VERTEX
  5
4E9
330
4E7
100
AcDbEntity
  8
001
 62
   253
370
    50
100
AcDbVertex
100
AcDb2dVertex
 10
68.327226
 20
33.570443
 30
0.0
  0
VERTEX
  5
4EA
330
4E7
100
AcDbEntity
  8
001
 62
   253
370
    50
100
AcDbVertex
100
AcDb2dVertex
 10
67.548023
 20
35.473424
 30
0.0
  0
VERTEX
  5
4EB
330
4E7
100
AcDbEntity
  8
001
 62
   253
370
    50
100
AcDbVertex
100
AcDb2dVertex
 10
66.217553
 20
37.899128
 30
0.0
  0
VERTEX
  5
4EC
330
4E7
100
AcDbEntity
  8
001
 62
   253
370
    50
100
AcDbVertex
100
AcDb2dVertex
 10
65.410193
 20
38.974491
 30
0.0
  0
VERTEX
  5
4ED
330
4E7
100
AcDbEntity
  8
001
 62
   253
370
    50
100
AcDbVertex
100
AcDb2dVertex
 10
64.533433
 20
39.898935
 30
0.0
  0
VERTEX
  5
4EE
330
4E7
100
AcDbEntity
  8
001
 62
   253
370
    50
100
AcDbVertex
100
AcDb2dVertex
 10
63.559853
 20
40.771776
 30
0.0
  0
VERTEX
  5
4EF
330
4E7
100
AcDbEntity
  8
001
 62
   253
370
    50
100
AcDbVertex
100
AcDb2dVertex
 10
62.530532
 20
41.579373
 30
0.0
  0
VERTEX
  5
4F0
330
4E7
100
AcDbEntity
  8
001
 62
   253
370
    50
100
AcDbVertex
100
AcDb2dVertex
 10
60.395029
 20
42.885467
 30
0.0
  0
VERTEX
  5
4F1
330
4E7
100
AcDbEntity
  8
001
 62
   253
370
    50
100
AcDbVertex
100
AcDb2dVertex
 10
57.81965
 20
43.789161
 30
0.0
  0
VERTEX
  5
4F2
330
4E7
100
AcDbEntity
  8
001
 62
   253
370
    50
100
AcDbVertex
100
AcDb2dVertex
 10
56.112887
 20
44.124514
 30
0.0
  0
VERTEX
  5
4F3
330
4E7
100
AcDbEntity
  8
001
 62
   253
370
    50
100
AcDbVertex
100
AcDb2dVertex
 10
54.878162
 20
44.281045
 30
0.0
  0
SEQEND
  5
4E8
330
4E7
100
AcDbEntity
  8
001
370
    50
  0
LINE
  5
4F4
330
1F
100
AcDbEntity
  8
001
 62
   253
370
    50
100
AcDbLine
 10
163.820049
 20
85.41482
 30
0.0
 11
91.820049
 21
85.41482
 31
0.0
  0
LINE
  5
4F5
330
1F
100
AcDbEntity
  8
001
 62
   253
370
    50
100
AcDbLine
 10
91.820049
 20
84.91482
 30
0.0
 11
88.820049
 21
84.91482
 31
0.0
  0
POLYLINE
  5
4F6
330
1F
100
AcDbEntity
  8
001
 62
   253
370
    50
100
AcDb2dPolyline
 66
     1
 10
0.0
 20
0.0
 30
0.0
  0
VERTEX
  5
4F8
330
4F6
100
AcDbEntity
  8
001
 62
   253
370
    50
100
AcDbVertex
100
AcDb2dVertex
 10
58.61541
 20
103.836894
 30
0.0
  0
VERTEX
  5
4F9
330
4F6
100
AcDbEntity
  8
001
 62
   253
370
    50
100
AcDbVertex
100
AcDb2dVertex
 10
58.562193
 20
103.897305
 30
0.0
  0
VERTEX
  5
4FA
330
4F6
100
AcDbEntity
  8
001
 62
   253
370
    50
100
AcDbVertex
100
AcDb2dVertex
 10
58.508164
 20
103.95696
 30
0.0
  0
VERTEX
  5
4FB
330
4F6
100
AcDbEntity
  8
001
 62
   253
370
    50
100
AcDbVertex
100
AcDb2dVertex
 10
58.391317
 20
104.076746
 30
0.0
  0
VERTEX
  5
4FC
330
4F6
100
AcDbEntity
  8
001
 62
   253
370
    50
100
AcDbVertex
100
AcDb2dVertex
 10
58.269883
 20
104.192034
 30
0.0
  0
VERTEX
  5
4FD
330
4F6
100
AcDbEntity
  8
001
 62
   253
370
    50
100
AcDbVertex
100
AcDb2dVertex
 10
58.004772
 20
104.428268
 30
0.0
  0
VERTEX
  5
4FE
330
4F6
100
AcDbEntity
  8
001
 62
   253
370
    50
100
AcDbVertex
100
AcDb2dVertex
 10
57.732831
 20
104.656531
 30
0.0
  0
VERTEX
  5
4FF
330
4F6
100
AcDbEntity
  8
001
 62
   253
370
    50
100
AcDbVertex
100
AcDb2dVertex
 10
57.393402
 20
104.929678
 30
0.0
  0
VERTEX
  5
500
330
4F6
100
AcDbEntity
  8
001
 62
   253
370
    50
100
AcDbVertex
100
AcDb2dVertex
 10
57.049844
 20
105.197634
 30
0.0
  0
VERTEX
  5
501
330
4F6
100
AcDbEntity
  8
001
 62
   253
370
    50
100
AcDbVertex
100
AcDb2dVertex
 10
56.63749
 20
105.512663
 30
0.0
  0
VERTEX
  5
502
330
4F6
100
AcDbEntity
  8
001
 62
   253
370
    50
100
AcDbVertex
100
AcDb2dVertex
 10
56.22292
 20
105.824759
 30
0.0
  0
VERTEX
  5
503
330
4F6
100
AcDbEntity
  8
001
 62
   253
370
    50
100
AcDbVertex
100
AcDb2dVertex
 10
55.758275
 20
106.171425
 30
0.0
  0
VERTEX
  5
504
330
4F6
100
AcDbEntity
  8
001
 62
   253
370
    50
100
AcDbVertex
100
AcDb2dVertex
 10
55.292861
 20
106.51706
 30
0.0
  0
VERTEX
  5
505
330
4F6
100
AcDbEntity
  8
001
 62
   253
370
    50
100
AcDbVertex
100
AcDb2dVertex
 10
54.942994
 20
106.776661
 30
0.0
  0
VERTEX
  5
506
330
4F6
100
AcDbEntity
  8
001
 62
   253
370
    50
100
AcDbVertex
100
AcDb2dVertex
 10
54.593122
 20
107.036254
 30
0.0
  0
SEQEND
  5
4F7
330
4F6
100
AcDbEntity
  8
001
370
    50
  0
POLYLINE
  5
507
330
1F
100
AcDbEntity
  8
001
 62
   253
370
    50
100
AcDb2dPolyline
 66
     1
 10
0.0
 20
0.0
 30
0.0
  0
VERTEX
  5
509
330
507
100
AcDbEntity
  8
001
 62
   253
370
    50
100
AcDbVertex
100
AcDb2dVertex
 10
55.738849
 20
77.976258
 30
0.0
  0
VERTEX
  5
50A
330
507
100
AcDbEntity
  8
001
 62
   253
370
    50
100
AcDbVertex
100
AcDb2dVertex
 10
55.896566
 20
76.998942
 30
0.0
  0
VERTEX
  5
50B
330
507
100
AcDbEntity
  8
001
 62
   253
370
    50
100
AcDbVertex
100
AcDb2dVertex
 10
56.040115
 20
76.019604
 30
0.0
  0
VERTEX
  5
50C
330
507
100
AcDbEntity
  8
001
 62
   253
370
    50
100
AcDbVertex
100
AcDb2dVertex
 10
56.148065
 20
75.131172
 30
0.0
  0
VERTEX
  5
50D
330
507
100
AcDbEntity
  8
001
 62
   253
370
    50
100
AcDbVertex
100
AcDb2dVertex
 10
56.235392
 20
74.240431
 30
0.0
  0
VERTEX
  5
50E
330
507
100
AcDbEntity
  8
001
 62
   253
370
    50
100
AcDbVertex
100
AcDb2dVertex
 10
56.248174
 20
74.09165
 30
0.0
  0
VERTEX
  5
50F
330
507
100
AcDbEntity
  8
001
 62
   253
370
    50
100
AcDbVertex
100
AcDb2dVertex
 10
56.260704
 20
73.942852
 30
0.0
  0
SEQEND
  5
508
330
507
100
AcDbEntity
  8
001
370
    50
  0
LINE
  5
510
330
1F
100
AcDbEntity
  8
001
 62
   253
370
    50
100
AcDbLine
 10
50.815573
 20
96.623188
 30
0.0
 11
49.775585
 21
97.433106
 31
0.0
  0
LINE
  5
511
330
1F
100
AcDbEntity
  8
001
 62
   253
370
    50
100
AcDbLine
 10
49.775585
 20
97.433106
 30
0.0
 11
49.775585
 21
105.60583
 31
0.0
  0
POLYLINE
  5
512
330
1F
100
AcDbEntity
  8
001
 62
   253
370
    50
100
AcDb2dPolyline
 66
     1
 10
0.0
 20
0.0
 30
0.0
  0
VERTEX
  5
514
330
512
100
AcDbEntity
  8
001
 62
   253
370
    50
100
AcDbVertex
100
AcDb2dVertex
 10
49.775585
 20
105.60583
 30
0.0
  0
VERTEX
  5
515
330
512
100
AcDbEntity
  8
001
 62
   253
370
    50
100
AcDbVertex
100
AcDb2dVertex
 10
51.607085
 20
104.399499
 30
0.0
  0
VERTEX
  5
516
330
512
100
AcDbEntity
  8
001
 62
   253
370
    50
100
AcDbVertex
100
AcDb2dVertex
 10
53.433983
 20
103.186271
 30
0.0
  0
VERTEX
  5
517
330
512
100
AcDbEntity
  8
001
 62
   253
370
    50
100
AcDbVertex
100
AcDb2dVertex
 10
54.585252
 20
102.413162
 30
0.0
  0
VERTEX
  5
518
330
512
100
AcDbEntity
  8
001
 62
   253
370
    50
100
AcDbVertex
100
AcDb2dVertex
 10
55.734681
 20
101.637295
 30
0.0
  0
SEQEND
  5
513
330
512
100
AcDbEntity
  8
001
370
    50
  0
POLYLINE
  5
519
330
1F
100
AcDbEntity
  8
001
 62
   253
370
    50
100
AcDb2dPolyline
 66
     1
 10
0.0
 20
0.0
 30
0.0
  0
VERTEX
  5
51B
330
519
100
AcDbEntity
  8
001
 62
   253
370
    50
100
AcDbVertex
100
AcDb2dVertex
 10
56.255354
 20
103.184597
 30
0.0
  0
VERTEX
  5
51C
330
519
100
AcDbEntity
  8
001
 62
   253
370
    50
100
AcDbVertex
100
AcDb2dVertex
 10
56.111398
 20
103.570578
 30
0.0
  0
VERTEX
  5
51D
330
519
100
AcDbEntity
  8
001
 62
   253
370
    50
100
AcDbVertex
100
AcDb2dVertex
 10
55.964814
 20
103.955551
 30
0.0
  0
VERTEX
  5
51E
330
519
100
AcDbEntity
  8
001
 62
   253
370
    50
100
AcDbVertex
100
AcDb2dVertex
 10
55.65584
 20
104.723013
 30
0.0
  0
VERTEX
  5
51F
330
519
100
AcDbEntity
  8
001
 62
   253
370
    50
100
AcDbVertex
100
AcDb2dVertex
 10
55.328096
 20
105.482749
 30
0.0
  0
VERTEX
  5
520
330
519
100
AcDbEntity
  8
001
 62
   253
370
    50
100
AcDbVertex
100
AcDb2dVertex
 10
54.989454
 20
106.222296
 30
0.0
  0
VERTEX
  5
521
330
519
100
AcDbEntity
  8
001
 62
   253
370
    50
100
AcDbVertex
100
AcDb2dVertex
 10
54.634328
 20
106.953989
 30
0.0
  0
VERTEX
  5
522
330
519
100
AcDbEntity
  8
001
 62
   253
370
    50
100
AcDbVertex
100
AcDb2dVertex
 10
54.613739
 20
106.995128
 30
0.0
  0
VERTEX
  5
523
330
519
100
AcDbEntity
  8
001
 62
   253
370
    50
100
AcDbVertex
100
AcDb2dVertex
 10
54.593122
 20
107.036254
 30
0.0
  0
SEQEND
  5
51A
330
519
100
AcDbEntity
  8
001
370
    50
  0
POLYLINE
  5
524
330
1F
100
AcDbEntity
  8
001
 62
   253
370
    50
100
AcDb2dPolyline
 66
     1
 10
0.0
 20
0.0
 30
0.0
  0
VERTEX
  5
526
330
524
100
AcDbEntity
  8
001
 62
   253
370
    50
100
AcDbVertex
100
AcDb2dVertex
 10
56.307063
 20
29.91482
 30
0.0
  0
VERTEX
  5
527
330
524
100
AcDbEntity
  8
001
 62
   253
370
    50
100
AcDbVertex
100
AcDb2dVertex
 10
56.314299
 20
29.91482
 30
0.0
  0
VERTEX
  5
528
330
524
100
AcDbEntity
  8
001
 62
   253
370
    50
100
AcDbVertex
100
AcDb2dVertex
 10
56.324875
 20
29.91482
 30
0.0
  0
VERTEX
  5
529
330
524
100
AcDbEntity
  8
001
 62
   253
370
    50
100
AcDbVertex
100
AcDb2dVertex
 10
56.335451
 20
29.91482
 30
0.0
  0
VERTEX
  5
52A
330
524
100
AcDbEntity
  8
001
 62
   253
370
    50
100
AcDbVertex
100
AcDb2dVertex
 10
56.342687
 20
29.91482
 30
0.0
  0
SEQEND
  5
525
330
524
100
AcDbEntity
  8
001
370
    50
  0
POLYLINE
  5
52B
330
1F
100
AcDbEntity
  8
001
 62
   253
370
    50
100
AcDb2dPolyline
 66
     1
 10
0.0
 20
0.0
 30
0.0
  0
VERTEX
  5
52D
330
52B
100
AcDbEntity
  8
001
 62
   253
370
    50
100
AcDbVertex
100
AcDb2dVertex
 10
61.388436
 20
33.211297
 30
0.0
  0
VERTEX
  5
52E
330
52B
100
AcDbEntity
  8
001
 62
   253
370
    50
100
AcDbVertex
100
AcDb2dVertex
 10
61.53417
 20
33.373454
 30
0.0
  0
VERTEX
  5
52F
330
52B
100
AcDbEntity
  8
001
 62
   253
370
    50
100
AcDbVertex
100
AcDb2dVertex
 10
61.720548
 20
33.608535
 30
0.0
  0
VERTEX
  5
530
330
52B
100
AcDbEntity
  8
001
 62
   253
370
    50
100
AcDbVertex
100
AcDb2dVertex
 10
61.867038
 20
33.835599
 30
0.0
  0
VERTEX
  5
531
330
52B
100
AcDbEntity
  8
001
 62
   253
370
    50
100
AcDbVertex
100
AcDb2dVertex
 10
61.978055
 20
34.058099
 30
0.0
  0
VERTEX
  5
532
330
52B
100
AcDbEntity
  8
001
 62
   253
370
    50
100
AcDbVertex
100
AcDb2dVertex
 10
62.074034
 20
34.295746
 30
0.0
  0
VERTEX
  5
533
330
52B
100
AcDbEntity
  8
001
 62
   253
370
    50
100
AcDbVertex
100
AcDb2dVertex
 10
62.153131
 20
34.54633
 30
0.0
  0
VERTEX
  5
534
330
52B
100
AcDbEntity
  8
001
 62
   253
370
    50
100
AcDbVertex
100
AcDb2dVertex
 10
62.250964
 20
35.320832
 30
0.0
  0
VERTEX
  5
535
330
52B
100
AcDbEntity
  8
001
 62
   253
370
    50
100
AcDbVertex
100
AcDb2dVertex
 10
62.143998
 20
36.091525
 30
0.0
  0
VERTEX
  5
536
330
52B
100
AcDbEntity
  8
001
 62
   253
370
    50
100
AcDbVertex
100
AcDb2dVertex
 10
61.962165
 20
36.58198
 30
0.0
  0
VERTEX
  5
537
330
52B
100
AcDbEntity
  8
001
 62
   253
370
    50
100
AcDbVertex
100
AcDb2dVertex
 10
61.700309
 20
37.032887
 30
0.0
  0
VERTEX
  5
538
330
52B
100
AcDbEntity
  8
001
 62
   253
370
    50
100
AcDbVertex
100
AcDb2dVertex
 10
61.541036
 20
37.240306
 30
0.0
  0
VERTEX
  5
539
330
52B
100
AcDbEntity
  8
001
 62
   253
370
    50
100
AcDbVertex
100
AcDb2dVertex
 10
61.363485
 20
37.432848
 30
0.0
  0
VERTEX
  5
53A
330
52B
100
AcDbEntity
  8
001
 62
   253
370
    50
100
AcDbVertex
100
AcDb2dVertex
 10
61.168691
 20
37.609223
 30
0.0
  0
VERTEX
  5
53B
330
52B
100
AcDbEntity
  8
001
 62
   253
370
    50
100
AcDbVertex
100
AcDb2dVertex
 10
60.962904
 20
37.768936
 30
0.0
  0
VERTEX
  5
53C
330
52B
100
AcDbEntity
  8
001
 62
   253
370
    50
100
AcDbVertex
100
AcDb2dVertex
 10
60.530104
 20
38.0332
 30
0.0
  0
VERTEX
  5
53D
330
52B
100
AcDbEntity
  8
001
 62
   253
370
    50
100
AcDbVertex
100
AcDb2dVertex
 10
60.020728
 20
38.210893
 30
0.0
  0
VERTEX
  5
53E
330
52B
100
AcDbEntity
  8
001
 62
   253
370
    50
100
AcDbVertex
100
AcDb2dVertex
 10
59.32097
 20
38.29614
 30
0.0
  0
VERTEX
  5
53F
330
52B
100
AcDbEntity
  8
001
 62
   253
370
    50
100
AcDbVertex
100
AcDb2dVertex
 10
58.803546
 20
38.284331
 30
0.0
  0
SEQEND
  5
52C
330
52B
100
AcDbEntity
  8
001
370
    50
  0
LINE
  5
540
330
1F
100
AcDbEntity
  8
001
 62
   253
370
    50
100
AcDbLine
 10
58.803546
 20
38.284331
 30
0.0
 11
54.738124
 21
42.390052
 31
0.0
  0
POLYLINE
  5
541
330
1F
100
AcDbEntity
  8
001
 62
   253
370
    50
100
AcDb2dPolyline
 66
     1
 10
0.0
 20
0.0
 30
0.0
  0
VERTEX
  5
543
330
541
100
AcDbEntity
  8
001
 62
   253
370
    50
100
AcDbVertex
100
AcDb2dVertex
 10
58.803546
 20
32.386215
 30
0.0
  0
VERTEX
  5
544
330
541
100
AcDbEntity
  8
001
 62
   253
370
    50
100
AcDbVertex
100
AcDb2dVertex
 10
59.340398
 20
32.362979
 30
0.0
  0
VERTEX
  5
545
330
541
100
AcDbEntity
  8
001
 62
   253
370
    50
100
AcDbVertex
100
AcDb2dVertex
 10
60.054812
 20
32.444148
 30
0.0
  0
VERTEX
  5
546
330
541
100
AcDbEntity
  8
001
 62
   253
370
    50
100
AcDbVertex
100
AcDb2dVertex
 10
60.311732
 20
32.522583
 30
0.0
  0
VERTEX
  5
547
330
541
100
AcDbEntity
  8
001
 62
   253
370
    50
100
AcDbVertex
100
AcDb2dVertex
 10
60.54272
 20
32.620122
 30
0.0
  0
VERTEX
  5
548
330
541
100
AcDbEntity
  8
001
 62
   253
370
    50
100
AcDbVertex
100
AcDb2dVertex
 10
60.763312
 20
32.731843
 30
0.0
  0
VERTEX
  5
549
330
541
100
AcDbEntity
  8
001
 62
   253
370
    50
100
AcDbVertex
100
AcDb2dVertex
 10
60.99181
 20
32.878455
 30
0.0
  0
VERTEX
  5
54A
330
541
100
AcDbEntity
  8
001
 62
   253
370
    50
100
AcDbVertex
100
AcDb2dVertex
 10
61.226888
 20
33.065207
 30
0.0
  0
VERTEX
  5
54B
330
541
100
AcDbEntity
  8
001
 62
   253
370
    50
100
AcDbVertex
100
AcDb2dVertex
 10
61.388436
 20
33.211297
 30
0.0
  0
SEQEND
  5
542
330
541
100
AcDbEntity
  8
001
370
    50
  0
POLYLINE
  5
54C
330
1F
100
AcDbEntity
  8
001
 62
   253
370
    50
100
AcDb2dPolyline
 66
     1
 10
0.0
 20
0.0
 30
0.0
  0
VERTEX
  5
54E
330
54C
100
AcDbEntity
  8
001
 62
   253
370
    50
100
AcDbVertex
100
AcDb2dVertex
 10
59.486705
 20
32.643891
 30
0.0
  0
VERTEX
  5
54F
330
54C
100
AcDbEntity
  8
001
 62
   253
370
    50
100
AcDbVertex
100
AcDb2dVertex
 10
59.855459
 20
32.66197
 30
0.0
  0
VERTEX
  5
550
330
54C
100
AcDbEntity
  8
001
 62
   253
370
    50
100
AcDbVertex
100
AcDb2dVertex
 10
60.350785
 20
32.740665
 30
0.0
  0
VERTEX
  5
551
330
54C
100
AcDbEntity
  8
001
 62
   253
370
    50
100
AcDbVertex
100
AcDb2dVertex
 10
60.609934
 20
32.820139
 30
0.0
  0
VERTEX
  5
552
330
54C
100
AcDbEntity
  8
001
 62
   253
370
    50
100
AcDbVertex
100
AcDb2dVertex
 10
60.838693
 20
32.91664
 30
0.0
  0
VERTEX
  5
553
330
54C
100
AcDbEntity
  8
001
 62
   253
370
    50
100
AcDbVertex
100
AcDb2dVertex
 10
61.056605
 20
33.02711
 30
0.0
  0
VERTEX
  5
554
330
54C
100
AcDbEntity
  8
001
 62
   253
370
    50
100
AcDbVertex
100
AcDb2dVertex
 10
61.287782
 20
33.174973
 30
0.0
  0
VERTEX
  5
555
330
54C
100
AcDbEntity
  8
001
 62
   253
370
    50
100
AcDbVertex
100
AcDb2dVertex
 10
61.431547
 20
33.283546
 30
0.0
  0
VERTEX
  5
556
330
54C
100
AcDbEntity
  8
001
 62
   253
370
    50
100
AcDbVertex
100
AcDb2dVertex
 10
61.531135
 20
33.364833
 30
0.0
  0
SEQEND
  5
54D
330
54C
100
AcDbEntity
  8
001
370
    50
  0
POLYLINE
  5
557
330
1F
100
AcDbEntity
  8
001
 62
   253
370
    50
100
AcDb2dPolyline
 66
     1
 10
0.0
 20
0.0
 30
0.0
  0
VERTEX
  5
559
330
557
100
AcDbEntity
  8
001
 62
   253
370
    50
100
AcDbVertex
100
AcDb2dVertex
 10
59.000199
 20
32.58323
 30
0.0
  0
VERTEX
  5
55A
330
557
100
AcDbEntity
  8
001
 62
   253
370
    50
100
AcDbVertex
100
AcDb2dVertex
 10
59.078448
 20
32.571405
 30
0.0
  0
VERTEX
  5
55B
330
557
100
AcDbEntity
  8
001
 62
   253
370
    50
100
AcDbVertex
100
AcDb2dVertex
 10
59.193222
 20
32.557506
 30
0.0
  0
VERTEX
  5
55C
330
557
100
AcDbEntity
  8
001
 62
   253
370
    50
100
AcDbVertex
100
AcDb2dVertex
 10
59.308397
 20
32.548338
 30
0.0
  0
VERTEX
  5
55D
330
557
100
AcDbEntity
  8
001
 62
   253
370
    50
100
AcDbVertex
100
AcDb2dVertex
 10
59.387385
 20
32.544389
 30
0.0
  0
SEQEND
  5
558
330
557
100
AcDbEntity
  8
001
370
    50
  0
LINE
  5
55E
330
1F
100
AcDbEntity
  8
001
 62
   253
370
    50
100
AcDbLine
 10
59.387385
 20
32.544389
 30
0.0
 11
59.486705
 21
32.643891
 31
0.0
  0
POLYLINE
  5
55F
330
1F
100
AcDbEntity
  8
001
 62
   253
370
    50
100
AcDb2dPolyline
 66
     1
 10
0.0
 20
0.0
 30
0.0
  0
VERTEX
  5
561
330
55F
100
AcDbEntity
  8
001
 62
   253
370
    50
100
AcDbVertex
100
AcDb2dVertex
 10
56.342687
 20
29.91482
 30
0.0
  0
VERTEX
  5
562
330
55F
100
AcDbEntity
  8
001
 62
   253
370
    50
100
AcDbVertex
100
AcDb2dVertex
 10
58.137813
 20
29.915225
 30
0.0
  0
VERTEX
  5
563
330
55F
100
AcDbEntity
  8
001
 62
   253
370
    50
100
AcDbVertex
100
AcDb2dVertex
 10
60.761457
 20
29.916981
 30
0.0
  0
VERTEX
  5
564
330
55F
100
AcDbEntity
  8
001
 62
   253
370
    50
100
AcDbVertex
100
AcDb2dVertex
 10
63.382281
 20
29.920358
 30
0.0
  0
VERTEX
  5
565
330
55F
100
AcDbEntity
  8
001
 62
   253
370
    50
100
AcDbVertex
100
AcDb2dVertex
 10
65.175476
 20
29.923465
 30
0.0
  0
SEQEND
  5
560
330
55F
100
AcDbEntity
  8
001
370
    50
  0
LINE
  5
566
330
1F
100
AcDbEntity
  8
001
 62
   253
370
    50
100
AcDbLine
 10
56.342687
 20
29.91482
 30
0.0
 11
65.175476
 21
29.91482
 31
0.0
  0
LINE
  5
567
330
1F
100
AcDbEntity
  8
001
 62
   253
370
    50
100
AcDbLine
 10
59.386233
 20
32.544429
 30
0.0
 11
59.486705
 21
32.643891
 31
0.0
  0
LINE
  5
568
330
1F
100
AcDbEntity
  8
001
 62
   253
370
    50
100
AcDbLine
 10
49.520049
 20
36.602396
 30
0.0
 11
49.520049
 21
38.350719
 31
0.0
  0
LINE
  5
569
330
1F
100
AcDbEntity
  8
001
 62
   253
370
    50
100
AcDbLine
 10
49.520049
 20
38.350719
 30
0.0
 11
49.775585
 21
38.997703
 31
0.0
  0
LINE
  5
56A
330
1F
100
AcDbEntity
  8
001
 62
   253
370
    50
100
AcDbLine
 10
63.563515
 20
114.958012
 30
0.0
 11
63.503068
 21
115.335688
 31
0.0
  0
POLYLINE
  5
56B
330
1F
100
AcDbEntity
  8
001
 62
   253
370
    50
100
AcDb2dPolyline
 66
     1
 10
0.0
 20
0.0
 30
0.0
  0
VERTEX
  5
56D
330
56B
100
AcDbEntity
  8
001
 62
   253
370
    50
100
AcDbVertex
100
AcDb2dVertex
 10
63.5497
 20
113.755329
 30
0.0
  0
VERTEX
  5
56E
330
56B
100
AcDbEntity
  8
001
 62
   253
370
    50
100
AcDbVertex
100
AcDb2dVertex
 10
63.549787
 20
113.997327
 30
0.0
  0
VERTEX
  5
56F
330
56B
100
AcDbEntity
  8
001
 62
   253
370
    50
100
AcDbVertex
100
AcDb2dVertex
 10
63.547824
 20
114.239278
 30
0.0
  0
VERTEX
  5
570
330
56B
100
AcDbEntity
  8
001
 62
   253
370
    50
100
AcDbVertex
100
AcDb2dVertex
 10
63.530716
 20
114.787601
 30
0.0
  0
VERTEX
  5
571
330
56B
100
AcDbEntity
  8
001
 62
   253
370
    50
100
AcDbVertex
100
AcDb2dVertex
 10
63.503068
 20
115.335688
 30
0.0
  0
SEQEND
  5
56C
330
56B
100
AcDbEntity
  8
001
370
    50
  0
POLYLINE
  5
572
330
1F
100
AcDbEntity
  8
001
 62
   253
370
    50
100
AcDb2dPolyline
 66
     1
 10
0.0
 20
0.0
 30
0.0
  0
VERTEX
  5
574
330
572
100
AcDbEntity
  8
001
 62
   253
370
    50
100
AcDbVertex
100
AcDb2dVertex
 10
61.143832
 20
110.303946
 30
0.0
  0
VERTEX
  5
575
330
572
100
AcDbEntity
  8
001
 62
   253
370
    50
100
AcDbVertex
100
AcDb2dVertex
 10
59.818622
 20
110.216175
 30
0.0
  0
VERTEX
  5
576
330
572
100
AcDbEntity
  8
001
 62
   253
370
    50
100
AcDbVertex
100
AcDb2dVertex
 10
57.881803
 20
110.087494
 30
0.0
  0
VERTEX
  5
577
330
572
100
AcDbEntity
  8
001
 62
   253
370
    50
100
AcDbVertex
100
AcDb2dVertex
 10
55.941421
 20
109.958016
 30
0.0
  0
VERTEX
  5
578
330
572
100
AcDbEntity
  8
001
 62
   253
370
    50
100
AcDbVertex
100
AcDb2dVertex
 10
54.61381
 20
109.869153
 30
0.0
  0
SEQEND
  5
573
330
572
100
AcDbEntity
  8
001
370
    50
  0
LINE
  5
579
330
1F
100
AcDbEntity
  8
001
 62
   253
370
    50
100
AcDbLine
 10
49.520049
 20
105.963433
 30
0.0
 11
49.775585
 21
105.60583
 31
0.0
  0
LINE
  5
57A
330
1F
100
AcDbEntity
  8
001
 62
   253
370
    50
100
AcDbLine
 10
49.520049
 20
106.244179
 30
0.0
 11
49.775747
 21
106.635584
 31
0.0
  0
LINE
  5
57B
330
1F
100
AcDbEntity
  8
001
 62
   253
370
    50
100
AcDbLine
 10
49.775747
 20
106.635584
 30
0.0
 11
54.61381
 21
109.869153
 31
0.0
  0
POLYLINE
  5
57C
330
1F
100
AcDbEntity
  8
001
 62
   253
370
    50
100
AcDb2dPolyline
 66
     1
 10
0.0
 20
0.0
 30
0.0
  0
VERTEX
  5
57E
330
57C
100
AcDbEntity
  8
001
 62
   253
370
    50
100
AcDbVertex
100
AcDb2dVertex
 10
58.182966
 20
108.688645
 30
0.0
  0
VERTEX
  5
57F
330
57C
100
AcDbEntity
  8
001
 62
   253
370
    50
100
AcDbVertex
100
AcDb2dVertex
 10
57.977526
 20
108.755799
 30
0.0
  0
VERTEX
  5
580
330
57C
100
AcDbEntity
  8
001
 62
   253
370
    50
100
AcDbVertex
100
AcDb2dVertex
 10
57.685765
 20
108.832459
 30
0.0
  0
VERTEX
  5
581
330
57C
100
AcDbEntity
  8
001
 62
   253
370
    50
100
AcDbVertex
100
AcDb2dVertex
 10
57.245336
 20
108.898883
 30
0.0
  0
VERTEX
  5
582
330
57C
100
AcDbEntity
  8
001
 62
   253
370
    50
100
AcDbVertex
100
AcDb2dVertex
 10
56.83887
 20
108.90423
 30
0.0
  0
VERTEX
  5
583
330
57C
100
AcDbEntity
  8
001
 62
   253
370
    50
100
AcDbVertex
100
AcDb2dVertex
 10
56.619298
 20
108.893411
 30
0.0
  0
VERTEX
  5
584
330
57C
100
AcDbEntity
  8
001
 62
   253
370
    50
100
AcDbVertex
100
AcDb2dVertex
 10
56.396596
 20
108.873153
 30
0.0
  0
VERTEX
  5
585
330
57C
100
AcDbEntity
  8
001
 62
   253
370
    50
100
AcDbVertex
100
AcDb2dVertex
 10
56.176552
 20
108.841437
 30
0.0
  0
VERTEX
  5
586
330
57C
100
AcDbEntity
  8
001
 62
   253
370
    50
100
AcDbVertex
100
AcDb2dVertex
 10
55.959607
 20
108.798241
 30
0.0
  0
VERTEX
  5
587
330
57C
100
AcDbEntity
  8
001
 62
   253
370
    50
100
AcDbVertex
100
AcDb2dVertex
 10
55.550816
 20
108.684139
 30
0.0
  0
VERTEX
  5
588
330
57C
100
AcDbEntity
  8
001
 62
   253
370
    50
100
AcDbVertex
100
AcDb2dVertex
 10
55.154026
 20
108.527275
 30
0.0
  0
VERTEX
  5
589
330
57C
100
AcDbEntity
  8
001
 62
   253
370
    50
100
AcDbVertex
100
AcDb2dVertex
 10
54.683274
 20
108.259571
 30
0.0
  0
VERTEX
  5
58A
330
57C
100
AcDbEntity
  8
001
 62
   253
370
    50
100
AcDbVertex
100
AcDb2dVertex
 10
54.291001
 20
107.8875
 30
0.0
  0
VERTEX
  5
58B
330
57C
100
AcDbEntity
  8
001
 62
   253
370
    50
100
AcDbVertex
100
AcDb2dVertex
 10
54.204182
 20
107.763507
 30
0.0
  0
VERTEX
  5
58C
330
57C
100
AcDbEntity
  8
001
 62
   253
370
    50
100
AcDbVertex
100
AcDb2dVertex
 10
54.131969
 20
107.637099
 30
0.0
  0
VERTEX
  5
58D
330
57C
100
AcDbEntity
  8
001
 62
   253
370
    50
100
AcDbVertex
100
AcDb2dVertex
 10
54.082005
 20
107.520761
 30
0.0
  0
VERTEX
  5
58E
330
57C
100
AcDbEntity
  8
001
 62
   253
370
    50
100
AcDbVertex
100
AcDb2dVertex
 10
54.04703
 20
107.380418
 30
0.0
  0
VERTEX
  5
58F
330
57C
100
AcDbEntity
  8
001
 62
   253
370
    50
100
AcDbVertex
100
AcDb2dVertex
 10
54.042212
 20
107.350424
 30
0.0
  0
VERTEX
  5
590
330
57C
100
AcDbEntity
  8
001
 62
   253
370
    50
100
AcDbVertex
100
AcDb2dVertex
 10
54.039257
 20
107.329466
 30
0.0
  0
SEQEND
  5
57D
330
57C
100
AcDbEntity
  8
001
370
    50
  0
POLYLINE
  5
591
330
1F
100
AcDbEntity
  8
001
 62
   253
370
    50
100
AcDb2dPolyline
 66
     1
 10
0.0
 20
0.0
 30
0.0
  0
VERTEX
  5
593
330
591
100
AcDbEntity
  8
001
 62
   253
370
    50
100
AcDbVertex
100
AcDb2dVertex
 10
54.039257
 20
107.329466
 30
0.0
  0
VERTEX
  5
594
330
591
100
AcDbEntity
  8
001
 62
   253
370
    50
100
AcDbVertex
100
AcDb2dVertex
 10
54.034874
 20
107.243858
 30
0.0
  0
VERTEX
  5
595
330
591
100
AcDbEntity
  8
001
 62
   253
370
    50
100
AcDbVertex
100
AcDb2dVertex
 10
54.038767
 20
107.125257
 30
0.0
  0
VERTEX
  5
596
330
591
100
AcDbEntity
  8
001
 62
   253
370
    50
100
AcDbVertex
100
AcDb2dVertex
 10
54.062946
 20
106.993868
 30
0.0
  0
VERTEX
  5
597
330
591
100
AcDbEntity
  8
001
 62
   253
370
    50
100
AcDbVertex
100
AcDb2dVertex
 10
54.107428
 20
106.879369
 30
0.0
  0
VERTEX
  5
598
330
591
100
AcDbEntity
  8
001
 62
   253
370
    50
100
AcDbVertex
100
AcDb2dVertex
 10
54.172615
 20
106.761409
 30
0.0
  0
VERTEX
  5
599
330
591
100
AcDbEntity
  8
001
 62
   253
370
    50
100
AcDbVertex
100
AcDb2dVertex
 10
54.25093
 20
106.650226
 30
0.0
  0
VERTEX
  5
59A
330
591
100
AcDbEntity
  8
001
 62
   253
370
    50
100
AcDbVertex
100
AcDb2dVertex
 10
54.348099
 20
106.542506
 30
0.0
  0
VERTEX
  5
59B
330
591
100
AcDbEntity
  8
001
 62
   253
370
    50
100
AcDbVertex
100
AcDb2dVertex
 10
54.46491
 20
106.444788
 30
0.0
  0
VERTEX
  5
59C
330
591
100
AcDbEntity
  8
001
 62
   253
370
    50
100
AcDbVertex
100
AcDb2dVertex
 10
54.75567
 20
106.268721
 30
0.0
  0
VERTEX
  5
59D
330
591
100
AcDbEntity
  8
001
 62
   253
370
    50
100
AcDbVertex
100
AcDb2dVertex
 10
54.985569
 20
106.161619
 30
0.0
  0
SEQEND
  5
592
330
591
100
AcDbEntity
  8
001
370
    50
  0
LINE
  5
59E
330
1F
100
AcDbEntity
  8
001
 62
   253
370
    50
100
AcDbLine
 10
49.775585
 20
97.433106
 30
0.0
 11
49.520049
 21
97.815945
 31
0.0
  0
LINE
  5
59F
330
1F
100
AcDbEntity
  8
001
 62
   253
370
    50
100
AcDbLine
 10
49.520049
 20
97.815945
 30
0.0
 11
49.520049
 21
106.244179
 31
0.0
  0
LINE
  5
5A0
330
1F
100
AcDbEntity
  8
001
  6
DASHED
 62
   253
370
    50
100
AcDbLine
 10
61.820049
 20
55.41482
 30
0.0
 11
61.820049
 21
95.41482
 31
0.0
  0
LINE
  5
5A1
330
1F
100
AcDbEntity
  8
001
  6
DASHED
 62
   253
370
    50
100
AcDbLine
 10
58.820049
 20
52.41482
 30
0.0
 11
61.820049
 21
55.41482
 31
0.0
  0
LINE
  5
5A2
330
1F
100
AcDbEntity
  8
001
  6
DASHED
 62
   253
370
    50
100
AcDbLine
 10
61.820049
 20
95.41482
 30
0.0
 11
58.820049
 21
98.41482
 31
0.0
  0
LINE
  5
5A3
330
1F
100
AcDbEntity
  8
001
  6
DASHED
 62
   253
370
    50
100
AcDbLine
 10
75.120049
 20
55.41482
 30
0.0
 11
75.120049
 21
95.41482
 31
0.0
  0
LINE
  5
5A4
330
1F
100
AcDbEntity
  8
001
  6
DASHED
 62
   253
370
    50
100
AcDbLine
 10
75.120049
 20
95.41482
 30
0.0
 11
61.820049
 21
95.41482
 31
0.0
  0
LINE
  5
5A5
330
1F
100
AcDbEntity
  8
001
  6
DASHED
 62
   253
370
    50
100
AcDbLine
 10
61.820049
 20
55.41482
 30
0.0
 11
75.120049
 21
55.41482
 31
0.0
  0
LINE
  5
5A6
330
1F
100
AcDbEntity
  8
001
  6
DASHED
 62
   253
370
    50
100
AcDbLine
 10
58.820049
 20
47.236625
 30
0.0
 11
58.820049
 21
103.593015
 31
0.0
  0
LINE
  5
5A7
330
1F
100
AcDbEntity
  8
001
370
    50
100
AcDbLine
 10
55.041208
 20
29.14035
 30
0.0
 11
48.820049
 21
29.14035
 31
0.0
  0
LINE
  5
5A8
330
1F
100
AcDbEntity
  8
001
370
    50
100
AcDbLine
 10
48.820049
 20
35.402991
 30
0.0
 11
47.341752
 21
35.402991
 31
0.0
  0
ARC
  5
5A9
330
1F
100
AcDbEntity
  8
001
 62
   253
370
    50
100
AcDbCircle
 10
163.820049
 20
80.41482
 30
0.0
 40
5.0
100
AcDbArc
 50
0.0
 51
90.0
  0
LINE
  5
5AA
330
1F
100
AcDbEntity
  8
001
 62
   253
370
    50
100
AcDbLine
 10
91.820049
 20
85.41482
 30
0.0
 11
91.820049
 21
75.41482
 31
0.0
  0
LINE
  5
5AB
330
1F
100
AcDbEntity
  8
001
 62
   253
370
    50
100
AcDbLine
 10
168.820049
 20
80.41482
 30
0.0
 11
168.820049
 21
75.41482
 31
0.0
  0
LINE
  5
5AC
330
1F
100
AcDbEntity
  8
001
 62
   253
370
    50
100
AcDbLine
 10
163.820049
 20
65.41482
 30
0.0
 11
91.820049
 21
65.41482
 31
0.0
  0
LINE
  5
5AD
330
1F
100
AcDbEntity
  8
001
 62
   253
370
    50
100
AcDbLine
 10
91.820049
 20
65.91482
 30
0.0
 11
88.820049
 21
65.91482
 31
0.0
  0
ARC
  5
5AE
330
1F
100
AcDbEntity
  8
001
 62
   253
370
    50
100
AcDbCircle
 10
163.820049
 20
70.41482
 30
0.0
 40
5.0
100
AcDbArc
 50
270.0
 51
0.0
  0
LINE
  5
5AF
330
1F
100
AcDbEntity
  8
001
 62
   253
370
    50
100
AcDbLine
 10
91.820049
 20
65.41482
 30
0.0
 11
91.820049
 21
75.41482
 31
0.0
  0
LINE
  5
5B0
330
1F
100
AcDbEntity
  8
001
 62
   253
370
    50
100
AcDbLine
 10
168.820049
 20
70.41482
 30
0.0
 11
168.820049
 21
75.41482
 31
0.0
  0
LINE
  5
5B1
330
1F
100
AcDbEntity
  8
001
 62
   253
370
    50
100
AcDbLine
 10
48.821701
 20
75.41482
 30
0.0
 11
45.920516
 21
73.73982
 31
0.0
  0
LINE
  5
5B2
330
1F
100
AcDbEntity
  8
001
 62
   253
370
    50
100
AcDbLine
 10
48.821701
 20
75.41482
 30
0.0
 11
45.920516
 21
77.08982
 31
0.0
  0
LINE
  5
5B3
330
1F
100
AcDbEntity
  8
001
 62
   253
370
    50
100
AcDbLine
 10
168.820049
 20
75.41482
 30
0.0
 11
171.721234
 21
77.08982
 31
0.0
  0
LINE
  5
5B4
330
1F
100
AcDbEntity
  8
001
 62
   253
370
    50
100
AcDbLine
 10
168.820049
 20
75.41482
 30
0.0
 11
171.721234
 21
73.73982
 31
0.0
  0
ENDSEC
  0
SECTION
  2
OBJECTS
  0
DICTIONARY
  5
C
330
0
100
AcDbDictionary
281
     1
  3
ACAD_GROUP
350
D
  3
ACAD_LAYOUT
350
1A
  3
ACAD_MLEADERSTYLE
350
5B8
  3
ACAD_MLINESTYLE
350
17
  3
ACAD_PLOTSETTINGS
350
19
  3
ACAD_PLOTSTYLENAME
350
E
  3
ACAD_SCALELIST
350
3B
  3
ACAD_TABLESTYLE
350
5B7
  3
ACAD_VISUALSTYLE
350
2A
  3
AcDbVariableDictionary
350
5B5
  0
DICTIONARY
  5
D
102
{ACAD_REACTORS
330
C
102
}
330
C
100
AcDbDictionary
281
     1
  0
DICTIONARY
  5
1A
102
{ACAD_REACTORS
330
C
102
}
330
C
100
AcDbDictionary
281
     1
  3
Layout1
350
1E
  3
Layout2
350
26
  3
Model
350
22
  0
DICTIONARY
  5
5B8
102
{ACAD_REACTORS
330
C
102
}
330
C
100
AcDbDictionary
281
     1
  0
DICTIONARY
  5
17
102
{ACAD_REACTORS
330
C
102
}
330
C
100
AcDbDictionary
281
     1
  3
Standard
350
18
  0
DICTIONARY
  5
19
102
{ACAD_REACTORS
330
C
102
}
330
C
100
AcDbDictionary
281
     1
  0
ACDBDICTIONARYWDFLT
  5
E
102
{ACAD_REACTORS
330
C
102
}
330
C
100
AcDbDictionary
281
     1
  3
Normal
350
F
100
AcDbDictionaryWithDefault
340
F
  0
DICTIONARY
  5
3B
102
{ACAD_REACTORS
330
C
102
}
330
C
100
AcDbDictionary
281
     1
  3
A0
350
3C
  3
A1
350
3D
  3
A2
350
3E
  3
A3
350
3F
  3
A4
350
40
  3
A5
350
41
  3
A6
350
42
  3
A7
350
43
  3
A8
350
44
  3
A9
350
45
  3
B0
350
46
  3
B1
350
47
  3
B2
350
48
  3
B3
350
49
  3
B4
350
4A
  3
B5
350
4B
  3
B6
350
4C
  3
B7
350
4D
  3
B8
350
4E
  3
B9
350
4F
  3
C0
350
50
  3
C1
350
51
  3
C2
350
52
  3
C3
350
53
  3
C4
350
54
  3
C5
350
55
  3
C6
350
56
  3
C7
350
57
  3
C8
350
58
  3
C9
350
59
  3
D0
350
5A
  3
D1
350
5B
  3
D2
350
5C
  0
DICTIONARY
  5
5B7
102
{ACAD_REACTORS
330
C
102
}
330
C
100
AcDbDictionary
281
     1
  0
DICTIONARY
  5
2A
102
{ACAD_REACTORS
330
C
102
}
330
C
100
AcDbDictionary
281
     1
  3
2dWireframe
350
2F
  3
3D Hidden
350
31
  3
3dWireframe
350
30
  3
Basic
350
32
  3
Brighten
350
36
  3
ColorChange
350
3A
  3
Conceptual
350
34
  3
Dim
350
35
  3
Facepattern
350
39
  3
Flat
350
2B
  3
FlatWithEdges
350
2C
  3
Gouraud
350
2D
  3
GouraudWithEdges
350
2E
  3
Linepattern
350
38
  3
Realistic
350
33
  3
Thicken
350
37
  0
DICTIONARY
  5
5B5
102
{ACAD_REACTORS
330
C
102
}
330
C
100
AcDbDictionary
281
     1
  3
CANNOSCALE
350
5B6
  3
PSOLHEIGHT
350
5BA
  3
PSOLWIDTH
350
5B9
  0
LAYOUT
  5
1E
102
{ACAD_REACTORS
330
1A
102
}
330
1A
100
AcDbPlotSettings
  1

  2
none_device
  4

  6

 40
0.0
 41
0.0
 42
0.0
 43
0.0
 44
0.0
 45
0.0
 46
0.0
 47
0.0
 48
0.0
 49
0.0
140
0.0
141
0.0
142
1.0
143
1.0
 70
   688
 72
     0
 73
     0
 74
     5
  7

 75
    16
147
1.0
148
0.0
149
0.0
100
AcDbLayout
  1
Layout1
 70
     1
 71
     1
 10
0.0
 20
0.0
 11
12.0
 21
9.0
 12
0.0
 22
0.0
 32
0.0
 14
1.000000E+20
 24
1.000000E+20
 34
0.0
 15
-1.000000E+20
 25
-1.000000E+20
 35
0.0
146
0.0
 13
0.0
 23
0.0
 33
0.0
 16
1.0
 26
0.0
 36
0.0
 17
0.0
 27
1.0
 37
0.0
 76
     0
330
1B
  0
LAYOUT
  5
26
102
{ACAD_REACTORS
330
1A
102
}
330
1A
100
AcDbPlotSettings
  1

  2
none_device
  4

  6

 40
0.0
 41
0.0
 42
0.0
 43
0.0
 44
0.0
 45
0.0
 46
0.0
 47
0.0
 48
0.0
 49
0.0
140
0.0
141
0.0
142
1.0
143
1.0
 70
   688
 72
     0
 73
     0
 74
     5
  7

 75
    16
147
1.0
148
0.0
149
0.0
100
AcDbLayout
  1
Layout2
 70
     1
 71
     2
 10
0.0
 20
0.0
 11
0.0
 21
0.0
 12
0.0
 22
0.0
 32
0.0
 14
0.0
 24
0.0
 34
0.0
 15
0.0
 25
0.0
 35
0.0
146
0.0
 13
0.0
 23
0.0
 33
0.0
 16
1.0
 26
0.0
 36
0.0
 17
0.0
 27
1.0
 37
0.0
 76
     0
330
23
  0
LAYOUT
  5
22
102
{ACAD_REACTORS
330
1A
102
}
330
1A
100
AcDbPlotSettings
  1

  2
none_device
  4

  6

 40
0.0
 41
0.0
 42
0.0
 43
0.0
 44
0.0
 45
0.0
 46
0.0
 47
0.0
 48
0.0
 49
0.0
140
0.0
141
0.0
142
1.0
143
1.0
 70
  1712
 72
     0
 73
     0
 74
     0
  7

 75
     0
147
1.0
148
0.0
149
0.0
100
AcDbLayout
  1
Model
 70
     1
 71
     0
 10
0.0
 20
0.0
 11
12.0
 21
9.0
 12
0.0
 22
0.0
 32
0.0
 14
4.067856
 24
-1.192337
 34
0.0
 15
204.067856
 25
143.883972
 35
0.0
146
0.0
 13
0.0
 23
0.0
 33
0.0
 16
1.0
 26
0.0
 36
0.0
 17
0.0
 27
1.0
 37
0.0
 76
     0
330
1F
331
29
  0
MLINESTYLE
  5
18
102
{ACAD_REACTORS
330
17
102
}
330
17
100
AcDbMlineStyle
  2
Standard
 70
     0
  3

 62
   256
 51
90.0
 52
90.0
 71
     2
 49
0.5
 62
   256
  6
BYLAYER
 49
-0.5
 62
   256
  6
BYLAYER
  0
ACDBPLACEHOLDER
  5
F
102
{ACAD_REACTORS
330
E
102
}
330
E
  0
SCALE
  5
3C
102
{ACAD_REACTORS
330
3B
102
}
330
3B
100
AcDbScale
 70
     0
300
1:1
140
1.0
141
1.0
290
     1
  0
SCALE
  5
3D
102
{ACAD_REACTORS
330
3B
102
}
330
3B
100
AcDbScale
 70
     0
300
1:2
140
1.0
141
2.0
290
     0
  0
SCALE
  5
3E
102
{ACAD_REACTORS
330
3B
102
}
330
3B
100
AcDbScale
 70
     0
300
1:4
140
1.0
141
4.0
290
     0
  0
SCALE
  5
3F
102
{ACAD_REACTORS
330
3B
102
}
330
3B
100
AcDbScale
 70
     0
300
1:5
140
1.0
141
5.0
290
     0
  0
SCALE
  5
40
102
{ACAD_REACTORS
330
3B
102
}
330
3B
100
AcDbScale
 70
     0
300
1:8
140
1.0
141
8.0
290
     0
  0
SCALE
  5
41
102
{ACAD_REACTORS
330
3B
102
}
330
3B
100
AcDbScale
 70
     0
300
1:10
140
1.0
141
10.0
290
     0
  0
SCALE
  5
42
102
{ACAD_REACTORS
330
3B
102
}
330
3B
100
AcDbScale
 70
     0
300
1:16
140
1.0
141
16.0
290
     0
  0
SCALE
  5
43
102
{ACAD_REACTORS
330
3B
102
}
330
3B
100
AcDbScale
 70
     0
300
1:20
140
1.0
141
20.0
290
     0
  0
SCALE
  5
44
102
{ACAD_REACTORS
330
3B
102
}
330
3B
100
AcDbScale
 70
     0
300
1:30
140
1.0
141
30.0
290
     0
  0
SCALE
  5
45
102
{ACAD_REACTORS
330
3B
102
}
330
3B
100
AcDbScale
 70
     0
300
1:40
140
1.0
141
40.0
290
     0
  0
SCALE
  5
46
102
{ACAD_REACTORS
330
3B
102
}
330
3B
100
AcDbScale
 70
     0
300
1:50
140
1.0
141
50.0
290
     0
  0
SCALE
  5
47
102
{ACAD_REACTORS
330
3B
102
}
330
3B
100
AcDbScale
 70
     0
300
1:100
140
1.0
141
100.0
290
     0
  0
SCALE
  5
48
102
{ACAD_REACTORS
330
3B
102
}
330
3B
100
AcDbScale
 70
     0
300
2:1
140
2.0
141
1.0
290
     0
  0
SCALE
  5
49
102
{ACAD_REACTORS
330
3B
102
}
330
3B
100
AcDbScale
 70
     0
300
4:1
140
4.0
141
1.0
290
     0
  0
SCALE
  5
4A
102
{ACAD_REACTORS
330
3B
102
}
330
3B
100
AcDbScale
 70
     0
300
8:1
140
8.0
141
1.0
290
     0
  0
SCALE
  5
4B
102
{ACAD_REACTORS
330
3B
102
}
330
3B
100
AcDbScale
 70
     0
300
10:1
140
10.0
141
1.0
290
     0
  0
SCALE
  5
4C
102
{ACAD_REACTORS
330
3B
102
}
330
3B
100
AcDbScale
 70
     0
300
100:1
140
100.0
141
1.0
290
     0
  0
SCALE
  5
4D
102
{ACAD_REACTORS
330
3B
102
}
330
3B
100
AcDbScale
 70
     0
300
1/128" = 1'-0"
140
0.007812
141
12.0
290
     0
  0
SCALE
  5
4E
102
{ACAD_REACTORS
330
3B
102
}
330
3B
100
AcDbScale
 70
     0
300
1/64" = 1'-0"
140
0.015625
141
12.0
290
     0
  0
SCALE
  5
4F
102
{ACAD_REACTORS
330
3B
102
}
330
3B
100
AcDbScale
 70
     0
300
1/32" = 1'-0"
140
0.03125
141
12.0
290
     0
  0
SCALE
  5
50
102
{ACAD_REACTORS
330
3B
102
}
330
3B
100
AcDbScale
 70
     0
300
1/16" = 1'-0"
140
0.0625
141
12.0
290
     0
  0
SCALE
  5
51
102
{ACAD_REACTORS
330
3B
102
}
330
3B
100
AcDbScale
 70
     0
300
3/32" = 1'-0"
140
0.09375
141
12.0
290
     0
  0
SCALE
  5
52
102
{ACAD_REACTORS
330
3B
102
}
330
3B
100
AcDbScale
 70
     0
300
1/8" = 1'-0"
140
0.125
141
12.0
290
     0
  0
SCALE
  5
53
102
{ACAD_REACTORS
330
3B
102
}
330
3B
100
AcDbScale
 70
     0
300
3/16" = 1'-0"
140
0.1875
141
12.0
290
     0
  0
SCALE
  5
54
102
{ACAD_REACTORS
330
3B
102
}
330
3B
100
AcDbScale
 70
     0
300
1/4" = 1'-0"
140
0.25
141
12.0
290
     0
  0
SCALE
  5
55
102
{ACAD_REACTORS
330
3B
102
}
330
3B
100
AcDbScale
 70
     0
300
3/8" = 1'-0"
140
0.375
141
12.0
290
     0
  0
SCALE
  5
56
102
{ACAD_REACTORS
330
3B
102
}
330
3B
100
AcDbScale
 70
     0
300
1/2" = 1'-0"
140
0.5
141
12.0
290
     0
  0
SCALE
  5
57
102
{ACAD_REACTORS
330
3B
102
}
330
3B
100
AcDbScale
 70
     0
300
3/4" = 1'-0"
140
0.75
141
12.0
290
     0
  0
SCALE
  5
58
102
{ACAD_REACTORS
330
3B
102
}
330
3B
100
AcDbScale
 70
     0
300
1" = 1'-0"
140
1.0
141
12.0
290
     0
  0
SCALE
  5
59
102
{ACAD_REACTORS
330
3B
102
}
330
3B
100
AcDbScale
 70
     0
300
1-1/2" = 1'-0"
140
1.5
141
12.0
290
     0
  0
SCALE
  5
5A
102
{ACAD_REACTORS
330
3B
102
}
330
3B
100
AcDbScale
 70
     0
300
3" = 1'-0"
140
3.0
141
12.0
290
     0
  0
SCALE
  5
5B
102
{ACAD_REACTORS
330
3B
102
}
330
3B
100
AcDbScale
 70
     0
300
6" = 1'-0"
140
6.0
141
12.0
290
     0
  0
SCALE
  5
5C
102
{ACAD_REACTORS
330
3B
102
}
330
3B
100
AcDbScale
 70
     0
300
1'-0" = 1'-0"
140
12.0
141
12.0
290
     0
  0
VISUALSTYLE
  5
2F
102
{ACAD_REACTORS
330
2A
102
}
330
2A
100
AcDbVisualStyle
  2
2dWireframe
 70
     4
 71
     0
 72
     2
 73
     0
 90
        0
 40
-0.6
 41
-30.0
 62
     5
 63
     7
 74
     1
 91
        4
 64
     7
 65
   257
 75
     1
175
     1
 42
1.0
 92
        0
 66
   257
 43
1.0
 76
     1
 77
     6
 78
     2
 67
     7
 79
     5
170
     0
171
     0
290
     0
174
     0
 93
        1
 44
0.0
173
     0
291
     0
 45
0.0
1001
ACAD
1000
AcDbSavedByObjectVersion
1070
     0
  0
VISUALSTYLE
  5
31
102
{ACAD_REACTORS
330
2A
102
}
330
2A
100
AcDbVisualStyle
  2
3D Hidden
 70
     6
 71
     1
 72
     2
 73
     2
 90
        0
 40
-0.6
 41
-30.0
 62
     5
 63
     7
 74
     2
 91
        2
 64
     7
 65
   257
 75
     2
175
     1
 42
40.0
 92
        0
 66
   257
 43
1.0
 76
     1
 77
     6
 78
     2
 67
     7
 79
     3
170
     0
171
     0
290
     0
174
     0
 93
        1
 44
0.0
173
     0
291
     0
 45
0.0
1001
ACAD
1000
AcDbSavedByObjectVersion
1070
     0
  0
VISUALSTYLE
  5
30
102
{ACAD_REACTORS
330
2A
102
}
330
2A
100
AcDbVisualStyle
  2
3dWireframe
 70
     5
 71
     0
 72
     2
 73
     0
 90
        0
 40
-0.6
 41
-30.0
 62
     5
 63
     7
 74
     1
 91
        4
 64
     7
 65
   257
 75
     1
175
     1
 42
1.0
 92
        0
 66
   257
 43
1.0
 76
     1
 77
     6
 78
     2
 67
     7
 79
     5
170
     0
171
     0
290
     0
174
     0
 93
        1
 44
0.0
173
     0
291
     0
 45
0.0
1001
ACAD
1000
AcDbSavedByObjectVersion
1070
     0
  0
VISUALSTYLE
  5
32
102
{ACAD_REACTORS
330
2A
102
}
330
2A
100
AcDbVisualStyle
  2
Basic
 70
     7
 71
     1
 72
     0
 73
     1
 90
        0
 40
-0.6
 41
-30.0
 62
     5
 63
     7
 74
     0
 91
        4
 64
     7
 65
   257
 75
     1
175
     1
 42
1.0
 92
        8
 66
     7
 43
1.0
 76
     1
 77
     6
 78
     2
 67
     7
 79
     5
170
     0
171
     0
290
     0
174
     0
 93
        1
 44
0.0
173
     0
291
     1
 45
0.0
1001
ACAD
1000
AcDbSavedByObjectVersion
1070
     0
  0
VISUALSTYLE
  5
36
102
{ACAD_REACTORS
330
2A
102
}
330
2A
100
AcDbVisualStyle
  2
Brighten
 70
    12
 71
     2
 72
     2
 73
     0
 90
        0
 40
-0.6
 41
-30.0
 62
     5
 63
     7
 74
     1
 91
        4
 64
     7
 65
   257
 75
     1
175
     1
 42
1.0
 92
        8
 66
     7
 43
1.0
 76
     1
 77
     6
 78
     2
 67
     7
 79
     5
170
     0
171
     0
290
     0
174
     0
 93
        1
 44
50.0
173
     0
291
     1
 45
0.0
1001
ACAD
1000
AcDbSavedByObjectVersion
1070
     0
  0
VISUALSTYLE
  5
3A
102
{ACAD_REACTORS
330
2A
102
}
330
2A
100
AcDbVisualStyle
  2
ColorChange
 70
    16
 71
     2
 72
     2
 73
     3
 90
        0
 40
-0.6
 41
-30.0
 62
     5
 63
     8
 74
     1
 91
        4
 64
     7
 65
   257
 75
     1
175
     1
 42
1.0
 92
        8
 66
     8
 43
1.0
 76
     1
 77
     6
 78
     2
 67
     7
 79
     5
170
     0
171
     0
290
     0
174
     0
 93
        1
 44
0.0
173
     0
291
     1
 45
0.0
1001
ACAD
1000
AcDbSavedByObjectVersion
1070
     0
  0
VISUALSTYLE
  5
34
102
{ACAD_REACTORS
330
2A
102
}
330
2A
100
AcDbVisualStyle
  2
Conceptual
 70
     9
 71
     3
 72
     2
 73
     0
 90
        0
 40
-0.6
 41
-30.0
 62
     5
 63
     7
 74
     2
 91
        2
 64
     7
 65
   257
 75
     1
175
     1
 42
40.0
 92
        8
 66
     7
 43
1.0
 76
     1
 77
     6
 78
     2
 67
     7
 79
     3
170
     0
171
     0
290
     0
174
     0
 93
        1
 44
0.0
173
     0
291
     0
 45
0.0
1001
ACAD
1000
AcDbSavedByObjectVersion
1070
     0
  0
VISUALSTYLE
  5
35
102
{ACAD_REACTORS
330
2A
102
}
330
2A
100
AcDbVisualStyle
  2
Dim
 70
    11
 71
     2
 72
     2
 73
     0
 90
        0
 40
-0.6
 41
-30.0
 62
     5
 63
     7
 74
     1
 91
        4
 64
     7
 65
   257
 75
     1
175
     1
 42
1.0
 92
        8
 66
     7
 43
1.0
 76
     1
 77
     6
 78
     2
 67
     7
 79
     5
170
     0
171
     0
290
     0
174
     0
 93
        1
 44
-50.0
173
     0
291
     1
 45
0.0
1001
ACAD
1000
AcDbSavedByObjectVersion
1070
     0
  0
VISUALSTYLE
  5
39
102
{ACAD_REACTORS
330
2A
102
}
330
2A
100
AcDbVisualStyle
  2
Facepattern
 70
    15
 71
     2
 72
     2
 73
     0
 90
        0
 40
-0.6
 41
-30.0
 62
     5
 63
     7
 74
     1
 91
        4
 64
     7
 65
   257
 75
     1
175
     1
 42
1.0
 92
        8
 66
     7
 43
1.0
 76
     1
 77
     6
 78
     2
 67
     7
 79
     5
170
     0
171
     0
290
     0
174
     0
 93
        1
 44
0.0
173
     0
291
     1
 45
0.0
1001
ACAD
1000
AcDbSavedByObjectVersion
1070
     0
  0
VISUALSTYLE
  5
2B
102
{ACAD_REACTORS
330
2A
102
}
330
2A
100
AcDbVisualStyle
  2
Flat
 70
     0
 71
     2
 72
     1
 73
     1
 90
        2
 40
-0.6
 41
30.0
 62
     5
 63
     7
 74
     0
 91
        4
 64
     7
 65
   257
 75
     1
175
     1
 42
1.0
 92
        8
 66
     7
 43
1.0
 76
     1
 77
     6
 78
     2
 67
     7
 79
     5
170
     0
171
     0
290
     0
174
     0
 93
       13
 44
0.0
173
     0
291
     1
 45
0.0
1001
ACAD
1000
AcDbSavedByObjectVersion
1070
     0
  0
VISUALSTYLE
  5
2C
102
{ACAD_REACTORS
330
2A
102
}
330
2A
100
AcDbVisualStyle
  2
FlatWithEdges
 70
     1
 71
     2
 72
     1
 73
     1
 90
        2
 40
-0.6
 41
30.0
 62
     5
 63
     7
 74
     1
 91
        4
 64
     7
 65
   257
 75
     1
175
     1
 42
1.0
 92
        0
 66
   257
 43
1.0
 76
     1
 77
     6
 78
     2
 67
     7
 79
     5
170
     0
171
     0
290
     0
174
     0
 93
       13
 44
0.0
173
     0
291
     1
 45
0.0
1001
ACAD
1000
AcDbSavedByObjectVersion
1070
     0
  0
VISUALSTYLE
  5
2D
102
{ACAD_REACTORS
330
2A
102
}
330
2A
100
AcDbVisualStyle
  2
Gouraud
 70
     2
 71
     2
 72
     2
 73
     1
 90
        2
 40
-0.6
 41
30.0
 62
     5
 63
     7
 74
     0
 91
        4
 64
     7
 65
   257
 75
     1
175
     1
 42
1.0
 92
        0
 66
     7
 43
1.0
 76
     1
 77
     6
 78
     2
 67
     7
 79
     5
170
     0
171
     0
290
     0
174
     0
 93
       13
 44
0.0
173
     0
291
     1
 45
0.0
1001
ACAD
1000
AcDbSavedByObjectVersion
1070
     0
  0
VISUALSTYLE
  5
2E
102
{ACAD_REACTORS
330
2A
102
}
330
2A
100
AcDbVisualStyle
  2
GouraudWithEdges
 70
     3
 71
     2
 72
     2
 73
     1
 90
        2
 40
-0.6
 41
30.0
 62
     5
 63
     7
 74
     1
 91
        4
 64
     7
 65
   257
 75
     1
175
     1
 42
1.0
 92
        0
 66
   257
 43
1.0
 76
     1
 77
     6
 78
     2
 67
     7
 79
     5
170
     0
171
     0
290
     0
174
     0
 93
       13
 44
0.0
173
     0
291
     1
 45
0.0
1001
ACAD
1000
AcDbSavedByObjectVersion
1070
     0
  0
VISUALSTYLE
  5
38
102
{ACAD_REACTORS
330
2A
102
}
330
2A
100
AcDbVisualStyle
  2
Linepattern
 70
    14
 71
     2
 72
     2
 73
     0
 90
        0
 40
-0.6
 41
-30.0
 62
     5
 63
     7
 74
     1
 91
        4
 64
     7
 65
   257
 75
     7
175
     7
 42
1.0
 92
        8
 66
     7
 43
1.0
 76
     1
 77
     6
 78
     2
 67
     7
 79
     5
170
     0
171
     0
290
     0
174
     0
 93
        1
 44
0.0
173
     0
291
     1
 45
0.0
1001
ACAD
1000
AcDbSavedByObjectVersion
1070
     0
  0
VISUALSTYLE
  5
33
102
{ACAD_REACTORS
330
2A
102
}
330
2A
100
AcDbVisualStyle
  2
Realistic
 70
     8
 71
     2
 72
     2
 73
     0
 90
        0
 40
-0.6
 41
-30.0
 62
     5
 63
     7
 74
     1
 91
        0
 64
     7
 65
   257
 75
     1
175
     1
 42
1.0
 92
        8
 66
     8
 43
1.0
 76
     1
 77
     6
 78
     2
 67
     7
 79
     5
170
     0
171
     0
290
     0
174
     0
 93
       13
 44
0.0
173
     0
291
     0
 45
0.0
1001
ACAD
1000
AcDbSavedByObjectVersion
1070
     0
  0
VISUALSTYLE
  5
37
102
{ACAD_REACTORS
330
2A
102
}
330
2A
100
AcDbVisualStyle
  2
Thicken
 70
    13
 71
     2
 72
     2
 73
     0
 90
        0
 40
-0.6
 41
-30.0
 62
     5
 63
     7
 74
     1
 91
        4
 64
     7
 65
   257
 75
     1
175
     1
 42
1.0
 92
       12
 66
     7
 43
1.0
 76
     1
 77
     6
 78
     2
 67
     7
 79
     5
170
     0
171
     0
290
     0
174
     0
 93
        1
 44
0.0
173
     0
291
     1
 45
0.0
1001
ACAD
1000
AcDbSavedByObjectVersion
1070
     0
  0
DICTIONARYVAR
  5
5B6
102
{ACAD_REACTORS
330
5B5
102
}
330
5B5
100
DictionaryVariables
280
     0
  1
1:1
  0
DICTIONARYVAR
  5
5BA
102
{ACAD_REACTORS
330
5B5
102
}
330
5B5
100
DictionaryVariables
280
     0
  1
80.000000
  0
DICTIONARYVAR
  5
5B9
102
{ACAD_REACTORS
330
5B5
102
}
330
5B5
100
DictionaryVariables
280
     0
  1
5.000000
  0
ENDSEC
  0
EOF
