  0
SECTION
  2
HEADER
  9
$ACADVER
  1
AC1015
  9
$ACADMAINTVER
 70
     6
  9
$DWGCODEPAGE
  3
ANSI_932
  9
$INSBASE
 10
0.0
 20
0.0
 30
0.0
  9
$EXTMIN
 10
20.998566
 20
6.717651
 30
0.0
  9
$EXTMAX
 10
197.330582
 20
96.39637
 30
0.0
  9
$LIMMIN
 10
0.0
 20
0.0
  9
$LIMMAX
 10
12.0
 20
9.0
  9
$ORTHOMODE
 70
     0
  9
$REGENMODE
 70
     1
  9
$FILLMODE
 70
     1
  9
$QTEXTMODE
 70
     0
  9
$MIRRTEXT
 70
     1
  9
$LTSCALE
 40
1.978263
  9
$ATTMODE
 70
     1
  9
$TEXTSIZE
 40
3.2
  9
$TRACEWID
 40
1.0
  9
$TEXTSTYLE
  7
Standard
  9
$CLAYER
  8
0
  9
$CELTYPE
  6
ByLayer
  9
$CECOLOR
 62
   256
  9
$CELTSCALE
 40
1.0
  9
$DISPSILH
 70
     0
  9
$DIMSCALE
 40
1.0
  9
$DIMASZ
 40
2.5
  9
$DIMEXO
 40
0.625
  9
$DIMDLI
 40
3.75
  9
$DIMRND
 40
0.0
  9
$DIMDLE
 40
0.0
  9
$DIMEXE
 40
1.25
  9
$DIMTP
 40
0.0
  9
$DIMTM
 40
0.0
  9
$DIMTXT
 40
2.5
  9
$DIMCEN
 40
0.09
  9
$DIMTSZ
 40
0.0
  9
$DIMTOL
 70
     0
  9
$DIMLIM
 70
     0
  9
$DIMTIH
 70
     0
  9
$DIMTOH
 70
     0
  9
$DIMSE1
 70
     0
  9
$DIMSE2
 70
     0
  9
$DIMTAD
 70
     0
  9
$DIMZIN
 70
     8
  9
$DIMBLK
  1

  9
$DIMASO
 70
     1
  9
$DIMSHO
 70
     0
  9
$DIMPOST
  1

  9
$DIMAPOST
  1

  9
$DIMALT
 70
     0
  9
$DIMALTD
 70
     3
  9
$DIMALTF
 40
0.03937
  9
$DIMLFAC
 40
1.0
  9
$DIMTOFL
 70
     1
  9
$DIMTVP
 40
0.0
  9
$DIMTIX
 70
     0
  9
$DIMSOXD
 70
     0
  9
$DIMSAH
 70
     0
  9
$DIMBLK1
  1

  9
$DIMBLK2
  1

  9
$DIMSTYLE
  2
ISO-25
  9
$DIMCLRD
 70
     0
  9
$DIMCLRE
 70
     0
  9
$DIMCLRT
 70
     0
  9
$DIMTFAC
 40
1.0
  9
$DIMGAP
 40
0.625
  9
$DIMJUST
 70
     0
  9
$DIMSD1
 70
     0
  9
$DIMSD2
 70
     0
  9
$DIMTOLJ
 70
     0
  9
$DIMTZIN
 70
     8
  9
$DIMALTZ
 70
     0
  9
$DIMALTTZ
 70
     0
  9
$DIMUPT
 70
     0
  9
$DIMDEC
 70
     2
  9
$DIMTDEC
 70
     2
  9
$DIMALTU
 70
     2
  9
$DIMALTTD
 70
     3
  9
$DIMTXSTY
  7
Standard
  9
$DIMAUNIT
 70
     0
  9
$DIMADEC
 70
     0
  9
$DIMALTRND
 40
0.0
  9
$DIMAZIN
 70
     0
  9
$DIMDSEP
 70
    44
  9
$DIMATFIT
 70
     3
  9
$DIMFRAC
 70
     0
  9
$DIMLDRBLK
  1

  9
$DIMLUNIT
 70
     2
  9
$DIMLWD
 70
    -2
  9
$DIMLWE
 70
    -2
  9
$DIMTMOVE
 70
     0
  9
$LUNITS
 70
     2
  9
$LUPREC
 70
     4
  9
$SKETCHINC
 40
1.0
  9
$FILLETRAD
 40
0.0
  9
$AUNITS
 70
     0
  9
$AUPREC
 70
     0
  9
$MENU
  1
.
  9
$ELEVATION
 40
0.0
  9
$PELEVATION
 40
0.0
  9
$THICKNESS
 40
0.0
  9
$LIMCHECK
 70
     0
  9
$CHAMFERA
 40
10.0
  9
$CHAMFERB
 40
10.0
  9
$CHAMFERC
 40
20.0
  9
$CHAMFERD
 40
0.0
  9
$SKPOLY
 70
     0
  9
$TDCREATE
 40
2456244.613200046
  9
$TDUCREATE
 40
2456244.238200046
  9
$TDUPDATE
 40
2456244.613200058
  9
$TDUUPDATE
 40
2456244.238200058
  9
$TDINDWG
 40
0.0000000116
  9
$TDUSRTIMER
 40
0.0000000116
  9
$USRTIMER
 70
     1
  9
$ANGBASE
 50
0.0
  9
$ANGDIR
 70
     0
  9
$PDMODE
 70
     0
  9
$PDSIZE
 40
0.0
  9
$PLINEWID
 40
0.0
  9
$SPLFRAME
 70
     0
  9
$SPLINETYPE
 70
     6
  9
$SPLINESEGS
 70
     8
  9
$HANDSEED
  5
4F1
  9
$SURFTAB1
 70
     6
  9
$SURFTAB2
 70
     6
  9
$SURFTYPE
 70
     6
  9
$SURFU
 70
     6
  9
$SURFV
 70
     6
  9
$UCSBASE
  2

  9
$UCSNAME
  2

  9
$UCSORG
 10
0.0
 20
0.0
 30
0.0
  9
$UCSXDIR
 10
1.0
 20
0.0
 30
0.0
  9
$UCSYDIR
 10
0.0
 20
1.0
 30
0.0
  9
$UCSORTHOREF
  2

  9
$UCSORTHOVIEW
 70
     0
  9
$UCSORGTOP
 10
0.0
 20
0.0
 30
0.0
  9
$UCSORGBOTTOM
 10
0.0
 20
0.0
 30
0.0
  9
$UCSORGLEFT
 10
0.0
 20
0.0
 30
0.0
  9
$UCSORGRIGHT
 10
0.0
 20
0.0
 30
0.0
  9
$UCSORGFRONT
 10
0.0
 20
0.0
 30
0.0
  9
$UCSORGBACK
 10
0.0
 20
0.0
 30
0.0
  9
$PUCSBASE
  2

  9
$PUCSNAME
  2

  9
$PUCSORG
 10
0.0
 20
0.0
 30
0.0
  9
$PUCSXDIR
 10
1.0
 20
0.0
 30
0.0
  9
$PUCSYDIR
 10
0.0
 20
1.0
 30
0.0
  9
$PUCSORTHOREF
  2

  9
$PUCSORTHOVIEW
 70
     0
  9
$PUCSORGTOP
 10
0.0
 20
0.0
 30
0.0
  9
$PUCSORGBOTTOM
 10
0.0
 20
0.0
 30
0.0
  9
$PUCSORGLEFT
 10
0.0
 20
0.0
 30
0.0
  9
$PUCSORGRIGHT
 10
0.0
 20
0.0
 30
0.0
  9
$PUCSORGFRONT
 10
0.0
 20
0.0
 30
0.0
  9
$PUCSORGBACK
 10
0.0
 20
0.0
 30
0.0
  9
$USERI1
 70
     0
  9
$USERI2
 70
     0
  9
$USERI3
 70
     0
  9
$USERI4
 70
     0
  9
$USERI5
 70
     0
  9
$USERR1
 40
0.0
  9
$USERR2
 40
0.0
  9
$USERR3
 40
0.0
  9
$USERR4
 40
0.0
  9
$USERR5
 40
0.0
  9
$WORLDVIEW
 70
     1
  9
$SHADEDGE
 70
     3
  9
$SHADEDIF
 70
    70
  9
$TILEMODE
 70
     1
  9
$MAXACTVP
 70
    64
  9
$PINSBASE
 10
0.0
 20
0.0
 30
0.0
  9
$PLIMCHECK
 70
     0
  9
$PEXTMIN
 10
1.000000E+20
 20
1.000000E+20
 30
0.0
  9
$PEXTMAX
 10
-1.000000E+20
 20
-1.000000E+20
 30
0.0
  9
$PLIMMIN
 10
0.0
 20
0.0
  9
$PLIMMAX
 10
12.0
 20
9.0
  9
$UNITMODE
 70
     0
  9
$VISRETAIN
 70
     1
  9
$PLINEGEN
 70
     0
  9
$PSLTSCALE
 70
     1
  9
$TREEDEPTH
 70
  3020
  9
$CMLSTYLE
  2
Standard
  9
$CMLJUST
 70
     0
  9
$CMLSCALE
 40
20.0
  9
$PROXYGRAPHICS
 70
     1
  9
$MEASUREMENT
 70
     1
  9
$CELWEIGHT
370
    -1
  9
$ENDCAPS
280
     0
  9
$JOINSTYLE
280
     0
  9
$LWDISPLAY
290
     0
  9
$INSUNITS
 70
     4
  9
$HYPERLINKBASE
  1

  9
$STYLESHEET
  1

  9
$XEDIT
290
     1
  9
$CEPSNTYPE
380
     0
  9
$PSTYLEMODE
290
     1
  9
$FINGERPRINTGUID
  2
{B7FB5021-AD23-4476-A53A-5666372074F4}
  9
$VERSIONGUID
  2
{FAEB1C32-E019-11D5-929B-00C0DF256EC4}
  9
$EXTNAMES
290
     1
  9
$PSVPSCALE
 40
0.0
  9
$OLESTARTUP
290
     0
  0
ENDSEC
  0
SECTION
  2
CLASSES
  0
CLASS
  1
ACDBDICTIONARYWDFLT
  2
AcDbDictionaryWithDefault
  3
ObjectDBX Classes
 90
        0
280
     0
281
     0
  0
CLASS
  1
VISUALSTYLE
  2
AcDbVisualStyle
  3
ObjectDBX Classes
 90
     4095
280
     0
281
     0
  0
CLASS
  1
SCALE
  2
AcDbScale
  3
ObjectDBX Classes
 90
     1153
280
     0
281
     0
  0
CLASS
  1
DICTIONARYVAR
  2
AcDbDictionaryVar
  3
ObjectDBX Classes
 90
        0
280
     0
281
     0
  0
CLASS
  1
ACDBPLACEHOLDER
  2
AcDbPlaceHolder
  3
ObjectDBX Classes
 90
        0
280
     0
281
     0
  0
CLASS
  1
LAYOUT
  2
AcDbLayout
  3
ObjectDBX Classes
 90
        0
280
     0
281
     0
  0
ENDSEC
  0
SECTION
  2
TABLES
  0
TABLE
  2
VPORT
  5
8
330
0
100
AcDbSymbolTable
 70
     1
  0
VPORT
  5
29
330
8
100
AcDbSymbolTableRecord
100
AcDbViewportTableRecord
  2
*Active
 70
     0
 10
0.0
 20
0.0
 11
1.0
 21
1.0
 12
109.164574
 22
51.557011
 13
0.0
 23
0.0
 14
1.0
 24
1.0
 15
0.0
 25
0.0
 16
0.0
 26
0.0
 36
1.0
 17
0.0
 27
0.0
 37
0.0
 40
105.301602
 41
1.691288
 42
50.0
 43
0.0
 44
0.0
 50
0.0
 51
0.0
 71
     0
 72
   100
 73
     1
 74
     3
 75
     0
 76
     0
 77
     0
 78
     0
281
     0
 65
     1
110
0.0
120
0.0
130
0.0
111
1.0
121
0.0
131
0.0
112
0.0
122
1.0
132
0.0
 79
     0
146
0.0
  0
ENDTAB
  0
TABLE
  2
LTYPE
  5
5
330
0
100
AcDbSymbolTable
 70
     5
  0
LTYPE
  5
14
330
5
100
AcDbSymbolTableRecord
100
AcDbLinetypeTableRecord
  2
ByBlock
 70
     0
  3

 72
    65
 73
     0
 40
0.0
  0
LTYPE
  5
15
330
5
100
AcDbSymbolTableRecord
100
AcDbLinetypeTableRecord
  2
ByLayer
 70
     0
  3

 72
    65
 73
     0
 40
0.0
  0
LTYPE
  5
16
330
5
100
AcDbSymbolTableRecord
100
AcDbLinetypeTableRecord
  2
Continuous
 70
     0
  3
Solid line
 72
    65
 73
     0
 40
0.0
  0
LTYPE
  5
5D
330
5
100
AcDbSymbolTableRecord
100
AcDbLinetypeTableRecord
  2
DASHED
 70
     0
  3
DASHED
 72
    83
 73
     2
 40
0.75
 49
0.5
 74
     0
 49
-0.25
 74
     0
  0
LTYPE
  5
5E
330
5
100
AcDbSymbolTableRecord
100
AcDbLinetypeTableRecord
  2
HIDDEN
 70
     0
  3
HIDDEN
 72
    83
 73
     2
 40
0.375
 49
0.25
 74
     0
 49
-0.125
 74
     0
  0
LTYPE
  5
5F
330
5
100
AcDbSymbolTableRecord
100
AcDbLinetypeTableRecord
  2
CENTER
 70
     0
  3
CENTER
 72
    83
 73
     4
 40
2.0
 49
1.25
 74
     0
 49
-0.25
 74
     0
 49
0.25
 74
     0
 49
-0.25
 74
     0
  0
LTYPE
  5
60
330
5
100
AcDbSymbolTableRecord
100
AcDbLinetypeTableRecord
  2
PHANTOM
 70
     0
  3
PHANTOM
 72
    83
 73
     6
 40
2.5
 49
1.25
 74
     0
 49
-0.25
 74
     0
 49
0.25
 74
     0
 49
-0.25
 74
     0
 49
0.25
 74
     0
 49
-0.25
 74
     0
  0
ENDTAB
  0
TABLE
  2
LAYER
  5
2
330
0
100
AcDbSymbolTable
 70
     2
  0
LAYER
  5
10
330
2
100
AcDbSymbolTableRecord
100
AcDbLayerTableRecord
  2
0
 70
     0
 62
     7
  6
Continuous
370
    -3
390
F
  0
LAYER
  5
61
330
2
100
AcDbSymbolTableRecord
100
AcDbLayerTableRecord
  2
001
 70
     0
 62
     7
  6
Continuous
370
    -3
390
F
  0
ENDTAB
  0
TABLE
  2
STYLE
  5
3
330
0
100
AcDbSymbolTable
 70
     2
  0
STYLE
  5
11
330
3
100
AcDbSymbolTableRecord
100
AcDbTextStyleTableRecord
  2
Standard
 70
     0
 40
0.0
 41
1.0
 50
0.0
 71
     0
 42
0.2
  3
TXT
  4
BIGFONT
  0
STYLE
  5
62
330
3
100
AcDbSymbolTableRecord
100
AcDbTextStyleTableRecord
  2
TATEGAKI
 70
     4
 40
1.0
 41
1.0
 50
0.0
 71
     0
 42
0.2
  3
TXT
  4
BIGFONT
  0
ENDTAB
  0
TABLE
  2
VIEW
  5
6
330
0
100
AcDbSymbolTable
 70
     0
  0
ENDTAB
  0
TABLE
  2
UCS
  5
7
330
0
100
AcDbSymbolTable
 70
     0
  0
ENDTAB
  0
TABLE
  2
APPID
  5
9
330
0
100
AcDbSymbolTable
 70
     1
  0
APPID
  5
12
330
9
100
AcDbSymbolTableRecord
100
AcDbRegAppTableRecord
  2
ACAD
 70
     0
  0
ENDTAB
  0
TABLE
  2
DIMSTYLE
  5
A
330
0
100
AcDbSymbolTable
 70
     2
100
AcDbDimStyleTable
  0
DIMSTYLE
105
27
330
A
100
AcDbSymbolTableRecord
100
AcDbDimStyleTableRecord
  2
ISO-25
 70
     0
 41
2.5
 42
0.625
 43
3.75
 44
1.25
 73
     0
 74
     0
 77
     1
 78
     8
140
2.5
141
2.5
143
0.03937
147
0.625
171
     3
172
     1
271
     2
272
     2
274
     3
278
    44
283
     0
284
     8
340
11
  0
DIMSTYLE
105
63
102
{ACAD_REACTORS
330
452
330
453
330
454
330
461
330
462
330
463
102
}
330
A
100
AcDbSymbolTableRecord
100
AcDbDimStyleTableRecord
  2
Standard
 70
     0
 41
1.5
 42
0.0
 44
2.75
 73
     0
 74
     0
 77
     1
 78
     8
 79
     2
140
4.0
146
0.8
147
1.0
172
     1
179
     1
271
     1
340
11
  0
ENDTAB
  0
TABLE
  2
BLOCK_RECORD
  5
1
330
0
100
AcDbSymbolTable
 70
     9
  0
BLOCK_RECORD
  5
1F
330
1
100
AcDbSymbolTableRecord
100
AcDbBlockTableRecord
  2
*Model_Space
340
22
  0
BLOCK_RECORD
  5
1B
330
1
100
AcDbSymbolTableRecord
100
AcDbBlockTableRecord
  2
*Paper_Space
340
1E
  0
BLOCK_RECORD
  5
23
330
1
100
AcDbSymbolTableRecord
100
AcDbBlockTableRecord
  2
*Paper_Space0
340
26
  0
BLOCK_RECORD
  5
64
330
1
100
AcDbSymbolTableRecord
100
AcDbBlockTableRecord
  2
M-1-1
340
0
102
{BLKREFS
331
450
102
}
  0
BLOCK_RECORD
  5
278
330
1
100
AcDbSymbolTableRecord
100
AcDbBlockTableRecord
  2
C32GUX-2
340
0
102
{BLKREFS
331
451
102
}
  0
BLOCK_RECORD
  5
3D4
330
1
100
AcDbSymbolTableRecord
100
AcDbBlockTableRecord
  2
*D3
340
0
  0
BLOCK_RECORD
  5
3E8
330
1
100
AcDbSymbolTableRecord
100
AcDbBlockTableRecord
  2
*D4
340
0
  0
BLOCK_RECORD
  5
3FD
330
1
100
AcDbSymbolTableRecord
100
AcDbBlockTableRecord
  2
*D5
340
0
  0
BLOCK_RECORD
  5
413
330
1
100
AcDbSymbolTableRecord
100
AcDbBlockTableRecord
  2
*D6
340
0
  0
BLOCK_RECORD
  5
427
330
1
100
AcDbSymbolTableRecord
100
AcDbBlockTableRecord
  2
*D7
340
0
  0
BLOCK_RECORD
  5
43B
330
1
100
AcDbSymbolTableRecord
100
AcDbBlockTableRecord
  2
*D8
340
0
  0
ENDTAB
  0
ENDSEC
  0
SECTION
  2
BLOCKS
  0
BLOCK
  5
20
330
1F
100
AcDbEntity
  8
0
100
AcDbBlockBegin
  2
*Model_Space
 70
     0
 10
0.0
 20
0.0
 30
0.0
  3
*Model_Space
  1

  0
ENDBLK
  5
21
330
1F
100
AcDbEntity
  8
0
100
AcDbBlockEnd
  0
BLOCK
  5
1C
330
1B
100
AcDbEntity
 67
     1
  8
0
100
AcDbBlockBegin
  2
*Paper_Space
 70
     0
 10
0.0
 20
0.0
 30
0.0
  3
*Paper_Space
  1

  0
ENDBLK
  5
1D
330
1B
100
AcDbEntity
 67
     1
  8
0
100
AcDbBlockEnd
  0
BLOCK
  5
24
330
23
100
AcDbEntity
  8
0
100
AcDbBlockBegin
  2
*Paper_Space0
 70
     0
 10
0.0
 20
0.0
 30
0.0
  3
*Paper_Space0
  1

  0
ENDBLK
  5
25
330
23
100
AcDbEntity
  8
0
100
AcDbBlockEnd
  0
BLOCK
  5
65
330
64
100
AcDbEntity
  8
0
100
AcDbBlockBegin
  2
M-1-1
 70
     0
 10
0.0
 20
0.0
 30
0.0
  3
M-1-1
  1

  0
POLYLINE
  5
67
330
64
100
AcDbEntity
  8
001
 62
     5
370
    50
100
AcDb2dPolyline
 66
     1
 10
0.0
 20
0.0
 30
0.0
  0
VERTEX
  5
69
330
67
100
AcDbEntity
  8
001
 62
     5
370
    50
100
AcDbVertex
100
AcDb2dVertex
 10
53.571175
 20
52.750772
 30
0.0
  0
VERTEX
  5
6A
330
67
100
AcDbEntity
  8
001
 62
     5
370
    50
100
AcDbVertex
100
AcDb2dVertex
 10
53.539764
 20
52.737458
 30
0.0
  0
VERTEX
  5
6B
330
67
100
AcDbEntity
  8
001
 62
     5
370
    50
100
AcDbVertex
100
AcDb2dVertex
 10
53.508489
 20
52.723832
 30
0.0
  0
VERTEX
  5
6C
330
67
100
AcDbEntity
  8
001
 62
     5
370
    50
100
AcDbVertex
100
AcDb2dVertex
 10
53.432047
 20
52.687554
 30
0.0
  0
VERTEX
  5
6D
330
67
100
AcDbEntity
  8
001
 62
     5
370
    50
100
AcDbVertex
100
AcDb2dVertex
 10
53.35729
 20
52.647866
 30
0.0
  0
VERTEX
  5
6E
330
67
100
AcDbEntity
  8
001
 62
     5
370
    50
100
AcDbVertex
100
AcDb2dVertex
 10
53.284146
 20
52.605048
 30
0.0
  0
VERTEX
  5
6F
330
67
100
AcDbEntity
  8
001
 62
     5
370
    50
100
AcDbVertex
100
AcDb2dVertex
 10
53.21286
 20
52.559224
 30
0.0
  0
VERTEX
  5
70
330
67
100
AcDbEntity
  8
001
 62
     5
370
    50
100
AcDbVertex
100
AcDb2dVertex
 10
53.143471
 20
52.510326
 30
0.0
  0
VERTEX
  5
71
330
67
100
AcDbEntity
  8
001
 62
     5
370
    50
100
AcDbVertex
100
AcDb2dVertex
 10
53.076214
 20
52.458528
 30
0.0
  0
VERTEX
  5
72
330
67
100
AcDbEntity
  8
001
 62
     5
370
    50
100
AcDbVertex
100
AcDb2dVertex
 10
53.011085
 20
52.40385
 30
0.0
  0
VERTEX
  5
73
330
67
100
AcDbEntity
  8
001
 62
     5
370
    50
100
AcDbVertex
100
AcDb2dVertex
 10
52.948313
 20
52.346484
 30
0.0
  0
VERTEX
  5
74
330
67
100
AcDbEntity
  8
001
 62
     5
370
    50
100
AcDbVertex
100
AcDb2dVertex
 10
52.8879
 20
52.286422
 30
0.0
  0
VERTEX
  5
75
330
67
100
AcDbEntity
  8
001
 62
     5
370
    50
100
AcDbVertex
100
AcDb2dVertex
 10
52.830059
 20
52.223877
 30
0.0
  0
VERTEX
  5
76
330
67
100
AcDbEntity
  8
001
 62
     5
370
    50
100
AcDbVertex
100
AcDb2dVertex
 10
52.774788
 20
52.158849
 30
0.0
  0
VERTEX
  5
77
330
67
100
AcDbEntity
  8
001
 62
     5
370
    50
100
AcDbVertex
100
AcDb2dVertex
 10
52.722284
 20
52.091568
 30
0.0
  0
VERTEX
  5
78
330
67
100
AcDbEntity
  8
001
 62
     5
370
    50
100
AcDbVertex
100
AcDb2dVertex
 10
52.672549
 20
52.022032
 30
0.0
  0
VERTEX
  5
79
330
67
100
AcDbEntity
  8
001
 62
     5
370
    50
100
AcDbVertex
100
AcDb2dVertex
 10
52.625752
 20
51.950485
 30
0.0
  0
VERTEX
  5
7A
330
67
100
AcDbEntity
  8
001
 62
     5
370
    50
100
AcDbVertex
100
AcDb2dVertex
 10
52.581896
 20
51.876932
 30
0.0
  0
VERTEX
  5
7B
330
67
100
AcDbEntity
  8
001
 62
     5
370
    50
100
AcDbVertex
100
AcDb2dVertex
 10
52.541144
 20
51.801619
 30
0.0
  0
VERTEX
  5
7C
330
67
100
AcDbEntity
  8
001
 62
     5
370
    50
100
AcDbVertex
100
AcDb2dVertex
 10
52.503509
 20
51.724561
 30
0.0
  0
VERTEX
  5
7D
330
67
100
AcDbEntity
  8
001
 62
     5
370
    50
100
AcDbVertex
100
AcDb2dVertex
 10
52.46906
 20
51.646017
 30
0.0
  0
VERTEX
  5
7E
330
67
100
AcDbEntity
  8
001
 62
     5
370
    50
100
AcDbVertex
100
AcDb2dVertex
 10
52.437797
 20
51.566022
 30
0.0
  0
VERTEX
  5
7F
330
67
100
AcDbEntity
  8
001
 62
     5
370
    50
100
AcDbVertex
100
AcDb2dVertex
 10
52.410012
 20
51.484775
 30
0.0
  0
VERTEX
  5
80
330
67
100
AcDbEntity
  8
001
 62
     5
370
    50
100
AcDbVertex
100
AcDb2dVertex
 10
52.403499
 20
51.463877
 30
0.0
  0
VERTEX
  5
81
330
67
100
AcDbEntity
  8
001
 62
     5
370
    50
100
AcDbVertex
100
AcDb2dVertex
 10
52.397109
 20
51.442942
 30
0.0
  0
SEQEND
  5
68
330
67
100
AcDbEntity
  8
001
370
    50
  0
POLYLINE
  5
82
330
64
100
AcDbEntity
  8
001
 62
     5
370
    50
100
AcDb2dPolyline
 66
     1
 10
0.0
 20
0.0
 30
0.0
  0
VERTEX
  5
84
330
82
100
AcDbEntity
  8
001
 62
     5
370
    50
100
AcDbVertex
100
AcDb2dVertex
 10
52.397109
 20
51.442942
 30
0.0
  0
VERTEX
  5
85
330
82
100
AcDbEntity
  8
001
 62
     5
370
    50
100
AcDbVertex
100
AcDb2dVertex
 10
52.384329
 20
51.397244
 30
0.0
  0
VERTEX
  5
86
330
82
100
AcDbEntity
  8
001
 62
     5
370
    50
100
AcDbVertex
100
AcDb2dVertex
 10
52.372173
 20
51.351384
 30
0.0
  0
VERTEX
  5
87
330
82
100
AcDbEntity
  8
001
 62
     5
370
    50
100
AcDbVertex
100
AcDb2dVertex
 10
52.35307
 20
51.267525
 30
0.0
  0
VERTEX
  5
88
330
82
100
AcDbEntity
  8
001
 62
     5
370
    50
100
AcDbVertex
100
AcDb2dVertex
 10
52.337681
 20
51.182877
 30
0.0
  0
VERTEX
  5
89
330
82
100
AcDbEntity
  8
001
 62
     5
370
    50
100
AcDbVertex
100
AcDb2dVertex
 10
52.325691
 20
51.097625
 30
0.0
  0
VERTEX
  5
8A
330
82
100
AcDbEntity
  8
001
 62
     5
370
    50
100
AcDbVertex
100
AcDb2dVertex
 10
52.317155
 20
51.011971
 30
0.0
  0
VERTEX
  5
8B
330
82
100
AcDbEntity
  8
001
 62
     5
370
    50
100
AcDbVertex
100
AcDb2dVertex
 10
52.312175
 20
50.926001
 30
0.0
  0
VERTEX
  5
8C
330
82
100
AcDbEntity
  8
001
 62
     5
370
    50
100
AcDbVertex
100
AcDb2dVertex
 10
52.310752
 20
50.839894
 30
0.0
  0
VERTEX
  5
8D
330
82
100
AcDbEntity
  8
001
 62
     5
370
    50
100
AcDbVertex
100
AcDb2dVertex
 10
52.312868
 20
50.753798
 30
0.0
  0
VERTEX
  5
8E
330
82
100
AcDbEntity
  8
001
 62
     5
370
    50
100
AcDbVertex
100
AcDb2dVertex
 10
52.31852
 20
50.667863
 30
0.0
  0
VERTEX
  5
8F
330
82
100
AcDbEntity
  8
001
 62
     5
370
    50
100
AcDbVertex
100
AcDb2dVertex
 10
52.327703
 20
50.582254
 30
0.0
  0
VERTEX
  5
90
330
82
100
AcDbEntity
  8
001
 62
     5
370
    50
100
AcDbVertex
100
AcDb2dVertex
 10
52.340405
 20
50.497095
 30
0.0
  0
VERTEX
  5
91
330
82
100
AcDbEntity
  8
001
 62
     5
370
    50
100
AcDbVertex
100
AcDb2dVertex
 10
52.356596
 20
50.412577
 30
0.0
  0
VERTEX
  5
92
330
82
100
AcDbEntity
  8
001
 62
     5
370
    50
100
AcDbVertex
100
AcDb2dVertex
 10
52.376257
 20
50.328798
 30
0.0
  0
VERTEX
  5
93
330
82
100
AcDbEntity
  8
001
 62
     5
370
    50
100
AcDbVertex
100
AcDb2dVertex
 10
52.399339
 20
50.245969
 30
0.0
  0
VERTEX
  5
94
330
82
100
AcDbEntity
  8
001
 62
     5
370
    50
100
AcDbVertex
100
AcDb2dVertex
 10
52.425822
 20
50.164163
 30
0.0
  0
VERTEX
  5
95
330
82
100
AcDbEntity
  8
001
 62
     5
370
    50
100
AcDbVertex
100
AcDb2dVertex
 10
52.455633
 20
50.083607
 30
0.0
  0
VERTEX
  5
96
330
82
100
AcDbEntity
  8
001
 62
     5
370
    50
100
AcDbVertex
100
AcDb2dVertex
 10
52.488751
 20
50.004353
 30
0.0
  0
VERTEX
  5
97
330
82
100
AcDbEntity
  8
001
 62
     5
370
    50
100
AcDbVertex
100
AcDb2dVertex
 10
52.525079
 20
49.926639
 30
0.0
  0
VERTEX
  5
98
330
82
100
AcDbEntity
  8
001
 62
     5
370
    50
100
AcDbVertex
100
AcDb2dVertex
 10
52.5646
 20
49.8505
 30
0.0
  0
VERTEX
  5
99
330
82
100
AcDbEntity
  8
001
 62
     5
370
    50
100
AcDbVertex
100
AcDb2dVertex
 10
52.607189
 20
49.776178
 30
0.0
  0
VERTEX
  5
9A
330
82
100
AcDbEntity
  8
001
 62
     5
370
    50
100
AcDbVertex
100
AcDb2dVertex
 10
52.652832
 20
49.703692
 30
0.0
  0
VERTEX
  5
9B
330
82
100
AcDbEntity
  8
001
 62
     5
370
    50
100
AcDbVertex
100
AcDb2dVertex
 10
52.701379
 20
49.633285
 30
0.0
  0
VERTEX
  5
9C
330
82
100
AcDbEntity
  8
001
 62
     5
370
    50
100
AcDbVertex
100
AcDb2dVertex
 10
52.752823
 20
49.564966
 30
0.0
  0
VERTEX
  5
9D
330
82
100
AcDbEntity
  8
001
 62
     5
370
    50
100
AcDbVertex
100
AcDb2dVertex
 10
52.806984
 20
49.498972
 30
0.0
  0
VERTEX
  5
9E
330
82
100
AcDbEntity
  8
001
 62
     5
370
    50
100
AcDbVertex
100
AcDb2dVertex
 10
52.863862
 20
49.435304
 30
0.0
  0
VERTEX
  5
9F
330
82
100
AcDbEntity
  8
001
 62
     5
370
    50
100
AcDbVertex
100
AcDb2dVertex
 10
52.923255
 20
49.374188
 30
0.0
  0
VERTEX
  5
A0
330
82
100
AcDbEntity
  8
001
 62
     5
370
    50
100
AcDbVertex
100
AcDb2dVertex
 10
52.985164
 20
49.315622
 30
0.0
  0
VERTEX
  5
A1
330
82
100
AcDbEntity
  8
001
 62
     5
370
    50
100
AcDbVertex
100
AcDb2dVertex
 10
53.049369
 20
49.259815
 30
0.0
  0
VERTEX
  5
A2
330
82
100
AcDbEntity
  8
001
 62
     5
370
    50
100
AcDbVertex
100
AcDb2dVertex
 10
53.115869
 20
49.206762
 30
0.0
  0
VERTEX
  5
A3
330
82
100
AcDbEntity
  8
001
 62
     5
370
    50
100
AcDbVertex
100
AcDb2dVertex
 10
53.18443
 20
49.156652
 30
0.0
  0
VERTEX
  5
A4
330
82
100
AcDbEntity
  8
001
 62
     5
370
    50
100
AcDbVertex
100
AcDb2dVertex
 10
53.255051
 20
49.109493
 30
0.0
  0
VERTEX
  5
A5
330
82
100
AcDbEntity
  8
001
 62
     5
370
    50
100
AcDbVertex
100
AcDb2dVertex
 10
53.327489
 20
49.065451
 30
0.0
  0
VERTEX
  5
A6
330
82
100
AcDbEntity
  8
001
 62
     5
370
    50
100
AcDbVertex
100
AcDb2dVertex
 10
53.401724
 20
49.024497
 30
0.0
  0
VERTEX
  5
A7
330
82
100
AcDbEntity
  8
001
 62
     5
370
    50
100
AcDbVertex
100
AcDb2dVertex
 10
53.477508
 20
48.986758
 30
0.0
  0
VERTEX
  5
A8
330
82
100
AcDbEntity
  8
001
 62
     5
370
    50
100
AcDbVertex
100
AcDb2dVertex
 10
53.55485
 20
48.952371
 30
0.0
  0
VERTEX
  5
A9
330
82
100
AcDbEntity
  8
001
 62
     5
370
    50
100
AcDbVertex
100
AcDb2dVertex
 10
53.566088
 20
48.94771
 30
0.0
  0
VERTEX
  5
AA
330
82
100
AcDbEntity
  8
001
 62
     5
370
    50
100
AcDbVertex
100
AcDb2dVertex
 10
53.577341
 20
48.943087
 30
0.0
  0
SEQEND
  5
83
330
82
100
AcDbEntity
  8
001
370
    50
  0
POLYLINE
  5
AB
330
64
100
AcDbEntity
  8
001
 62
     5
370
    50
100
AcDb2dPolyline
 66
     1
 10
0.0
 20
0.0
 30
0.0
  0
VERTEX
  5
AD
330
AB
100
AcDbEntity
  8
001
 62
     5
370
    50
100
AcDbVertex
100
AcDb2dVertex
 10
54.319037
 20
52.898187
 30
0.0
  0
VERTEX
  5
AE
330
AB
100
AcDbEntity
  8
001
 62
     5
370
    50
100
AcDbVertex
100
AcDb2dVertex
 10
54.16968
 20
52.889496
 30
0.0
  0
VERTEX
  5
AF
330
AB
100
AcDbEntity
  8
001
 62
     5
370
    50
100
AcDbVertex
100
AcDb2dVertex
 10
53.971095
 20
52.867056
 30
0.0
  0
VERTEX
  5
B0
330
AB
100
AcDbEntity
  8
001
 62
     5
370
    50
100
AcDbVertex
100
AcDb2dVertex
 10
53.805183
 20
52.832769
 30
0.0
  0
VERTEX
  5
B1
330
AB
100
AcDbEntity
  8
001
 62
     5
370
    50
100
AcDbVertex
100
AcDb2dVertex
 10
53.633723
 20
52.774582
 30
0.0
  0
VERTEX
  5
B2
330
AB
100
AcDbEntity
  8
001
 62
     5
370
    50
100
AcDbVertex
100
AcDb2dVertex
 10
53.598798
 20
52.76108
 30
0.0
  0
VERTEX
  5
B3
330
AB
100
AcDbEntity
  8
001
 62
     5
370
    50
100
AcDbVertex
100
AcDb2dVertex
 10
53.574445
 20
52.751417
 30
0.0
  0
SEQEND
  5
AC
330
AB
100
AcDbEntity
  8
001
370
    50
  0
POLYLINE
  5
B4
330
64
100
AcDbEntity
  8
001
 62
     5
370
    50
100
AcDb2dPolyline
 66
     1
 10
0.0
 20
0.0
 30
0.0
  0
VERTEX
  5
B6
330
B4
100
AcDbEntity
  8
001
 62
     5
370
    50
100
AcDbVertex
100
AcDb2dVertex
 10
54.318886
 20
48.798187
 30
0.0
  0
VERTEX
  5
B7
330
B4
100
AcDbEntity
  8
001
 62
     5
370
    50
100
AcDbVertex
100
AcDb2dVertex
 10
54.468298
 20
48.806885
 30
0.0
  0
VERTEX
  5
B8
330
B4
100
AcDbEntity
  8
001
 62
     5
370
    50
100
AcDbVertex
100
AcDb2dVertex
 10
54.666828
 20
48.829319
 30
0.0
  0
VERTEX
  5
B9
330
B4
100
AcDbEntity
  8
001
 62
     5
370
    50
100
AcDbVertex
100
AcDb2dVertex
 10
54.832465
 20
48.863571
 30
0.0
  0
VERTEX
  5
BA
330
B4
100
AcDbEntity
  8
001
 62
     5
370
    50
100
AcDbVertex
100
AcDb2dVertex
 10
55.0042
 20
48.921792
 30
0.0
  0
VERTEX
  5
BB
330
B4
100
AcDbEntity
  8
001
 62
     5
370
    50
100
AcDbVertex
100
AcDb2dVertex
 10
55.034665
 20
48.933515
 30
0.0
  0
VERTEX
  5
BC
330
B4
100
AcDbEntity
  8
001
 62
     5
370
    50
100
AcDbVertex
100
AcDb2dVertex
 10
55.055865
 20
48.941859
 30
0.0
  0
SEQEND
  5
B5
330
B4
100
AcDbEntity
  8
001
370
    50
  0
POLYLINE
  5
BD
330
64
100
AcDbEntity
  8
001
 62
     5
370
    50
100
AcDb2dPolyline
 66
     1
 10
0.0
 20
0.0
 30
0.0
  0
VERTEX
  5
BF
330
BD
100
AcDbEntity
  8
001
 62
     5
370
    50
100
AcDbVertex
100
AcDb2dVertex
 10
54.594957
 20
52.199817
 30
0.0
  0
VERTEX
  5
C0
330
BD
100
AcDbEntity
  8
001
 62
     5
370
    50
100
AcDbVertex
100
AcDb2dVertex
 10
54.574911
 20
52.198777
 30
0.0
  0
VERTEX
  5
C1
330
BD
100
AcDbEntity
  8
001
 62
     5
370
    50
100
AcDbVertex
100
AcDb2dVertex
 10
54.547433
 20
52.195564
 30
0.0
  0
VERTEX
  5
C2
330
BD
100
AcDbEntity
  8
001
 62
     5
370
    50
100
AcDbVertex
100
AcDb2dVertex
 10
54.523002
 20
52.190142
 30
0.0
  0
VERTEX
  5
C3
330
BD
100
AcDbEntity
  8
001
 62
     5
370
    50
100
AcDbVertex
100
AcDb2dVertex
 10
54.501353
 20
52.182934
 30
0.0
  0
VERTEX
  5
C4
330
BD
100
AcDbEntity
  8
001
 62
     5
370
    50
100
AcDbVertex
100
AcDb2dVertex
 10
54.479904
 20
52.174083
 30
0.0
  0
VERTEX
  5
C5
330
BD
100
AcDbEntity
  8
001
 62
     5
370
    50
100
AcDbVertex
100
AcDb2dVertex
 10
54.458117
 20
52.162309
 30
0.0
  0
VERTEX
  5
C6
330
BD
100
AcDbEntity
  8
001
 62
     5
370
    50
100
AcDbVertex
100
AcDb2dVertex
 10
54.401505
 20
52.1151
 30
0.0
  0
VERTEX
  5
C7
330
BD
100
AcDbEntity
  8
001
 62
     5
370
    50
100
AcDbVertex
100
AcDb2dVertex
 10
54.365762
 20
52.07285
 30
0.0
  0
SEQEND
  5
BE
330
BD
100
AcDbEntity
  8
001
370
    50
  0
POLYLINE
  5
C8
330
64
100
AcDbEntity
  8
001
 62
     5
370
    50
100
AcDb2dPolyline
 66
     1
 10
0.0
 20
0.0
 30
0.0
  0
VERTEX
  5
CA
330
C8
100
AcDbEntity
  8
001
 62
     5
370
    50
100
AcDbVertex
100
AcDb2dVertex
 10
53.668327
 20
51.90681
 30
0.0
  0
VERTEX
  5
CB
330
C8
100
AcDbEntity
  8
001
 62
     5
370
    50
100
AcDbVertex
100
AcDb2dVertex
 10
53.67045
 20
51.905532
 30
0.0
  0
VERTEX
  5
CC
330
C8
100
AcDbEntity
  8
001
 62
     5
370
    50
100
AcDbVertex
100
AcDb2dVertex
 10
53.673539
 20
51.90369
 30
0.0
  0
VERTEX
  5
CD
330
C8
100
AcDbEntity
  8
001
 62
     5
370
    50
100
AcDbVertex
100
AcDb2dVertex
 10
53.716834
 20
51.880625
 30
0.0
  0
VERTEX
  5
CE
330
C8
100
AcDbEntity
  8
001
 62
     5
370
    50
100
AcDbVertex
100
AcDb2dVertex
 10
53.755303
 20
51.864678
 30
0.0
  0
VERTEX
  5
CF
330
C8
100
AcDbEntity
  8
001
 62
     5
370
    50
100
AcDbVertex
100
AcDb2dVertex
 10
53.795694
 20
51.851251
 30
0.0
  0
VERTEX
  5
D0
330
C8
100
AcDbEntity
  8
001
 62
     5
370
    50
100
AcDbVertex
100
AcDb2dVertex
 10
53.842445
 20
51.840785
 30
0.0
  0
VERTEX
  5
D1
330
C8
100
AcDbEntity
  8
001
 62
     5
370
    50
100
AcDbVertex
100
AcDb2dVertex
 10
53.894518
 20
51.834665
 30
0.0
  0
VERTEX
  5
D2
330
C8
100
AcDbEntity
  8
001
 62
     5
370
    50
100
AcDbVertex
100
AcDb2dVertex
 10
53.93232
 20
51.832737
 30
0.0
  0
SEQEND
  5
C9
330
C8
100
AcDbEntity
  8
001
370
    50
  0
POLYLINE
  5
D3
330
64
100
AcDbEntity
  8
001
 62
     5
370
    50
100
AcDb2dPolyline
 66
     1
 10
0.0
 20
0.0
 30
0.0
  0
VERTEX
  5
D5
330
D3
100
AcDbEntity
  8
001
 62
     5
370
    50
100
AcDbVertex
100
AcDb2dVertex
 10
53.528733
 20
51.945978
 30
0.0
  0
VERTEX
  5
D6
330
D3
100
AcDbEntity
  8
001
 62
     5
370
    50
100
AcDbVertex
100
AcDb2dVertex
 10
53.508671
 20
51.944914
 30
0.0
  0
VERTEX
  5
D7
330
D3
100
AcDbEntity
  8
001
 62
     5
370
    50
100
AcDbVertex
100
AcDb2dVertex
 10
53.48121
 20
51.941726
 30
0.0
  0
VERTEX
  5
D8
330
D3
100
AcDbEntity
  8
001
 62
     5
370
    50
100
AcDbVertex
100
AcDb2dVertex
 10
53.456859
 20
51.93643
 30
0.0
  0
VERTEX
  5
D9
330
D3
100
AcDbEntity
  8
001
 62
     5
370
    50
100
AcDbVertex
100
AcDb2dVertex
 10
53.43513
 20
51.929096
 30
0.0
  0
VERTEX
  5
DA
330
D3
100
AcDbEntity
  8
001
 62
     5
370
    50
100
AcDbVertex
100
AcDb2dVertex
 10
53.413373
 20
51.919765
 30
0.0
  0
VERTEX
  5
DB
330
D3
100
AcDbEntity
  8
001
 62
     5
370
    50
100
AcDbVertex
100
AcDb2dVertex
 10
53.391893
 20
51.908471
 30
0.0
  0
VERTEX
  5
DC
330
D3
100
AcDbEntity
  8
001
 62
     5
370
    50
100
AcDbVertex
100
AcDb2dVertex
 10
53.334976
 20
51.863726
 30
0.0
  0
VERTEX
  5
DD
330
D3
100
AcDbEntity
  8
001
 62
     5
370
    50
100
AcDbVertex
100
AcDb2dVertex
 10
53.291717
 20
51.805987
 30
0.0
  0
VERTEX
  5
DE
330
D3
100
AcDbEntity
  8
001
 62
     5
370
    50
100
AcDbVertex
100
AcDb2dVertex
 10
53.271456
 20
51.761767
 30
0.0
  0
VERTEX
  5
DF
330
D3
100
AcDbEntity
  8
001
 62
     5
370
    50
100
AcDbVertex
100
AcDb2dVertex
 10
53.259205
 20
51.71461
 30
0.0
  0
VERTEX
  5
E0
330
D3
100
AcDbEntity
  8
001
 62
     5
370
    50
100
AcDbVertex
100
AcDb2dVertex
 10
53.256189
 20
51.690172
 30
0.0
  0
VERTEX
  5
E1
330
D3
100
AcDbEntity
  8
001
 62
     5
370
    50
100
AcDbVertex
100
AcDb2dVertex
 10
53.255046
 20
51.665989
 30
0.0
  0
VERTEX
  5
E2
330
D3
100
AcDbEntity
  8
001
 62
     5
370
    50
100
AcDbVertex
100
AcDb2dVertex
 10
53.25573
 20
51.642313
 30
0.0
  0
VERTEX
  5
E3
330
D3
100
AcDbEntity
  8
001
 62
     5
370
    50
100
AcDbVertex
100
AcDb2dVertex
 10
53.259202
 20
51.617367
 30
0.0
  0
VERTEX
  5
E4
330
D3
100
AcDbEntity
  8
001
 62
     5
370
    50
100
AcDbVertex
100
AcDb2dVertex
 10
53.271836
 20
51.571927
 30
0.0
  0
VERTEX
  5
E5
330
D3
100
AcDbEntity
  8
001
 62
     5
370
    50
100
AcDbVertex
100
AcDb2dVertex
 10
53.284592
 20
51.53943
 30
0.0
  0
SEQEND
  5
D4
330
D3
100
AcDbEntity
  8
001
370
    50
  0
POLYLINE
  5
E6
330
64
100
AcDbEntity
  8
001
 62
     5
370
    50
100
AcDb2dPolyline
 66
     1
 10
0.0
 20
0.0
 30
0.0
  0
VERTEX
  5
E8
330
E6
100
AcDbEntity
  8
001
 62
     5
370
    50
100
AcDbVertex
100
AcDb2dVertex
 10
53.076421
 20
50.83846
 30
0.0
  0
VERTEX
  5
E9
330
E6
100
AcDbEntity
  8
001
 62
     5
370
    50
100
AcDbVertex
100
AcDb2dVertex
 10
53.078559
 20
50.839699
 30
0.0
  0
VERTEX
  5
EA
330
E6
100
AcDbEntity
  8
001
 62
     5
370
    50
100
AcDbVertex
100
AcDb2dVertex
 10
53.081669
 20
50.841518
 30
0.0
  0
VERTEX
  5
EB
330
E6
100
AcDbEntity
  8
001
 62
     5
370
    50
100
AcDbVertex
100
AcDb2dVertex
 10
53.197366
 20
50.931006
 30
0.0
  0
VERTEX
  5
EC
330
E6
100
AcDbEntity
  8
001
 62
     5
370
    50
100
AcDbVertex
100
AcDb2dVertex
 10
53.271118
 20
51.03533
 30
0.0
  0
VERTEX
  5
ED
330
E6
100
AcDbEntity
  8
001
 62
     5
370
    50
100
AcDbVertex
100
AcDb2dVertex
 10
53.308297
 20
51.11827
 30
0.0
  0
VERTEX
  5
EE
330
E6
100
AcDbEntity
  8
001
 62
     5
370
    50
100
AcDbVertex
100
AcDb2dVertex
 10
53.332602
 20
51.208138
 30
0.0
  0
VERTEX
  5
EF
330
E6
100
AcDbEntity
  8
001
 62
     5
370
    50
100
AcDbVertex
100
AcDb2dVertex
 10
53.33842
 20
51.254421
 30
0.0
  0
VERTEX
  5
F0
330
E6
100
AcDbEntity
  8
001
 62
     5
370
    50
100
AcDbVertex
100
AcDb2dVertex
 10
53.340469
 20
51.300088
 30
0.0
  0
VERTEX
  5
F1
330
E6
100
AcDbEntity
  8
001
 62
     5
370
    50
100
AcDbVertex
100
AcDb2dVertex
 10
53.339143
 20
51.344843
 30
0.0
  0
VERTEX
  5
F2
330
E6
100
AcDbEntity
  8
001
 62
     5
370
    50
100
AcDbVertex
100
AcDb2dVertex
 10
53.332609
 20
51.392039
 30
0.0
  0
VERTEX
  5
F3
330
E6
100
AcDbEntity
  8
001
 62
     5
370
    50
100
AcDbVertex
100
AcDb2dVertex
 10
53.308728
 20
51.477981
 30
0.0
  0
VERTEX
  5
F4
330
E6
100
AcDbEntity
  8
001
 62
     5
370
    50
100
AcDbVertex
100
AcDb2dVertex
 10
53.284592
 20
51.53943
 30
0.0
  0
SEQEND
  5
E7
330
E6
100
AcDbEntity
  8
001
370
    50
  0
POLYLINE
  5
F5
330
64
100
AcDbEntity
  8
001
 62
     5
370
    50
100
AcDb2dPolyline
 66
     1
 10
0.0
 20
0.0
 30
0.0
  0
VERTEX
  5
F7
330
F5
100
AcDbEntity
  8
001
 62
     5
370
    50
100
AcDbVertex
100
AcDb2dVertex
 10
53.076421
 20
50.83846
 30
0.0
  0
VERTEX
  5
F8
330
F5
100
AcDbEntity
  8
001
 62
     5
370
    50
100
AcDbVertex
100
AcDb2dVertex
 10
53.075291
 20
50.837805
 30
0.0
  0
VERTEX
  5
F9
330
F5
100
AcDbEntity
  8
001
 62
     5
370
    50
100
AcDbVertex
100
AcDb2dVertex
 10
53.073646
 20
50.836843
 30
0.0
  0
VERTEX
  5
FA
330
F5
100
AcDbEntity
  8
001
 62
     5
370
    50
100
AcDbVertex
100
AcDb2dVertex
 10
53.012444
 20
50.789571
 30
0.0
  0
VERTEX
  5
FB
330
F5
100
AcDbEntity
  8
001
 62
     5
370
    50
100
AcDbVertex
100
AcDb2dVertex
 10
52.973469
 20
50.734359
 30
0.0
  0
VERTEX
  5
FC
330
F5
100
AcDbEntity
  8
001
 62
     5
370
    50
100
AcDbVertex
100
AcDb2dVertex
 10
52.953879
 20
50.690363
 30
0.0
  0
VERTEX
  5
FD
330
F5
100
AcDbEntity
  8
001
 62
     5
370
    50
100
AcDbVertex
100
AcDb2dVertex
 10
52.940958
 20
50.642982
 30
0.0
  0
VERTEX
  5
FE
330
F5
100
AcDbEntity
  8
001
 62
     5
370
    50
100
AcDbVertex
100
AcDb2dVertex
 10
52.937779
 20
50.618716
 30
0.0
  0
VERTEX
  5
FF
330
F5
100
AcDbEntity
  8
001
 62
     5
370
    50
100
AcDbVertex
100
AcDb2dVertex
 10
52.936798
 20
50.594361
 30
0.0
  0
VERTEX
  5
100
330
F5
100
AcDbEntity
  8
001
 62
     5
370
    50
100
AcDbVertex
100
AcDb2dVertex
 10
52.937853
 20
50.56998
 30
0.0
  0
VERTEX
  5
101
330
F5
100
AcDbEntity
  8
001
 62
     5
370
    50
100
AcDbVertex
100
AcDb2dVertex
 10
52.940954
 20
50.545739
 30
0.0
  0
VERTEX
  5
102
330
F5
100
AcDbEntity
  8
001
 62
     5
370
    50
100
AcDbVertex
100
AcDb2dVertex
 10
52.953267
 20
50.498712
 30
0.0
  0
VERTEX
  5
103
330
F5
100
AcDbEntity
  8
001
 62
     5
370
    50
100
AcDbVertex
100
AcDb2dVertex
 10
52.973459
 20
50.454359
 30
0.0
  0
VERTEX
  5
104
330
F5
100
AcDbEntity
  8
001
 62
     5
370
    50
100
AcDbVertex
100
AcDb2dVertex
 10
53.016641
 20
50.396585
 30
0.0
  0
VERTEX
  5
105
330
F5
100
AcDbEntity
  8
001
 62
     5
370
    50
100
AcDbVertex
100
AcDb2dVertex
 10
53.073628
 20
50.351869
 30
0.0
  0
VERTEX
  5
106
330
F5
100
AcDbEntity
  8
001
 62
     5
370
    50
100
AcDbVertex
100
AcDb2dVertex
 10
53.095158
 20
50.340555
 30
0.0
  0
VERTEX
  5
107
330
F5
100
AcDbEntity
  8
001
 62
     5
370
    50
100
AcDbVertex
100
AcDb2dVertex
 10
53.116863
 20
50.33124
 30
0.0
  0
VERTEX
  5
108
330
F5
100
AcDbEntity
  8
001
 62
     5
370
    50
100
AcDbVertex
100
AcDb2dVertex
 10
53.138425
 20
50.32397
 30
0.0
  0
VERTEX
  5
109
330
F5
100
AcDbEntity
  8
001
 62
     5
370
    50
100
AcDbVertex
100
AcDb2dVertex
 10
53.162942
 20
50.318606
 30
0.0
  0
VERTEX
  5
10A
330
F5
100
AcDbEntity
  8
001
 62
     5
370
    50
100
AcDbVertex
100
AcDb2dVertex
 10
53.181872
 20
50.316036
 30
0.0
  0
VERTEX
  5
10B
330
F5
100
AcDbEntity
  8
001
 62
     5
370
    50
100
AcDbVertex
100
AcDb2dVertex
 10
53.195529
 20
50.314768
 30
0.0
  0
SEQEND
  5
F6
330
F5
100
AcDbEntity
  8
001
370
    50
  0
POLYLINE
  5
10C
330
64
100
AcDbEntity
  8
001
 62
     5
370
    50
100
AcDb2dPolyline
 66
     1
 10
0.0
 20
0.0
 30
0.0
  0
VERTEX
  5
10E
330
10C
100
AcDbEntity
  8
001
 62
     5
370
    50
100
AcDbVertex
100
AcDb2dVertex
 10
53.684794
 20
49.779838
 30
0.0
  0
VERTEX
  5
10F
330
10C
100
AcDbEntity
  8
001
 62
     5
370
    50
100
AcDbVertex
100
AcDb2dVertex
 10
53.684814
 20
49.782358
 30
0.0
  0
VERTEX
  5
110
330
10C
100
AcDbEntity
  8
001
 62
     5
370
    50
100
AcDbVertex
100
AcDb2dVertex
 10
53.684829
 20
49.786017
 30
0.0
  0
VERTEX
  5
111
330
10C
100
AcDbEntity
  8
001
 62
     5
370
    50
100
AcDbVertex
100
AcDb2dVertex
 10
53.682909
 20
49.835825
 30
0.0
  0
VERTEX
  5
112
330
10C
100
AcDbEntity
  8
001
 62
     5
370
    50
100
AcDbVertex
100
AcDb2dVertex
 10
53.67697
 20
49.877968
 30
0.0
  0
VERTEX
  5
113
330
10C
100
AcDbEntity
  8
001
 62
     5
370
    50
100
AcDbVertex
100
AcDb2dVertex
 10
53.653634
 20
49.964409
 30
0.0
  0
VERTEX
  5
114
330
10C
100
AcDbEntity
  8
001
 62
     5
370
    50
100
AcDbVertex
100
AcDb2dVertex
 10
53.615498
 20
50.050781
 30
0.0
  0
VERTEX
  5
115
330
10C
100
AcDbEntity
  8
001
 62
     5
370
    50
100
AcDbVertex
100
AcDb2dVertex
 10
53.533855
 20
50.161027
 30
0.0
  0
VERTEX
  5
116
330
10C
100
AcDbEntity
  8
001
 62
     5
370
    50
100
AcDbVertex
100
AcDb2dVertex
 10
53.426063
 20
50.244607
 30
0.0
  0
VERTEX
  5
117
330
10C
100
AcDbEntity
  8
001
 62
     5
370
    50
100
AcDbVertex
100
AcDb2dVertex
 10
53.385346
 20
50.265952
 30
0.0
  0
VERTEX
  5
118
330
10C
100
AcDbEntity
  8
001
 62
     5
370
    50
100
AcDbVertex
100
AcDb2dVertex
 10
53.3443
 20
50.283618
 30
0.0
  0
VERTEX
  5
119
330
10C
100
AcDbEntity
  8
001
 62
     5
370
    50
100
AcDbVertex
100
AcDb2dVertex
 10
53.303523
 20
50.297379
 30
0.0
  0
VERTEX
  5
11A
330
10C
100
AcDbEntity
  8
001
 62
     5
370
    50
100
AcDbVertex
100
AcDb2dVertex
 10
53.257157
 20
50.307511
 30
0.0
  0
VERTEX
  5
11B
330
10C
100
AcDbEntity
  8
001
 62
     5
370
    50
100
AcDbVertex
100
AcDb2dVertex
 10
53.221357
 20
50.31237
 30
0.0
  0
VERTEX
  5
11C
330
10C
100
AcDbEntity
  8
001
 62
     5
370
    50
100
AcDbVertex
100
AcDb2dVertex
 10
53.195529
 20
50.314768
 30
0.0
  0
SEQEND
  5
10D
330
10C
100
AcDbEntity
  8
001
370
    50
  0
POLYLINE
  5
11D
330
64
100
AcDbEntity
  8
001
 62
     5
370
    50
100
AcDb2dPolyline
 66
     1
 10
0.0
 20
0.0
 30
0.0
  0
VERTEX
  5
11F
330
11D
100
AcDbEntity
  8
001
 62
     5
370
    50
100
AcDbVertex
100
AcDb2dVertex
 10
53.958442
 20
49.496561
 30
0.0
  0
VERTEX
  5
120
330
11D
100
AcDbEntity
  8
001
 62
     5
370
    50
100
AcDbVertex
100
AcDb2dVertex
 10
53.978489
 20
49.4976
 30
0.0
  0
VERTEX
  5
121
330
11D
100
AcDbEntity
  8
001
 62
     5
370
    50
100
AcDbVertex
100
AcDb2dVertex
 10
54.005966
 20
49.500813
 30
0.0
  0
VERTEX
  5
122
330
11D
100
AcDbEntity
  8
001
 62
     5
370
    50
100
AcDbVertex
100
AcDb2dVertex
 10
54.030397
 20
49.506235
 30
0.0
  0
VERTEX
  5
123
330
11D
100
AcDbEntity
  8
001
 62
     5
370
    50
100
AcDbVertex
100
AcDb2dVertex
 10
54.052046
 20
49.513444
 30
0.0
  0
VERTEX
  5
124
330
11D
100
AcDbEntity
  8
001
 62
     5
370
    50
100
AcDbVertex
100
AcDb2dVertex
 10
54.073496
 20
49.522294
 30
0.0
  0
VERTEX
  5
125
330
11D
100
AcDbEntity
  8
001
 62
     5
370
    50
100
AcDbVertex
100
AcDb2dVertex
 10
54.095282
 20
49.534069
 30
0.0
  0
VERTEX
  5
126
330
11D
100
AcDbEntity
  8
001
 62
     5
370
    50
100
AcDbVertex
100
AcDb2dVertex
 10
54.151894
 20
49.581277
 30
0.0
  0
VERTEX
  5
127
330
11D
100
AcDbEntity
  8
001
 62
     5
370
    50
100
AcDbVertex
100
AcDb2dVertex
 10
54.187637
 20
49.623527
 30
0.0
  0
SEQEND
  5
11E
330
11D
100
AcDbEntity
  8
001
370
    50
  0
POLYLINE
  5
128
330
64
100
AcDbEntity
  8
001
 62
     5
370
    50
100
AcDb2dPolyline
 66
     1
 10
0.0
 20
0.0
 30
0.0
  0
VERTEX
  5
12A
330
128
100
AcDbEntity
  8
001
 62
     5
370
    50
100
AcDbVertex
100
AcDb2dVertex
 10
54.885073
 20
49.789567
 30
0.0
  0
VERTEX
  5
12B
330
128
100
AcDbEntity
  8
001
 62
     5
370
    50
100
AcDbVertex
100
AcDb2dVertex
 10
54.88295
 20
49.790845
 30
0.0
  0
VERTEX
  5
12C
330
128
100
AcDbEntity
  8
001
 62
     5
370
    50
100
AcDbVertex
100
AcDb2dVertex
 10
54.87986
 20
49.792688
 30
0.0
  0
VERTEX
  5
12D
330
128
100
AcDbEntity
  8
001
 62
     5
370
    50
100
AcDbVertex
100
AcDb2dVertex
 10
54.836566
 20
49.815752
 30
0.0
  0
VERTEX
  5
12E
330
128
100
AcDbEntity
  8
001
 62
     5
370
    50
100
AcDbVertex
100
AcDb2dVertex
 10
54.798097
 20
49.831699
 30
0.0
  0
VERTEX
  5
12F
330
128
100
AcDbEntity
  8
001
 62
     5
370
    50
100
AcDbVertex
100
AcDb2dVertex
 10
54.757706
 20
49.845126
 30
0.0
  0
VERTEX
  5
130
330
128
100
AcDbEntity
  8
001
 62
     5
370
    50
100
AcDbVertex
100
AcDb2dVertex
 10
54.710954
 20
49.855592
 30
0.0
  0
VERTEX
  5
131
330
128
100
AcDbEntity
  8
001
 62
     5
370
    50
100
AcDbVertex
100
AcDb2dVertex
 10
54.658881
 20
49.861713
 30
0.0
  0
VERTEX
  5
132
330
128
100
AcDbEntity
  8
001
 62
     5
370
    50
100
AcDbVertex
100
AcDb2dVertex
 10
54.62108
 20
49.86364
 30
0.0
  0
SEQEND
  5
129
330
128
100
AcDbEntity
  8
001
370
    50
  0
POLYLINE
  5
133
330
64
100
AcDbEntity
  8
001
 62
     5
370
    50
100
AcDb2dPolyline
 66
     1
 10
0.0
 20
0.0
 30
0.0
  0
VERTEX
  5
135
330
133
100
AcDbEntity
  8
001
 62
     5
370
    50
100
AcDbVertex
100
AcDb2dVertex
 10
55.024666
 20
49.750399
 30
0.0
  0
VERTEX
  5
136
330
133
100
AcDbEntity
  8
001
 62
     5
370
    50
100
AcDbVertex
100
AcDb2dVertex
 10
55.044729
 20
49.751464
 30
0.0
  0
VERTEX
  5
137
330
133
100
AcDbEntity
  8
001
 62
     5
370
    50
100
AcDbVertex
100
AcDb2dVertex
 10
55.07219
 20
49.754651
 30
0.0
  0
VERTEX
  5
138
330
133
100
AcDbEntity
  8
001
 62
     5
370
    50
100
AcDbVertex
100
AcDb2dVertex
 10
55.096541
 20
49.759948
 30
0.0
  0
VERTEX
  5
139
330
133
100
AcDbEntity
  8
001
 62
     5
370
    50
100
AcDbVertex
100
AcDb2dVertex
 10
55.11827
 20
49.767282
 30
0.0
  0
VERTEX
  5
13A
330
133
100
AcDbEntity
  8
001
 62
     5
370
    50
100
AcDbVertex
100
AcDb2dVertex
 10
55.140027
 20
49.776612
 30
0.0
  0
VERTEX
  5
13B
330
133
100
AcDbEntity
  8
001
 62
     5
370
    50
100
AcDbVertex
100
AcDb2dVertex
 10
55.161506
 20
49.787907
 30
0.0
  0
VERTEX
  5
13C
330
133
100
AcDbEntity
  8
001
 62
     5
370
    50
100
AcDbVertex
100
AcDb2dVertex
 10
55.218423
 20
49.832651
 30
0.0
  0
VERTEX
  5
13D
330
133
100
AcDbEntity
  8
001
 62
     5
370
    50
100
AcDbVertex
100
AcDb2dVertex
 10
55.261683
 20
49.89039
 30
0.0
  0
VERTEX
  5
13E
330
133
100
AcDbEntity
  8
001
 62
     5
370
    50
100
AcDbVertex
100
AcDb2dVertex
 10
55.281943
 20
49.934611
 30
0.0
  0
VERTEX
  5
13F
330
133
100
AcDbEntity
  8
001
 62
     5
370
    50
100
AcDbVertex
100
AcDb2dVertex
 10
55.294194
 20
49.981768
 30
0.0
  0
VERTEX
  5
140
330
133
100
AcDbEntity
  8
001
 62
     5
370
    50
100
AcDbVertex
100
AcDb2dVertex
 10
55.297211
 20
50.006205
 30
0.0
  0
VERTEX
  5
141
330
133
100
AcDbEntity
  8
001
 62
     5
370
    50
100
AcDbVertex
100
AcDb2dVertex
 10
55.298354
 20
50.030389
 30
0.0
  0
VERTEX
  5
142
330
133
100
AcDbEntity
  8
001
 62
     5
370
    50
100
AcDbVertex
100
AcDb2dVertex
 10
55.29767
 20
50.054064
 30
0.0
  0
VERTEX
  5
143
330
133
100
AcDbEntity
  8
001
 62
     5
370
    50
100
AcDbVertex
100
AcDb2dVertex
 10
55.294198
 20
50.079011
 30
0.0
  0
VERTEX
  5
144
330
133
100
AcDbEntity
  8
001
 62
     5
370
    50
100
AcDbVertex
100
AcDb2dVertex
 10
55.281563
 20
50.124451
 30
0.0
  0
VERTEX
  5
145
330
133
100
AcDbEntity
  8
001
 62
     5
370
    50
100
AcDbVertex
100
AcDb2dVertex
 10
55.268807
 20
50.156948
 30
0.0
  0
SEQEND
  5
134
330
133
100
AcDbEntity
  8
001
370
    50
  0
POLYLINE
  5
146
330
64
100
AcDbEntity
  8
001
 62
     5
370
    50
100
AcDb2dPolyline
 66
     1
 10
0.0
 20
0.0
 30
0.0
  0
VERTEX
  5
148
330
146
100
AcDbEntity
  8
001
 62
     5
370
    50
100
AcDbVertex
100
AcDb2dVertex
 10
55.476978
 20
50.857918
 30
0.0
  0
VERTEX
  5
149
330
146
100
AcDbEntity
  8
001
 62
     5
370
    50
100
AcDbVertex
100
AcDb2dVertex
 10
55.47484
 20
50.856679
 30
0.0
  0
VERTEX
  5
14A
330
146
100
AcDbEntity
  8
001
 62
     5
370
    50
100
AcDbVertex
100
AcDb2dVertex
 10
55.471731
 20
50.85486
 30
0.0
  0
VERTEX
  5
14B
330
146
100
AcDbEntity
  8
001
 62
     5
370
    50
100
AcDbVertex
100
AcDb2dVertex
 10
55.356034
 20
50.765372
 30
0.0
  0
VERTEX
  5
14C
330
146
100
AcDbEntity
  8
001
 62
     5
370
    50
100
AcDbVertex
100
AcDb2dVertex
 10
55.282281
 20
50.661048
 30
0.0
  0
VERTEX
  5
14D
330
146
100
AcDbEntity
  8
001
 62
     5
370
    50
100
AcDbVertex
100
AcDb2dVertex
 10
55.245102
 20
50.578107
 30
0.0
  0
VERTEX
  5
14E
330
146
100
AcDbEntity
  8
001
 62
     5
370
    50
100
AcDbVertex
100
AcDb2dVertex
 10
55.220797
 20
50.488239
 30
0.0
  0
VERTEX
  5
14F
330
146
100
AcDbEntity
  8
001
 62
     5
370
    50
100
AcDbVertex
100
AcDb2dVertex
 10
55.214979
 20
50.441956
 30
0.0
  0
VERTEX
  5
150
330
146
100
AcDbEntity
  8
001
 62
     5
370
    50
100
AcDbVertex
100
AcDb2dVertex
 10
55.212931
 20
50.396289
 30
0.0
  0
VERTEX
  5
151
330
146
100
AcDbEntity
  8
001
 62
     5
370
    50
100
AcDbVertex
100
AcDb2dVertex
 10
55.214256
 20
50.351534
 30
0.0
  0
VERTEX
  5
152
330
146
100
AcDbEntity
  8
001
 62
     5
370
    50
100
AcDbVertex
100
AcDb2dVertex
 10
55.22079
 20
50.304338
 30
0.0
  0
VERTEX
  5
153
330
146
100
AcDbEntity
  8
001
 62
     5
370
    50
100
AcDbVertex
100
AcDb2dVertex
 10
55.244672
 20
50.218396
 30
0.0
  0
VERTEX
  5
154
330
146
100
AcDbEntity
  8
001
 62
     5
370
    50
100
AcDbVertex
100
AcDb2dVertex
 10
55.268807
 20
50.156948
 30
0.0
  0
SEQEND
  5
147
330
146
100
AcDbEntity
  8
001
370
    50
  0
POLYLINE
  5
155
330
64
100
AcDbEntity
  8
001
 62
     5
370
    50
100
AcDb2dPolyline
 66
     1
 10
0.0
 20
0.0
 30
0.0
  0
VERTEX
  5
157
330
155
100
AcDbEntity
  8
001
 62
     5
370
    50
100
AcDbVertex
100
AcDb2dVertex
 10
55.476978
 20
50.857918
 30
0.0
  0
VERTEX
  5
158
330
155
100
AcDbEntity
  8
001
 62
     5
370
    50
100
AcDbVertex
100
AcDb2dVertex
 10
55.478109
 20
50.858573
 30
0.0
  0
VERTEX
  5
159
330
155
100
AcDbEntity
  8
001
 62
     5
370
    50
100
AcDbVertex
100
AcDb2dVertex
 10
55.479753
 20
50.859535
 30
0.0
  0
VERTEX
  5
15A
330
155
100
AcDbEntity
  8
001
 62
     5
370
    50
100
AcDbVertex
100
AcDb2dVertex
 10
55.540955
 20
50.906806
 30
0.0
  0
VERTEX
  5
15B
330
155
100
AcDbEntity
  8
001
 62
     5
370
    50
100
AcDbVertex
100
AcDb2dVertex
 10
55.57993
 20
50.962018
 30
0.0
  0
VERTEX
  5
15C
330
155
100
AcDbEntity
  8
001
 62
     5
370
    50
100
AcDbVertex
100
AcDb2dVertex
 10
55.599521
 20
51.006015
 30
0.0
  0
VERTEX
  5
15D
330
155
100
AcDbEntity
  8
001
 62
     5
370
    50
100
AcDbVertex
100
AcDb2dVertex
 10
55.612441
 20
51.053395
 30
0.0
  0
VERTEX
  5
15E
330
155
100
AcDbEntity
  8
001
 62
     5
370
    50
100
AcDbVertex
100
AcDb2dVertex
 10
55.615621
 20
51.077661
 30
0.0
  0
VERTEX
  5
15F
330
155
100
AcDbEntity
  8
001
 62
     5
370
    50
100
AcDbVertex
100
AcDb2dVertex
 10
55.616601
 20
51.102017
 30
0.0
  0
VERTEX
  5
160
330
155
100
AcDbEntity
  8
001
 62
     5
370
    50
100
AcDbVertex
100
AcDb2dVertex
 10
55.615546
 20
51.126398
 30
0.0
  0
VERTEX
  5
161
330
155
100
AcDbEntity
  8
001
 62
     5
370
    50
100
AcDbVertex
100
AcDb2dVertex
 10
55.612445
 20
51.150638
 30
0.0
  0
VERTEX
  5
162
330
155
100
AcDbEntity
  8
001
 62
     5
370
    50
100
AcDbVertex
100
AcDb2dVertex
 10
55.600132
 20
51.197666
 30
0.0
  0
VERTEX
  5
163
330
155
100
AcDbEntity
  8
001
 62
     5
370
    50
100
AcDbVertex
100
AcDb2dVertex
 10
55.57994
 20
51.242018
 30
0.0
  0
VERTEX
  5
164
330
155
100
AcDbEntity
  8
001
 62
     5
370
    50
100
AcDbVertex
100
AcDb2dVertex
 10
55.536758
 20
51.299793
 30
0.0
  0
VERTEX
  5
165
330
155
100
AcDbEntity
  8
001
 62
     5
370
    50
100
AcDbVertex
100
AcDb2dVertex
 10
55.479771
 20
51.344509
 30
0.0
  0
VERTEX
  5
166
330
155
100
AcDbEntity
  8
001
 62
     5
370
    50
100
AcDbVertex
100
AcDb2dVertex
 10
55.458241
 20
51.355823
 30
0.0
  0
VERTEX
  5
167
330
155
100
AcDbEntity
  8
001
 62
     5
370
    50
100
AcDbVertex
100
AcDb2dVertex
 10
55.436536
 20
51.365137
 30
0.0
  0
VERTEX
  5
168
330
155
100
AcDbEntity
  8
001
 62
     5
370
    50
100
AcDbVertex
100
AcDb2dVertex
 10
55.414974
 20
51.372407
 30
0.0
  0
VERTEX
  5
169
330
155
100
AcDbEntity
  8
001
 62
     5
370
    50
100
AcDbVertex
100
AcDb2dVertex
 10
55.390457
 20
51.377771
 30
0.0
  0
VERTEX
  5
16A
330
155
100
AcDbEntity
  8
001
 62
     5
370
    50
100
AcDbVertex
100
AcDb2dVertex
 10
55.371527
 20
51.380341
 30
0.0
  0
VERTEX
  5
16B
330
155
100
AcDbEntity
  8
001
 62
     5
370
    50
100
AcDbVertex
100
AcDb2dVertex
 10
55.35787
 20
51.381609
 30
0.0
  0
SEQEND
  5
156
330
155
100
AcDbEntity
  8
001
370
    50
  0
POLYLINE
  5
16C
330
64
100
AcDbEntity
  8
001
 62
     5
370
    50
100
AcDb2dPolyline
 66
     1
 10
0.0
 20
0.0
 30
0.0
  0
VERTEX
  5
16E
330
16C
100
AcDbEntity
  8
001
 62
     5
370
    50
100
AcDbVertex
100
AcDb2dVertex
 10
54.868606
 20
51.916539
 30
0.0
  0
VERTEX
  5
16F
330
16C
100
AcDbEntity
  8
001
 62
     5
370
    50
100
AcDbVertex
100
AcDb2dVertex
 10
54.868585
 20
51.914019
 30
0.0
  0
VERTEX
  5
170
330
16C
100
AcDbEntity
  8
001
 62
     5
370
    50
100
AcDbVertex
100
AcDb2dVertex
 10
54.86857
 20
51.910361
 30
0.0
  0
VERTEX
  5
171
330
16C
100
AcDbEntity
  8
001
 62
     5
370
    50
100
AcDbVertex
100
AcDb2dVertex
 10
54.87049
 20
51.860553
 30
0.0
  0
VERTEX
  5
172
330
16C
100
AcDbEntity
  8
001
 62
     5
370
    50
100
AcDbVertex
100
AcDb2dVertex
 10
54.87643
 20
51.81841
 30
0.0
  0
VERTEX
  5
173
330
16C
100
AcDbEntity
  8
001
 62
     5
370
    50
100
AcDbVertex
100
AcDb2dVertex
 10
54.899765
 20
51.731968
 30
0.0
  0
VERTEX
  5
174
330
16C
100
AcDbEntity
  8
001
 62
     5
370
    50
100
AcDbVertex
100
AcDb2dVertex
 10
54.937901
 20
51.645597
 30
0.0
  0
VERTEX
  5
175
330
16C
100
AcDbEntity
  8
001
 62
     5
370
    50
100
AcDbVertex
100
AcDb2dVertex
 10
55.019545
 20
51.53535
 30
0.0
  0
VERTEX
  5
176
330
16C
100
AcDbEntity
  8
001
 62
     5
370
    50
100
AcDbVertex
100
AcDb2dVertex
 10
55.127336
 20
51.451771
 30
0.0
  0
VERTEX
  5
177
330
16C
100
AcDbEntity
  8
001
 62
     5
370
    50
100
AcDbVertex
100
AcDb2dVertex
 10
55.168054
 20
51.430426
 30
0.0
  0
VERTEX
  5
178
330
16C
100
AcDbEntity
  8
001
 62
     5
370
    50
100
AcDbVertex
100
AcDb2dVertex
 10
55.2091
 20
51.412759
 30
0.0
  0
VERTEX
  5
179
330
16C
100
AcDbEntity
  8
001
 62
     5
370
    50
100
AcDbVertex
100
AcDb2dVertex
 10
55.249876
 20
51.398999
 30
0.0
  0
VERTEX
  5
17A
330
16C
100
AcDbEntity
  8
001
 62
     5
370
    50
100
AcDbVertex
100
AcDb2dVertex
 10
55.296242
 20
51.388867
 30
0.0
  0
VERTEX
  5
17B
330
16C
100
AcDbEntity
  8
001
 62
     5
370
    50
100
AcDbVertex
100
AcDb2dVertex
 10
55.332042
 20
51.384008
 30
0.0
  0
VERTEX
  5
17C
330
16C
100
AcDbEntity
  8
001
 62
     5
370
    50
100
AcDbVertex
100
AcDb2dVertex
 10
55.35787
 20
51.381609
 30
0.0
  0
SEQEND
  5
16D
330
16C
100
AcDbEntity
  8
001
370
    50
  0
POLYLINE
  5
17D
330
64
100
AcDbEntity
  8
001
 62
     5
370
    50
100
AcDb2dPolyline
 66
     1
 10
0.0
 20
0.0
 30
0.0
  0
VERTEX
  5
17F
330
17D
100
AcDbEntity
  8
001
 62
     5
370
    50
100
AcDbVertex
100
AcDb2dVertex
 10
54.382279
 20
48.798185
 30
0.0
  0
VERTEX
  5
180
330
17D
100
AcDbEntity
  8
001
 62
     5
370
    50
100
AcDbVertex
100
AcDb2dVertex
 10
54.529166
 20
48.80598
 30
0.0
  0
VERTEX
  5
181
330
17D
100
AcDbEntity
  8
001
 62
     5
370
    50
100
AcDbVertex
100
AcDb2dVertex
 10
54.730221
 20
48.829316
 30
0.0
  0
VERTEX
  5
182
330
17D
100
AcDbEntity
  8
001
 62
     5
370
    50
100
AcDbVertex
100
AcDb2dVertex
 10
54.908506
 20
48.868089
 30
0.0
  0
VERTEX
  5
183
330
17D
100
AcDbEntity
  8
001
 62
     5
370
    50
100
AcDbVertex
100
AcDb2dVertex
 10
55.067593
 20
48.92179
 30
0.0
  0
VERTEX
  5
184
330
17D
100
AcDbEntity
  8
001
 62
     5
370
    50
100
AcDbVertex
100
AcDb2dVertex
 10
55.226871
 20
48.990123
 30
0.0
  0
VERTEX
  5
185
330
17D
100
AcDbEntity
  8
001
 62
     5
370
    50
100
AcDbVertex
100
AcDb2dVertex
 10
55.384144
 20
49.072796
 30
0.0
  0
VERTEX
  5
186
330
17D
100
AcDbEntity
  8
001
 62
     5
370
    50
100
AcDbVertex
100
AcDb2dVertex
 10
55.801074
 20
49.399979
 30
0.0
  0
VERTEX
  5
187
330
17D
100
AcDbEntity
  8
001
 62
     5
370
    50
100
AcDbVertex
100
AcDb2dVertex
 10
56.11758
 20
49.823121
 30
0.0
  0
VERTEX
  5
188
330
17D
100
AcDbEntity
  8
001
 62
     5
370
    50
100
AcDbVertex
100
AcDb2dVertex
 10
56.265367
 20
50.147915
 30
0.0
  0
VERTEX
  5
189
330
17D
100
AcDbEntity
  8
001
 62
     5
370
    50
100
AcDbVertex
100
AcDb2dVertex
 10
56.35561
 20
50.492134
 30
0.0
  0
VERTEX
  5
18A
330
17D
100
AcDbEntity
  8
001
 62
     5
370
    50
100
AcDbVertex
100
AcDb2dVertex
 10
56.378506
 20
50.669512
 30
0.0
  0
VERTEX
  5
18B
330
17D
100
AcDbEntity
  8
001
 62
     5
370
    50
100
AcDbVertex
100
AcDb2dVertex
 10
56.386064
 20
50.848111
 30
0.0
  0
VERTEX
  5
18C
330
17D
100
AcDbEntity
  8
001
 62
     5
370
    50
100
AcDbVertex
100
AcDb2dVertex
 10
56.378267
 20
51.026747
 30
0.0
  0
VERTEX
  5
18D
330
17D
100
AcDbEntity
  8
001
 62
     5
370
    50
100
AcDbVertex
100
AcDb2dVertex
 10
56.355636
 20
51.204091
 30
0.0
  0
VERTEX
  5
18E
330
17D
100
AcDbEntity
  8
001
 62
     5
370
    50
100
AcDbVertex
100
AcDb2dVertex
 10
56.267424
 20
51.547812
 30
0.0
  0
VERTEX
  5
18F
330
17D
100
AcDbEntity
  8
001
 62
     5
370
    50
100
AcDbVertex
100
AcDb2dVertex
 10
56.117655
 20
51.873121
 30
0.0
  0
VERTEX
  5
190
330
17D
100
AcDbEntity
  8
001
 62
     5
370
    50
100
AcDbVertex
100
AcDb2dVertex
 10
55.787217
 20
52.299932
 30
0.0
  0
VERTEX
  5
191
330
17D
100
AcDbEntity
  8
001
 62
     5
370
    50
100
AcDbVertex
100
AcDb2dVertex
 10
55.384274
 20
52.6235
 30
0.0
  0
VERTEX
  5
192
330
17D
100
AcDbEntity
  8
001
 62
     5
370
    50
100
AcDbVertex
100
AcDb2dVertex
 10
55.240829
 20
52.702569
 30
0.0
  0
VERTEX
  5
193
330
17D
100
AcDbEntity
  8
001
 62
     5
370
    50
100
AcDbVertex
100
AcDb2dVertex
 10
55.067734
 20
52.77453
 30
0.0
  0
VERTEX
  5
194
330
17D
100
AcDbEntity
  8
001
 62
     5
370
    50
100
AcDbVertex
100
AcDb2dVertex
 10
55.007454
 20
52.795618
 30
0.0
  0
VERTEX
  5
195
330
17D
100
AcDbEntity
  8
001
 62
     5
370
    50
100
AcDbVertex
100
AcDb2dVertex
 10
54.96486
 20
52.809646
 30
0.0
  0
SEQEND
  5
17E
330
17D
100
AcDbEntity
  8
001
370
    50
  0
POLYLINE
  5
196
330
64
100
AcDbEntity
  8
001
 62
     5
370
    50
100
AcDb2dPolyline
 66
     1
 10
0.0
 20
0.0
 30
0.0
  0
VERTEX
  5
198
330
196
100
AcDbEntity
  8
001
 62
     5
370
    50
100
AcDbVertex
100
AcDb2dVertex
 10
53.580437
 20
48.942513
 30
0.0
  0
VERTEX
  5
199
330
196
100
AcDbEntity
  8
001
 62
     5
370
    50
100
AcDbVertex
100
AcDb2dVertex
 10
53.602249
 20
48.933912
 30
0.0
  0
VERTEX
  5
19A
330
196
100
AcDbEntity
  8
001
 62
     5
370
    50
100
AcDbVertex
100
AcDb2dVertex
 10
53.633582
 20
48.921842
 30
0.0
  0
VERTEX
  5
19B
330
196
100
AcDbEntity
  8
001
 62
     5
370
    50
100
AcDbVertex
100
AcDb2dVertex
 10
53.805258
 20
48.863615
 30
0.0
  0
VERTEX
  5
19C
330
196
100
AcDbEntity
  8
001
 62
     5
370
    50
100
AcDbVertex
100
AcDb2dVertex
 10
53.970947
 20
48.829344
 30
0.0
  0
VERTEX
  5
19D
330
196
100
AcDbEntity
  8
001
 62
     5
370
    50
100
AcDbVertex
100
AcDb2dVertex
 10
54.169486
 20
48.806895
 30
0.0
  0
VERTEX
  5
19E
330
196
100
AcDbEntity
  8
001
 62
     5
370
    50
100
AcDbVertex
100
AcDb2dVertex
 10
54.318886
 20
48.798187
 30
0.0
  0
SEQEND
  5
197
330
196
100
AcDbEntity
  8
001
370
    50
  0
POLYLINE
  5
19F
330
64
100
AcDbEntity
  8
001
 62
     5
370
    50
100
AcDb2dPolyline
 66
     1
 10
0.0
 20
0.0
 30
0.0
  0
VERTEX
  5
1A1
330
19F
100
AcDbEntity
  8
001
 62
     5
370
    50
100
AcDbVertex
100
AcDb2dVertex
 10
55.03514
 20
52.762768
 30
0.0
  0
VERTEX
  5
1A2
330
19F
100
AcDbEntity
  8
001
 62
     5
370
    50
100
AcDbVertex
100
AcDb2dVertex
 10
55.022548
 20
52.767616
 30
0.0
  0
VERTEX
  5
1A3
330
19F
100
AcDbEntity
  8
001
 62
     5
370
    50
100
AcDbVertex
100
AcDb2dVertex
 10
55.004341
 20
52.774532
 30
0.0
  0
VERTEX
  5
1A4
330
19F
100
AcDbEntity
  8
001
 62
     5
370
    50
100
AcDbVertex
100
AcDb2dVertex
 10
54.831807
 20
52.832865
 30
0.0
  0
VERTEX
  5
1A5
330
19F
100
AcDbEntity
  8
001
 62
     5
370
    50
100
AcDbVertex
100
AcDb2dVertex
 10
54.666976
 20
52.86703
 30
0.0
  0
VERTEX
  5
1A6
330
19F
100
AcDbEntity
  8
001
 62
     5
370
    50
100
AcDbVertex
100
AcDb2dVertex
 10
54.468609
 20
52.889458
 30
0.0
  0
VERTEX
  5
1A7
330
19F
100
AcDbEntity
  8
001
 62
     5
370
    50
100
AcDbVertex
100
AcDb2dVertex
 10
54.319037
 20
52.898187
 30
0.0
  0
SEQEND
  5
1A0
330
19F
100
AcDbEntity
  8
001
370
    50
  0
LINE
  5
1A8
330
64
100
AcDbEntity
  8
001
 62
     5
370
    50
100
AcDbLine
 10
54.318886
 20
48.798187
 30
0.0
 11
54.382279
 21
48.798185
 31
0.0
  0
LINE
  5
1A9
330
64
100
AcDbEntity
  8
001
 62
     5
370
    50
100
AcDbLine
 10
54.38243
 20
52.898185
 30
0.0
 11
54.319037
 21
52.898187
 31
0.0
  0
POLYLINE
  5
1AA
330
64
100
AcDbEntity
  8
001
 62
     5
370
    50
100
AcDb2dPolyline
 66
     1
 10
0.0
 20
0.0
 30
0.0
  0
VERTEX
  5
1AC
330
1AA
100
AcDbEntity
  8
001
 62
     5
370
    50
100
AcDbVertex
100
AcDb2dVertex
 10
54.96486
 20
52.809646
 30
0.0
  0
VERTEX
  5
1AD
330
1AA
100
AcDbEntity
  8
001
 62
     5
370
    50
100
AcDbVertex
100
AcDb2dVertex
 10
54.870287
 20
52.836128
 30
0.0
  0
VERTEX
  5
1AE
330
1AA
100
AcDbEntity
  8
001
 62
     5
370
    50
100
AcDbVertex
100
AcDb2dVertex
 10
54.730369
 20
52.867028
 30
0.0
  0
VERTEX
  5
1AF
330
1AA
100
AcDbEntity
  8
001
 62
     5
370
    50
100
AcDbVertex
100
AcDb2dVertex
 10
54.524575
 20
52.892283
 30
0.0
  0
VERTEX
  5
1B0
330
1AA
100
AcDbEntity
  8
001
 62
     5
370
    50
100
AcDbVertex
100
AcDb2dVertex
 10
54.38243
 20
52.898185
 30
0.0
  0
SEQEND
  5
1AB
330
1AA
100
AcDbEntity
  8
001
370
    50
  0
POLYLINE
  5
1B1
330
64
100
AcDbEntity
  8
001
 62
     5
370
    50
100
AcDb2dPolyline
 66
     1
 10
0.0
 20
0.0
 30
0.0
  0
VERTEX
  5
1B3
330
1B1
100
AcDbEntity
  8
001
 62
     5
370
    50
100
AcDbVertex
100
AcDb2dVertex
 10
54.885073
 20
49.789567
 30
0.0
  0
VERTEX
  5
1B4
330
1B1
100
AcDbEntity
  8
001
 62
     5
370
    50
100
AcDbVertex
100
AcDb2dVertex
 10
54.886195
 20
49.788891
 30
0.0
  0
VERTEX
  5
1B5
330
1B1
100
AcDbEntity
  8
001
 62
     5
370
    50
100
AcDbVertex
100
AcDb2dVertex
 10
54.887829
 20
49.787917
 30
0.0
  0
VERTEX
  5
1B6
330
1B1
100
AcDbEntity
  8
001
 62
     5
370
    50
100
AcDbVertex
100
AcDb2dVertex
 10
54.910722
 20
49.775721
 30
0.0
  0
VERTEX
  5
1B7
330
1B1
100
AcDbEntity
  8
001
 62
     5
370
    50
100
AcDbVertex
100
AcDb2dVertex
 10
54.931064
 20
49.767289
 30
0.0
  0
VERTEX
  5
1B8
330
1B1
100
AcDbEntity
  8
001
 62
     5
370
    50
100
AcDbVertex
100
AcDb2dVertex
 10
54.952421
 20
49.760189
 30
0.0
  0
VERTEX
  5
1B9
330
1B1
100
AcDbEntity
  8
001
 62
     5
370
    50
100
AcDbVertex
100
AcDb2dVertex
 10
54.977143
 20
49.754655
 30
0.0
  0
VERTEX
  5
1BA
330
1B1
100
AcDbEntity
  8
001
 62
     5
370
    50
100
AcDbVertex
100
AcDb2dVertex
 10
55.004678
 20
49.751418
 30
0.0
  0
VERTEX
  5
1BB
330
1B1
100
AcDbEntity
  8
001
 62
     5
370
    50
100
AcDbVertex
100
AcDb2dVertex
 10
55.024666
 20
49.750399
 30
0.0
  0
SEQEND
  5
1B2
330
1B1
100
AcDbEntity
  8
001
370
    50
  0
POLYLINE
  5
1BC
330
64
100
AcDbEntity
  8
001
 62
     5
370
    50
100
AcDb2dPolyline
 66
     1
 10
0.0
 20
0.0
 30
0.0
  0
VERTEX
  5
1BE
330
1BC
100
AcDbEntity
  8
001
 62
     5
370
    50
100
AcDbVertex
100
AcDb2dVertex
 10
55.137126
 20
49.789558
 30
0.0
  0
VERTEX
  5
1BF
330
1BC
100
AcDbEntity
  8
001
 62
     5
370
    50
100
AcDbVertex
100
AcDb2dVertex
 10
55.138244
 20
49.788884
 30
0.0
  0
VERTEX
  5
1C0
330
1BC
100
AcDbEntity
  8
001
 62
     5
370
    50
100
AcDbVertex
100
AcDb2dVertex
 10
55.139883
 20
49.787908
 30
0.0
  0
VERTEX
  5
1C1
330
1BC
100
AcDbEntity
  8
001
 62
     5
370
    50
100
AcDbVertex
100
AcDb2dVertex
 10
55.146271
 20
49.784257
 30
0.0
  0
VERTEX
  5
1C2
330
1BC
100
AcDbEntity
  8
001
 62
     5
370
    50
100
AcDbVertex
100
AcDb2dVertex
 10
55.150694
 20
49.781849
 30
0.0
  0
SEQEND
  5
1BD
330
1BC
100
AcDbEntity
  8
001
370
    50
  0
POLYLINE
  5
1C3
330
64
100
AcDbEntity
  8
001
 62
     5
370
    50
100
AcDb2dPolyline
 66
     1
 10
0.0
 20
0.0
 30
0.0
  0
VERTEX
  5
1C5
330
1C3
100
AcDbEntity
  8
001
 62
     5
370
    50
100
AcDbVertex
100
AcDb2dVertex
 10
54.62108
 20
49.86364
 30
0.0
  0
VERTEX
  5
1C6
330
1C3
100
AcDbEntity
  8
001
 62
     5
370
    50
100
AcDbVertex
100
AcDb2dVertex
 10
54.583169
 20
49.861674
 30
0.0
  0
VERTEX
  5
1C7
330
1C3
100
AcDbEntity
  8
001
 62
     5
370
    50
100
AcDbVertex
100
AcDb2dVertex
 10
54.531205
 20
49.855599
 30
0.0
  0
VERTEX
  5
1C8
330
1C3
100
AcDbEntity
  8
001
 62
     5
370
    50
100
AcDbVertex
100
AcDb2dVertex
 10
54.485002
 20
49.845344
 30
0.0
  0
VERTEX
  5
1C9
330
1C3
100
AcDbEntity
  8
001
 62
     5
370
    50
100
AcDbVertex
100
AcDb2dVertex
 10
54.444061
 20
49.831712
 30
0.0
  0
VERTEX
  5
1CA
330
1C3
100
AcDbEntity
  8
001
 62
     5
370
    50
100
AcDbVertex
100
AcDb2dVertex
 10
54.403496
 20
49.814974
 30
0.0
  0
VERTEX
  5
1CB
330
1C3
100
AcDbEntity
  8
001
 62
     5
370
    50
100
AcDbVertex
100
AcDb2dVertex
 10
54.362294
 20
49.792707
 30
0.0
  0
VERTEX
  5
1CC
330
1C3
100
AcDbEntity
  8
001
 62
     5
370
    50
100
AcDbVertex
100
AcDb2dVertex
 10
54.255233
 20
49.703429
 30
0.0
  0
VERTEX
  5
1CD
330
1C3
100
AcDbEntity
  8
001
 62
     5
370
    50
100
AcDbVertex
100
AcDb2dVertex
 10
54.187637
 20
49.623527
 30
0.0
  0
SEQEND
  5
1C4
330
1C3
100
AcDbEntity
  8
001
370
    50
  0
POLYLINE
  5
1CE
330
64
100
AcDbEntity
  8
001
 62
     5
370
    50
100
AcDb2dPolyline
 66
     1
 10
0.0
 20
0.0
 30
0.0
  0
VERTEX
  5
1D0
330
1CE
100
AcDbEntity
  8
001
 62
     5
370
    50
100
AcDbVertex
100
AcDb2dVertex
 10
55.137126
 20
49.789558
 30
0.0
  0
VERTEX
  5
1D1
330
1CE
100
AcDbEntity
  8
001
 62
     5
370
    50
100
AcDbVertex
100
AcDb2dVertex
 10
55.135004
 20
49.790836
 30
0.0
  0
VERTEX
  5
1D2
330
1CE
100
AcDbEntity
  8
001
 62
     5
370
    50
100
AcDbVertex
100
AcDb2dVertex
 10
55.131914
 20
49.792679
 30
0.0
  0
VERTEX
  5
1D3
330
1CE
100
AcDbEntity
  8
001
 62
     5
370
    50
100
AcDbVertex
100
AcDb2dVertex
 10
55.088619
 20
49.815743
 30
0.0
  0
VERTEX
  5
1D4
330
1CE
100
AcDbEntity
  8
001
 62
     5
370
    50
100
AcDbVertex
100
AcDb2dVertex
 10
55.050151
 20
49.83169
 30
0.0
  0
VERTEX
  5
1D5
330
1CE
100
AcDbEntity
  8
001
 62
     5
370
    50
100
AcDbVertex
100
AcDb2dVertex
 10
55.00976
 20
49.845117
 30
0.0
  0
VERTEX
  5
1D6
330
1CE
100
AcDbEntity
  8
001
 62
     5
370
    50
100
AcDbVertex
100
AcDb2dVertex
 10
54.963008
 20
49.855583
 30
0.0
  0
VERTEX
  5
1D7
330
1CE
100
AcDbEntity
  8
001
 62
     5
370
    50
100
AcDbVertex
100
AcDb2dVertex
 10
54.910935
 20
49.861704
 30
0.0
  0
VERTEX
  5
1D8
330
1CE
100
AcDbEntity
  8
001
 62
     5
370
    50
100
AcDbVertex
100
AcDb2dVertex
 10
54.873134
 20
49.863631
 30
0.0
  0
SEQEND
  5
1CF
330
1CE
100
AcDbEntity
  8
001
370
    50
  0
LINE
  5
1D9
330
64
100
AcDbEntity
  8
001
 62
     5
370
    50
100
AcDbLine
 10
54.873134
 20
49.863631
 30
0.0
 11
54.62108
 21
49.86364
 31
0.0
  0
POLYLINE
  5
1DA
330
64
100
AcDbEntity
  8
001
 62
     5
370
    50
100
AcDb2dPolyline
 66
     1
 10
0.0
 20
0.0
 30
0.0
  0
VERTEX
  5
1DC
330
1DA
100
AcDbEntity
  8
001
 62
     5
370
    50
100
AcDbVertex
100
AcDb2dVertex
 10
54.868606
 20
51.916539
 30
0.0
  0
VERTEX
  5
1DD
330
1DA
100
AcDbEntity
  8
001
 62
     5
370
    50
100
AcDbVertex
100
AcDb2dVertex
 10
54.868616
 20
51.917872
 30
0.0
  0
VERTEX
  5
1DE
330
1DA
100
AcDbEntity
  8
001
 62
     5
370
    50
100
AcDbVertex
100
AcDb2dVertex
 10
54.868624
 20
51.919807
 30
0.0
  0
VERTEX
  5
1DF
330
1DA
100
AcDbEntity
  8
001
 62
     5
370
    50
100
AcDbVertex
100
AcDb2dVertex
 10
54.867608
 20
51.946144
 30
0.0
  0
VERTEX
  5
1E0
330
1DA
100
AcDbEntity
  8
001
 62
     5
370
    50
100
AcDbVertex
100
AcDb2dVertex
 10
54.864468
 20
51.968428
 30
0.0
  0
VERTEX
  5
1E1
330
1DA
100
AcDbEntity
  8
001
 62
     5
370
    50
100
AcDbVertex
100
AcDb2dVertex
 10
54.852136
 20
52.014134
 30
0.0
  0
VERTEX
  5
1E2
330
1DA
100
AcDbEntity
  8
001
 62
     5
370
    50
100
AcDbVertex
100
AcDb2dVertex
 10
54.831964
 20
52.059808
 30
0.0
  0
VERTEX
  5
1E3
330
1DA
100
AcDbEntity
  8
001
 62
     5
370
    50
100
AcDbVertex
100
AcDb2dVertex
 10
54.788742
 20
52.118124
 30
0.0
  0
VERTEX
  5
1E4
330
1DA
100
AcDbEntity
  8
001
 62
     5
370
    50
100
AcDbVertex
100
AcDb2dVertex
 10
54.731794
 20
52.162299
 30
0.0
  0
VERTEX
  5
1E5
330
1DA
100
AcDbEntity
  8
001
 62
     5
370
    50
100
AcDbVertex
100
AcDb2dVertex
 10
54.710314
 20
52.173565
 30
0.0
  0
VERTEX
  5
1E6
330
1DA
100
AcDbEntity
  8
001
 62
     5
370
    50
100
AcDbVertex
100
AcDb2dVertex
 10
54.68856
 20
52.182927
 30
0.0
  0
VERTEX
  5
1E7
330
1DA
100
AcDbEntity
  8
001
 62
     5
370
    50
100
AcDbVertex
100
AcDb2dVertex
 10
54.666831
 20
52.19027
 30
0.0
  0
VERTEX
  5
1E8
330
1DA
100
AcDbEntity
  8
001
 62
     5
370
    50
100
AcDbVertex
100
AcDb2dVertex
 10
54.642481
 20
52.195561
 30
0.0
  0
VERTEX
  5
1E9
330
1DA
100
AcDbEntity
  8
001
 62
     5
370
    50
100
AcDbVertex
100
AcDb2dVertex
 10
54.61502
 20
52.198749
 30
0.0
  0
VERTEX
  5
1EA
330
1DA
100
AcDbEntity
  8
001
 62
     5
370
    50
100
AcDbVertex
100
AcDb2dVertex
 10
54.594957
 20
52.199817
 30
0.0
  0
SEQEND
  5
1DB
330
1DA
100
AcDbEntity
  8
001
370
    50
  0
POLYLINE
  5
1EB
330
64
100
AcDbEntity
  8
001
 62
     5
370
    50
100
AcDb2dPolyline
 66
     1
 10
0.0
 20
0.0
 30
0.0
  0
VERTEX
  5
1ED
330
1EB
100
AcDbEntity
  8
001
 62
     5
370
    50
100
AcDbVertex
100
AcDb2dVertex
 10
54.720983
 20
52.168357
 30
0.0
  0
VERTEX
  5
1EE
330
1EB
100
AcDbEntity
  8
001
 62
     5
370
    50
100
AcDbVertex
100
AcDb2dVertex
 10
54.716558
 20
52.165949
 30
0.0
  0
VERTEX
  5
1EF
330
1EB
100
AcDbEntity
  8
001
 62
     5
370
    50
100
AcDbVertex
100
AcDb2dVertex
 10
54.710171
 20
52.162299
 30
0.0
  0
VERTEX
  5
1F0
330
1EB
100
AcDbEntity
  8
001
 62
     5
370
    50
100
AcDbVertex
100
AcDb2dVertex
 10
54.651037
 20
52.114138
 30
0.0
  0
VERTEX
  5
1F1
330
1EB
100
AcDbEntity
  8
001
 62
     5
370
    50
100
AcDbVertex
100
AcDb2dVertex
 10
54.617816
 20
52.072841
 30
0.0
  0
SEQEND
  5
1EC
330
1EB
100
AcDbEntity
  8
001
370
    50
  0
POLYLINE
  5
1F2
330
64
100
AcDbEntity
  8
001
 62
     5
370
    50
100
AcDb2dPolyline
 66
     1
 10
0.0
 20
0.0
 30
0.0
  0
VERTEX
  5
1F4
330
1F2
100
AcDbEntity
  8
001
 62
     5
370
    50
100
AcDbVertex
100
AcDb2dVertex
 10
53.93232
 20
51.832737
 30
0.0
  0
VERTEX
  5
1F5
330
1F2
100
AcDbEntity
  8
001
 62
     5
370
    50
100
AcDbVertex
100
AcDb2dVertex
 10
53.970231
 20
51.834703
 30
0.0
  0
VERTEX
  5
1F6
330
1F2
100
AcDbEntity
  8
001
 62
     5
370
    50
100
AcDbVertex
100
AcDb2dVertex
 10
54.022194
 20
51.840779
 30
0.0
  0
VERTEX
  5
1F7
330
1F2
100
AcDbEntity
  8
001
 62
     5
370
    50
100
AcDbVertex
100
AcDb2dVertex
 10
54.068398
 20
51.851033
 30
0.0
  0
VERTEX
  5
1F8
330
1F2
100
AcDbEntity
  8
001
 62
     5
370
    50
100
AcDbVertex
100
AcDb2dVertex
 10
54.109339
 20
51.864665
 30
0.0
  0
VERTEX
  5
1F9
330
1F2
100
AcDbEntity
  8
001
 62
     5
370
    50
100
AcDbVertex
100
AcDb2dVertex
 10
54.149903
 20
51.881403
 30
0.0
  0
VERTEX
  5
1FA
330
1F2
100
AcDbEntity
  8
001
 62
     5
370
    50
100
AcDbVertex
100
AcDb2dVertex
 10
54.191105
 20
51.903671
 30
0.0
  0
VERTEX
  5
1FB
330
1F2
100
AcDbEntity
  8
001
 62
     5
370
    50
100
AcDbVertex
100
AcDb2dVertex
 10
54.298166
 20
51.992949
 30
0.0
  0
VERTEX
  5
1FC
330
1F2
100
AcDbEntity
  8
001
 62
     5
370
    50
100
AcDbVertex
100
AcDb2dVertex
 10
54.365762
 20
52.07285
 30
0.0
  0
SEQEND
  5
1F3
330
1F2
100
AcDbEntity
  8
001
370
    50
  0
LINE
  5
1FD
330
64
100
AcDbEntity
  8
001
 62
     5
370
    50
100
AcDbLine
 10
53.93232
 20
51.832737
 30
0.0
 11
54.184373
 21
51.832728
 31
0.0
  0
POLYLINE
  5
1FE
330
64
100
AcDbEntity
  8
001
 62
     5
370
    50
100
AcDb2dPolyline
 66
     1
 10
0.0
 20
0.0
 30
0.0
  0
VERTEX
  5
200
330
1FE
100
AcDbEntity
  8
001
 62
     5
370
    50
100
AcDbVertex
100
AcDb2dVertex
 10
54.184373
 20
51.832728
 30
0.0
  0
VERTEX
  5
201
330
1FE
100
AcDbEntity
  8
001
 62
     5
370
    50
100
AcDbVertex
100
AcDb2dVertex
 10
54.222285
 20
51.834694
 30
0.0
  0
VERTEX
  5
202
330
1FE
100
AcDbEntity
  8
001
 62
     5
370
    50
100
AcDbVertex
100
AcDb2dVertex
 10
54.274248
 20
51.84077
 30
0.0
  0
VERTEX
  5
203
330
1FE
100
AcDbEntity
  8
001
 62
     5
370
    50
100
AcDbVertex
100
AcDb2dVertex
 10
54.320451
 20
51.851024
 30
0.0
  0
VERTEX
  5
204
330
1FE
100
AcDbEntity
  8
001
 62
     5
370
    50
100
AcDbVertex
100
AcDb2dVertex
 10
54.361392
 20
51.864656
 30
0.0
  0
VERTEX
  5
205
330
1FE
100
AcDbEntity
  8
001
 62
     5
370
    50
100
AcDbVertex
100
AcDb2dVertex
 10
54.401957
 20
51.881394
 30
0.0
  0
VERTEX
  5
206
330
1FE
100
AcDbEntity
  8
001
 62
     5
370
    50
100
AcDbVertex
100
AcDb2dVertex
 10
54.443159
 20
51.903661
 30
0.0
  0
VERTEX
  5
207
330
1FE
100
AcDbEntity
  8
001
 62
     5
370
    50
100
AcDbVertex
100
AcDb2dVertex
 10
54.55022
 20
51.99294
 30
0.0
  0
VERTEX
  5
208
330
1FE
100
AcDbEntity
  8
001
 62
     5
370
    50
100
AcDbVertex
100
AcDb2dVertex
 10
54.617816
 20
52.072841
 30
0.0
  0
SEQEND
  5
1FF
330
1FE
100
AcDbEntity
  8
001
370
    50
  0
POLYLINE
  5
209
330
64
100
AcDbEntity
  8
001
 62
     5
370
    50
100
AcDb2dPolyline
 66
     1
 10
0.0
 20
0.0
 30
0.0
  0
VERTEX
  5
20B
330
209
100
AcDbEntity
  8
001
 62
     5
370
    50
100
AcDbVertex
100
AcDb2dVertex
 10
53.684794
 20
49.779838
 30
0.0
  0
VERTEX
  5
20C
330
209
100
AcDbEntity
  8
001
 62
     5
370
    50
100
AcDbVertex
100
AcDb2dVertex
 10
53.684783
 20
49.778506
 30
0.0
  0
VERTEX
  5
20D
330
209
100
AcDbEntity
  8
001
 62
     5
370
    50
100
AcDbVertex
100
AcDb2dVertex
 10
53.684775
 20
49.776571
 30
0.0
  0
VERTEX
  5
20E
330
209
100
AcDbEntity
  8
001
 62
     5
370
    50
100
AcDbVertex
100
AcDb2dVertex
 10
53.685791
 20
49.750233
 30
0.0
  0
VERTEX
  5
20F
330
209
100
AcDbEntity
  8
001
 62
     5
370
    50
100
AcDbVertex
100
AcDb2dVertex
 10
53.688931
 20
49.727949
 30
0.0
  0
VERTEX
  5
210
330
209
100
AcDbEntity
  8
001
 62
     5
370
    50
100
AcDbVertex
100
AcDb2dVertex
 10
53.701263
 20
49.682244
 30
0.0
  0
VERTEX
  5
211
330
209
100
AcDbEntity
  8
001
 62
     5
370
    50
100
AcDbVertex
100
AcDb2dVertex
 10
53.721436
 20
49.63657
 30
0.0
  0
VERTEX
  5
212
330
209
100
AcDbEntity
  8
001
 62
     5
370
    50
100
AcDbVertex
100
AcDb2dVertex
 10
53.764658
 20
49.578253
 30
0.0
  0
VERTEX
  5
213
330
209
100
AcDbEntity
  8
001
 62
     5
370
    50
100
AcDbVertex
100
AcDb2dVertex
 10
53.821605
 20
49.534079
 30
0.0
  0
VERTEX
  5
214
330
209
100
AcDbEntity
  8
001
 62
     5
370
    50
100
AcDbVertex
100
AcDb2dVertex
 10
53.843085
 20
49.522812
 30
0.0
  0
VERTEX
  5
215
330
209
100
AcDbEntity
  8
001
 62
     5
370
    50
100
AcDbVertex
100
AcDb2dVertex
 10
53.86484
 20
49.51345
 30
0.0
  0
VERTEX
  5
216
330
209
100
AcDbEntity
  8
001
 62
     5
370
    50
100
AcDbVertex
100
AcDb2dVertex
 10
53.886568
 20
49.506107
 30
0.0
  0
VERTEX
  5
217
330
209
100
AcDbEntity
  8
001
 62
     5
370
    50
100
AcDbVertex
100
AcDb2dVertex
 10
53.910919
 20
49.500816
 30
0.0
  0
VERTEX
  5
218
330
209
100
AcDbEntity
  8
001
 62
     5
370
    50
100
AcDbVertex
100
AcDb2dVertex
 10
53.93838
 20
49.497629
 30
0.0
  0
VERTEX
  5
219
330
209
100
AcDbEntity
  8
001
 62
     5
370
    50
100
AcDbVertex
100
AcDb2dVertex
 10
53.958442
 20
49.496561
 30
0.0
  0
SEQEND
  5
20A
330
209
100
AcDbEntity
  8
001
370
    50
  0
POLYLINE
  5
21A
330
64
100
AcDbEntity
  8
001
 62
     5
370
    50
100
AcDb2dPolyline
 66
     1
 10
0.0
 20
0.0
 30
0.0
  0
VERTEX
  5
21C
330
21A
100
AcDbEntity
  8
001
 62
     5
370
    50
100
AcDbVertex
100
AcDb2dVertex
 10
53.936848
 20
49.779829
 30
0.0
  0
VERTEX
  5
21D
330
21A
100
AcDbEntity
  8
001
 62
     5
370
    50
100
AcDbVertex
100
AcDb2dVertex
 10
53.936837
 20
49.778496
 30
0.0
  0
VERTEX
  5
21E
330
21A
100
AcDbEntity
  8
001
 62
     5
370
    50
100
AcDbVertex
100
AcDb2dVertex
 10
53.936829
 20
49.776562
 30
0.0
  0
VERTEX
  5
21F
330
21A
100
AcDbEntity
  8
001
 62
     5
370
    50
100
AcDbVertex
100
AcDb2dVertex
 10
53.937802
 20
49.750249
 30
0.0
  0
VERTEX
  5
220
330
21A
100
AcDbEntity
  8
001
 62
     5
370
    50
100
AcDbVertex
100
AcDb2dVertex
 10
53.940985
 20
49.72794
 30
0.0
  0
VERTEX
  5
221
330
21A
100
AcDbEntity
  8
001
 62
     5
370
    50
100
AcDbVertex
100
AcDb2dVertex
 10
53.953886
 20
49.681907
 30
0.0
  0
VERTEX
  5
222
330
21A
100
AcDbEntity
  8
001
 62
     5
370
    50
100
AcDbVertex
100
AcDb2dVertex
 10
53.97349
 20
49.63656
 30
0.0
  0
VERTEX
  5
223
330
21A
100
AcDbEntity
  8
001
 62
     5
370
    50
100
AcDbVertex
100
AcDb2dVertex
 10
54.012613
 20
49.580606
 30
0.0
  0
VERTEX
  5
224
330
21A
100
AcDbEntity
  8
001
 62
     5
370
    50
100
AcDbVertex
100
AcDb2dVertex
 10
54.073659
 20
49.53407
 30
0.0
  0
VERTEX
  5
225
330
21A
100
AcDbEntity
  8
001
 62
     5
370
    50
100
AcDbVertex
100
AcDb2dVertex
 10
54.080033
 20
49.530447
 30
0.0
  0
VERTEX
  5
226
330
21A
100
AcDbEntity
  8
001
 62
     5
370
    50
100
AcDbVertex
100
AcDb2dVertex
 10
54.08447
 20
49.528011
 30
0.0
  0
SEQEND
  5
21B
330
21A
100
AcDbEntity
  8
001
370
    50
  0
POLYLINE
  5
227
330
64
100
AcDbEntity
  8
001
 62
     5
370
    50
100
AcDb2dPolyline
 66
     1
 10
0.0
 20
0.0
 30
0.0
  0
VERTEX
  5
229
330
227
100
AcDbEntity
  8
001
 62
     5
370
    50
100
AcDbVertex
100
AcDb2dVertex
 10
53.936848
 20
49.779829
 30
0.0
  0
VERTEX
  5
22A
330
227
100
AcDbEntity
  8
001
 62
     5
370
    50
100
AcDbVertex
100
AcDb2dVertex
 10
53.936868
 20
49.782349
 30
0.0
  0
VERTEX
  5
22B
330
227
100
AcDbEntity
  8
001
 62
     5
370
    50
100
AcDbVertex
100
AcDb2dVertex
 10
53.936883
 20
49.786008
 30
0.0
  0
VERTEX
  5
22C
330
227
100
AcDbEntity
  8
001
 62
     5
370
    50
100
AcDbVertex
100
AcDb2dVertex
 10
53.934963
 20
49.835816
 30
0.0
  0
VERTEX
  5
22D
330
227
100
AcDbEntity
  8
001
 62
     5
370
    50
100
AcDbVertex
100
AcDb2dVertex
 10
53.929024
 20
49.877959
 30
0.0
  0
VERTEX
  5
22E
330
227
100
AcDbEntity
  8
001
 62
     5
370
    50
100
AcDbVertex
100
AcDb2dVertex
 10
53.905688
 20
49.9644
 30
0.0
  0
VERTEX
  5
22F
330
227
100
AcDbEntity
  8
001
 62
     5
370
    50
100
AcDbVertex
100
AcDb2dVertex
 10
53.867552
 20
50.050772
 30
0.0
  0
VERTEX
  5
230
330
227
100
AcDbEntity
  8
001
 62
     5
370
    50
100
AcDbVertex
100
AcDb2dVertex
 10
53.785909
 20
50.161018
 30
0.0
  0
VERTEX
  5
231
330
227
100
AcDbEntity
  8
001
 62
     5
370
    50
100
AcDbVertex
100
AcDb2dVertex
 10
53.678117
 20
50.244597
 30
0.0
  0
VERTEX
  5
232
330
227
100
AcDbEntity
  8
001
 62
     5
370
    50
100
AcDbVertex
100
AcDb2dVertex
 10
53.6374
 20
50.265942
 30
0.0
  0
VERTEX
  5
233
330
227
100
AcDbEntity
  8
001
 62
     5
370
    50
100
AcDbVertex
100
AcDb2dVertex
 10
53.596354
 20
50.283609
 30
0.0
  0
VERTEX
  5
234
330
227
100
AcDbEntity
  8
001
 62
     5
370
    50
100
AcDbVertex
100
AcDb2dVertex
 10
53.555577
 20
50.29737
 30
0.0
  0
VERTEX
  5
235
330
227
100
AcDbEntity
  8
001
 62
     5
370
    50
100
AcDbVertex
100
AcDb2dVertex
 10
53.509211
 20
50.307502
 30
0.0
  0
VERTEX
  5
236
330
227
100
AcDbEntity
  8
001
 62
     5
370
    50
100
AcDbVertex
100
AcDb2dVertex
 10
53.473411
 20
50.312361
 30
0.0
  0
VERTEX
  5
237
330
227
100
AcDbEntity
  8
001
 62
     5
370
    50
100
AcDbVertex
100
AcDb2dVertex
 10
53.447583
 20
50.314759
 30
0.0
  0
SEQEND
  5
228
330
227
100
AcDbEntity
  8
001
370
    50
  0
POLYLINE
  5
238
330
64
100
AcDbEntity
  8
001
 62
     5
370
    50
100
AcDb2dPolyline
 66
     1
 10
0.0
 20
0.0
 30
0.0
  0
VERTEX
  5
23A
330
238
100
AcDbEntity
  8
001
 62
     5
370
    50
100
AcDbVertex
100
AcDb2dVertex
 10
53.668327
 20
51.90681
 30
0.0
  0
VERTEX
  5
23B
330
238
100
AcDbEntity
  8
001
 62
     5
370
    50
100
AcDbVertex
100
AcDb2dVertex
 10
53.667204
 20
51.907486
 30
0.0
  0
VERTEX
  5
23C
330
238
100
AcDbEntity
  8
001
 62
     5
370
    50
100
AcDbVertex
100
AcDb2dVertex
 10
53.665571
 20
51.908461
 30
0.0
  0
VERTEX
  5
23D
330
238
100
AcDbEntity
  8
001
 62
     5
370
    50
100
AcDbVertex
100
AcDb2dVertex
 10
53.642677
 20
51.920656
 30
0.0
  0
VERTEX
  5
23E
330
238
100
AcDbEntity
  8
001
 62
     5
370
    50
100
AcDbVertex
100
AcDb2dVertex
 10
53.622336
 20
51.929089
 30
0.0
  0
VERTEX
  5
23F
330
238
100
AcDbEntity
  8
001
 62
     5
370
    50
100
AcDbVertex
100
AcDb2dVertex
 10
53.600978
 20
51.936189
 30
0.0
  0
VERTEX
  5
240
330
238
100
AcDbEntity
  8
001
 62
     5
370
    50
100
AcDbVertex
100
AcDb2dVertex
 10
53.576257
 20
51.941723
 30
0.0
  0
VERTEX
  5
241
330
238
100
AcDbEntity
  8
001
 62
     5
370
    50
100
AcDbVertex
100
AcDb2dVertex
 10
53.548722
 20
51.944959
 30
0.0
  0
VERTEX
  5
242
330
238
100
AcDbEntity
  8
001
 62
     5
370
    50
100
AcDbVertex
100
AcDb2dVertex
 10
53.528733
 20
51.945978
 30
0.0
  0
SEQEND
  5
239
330
238
100
AcDbEntity
  8
001
370
    50
  0
POLYLINE
  5
243
330
64
100
AcDbEntity
  8
001
 62
     5
370
    50
100
AcDb2dPolyline
 66
     1
 10
0.0
 20
0.0
 30
0.0
  0
VERTEX
  5
245
330
243
100
AcDbEntity
  8
001
 62
     5
370
    50
100
AcDbVertex
100
AcDb2dVertex
 10
53.654759
 20
51.914519
 30
0.0
  0
VERTEX
  5
246
330
243
100
AcDbEntity
  8
001
 62
     5
370
    50
100
AcDbVertex
100
AcDb2dVertex
 10
53.650321
 20
51.912085
 30
0.0
  0
VERTEX
  5
247
330
243
100
AcDbEntity
  8
001
 62
     5
370
    50
100
AcDbVertex
100
AcDb2dVertex
 10
53.643947
 20
51.908461
 30
0.0
  0
VERTEX
  5
248
330
243
100
AcDbEntity
  8
001
 62
     5
370
    50
100
AcDbVertex
100
AcDb2dVertex
 10
53.582924
 20
51.861415
 30
0.0
  0
VERTEX
  5
249
330
243
100
AcDbEntity
  8
001
 62
     5
370
    50
100
AcDbVertex
100
AcDb2dVertex
 10
53.54377
 20
51.805978
 30
0.0
  0
VERTEX
  5
24A
330
243
100
AcDbEntity
  8
001
 62
     5
370
    50
100
AcDbVertex
100
AcDb2dVertex
 10
53.524089
 20
51.762082
 30
0.0
  0
VERTEX
  5
24B
330
243
100
AcDbEntity
  8
001
 62
     5
370
    50
100
AcDbVertex
100
AcDb2dVertex
 10
53.511259
 20
51.714601
 30
0.0
  0
VERTEX
  5
24C
330
243
100
AcDbEntity
  8
001
 62
     5
370
    50
100
AcDbVertex
100
AcDb2dVertex
 10
53.508185
 20
51.690131
 30
0.0
  0
VERTEX
  5
24D
330
243
100
AcDbEntity
  8
001
 62
     5
370
    50
100
AcDbVertex
100
AcDb2dVertex
 10
53.507099
 20
51.665979
 30
0.0
  0
VERTEX
  5
24E
330
243
100
AcDbEntity
  8
001
 62
     5
370
    50
100
AcDbVertex
100
AcDb2dVertex
 10
53.5078
 20
51.642313
 30
0.0
  0
VERTEX
  5
24F
330
243
100
AcDbEntity
  8
001
 62
     5
370
    50
100
AcDbVertex
100
AcDb2dVertex
 10
53.511255
 20
51.617358
 30
0.0
  0
VERTEX
  5
250
330
243
100
AcDbEntity
  8
001
 62
     5
370
    50
100
AcDbVertex
100
AcDb2dVertex
 10
53.523884
 20
51.571914
 30
0.0
  0
VERTEX
  5
251
330
243
100
AcDbEntity
  8
001
 62
     5
370
    50
100
AcDbVertex
100
AcDb2dVertex
 10
53.536646
 20
51.539421
 30
0.0
  0
SEQEND
  5
244
330
243
100
AcDbEntity
  8
001
370
    50
  0
POLYLINE
  5
252
330
64
100
AcDbEntity
  8
001
 62
     5
370
    50
100
AcDb2dPolyline
 66
     1
 10
0.0
 20
0.0
 30
0.0
  0
VERTEX
  5
254
330
252
100
AcDbEntity
  8
001
 62
     5
370
    50
100
AcDbVertex
100
AcDb2dVertex
 10
53.328475
 20
50.83845
 30
0.0
  0
VERTEX
  5
255
330
252
100
AcDbEntity
  8
001
 62
     5
370
    50
100
AcDbVertex
100
AcDb2dVertex
 10
53.330613
 20
50.83969
 30
0.0
  0
VERTEX
  5
256
330
252
100
AcDbEntity
  8
001
 62
     5
370
    50
100
AcDbVertex
100
AcDb2dVertex
 10
53.333723
 20
50.841508
 30
0.0
  0
VERTEX
  5
257
330
252
100
AcDbEntity
  8
001
 62
     5
370
    50
100
AcDbVertex
100
AcDb2dVertex
 10
53.44942
 20
50.930997
 30
0.0
  0
VERTEX
  5
258
330
252
100
AcDbEntity
  8
001
 62
     5
370
    50
100
AcDbVertex
100
AcDb2dVertex
 10
53.523172
 20
51.03532
 30
0.0
  0
VERTEX
  5
259
330
252
100
AcDbEntity
  8
001
 62
     5
370
    50
100
AcDbVertex
100
AcDb2dVertex
 10
53.560351
 20
51.118261
 30
0.0
  0
VERTEX
  5
25A
330
252
100
AcDbEntity
  8
001
 62
     5
370
    50
100
AcDbVertex
100
AcDb2dVertex
 10
53.584656
 20
51.208129
 30
0.0
  0
VERTEX
  5
25B
330
252
100
AcDbEntity
  8
001
 62
     5
370
    50
100
AcDbVertex
100
AcDb2dVertex
 10
53.590474
 20
51.254412
 30
0.0
  0
VERTEX
  5
25C
330
252
100
AcDbEntity
  8
001
 62
     5
370
    50
100
AcDbVertex
100
AcDb2dVertex
 10
53.592522
 20
51.300079
 30
0.0
  0
VERTEX
  5
25D
330
252
100
AcDbEntity
  8
001
 62
     5
370
    50
100
AcDbVertex
100
AcDb2dVertex
 10
53.591197
 20
51.344834
 30
0.0
  0
VERTEX
  5
25E
330
252
100
AcDbEntity
  8
001
 62
     5
370
    50
100
AcDbVertex
100
AcDb2dVertex
 10
53.584663
 20
51.39203
 30
0.0
  0
VERTEX
  5
25F
330
252
100
AcDbEntity
  8
001
 62
     5
370
    50
100
AcDbVertex
100
AcDb2dVertex
 10
53.560781
 20
51.477972
 30
0.0
  0
VERTEX
  5
260
330
252
100
AcDbEntity
  8
001
 62
     5
370
    50
100
AcDbVertex
100
AcDb2dVertex
 10
53.536646
 20
51.539421
 30
0.0
  0
SEQEND
  5
253
330
252
100
AcDbEntity
  8
001
370
    50
  0
POLYLINE
  5
261
330
64
100
AcDbEntity
  8
001
 62
     5
370
    50
100
AcDb2dPolyline
 66
     1
 10
0.0
 20
0.0
 30
0.0
  0
VERTEX
  5
263
330
261
100
AcDbEntity
  8
001
 62
     5
370
    50
100
AcDbVertex
100
AcDb2dVertex
 10
53.328475
 20
50.83845
 30
0.0
  0
VERTEX
  5
264
330
261
100
AcDbEntity
  8
001
 62
     5
370
    50
100
AcDbVertex
100
AcDb2dVertex
 10
53.327344
 20
50.837795
 30
0.0
  0
VERTEX
  5
265
330
261
100
AcDbEntity
  8
001
 62
     5
370
    50
100
AcDbVertex
100
AcDb2dVertex
 10
53.3257
 20
50.836834
 30
0.0
  0
VERTEX
  5
266
330
261
100
AcDbEntity
  8
001
 62
     5
370
    50
100
AcDbVertex
100
AcDb2dVertex
 10
53.264498
 20
50.789562
 30
0.0
  0
VERTEX
  5
267
330
261
100
AcDbEntity
  8
001
 62
     5
370
    50
100
AcDbVertex
100
AcDb2dVertex
 10
53.225523
 20
50.73435
 30
0.0
  0
VERTEX
  5
268
330
261
100
AcDbEntity
  8
001
 62
     5
370
    50
100
AcDbVertex
100
AcDb2dVertex
 10
53.205933
 20
50.690354
 30
0.0
  0
VERTEX
  5
269
330
261
100
AcDbEntity
  8
001
 62
     5
370
    50
100
AcDbVertex
100
AcDb2dVertex
 10
53.193012
 20
50.642973
 30
0.0
  0
VERTEX
  5
26A
330
261
100
AcDbEntity
  8
001
 62
     5
370
    50
100
AcDbVertex
100
AcDb2dVertex
 10
53.189833
 20
50.618707
 30
0.0
  0
VERTEX
  5
26B
330
261
100
AcDbEntity
  8
001
 62
     5
370
    50
100
AcDbVertex
100
AcDb2dVertex
 10
53.188852
 20
50.594351
 30
0.0
  0
VERTEX
  5
26C
330
261
100
AcDbEntity
  8
001
 62
     5
370
    50
100
AcDbVertex
100
AcDb2dVertex
 10
53.189907
 20
50.56997
 30
0.0
  0
VERTEX
  5
26D
330
261
100
AcDbEntity
  8
001
 62
     5
370
    50
100
AcDbVertex
100
AcDb2dVertex
 10
53.193008
 20
50.54573
 30
0.0
  0
VERTEX
  5
26E
330
261
100
AcDbEntity
  8
001
 62
     5
370
    50
100
AcDbVertex
100
AcDb2dVertex
 10
53.205321
 20
50.498702
 30
0.0
  0
VERTEX
  5
26F
330
261
100
AcDbEntity
  8
001
 62
     5
370
    50
100
AcDbVertex
100
AcDb2dVertex
 10
53.225513
 20
50.45435
 30
0.0
  0
VERTEX
  5
270
330
261
100
AcDbEntity
  8
001
 62
     5
370
    50
100
AcDbVertex
100
AcDb2dVertex
 10
53.268695
 20
50.396575
 30
0.0
  0
VERTEX
  5
271
330
261
100
AcDbEntity
  8
001
 62
     5
370
    50
100
AcDbVertex
100
AcDb2dVertex
 10
53.325682
 20
50.351859
 30
0.0
  0
VERTEX
  5
272
330
261
100
AcDbEntity
  8
001
 62
     5
370
    50
100
AcDbVertex
100
AcDb2dVertex
 10
53.347212
 20
50.340546
 30
0.0
  0
VERTEX
  5
273
330
261
100
AcDbEntity
  8
001
 62
     5
370
    50
100
AcDbVertex
100
AcDb2dVertex
 10
53.368917
 20
50.331231
 30
0.0
  0
VERTEX
  5
274
330
261
100
AcDbEntity
  8
001
 62
     5
370
    50
100
AcDbVertex
100
AcDb2dVertex
 10
53.390479
 20
50.323961
 30
0.0
  0
VERTEX
  5
275
330
261
100
AcDbEntity
  8
001
 62
     5
370
    50
100
AcDbVertex
100
AcDb2dVertex
 10
53.414996
 20
50.318597
 30
0.0
  0
VERTEX
  5
276
330
261
100
AcDbEntity
  8
001
 62
     5
370
    50
100
AcDbVertex
100
AcDb2dVertex
 10
53.433926
 20
50.316027
 30
0.0
  0
VERTEX
  5
277
330
261
100
AcDbEntity
  8
001
 62
     5
370
    50
100
AcDbVertex
100
AcDb2dVertex
 10
53.447583
 20
50.314759
 30
0.0
  0
SEQEND
  5
262
330
261
100
AcDbEntity
  8
001
370
    50
  0
ENDBLK
  5
66
330
64
100
AcDbEntity
  8
0
100
AcDbBlockEnd
  0
BLOCK
  5
279
330
278
100
AcDbEntity
  8
0
100
AcDbBlockBegin
  2
C32GUX-2
 70
     0
 10
0.0
 20
0.0
 30
0.0
  3
C32GUX-2
  1

  0
LINE
  5
27B
330
278
100
AcDbEntity
  8
001
 62
    40
370
    50
100
AcDbLine
 10
60.614688
 20
52.83027
 30
0.0
 11
53.709505
 21
56.526917
 31
0.0
  0
LINE
  5
27C
330
278
100
AcDbEntity
  8
001
 62
    40
370
    50
100
AcDbLine
 10
53.374735
 20
56.728747
 30
0.0
 11
53.709505
 21
56.526917
 31
0.0
  0
LINE
  5
27D
330
278
100
AcDbEntity
  8
001
 62
    40
370
    50
100
AcDbLine
 10
59.441909
 20
53.817816
 30
0.0
 11
58.74194
 21
54.192541
 31
0.0
  0
LINE
  5
27E
330
278
100
AcDbEntity
  8
001
 62
    40
370
    50
100
AcDbLine
 10
60.614688
 20
52.83027
 30
0.0
 11
61.036189
 21
52.627357
 31
0.0
  0
POLYLINE
  5
27F
330
278
100
AcDbEntity
  8
001
 62
    40
370
    50
100
AcDb2dPolyline
 66
     1
 10
0.0
 20
0.0
 30
0.0
  0
VERTEX
  5
281
330
27F
100
AcDbEntity
  8
001
 62
    40
370
    50
100
AcDbVertex
100
AcDb2dVertex
 10
58.642016
 20
50.21152
 30
0.0
  0
VERTEX
  5
282
330
27F
100
AcDbEntity
  8
001
 62
    40
370
    50
100
AcDbVertex
100
AcDb2dVertex
 10
58.876171
 20
50.191004
 30
0.0
  0
VERTEX
  5
283
330
27F
100
AcDbEntity
  8
001
 62
    40
370
    50
100
AcDbVertex
100
AcDb2dVertex
 10
59.219021
 20
50.175823
 30
0.0
  0
VERTEX
  5
284
330
27F
100
AcDbEntity
  8
001
 62
    40
370
    50
100
AcDbVertex
100
AcDb2dVertex
 10
59.530865
 20
50.181305
 30
0.0
  0
VERTEX
  5
285
330
27F
100
AcDbEntity
  8
001
 62
    40
370
    50
100
AcDbVertex
100
AcDb2dVertex
 10
59.744007
 20
50.194929
 30
0.0
  0
SEQEND
  5
280
330
27F
100
AcDbEntity
  8
001
370
    50
  0
LINE
  5
286
330
278
100
AcDbEntity
  8
001
 62
    40
370
    50
100
AcDbLine
 10
56.632612
 20
51.287242
 30
0.0
 11
58.642016
 21
50.21152
 31
0.0
  0
POLYLINE
  5
287
330
278
100
AcDbEntity
  8
001
 62
    40
370
    50
100
AcDb2dPolyline
 66
     1
 10
0.0
 20
0.0
 30
0.0
  0
VERTEX
  5
289
330
287
100
AcDbEntity
  8
001
 62
    40
370
    50
100
AcDbVertex
100
AcDb2dVertex
 10
56.632612
 20
51.287242
 30
0.0
  0
VERTEX
  5
28A
330
287
100
AcDbEntity
  8
001
 62
    40
370
    50
100
AcDbVertex
100
AcDb2dVertex
 10
56.572092
 20
51.421862
 30
0.0
  0
VERTEX
  5
28B
330
287
100
AcDbEntity
  8
001
 62
    40
370
    50
100
AcDbVertex
100
AcDb2dVertex
 10
56.50848
 20
51.554987
 30
0.0
  0
VERTEX
  5
28C
330
287
100
AcDbEntity
  8
001
 62
    40
370
    50
100
AcDbVertex
100
AcDb2dVertex
 10
56.435121
 20
51.692573
 30
0.0
  0
VERTEX
  5
28D
330
287
100
AcDbEntity
  8
001
 62
    40
370
    50
100
AcDbVertex
100
AcDb2dVertex
 10
56.354985
 20
51.826377
 30
0.0
  0
VERTEX
  5
28E
330
287
100
AcDbEntity
  8
001
 62
    40
370
    50
100
AcDbVertex
100
AcDb2dVertex
 10
56.267859
 20
51.956386
 30
0.0
  0
VERTEX
  5
28F
330
287
100
AcDbEntity
  8
001
 62
    40
370
    50
100
AcDbVertex
100
AcDb2dVertex
 10
56.174009
 20
52.081605
 30
0.0
  0
VERTEX
  5
290
330
287
100
AcDbEntity
  8
001
 62
    40
370
    50
100
AcDbVertex
100
AcDb2dVertex
 10
56.070326
 20
52.20501
 30
0.0
  0
VERTEX
  5
291
330
287
100
AcDbEntity
  8
001
 62
    40
370
    50
100
AcDbVertex
100
AcDb2dVertex
 10
55.959658
 20
52.322219
 30
0.0
  0
VERTEX
  5
292
330
287
100
AcDbEntity
  8
001
 62
    40
370
    50
100
AcDbVertex
100
AcDb2dVertex
 10
55.840573
 20
52.434035
 30
0.0
  0
VERTEX
  5
293
330
287
100
AcDbEntity
  8
001
 62
    40
370
    50
100
AcDbVertex
100
AcDb2dVertex
 10
55.71461
 20
52.537993
 30
0.0
  0
VERTEX
  5
294
330
287
100
AcDbEntity
  8
001
 62
    40
370
    50
100
AcDbVertex
100
AcDb2dVertex
 10
55.595671
 20
52.624092
 30
0.0
  0
VERTEX
  5
295
330
287
100
AcDbEntity
  8
001
 62
    40
370
    50
100
AcDbVertex
100
AcDb2dVertex
 10
55.471884
 20
52.703088
 30
0.0
  0
VERTEX
  5
296
330
287
100
AcDbEntity
  8
001
 62
    40
370
    50
100
AcDbVertex
100
AcDb2dVertex
 10
55.342196
 20
52.775826
 30
0.0
  0
VERTEX
  5
297
330
287
100
AcDbEntity
  8
001
 62
    40
370
    50
100
AcDbVertex
100
AcDb2dVertex
 10
55.208624
 20
52.841155
 30
0.0
  0
VERTEX
  5
298
330
287
100
AcDbEntity
  8
001
 62
    40
370
    50
100
AcDbVertex
100
AcDb2dVertex
 10
55.071084
 20
52.899138
 30
0.0
  0
VERTEX
  5
299
330
287
100
AcDbEntity
  8
001
 62
    40
370
    50
100
AcDbVertex
100
AcDb2dVertex
 10
54.930517
 20
52.949303
 30
0.0
  0
VERTEX
  5
29A
330
287
100
AcDbEntity
  8
001
 62
    40
370
    50
100
AcDbVertex
100
AcDb2dVertex
 10
54.796336
 20
52.989153
 30
0.0
  0
VERTEX
  5
29B
330
287
100
AcDbEntity
  8
001
 62
    40
370
    50
100
AcDbVertex
100
AcDb2dVertex
 10
54.660355
 20
53.022373
 30
0.0
  0
VERTEX
  5
29C
330
287
100
AcDbEntity
  8
001
 62
    40
370
    50
100
AcDbVertex
100
AcDb2dVertex
 10
54.522107
 20
53.04955
 30
0.0
  0
VERTEX
  5
29D
330
287
100
AcDbEntity
  8
001
 62
    40
370
    50
100
AcDbVertex
100
AcDb2dVertex
 10
54.382824
 20
53.070789
 30
0.0
  0
VERTEX
  5
29E
330
287
100
AcDbEntity
  8
001
 62
    40
370
    50
100
AcDbVertex
100
AcDb2dVertex
 10
54.243158
 20
53.086375
 30
0.0
  0
VERTEX
  5
29F
330
287
100
AcDbEntity
  8
001
 62
    40
370
    50
100
AcDbVertex
100
AcDb2dVertex
 10
54.103007
 20
53.096647
 30
0.0
  0
VERTEX
  5
2A0
330
287
100
AcDbEntity
  8
001
 62
    40
370
    50
100
AcDbVertex
100
AcDb2dVertex
 10
53.964961
 20
53.101906
 30
0.0
  0
VERTEX
  5
2A1
330
287
100
AcDbEntity
  8
001
 62
    40
370
    50
100
AcDbVertex
100
AcDb2dVertex
 10
53.826812
 20
53.103017
 30
0.0
  0
VERTEX
  5
2A2
330
287
100
AcDbEntity
  8
001
 62
    40
370
    50
100
AcDbVertex
100
AcDb2dVertex
 10
53.689992
 20
53.100682
 30
0.0
  0
VERTEX
  5
2A3
330
287
100
AcDbEntity
  8
001
 62
    40
370
    50
100
AcDbVertex
100
AcDb2dVertex
 10
53.553264
 20
53.095334
 30
0.0
  0
VERTEX
  5
2A4
330
287
100
AcDbEntity
  8
001
 62
    40
370
    50
100
AcDbVertex
100
AcDb2dVertex
 10
53.419666
 20
53.087682
 30
0.0
  0
VERTEX
  5
2A5
330
287
100
AcDbEntity
  8
001
 62
    40
370
    50
100
AcDbVertex
100
AcDb2dVertex
 10
53.28614
 20
53.078755
 30
0.0
  0
SEQEND
  5
288
330
287
100
AcDbEntity
  8
001
370
    50
  0
LINE
  5
2A6
330
278
100
AcDbEntity
  8
001
 62
    40
370
    50
100
AcDbLine
 10
51.736832
 20
53.908167
 30
0.0
 11
53.28614
 21
53.078755
 31
0.0
  0
POLYLINE
  5
2A7
330
278
100
AcDbEntity
  8
001
 62
    40
370
    50
100
AcDb2dPolyline
 66
     1
 10
0.0
 20
0.0
 30
0.0
  0
VERTEX
  5
2A9
330
2A7
100
AcDbEntity
  8
001
 62
    40
370
    50
100
AcDbVertex
100
AcDb2dVertex
 10
51.367863
 20
54.679046
 30
0.0
  0
VERTEX
  5
2AA
330
2A7
100
AcDbEntity
  8
001
 62
    40
370
    50
100
AcDbVertex
100
AcDb2dVertex
 10
51.381887
 20
54.634589
 30
0.0
  0
VERTEX
  5
2AB
330
2A7
100
AcDbEntity
  8
001
 62
    40
370
    50
100
AcDbVertex
100
AcDb2dVertex
 10
51.403672
 20
54.57007
 30
0.0
  0
VERTEX
  5
2AC
330
2A7
100
AcDbEntity
  8
001
 62
    40
370
    50
100
AcDbVertex
100
AcDb2dVertex
 10
51.583593
 20
54.168897
 30
0.0
  0
VERTEX
  5
2AD
330
2A7
100
AcDbEntity
  8
001
 62
    40
370
    50
100
AcDbVertex
100
AcDb2dVertex
 10
51.736832
 20
53.908167
 30
0.0
  0
SEQEND
  5
2A8
330
2A7
100
AcDbEntity
  8
001
370
    50
  0
POLYLINE
  5
2AE
330
278
100
AcDbEntity
  8
001
 62
    40
370
    50
100
AcDb2dPolyline
 66
     1
 10
0.0
 20
0.0
 30
0.0
  0
VERTEX
  5
2B0
330
2AE
100
AcDbEntity
  8
001
 62
    40
370
    50
100
AcDbVertex
100
AcDb2dVertex
 10
51.367863
 20
54.679046
 30
0.0
  0
VERTEX
  5
2B1
330
2AE
100
AcDbEntity
  8
001
 62
    40
370
    50
100
AcDbVertex
100
AcDb2dVertex
 10
51.518522
 20
54.848408
 30
0.0
  0
VERTEX
  5
2B2
330
2AE
100
AcDbEntity
  8
001
 62
    40
370
    50
100
AcDbVertex
100
AcDb2dVertex
 10
51.719909
 20
55.082061
 30
0.0
  0
VERTEX
  5
2B3
330
2AE
100
AcDbEntity
  8
001
 62
    40
370
    50
100
AcDbVertex
100
AcDb2dVertex
 10
51.847655
 20
55.236521
 30
0.0
  0
VERTEX
  5
2B4
330
2AE
100
AcDbEntity
  8
001
 62
    40
370
    50
100
AcDbVertex
100
AcDb2dVertex
 10
51.964287
 20
55.383374
 30
0.0
  0
VERTEX
  5
2B5
330
2AE
100
AcDbEntity
  8
001
 62
    40
370
    50
100
AcDbVertex
100
AcDb2dVertex
 10
52.08291
 20
55.536997
 30
0.0
  0
VERTEX
  5
2B6
330
2AE
100
AcDbEntity
  8
001
 62
    40
370
    50
100
AcDbVertex
100
AcDb2dVertex
 10
52.19987
 20
55.691611
 30
0.0
  0
VERTEX
  5
2B7
330
2AE
100
AcDbEntity
  8
001
 62
    40
370
    50
100
AcDbVertex
100
AcDb2dVertex
 10
52.403798
 20
55.971795
 30
0.0
  0
VERTEX
  5
2B8
330
2AE
100
AcDbEntity
  8
001
 62
    40
370
    50
100
AcDbVertex
100
AcDb2dVertex
 10
52.616504
 20
56.291472
 30
0.0
  0
VERTEX
  5
2B9
330
2AE
100
AcDbEntity
  8
001
 62
    40
370
    50
100
AcDbVertex
100
AcDb2dVertex
 10
52.708458
 20
56.43848
 30
0.0
  0
VERTEX
  5
2BA
330
2AE
100
AcDbEntity
  8
001
 62
    40
370
    50
100
AcDbVertex
100
AcDb2dVertex
 10
52.772334
 20
56.543502
 30
0.0
  0
SEQEND
  5
2AF
330
2AE
100
AcDbEntity
  8
001
370
    50
  0
POLYLINE
  5
2BB
330
278
100
AcDbEntity
  8
001
 62
    40
370
    50
100
AcDb2dPolyline
 66
     1
 10
0.0
 20
0.0
 30
0.0
  0
VERTEX
  5
2BD
330
2BB
100
AcDbEntity
  8
001
 62
    40
370
    50
100
AcDbVertex
100
AcDb2dVertex
 10
53.709505
 20
56.526917
 30
0.0
  0
VERTEX
  5
2BE
330
2BB
100
AcDbEntity
  8
001
 62
    40
370
    50
100
AcDbVertex
100
AcDb2dVertex
 10
53.511679
 20
56.547423
 30
0.0
  0
VERTEX
  5
2BF
330
2BB
100
AcDbEntity
  8
001
 62
    40
370
    50
100
AcDbVertex
100
AcDb2dVertex
 10
53.221809
 20
56.56261
 30
0.0
  0
VERTEX
  5
2C0
330
2BB
100
AcDbEntity
  8
001
 62
    40
370
    50
100
AcDbVertex
100
AcDb2dVertex
 10
52.954783
 20
56.557136
 30
0.0
  0
VERTEX
  5
2C1
330
2BB
100
AcDbEntity
  8
001
 62
    40
370
    50
100
AcDbVertex
100
AcDb2dVertex
 10
52.772334
 20
56.543502
 30
0.0
  0
SEQEND
  5
2BC
330
2BB
100
AcDbEntity
  8
001
370
    50
  0
POLYLINE
  5
2C2
330
278
100
AcDbEntity
  8
001
 62
    40
370
    50
100
AcDb2dPolyline
 66
     1
 10
0.0
 20
0.0
 30
0.0
  0
VERTEX
  5
2C4
330
2C2
100
AcDbEntity
  8
001
 62
    40
370
    50
100
AcDbVertex
100
AcDb2dVertex
 10
61.142907
 20
52.070792
 30
0.0
  0
VERTEX
  5
2C5
330
2C2
100
AcDbEntity
  8
001
 62
    40
370
    50
100
AcDbVertex
100
AcDb2dVertex
 10
61.104109
 20
52.145621
 30
0.0
  0
VERTEX
  5
2C6
330
2C2
100
AcDbEntity
  8
001
 62
    40
370
    50
100
AcDbVertex
100
AcDb2dVertex
 10
61.043915
 20
52.252994
 30
0.0
  0
VERTEX
  5
2C7
330
2C2
100
AcDbEntity
  8
001
 62
    40
370
    50
100
AcDbVertex
100
AcDb2dVertex
 10
60.802205
 20
52.604813
 30
0.0
  0
VERTEX
  5
2C8
330
2C2
100
AcDbEntity
  8
001
 62
    40
370
    50
100
AcDbVertex
100
AcDb2dVertex
 10
60.614688
 20
52.83027
 30
0.0
  0
SEQEND
  5
2C3
330
2C2
100
AcDbEntity
  8
001
370
    50
  0
POLYLINE
  5
2C9
330
278
100
AcDbEntity
  8
001
 62
    40
370
    50
100
AcDb2dPolyline
 66
     1
 10
0.0
 20
0.0
 30
0.0
  0
VERTEX
  5
2CB
330
2C9
100
AcDbEntity
  8
001
 62
    40
370
    50
100
AcDbVertex
100
AcDb2dVertex
 10
61.05894
 20
51.911955
 30
0.0
  0
VERTEX
  5
2CC
330
2C9
100
AcDbEntity
  8
001
 62
    40
370
    50
100
AcDbVertex
100
AcDb2dVertex
 10
61.082111
 20
51.951123
 30
0.0
  0
VERTEX
  5
2CD
330
2C9
100
AcDbEntity
  8
001
 62
    40
370
    50
100
AcDbVertex
100
AcDb2dVertex
 10
61.104213
 20
51.990857
 30
0.0
  0
VERTEX
  5
2CE
330
2C9
100
AcDbEntity
  8
001
 62
    40
370
    50
100
AcDbVertex
100
AcDb2dVertex
 10
61.12407
 20
52.030555
 30
0.0
  0
VERTEX
  5
2CF
330
2C9
100
AcDbEntity
  8
001
 62
    40
370
    50
100
AcDbVertex
100
AcDb2dVertex
 10
61.142907
 20
52.070792
 30
0.0
  0
SEQEND
  5
2CA
330
2C9
100
AcDbEntity
  8
001
370
    50
  0
POLYLINE
  5
2D0
330
278
100
AcDbEntity
  8
001
 62
    40
370
    50
100
AcDb2dPolyline
 66
     1
 10
0.0
 20
0.0
 30
0.0
  0
VERTEX
  5
2D2
330
2D0
100
AcDbEntity
  8
001
 62
    40
370
    50
100
AcDbVertex
100
AcDb2dVertex
 10
59.744007
 20
50.194929
 30
0.0
  0
VERTEX
  5
2D3
330
2D0
100
AcDbEntity
  8
001
 62
    40
370
    50
100
AcDbVertex
100
AcDb2dVertex
 10
59.894689
 20
50.364318
 30
0.0
  0
VERTEX
  5
2D4
330
2D0
100
AcDbEntity
  8
001
 62
    40
370
    50
100
AcDbVertex
100
AcDb2dVertex
 10
60.096053
 20
50.597944
 30
0.0
  0
VERTEX
  5
2D5
330
2D0
100
AcDbEntity
  8
001
 62
    40
370
    50
100
AcDbVertex
100
AcDb2dVertex
 10
60.223728
 20
50.752318
 30
0.0
  0
VERTEX
  5
2D6
330
2D0
100
AcDbEntity
  8
001
 62
    40
370
    50
100
AcDbVertex
100
AcDb2dVertex
 10
60.340431
 20
50.899257
 30
0.0
  0
VERTEX
  5
2D7
330
2D0
100
AcDbEntity
  8
001
 62
    40
370
    50
100
AcDbVertex
100
AcDb2dVertex
 10
60.459314
 20
51.053195
 30
0.0
  0
VERTEX
  5
2D8
330
2D0
100
AcDbEntity
  8
001
 62
    40
370
    50
100
AcDbVertex
100
AcDb2dVertex
 10
60.576014
 20
51.207494
 30
0.0
  0
VERTEX
  5
2D9
330
2D0
100
AcDbEntity
  8
001
 62
    40
370
    50
100
AcDbVertex
100
AcDb2dVertex
 10
60.777534
 20
51.484751
 30
0.0
  0
VERTEX
  5
2DA
330
2D0
100
AcDbEntity
  8
001
 62
    40
370
    50
100
AcDbVertex
100
AcDb2dVertex
 10
60.992648
 20
51.807355
 30
0.0
  0
VERTEX
  5
2DB
330
2D0
100
AcDbEntity
  8
001
 62
    40
370
    50
100
AcDbVertex
100
AcDb2dVertex
 10
61.031846
 20
51.868942
 30
0.0
  0
VERTEX
  5
2DC
330
2D0
100
AcDbEntity
  8
001
 62
    40
370
    50
100
AcDbVertex
100
AcDb2dVertex
 10
61.05894
 20
51.911955
 30
0.0
  0
SEQEND
  5
2D1
330
2D0
100
AcDbEntity
  8
001
370
    50
  0
POLYLINE
  5
2DD
330
278
100
AcDbEntity
  8
001
 62
    40
370
    50
100
AcDb2dPolyline
 66
     1
 10
0.0
 20
0.0
 30
0.0
  0
VERTEX
  5
2DF
330
2DD
100
AcDbEntity
  8
001
 62
    40
370
    50
100
AcDbVertex
100
AcDb2dVertex
 10
61.142907
 20
52.070792
 30
0.0
  0
VERTEX
  5
2E0
330
2DD
100
AcDbEntity
  8
001
 62
    40
370
    50
100
AcDbVertex
100
AcDb2dVertex
 10
61.168441
 20
52.142786
 30
0.0
  0
VERTEX
  5
2E1
330
2DD
100
AcDbEntity
  8
001
 62
    40
370
    50
100
AcDbVertex
100
AcDb2dVertex
 10
61.187434
 20
52.216246
 30
0.0
  0
VERTEX
  5
2E2
330
2DD
100
AcDbEntity
  8
001
 62
    40
370
    50
100
AcDbVertex
100
AcDb2dVertex
 10
61.193403
 20
52.262806
 30
0.0
  0
VERTEX
  5
2E3
330
2DD
100
AcDbEntity
  8
001
 62
    40
370
    50
100
AcDbVertex
100
AcDb2dVertex
 10
61.195001
 20
52.309854
 30
0.0
  0
VERTEX
  5
2E4
330
2DD
100
AcDbEntity
  8
001
 62
    40
370
    50
100
AcDbVertex
100
AcDb2dVertex
 10
61.192683
 20
52.356486
 30
0.0
  0
VERTEX
  5
2E5
330
2DD
100
AcDbEntity
  8
001
 62
    40
370
    50
100
AcDbVertex
100
AcDb2dVertex
 10
61.186159
 20
52.402686
 30
0.0
  0
VERTEX
  5
2E6
330
2DD
100
AcDbEntity
  8
001
 62
    40
370
    50
100
AcDbVertex
100
AcDb2dVertex
 10
61.170029
 20
52.463062
 30
0.0
  0
VERTEX
  5
2E7
330
2DD
100
AcDbEntity
  8
001
 62
    40
370
    50
100
AcDbVertex
100
AcDb2dVertex
 10
61.144516
 20
52.520201
 30
0.0
  0
VERTEX
  5
2E8
330
2DD
100
AcDbEntity
  8
001
 62
    40
370
    50
100
AcDbVertex
100
AcDb2dVertex
 10
61.119198
 20
52.558801
 30
0.0
  0
VERTEX
  5
2E9
330
2DD
100
AcDbEntity
  8
001
 62
    40
370
    50
100
AcDbVertex
100
AcDb2dVertex
 10
61.087914
 20
52.59238
 30
0.0
  0
VERTEX
  5
2EA
330
2DD
100
AcDbEntity
  8
001
 62
    40
370
    50
100
AcDbVertex
100
AcDb2dVertex
 10
61.081415
 20
52.597926
 30
0.0
  0
VERTEX
  5
2EB
330
2DD
100
AcDbEntity
  8
001
 62
    40
370
    50
100
AcDbVertex
100
AcDb2dVertex
 10
61.074807
 20
52.603346
 30
0.0
  0
SEQEND
  5
2DE
330
2DD
100
AcDbEntity
  8
001
370
    50
  0
LINE
  5
2EC
330
278
100
AcDbEntity
  8
001
 62
    40
370
    50
100
AcDbLine
 10
61.074807
 20
52.603346
 30
0.0
 11
61.036189
 21
52.627357
 31
0.0
  0
POLYLINE
  5
2ED
330
278
100
AcDbEntity
  8
001
 62
    40
370
    50
100
AcDb2dPolyline
 66
     1
 10
0.0
 20
0.0
 30
0.0
  0
VERTEX
  5
2EF
330
2ED
100
AcDbEntity
  8
001
 62
    40
370
    50
100
AcDbVertex
100
AcDb2dVertex
 10
60.244473
 20
50.076643
 30
0.0
  0
VERTEX
  5
2F0
330
2ED
100
AcDbEntity
  8
001
 62
    40
370
    50
100
AcDbVertex
100
AcDb2dVertex
 10
60.321902
 20
50.186269
 30
0.0
  0
VERTEX
  5
2F1
330
2ED
100
AcDbEntity
  8
001
 62
    40
370
    50
100
AcDbVertex
100
AcDb2dVertex
 10
60.425153
 20
50.352655
 30
0.0
  0
VERTEX
  5
2F2
330
2ED
100
AcDbEntity
  8
001
 62
    40
370
    50
100
AcDbVertex
100
AcDb2dVertex
 10
60.514273
 20
50.527045
 30
0.0
  0
VERTEX
  5
2F3
330
2ED
100
AcDbEntity
  8
001
 62
    40
370
    50
100
AcDbVertex
100
AcDb2dVertex
 10
60.568165
 20
50.649981
 30
0.0
  0
SEQEND
  5
2EE
330
2ED
100
AcDbEntity
  8
001
370
    50
  0
POLYLINE
  5
2F4
330
278
100
AcDbEntity
  8
001
 62
    40
370
    50
100
AcDb2dPolyline
 66
     1
 10
0.0
 20
0.0
 30
0.0
  0
VERTEX
  5
2F6
330
2F4
100
AcDbEntity
  8
001
 62
    40
370
    50
100
AcDbVertex
100
AcDb2dVertex
 10
61.075349
 20
52.60293
 30
0.0
  0
VERTEX
  5
2F7
330
2F4
100
AcDbEntity
  8
001
 62
    40
370
    50
100
AcDbVertex
100
AcDb2dVertex
 10
60.998114
 20
52.662307
 30
0.0
  0
VERTEX
  5
2F8
330
2F4
100
AcDbEntity
  8
001
 62
    40
370
    50
100
AcDbVertex
100
AcDb2dVertex
 10
60.920877
 20
52.721681
 30
0.0
  0
VERTEX
  5
2F9
330
2F4
100
AcDbEntity
  8
001
 62
    40
370
    50
100
AcDbVertex
100
AcDb2dVertex
 10
60.827595
 20
52.793378
 30
0.0
  0
VERTEX
  5
2FA
330
2F4
100
AcDbEntity
  8
001
 62
    40
370
    50
100
AcDbVertex
100
AcDb2dVertex
 10
60.73431
 20
52.865071
 30
0.0
  0
VERTEX
  5
2FB
330
2F4
100
AcDbEntity
  8
001
 62
    40
370
    50
100
AcDbVertex
100
AcDb2dVertex
 10
60.631772
 20
52.943879
 30
0.0
  0
VERTEX
  5
2FC
330
2F4
100
AcDbEntity
  8
001
 62
    40
370
    50
100
AcDbVertex
100
AcDb2dVertex
 10
60.52924
 20
53.022695
 30
0.0
  0
VERTEX
  5
2FD
330
2F4
100
AcDbEntity
  8
001
 62
    40
370
    50
100
AcDbVertex
100
AcDb2dVertex
 10
60.416268
 20
53.109556
 30
0.0
  0
VERTEX
  5
2FE
330
2F4
100
AcDbEntity
  8
001
 62
    40
370
    50
100
AcDbVertex
100
AcDb2dVertex
 10
60.303307
 20
53.196433
 30
0.0
  0
VERTEX
  5
2FF
330
2F4
100
AcDbEntity
  8
001
 62
    40
370
    50
100
AcDbVertex
100
AcDb2dVertex
 10
60.178504
 20
53.292442
 30
0.0
  0
VERTEX
  5
300
330
2F4
100
AcDbEntity
  8
001
 62
    40
370
    50
100
AcDbVertex
100
AcDb2dVertex
 10
60.053706
 20
53.388457
 30
0.0
  0
VERTEX
  5
301
330
2F4
100
AcDbEntity
  8
001
 62
    40
370
    50
100
AcDbVertex
100
AcDb2dVertex
 10
59.915433
 20
53.494829
 30
0.0
  0
VERTEX
  5
302
330
2F4
100
AcDbEntity
  8
001
 62
    40
370
    50
100
AcDbVertex
100
AcDb2dVertex
 10
59.777156
 20
53.601196
 30
0.0
  0
SEQEND
  5
2F5
330
2F4
100
AcDbEntity
  8
001
370
    50
  0
POLYLINE
  5
303
330
278
100
AcDbEntity
  8
001
 62
    40
370
    50
100
AcDb2dPolyline
 66
     1
 10
0.0
 20
0.0
 30
0.0
  0
VERTEX
  5
305
330
303
100
AcDbEntity
  8
001
 62
    40
370
    50
100
AcDbVertex
100
AcDb2dVertex
 10
60.566504
 20
50.645871
 30
0.0
  0
VERTEX
  5
306
330
303
100
AcDbEntity
  8
001
 62
    40
370
    50
100
AcDbVertex
100
AcDb2dVertex
 10
60.737181
 20
51.067408
 30
0.0
  0
VERTEX
  5
307
330
303
100
AcDbEntity
  8
001
 62
    40
370
    50
100
AcDbVertex
100
AcDb2dVertex
 10
60.907886
 20
51.488933
 30
0.0
  0
VERTEX
  5
308
330
303
100
AcDbEntity
  8
001
 62
    40
370
    50
100
AcDbVertex
100
AcDb2dVertex
 10
61.029396
 20
51.7889
 30
0.0
  0
VERTEX
  5
309
330
303
100
AcDbEntity
  8
001
 62
    40
370
    50
100
AcDbVertex
100
AcDb2dVertex
 10
61.150921
 20
52.088862
 30
0.0
  0
SEQEND
  5
304
330
303
100
AcDbEntity
  8
001
370
    50
  0
POLYLINE
  5
30A
330
278
100
AcDbEntity
  8
001
 62
    40
370
    50
100
AcDb2dPolyline
 66
     1
 10
0.0
 20
0.0
 30
0.0
  0
VERTEX
  5
30C
330
30A
100
AcDbEntity
  8
001
 62
    40
370
    50
100
AcDbVertex
100
AcDb2dVertex
 10
59.779379
 20
53.599485
 30
0.0
  0
VERTEX
  5
30D
330
30A
100
AcDbEntity
  8
001
 62
    40
370
    50
100
AcDbVertex
100
AcDb2dVertex
 10
59.680637
 20
53.671226
 30
0.0
  0
VERTEX
  5
30E
330
30A
100
AcDbEntity
  8
001
 62
    40
370
    50
100
AcDbVertex
100
AcDb2dVertex
 10
59.530878
 20
53.767751
 30
0.0
  0
VERTEX
  5
30F
330
30A
100
AcDbEntity
  8
001
 62
    40
370
    50
100
AcDbVertex
100
AcDb2dVertex
 10
59.478288
 20
53.797883
 30
0.0
  0
VERTEX
  5
310
330
30A
100
AcDbEntity
  8
001
 62
    40
370
    50
100
AcDbVertex
100
AcDb2dVertex
 10
59.441909
 20
53.817816
 30
0.0
  0
SEQEND
  5
30B
330
30A
100
AcDbEntity
  8
001
370
    50
  0
LINE
  5
311
330
278
100
AcDbEntity
  8
001
 62
    40
370
    50
100
AcDbLine
 10
55.945887
 20
45.15287
 30
0.0
 11
55.761916
 21
44.908647
 31
0.0
  0
POLYLINE
  5
312
330
278
100
AcDbEntity
  8
001
 62
    40
370
    50
100
AcDb2dPolyline
 66
     1
 10
0.0
 20
0.0
 30
0.0
  0
VERTEX
  5
314
330
312
100
AcDbEntity
  8
001
 62
    40
370
    50
100
AcDbVertex
100
AcDb2dVertex
 10
55.945887
 20
45.15287
 30
0.0
  0
VERTEX
  5
315
330
312
100
AcDbEntity
  8
001
 62
    40
370
    50
100
AcDbVertex
100
AcDb2dVertex
 10
56.090879
 20
45.314887
 30
0.0
  0
VERTEX
  5
316
330
312
100
AcDbEntity
  8
001
 62
    40
370
    50
100
AcDbVertex
100
AcDb2dVertex
 10
56.297932
 20
45.555885
 30
0.0
  0
VERTEX
  5
317
330
312
100
AcDbEntity
  8
001
 62
    40
370
    50
100
AcDbVertex
100
AcDb2dVertex
 10
56.346805
 20
45.614739
 30
0.0
  0
VERTEX
  5
318
330
312
100
AcDbEntity
  8
001
 62
    40
370
    50
100
AcDbVertex
100
AcDb2dVertex
 10
56.38006
 20
45.65516
 30
0.0
  0
SEQEND
  5
313
330
312
100
AcDbEntity
  8
001
370
    50
  0
LINE
  5
319
330
278
100
AcDbEntity
  8
001
 62
    40
370
    50
100
AcDbLine
 10
59.744007
 20
50.194929
 30
0.0
 11
59.172705
 21
49.436517
 31
0.0
  0
LINE
  5
31A
330
278
100
AcDbEntity
  8
001
 62
    40
370
    50
100
AcDbLine
 10
56.351469
 20
44.908625
 30
0.0
 11
56.566187
 21
45.193667
 31
0.0
  0
LINE
  5
31B
330
278
100
AcDbEntity
  8
001
 62
    40
370
    50
100
AcDbLine
 10
59.83417
 20
49.53196
 30
0.0
 11
60.244473
 21
50.076643
 31
0.0
  0
LINE
  5
31C
330
278
100
AcDbEntity
  8
001
 62
    40
370
    50
100
AcDbLine
 10
56.816567
 20
47.788211
 30
0.0
 11
55.267259
 21
48.617623
 31
0.0
  0
POLYLINE
  5
31D
330
278
100
AcDbEntity
  8
001
 62
    40
370
    50
100
AcDb2dPolyline
 66
     1
 10
0.0
 20
0.0
 30
0.0
  0
VERTEX
  5
31F
330
31D
100
AcDbEntity
  8
001
 62
    40
370
    50
100
AcDbVertex
100
AcDb2dVertex
 10
55.267259
 20
48.617623
 30
0.0
  0
VERTEX
  5
320
330
31D
100
AcDbEntity
  8
001
 62
    40
370
    50
100
AcDbVertex
100
AcDb2dVertex
 10
55.352999
 20
48.660595
 30
0.0
  0
VERTEX
  5
321
330
31D
100
AcDbEntity
  8
001
 62
    40
370
    50
100
AcDbVertex
100
AcDb2dVertex
 10
55.47396
 20
48.726383
 30
0.0
  0
VERTEX
  5
322
330
31D
100
AcDbEntity
  8
001
 62
    40
370
    50
100
AcDbVertex
100
AcDb2dVertex
 10
56.00604
 20
49.135467
 30
0.0
  0
VERTEX
  5
323
330
31D
100
AcDbEntity
  8
001
 62
    40
370
    50
100
AcDbVertex
100
AcDb2dVertex
 10
56.350506
 20
49.623113
 30
0.0
  0
VERTEX
  5
324
330
31D
100
AcDbEntity
  8
001
 62
    40
370
    50
100
AcDbVertex
100
AcDb2dVertex
 10
56.522944
 20
50.005741
 30
0.0
  0
VERTEX
  5
325
330
31D
100
AcDbEntity
  8
001
 62
    40
370
    50
100
AcDbVertex
100
AcDb2dVertex
 10
56.634981
 20
50.422664
 30
0.0
  0
VERTEX
  5
326
330
31D
100
AcDbEntity
  8
001
 62
    40
370
    50
100
AcDbVertex
100
AcDb2dVertex
 10
56.661913
 20
50.639591
 30
0.0
  0
VERTEX
  5
327
330
31D
100
AcDbEntity
  8
001
 62
    40
370
    50
100
AcDbVertex
100
AcDb2dVertex
 10
56.671377
 20
50.848101
 30
0.0
  0
VERTEX
  5
328
330
31D
100
AcDbEntity
  8
001
 62
    40
370
    50
100
AcDbVertex
100
AcDb2dVertex
 10
56.665054
 20
51.045339
 30
0.0
  0
VERTEX
  5
329
330
31D
100
AcDbEntity
  8
001
 62
    40
370
    50
100
AcDbVertex
100
AcDb2dVertex
 10
56.635012
 20
51.27354
 30
0.0
  0
VERTEX
  5
32A
330
31D
100
AcDbEntity
  8
001
 62
    40
370
    50
100
AcDbVertex
100
AcDb2dVertex
 10
56.633595
 20
51.281665
 30
0.0
  0
VERTEX
  5
32B
330
31D
100
AcDbEntity
  8
001
 62
    40
370
    50
100
AcDbVertex
100
AcDb2dVertex
 10
56.632612
 20
51.287242
 30
0.0
  0
SEQEND
  5
31E
330
31D
100
AcDbEntity
  8
001
370
    50
  0
LINE
  5
32C
330
278
100
AcDbEntity
  8
001
 62
    40
370
    50
100
AcDbLine
 10
58.642016
 20
50.21152
 30
0.0
 11
56.816567
 21
47.788211
 31
0.0
  0
POLYLINE
  5
32D
330
278
100
AcDbEntity
  8
001
 62
    40
370
    50
100
AcDb2dPolyline
 66
     1
 10
0.0
 20
0.0
 30
0.0
  0
VERTEX
  5
32F
330
32D
100
AcDbEntity
  8
001
 62
    40
370
    50
100
AcDbVertex
100
AcDb2dVertex
 10
57.334446
 20
47.049508
 30
0.0
  0
VERTEX
  5
330
330
32D
100
AcDbEntity
  8
001
 62
    40
370
    50
100
AcDbVertex
100
AcDb2dVertex
 10
57.299535
 20
47.115724
 30
0.0
  0
VERTEX
  5
331
330
32D
100
AcDbEntity
  8
001
 62
    40
370
    50
100
AcDbVertex
100
AcDb2dVertex
 10
57.245795
 20
47.210934
 30
0.0
  0
VERTEX
  5
332
330
32D
100
AcDbEntity
  8
001
 62
    40
370
    50
100
AcDbVertex
100
AcDb2dVertex
 10
57.004033
 20
47.562735
 30
0.0
  0
VERTEX
  5
333
330
32D
100
AcDbEntity
  8
001
 62
    40
370
    50
100
AcDbVertex
100
AcDb2dVertex
 10
56.816567
 20
47.788211
 30
0.0
  0
SEQEND
  5
32E
330
32D
100
AcDbEntity
  8
001
370
    50
  0
POLYLINE
  5
334
330
278
100
AcDbEntity
  8
001
 62
    40
370
    50
100
AcDb2dPolyline
 66
     1
 10
0.0
 20
0.0
 30
0.0
  0
VERTEX
  5
336
330
334
100
AcDbEntity
  8
001
 62
    40
370
    50
100
AcDbVertex
100
AcDb2dVertex
 10
51.920788
 20
50.409136
 30
0.0
  0
VERTEX
  5
337
330
334
100
AcDbEntity
  8
001
 62
    40
370
    50
100
AcDbVertex
100
AcDb2dVertex
 10
52.016335
 20
50.274928
 30
0.0
  0
VERTEX
  5
338
330
334
100
AcDbEntity
  8
001
 62
    40
370
    50
100
AcDbVertex
100
AcDb2dVertex
 10
52.112819
 20
50.141388
 30
0.0
  0
VERTEX
  5
339
330
334
100
AcDbEntity
  8
001
 62
    40
370
    50
100
AcDbVertex
100
AcDb2dVertex
 10
52.214737
 20
50.004521
 30
0.0
  0
VERTEX
  5
33A
330
334
100
AcDbEntity
  8
001
 62
    40
370
    50
100
AcDbVertex
100
AcDb2dVertex
 10
52.319716
 20
49.869996
 30
0.0
  0
VERTEX
  5
33B
330
334
100
AcDbEntity
  8
001
 62
    40
370
    50
100
AcDbVertex
100
AcDb2dVertex
 10
52.427115
 20
49.740514
 30
0.0
  0
VERTEX
  5
33C
330
334
100
AcDbEntity
  8
001
 62
    40
370
    50
100
AcDbVertex
100
AcDb2dVertex
 10
52.538867
 20
49.614766
 30
0.0
  0
VERTEX
  5
33D
330
334
100
AcDbEntity
  8
001
 62
    40
370
    50
100
AcDbVertex
100
AcDb2dVertex
 10
52.656755
 20
49.491905
 30
0.0
  0
VERTEX
  5
33E
330
334
100
AcDbEntity
  8
001
 62
    40
370
    50
100
AcDbVertex
100
AcDb2dVertex
 10
52.779756
 20
49.374152
 30
0.0
  0
VERTEX
  5
33F
330
334
100
AcDbEntity
  8
001
 62
    40
370
    50
100
AcDbVertex
100
AcDb2dVertex
 10
52.907477
 20
49.262841
 30
0.0
  0
VERTEX
  5
340
330
334
100
AcDbEntity
  8
001
 62
    40
370
    50
100
AcDbVertex
100
AcDb2dVertex
 10
53.040823
 20
49.158377
 30
0.0
  0
VERTEX
  5
341
330
334
100
AcDbEntity
  8
001
 62
    40
370
    50
100
AcDbVertex
100
AcDb2dVertex
 10
53.163295
 20
49.072659
 30
0.0
  0
VERTEX
  5
342
330
334
100
AcDbEntity
  8
001
 62
    40
370
    50
100
AcDbVertex
100
AcDb2dVertex
 10
53.28998
 20
48.993282
 30
0.0
  0
VERTEX
  5
343
330
334
100
AcDbEntity
  8
001
 62
    40
370
    50
100
AcDbVertex
100
AcDb2dVertex
 10
53.419599
 20
48.920901
 30
0.0
  0
VERTEX
  5
344
330
334
100
AcDbEntity
  8
001
 62
    40
370
    50
100
AcDbVertex
100
AcDb2dVertex
 10
53.552735
 20
48.855215
 30
0.0
  0
VERTEX
  5
345
330
334
100
AcDbEntity
  8
001
 62
    40
370
    50
100
AcDbVertex
100
AcDb2dVertex
 10
53.686623
 20
48.797547
 30
0.0
  0
VERTEX
  5
346
330
334
100
AcDbEntity
  8
001
 62
    40
370
    50
100
AcDbVertex
100
AcDb2dVertex
 10
53.823368
 20
48.747067
 30
0.0
  0
VERTEX
  5
347
330
334
100
AcDbEntity
  8
001
 62
    40
370
    50
100
AcDbVertex
100
AcDb2dVertex
 10
53.950767
 20
48.70745
 30
0.0
  0
VERTEX
  5
348
330
334
100
AcDbEntity
  8
001
 62
    40
370
    50
100
AcDbVertex
100
AcDb2dVertex
 10
54.079928
 20
48.673997
 30
0.0
  0
VERTEX
  5
349
330
334
100
AcDbEntity
  8
001
 62
    40
370
    50
100
AcDbVertex
100
AcDb2dVertex
 10
54.207787
 20
48.646999
 30
0.0
  0
VERTEX
  5
34A
330
334
100
AcDbEntity
  8
001
 62
    40
370
    50
100
AcDbVertex
100
AcDb2dVertex
 10
54.336696
 20
48.625582
 30
0.0
  0
VERTEX
  5
34B
330
334
100
AcDbEntity
  8
001
 62
    40
370
    50
100
AcDbVertex
100
AcDb2dVertex
 10
54.462055
 20
48.610101
 30
0.0
  0
VERTEX
  5
34C
330
334
100
AcDbEntity
  8
001
 62
    40
370
    50
100
AcDbVertex
100
AcDb2dVertex
 10
54.587932
 20
48.599725
 30
0.0
  0
VERTEX
  5
34D
330
334
100
AcDbEntity
  8
001
 62
    40
370
    50
100
AcDbVertex
100
AcDb2dVertex
 10
54.707541
 20
48.594508
 30
0.0
  0
VERTEX
  5
34E
330
334
100
AcDbEntity
  8
001
 62
    40
370
    50
100
AcDbVertex
100
AcDb2dVertex
 10
54.827267
 20
48.593357
 30
0.0
  0
VERTEX
  5
34F
330
334
100
AcDbEntity
  8
001
 62
    40
370
    50
100
AcDbVertex
100
AcDb2dVertex
 10
54.941175
 20
48.595628
 30
0.0
  0
VERTEX
  5
350
330
334
100
AcDbEntity
  8
001
 62
    40
370
    50
100
AcDbVertex
100
AcDb2dVertex
 10
55.054963
 20
48.601041
 30
0.0
  0
VERTEX
  5
351
330
334
100
AcDbEntity
  8
001
 62
    40
370
    50
100
AcDbVertex
100
AcDb2dVertex
 10
55.161157
 20
48.608662
 30
0.0
  0
VERTEX
  5
352
330
334
100
AcDbEntity
  8
001
 62
    40
370
    50
100
AcDbVertex
100
AcDb2dVertex
 10
55.267259
 20
48.617623
 30
0.0
  0
SEQEND
  5
335
330
334
100
AcDbEntity
  8
001
370
    50
  0
POLYLINE
  5
353
330
278
100
AcDbEntity
  8
001
 62
    40
370
    50
100
AcDb2dPolyline
 66
     1
 10
0.0
 20
0.0
 30
0.0
  0
VERTEX
  5
355
330
353
100
AcDbEntity
  8
001
 62
    40
370
    50
100
AcDbVertex
100
AcDb2dVertex
 10
53.28614
 20
53.078755
 30
0.0
  0
VERTEX
  5
356
330
353
100
AcDbEntity
  8
001
 62
    40
370
    50
100
AcDbVertex
100
AcDb2dVertex
 10
53.2004
 20
53.035782
 30
0.0
  0
VERTEX
  5
357
330
353
100
AcDbEntity
  8
001
 62
    40
370
    50
100
AcDbVertex
100
AcDb2dVertex
 10
53.079439
 20
52.969995
 30
0.0
  0
VERTEX
  5
358
330
353
100
AcDbEntity
  8
001
 62
    40
370
    50
100
AcDbVertex
100
AcDb2dVertex
 10
52.547359
 20
52.560911
 30
0.0
  0
VERTEX
  5
359
330
353
100
AcDbEntity
  8
001
 62
    40
370
    50
100
AcDbVertex
100
AcDb2dVertex
 10
52.202893
 20
52.073265
 30
0.0
  0
VERTEX
  5
35A
330
353
100
AcDbEntity
  8
001
 62
    40
370
    50
100
AcDbVertex
100
AcDb2dVertex
 10
52.030456
 20
51.690637
 30
0.0
  0
VERTEX
  5
35B
330
353
100
AcDbEntity
  8
001
 62
    40
370
    50
100
AcDbVertex
100
AcDb2dVertex
 10
51.918419
 20
51.273713
 30
0.0
  0
VERTEX
  5
35C
330
353
100
AcDbEntity
  8
001
 62
    40
370
    50
100
AcDbVertex
100
AcDb2dVertex
 10
51.891487
 20
51.056786
 30
0.0
  0
VERTEX
  5
35D
330
353
100
AcDbEntity
  8
001
 62
    40
370
    50
100
AcDbVertex
100
AcDb2dVertex
 10
51.882022
 20
50.848277
 30
0.0
  0
VERTEX
  5
35E
330
353
100
AcDbEntity
  8
001
 62
    40
370
    50
100
AcDbVertex
100
AcDb2dVertex
 10
51.888346
 20
50.651038
 30
0.0
  0
VERTEX
  5
35F
330
353
100
AcDbEntity
  8
001
 62
    40
370
    50
100
AcDbVertex
100
AcDb2dVertex
 10
51.918387
 20
50.422837
 30
0.0
  0
VERTEX
  5
360
330
353
100
AcDbEntity
  8
001
 62
    40
370
    50
100
AcDbVertex
100
AcDb2dVertex
 10
51.919804
 20
50.414713
 30
0.0
  0
VERTEX
  5
361
330
353
100
AcDbEntity
  8
001
 62
    40
370
    50
100
AcDbVertex
100
AcDb2dVertex
 10
51.920788
 20
50.409136
 30
0.0
  0
SEQEND
  5
354
330
353
100
AcDbEntity
  8
001
370
    50
  0
POLYLINE
  5
362
330
278
100
AcDbEntity
  8
001
 62
    40
370
    50
100
AcDb2dPolyline
 66
     1
 10
0.0
 20
0.0
 30
0.0
  0
VERTEX
  5
364
330
362
100
AcDbEntity
  8
001
 62
    40
370
    50
100
AcDbVertex
100
AcDb2dVertex
 10
49.911384
 20
51.484858
 30
0.0
  0
VERTEX
  5
365
330
362
100
AcDbEntity
  8
001
 62
    40
370
    50
100
AcDbVertex
100
AcDb2dVertex
 10
49.713558
 20
51.505363
 30
0.0
  0
VERTEX
  5
366
330
362
100
AcDbEntity
  8
001
 62
    40
370
    50
100
AcDbVertex
100
AcDb2dVertex
 10
49.423688
 20
51.520551
 30
0.0
  0
VERTEX
  5
367
330
362
100
AcDbEntity
  8
001
 62
    40
370
    50
100
AcDbVertex
100
AcDb2dVertex
 10
49.156662
 20
51.515076
 30
0.0
  0
VERTEX
  5
368
330
362
100
AcDbEntity
  8
001
 62
    40
370
    50
100
AcDbVertex
100
AcDb2dVertex
 10
48.974213
 20
51.501442
 30
0.0
  0
SEQEND
  5
363
330
362
100
AcDbEntity
  8
001
370
    50
  0
LINE
  5
369
330
278
100
AcDbEntity
  8
001
 62
    40
370
    50
100
AcDbLine
 10
51.920788
 20
50.409136
 30
0.0
 11
49.911384
 21
51.484858
 31
0.0
  0
POLYLINE
  5
36A
330
278
100
AcDbEntity
  8
001
 62
    40
370
    50
100
AcDb2dPolyline
 66
     1
 10
0.0
 20
0.0
 30
0.0
  0
VERTEX
  5
36C
330
36A
100
AcDbEntity
  8
001
 62
    40
370
    50
100
AcDbVertex
100
AcDb2dVertex
 10
54.843895
 20
45.16946
 30
0.0
  0
VERTEX
  5
36D
330
36A
100
AcDbEntity
  8
001
 62
    40
370
    50
100
AcDbVertex
100
AcDb2dVertex
 10
55.07805
 20
45.148944
 30
0.0
  0
VERTEX
  5
36E
330
36A
100
AcDbEntity
  8
001
 62
    40
370
    50
100
AcDbVertex
100
AcDb2dVertex
 10
55.420901
 20
45.133764
 30
0.0
  0
VERTEX
  5
36F
330
36A
100
AcDbEntity
  8
001
 62
    40
370
    50
100
AcDbVertex
100
AcDb2dVertex
 10
55.732744
 20
45.139246
 30
0.0
  0
VERTEX
  5
370
330
36A
100
AcDbEntity
  8
001
 62
    40
370
    50
100
AcDbVertex
100
AcDb2dVertex
 10
55.945887
 20
45.15287
 30
0.0
  0
SEQEND
  5
36B
330
36A
100
AcDbEntity
  8
001
370
    50
  0
POLYLINE
  5
371
330
278
100
AcDbEntity
  8
001
 62
    40
370
    50
100
AcDb2dPolyline
 66
     1
 10
0.0
 20
0.0
 30
0.0
  0
VERTEX
  5
373
330
371
100
AcDbEntity
  8
001
 62
    40
370
    50
100
AcDbVertex
100
AcDb2dVertex
 10
47.573219
 20
49.62558
 30
0.0
  0
VERTEX
  5
374
330
371
100
AcDbEntity
  8
001
 62
    40
370
    50
100
AcDbVertex
100
AcDb2dVertex
 10
47.585936
 20
49.585793
 30
0.0
  0
VERTEX
  5
375
330
371
100
AcDbEntity
  8
001
 62
    40
370
    50
100
AcDbVertex
100
AcDb2dVertex
 10
47.605551
 20
49.528011
 30
0.0
  0
VERTEX
  5
376
330
371
100
AcDbEntity
  8
001
 62
    40
370
    50
100
AcDbVertex
100
AcDb2dVertex
 10
47.7855
 20
49.12684
 30
0.0
  0
VERTEX
  5
377
330
371
100
AcDbEntity
  8
001
 62
    40
370
    50
100
AcDbVertex
100
AcDb2dVertex
 10
47.938712
 20
48.866107
 30
0.0
  0
SEQEND
  5
372
330
371
100
AcDbEntity
  8
001
370
    50
  0
POLYLINE
  5
378
330
278
100
AcDbEntity
  8
001
 62
    40
370
    50
100
AcDb2dPolyline
 66
     1
 10
0.0
 20
0.0
 30
0.0
  0
VERTEX
  5
37A
330
378
100
AcDbEntity
  8
001
 62
    40
370
    50
100
AcDbVertex
100
AcDb2dVertex
 10
47.702316
 20
49.784415
 30
0.0
  0
VERTEX
  5
37B
330
378
100
AcDbEntity
  8
001
 62
    40
370
    50
100
AcDbVertex
100
AcDb2dVertex
 10
47.668661
 20
49.745206
 30
0.0
  0
VERTEX
  5
37C
330
378
100
AcDbEntity
  8
001
 62
    40
370
    50
100
AcDbVertex
100
AcDb2dVertex
 10
47.635601
 20
49.705514
 30
0.0
  0
VERTEX
  5
37D
330
378
100
AcDbEntity
  8
001
 62
    40
370
    50
100
AcDbVertex
100
AcDb2dVertex
 10
47.604123
 20
49.66578
 30
0.0
  0
VERTEX
  5
37E
330
378
100
AcDbEntity
  8
001
 62
    40
370
    50
100
AcDbVertex
100
AcDb2dVertex
 10
47.573219
 20
49.62558
 30
0.0
  0
SEQEND
  5
379
330
378
100
AcDbEntity
  8
001
370
    50
  0
POLYLINE
  5
37F
330
278
100
AcDbEntity
  8
001
 62
    40
370
    50
100
AcDb2dPolyline
 66
     1
 10
0.0
 20
0.0
 30
0.0
  0
VERTEX
  5
381
330
37F
100
AcDbEntity
  8
001
 62
    40
370
    50
100
AcDbVertex
100
AcDb2dVertex
 10
47.702316
 20
49.784415
 30
0.0
  0
VERTEX
  5
382
330
37F
100
AcDbEntity
  8
001
 62
    40
370
    50
100
AcDbVertex
100
AcDb2dVertex
 10
47.79505
 20
49.891243
 30
0.0
  0
VERTEX
  5
383
330
37F
100
AcDbEntity
  8
001
 62
    40
370
    50
100
AcDbVertex
100
AcDb2dVertex
 10
47.921788
 20
50.040002
 30
0.0
  0
VERTEX
  5
384
330
37F
100
AcDbEntity
  8
001
 62
    40
370
    50
100
AcDbVertex
100
AcDb2dVertex
 10
48.050634
 20
50.195904
 30
0.0
  0
VERTEX
  5
385
330
37F
100
AcDbEntity
  8
001
 62
    40
370
    50
100
AcDbVertex
100
AcDb2dVertex
 10
48.166166
 20
50.341314
 30
0.0
  0
VERTEX
  5
386
330
37F
100
AcDbEntity
  8
001
 62
    40
370
    50
100
AcDbVertex
100
AcDb2dVertex
 10
48.284474
 20
50.494525
 30
0.0
  0
VERTEX
  5
387
330
37F
100
AcDbEntity
  8
001
 62
    40
370
    50
100
AcDbVertex
100
AcDb2dVertex
 10
48.401749
 20
50.649551
 30
0.0
  0
VERTEX
  5
388
330
37F
100
AcDbEntity
  8
001
 62
    40
370
    50
100
AcDbVertex
100
AcDb2dVertex
 10
48.605848
 20
50.929959
 30
0.0
  0
VERTEX
  5
389
330
37F
100
AcDbEntity
  8
001
 62
    40
370
    50
100
AcDbVertex
100
AcDb2dVertex
 10
48.818383
 20
51.249413
 30
0.0
  0
VERTEX
  5
38A
330
37F
100
AcDbEntity
  8
001
 62
    40
370
    50
100
AcDbVertex
100
AcDb2dVertex
 10
48.910328
 20
51.396409
 30
0.0
  0
VERTEX
  5
38B
330
37F
100
AcDbEntity
  8
001
 62
    40
370
    50
100
AcDbVertex
100
AcDb2dVertex
 10
48.974213
 20
51.501442
 30
0.0
  0
SEQEND
  5
380
330
37F
100
AcDbEntity
  8
001
370
    50
  0
LINE
  5
38C
330
278
100
AcDbEntity
  8
001
 62
    40
370
    50
100
AcDbLine
 10
55.500165
 20
44.853528
 30
0.0
 11
54.843895
 21
45.16946
 31
0.0
  0
POLYLINE
  5
38D
330
278
100
AcDbEntity
  8
001
 62
    40
370
    50
100
AcDb2dPolyline
 66
     1
 10
0.0
 20
0.0
 30
0.0
  0
VERTEX
  5
38F
330
38D
100
AcDbEntity
  8
001
 62
    40
370
    50
100
AcDbVertex
100
AcDb2dVertex
 10
55.599395
 20
44.830734
 30
0.0
  0
VERTEX
  5
390
330
38D
100
AcDbEntity
  8
001
 62
    40
370
    50
100
AcDbVertex
100
AcDb2dVertex
 10
55.607686
 20
44.83095
 30
0.0
  0
VERTEX
  5
391
330
38D
100
AcDbEntity
  8
001
 62
    40
370
    50
100
AcDbVertex
100
AcDb2dVertex
 10
55.619584
 20
44.831655
 30
0.0
  0
VERTEX
  5
392
330
38D
100
AcDbEntity
  8
001
 62
    40
370
    50
100
AcDbVertex
100
AcDb2dVertex
 10
55.675753
 20
44.844043
 30
0.0
  0
VERTEX
  5
393
330
38D
100
AcDbEntity
  8
001
 62
    40
370
    50
100
AcDbVertex
100
AcDb2dVertex
 10
55.719753
 20
44.867913
 30
0.0
  0
VERTEX
  5
394
330
38D
100
AcDbEntity
  8
001
 62
    40
370
    50
100
AcDbVertex
100
AcDb2dVertex
 10
55.732867
 20
44.877851
 30
0.0
  0
VERTEX
  5
395
330
38D
100
AcDbEntity
  8
001
 62
    40
370
    50
100
AcDbVertex
100
AcDb2dVertex
 10
55.74637
 20
44.890555
 30
0.0
  0
VERTEX
  5
396
330
38D
100
AcDbEntity
  8
001
 62
    40
370
    50
100
AcDbVertex
100
AcDb2dVertex
 10
55.755636
 20
44.900929
 30
0.0
  0
VERTEX
  5
397
330
38D
100
AcDbEntity
  8
001
 62
    40
370
    50
100
AcDbVertex
100
AcDb2dVertex
 10
55.761916
 20
44.908647
 30
0.0
  0
SEQEND
  5
38E
330
38D
100
AcDbEntity
  8
001
370
    50
  0
POLYLINE
  5
398
330
278
100
AcDbEntity
  8
001
 62
    40
370
    50
100
AcDb2dPolyline
 66
     1
 10
0.0
 20
0.0
 30
0.0
  0
VERTEX
  5
39A
330
398
100
AcDbEntity
  8
001
 62
    40
370
    50
100
AcDbVertex
100
AcDb2dVertex
 10
56.196626
 20
44.830712
 30
0.0
  0
VERTEX
  5
39B
330
398
100
AcDbEntity
  8
001
 62
    40
370
    50
100
AcDbVertex
100
AcDb2dVertex
 10
56.210942
 20
44.831454
 30
0.0
  0
VERTEX
  5
39C
330
398
100
AcDbEntity
  8
001
 62
    40
370
    50
100
AcDbVertex
100
AcDb2dVertex
 10
56.230571
 20
44.833749
 30
0.0
  0
VERTEX
  5
39D
330
398
100
AcDbEntity
  8
001
 62
    40
370
    50
100
AcDbVertex
100
AcDb2dVertex
 10
56.248036
 20
44.837628
 30
0.0
  0
VERTEX
  5
39E
330
398
100
AcDbEntity
  8
001
 62
    40
370
    50
100
AcDbVertex
100
AcDb2dVertex
 10
56.263486
 20
44.842771
 30
0.0
  0
VERTEX
  5
39F
330
398
100
AcDbEntity
  8
001
 62
    40
370
    50
100
AcDbVertex
100
AcDb2dVertex
 10
56.278755
 20
44.849074
 30
0.0
  0
VERTEX
  5
3A0
330
398
100
AcDbEntity
  8
001
 62
    40
370
    50
100
AcDbVertex
100
AcDb2dVertex
 10
56.294369
 20
44.857504
 30
0.0
  0
VERTEX
  5
3A1
330
398
100
AcDbEntity
  8
001
 62
    40
370
    50
100
AcDbVertex
100
AcDb2dVertex
 10
56.328924
 20
44.884789
 30
0.0
  0
VERTEX
  5
3A2
330
398
100
AcDbEntity
  8
001
 62
    40
370
    50
100
AcDbVertex
100
AcDb2dVertex
 10
56.351469
 20
44.908625
 30
0.0
  0
SEQEND
  5
399
330
398
100
AcDbEntity
  8
001
370
    50
  0
POLYLINE
  5
3A3
330
278
100
AcDbEntity
  8
001
 62
    40
370
    50
100
AcDb2dPolyline
 66
     1
 10
0.0
 20
0.0
 30
0.0
  0
VERTEX
  5
3A5
330
3A3
100
AcDbEntity
  8
001
 62
    40
370
    50
100
AcDbVertex
100
AcDb2dVertex
 10
55.500165
 20
44.853528
 30
0.0
  0
VERTEX
  5
3A6
330
3A3
100
AcDbEntity
  8
001
 62
    40
370
    50
100
AcDbVertex
100
AcDb2dVertex
 10
55.504548
 20
44.851508
 30
0.0
  0
VERTEX
  5
3A7
330
3A3
100
AcDbEntity
  8
001
 62
    40
370
    50
100
AcDbVertex
100
AcDb2dVertex
 10
55.510785
 20
44.848741
 30
0.0
  0
VERTEX
  5
3A8
330
3A3
100
AcDbEntity
  8
001
 62
    40
370
    50
100
AcDbVertex
100
AcDb2dVertex
 10
55.528752
 20
44.841694
 30
0.0
  0
VERTEX
  5
3A9
330
3A3
100
AcDbEntity
  8
001
 62
    40
370
    50
100
AcDbVertex
100
AcDb2dVertex
 10
55.546171
 20
44.837104
 30
0.0
  0
VERTEX
  5
3AA
330
3A3
100
AcDbEntity
  8
001
 62
    40
370
    50
100
AcDbVertex
100
AcDb2dVertex
 10
55.576322
 20
44.832513
 30
0.0
  0
VERTEX
  5
3AB
330
3A3
100
AcDbEntity
  8
001
 62
    40
370
    50
100
AcDbVertex
100
AcDb2dVertex
 10
55.599395
 20
44.830734
 30
0.0
  0
SEQEND
  5
3A4
330
3A3
100
AcDbEntity
  8
001
370
    50
  0
LINE
  5
3AC
330
278
100
AcDbEntity
  8
001
 62
    40
370
    50
100
AcDbLine
 10
55.599395
 20
44.830734
 30
0.0
 11
56.196626
 21
44.830712
 31
0.0
  0
LINE
  5
3AD
330
278
100
AcDbEntity
  8
001
 62
    40
370
    50
100
AcDbLine
 10
52.772334
 20
56.543502
 30
0.0
 11
52.956304
 21
56.787725
 31
0.0
  0
POLYLINE
  5
3AE
330
278
100
AcDbEntity
  8
001
 62
    40
370
    50
100
AcDb2dPolyline
 66
     1
 10
0.0
 20
0.0
 30
0.0
  0
VERTEX
  5
3B0
330
3AE
100
AcDbEntity
  8
001
 62
    40
370
    50
100
AcDbVertex
100
AcDb2dVertex
 10
53.10347
 20
56.865638
 30
0.0
  0
VERTEX
  5
3B1
330
3AE
100
AcDbEntity
  8
001
 62
    40
370
    50
100
AcDbVertex
100
AcDb2dVertex
 10
53.096311
 20
56.865416
 30
0.0
  0
VERTEX
  5
3B2
330
3AE
100
AcDbEntity
  8
001
 62
    40
370
    50
100
AcDbVertex
100
AcDb2dVertex
 10
53.086258
 20
56.864727
 30
0.0
  0
VERTEX
  5
3B3
330
3AE
100
AcDbEntity
  8
001
 62
    40
370
    50
100
AcDbVertex
100
AcDb2dVertex
 10
53.069483
 20
56.862203
 30
0.0
  0
VERTEX
  5
3B4
330
3AE
100
AcDbEntity
  8
001
 62
    40
370
    50
100
AcDbVertex
100
AcDb2dVertex
 10
53.055045
 20
56.85839
 30
0.0
  0
VERTEX
  5
3B5
330
3AE
100
AcDbEntity
  8
001
 62
    40
370
    50
100
AcDbVertex
100
AcDb2dVertex
 10
53.01262
 20
56.83979
 30
0.0
  0
VERTEX
  5
3B6
330
3AE
100
AcDbEntity
  8
001
 62
    40
370
    50
100
AcDbVertex
100
AcDb2dVertex
 10
52.971637
 20
56.805891
 30
0.0
  0
VERTEX
  5
3B7
330
3AE
100
AcDbEntity
  8
001
 62
    40
370
    50
100
AcDbVertex
100
AcDb2dVertex
 10
52.962429
 20
56.795345
 30
0.0
  0
VERTEX
  5
3B8
330
3AE
100
AcDbEntity
  8
001
 62
    40
370
    50
100
AcDbVertex
100
AcDb2dVertex
 10
52.956304
 20
56.787725
 30
0.0
  0
SEQEND
  5
3AF
330
3AE
100
AcDbEntity
  8
001
370
    50
  0
LINE
  5
3B9
330
278
100
AcDbEntity
  8
001
 62
    40
370
    50
100
AcDbLine
 10
49.911384
 20
51.484858
 30
0.0
 11
51.736832
 21
53.908167
 31
0.0
  0
LINE
  5
3BA
330
278
100
AcDbEntity
  8
001
 62
    40
370
    50
100
AcDbLine
 10
48.974213
 20
51.501442
 30
0.0
 11
51.367863
 21
54.679046
 31
0.0
  0
POLYLINE
  5
3BB
330
278
100
AcDbEntity
  8
001
 62
    40
370
    50
100
AcDb2dPolyline
 66
     1
 10
0.0
 20
0.0
 30
0.0
  0
VERTEX
  5
3BD
330
3BB
100
AcDbEntity
  8
001
 62
    40
370
    50
100
AcDbVertex
100
AcDb2dVertex
 10
53.120775
 20
56.864703
 30
0.0
  0
VERTEX
  5
3BE
330
3BB
100
AcDbEntity
  8
001
 62
    40
370
    50
100
AcDbVertex
100
AcDb2dVertex
 10
53.119497
 20
56.864836
 30
0.0
  0
VERTEX
  5
3BF
330
3BB
100
AcDbEntity
  8
001
 62
    40
370
    50
100
AcDbVertex
100
AcDb2dVertex
 10
53.117628
 20
56.865013
 30
0.0
  0
VERTEX
  5
3C0
330
3BB
100
AcDbEntity
  8
001
 62
    40
370
    50
100
AcDbVertex
100
AcDb2dVertex
 10
53.109229
 20
56.865521
 30
0.0
  0
VERTEX
  5
3C1
330
3BB
100
AcDbEntity
  8
001
 62
    40
370
    50
100
AcDbVertex
100
AcDb2dVertex
 10
53.10347
 20
56.865638
 30
0.0
  0
SEQEND
  5
3BC
330
3BB
100
AcDbEntity
  8
001
370
    50
  0
LINE
  5
3C2
330
278
100
AcDbEntity
  8
001
 62
    40
370
    50
100
AcDbLine
 10
53.119031
 20
56.865637
 30
0.0
 11
53.10347
 21
56.865638
 31
0.0
  0
POLYLINE
  5
3C3
330
278
100
AcDbEntity
  8
001
 62
    40
370
    50
100
AcDb2dPolyline
 66
     1
 10
0.0
 20
0.0
 30
0.0
  0
VERTEX
  5
3C5
330
3C3
100
AcDbEntity
  8
001
 62
    40
370
    50
100
AcDbVertex
100
AcDb2dVertex
 10
47.573219
 20
49.62558
 30
0.0
  0
VERTEX
  5
3C6
330
3C3
100
AcDbEntity
  8
001
 62
    40
370
    50
100
AcDbVertex
100
AcDb2dVertex
 10
47.543456
 20
49.553662
 30
0.0
  0
VERTEX
  5
3C7
330
3C3
100
AcDbEntity
  8
001
 62
    40
370
    50
100
AcDbVertex
100
AcDb2dVertex
 10
47.519073
 20
49.480126
 30
0.0
  0
VERTEX
  5
3C8
330
3C3
100
AcDbEntity
  8
001
 62
    40
370
    50
100
AcDbVertex
100
AcDb2dVertex
 10
47.508826
 20
49.433701
 30
0.0
  0
VERTEX
  5
3C9
330
3C3
100
AcDbEntity
  8
001
 62
    40
370
    50
100
AcDbVertex
100
AcDb2dVertex
 10
47.502197
 20
49.386518
 30
0.0
  0
VERTEX
  5
3CA
330
3C3
100
AcDbEntity
  8
001
 62
    40
370
    50
100
AcDbVertex
100
AcDb2dVertex
 10
47.498973
 20
49.340125
 30
0.0
  0
VERTEX
  5
3CB
330
3C3
100
AcDbEntity
  8
001
 62
    40
370
    50
100
AcDbVertex
100
AcDb2dVertex
 10
47.49939
 20
49.293687
 30
0.0
  0
VERTEX
  5
3CC
330
3C3
100
AcDbEntity
  8
001
 62
    40
370
    50
100
AcDbVertex
100
AcDb2dVertex
 10
47.5063
 20
49.234271
 30
0.0
  0
VERTEX
  5
3CD
330
3C3
100
AcDbEntity
  8
001
 62
    40
370
    50
100
AcDbVertex
100
AcDb2dVertex
 10
47.521782
 20
49.176172
 30
0.0
  0
VERTEX
  5
3CE
330
3C3
100
AcDbEntity
  8
001
 62
    40
370
    50
100
AcDbVertex
100
AcDb2dVertex
 10
47.538516
 20
49.137847
 30
0.0
  0
VERTEX
  5
3CF
330
3C3
100
AcDbEntity
  8
001
 62
    40
370
    50
100
AcDbVertex
100
AcDb2dVertex
 10
47.561973
 20
49.103994
 30
0.0
  0
VERTEX
  5
3D0
330
3C3
100
AcDbEntity
  8
001
 62
    40
370
    50
100
AcDbVertex
100
AcDb2dVertex
 10
47.581166
 20
49.08569
 30
0.0
  0
VERTEX
  5
3D1
330
3C3
100
AcDbEntity
  8
001
 62
    40
370
    50
100
AcDbVertex
100
AcDb2dVertex
 10
47.602152
 20
49.069017
 30
0.0
  0
SEQEND
  5
3C4
330
3C3
100
AcDbEntity
  8
001
370
    50
  0
LINE
  5
3D2
330
278
100
AcDbEntity
  8
001
 62
    40
370
    50
100
AcDbLine
 10
47.938712
 20
48.866107
 30
0.0
 11
47.602152
 21
49.069017
 31
0.0
  0
LINE
  5
3D3
330
278
100
AcDbEntity
  8
001
 62
    40
370
    50
100
AcDbLine
 10
47.498564
 20
49.101737
 30
0.0
 11
54.843895
 21
45.16946
 31
0.0
  0
ENDBLK
  5
27A
330
278
100
AcDbEntity
  8
0
100
AcDbBlockEnd
  0
BLOCK
  5
3D5
330
3D4
100
AcDbEntity
  8
0
100
AcDbBlockBegin
  2
*D3
 70
     1
 10
0.0
 20
0.0
 30
0.0
  3
*D3
  1

  0
LINE
  5
3D7
330
3D4
100
AcDbEntity
  8
001
370
     9
100
AcDbLine
 10
77.498564
 20
45.193667
 30
0.0
 11
77.498564
 21
18.140421
 31
0.0
  0
LINE
  5
3D8
330
3D4
100
AcDbEntity
  8
001
370
     9
100
AcDbLine
 10
47.498564
 20
41.742245
 30
0.0
 11
47.498564
 21
18.140421
 31
0.0
  0
LINE
  5
3D9
330
3D4
100
AcDbEntity
  8
001
370
     9
100
AcDbLine
 10
77.498564
 20
20.890421
 30
0.0
 11
47.498564
 21
20.890421
 31
0.0
  0
POLYLINE
  5
3DA
330
3D4
100
AcDbEntity
  8
001
370
     9
100
AcDb2dPolyline
 66
     1
 10
0.0
 20
0.0
 30
0.0
  0
VERTEX
  5
3DC
330
3DA
100
AcDbEntity
  8
001
370
     9
100
AcDbVertex
100
AcDb2dVertex
 10
75.998564
 20
21.292344
 30
0.0
  0
VERTEX
  5
3DD
330
3DA
100
AcDbEntity
  8
001
370
     9
100
AcDbVertex
100
AcDb2dVertex
 10
77.498564
 20
20.890421
 30
0.0
  0
VERTEX
  5
3DE
330
3DA
100
AcDbEntity
  8
001
370
     9
100
AcDbVertex
100
AcDb2dVertex
 10
75.998564
 20
20.488497
 30
0.0
  0
SEQEND
  5
3DB
330
3DA
100
AcDbEntity
  8
001
370
     9
  0
POLYLINE
  5
3DF
330
3D4
100
AcDbEntity
  8
001
370
     9
100
AcDb2dPolyline
 66
     1
 10
0.0
 20
0.0
 30
0.0
  0
VERTEX
  5
3E1
330
3DF
100
AcDbEntity
  8
001
370
     9
100
AcDbVertex
100
AcDb2dVertex
 10
48.998564
 20
20.488497
 30
0.0
  0
VERTEX
  5
3E2
330
3DF
100
AcDbEntity
  8
001
370
     9
100
AcDbVertex
100
AcDb2dVertex
 10
47.498564
 20
20.890421
 30
0.0
  0
VERTEX
  5
3E3
330
3DF
100
AcDbEntity
  8
001
370
     9
100
AcDbVertex
100
AcDb2dVertex
 10
48.998564
 20
21.292344
 30
0.0
  0
SEQEND
  5
3E0
330
3DF
100
AcDbEntity
  8
001
370
     9
  0
TEXT
  5
3E4
330
3D4
100
AcDbEntity
  8
001
370
    30
100
AcDbText
 10
58.498564
 20
21.890421
 30
0.0
 40
4.0
  1
３０
 41
0.833333
100
AcDbText
  0
POINT
  5
3E5
330
3D4
100
AcDbEntity
  8
001
370
     9
100
AcDbPoint
 10
77.498564
 20
45.193667
 30
0.0
  0
POINT
  5
3E6
330
3D4
100
AcDbEntity
  8
001
370
     9
100
AcDbPoint
 10
47.498564
 20
41.742245
 30
0.0
  0
POINT
  5
3E7
330
3D4
100
AcDbEntity
  8
001
370
     9
100
AcDbPoint
 10
47.498564
 20
20.890421
 30
0.0
  0
ENDBLK
  5
3D6
330
3D4
100
AcDbEntity
  8
0
100
AcDbBlockEnd
  0
BLOCK
  5
3E9
330
3E8
100
AcDbEntity
  8
0
100
AcDbBlockBegin
  2
*D4
 70
     1
 10
0.0
 20
0.0
 30
0.0
  3
*D4
  1

  0
LINE
  5
3EB
330
3E8
100
AcDbEntity
  8
001
370
     9
100
AcDbLine
 10
54.843895
 20
45.16946
 30
0.0
 11
71.364833
 21
36.325079
 31
0.0
  0
LINE
  5
3EC
330
3E8
100
AcDbEntity
  8
001
370
     9
100
AcDbLine
 10
47.498564
 20
41.742245
 30
0.0
 11
47.498564
 21
22.030687
 31
0.0
  0
ARC
  5
3ED
330
3E8
100
AcDbEntity
  8
001
370
     9
100
AcDbCircle
 10
47.498564
 20
49.101737
 30
0.0
 40
24.3210504336077
100
AcDbArc
 50
270.0
 51
331.837907
  0
POLYLINE
  5
3EE
330
3E8
100
AcDbEntity
  8
001
370
     9
100
AcDb2dPolyline
 66
     1
 10
0.0
 20
0.0
 30
0.0
  0
VERTEX
  5
3F0
330
3EE
100
AcDbEntity
  8
001
370
     9
100
AcDbVertex
100
AcDb2dVertex
 10
67.843675
 20
36.523553
 30
0.0
  0
VERTEX
  5
3F1
330
3EE
100
AcDbEntity
  8
001
370
     9
100
AcDbVertex
100
AcDb2dVertex
 10
68.940389
 20
37.62299
 30
0.0
  0
VERTEX
  5
3F2
330
3EE
100
AcDbEntity
  8
001
370
     9
100
AcDbVertex
100
AcDb2dVertex
 10
68.540326
 20
36.122493
 30
0.0
  0
SEQEND
  5
3EF
330
3EE
100
AcDbEntity
  8
001
370
     9
  0
POLYLINE
  5
3F3
330
3E8
100
AcDbEntity
  8
001
370
     9
100
AcDb2dPolyline
 66
     1
 10
0.0
 20
0.0
 30
0.0
  0
VERTEX
  5
3F5
330
3F3
100
AcDbEntity
  8
001
370
     9
100
AcDbVertex
100
AcDb2dVertex
 10
49.010244
 20
24.425203
 30
0.0
  0
VERTEX
  5
3F6
330
3F3
100
AcDbEntity
  8
001
370
     9
100
AcDbVertex
100
AcDb2dVertex
 10
47.498564
 20
24.780687
 30
0.0
  0
VERTEX
  5
3F7
330
3F3
100
AcDbEntity
  8
001
370
     9
100
AcDbVertex
100
AcDb2dVertex
 10
48.985459
 20
25.228669
 30
0.0
  0
SEQEND
  5
3F4
330
3F3
100
AcDbEntity
  8
001
370
     9
  0
TEXT
  5
3F8
330
3E8
100
AcDbEntity
  8
001
370
    30
100
AcDbText
 10
54.489803
 20
26.058431
 30
0.0
 40
4.0
  1
６０%%d
 50
31.305619
 41
0.978261
100
AcDbText
  0
POINT
  5
3F9
330
3E8
100
AcDbEntity
  8
001
370
     9
100
AcDbPoint
 10
54.843895
 20
45.16946
 30
0.0
  0
POINT
  5
3FA
330
3E8
100
AcDbEntity
  8
001
370
     9
100
AcDbPoint
 10
47.498564
 20
49.101737
 30
0.0
  0
POINT
  5
3FB
330
3E8
100
AcDbEntity
  8
001
370
     9
100
AcDbPoint
 10
47.498564
 20
49.101737
 30
0.0
  0
POINT
  5
3FC
330
3E8
100
AcDbEntity
  8
001
370
     9
100
AcDbPoint
 10
47.498564
 20
41.742245
 30
0.0
  0
ENDBLK
  5
3EA
330
3E8
100
AcDbEntity
  8
0
100
AcDbBlockEnd
  0
BLOCK
  5
3FE
330
3FD
100
AcDbEntity
  8
0
100
AcDbBlockBegin
  2
*D5
 70
     1
 10
0.0
 20
0.0
 30
0.0
  3
*D5
  1

  0
LINE
  5
400
330
3FD
100
AcDbEntity
  8
001
370
     9
100
AcDbLine
 10
47.498564
 20
41.742245
 30
0.0
 11
47.498564
 21
31.863647
 31
0.0
  0
LINE
  5
401
330
3FD
100
AcDbEntity
  8
001
370
     9
100
AcDbLine
 10
54.843895
 20
45.16946
 30
0.0
 11
54.843895
 21
31.863647
 31
0.0
  0
LINE
  5
402
330
3FD
100
AcDbEntity
  8
001
370
     9
100
AcDbLine
 10
47.498564
 20
34.613647
 30
0.0
 11
54.843895
 21
34.613647
 31
0.0
  0
POLYLINE
  5
403
330
3FD
100
AcDbEntity
  8
001
370
     9
100
AcDb2dPolyline
 66
     1
 10
0.0
 20
0.0
 30
0.0
  0
VERTEX
  5
405
330
403
100
AcDbEntity
  8
001
370
     9
100
AcDbVertex
100
AcDb2dVertex
 10
45.998564
 20
35.015571
 30
0.0
  0
VERTEX
  5
406
330
403
100
AcDbEntity
  8
001
370
     9
100
AcDbVertex
100
AcDb2dVertex
 10
47.498564
 20
34.613647
 30
0.0
  0
VERTEX
  5
407
330
403
100
AcDbEntity
  8
001
370
     9
100
AcDbVertex
100
AcDb2dVertex
 10
45.998564
 20
34.211723
 30
0.0
  0
SEQEND
  5
404
330
403
100
AcDbEntity
  8
001
370
     9
  0
POLYLINE
  5
408
330
3FD
100
AcDbEntity
  8
001
370
     9
100
AcDb2dPolyline
 66
     1
 10
0.0
 20
0.0
 30
0.0
  0
VERTEX
  5
40A
330
408
100
AcDbEntity
  8
001
370
     9
100
AcDbVertex
100
AcDb2dVertex
 10
56.343895
 20
34.211723
 30
0.0
  0
VERTEX
  5
40B
330
408
100
AcDbEntity
  8
001
370
     9
100
AcDbVertex
100
AcDb2dVertex
 10
54.843895
 20
34.613647
 30
0.0
  0
VERTEX
  5
40C
330
408
100
AcDbEntity
  8
001
370
     9
100
AcDbVertex
100
AcDb2dVertex
 10
56.343895
 20
35.015571
 30
0.0
  0
SEQEND
  5
409
330
408
100
AcDbEntity
  8
001
370
     9
  0
TEXT
  5
40D
330
3FD
100
AcDbEntity
  8
001
370
    30
100
AcDbText
 10
23.998564
 20
35.613647
 30
0.0
 40
4.0
  1
（７．３）
 41
0.833333
100
AcDbText
  0
POINT
  5
40E
330
3FD
100
AcDbEntity
  8
001
370
     9
100
AcDbPoint
 10
47.498564
 20
41.742245
 30
0.0
  0
POINT
  5
40F
330
3FD
100
AcDbEntity
  8
001
370
     9
100
AcDbPoint
 10
54.843895
 20
45.16946
 30
0.0
  0
POINT
  5
410
330
3FD
100
AcDbEntity
  8
001
370
     9
100
AcDbPoint
 10
54.843895
 20
34.613647
 30
0.0
  0
LINE
  5
411
330
3FD
100
AcDbEntity
  8
001
370
     9
100
AcDbLine
 10
47.498564
 20
34.613647
 30
0.0
 11
20.998564
 21
34.613647
 31
0.0
  0
LINE
  5
412
330
3FD
100
AcDbEntity
  8
001
370
     9
100
AcDbLine
 10
54.843895
 20
34.613647
 30
0.0
 11
57.343895
 21
34.613647
 31
0.0
  0
ENDBLK
  5
3FF
330
3FD
100
AcDbEntity
  8
0
100
AcDbBlockEnd
  0
BLOCK
  5
414
330
413
100
AcDbEntity
  8
0
100
AcDbBlockBegin
  2
*D6
 70
     1
 10
0.0
 20
0.0
 30
0.0
  3
*D6
  1

  0
LINE
  5
416
330
413
100
AcDbEntity
  8
001
370
     9
100
AcDbLine
 10
172.498564
 20
48.193667
 30
0.0
 11
172.498564
 21
6.717654
 31
0.0
  0
LINE
  5
417
330
413
100
AcDbEntity
  8
001
370
     9
100
AcDbLine
 10
47.498564
 20
41.742245
 30
0.0
 11
47.498564
 21
6.717654
 31
0.0
  0
LINE
  5
418
330
413
100
AcDbEntity
  8
001
370
     9
100
AcDbLine
 10
172.498564
 20
9.467654
 30
0.0
 11
47.498564
 21
9.467654
 31
0.0
  0
POLYLINE
  5
419
330
413
100
AcDbEntity
  8
001
370
     9
100
AcDb2dPolyline
 66
     1
 10
0.0
 20
0.0
 30
0.0
  0
VERTEX
  5
41B
330
419
100
AcDbEntity
  8
001
370
     9
100
AcDbVertex
100
AcDb2dVertex
 10
170.998564
 20
9.869578
 30
0.0
  0
VERTEX
  5
41C
330
419
100
AcDbEntity
  8
001
370
     9
100
AcDbVertex
100
AcDb2dVertex
 10
172.498564
 20
9.467654
 30
0.0
  0
VERTEX
  5
41D
330
419
100
AcDbEntity
  8
001
370
     9
100
AcDbVertex
100
AcDb2dVertex
 10
170.998564
 20
9.065731
 30
0.0
  0
SEQEND
  5
41A
330
419
100
AcDbEntity
  8
001
370
     9
  0
POLYLINE
  5
41E
330
413
100
AcDbEntity
  8
001
370
     9
100
AcDb2dPolyline
 66
     1
 10
0.0
 20
0.0
 30
0.0
  0
VERTEX
  5
420
330
41E
100
AcDbEntity
  8
001
370
     9
100
AcDbVertex
100
AcDb2dVertex
 10
48.998564
 20
9.065731
 30
0.0
  0
VERTEX
  5
421
330
41E
100
AcDbEntity
  8
001
370
     9
100
AcDbVertex
100
AcDb2dVertex
 10
47.498564
 20
9.467654
 30
0.0
  0
VERTEX
  5
422
330
41E
100
AcDbEntity
  8
001
370
     9
100
AcDbVertex
100
AcDb2dVertex
 10
48.998564
 20
9.869578
 30
0.0
  0
SEQEND
  5
41F
330
41E
100
AcDbEntity
  8
001
370
     9
  0
TEXT
  5
423
330
413
100
AcDbEntity
  8
001
370
    30
100
AcDbText
 10
103.998564
 20
10.467654
 30
0.0
 40
4.0
  1
１２５
 41
0.833333
100
AcDbText
  0
POINT
  5
424
330
413
100
AcDbEntity
  8
001
370
     9
100
AcDbPoint
 10
172.498564
 20
48.193667
 30
0.0
  0
POINT
  5
425
330
413
100
AcDbEntity
  8
001
370
     9
100
AcDbPoint
 10
47.498564
 20
41.742245
 30
0.0
  0
POINT
  5
426
330
413
100
AcDbEntity
  8
001
370
     9
100
AcDbPoint
 10
47.498564
 20
9.467654
 30
0.0
  0
ENDBLK
  5
415
330
413
100
AcDbEntity
  8
0
100
AcDbBlockEnd
  0
BLOCK
  5
428
330
427
100
AcDbEntity
  8
0
100
AcDbBlockBegin
  2
*D7
 70
     1
 10
0.0
 20
0.0
 30
0.0
  3
*D7
  1

  0
LINE
  5
42A
330
427
100
AcDbEntity
  8
001
370
     9
100
AcDbLine
 10
172.498564
 20
48.193667
 30
0.0
 11
172.498564
 21
18.140421
 31
0.0
  0
LINE
  5
42B
330
427
100
AcDbEntity
  8
001
370
     9
100
AcDbLine
 10
77.498564
 20
45.193667
 30
0.0
 11
77.498564
 21
18.140421
 31
0.0
  0
LINE
  5
42C
330
427
100
AcDbEntity
  8
001
370
     9
100
AcDbLine
 10
172.498564
 20
20.890421
 30
0.0
 11
77.498564
 21
20.890421
 31
0.0
  0
POLYLINE
  5
42D
330
427
100
AcDbEntity
  8
001
370
     9
100
AcDb2dPolyline
 66
     1
 10
0.0
 20
0.0
 30
0.0
  0
VERTEX
  5
42F
330
42D
100
AcDbEntity
  8
001
370
     9
100
AcDbVertex
100
AcDb2dVertex
 10
170.998564
 20
21.292344
 30
0.0
  0
VERTEX
  5
430
330
42D
100
AcDbEntity
  8
001
370
     9
100
AcDbVertex
100
AcDb2dVertex
 10
172.498564
 20
20.890421
 30
0.0
  0
VERTEX
  5
431
330
42D
100
AcDbEntity
  8
001
370
     9
100
AcDbVertex
100
AcDb2dVertex
 10
170.998564
 20
20.488497
 30
0.0
  0
SEQEND
  5
42E
330
42D
100
AcDbEntity
  8
001
370
     9
  0
POLYLINE
  5
432
330
427
100
AcDbEntity
  8
001
370
     9
100
AcDb2dPolyline
 66
     1
 10
0.0
 20
0.0
 30
0.0
  0
VERTEX
  5
434
330
432
100
AcDbEntity
  8
001
370
     9
100
AcDbVertex
100
AcDb2dVertex
 10
78.998564
 20
20.488497
 30
0.0
  0
VERTEX
  5
435
330
432
100
AcDbEntity
  8
001
370
     9
100
AcDbVertex
100
AcDb2dVertex
 10
77.498564
 20
20.890421
 30
0.0
  0
VERTEX
  5
436
330
432
100
AcDbEntity
  8
001
370
     9
100
AcDbVertex
100
AcDb2dVertex
 10
78.998564
 20
21.292344
 30
0.0
  0
SEQEND
  5
433
330
432
100
AcDbEntity
  8
001
370
     9
  0
TEXT
  5
437
330
427
100
AcDbEntity
  8
001
370
    30
100
AcDbText
 10
120.998564
 20
21.890421
 30
0.0
 40
4.0
  1
９５
 41
0.833333
100
AcDbText
  0
POINT
  5
438
330
427
100
AcDbEntity
  8
001
370
     9
100
AcDbPoint
 10
172.498564
 20
48.193667
 30
0.0
  0
POINT
  5
439
330
427
100
AcDbEntity
  8
001
370
     9
100
AcDbPoint
 10
77.498564
 20
45.193667
 30
0.0
  0
POINT
  5
43A
330
427
100
AcDbEntity
  8
001
370
     9
100
AcDbPoint
 10
77.498564
 20
20.890421
 30
0.0
  0
ENDBLK
  5
429
330
427
100
AcDbEntity
  8
0
100
AcDbBlockEnd
  0
BLOCK
  5
43C
330
43B
100
AcDbEntity
  8
0
100
AcDbBlockBegin
  2
*D8
 70
     1
 10
0.0
 20
0.0
 30
0.0
  3
*D8
  1

  0
LINE
  5
43E
330
43B
100
AcDbEntity
  8
001
370
     9
100
AcDbLine
 10
166.498564
 20
42.193667
 30
0.0
 11
197.330585
 21
42.193667
 31
0.0
  0
LINE
  5
43F
330
43B
100
AcDbEntity
  8
001
370
     9
100
AcDbLine
 10
166.498564
 20
62.193667
 30
0.0
 11
197.330585
 21
62.193667
 31
0.0
  0
LINE
  5
440
330
43B
100
AcDbEntity
  8
001
370
     9
100
AcDbLine
 10
194.580585
 20
42.193667
 30
0.0
 11
194.580585
 21
62.193667
 31
0.0
  0
POLYLINE
  5
441
330
43B
100
AcDbEntity
  8
001
370
     9
100
AcDb2dPolyline
 66
     1
 10
0.0
 20
0.0
 30
0.0
  0
VERTEX
  5
443
330
441
100
AcDbEntity
  8
001
370
     9
100
AcDbVertex
100
AcDb2dVertex
 10
194.982509
 20
43.693667
 30
0.0
  0
VERTEX
  5
444
330
441
100
AcDbEntity
  8
001
370
     9
100
AcDbVertex
100
AcDb2dVertex
 10
194.580585
 20
42.193667
 30
0.0
  0
VERTEX
  5
445
330
441
100
AcDbEntity
  8
001
370
     9
100
AcDbVertex
100
AcDb2dVertex
 10
194.178662
 20
43.693667
 30
0.0
  0
SEQEND
  5
442
330
441
100
AcDbEntity
  8
001
370
     9
  0
POLYLINE
  5
446
330
43B
100
AcDbEntity
  8
001
370
     9
100
AcDb2dPolyline
 66
     1
 10
0.0
 20
0.0
 30
0.0
  0
VERTEX
  5
448
330
446
100
AcDbEntity
  8
001
370
     9
100
AcDbVertex
100
AcDb2dVertex
 10
194.178662
 20
60.693667
 30
0.0
  0
VERTEX
  5
449
330
446
100
AcDbEntity
  8
001
370
     9
100
AcDbVertex
100
AcDb2dVertex
 10
194.580585
 20
62.193667
 30
0.0
  0
VERTEX
  5
44A
330
446
100
AcDbEntity
  8
001
370
     9
100
AcDbVertex
100
AcDb2dVertex
 10
194.982509
 20
60.693667
 30
0.0
  0
SEQEND
  5
447
330
446
100
AcDbEntity
  8
001
370
     9
  0
TEXT
  5
44B
330
43B
100
AcDbEntity
  8
001
370
    30
100
AcDbText
 10
193.580585
 20
26.693667
 30
0.0
 40
4.0
  1
%%c２０
 50
90.000003
 41
0.882353
100
AcDbText
  0
POINT
  5
44C
330
43B
100
AcDbEntity
  8
001
370
     9
100
AcDbPoint
 10
166.498564
 20
42.193667
 30
0.0
  0
POINT
  5
44D
330
43B
100
AcDbEntity
  8
001
370
     9
100
AcDbPoint
 10
166.498564
 20
62.193667
 30
0.0
  0
POINT
  5
44E
330
43B
100
AcDbEntity
  8
001
370
     9
100
AcDbPoint
 10
194.580585
 20
62.193667
 30
0.0
  0
LINE
  5
44F
330
43B
100
AcDbEntity
  8
001
370
     9
100
AcDbLine
 10
194.580585
 20
42.193667
 30
0.0
 11
194.580585
 21
23.693667
 31
0.0
  0
ENDBLK
  5
43D
330
43B
100
AcDbEntity
  8
0
100
AcDbBlockEnd
  0
ENDSEC
  0
SECTION
  2
ENTITIES
  0
INSERT
  5
450
330
1F
100
AcDbEntity
  8
001
  6
ByBlock
 62
     0
370
    -2
100
AcDbBlockReference
  2
M-1-1
 10
0.0
 20
0.0
 30
0.0
  0
INSERT
  5
451
330
1F
100
AcDbEntity
  8
001
  6
ByBlock
 62
     0
370
    -2
100
AcDbBlockReference
  2
C32GUX-2
 10
0.0
 20
0.0
 30
0.0
  0
DIMENSION
  5
452
330
1F
100
AcDbEntity
  8
001
370
     9
100
AcDbDimension
  2
*D3
 10
47.498564
 20
20.890421
 30
0.0
 11
62.498564
 21
23.890421
 31
0.0
 70
   160
 71
     5
 42
-1.0
  3
Standard
100
AcDbAlignedDimension
 13
77.498564
 23
45.193667
 33
0.0
 14
47.498564
 24
41.742245
 34
0.0
 50
180.0
100
AcDbRotatedDimension
  0
DIMENSION
  5
453
330
1F
100
AcDbEntity
  8
001
370
     9
100
AcDbDimension
  2
*D4
 10
47.498564
 20
49.101737
 30
0.0
 11
58.577045
 21
30.884864
 31
0.0
 70
    34
 71
     5
 42
-1.0
  3
Standard
100
AcDb2LineAngularDimension
 13
54.843895
 23
45.16946
 33
0.0
 14
47.498564
 24
49.101737
 34
0.0
 15
47.498564
 25
41.742245
 35
0.0
 16
59.99533
 26
28.23683
 36
0.0
  0
DIMENSION
  5
454
330
1F
100
AcDbEntity
  8
001
370
     9
100
AcDbDimension
  2
*D5
 10
54.843895
 20
34.613647
 30
0.0
 11
33.998564
 21
37.613647
 31
0.0
 70
   160
 71
     5
 42
-1.0
  3
Standard
100
AcDbAlignedDimension
 13
47.498564
 23
41.742245
 33
0.0
 14
54.843895
 24
45.16946
 34
0.0
100
AcDbRotatedDimension
  0
TEXT
  5
455
330
1F
100
AcDbEntity
  8
001
370
    30
100
AcDbText
 10
39.481551
 20
49.868111
 30
0.0
 40
4.0
  1
%%c６．６７
 50
90.000003
 41
0.862069
100
AcDbText
  0
POLYLINE
  5
456
330
1F
100
AcDbEntity
  8
001
370
     9
100
AcDb2dPolyline
 66
     1
 10
0.0
 20
0.0
 30
0.0
  0
VERTEX
  5
458
330
456
100
AcDbEntity
  8
001
370
     9
100
AcDbVertex
100
AcDb2dVertex
 10
40.903347
 20
50.601737
 30
0.0
  0
VERTEX
  5
459
330
456
100
AcDbEntity
  8
001
370
     9
100
AcDbVertex
100
AcDb2dVertex
 10
40.501423
 20
49.101737
 30
0.0
  0
VERTEX
  5
45A
330
456
100
AcDbEntity
  8
001
370
     9
100
AcDbVertex
100
AcDb2dVertex
 10
40.099499
 20
50.601737
 30
0.0
  0
SEQEND
  5
457
330
456
100
AcDbEntity
  8
001
370
     9
  0
LINE
  5
45B
330
1F
100
AcDbEntity
  8
001
370
     9
100
AcDbLine
 10
40.501423
 20
49.101737
 30
0.0
 11
40.501423
 21
55.770821
 31
0.0
  0
POLYLINE
  5
45C
330
1F
100
AcDbEntity
  8
001
370
     9
100
AcDb2dPolyline
 66
     1
 10
0.0
 20
0.0
 30
0.0
  0
VERTEX
  5
45E
330
45C
100
AcDbEntity
  8
001
370
     9
100
AcDbVertex
100
AcDb2dVertex
 10
47.498564
 20
49.101737
 30
0.0
  0
VERTEX
  5
45F
330
45C
100
AcDbEntity
  8
001
370
     9
100
AcDbVertex
100
AcDb2dVertex
 10
40.501423
 20
49.101737
 30
0.0
  0
VERTEX
  5
460
330
45C
100
AcDbEntity
  8
001
370
     9
100
AcDbVertex
100
AcDb2dVertex
 10
37.751423
 20
49.101737
 30
0.0
  0
SEQEND
  5
45D
330
45C
100
AcDbEntity
  8
001
370
     9
  0
DIMENSION
  5
461
330
1F
100
AcDbEntity
  8
001
370
     9
100
AcDbDimension
  2
*D6
 10
47.498564
 20
9.467654
 30
0.0
 11
109.998564
 21
12.467654
 31
0.0
 70
   160
 71
     5
 42
-1.0
  3
Standard
100
AcDbAlignedDimension
 13
172.498564
 23
48.193667
 33
0.0
 14
47.498564
 24
41.742245
 34
0.0
 50
180.0
100
AcDbRotatedDimension
  0
DIMENSION
  5
462
330
1F
100
AcDbEntity
  8
001
370
     9
100
AcDbDimension
  2
*D7
 10
77.498564
 20
20.890421
 30
0.0
 11
124.998564
 21
23.890421
 31
0.0
 70
   160
 71
     5
 42
-1.0
  3
Standard
100
AcDbAlignedDimension
 13
172.498564
 23
48.193667
 33
0.0
 14
77.498564
 24
45.193667
 34
0.0
 50
180.0
100
AcDbRotatedDimension
  0
DIMENSION
  5
463
330
1F
100
AcDbEntity
  8
001
370
     9
100
AcDbDimension
  2
*D8
 10
194.580585
 20
62.193667
 30
0.0
 11
191.580585
 21
32.693667
 31
0.0
 70
   160
 71
     5
 42
-1.0
  3
Standard
100
AcDbAlignedDimension
 13
166.498564
 23
42.193667
 33
0.0
 14
166.498564
 24
62.193667
 34
0.0
 50
90.0
100
AcDbRotatedDimension
  0
TEXT
  5
464
330
1F
100
AcDbEntity
  8
001
370
    30
100
AcDbText
 10
27.344495
 20
42.964621
 30
0.0
 40
4.0
  1
（%%c１５．６４）
 50
90.000003
 41
0.851064
100
AcDbText
  0
POLYLINE
  5
465
330
1F
100
AcDbEntity
  8
001
370
     9
100
AcDb2dPolyline
 66
     1
 10
0.0
 20
0.0
 30
0.0
  0
VERTEX
  5
467
330
465
100
AcDbEntity
  8
001
370
     9
100
AcDbVertex
100
AcDb2dVertex
 10
28.746419
 20
46.330734
 30
0.0
  0
VERTEX
  5
468
330
465
100
AcDbEntity
  8
001
370
     9
100
AcDbVertex
100
AcDb2dVertex
 10
28.344495
 20
44.830734
 30
0.0
  0
VERTEX
  5
469
330
465
100
AcDbEntity
  8
001
370
     9
100
AcDbVertex
100
AcDb2dVertex
 10
27.942572
 20
46.330734
 30
0.0
  0
SEQEND
  5
466
330
465
100
AcDbEntity
  8
001
370
     9
  0
LINE
  5
46A
330
1F
100
AcDbEntity
  8
001
370
     9
100
AcDbLine
 10
28.344495
 20
60.473337
 30
0.0
 11
28.344495
 21
44.830734
 31
0.0
  0
POLYLINE
  5
46B
330
1F
100
AcDbEntity
  8
001
370
     9
100
AcDb2dPolyline
 66
     1
 10
0.0
 20
0.0
 30
0.0
  0
VERTEX
  5
46D
330
46B
100
AcDbEntity
  8
001
370
     9
100
AcDbVertex
100
AcDb2dVertex
 10
55.599395
 20
44.830734
 30
0.0
  0
VERTEX
  5
46E
330
46B
100
AcDbEntity
  8
001
370
     9
100
AcDbVertex
100
AcDb2dVertex
 10
28.344495
 20
44.830734
 30
0.0
  0
VERTEX
  5
46F
330
46B
100
AcDbEntity
  8
001
370
     9
100
AcDbVertex
100
AcDb2dVertex
 10
25.594495
 20
44.830734
 30
0.0
  0
SEQEND
  5
46C
330
46B
100
AcDbEntity
  8
001
370
     9
  0
TEXT
  5
470
330
1F
100
AcDbEntity
  8
001
370
    30
100
AcDbText
 10
42.897118
 20
88.396367
 30
0.0
 40
8.0
  1
面取りカッター面面　ＳＮＫ６０１５Ｃ
 41
0.833333
100
AcDbText
  0
LINE
  5
471
330
1F
100
AcDbEntity
  8
001
 62
   253
370
    50
100
AcDbLine
 10
166.498564
 20
62.193667
 30
0.0
 11
80.498564
 21
62.193667
 31
0.0
  0
LINE
  5
472
330
1F
100
AcDbEntity
  8
001
 62
   253
370
    50
100
AcDbLine
 10
166.498564
 20
42.193667
 30
0.0
 11
80.498564
 21
42.193667
 31
0.0
  0
LINE
  5
473
330
1F
100
AcDbEntity
  8
001
 62
   253
370
    50
100
AcDbLine
 10
80.498564
 20
62.193667
 30
0.0
 11
80.498564
 21
42.193667
 31
0.0
  0
ARC
  5
474
330
1F
100
AcDbEntity
  8
001
 62
   253
370
    50
100
AcDbCircle
 10
166.498564
 20
56.193667
 30
0.0
 40
6.0
100
AcDbArc
 50
0.0
 51
90.0
  0
ARC
  5
475
330
1F
100
AcDbEntity
  8
001
 62
   253
370
    50
100
AcDbCircle
 10
166.498564
 20
48.193667
 30
0.0
 40
6.0
100
AcDbArc
 50
270.0
 51
0.0
  0
LINE
  5
476
330
1F
100
AcDbEntity
  8
001
 62
   253
370
    50
100
AcDbLine
 10
172.498564
 20
56.193667
 30
0.0
 11
172.498564
 21
48.193667
 31
0.0
  0
LINE
  5
477
330
1F
100
AcDbEntity
  8
001
 62
   253
370
    50
100
AcDbLine
 10
80.498564
 20
62.193667
 30
0.0
 11
77.498564
 21
59.193667
 31
0.0
  0
LINE
  5
478
330
1F
100
AcDbEntity
  8
001
 62
   253
370
    50
100
AcDbLine
 10
77.498564
 20
45.193667
 30
0.0
 11
80.498564
 21
42.193667
 31
0.0
  0
LINE
  5
479
330
1F
100
AcDbEntity
  8
001
 62
   253
370
    50
100
AcDbLine
 10
77.498564
 20
59.193667
 30
0.0
 11
77.498564
 21
45.193667
 31
0.0
  0
LINE
  5
47A
330
1F
100
AcDbEntity
  8
001
 62
   253
370
    50
100
AcDbLine
 10
63.00484
 20
57.640824
 30
0.0
 11
63.00484
 21
46.746509
 31
0.0
  0
POLYLINE
  5
47B
330
1F
100
AcDbEntity
  8
001
 62
   253
370
    50
100
AcDb2dPolyline
 66
     1
 10
0.0
 20
0.0
 30
0.0
  0
VERTEX
  5
47D
330
47B
100
AcDbEntity
  8
001
 62
   253
370
    50
100
AcDbVertex
100
AcDb2dVertex
 10
63.00484
 20
46.746509
 30
0.0
  0
VERTEX
  5
47E
330
47B
100
AcDbEntity
  8
001
 62
   253
370
    50
100
AcDbVertex
100
AcDb2dVertex
 10
63.507561
 20
47.537414
 30
0.0
  0
VERTEX
  5
47F
330
47B
100
AcDbEntity
  8
001
 62
   253
370
    50
100
AcDbVertex
100
AcDb2dVertex
 10
64.078378
 20
48.693667
 30
0.0
  0
VERTEX
  5
480
330
47B
100
AcDbEntity
  8
001
 62
   253
370
    50
100
AcDbVertex
100
AcDb2dVertex
 10
64.444887
 20
49.857875
 30
0.0
  0
VERTEX
  5
481
330
47B
100
AcDbEntity
  8
001
 62
   253
370
    50
100
AcDbVertex
100
AcDb2dVertex
 10
64.614242
 20
50.97813
 30
0.0
  0
VERTEX
  5
482
330
47B
100
AcDbEntity
  8
001
 62
   253
370
    50
100
AcDbVertex
100
AcDb2dVertex
 10
64.663486
 20
51.580107
 30
0.0
  0
VERTEX
  5
483
330
47B
100
AcDbEntity
  8
001
 62
   253
370
    50
100
AcDbVertex
100
AcDb2dVertex
 10
64.682779
 20
52.193667
 30
0.0
  0
VERTEX
  5
484
330
47B
100
AcDbEntity
  8
001
 62
   253
370
    50
100
AcDbVertex
100
AcDb2dVertex
 10
64.663486
 20
52.807226
 30
0.0
  0
VERTEX
  5
485
330
47B
100
AcDbEntity
  8
001
 62
   253
370
    50
100
AcDbVertex
100
AcDb2dVertex
 10
64.614242
 20
53.409204
 30
0.0
  0
VERTEX
  5
486
330
47B
100
AcDbEntity
  8
001
 62
   253
370
    50
100
AcDbVertex
100
AcDb2dVertex
 10
64.444887
 20
54.529458
 30
0.0
  0
VERTEX
  5
487
330
47B
100
AcDbEntity
  8
001
 62
   253
370
    50
100
AcDbVertex
100
AcDb2dVertex
 10
64.078378
 20
55.693667
 30
0.0
  0
VERTEX
  5
488
330
47B
100
AcDbEntity
  8
001
 62
   253
370
    50
100
AcDbVertex
100
AcDb2dVertex
 10
63.507561
 20
56.84992
 30
0.0
  0
VERTEX
  5
489
330
47B
100
AcDbEntity
  8
001
 62
   253
370
    50
100
AcDbVertex
100
AcDb2dVertex
 10
63.00484
 20
57.640824
 30
0.0
  0
SEQEND
  5
47C
330
47B
100
AcDbEntity
  8
001
370
    50
  0
LINE
  5
48A
330
1F
100
AcDbEntity
  8
001
 62
   253
370
    50
100
AcDbLine
 10
55.865585
 20
59.193667
 30
0.0
 11
55.865585
 21
58.585905
 31
0.0
  0
LINE
  5
48B
330
1F
100
AcDbEntity
  8
001
 62
   253
370
    50
100
AcDbLine
 10
77.498564
 20
59.193667
 30
0.0
 11
55.865585
 21
59.193667
 31
0.0
  0
LINE
  5
48C
330
1F
100
AcDbEntity
  8
001
 62
   253
370
    50
100
AcDbLine
 10
56.556579
 20
45.193667
 30
0.0
 11
77.498564
 21
45.193667
 31
0.0
  0
POLYLINE
  5
48D
330
1F
100
AcDbEntity
  8
001
 62
   253
370
    50
100
AcDb2dPolyline
 66
     1
 10
0.0
 20
0.0
 30
0.0
  0
VERTEX
  5
48F
330
48D
100
AcDbEntity
  8
001
 62
   253
370
    50
100
AcDbVertex
100
AcDb2dVertex
 10
63.00484
 20
57.640824
 30
0.0
  0
VERTEX
  5
490
330
48D
100
AcDbEntity
  8
001
 62
   253
370
    50
100
AcDbVertex
100
AcDb2dVertex
 10
61.323401
 20
57.911758
 30
0.0
  0
VERTEX
  5
491
330
48D
100
AcDbEntity
  8
001
 62
   253
370
    50
100
AcDbVertex
100
AcDb2dVertex
 10
58.858511
 20
58.255845
 30
0.0
  0
VERTEX
  5
492
330
48D
100
AcDbEntity
  8
001
 62
   253
370
    50
100
AcDbVertex
100
AcDb2dVertex
 10
57.082585
 20
58.461423
 30
0.0
  0
VERTEX
  5
493
330
48D
100
AcDbEntity
  8
001
 62
   253
370
    50
100
AcDbVertex
100
AcDb2dVertex
 10
55.865585
 20
58.585905
 30
0.0
  0
SEQEND
  5
48E
330
48D
100
AcDbEntity
  8
001
370
    50
  0
POLYLINE
  5
494
330
1F
100
AcDbEntity
  8
001
 62
   253
370
    50
100
AcDb2dPolyline
 66
     1
 10
0.0
 20
0.0
 30
0.0
  0
VERTEX
  5
496
330
494
100
AcDbEntity
  8
001
 62
   253
370
    50
100
AcDbVertex
100
AcDb2dVertex
 10
56.436899
 20
45.857999
 30
0.0
  0
VERTEX
  5
497
330
494
100
AcDbEntity
  8
001
 62
   253
370
    50
100
AcDbVertex
100
AcDb2dVertex
 10
56.392578
 20
45.698038
 30
0.0
  0
VERTEX
  5
498
330
494
100
AcDbEntity
  8
001
 62
   253
370
    50
100
AcDbVertex
100
AcDb2dVertex
 10
56.353384
 20
45.468458
 30
0.0
  0
VERTEX
  5
499
330
494
100
AcDbEntity
  8
001
 62
   253
370
    50
100
AcDbVertex
100
AcDb2dVertex
 10
56.357947
 20
45.33274
 30
0.0
  0
VERTEX
  5
49A
330
494
100
AcDbEntity
  8
001
 62
   253
370
    50
100
AcDbVertex
100
AcDb2dVertex
 10
56.426896
 20
45.233395
 30
0.0
  0
VERTEX
  5
49B
330
494
100
AcDbEntity
  8
001
 62
   253
370
    50
100
AcDbVertex
100
AcDb2dVertex
 10
56.499218
 20
45.203642
 30
0.0
  0
VERTEX
  5
49C
330
494
100
AcDbEntity
  8
001
 62
   253
370
    50
100
AcDbVertex
100
AcDb2dVertex
 10
56.556579
 20
45.193667
 30
0.0
  0
SEQEND
  5
495
330
494
100
AcDbEntity
  8
001
370
    50
  0
POLYLINE
  5
49D
330
1F
100
AcDbEntity
  8
001
 62
   253
370
    50
100
AcDb2dPolyline
 66
     1
 10
0.0
 20
0.0
 30
0.0
  0
VERTEX
  5
49F
330
49D
100
AcDbEntity
  8
001
 62
   253
370
    50
100
AcDbVertex
100
AcDb2dVertex
 10
56.436899
 20
45.857999
 30
0.0
  0
VERTEX
  5
4A0
330
49D
100
AcDbEntity
  8
001
 62
   253
370
    50
100
AcDbVertex
100
AcDb2dVertex
 10
57.421436
 20
45.962739
 30
0.0
  0
VERTEX
  5
4A1
330
49D
100
AcDbEntity
  8
001
 62
   253
370
    50
100
AcDbVertex
100
AcDb2dVertex
 10
58.858511
 20
46.131489
 30
0.0
  0
VERTEX
  5
4A2
330
49D
100
AcDbEntity
  8
001
 62
   253
370
    50
100
AcDbVertex
100
AcDb2dVertex
 10
61.32342
 20
46.475488
 30
0.0
  0
VERTEX
  5
4A3
330
49D
100
AcDbEntity
  8
001
 62
   253
370
    50
100
AcDbVertex
100
AcDb2dVertex
 10
63.00484
 20
46.746509
 30
0.0
  0
SEQEND
  5
49E
330
49D
100
AcDbEntity
  8
001
370
    50
  0
LINE
  5
4A4
330
1F
100
AcDbEntity
  8
001
 62
   253
370
    50
100
AcDbLine
 10
53.016267
 20
56.920651
 30
0.0
 11
53.454057
 21
57.501825
 31
0.0
  0
LINE
  5
4A5
330
1F
100
AcDbEntity
  8
001
 62
   253
370
    50
100
AcDbLine
 10
55.865585
 20
58.585905
 30
0.0
 11
53.454057
 21
57.501825
 31
0.0
  0
LINE
  5
4A6
330
1F
100
AcDbEntity
  8
001
 62
   253
370
    50
100
AcDbLine
 10
56.436899
 20
45.857999
 30
0.0
 11
59.132545
 21
49.436517
 31
0.0
  0
POLYLINE
  5
4A7
330
1F
100
AcDbEntity
  8
001
 62
   253
370
    50
100
AcDb2dPolyline
 66
     1
 10
0.0
 20
0.0
 30
0.0
  0
VERTEX
  5
4A9
330
4A7
100
AcDbEntity
  8
001
 62
   253
370
    50
100
AcDbVertex
100
AcDb2dVertex
 10
59.164696
 20
54.436301
 30
0.0
  0
VERTEX
  5
4AA
330
4A7
100
AcDbEntity
  8
001
 62
   253
370
    50
100
AcDbVertex
100
AcDb2dVertex
 10
58.983367
 20
54.425796
 30
0.0
  0
VERTEX
  5
4AB
330
4A7
100
AcDbEntity
  8
001
 62
   253
370
    50
100
AcDbVertex
100
AcDb2dVertex
 10
58.740378
 20
54.39832
 30
0.0
  0
VERTEX
  5
4AC
330
4A7
100
AcDbEntity
  8
001
 62
   253
370
    50
100
AcDbVertex
100
AcDb2dVertex
 10
58.533975
 20
54.355993
 30
0.0
  0
VERTEX
  5
4AD
330
4A7
100
AcDbEntity
  8
001
 62
   253
370
    50
100
AcDbVertex
100
AcDb2dVertex
 10
58.328954
 20
54.285533
 30
0.0
  0
VERTEX
  5
4AE
330
4A7
100
AcDbEntity
  8
001
 62
   253
370
    50
100
AcDbVertex
100
AcDb2dVertex
 10
58.202432
 20
54.233031
 30
0.0
  0
VERTEX
  5
4AF
330
4A7
100
AcDbEntity
  8
001
 62
   253
370
    50
100
AcDbVertex
100
AcDb2dVertex
 10
58.112264
 20
54.192541
 30
0.0
  0
SEQEND
  5
4A8
330
4A7
100
AcDbEntity
  8
001
370
    50
  0
LINE
  5
4B0
330
1F
100
AcDbEntity
  8
001
 62
   253
370
    50
100
AcDbLine
 10
58.112264
 20
54.192541
 30
0.0
 11
53.016267
 21
56.920651
 31
0.0
  0
POLYLINE
  5
4B1
330
1F
100
AcDbEntity
  8
001
 62
   253
370
    50
100
AcDb2dPolyline
 66
     1
 10
0.0
 20
0.0
 30
0.0
  0
VERTEX
  5
4B3
330
4B1
100
AcDbEntity
  8
001
 62
   253
370
    50
100
AcDbVertex
100
AcDb2dVertex
 10
59.132545
 20
49.436517
 30
0.0
  0
VERTEX
  5
4B4
330
4B1
100
AcDbEntity
  8
001
 62
   253
370
    50
100
AcDbVertex
100
AcDb2dVertex
 10
59.139075
 20
49.43644
 30
0.0
  0
VERTEX
  5
4B5
330
4B1
100
AcDbEntity
  8
001
 62
   253
370
    50
100
AcDbVertex
100
AcDb2dVertex
 10
59.14862
 20
49.436355
 30
0.0
  0
VERTEX
  5
4B6
330
4B1
100
AcDbEntity
  8
001
 62
   253
370
    50
100
AcDbVertex
100
AcDb2dVertex
 10
59.158165
 20
49.436311
 30
0.0
  0
VERTEX
  5
4B7
330
4B1
100
AcDbEntity
  8
001
 62
   253
370
    50
100
AcDbVertex
100
AcDb2dVertex
 10
59.164696
 20
49.436301
 30
0.0
  0
SEQEND
  5
4B2
330
4B1
100
AcDbEntity
  8
001
370
    50
  0
POLYLINE
  5
4B8
330
1F
100
AcDbEntity
  8
001
 62
   253
370
    50
100
AcDb2dPolyline
 66
     1
 10
0.0
 20
0.0
 30
0.0
  0
VERTEX
  5
4BA
330
4B8
100
AcDbEntity
  8
001
 62
   253
370
    50
100
AcDbVertex
100
AcDb2dVertex
 10
59.164696
 20
49.436301
 30
0.0
  0
VERTEX
  5
4BB
330
4B8
100
AcDbEntity
  8
001
 62
   253
370
    50
100
AcDbVertex
100
AcDb2dVertex
 10
59.343826
 20
49.445814
 30
0.0
  0
VERTEX
  5
4BC
330
4B8
100
AcDbEntity
  8
001
 62
   253
370
    50
100
AcDbVertex
100
AcDb2dVertex
 10
59.589013
 20
49.474282
 30
0.0
  0
VERTEX
  5
4BD
330
4B8
100
AcDbEntity
  8
001
 62
   253
370
    50
100
AcDbVertex
100
AcDb2dVertex
 10
59.806432
 20
49.521574
 30
0.0
  0
VERTEX
  5
4BE
330
4B8
100
AcDbEntity
  8
001
 62
   253
370
    50
100
AcDbVertex
100
AcDb2dVertex
 10
60.000438
 20
49.587069
 30
0.0
  0
VERTEX
  5
4BF
330
4B8
100
AcDbEntity
  8
001
 62
   253
370
    50
100
AcDbVertex
100
AcDb2dVertex
 10
60.194678
 20
49.67041
 30
0.0
  0
VERTEX
  5
4C0
330
4B8
100
AcDbEntity
  8
001
 62
   253
370
    50
100
AcDbVertex
100
AcDb2dVertex
 10
60.386469
 20
49.771237
 30
0.0
  0
VERTEX
  5
4C1
330
4B8
100
AcDbEntity
  8
001
 62
   253
370
    50
100
AcDbVertex
100
AcDb2dVertex
 10
60.894887
 20
50.170264
 30
0.0
  0
VERTEX
  5
4C2
330
4B8
100
AcDbEntity
  8
001
 62
   253
370
    50
100
AcDbVertex
100
AcDb2dVertex
 10
61.280869
 20
50.686301
 30
0.0
  0
VERTEX
  5
4C3
330
4B8
100
AcDbEntity
  8
001
 62
   253
370
    50
100
AcDbVertex
100
AcDb2dVertex
 10
61.461129
 20
51.082386
 30
0.0
  0
VERTEX
  5
4C4
330
4B8
100
AcDbEntity
  8
001
 62
   253
370
    50
100
AcDbVertex
100
AcDb2dVertex
 10
61.571119
 20
51.502181
 30
0.0
  0
VERTEX
  5
4C5
330
4B8
100
AcDbEntity
  8
001
 62
   253
370
    50
100
AcDbVertex
100
AcDb2dVertex
 10
61.598964
 20
51.718515
 30
0.0
  0
VERTEX
  5
4C6
330
4B8
100
AcDbEntity
  8
001
 62
   253
370
    50
100
AcDbVertex
100
AcDb2dVertex
 10
61.608242
 20
51.936301
 30
0.0
  0
VERTEX
  5
4C7
330
4B8
100
AcDbEntity
  8
001
 62
   253
370
    50
100
AcDbVertex
100
AcDb2dVertex
 10
61.598964
 20
52.154086
 30
0.0
  0
VERTEX
  5
4C8
330
4B8
100
AcDbEntity
  8
001
 62
   253
370
    50
100
AcDbVertex
100
AcDb2dVertex
 10
61.571119
 20
52.370421
 30
0.0
  0
VERTEX
  5
4C9
330
4B8
100
AcDbEntity
  8
001
 62
   253
370
    50
100
AcDbVertex
100
AcDb2dVertex
 10
61.461129
 20
52.790216
 30
0.0
  0
VERTEX
  5
4CA
330
4B8
100
AcDbEntity
  8
001
 62
   253
370
    50
100
AcDbVertex
100
AcDb2dVertex
 10
61.280869
 20
53.186301
 30
0.0
  0
VERTEX
  5
4CB
330
4B8
100
AcDbEntity
  8
001
 62
   253
370
    50
100
AcDbVertex
100
AcDb2dVertex
 10
60.894887
 20
53.702338
 30
0.0
  0
VERTEX
  5
4CC
330
4B8
100
AcDbEntity
  8
001
 62
   253
370
    50
100
AcDbVertex
100
AcDb2dVertex
 10
60.386469
 20
54.101364
 30
0.0
  0
VERTEX
  5
4CD
330
4B8
100
AcDbEntity
  8
001
 62
   253
370
    50
100
AcDbVertex
100
AcDb2dVertex
 10
60.194678
 20
54.202192
 30
0.0
  0
VERTEX
  5
4CE
330
4B8
100
AcDbEntity
  8
001
 62
   253
370
    50
100
AcDbVertex
100
AcDb2dVertex
 10
60.000438
 20
54.285533
 30
0.0
  0
VERTEX
  5
4CF
330
4B8
100
AcDbEntity
  8
001
 62
   253
370
    50
100
AcDbVertex
100
AcDb2dVertex
 10
59.806432
 20
54.351028
 30
0.0
  0
VERTEX
  5
4D0
330
4B8
100
AcDbEntity
  8
001
 62
   253
370
    50
100
AcDbVertex
100
AcDb2dVertex
 10
59.589013
 20
54.39832
 30
0.0
  0
VERTEX
  5
4D1
330
4B8
100
AcDbEntity
  8
001
 62
   253
370
    50
100
AcDbVertex
100
AcDb2dVertex
 10
59.343826
 20
54.426788
 30
0.0
  0
VERTEX
  5
4D2
330
4B8
100
AcDbEntity
  8
001
 62
   253
370
    50
100
AcDbVertex
100
AcDb2dVertex
 10
59.164696
 20
54.436301
 30
0.0
  0
SEQEND
  5
4B9
330
4B8
100
AcDbEntity
  8
001
370
    50
  0
POLYLINE
  5
4D3
330
1F
100
AcDbEntity
  8
001
 62
   253
370
    50
100
AcDb2dPolyline
 66
     1
 10
0.0
 20
0.0
 30
0.0
  0
VERTEX
  5
4D5
330
4D3
100
AcDbEntity
  8
001
 62
   253
370
    50
100
AcDbVertex
100
AcDb2dVertex
 10
59.60473
 20
54.395431
 30
0.0
  0
VERTEX
  5
4D6
330
4D3
100
AcDbEntity
  8
001
 62
   253
370
    50
100
AcDbVertex
100
AcDb2dVertex
 10
59.441705
 20
54.358111
 30
0.0
  0
VERTEX
  5
4D7
330
4D3
100
AcDbEntity
  8
001
 62
   253
370
    50
100
AcDbVertex
100
AcDb2dVertex
 10
59.209022
 20
54.285533
 30
0.0
  0
VERTEX
  5
4D8
330
4D3
100
AcDbEntity
  8
001
 62
   253
370
    50
100
AcDbVertex
100
AcDb2dVertex
 10
59.002765
 20
54.196857
 30
0.0
  0
VERTEX
  5
4D9
330
4D3
100
AcDbEntity
  8
001
 62
   253
370
    50
100
AcDbVertex
100
AcDb2dVertex
 10
58.865951
 20
54.126152
 30
0.0
  0
SEQEND
  5
4D4
330
4D3
100
AcDbEntity
  8
001
370
    50
  0
LINE
  5
4DA
330
1F
100
AcDbEntity
  8
001
 62
   253
370
    50
100
AcDbLine
 10
59.245201
 20
49.436517
 30
0.0
 11
59.132545
 21
49.436517
 31
0.0
  0
LINE
  5
4DB
330
1F
100
AcDbEntity
  8
001
 62
   253
370
    50
100
AcDbLine
 10
58.112264
 20
54.192541
 30
0.0
 11
58.741958
 21
54.192531
 31
0.0
  0
POLYLINE
  5
4DC
330
1F
100
AcDbEntity
  8
001
 62
   253
370
    50
100
AcDb2dPolyline
 66
     1
 10
0.0
 20
0.0
 30
0.0
  0
VERTEX
  5
4DE
330
4DC
100
AcDbEntity
  8
001
 62
   253
370
    50
100
AcDbVertex
100
AcDb2dVertex
 10
54.920643
 20
58.722536
 30
0.0
  0
VERTEX
  5
4DF
330
4DC
100
AcDbEntity
  8
001
 62
   253
370
    50
100
AcDbVertex
100
AcDb2dVertex
 10
54.858985
 20
58.688718
 30
0.0
  0
VERTEX
  5
4E0
330
4DC
100
AcDbEntity
  8
001
 62
   253
370
    50
100
AcDbVertex
100
AcDb2dVertex
 10
54.77343
 20
58.63831
 30
0.0
  0
VERTEX
  5
4E1
330
4DC
100
AcDbEntity
  8
001
 62
   253
370
    50
100
AcDbVertex
100
AcDb2dVertex
 10
54.572745
 20
58.503716
 30
0.0
  0
VERTEX
  5
4E2
330
4DC
100
AcDbEntity
  8
001
 62
   253
370
    50
100
AcDbVertex
100
AcDb2dVertex
 10
54.400525
 20
58.365385
 30
0.0
  0
VERTEX
  5
4E3
330
4DC
100
AcDbEntity
  8
001
 62
   253
370
    50
100
AcDbVertex
100
AcDb2dVertex
 10
53.861727
 20
57.886376
 30
0.0
  0
VERTEX
  5
4E4
330
4DC
100
AcDbEntity
  8
001
 62
   253
370
    50
100
AcDbVertex
100
AcDb2dVertex
 10
53.454057
 20
57.501825
 30
0.0
  0
SEQEND
  5
4DD
330
4DC
100
AcDbEntity
  8
001
370
    50
  0
LINE
  5
4E5
330
1F
100
AcDbEntity
  8
001
 62
   253
370
    50
100
AcDbLine
 10
55.865585
 20
59.193667
 30
0.0
 11
54.920643
 21
58.722536
 31
0.0
  0
LINE
  5
4E6
330
1F
100
AcDbEntity
  8
001
 62
   253
370
     9
100
AcDbLine
 10
47.498564
 20
41.742245
 30
0.0
 11
47.498564
 21
49.868276
 31
0.0
  0
LINE
  5
4E7
330
1F
100
AcDbEntity
  8
001
370
    50
100
AcDbLine
 10
172.498564
 20
52.193667
 30
0.0
 11
176.191698
 21
54.325898
 31
0.0
  0
LINE
  5
4E8
330
1F
100
AcDbEntity
  8
001
370
    50
100
AcDbLine
 10
172.498564
 20
52.193667
 30
0.0
 11
176.191698
 21
50.061435
 31
0.0
  0
LINE
  5
4E9
330
1F
100
AcDbEntity
  8
001
  6
CENTER
 62
   253
370
     9
100
AcDbLine
 10
44.809546
 20
52.193667
 30
0.0
 11
183.365184
 21
52.193667
 31
0.0
  0
LINE
  5
4EA
330
1F
100
AcDbEntity
  8
001
370
    50
100
AcDbLine
 10
57.436167
 20
47.184546
 30
0.0
 11
59.29791
 21
46.187873
 31
0.0
  0
ENDSEC
  0
SECTION
  2
OBJECTS
  0
DICTIONARY
  5
C
330
0
100
AcDbDictionary
281
     1
  3
ACAD_GROUP
350
D
  3
ACAD_LAYOUT
350
1A
  3
ACAD_MLEADERSTYLE
350
4EE
  3
ACAD_MLINESTYLE
350
17
  3
ACAD_PLOTSETTINGS
350
19
  3
ACAD_PLOTSTYLENAME
350
E
  3
ACAD_SCALELIST
350
3B
  3
ACAD_TABLESTYLE
350
4ED
  3
ACAD_VISUALSTYLE
350
2A
  3
AcDbVariableDictionary
350
4EB
  0
DICTIONARY
  5
D
102
{ACAD_REACTORS
330
C
102
}
330
C
100
AcDbDictionary
281
     1
  0
DICTIONARY
  5
1A
102
{ACAD_REACTORS
330
C
102
}
330
C
100
AcDbDictionary
281
     1
  3
Layout1
350
1E
  3
Layout2
350
26
  3
Model
350
22
  0
DICTIONARY
  5
4EE
102
{ACAD_REACTORS
330
C
102
}
330
C
100
AcDbDictionary
281
     1
  0
DICTIONARY
  5
17
102
{ACAD_REACTORS
330
C
102
}
330
C
100
AcDbDictionary
281
     1
  3
Standard
350
18
  0
DICTIONARY
  5
19
102
{ACAD_REACTORS
330
C
102
}
330
C
100
AcDbDictionary
281
     1
  0
ACDBDICTIONARYWDFLT
  5
E
102
{ACAD_REACTORS
330
C
102
}
330
C
100
AcDbDictionary
281
     1
  3
Normal
350
F
100
AcDbDictionaryWithDefault
340
F
  0
DICTIONARY
  5
3B
102
{ACAD_REACTORS
330
C
102
}
330
C
100
AcDbDictionary
281
     1
  3
A0
350
3C
  3
A1
350
3D
  3
A2
350
3E
  3
A3
350
3F
  3
A4
350
40
  3
A5
350
41
  3
A6
350
42
  3
A7
350
43
  3
A8
350
44
  3
A9
350
45
  3
B0
350
46
  3
B1
350
47
  3
B2
350
48
  3
B3
350
49
  3
B4
350
4A
  3
B5
350
4B
  3
B6
350
4C
  3
B7
350
4D
  3
B8
350
4E
  3
B9
350
4F
  3
C0
350
50
  3
C1
350
51
  3
C2
350
52
  3
C3
350
53
  3
C4
350
54
  3
C5
350
55
  3
C6
350
56
  3
C7
350
57
  3
C8
350
58
  3
C9
350
59
  3
D0
350
5A
  3
D1
350
5B
  3
D2
350
5C
  0
DICTIONARY
  5
4ED
102
{ACAD_REACTORS
330
C
102
}
330
C
100
AcDbDictionary
281
     1
  0
DICTIONARY
  5
2A
102
{ACAD_REACTORS
330
C
102
}
330
C
100
AcDbDictionary
281
     1
  3
2dWireframe
350
2F
  3
3D Hidden
350
31
  3
3dWireframe
350
30
  3
Basic
350
32
  3
Brighten
350
36
  3
ColorChange
350
3A
  3
Conceptual
350
34
  3
Dim
350
35
  3
Facepattern
350
39
  3
Flat
350
2B
  3
FlatWithEdges
350
2C
  3
Gouraud
350
2D
  3
GouraudWithEdges
350
2E
  3
Linepattern
350
38
  3
Realistic
350
33
  3
Thicken
350
37
  0
DICTIONARY
  5
4EB
102
{ACAD_REACTORS
330
C
102
}
330
C
100
AcDbDictionary
281
     1
  3
CANNOSCALE
350
4EC
  3
PSOLHEIGHT
350
4F0
  3
PSOLWIDTH
350
4EF
  0
LAYOUT
  5
1E
102
{ACAD_REACTORS
330
1A
102
}
330
1A
100
AcDbPlotSettings
  1

  2
none_device
  4

  6

 40
0.0
 41
0.0
 42
0.0
 43
0.0
 44
0.0
 45
0.0
 46
0.0
 47
0.0
 48
0.0
 49
0.0
140
0.0
141
0.0
142
1.0
143
1.0
 70
   688
 72
     0
 73
     0
 74
     5
  7

 75
    16
147
1.0
148
0.0
149
0.0
100
AcDbLayout
  1
Layout1
 70
     1
 71
     1
 10
0.0
 20
0.0
 11
12.0
 21
9.0
 12
0.0
 22
0.0
 32
0.0
 14
1.000000E+20
 24
1.000000E+20
 34
0.0
 15
-1.000000E+20
 25
-1.000000E+20
 35
0.0
146
0.0
 13
0.0
 23
0.0
 33
0.0
 16
1.0
 26
0.0
 36
0.0
 17
0.0
 27
1.0
 37
0.0
 76
     0
330
1B
  0
LAYOUT
  5
26
102
{ACAD_REACTORS
330
1A
102
}
330
1A
100
AcDbPlotSettings
  1

  2
none_device
  4

  6

 40
0.0
 41
0.0
 42
0.0
 43
0.0
 44
0.0
 45
0.0
 46
0.0
 47
0.0
 48
0.0
 49
0.0
140
0.0
141
0.0
142
1.0
143
1.0
 70
   688
 72
     0
 73
     0
 74
     5
  7

 75
    16
147
1.0
148
0.0
149
0.0
100
AcDbLayout
  1
Layout2
 70
     1
 71
     2
 10
0.0
 20
0.0
 11
0.0
 21
0.0
 12
0.0
 22
0.0
 32
0.0
 14
0.0
 24
0.0
 34
0.0
 15
0.0
 25
0.0
 35
0.0
146
0.0
 13
0.0
 23
0.0
 33
0.0
 16
1.0
 26
0.0
 36
0.0
 17
0.0
 27
1.0
 37
0.0
 76
     0
330
23
  0
LAYOUT
  5
22
102
{ACAD_REACTORS
330
1A
102
}
330
1A
100
AcDbPlotSettings
  1

  2
none_device
  4

  6

 40
0.0
 41
0.0
 42
0.0
 43
0.0
 44
0.0
 45
0.0
 46
0.0
 47
0.0
 48
0.0
 49
0.0
140
0.0
141
0.0
142
1.0
143
1.0
 70
  1712
 72
     0
 73
     0
 74
     0
  7

 75
     0
147
1.0
148
0.0
149
0.0
100
AcDbLayout
  1
Model
 70
     1
 71
     0
 10
0.0
 20
0.0
 11
12.0
 21
9.0
 12
0.0
 22
0.0
 32
0.0
 14
20.998566
 24
6.717651
 34
0.0
 15
197.330582
 25
96.39637
 35
0.0
146
0.0
 13
0.0
 23
0.0
 33
0.0
 16
1.0
 26
0.0
 36
0.0
 17
0.0
 27
1.0
 37
0.0
 76
     0
330
1F
331
29
  0
MLINESTYLE
  5
18
102
{ACAD_REACTORS
330
17
102
}
330
17
100
AcDbMlineStyle
  2
Standard
 70
     0
  3

 62
   256
 51
90.0
 52
90.0
 71
     2
 49
0.5
 62
   256
  6
BYLAYER
 49
-0.5
 62
   256
  6
BYLAYER
  0
ACDBPLACEHOLDER
  5
F
102
{ACAD_REACTORS
330
E
102
}
330
E
  0
SCALE
  5
3C
102
{ACAD_REACTORS
330
3B
102
}
330
3B
100
AcDbScale
 70
     0
300
1:1
140
1.0
141
1.0
290
     1
  0
SCALE
  5
3D
102
{ACAD_REACTORS
330
3B
102
}
330
3B
100
AcDbScale
 70
     0
300
1:2
140
1.0
141
2.0
290
     0
  0
SCALE
  5
3E
102
{ACAD_REACTORS
330
3B
102
}
330
3B
100
AcDbScale
 70
     0
300
1:4
140
1.0
141
4.0
290
     0
  0
SCALE
  5
3F
102
{ACAD_REACTORS
330
3B
102
}
330
3B
100
AcDbScale
 70
     0
300
1:5
140
1.0
141
5.0
290
     0
  0
SCALE
  5
40
102
{ACAD_REACTORS
330
3B
102
}
330
3B
100
AcDbScale
 70
     0
300
1:8
140
1.0
141
8.0
290
     0
  0
SCALE
  5
41
102
{ACAD_REACTORS
330
3B
102
}
330
3B
100
AcDbScale
 70
     0
300
1:10
140
1.0
141
10.0
290
     0
  0
SCALE
  5
42
102
{ACAD_REACTORS
330
3B
102
}
330
3B
100
AcDbScale
 70
     0
300
1:16
140
1.0
141
16.0
290
     0
  0
SCALE
  5
43
102
{ACAD_REACTORS
330
3B
102
}
330
3B
100
AcDbScale
 70
     0
300
1:20
140
1.0
141
20.0
290
     0
  0
SCALE
  5
44
102
{ACAD_REACTORS
330
3B
102
}
330
3B
100
AcDbScale
 70
     0
300
1:30
140
1.0
141
30.0
290
     0
  0
SCALE
  5
45
102
{ACAD_REACTORS
330
3B
102
}
330
3B
100
AcDbScale
 70
     0
300
1:40
140
1.0
141
40.0
290
     0
  0
SCALE
  5
46
102
{ACAD_REACTORS
330
3B
102
}
330
3B
100
AcDbScale
 70
     0
300
1:50
140
1.0
141
50.0
290
     0
  0
SCALE
  5
47
102
{ACAD_REACTORS
330
3B
102
}
330
3B
100
AcDbScale
 70
     0
300
1:100
140
1.0
141
100.0
290
     0
  0
SCALE
  5
48
102
{ACAD_REACTORS
330
3B
102
}
330
3B
100
AcDbScale
 70
     0
300
2:1
140
2.0
141
1.0
290
     0
  0
SCALE
  5
49
102
{ACAD_REACTORS
330
3B
102
}
330
3B
100
AcDbScale
 70
     0
300
4:1
140
4.0
141
1.0
290
     0
  0
SCALE
  5
4A
102
{ACAD_REACTORS
330
3B
102
}
330
3B
100
AcDbScale
 70
     0
300
8:1
140
8.0
141
1.0
290
     0
  0
SCALE
  5
4B
102
{ACAD_REACTORS
330
3B
102
}
330
3B
100
AcDbScale
 70
     0
300
10:1
140
10.0
141
1.0
290
     0
  0
SCALE
  5
4C
102
{ACAD_REACTORS
330
3B
102
}
330
3B
100
AcDbScale
 70
     0
300
100:1
140
100.0
141
1.0
290
     0
  0
SCALE
  5
4D
102
{ACAD_REACTORS
330
3B
102
}
330
3B
100
AcDbScale
 70
     0
300
1/128" = 1'-0"
140
0.007812
141
12.0
290
     0
  0
SCALE
  5
4E
102
{ACAD_REACTORS
330
3B
102
}
330
3B
100
AcDbScale
 70
     0
300
1/64" = 1'-0"
140
0.015625
141
12.0
290
     0
  0
SCALE
  5
4F
102
{ACAD_REACTORS
330
3B
102
}
330
3B
100
AcDbScale
 70
     0
300
1/32" = 1'-0"
140
0.03125
141
12.0
290
     0
  0
SCALE
  5
50
102
{ACAD_REACTORS
330
3B
102
}
330
3B
100
AcDbScale
 70
     0
300
1/16" = 1'-0"
140
0.0625
141
12.0
290
     0
  0
SCALE
  5
51
102
{ACAD_REACTORS
330
3B
102
}
330
3B
100
AcDbScale
 70
     0
300
3/32" = 1'-0"
140
0.09375
141
12.0
290
     0
  0
SCALE
  5
52
102
{ACAD_REACTORS
330
3B
102
}
330
3B
100
AcDbScale
 70
     0
300
1/8" = 1'-0"
140
0.125
141
12.0
290
     0
  0
SCALE
  5
53
102
{ACAD_REACTORS
330
3B
102
}
330
3B
100
AcDbScale
 70
     0
300
3/16" = 1'-0"
140
0.1875
141
12.0
290
     0
  0
SCALE
  5
54
102
{ACAD_REACTORS
330
3B
102
}
330
3B
100
AcDbScale
 70
     0
300
1/4" = 1'-0"
140
0.25
141
12.0
290
     0
  0
SCALE
  5
55
102
{ACAD_REACTORS
330
3B
102
}
330
3B
100
AcDbScale
 70
     0
300
3/8" = 1'-0"
140
0.375
141
12.0
290
     0
  0
SCALE
  5
56
102
{ACAD_REACTORS
330
3B
102
}
330
3B
100
AcDbScale
 70
     0
300
1/2" = 1'-0"
140
0.5
141
12.0
290
     0
  0
SCALE
  5
57
102
{ACAD_REACTORS
330
3B
102
}
330
3B
100
AcDbScale
 70
     0
300
3/4" = 1'-0"
140
0.75
141
12.0
290
     0
  0
SCALE
  5
58
102
{ACAD_REACTORS
330
3B
102
}
330
3B
100
AcDbScale
 70
     0
300
1" = 1'-0"
140
1.0
141
12.0
290
     0
  0
SCALE
  5
59
102
{ACAD_REACTORS
330
3B
102
}
330
3B
100
AcDbScale
 70
     0
300
1-1/2" = 1'-0"
140
1.5
141
12.0
290
     0
  0
SCALE
  5
5A
102
{ACAD_REACTORS
330
3B
102
}
330
3B
100
AcDbScale
 70
     0
300
3" = 1'-0"
140
3.0
141
12.0
290
     0
  0
SCALE
  5
5B
102
{ACAD_REACTORS
330
3B
102
}
330
3B
100
AcDbScale
 70
     0
300
6" = 1'-0"
140
6.0
141
12.0
290
     0
  0
SCALE
  5
5C
102
{ACAD_REACTORS
330
3B
102
}
330
3B
100
AcDbScale
 70
     0
300
1'-0" = 1'-0"
140
12.0
141
12.0
290
     0
  0
VISUALSTYLE
  5
2F
102
{ACAD_REACTORS
330
2A
102
}
330
2A
100
AcDbVisualStyle
  2
2dWireframe
 70
     4
 71
     0
 72
     2
 73
     0
 90
        0
 40
-0.6
 41
-30.0
 62
     5
 63
     7
 74
     1
 91
        4
 64
     7
 65
   257
 75
     1
175
     1
 42
1.0
 92
        0
 66
   257
 43
1.0
 76
     1
 77
     6
 78
     2
 67
     7
 79
     5
170
     0
171
     0
290
     0
174
     0
 93
        1
 44
0.0
173
     0
291
     0
 45
0.0
1001
ACAD
1000
AcDbSavedByObjectVersion
1070
     0
  0
VISUALSTYLE
  5
31
102
{ACAD_REACTORS
330
2A
102
}
330
2A
100
AcDbVisualStyle
  2
3D Hidden
 70
     6
 71
     1
 72
     2
 73
     2
 90
        0
 40
-0.6
 41
-30.0
 62
     5
 63
     7
 74
     2
 91
        2
 64
     7
 65
   257
 75
     2
175
     1
 42
40.0
 92
        0
 66
   257
 43
1.0
 76
     1
 77
     6
 78
     2
 67
     7
 79
     3
170
     0
171
     0
290
     0
174
     0
 93
        1
 44
0.0
173
     0
291
     0
 45
0.0
1001
ACAD
1000
AcDbSavedByObjectVersion
1070
     0
  0
VISUALSTYLE
  5
30
102
{ACAD_REACTORS
330
2A
102
}
330
2A
100
AcDbVisualStyle
  2
3dWireframe
 70
     5
 71
     0
 72
     2
 73
     0
 90
        0
 40
-0.6
 41
-30.0
 62
     5
 63
     7
 74
     1
 91
        4
 64
     7
 65
   257
 75
     1
175
     1
 42
1.0
 92
        0
 66
   257
 43
1.0
 76
     1
 77
     6
 78
     2
 67
     7
 79
     5
170
     0
171
     0
290
     0
174
     0
 93
        1
 44
0.0
173
     0
291
     0
 45
0.0
1001
ACAD
1000
AcDbSavedByObjectVersion
1070
     0
  0
VISUALSTYLE
  5
32
102
{ACAD_REACTORS
330
2A
102
}
330
2A
100
AcDbVisualStyle
  2
Basic
 70
     7
 71
     1
 72
     0
 73
     1
 90
        0
 40
-0.6
 41
-30.0
 62
     5
 63
     7
 74
     0
 91
        4
 64
     7
 65
   257
 75
     1
175
     1
 42
1.0
 92
        8
 66
     7
 43
1.0
 76
     1
 77
     6
 78
     2
 67
     7
 79
     5
170
     0
171
     0
290
     0
174
     0
 93
        1
 44
0.0
173
     0
291
     1
 45
0.0
1001
ACAD
1000
AcDbSavedByObjectVersion
1070
     0
  0
VISUALSTYLE
  5
36
102
{ACAD_REACTORS
330
2A
102
}
330
2A
100
AcDbVisualStyle
  2
Brighten
 70
    12
 71
     2
 72
     2
 73
     0
 90
        0
 40
-0.6
 41
-30.0
 62
     5
 63
     7
 74
     1
 91
        4
 64
     7
 65
   257
 75
     1
175
     1
 42
1.0
 92
        8
 66
     7
 43
1.0
 76
     1
 77
     6
 78
     2
 67
     7
 79
     5
170
     0
171
     0
290
     0
174
     0
 93
        1
 44
50.0
173
     0
291
     1
 45
0.0
1001
ACAD
1000
AcDbSavedByObjectVersion
1070
     0
  0
VISUALSTYLE
  5
3A
102
{ACAD_REACTORS
330
2A
102
}
330
2A
100
AcDbVisualStyle
  2
ColorChange
 70
    16
 71
     2
 72
     2
 73
     3
 90
        0
 40
-0.6
 41
-30.0
 62
     5
 63
     8
 74
     1
 91
        4
 64
     7
 65
   257
 75
     1
175
     1
 42
1.0
 92
        8
 66
     8
 43
1.0
 76
     1
 77
     6
 78
     2
 67
     7
 79
     5
170
     0
171
     0
290
     0
174
     0
 93
        1
 44
0.0
173
     0
291
     1
 45
0.0
1001
ACAD
1000
AcDbSavedByObjectVersion
1070
     0
  0
VISUALSTYLE
  5
34
102
{ACAD_REACTORS
330
2A
102
}
330
2A
100
AcDbVisualStyle
  2
Conceptual
 70
     9
 71
     3
 72
     2
 73
     0
 90
        0
 40
-0.6
 41
-30.0
 62
     5
 63
     7
 74
     2
 91
        2
 64
     7
 65
   257
 75
     1
175
     1
 42
40.0
 92
        8
 66
     7
 43
1.0
 76
     1
 77
     6
 78
     2
 67
     7
 79
     3
170
     0
171
     0
290
     0
174
     0
 93
        1
 44
0.0
173
     0
291
     0
 45
0.0
1001
ACAD
1000
AcDbSavedByObjectVersion
1070
     0
  0
VISUALSTYLE
  5
35
102
{ACAD_REACTORS
330
2A
102
}
330
2A
100
AcDbVisualStyle
  2
Dim
 70
    11
 71
     2
 72
     2
 73
     0
 90
        0
 40
-0.6
 41
-30.0
 62
     5
 63
     7
 74
     1
 91
        4
 64
     7
 65
   257
 75
     1
175
     1
 42
1.0
 92
        8
 66
     7
 43
1.0
 76
     1
 77
     6
 78
     2
 67
     7
 79
     5
170
     0
171
     0
290
     0
174
     0
 93
        1
 44
-50.0
173
     0
291
     1
 45
0.0
1001
ACAD
1000
AcDbSavedByObjectVersion
1070
     0
  0
VISUALSTYLE
  5
39
102
{ACAD_REACTORS
330
2A
102
}
330
2A
100
AcDbVisualStyle
  2
Facepattern
 70
    15
 71
     2
 72
     2
 73
     0
 90
        0
 40
-0.6
 41
-30.0
 62
     5
 63
     7
 74
     1
 91
        4
 64
     7
 65
   257
 75
     1
175
     1
 42
1.0
 92
        8
 66
     7
 43
1.0
 76
     1
 77
     6
 78
     2
 67
     7
 79
     5
170
     0
171
     0
290
     0
174
     0
 93
        1
 44
0.0
173
     0
291
     1
 45
0.0
1001
ACAD
1000
AcDbSavedByObjectVersion
1070
     0
  0
VISUALSTYLE
  5
2B
102
{ACAD_REACTORS
330
2A
102
}
330
2A
100
AcDbVisualStyle
  2
Flat
 70
     0
 71
     2
 72
     1
 73
     1
 90
        2
 40
-0.6
 41
30.0
 62
     5
 63
     7
 74
     0
 91
        4
 64
     7
 65
   257
 75
     1
175
     1
 42
1.0
 92
        8
 66
     7
 43
1.0
 76
     1
 77
     6
 78
     2
 67
     7
 79
     5
170
     0
171
     0
290
     0
174
     0
 93
       13
 44
0.0
173
     0
291
     1
 45
0.0
1001
ACAD
1000
AcDbSavedByObjectVersion
1070
     0
  0
VISUALSTYLE
  5
2C
102
{ACAD_REACTORS
330
2A
102
}
330
2A
100
AcDbVisualStyle
  2
FlatWithEdges
 70
     1
 71
     2
 72
     1
 73
     1
 90
        2
 40
-0.6
 41
30.0
 62
     5
 63
     7
 74
     1
 91
        4
 64
     7
 65
   257
 75
     1
175
     1
 42
1.0
 92
        0
 66
   257
 43
1.0
 76
     1
 77
     6
 78
     2
 67
     7
 79
     5
170
     0
171
     0
290
     0
174
     0
 93
       13
 44
0.0
173
     0
291
     1
 45
0.0
1001
ACAD
1000
AcDbSavedByObjectVersion
1070
     0
  0
VISUALSTYLE
  5
2D
102
{ACAD_REACTORS
330
2A
102
}
330
2A
100
AcDbVisualStyle
  2
Gouraud
 70
     2
 71
     2
 72
     2
 73
     1
 90
        2
 40
-0.6
 41
30.0
 62
     5
 63
     7
 74
     0
 91
        4
 64
     7
 65
   257
 75
     1
175
     1
 42
1.0
 92
        0
 66
     7
 43
1.0
 76
     1
 77
     6
 78
     2
 67
     7
 79
     5
170
     0
171
     0
290
     0
174
     0
 93
       13
 44
0.0
173
     0
291
     1
 45
0.0
1001
ACAD
1000
AcDbSavedByObjectVersion
1070
     0
  0
VISUALSTYLE
  5
2E
102
{ACAD_REACTORS
330
2A
102
}
330
2A
100
AcDbVisualStyle
  2
GouraudWithEdges
 70
     3
 71
     2
 72
     2
 73
     1
 90
        2
 40
-0.6
 41
30.0
 62
     5
 63
     7
 74
     1
 91
        4
 64
     7
 65
   257
 75
     1
175
     1
 42
1.0
 92
        0
 66
   257
 43
1.0
 76
     1
 77
     6
 78
     2
 67
     7
 79
     5
170
     0
171
     0
290
     0
174
     0
 93
       13
 44
0.0
173
     0
291
     1
 45
0.0
1001
ACAD
1000
AcDbSavedByObjectVersion
1070
     0
  0
VISUALSTYLE
  5
38
102
{ACAD_REACTORS
330
2A
102
}
330
2A
100
AcDbVisualStyle
  2
Linepattern
 70
    14
 71
     2
 72
     2
 73
     0
 90
        0
 40
-0.6
 41
-30.0
 62
     5
 63
     7
 74
     1
 91
        4
 64
     7
 65
   257
 75
     7
175
     7
 42
1.0
 92
        8
 66
     7
 43
1.0
 76
     1
 77
     6
 78
     2
 67
     7
 79
     5
170
     0
171
     0
290
     0
174
     0
 93
        1
 44
0.0
173
     0
291
     1
 45
0.0
1001
ACAD
1000
AcDbSavedByObjectVersion
1070
     0
  0
VISUALSTYLE
  5
33
102
{ACAD_REACTORS
330
2A
102
}
330
2A
100
AcDbVisualStyle
  2
Realistic
 70
     8
 71
     2
 72
     2
 73
     0
 90
        0
 40
-0.6
 41
-30.0
 62
     5
 63
     7
 74
     1
 91
        0
 64
     7
 65
   257
 75
     1
175
     1
 42
1.0
 92
        8
 66
     8
 43
1.0
 76
     1
 77
     6
 78
     2
 67
     7
 79
     5
170
     0
171
     0
290
     0
174
     0
 93
       13
 44
0.0
173
     0
291
     0
 45
0.0
1001
ACAD
1000
AcDbSavedByObjectVersion
1070
     0
  0
VISUALSTYLE
  5
37
102
{ACAD_REACTORS
330
2A
102
}
330
2A
100
AcDbVisualStyle
  2
Thicken
 70
    13
 71
     2
 72
     2
 73
     0
 90
        0
 40
-0.6
 41
-30.0
 62
     5
 63
     7
 74
     1
 91
        4
 64
     7
 65
   257
 75
     1
175
     1
 42
1.0
 92
       12
 66
     7
 43
1.0
 76
     1
 77
     6
 78
     2
 67
     7
 79
     5
170
     0
171
     0
290
     0
174
     0
 93
        1
 44
0.0
173
     0
291
     1
 45
0.0
1001
ACAD
1000
AcDbSavedByObjectVersion
1070
     0
  0
DICTIONARYVAR
  5
4EC
102
{ACAD_REACTORS
330
4EB
102
}
330
4EB
100
DictionaryVariables
280
     0
  1
1:1
  0
DICTIONARYVAR
  5
4F0
102
{ACAD_REACTORS
330
4EB
102
}
330
4EB
100
DictionaryVariables
280
     0
  1
80.000000
  0
DICTIONARYVAR
  5
4EF
102
{ACAD_REACTORS
330
4EB
102
}
330
4EB
100
DictionaryVariables
280
     0
  1
5.000000
  0
ENDSEC
  0
EOF
