  0
SECTION
  2
HEADER
  9
$ACADVER
  1
AC1015
  9
$ACADMAINTVER
 70
     6
  9
$DWGCODEPAGE
  3
ANSI_932
  9
$INSBASE
 10
0.0
 20
0.0
 30
0.0
  9
$EXTMIN
 10
16.482178
 20
7.493408
 30
0.0
  9
$EXTMAX
 10
192.669693
 20
100.755852
 30
0.0
  9
$LIMMIN
 10
0.0
 20
0.0
  9
$LIMMAX
 10
12.0
 20
9.0
  9
$ORTHOMODE
 70
     0
  9
$REGENMODE
 70
     1
  9
$FILLMODE
 70
     1
  9
$QTEXTMODE
 70
     0
  9
$MIRRTEXT
 70
     1
  9
$LTSCALE
 40
1.993487
  9
$ATTMODE
 70
     1
  9
$TEXTSIZE
 40
3.2
  9
$TRACEWID
 40
1.0
  9
$TEXTSTYLE
  7
Standard
  9
$CLAYER
  8
0
  9
$CELTYPE
  6
ByLayer
  9
$CECOLOR
 62
   256
  9
$CELTSCALE
 40
1.0
  9
$DISPSILH
 70
     0
  9
$DIMSCALE
 40
1.0
  9
$DIMASZ
 40
2.5
  9
$DIMEXO
 40
0.625
  9
$DIMDLI
 40
3.75
  9
$DIMRND
 40
0.0
  9
$DIMDLE
 40
0.0
  9
$DIMEXE
 40
1.25
  9
$DIMTP
 40
0.0
  9
$DIMTM
 40
0.0
  9
$DIMTXT
 40
2.5
  9
$DIMCEN
 40
0.09
  9
$DIMTSZ
 40
0.0
  9
$DIMTOL
 70
     0
  9
$DIMLIM
 70
     0
  9
$DIMTIH
 70
     0
  9
$DIMTOH
 70
     0
  9
$DIMSE1
 70
     0
  9
$DIMSE2
 70
     0
  9
$DIMTAD
 70
     0
  9
$DIMZIN
 70
     8
  9
$DIMBLK
  1

  9
$DIMASO
 70
     1
  9
$DIMSHO
 70
     0
  9
$DIMPOST
  1

  9
$DIMAPOST
  1

  9
$DIMALT
 70
     0
  9
$DIMALTD
 70
     3
  9
$DIMALTF
 40
0.03937
  9
$DIMLFAC
 40
1.0
  9
$DIMTOFL
 70
     1
  9
$DIMTVP
 40
0.0
  9
$DIMTIX
 70
     0
  9
$DIMSOXD
 70
     0
  9
$DIMSAH
 70
     0
  9
$DIMBLK1
  1

  9
$DIMBLK2
  1

  9
$DIMSTYLE
  2
ISO-25
  9
$DIMCLRD
 70
     0
  9
$DIMCLRE
 70
     0
  9
$DIMCLRT
 70
     0
  9
$DIMTFAC
 40
1.0
  9
$DIMGAP
 40
0.625
  9
$DIMJUST
 70
     0
  9
$DIMSD1
 70
     0
  9
$DIMSD2
 70
     0
  9
$DIMTOLJ
 70
     0
  9
$DIMTZIN
 70
     8
  9
$DIMALTZ
 70
     0
  9
$DIMALTTZ
 70
     0
  9
$DIMUPT
 70
     0
  9
$DIMDEC
 70
     2
  9
$DIMTDEC
 70
     2
  9
$DIMALTU
 70
     2
  9
$DIMALTTD
 70
     3
  9
$DIMTXSTY
  7
Standard
  9
$DIMAUNIT
 70
     0
  9
$DIMADEC
 70
     0
  9
$DIMALTRND
 40
0.0
  9
$DIMAZIN
 70
     0
  9
$DIMDSEP
 70
    44
  9
$DIMATFIT
 70
     3
  9
$DIMFRAC
 70
     0
  9
$DIMLDRBLK
  1

  9
$DIMLUNIT
 70
     2
  9
$DIMLWD
 70
    -2
  9
$DIMLWE
 70
    -2
  9
$DIMTMOVE
 70
     0
  9
$LUNITS
 70
     2
  9
$LUPREC
 70
     4
  9
$SKETCHINC
 40
1.0
  9
$FILLETRAD
 40
0.0
  9
$AUNITS
 70
     0
  9
$AUPREC
 70
     0
  9
$MENU
  1
.
  9
$ELEVATION
 40
0.0
  9
$PELEVATION
 40
0.0
  9
$THICKNESS
 40
0.0
  9
$LIMCHECK
 70
     0
  9
$CHAMFERA
 40
10.0
  9
$CHAMFERB
 40
10.0
  9
$CHAMFERC
 40
20.0
  9
$CHAMFERD
 40
0.0
  9
$SKPOLY
 70
     0
  9
$TDCREATE
 40
2456244.599701053
  9
$TDUCREATE
 40
2456244.224701053
  9
$TDUPDATE
 40
2456244.599701065
  9
$TDUUPDATE
 40
2456244.224701065
  9
$TDINDWG
 40
0.0000000116
  9
$TDUSRTIMER
 40
0.0000000116
  9
$USRTIMER
 70
     1
  9
$ANGBASE
 50
0.0
  9
$ANGDIR
 70
     0
  9
$PDMODE
 70
     0
  9
$PDSIZE
 40
0.0
  9
$PLINEWID
 40
0.0
  9
$SPLFRAME
 70
     0
  9
$SPLINETYPE
 70
     6
  9
$SPLINESEGS
 70
     8
  9
$HANDSEED
  5
4DC
  9
$SURFTAB1
 70
     6
  9
$SURFTAB2
 70
     6
  9
$SURFTYPE
 70
     6
  9
$SURFU
 70
     6
  9
$SURFV
 70
     6
  9
$UCSBASE
  2

  9
$UCSNAME
  2

  9
$UCSORG
 10
0.0
 20
0.0
 30
0.0
  9
$UCSXDIR
 10
1.0
 20
0.0
 30
0.0
  9
$UCSYDIR
 10
0.0
 20
1.0
 30
0.0
  9
$UCSORTHOREF
  2

  9
$UCSORTHOVIEW
 70
     0
  9
$UCSORGTOP
 10
0.0
 20
0.0
 30
0.0
  9
$UCSORGBOTTOM
 10
0.0
 20
0.0
 30
0.0
  9
$UCSORGLEFT
 10
0.0
 20
0.0
 30
0.0
  9
$UCSORGRIGHT
 10
0.0
 20
0.0
 30
0.0
  9
$UCSORGFRONT
 10
0.0
 20
0.0
 30
0.0
  9
$UCSORGBACK
 10
0.0
 20
0.0
 30
0.0
  9
$PUCSBASE
  2

  9
$PUCSNAME
  2

  9
$PUCSORG
 10
0.0
 20
0.0
 30
0.0
  9
$PUCSXDIR
 10
1.0
 20
0.0
 30
0.0
  9
$PUCSYDIR
 10
0.0
 20
1.0
 30
0.0
  9
$PUCSORTHOREF
  2

  9
$PUCSORTHOVIEW
 70
     0
  9
$PUCSORGTOP
 10
0.0
 20
0.0
 30
0.0
  9
$PUCSORGBOTTOM
 10
0.0
 20
0.0
 30
0.0
  9
$PUCSORGLEFT
 10
0.0
 20
0.0
 30
0.0
  9
$PUCSORGRIGHT
 10
0.0
 20
0.0
 30
0.0
  9
$PUCSORGFRONT
 10
0.0
 20
0.0
 30
0.0
  9
$PUCSORGBACK
 10
0.0
 20
0.0
 30
0.0
  9
$USERI1
 70
     0
  9
$USERI2
 70
     0
  9
$USERI3
 70
     0
  9
$USERI4
 70
     0
  9
$USERI5
 70
     0
  9
$USERR1
 40
0.0
  9
$USERR2
 40
0.0
  9
$USERR3
 40
0.0
  9
$USERR4
 40
0.0
  9
$USERR5
 40
0.0
  9
$WORLDVIEW
 70
     1
  9
$SHADEDGE
 70
     3
  9
$SHADEDIF
 70
    70
  9
$TILEMODE
 70
     1
  9
$MAXACTVP
 70
    64
  9
$PINSBASE
 10
0.0
 20
0.0
 30
0.0
  9
$PLIMCHECK
 70
     0
  9
$PEXTMIN
 10
1.000000E+20
 20
1.000000E+20
 30
0.0
  9
$PEXTMAX
 10
-1.000000E+20
 20
-1.000000E+20
 30
0.0
  9
$PLIMMIN
 10
0.0
 20
0.0
  9
$PLIMMAX
 10
12.0
 20
9.0
  9
$UNITMODE
 70
     0
  9
$VISRETAIN
 70
     1
  9
$PLINEGEN
 70
     0
  9
$PSLTSCALE
 70
     1
  9
$TREEDEPTH
 70
  3020
  9
$CMLSTYLE
  2
Standard
  9
$CMLJUST
 70
     0
  9
$CMLSCALE
 40
20.0
  9
$PROXYGRAPHICS
 70
     1
  9
$MEASUREMENT
 70
     1
  9
$CELWEIGHT
370
    -1
  9
$ENDCAPS
280
     0
  9
$JOINSTYLE
280
     0
  9
$LWDISPLAY
290
     0
  9
$INSUNITS
 70
     4
  9
$HYPERLINKBASE
  1

  9
$STYLESHEET
  1

  9
$XEDIT
290
     1
  9
$CEPSNTYPE
380
     0
  9
$PSTYLEMODE
290
     1
  9
$FINGERPRINTGUID
  2
{949A7FC2-E448-426C-A116-6FE460D5E2FD}
  9
$VERSIONGUID
  2
{FAEB1C32-E019-11D5-929B-00C0DF256EC4}
  9
$EXTNAMES
290
     1
  9
$PSVPSCALE
 40
0.0
  9
$OLESTARTUP
290
     0
  0
ENDSEC
  0
SECTION
  2
CLASSES
  0
CLASS
  1
ACDBDICTIONARYWDFLT
  2
AcDbDictionaryWithDefault
  3
ObjectDBX Classes
 90
        0
280
     0
281
     0
  0
CLASS
  1
VISUALSTYLE
  2
AcDbVisualStyle
  3
ObjectDBX Classes
 90
     4095
280
     0
281
     0
  0
CLASS
  1
SCALE
  2
AcDbScale
  3
ObjectDBX Classes
 90
     1153
280
     0
281
     0
  0
CLASS
  1
DICTIONARYVAR
  2
AcDbDictionaryVar
  3
ObjectDBX Classes
 90
        0
280
     0
281
     0
  0
CLASS
  1
ACDBPLACEHOLDER
  2
AcDbPlaceHolder
  3
ObjectDBX Classes
 90
        0
280
     0
281
     0
  0
CLASS
  1
LAYOUT
  2
AcDbLayout
  3
ObjectDBX Classes
 90
        0
280
     0
281
     0
  0
ENDSEC
  0
SECTION
  2
TABLES
  0
TABLE
  2
VPORT
  5
8
330
0
100
AcDbSymbolTable
 70
     1
  0
VPORT
  5
29
330
8
100
AcDbSymbolTableRecord
100
AcDbViewportTableRecord
  2
*Active
 70
     0
 10
0.0
 20
0.0
 11
1.0
 21
1.0
 12
104.575935
 22
54.12463
 13
0.0
 23
0.0
 14
1.0
 24
1.0
 15
0.0
 25
0.0
 16
0.0
 26
0.0
 36
1.0
 17
0.0
 27
0.0
 37
0.0
 40
105.21531
 41
1.691288
 42
50.0
 43
0.0
 44
0.0
 50
0.0
 51
0.0
 71
     0
 72
   100
 73
     1
 74
     3
 75
     0
 76
     0
 77
     0
 78
     0
281
     0
 65
     1
110
0.0
120
0.0
130
0.0
111
1.0
121
0.0
131
0.0
112
0.0
122
1.0
132
0.0
 79
     0
146
0.0
  0
ENDTAB
  0
TABLE
  2
LTYPE
  5
5
330
0
100
AcDbSymbolTable
 70
     5
  0
LTYPE
  5
14
330
5
100
AcDbSymbolTableRecord
100
AcDbLinetypeTableRecord
  2
ByBlock
 70
     0
  3

 72
    65
 73
     0
 40
0.0
  0
LTYPE
  5
15
330
5
100
AcDbSymbolTableRecord
100
AcDbLinetypeTableRecord
  2
ByLayer
 70
     0
  3

 72
    65
 73
     0
 40
0.0
  0
LTYPE
  5
16
330
5
100
AcDbSymbolTableRecord
100
AcDbLinetypeTableRecord
  2
Continuous
 70
     0
  3
Solid line
 72
    65
 73
     0
 40
0.0
  0
LTYPE
  5
5D
330
5
100
AcDbSymbolTableRecord
100
AcDbLinetypeTableRecord
  2
DASHED
 70
     0
  3
DASHED
 72
    83
 73
     2
 40
0.75
 49
0.5
 74
     0
 49
-0.25
 74
     0
  0
LTYPE
  5
5E
330
5
100
AcDbSymbolTableRecord
100
AcDbLinetypeTableRecord
  2
HIDDEN
 70
     0
  3
HIDDEN
 72
    83
 73
     2
 40
0.375
 49
0.25
 74
     0
 49
-0.125
 74
     0
  0
LTYPE
  5
5F
330
5
100
AcDbSymbolTableRecord
100
AcDbLinetypeTableRecord
  2
CENTER
 70
     0
  3
CENTER
 72
    83
 73
     4
 40
2.0
 49
1.25
 74
     0
 49
-0.25
 74
     0
 49
0.25
 74
     0
 49
-0.25
 74
     0
  0
LTYPE
  5
60
330
5
100
AcDbSymbolTableRecord
100
AcDbLinetypeTableRecord
  2
PHANTOM
 70
     0
  3
PHANTOM
 72
    83
 73
     6
 40
2.5
 49
1.25
 74
     0
 49
-0.25
 74
     0
 49
0.25
 74
     0
 49
-0.25
 74
     0
 49
0.25
 74
     0
 49
-0.25
 74
     0
  0
ENDTAB
  0
TABLE
  2
LAYER
  5
2
330
0
100
AcDbSymbolTable
 70
     2
  0
LAYER
  5
10
330
2
100
AcDbSymbolTableRecord
100
AcDbLayerTableRecord
  2
0
 70
     0
 62
     7
  6
Continuous
370
    -3
390
F
  0
LAYER
  5
61
330
2
100
AcDbSymbolTableRecord
100
AcDbLayerTableRecord
  2
001
 70
     0
 62
     7
  6
Continuous
370
    -3
390
F
  0
ENDTAB
  0
TABLE
  2
STYLE
  5
3
330
0
100
AcDbSymbolTable
 70
     2
  0
STYLE
  5
11
330
3
100
AcDbSymbolTableRecord
100
AcDbTextStyleTableRecord
  2
Standard
 70
     0
 40
0.0
 41
1.0
 50
0.0
 71
     0
 42
0.2
  3
TXT
  4
BIGFONT
  0
STYLE
  5
62
330
3
100
AcDbSymbolTableRecord
100
AcDbTextStyleTableRecord
  2
TATEGAKI
 70
     4
 40
1.0
 41
1.0
 50
0.0
 71
     0
 42
0.2
  3
TXT
  4
BIGFONT
  0
ENDTAB
  0
TABLE
  2
VIEW
  5
6
330
0
100
AcDbSymbolTable
 70
     0
  0
ENDTAB
  0
TABLE
  2
UCS
  5
7
330
0
100
AcDbSymbolTable
 70
     0
  0
ENDTAB
  0
TABLE
  2
APPID
  5
9
330
0
100
AcDbSymbolTable
 70
     1
  0
APPID
  5
12
330
9
100
AcDbSymbolTableRecord
100
AcDbRegAppTableRecord
  2
ACAD
 70
     0
  0
ENDTAB
  0
TABLE
  2
DIMSTYLE
  5
A
330
0
100
AcDbSymbolTable
 70
     2
100
AcDbDimStyleTable
  0
DIMSTYLE
105
27
330
A
100
AcDbSymbolTableRecord
100
AcDbDimStyleTableRecord
  2
ISO-25
 70
     0
 41
2.5
 42
0.625
 43
3.75
 44
1.25
 73
     0
 74
     0
 77
     1
 78
     8
140
2.5
141
2.5
143
0.03937
147
0.625
171
     3
172
     1
271
     2
272
     2
274
     3
278
    44
283
     0
284
     8
340
11
  0
DIMSTYLE
105
63
102
{ACAD_REACTORS
330
422
330
423
330
424
330
431
330
432
330
433
102
}
330
A
100
AcDbSymbolTableRecord
100
AcDbDimStyleTableRecord
  2
Standard
 70
     0
 41
1.5
 42
0.0
 44
2.75
 73
     0
 74
     0
 77
     1
 78
     8
 79
     2
140
4.0
146
0.8
147
1.0
172
     1
179
     1
271
     1
340
11
  0
ENDTAB
  0
TABLE
  2
BLOCK_RECORD
  5
1
330
0
100
AcDbSymbolTable
 70
     9
  0
BLOCK_RECORD
  5
1F
330
1
100
AcDbSymbolTableRecord
100
AcDbBlockTableRecord
  2
*Model_Space
340
22
  0
BLOCK_RECORD
  5
1B
330
1
100
AcDbSymbolTableRecord
100
AcDbBlockTableRecord
  2
*Paper_Space
340
1E
  0
BLOCK_RECORD
  5
23
330
1
100
AcDbSymbolTableRecord
100
AcDbBlockTableRecord
  2
*Paper_Space0
340
26
  0
BLOCK_RECORD
  5
64
330
1
100
AcDbSymbolTableRecord
100
AcDbBlockTableRecord
  2
C32GUX-1
340
0
102
{BLKREFS
331
420
102
}
  0
BLOCK_RECORD
  5
1C9
330
1
100
AcDbSymbolTableRecord
100
AcDbBlockTableRecord
  2
M-1-2
340
0
102
{BLKREFS
331
421
102
}
  0
BLOCK_RECORD
  5
3A2
330
1
100
AcDbSymbolTableRecord
100
AcDbBlockTableRecord
  2
*D3
340
0
  0
BLOCK_RECORD
  5
3B9
330
1
100
AcDbSymbolTableRecord
100
AcDbBlockTableRecord
  2
*D4
340
0
  0
BLOCK_RECORD
  5
3CD
330
1
100
AcDbSymbolTableRecord
100
AcDbBlockTableRecord
  2
*D5
340
0
  0
BLOCK_RECORD
  5
3E3
330
1
100
AcDbSymbolTableRecord
100
AcDbBlockTableRecord
  2
*D6
340
0
  0
BLOCK_RECORD
  5
3F7
330
1
100
AcDbSymbolTableRecord
100
AcDbBlockTableRecord
  2
*D7
340
0
  0
BLOCK_RECORD
  5
40B
330
1
100
AcDbSymbolTableRecord
100
AcDbBlockTableRecord
  2
*D8
340
0
  0
ENDTAB
  0
ENDSEC
  0
SECTION
  2
BLOCKS
  0
BLOCK
  5
20
330
1F
100
AcDbEntity
  8
0
100
AcDbBlockBegin
  2
*Model_Space
 70
     0
 10
0.0
 20
0.0
 30
0.0
  3
*Model_Space
  1

  0
ENDBLK
  5
21
330
1F
100
AcDbEntity
  8
0
100
AcDbBlockEnd
  0
BLOCK
  5
1C
330
1B
100
AcDbEntity
 67
     1
  8
0
100
AcDbBlockBegin
  2
*Paper_Space
 70
     0
 10
0.0
 20
0.0
 30
0.0
  3
*Paper_Space
  1

  0
ENDBLK
  5
1D
330
1B
100
AcDbEntity
 67
     1
  8
0
100
AcDbBlockEnd
  0
BLOCK
  5
24
330
23
100
AcDbEntity
  8
0
100
AcDbBlockBegin
  2
*Paper_Space0
 70
     0
 10
0.0
 20
0.0
 30
0.0
  3
*Paper_Space0
  1

  0
ENDBLK
  5
25
330
23
100
AcDbEntity
  8
0
100
AcDbBlockEnd
  0
BLOCK
  5
65
330
64
100
AcDbEntity
  8
0
100
AcDbBlockBegin
  2
C32GUX-1
 70
     0
 10
0.0
 20
0.0
 30
0.0
  3
C32GUX-1
  1

  0
LINE
  5
67
330
64
100
AcDbEntity
  8
001
 62
    40
370
    50
100
AcDbLine
 10
54.724397
 20
50.3729
 30
0.0
 11
55.016791
 21
50.00377
 31
0.0
  0
LINE
  5
68
330
64
100
AcDbEntity
  8
001
 62
    40
370
    50
100
AcDbLine
 10
54.882113
 20
49.486621
 30
0.0
 11
54.951371
 21
49.550078
 31
0.0
  0
POLYLINE
  5
69
330
64
100
AcDbEntity
  8
001
 62
    40
370
    50
100
AcDb2dPolyline
 66
     1
 10
0.0
 20
0.0
 30
0.0
  0
VERTEX
  5
6B
330
69
100
AcDbEntity
  8
001
 62
    40
370
    50
100
AcDbVertex
100
AcDb2dVertex
 10
54.882113
 20
49.486621
 30
0.0
  0
VERTEX
  5
6C
330
69
100
AcDbEntity
  8
001
 62
    40
370
    50
100
AcDbVertex
100
AcDb2dVertex
 10
54.876872
 20
49.588725
 30
0.0
  0
VERTEX
  5
6D
330
69
100
AcDbEntity
  8
001
 62
    40
370
    50
100
AcDbVertex
100
AcDb2dVertex
 10
54.863203
 20
49.737382
 30
0.0
  0
VERTEX
  5
6E
330
69
100
AcDbEntity
  8
001
 62
    40
370
    50
100
AcDbVertex
100
AcDb2dVertex
 10
54.793664
 20
50.117073
 30
0.0
  0
VERTEX
  5
6F
330
69
100
AcDbEntity
  8
001
 62
    40
370
    50
100
AcDbVertex
100
AcDb2dVertex
 10
54.724397
 20
50.3729
 30
0.0
  0
SEQEND
  5
6A
330
69
100
AcDbEntity
  8
001
370
    50
  0
POLYLINE
  5
70
330
64
100
AcDbEntity
  8
001
 62
    40
370
    50
100
AcDb2dPolyline
 66
     1
 10
0.0
 20
0.0
 30
0.0
  0
VERTEX
  5
72
330
70
100
AcDbEntity
  8
001
 62
    40
370
    50
100
AcDbVertex
100
AcDb2dVertex
 10
51.881749
 20
49.107737
 30
0.0
  0
VERTEX
  5
73
330
70
100
AcDbEntity
  8
001
 62
    40
370
    50
100
AcDbVertex
100
AcDb2dVertex
 10
52.082164
 20
48.980063
 30
0.0
  0
VERTEX
  5
74
330
70
100
AcDbEntity
  8
001
 62
    40
370
    50
100
AcDbVertex
100
AcDb2dVertex
 10
52.382026
 20
48.805448
 30
0.0
  0
VERTEX
  5
75
330
70
100
AcDbEntity
  8
001
 62
    40
370
    50
100
AcDbVertex
100
AcDb2dVertex
 10
52.66248
 20
48.662935
 30
0.0
  0
VERTEX
  5
76
330
70
100
AcDbEntity
  8
001
 62
    40
370
    50
100
AcDbVertex
100
AcDb2dVertex
 10
52.858511
 20
48.573674
 30
0.0
  0
SEQEND
  5
71
330
70
100
AcDbEntity
  8
001
370
    50
  0
LINE
  5
77
330
64
100
AcDbEntity
  8
001
 62
    40
370
    50
100
AcDbLine
 10
50.721619
 20
51.064655
 30
0.0
 11
51.881749
 21
49.107737
 31
0.0
  0
POLYLINE
  5
78
330
64
100
AcDbEntity
  8
001
 62
    40
370
    50
100
AcDb2dPolyline
 66
     1
 10
0.0
 20
0.0
 30
0.0
  0
VERTEX
  5
7A
330
78
100
AcDbEntity
  8
001
 62
    40
370
    50
100
AcDbVertex
100
AcDb2dVertex
 10
50.721619
 20
51.064655
 30
0.0
  0
VERTEX
  5
7B
330
78
100
AcDbEntity
  8
001
 62
    40
370
    50
100
AcDbVertex
100
AcDb2dVertex
 10
50.750043
 20
51.220696
 30
0.0
  0
VERTEX
  5
7C
330
78
100
AcDbEntity
  8
001
 62
    40
370
    50
100
AcDbVertex
100
AcDb2dVertex
 10
50.774051
 20
51.377383
 30
0.0
  0
VERTEX
  5
7D
330
78
100
AcDbEntity
  8
001
 62
    40
370
    50
100
AcDbVertex
100
AcDb2dVertex
 10
50.790374
 20
51.540595
 30
0.0
  0
VERTEX
  5
7E
330
78
100
AcDbEntity
  8
001
 62
    40
370
    50
100
AcDbVertex
100
AcDb2dVertex
 10
50.797362
 20
51.704544
 30
0.0
  0
VERTEX
  5
7F
330
78
100
AcDbEntity
  8
001
 62
    40
370
    50
100
AcDbVertex
100
AcDb2dVertex
 10
50.79514
 20
51.866394
 30
0.0
  0
VERTEX
  5
80
330
78
100
AcDbEntity
  8
001
 62
    40
370
    50
100
AcDbVertex
100
AcDb2dVertex
 10
50.78359
 20
52.027817
 30
0.0
  0
VERTEX
  5
81
330
78
100
AcDbEntity
  8
001
 62
    40
370
    50
100
AcDbVertex
100
AcDb2dVertex
 10
50.761962
 20
52.19096
 30
0.0
  0
VERTEX
  5
82
330
78
100
AcDbEntity
  8
001
 62
    40
370
    50
100
AcDbVertex
100
AcDb2dVertex
 10
50.730215
 20
52.352464
 30
0.0
  0
VERTEX
  5
83
330
78
100
AcDbEntity
  8
001
 62
    40
370
    50
100
AcDbVertex
100
AcDb2dVertex
 10
50.688048
 20
52.512122
 30
0.0
  0
VERTEX
  5
84
330
78
100
AcDbEntity
  8
001
 62
    40
370
    50
100
AcDbVertex
100
AcDb2dVertex
 10
50.635215
 20
52.668538
 30
0.0
  0
VERTEX
  5
85
330
78
100
AcDbEntity
  8
001
 62
    40
370
    50
100
AcDbVertex
100
AcDb2dVertex
 10
50.578896
 20
52.804651
 30
0.0
  0
VERTEX
  5
86
330
78
100
AcDbEntity
  8
001
 62
    40
370
    50
100
AcDbVertex
100
AcDb2dVertex
 10
50.51429
 20
52.937044
 30
0.0
  0
VERTEX
  5
87
330
78
100
AcDbEntity
  8
001
 62
    40
370
    50
100
AcDbVertex
100
AcDb2dVertex
 10
50.441314
 20
53.066227
 30
0.0
  0
VERTEX
  5
88
330
78
100
AcDbEntity
  8
001
 62
    40
370
    50
100
AcDbVertex
100
AcDb2dVertex
 10
50.360738
 20
53.190812
 30
0.0
  0
VERTEX
  5
89
330
78
100
AcDbEntity
  8
001
 62
    40
370
    50
100
AcDbVertex
100
AcDb2dVertex
 10
50.27284
 20
53.310386
 30
0.0
  0
VERTEX
  5
8A
330
78
100
AcDbEntity
  8
001
 62
    40
370
    50
100
AcDbVertex
100
AcDb2dVertex
 10
50.1779
 20
53.42443
 30
0.0
  0
VERTEX
  5
8B
330
78
100
AcDbEntity
  8
001
 62
    40
370
    50
100
AcDbVertex
100
AcDb2dVertex
 10
50.082899
 20
53.52585
 30
0.0
  0
VERTEX
  5
8C
330
78
100
AcDbEntity
  8
001
 62
    40
370
    50
100
AcDbVertex
100
AcDb2dVertex
 10
49.98258
 20
53.622023
 30
0.0
  0
VERTEX
  5
8D
330
78
100
AcDbEntity
  8
001
 62
    40
370
    50
100
AcDbVertex
100
AcDb2dVertex
 10
49.87669
 20
53.713703
 30
0.0
  0
VERTEX
  5
8E
330
78
100
AcDbEntity
  8
001
 62
    40
370
    50
100
AcDbVertex
100
AcDb2dVertex
 10
49.7665
 20
53.800168
 30
0.0
  0
VERTEX
  5
8F
330
78
100
AcDbEntity
  8
001
 62
    40
370
    50
100
AcDbVertex
100
AcDb2dVertex
 10
49.652256
 20
53.881614
 30
0.0
  0
VERTEX
  5
90
330
78
100
AcDbEntity
  8
001
 62
    40
370
    50
100
AcDbVertex
100
AcDb2dVertex
 10
49.534532
 20
53.957927
 30
0.0
  0
VERTEX
  5
91
330
78
100
AcDbEntity
  8
001
 62
    40
370
    50
100
AcDbVertex
100
AcDb2dVertex
 10
49.414902
 20
54.028578
 30
0.0
  0
VERTEX
  5
92
330
78
100
AcDbEntity
  8
001
 62
    40
370
    50
100
AcDbVertex
100
AcDb2dVertex
 10
49.292767
 20
54.094833
 30
0.0
  0
VERTEX
  5
93
330
78
100
AcDbEntity
  8
001
 62
    40
370
    50
100
AcDbVertex
100
AcDb2dVertex
 10
49.168568
 20
54.157228
 30
0.0
  0
VERTEX
  5
94
330
78
100
AcDbEntity
  8
001
 62
    40
370
    50
100
AcDbVertex
100
AcDb2dVertex
 10
49.042595
 20
54.215913
 30
0.0
  0
VERTEX
  5
95
330
78
100
AcDbEntity
  8
001
 62
    40
370
    50
100
AcDbVertex
100
AcDb2dVertex
 10
48.916453
 20
54.270703
 30
0.0
  0
VERTEX
  5
96
330
78
100
AcDbEntity
  8
001
 62
    40
370
    50
100
AcDbVertex
100
AcDb2dVertex
 10
48.789533
 20
54.323716
 30
0.0
  0
SEQEND
  5
79
330
78
100
AcDbEntity
  8
001
370
    50
  0
LINE
  5
97
330
64
100
AcDbEntity
  8
001
 62
    40
370
    50
100
AcDbLine
 10
47.89504
 20
55.832556
 30
0.0
 11
48.789533
 21
54.323716
 31
0.0
  0
POLYLINE
  5
98
330
64
100
AcDbEntity
  8
001
 62
    40
370
    50
100
AcDb2dPolyline
 66
     1
 10
0.0
 20
0.0
 30
0.0
  0
VERTEX
  5
9A
330
98
100
AcDbEntity
  8
001
 62
    40
370
    50
100
AcDbVertex
100
AcDb2dVertex
 10
48.022542
 20
56.731032
 30
0.0
  0
VERTEX
  5
9B
330
98
100
AcDbEntity
  8
001
 62
    40
370
    50
100
AcDbVertex
100
AcDb2dVertex
 10
47.981302
 20
56.559646
 30
0.0
  0
VERTEX
  5
9C
330
98
100
AcDbEntity
  8
001
 62
    40
370
    50
100
AcDbVertex
100
AcDb2dVertex
 10
47.935138
 20
56.3065
 30
0.0
  0
VERTEX
  5
9D
330
98
100
AcDbEntity
  8
001
 62
    40
370
    50
100
AcDbVertex
100
AcDb2dVertex
 10
47.905377
 20
56.025742
 30
0.0
  0
VERTEX
  5
9E
330
98
100
AcDbEntity
  8
001
 62
    40
370
    50
100
AcDbVertex
100
AcDb2dVertex
 10
47.89504
 20
55.832556
 30
0.0
  0
SEQEND
  5
99
330
98
100
AcDbEntity
  8
001
370
    50
  0
POLYLINE
  5
9F
330
64
100
AcDbEntity
  8
001
 62
    40
370
    50
100
AcDb2dPolyline
 66
     1
 10
0.0
 20
0.0
 30
0.0
  0
VERTEX
  5
A1
330
9F
100
AcDbEntity
  8
001
 62
    40
370
    50
100
AcDbVertex
100
AcDb2dVertex
 10
48.022542
 20
56.731032
 30
0.0
  0
VERTEX
  5
A2
330
9F
100
AcDbEntity
  8
001
 62
    40
370
    50
100
AcDbVertex
100
AcDb2dVertex
 10
48.053728
 20
56.742108
 30
0.0
  0
VERTEX
  5
A3
330
9F
100
AcDbEntity
  8
001
 62
    40
370
    50
100
AcDbVertex
100
AcDb2dVertex
 10
48.098381
 20
56.758051
 30
0.0
  0
VERTEX
  5
A4
330
9F
100
AcDbEntity
  8
001
 62
    40
370
    50
100
AcDbVertex
100
AcDb2dVertex
 10
48.292266
 20
56.82883
 30
0.0
  0
VERTEX
  5
A5
330
9F
100
AcDbEntity
  8
001
 62
    40
370
    50
100
AcDbVertex
100
AcDb2dVertex
 10
48.461295
 20
56.893484
 30
0.0
  0
VERTEX
  5
A6
330
9F
100
AcDbEntity
  8
001
 62
    40
370
    50
100
AcDbVertex
100
AcDb2dVertex
 10
48.639337
 20
56.964056
 30
0.0
  0
VERTEX
  5
A7
330
9F
100
AcDbEntity
  8
001
 62
    40
370
    50
100
AcDbVertex
100
AcDb2dVertex
 10
48.820823
 20
57.037666
 30
0.0
  0
VERTEX
  5
A8
330
9F
100
AcDbEntity
  8
001
 62
    40
370
    50
100
AcDbVertex
100
AcDb2dVertex
 10
49.144707
 20
57.174538
 30
0.0
  0
VERTEX
  5
A9
330
9F
100
AcDbEntity
  8
001
 62
    40
370
    50
100
AcDbVertex
100
AcDb2dVertex
 10
49.48646
 20
57.334618
 30
0.0
  0
VERTEX
  5
AA
330
9F
100
AcDbEntity
  8
001
 62
    40
370
    50
100
AcDbVertex
100
AcDb2dVertex
 10
49.813098
 20
57.502712
 30
0.0
  0
VERTEX
  5
AB
330
9F
100
AcDbEntity
  8
001
 62
    40
370
    50
100
AcDbVertex
100
AcDb2dVertex
 10
50.046404
 20
57.631783
 30
0.0
  0
SEQEND
  5
A0
330
9F
100
AcDbEntity
  8
001
370
    50
  0
POLYLINE
  5
AC
330
64
100
AcDbEntity
  8
001
 62
    40
370
    50
100
AcDb2dPolyline
 66
     1
 10
0.0
 20
0.0
 30
0.0
  0
VERTEX
  5
AE
330
AC
100
AcDbEntity
  8
001
 62
    40
370
    50
100
AcDbVertex
100
AcDb2dVertex
 10
50.737687
 20
57.097719
 30
0.0
  0
VERTEX
  5
AF
330
AC
100
AcDbEntity
  8
001
 62
    40
370
    50
100
AcDbVertex
100
AcDb2dVertex
 10
50.601269
 20
57.225315
 30
0.0
  0
VERTEX
  5
B0
330
AC
100
AcDbEntity
  8
001
 62
    40
370
    50
100
AcDbVertex
100
AcDb2dVertex
 10
50.3921
 20
57.400008
 30
0.0
  0
VERTEX
  5
B1
330
AC
100
AcDbEntity
  8
001
 62
    40
370
    50
100
AcDbVertex
100
AcDb2dVertex
 10
50.190304
 20
57.542592
 30
0.0
  0
VERTEX
  5
B2
330
AC
100
AcDbEntity
  8
001
 62
    40
370
    50
100
AcDbVertex
100
AcDb2dVertex
 10
50.046404
 20
57.631783
 30
0.0
  0
SEQEND
  5
AD
330
AC
100
AcDbEntity
  8
001
370
    50
  0
LINE
  5
B3
330
64
100
AcDbEntity
  8
001
 62
    40
370
    50
100
AcDbLine
 10
54.724397
 20
50.3729
 30
0.0
 11
50.737687
 21
57.097719
 31
0.0
  0
POLYLINE
  5
B4
330
64
100
AcDbEntity
  8
001
 62
    40
370
    50
100
AcDb2dPolyline
 66
     1
 10
0.0
 20
0.0
 30
0.0
  0
VERTEX
  5
B6
330
B4
100
AcDbEntity
  8
001
 62
    40
370
    50
100
AcDbVertex
100
AcDb2dVertex
 10
54.759609
 20
49.403199
 30
0.0
  0
VERTEX
  5
B7
330
B4
100
AcDbEntity
  8
001
 62
    40
370
    50
100
AcDbVertex
100
AcDb2dVertex
 10
54.792079
 20
49.42262
 30
0.0
  0
VERTEX
  5
B8
330
B4
100
AcDbEntity
  8
001
 62
    40
370
    50
100
AcDbVertex
100
AcDb2dVertex
 10
54.823846
 20
49.443071
 30
0.0
  0
VERTEX
  5
B9
330
B4
100
AcDbEntity
  8
001
 62
    40
370
    50
100
AcDbVertex
100
AcDb2dVertex
 10
54.853304
 20
49.464369
 30
0.0
  0
VERTEX
  5
BA
330
B4
100
AcDbEntity
  8
001
 62
    40
370
    50
100
AcDbVertex
100
AcDb2dVertex
 10
54.882113
 20
49.486621
 30
0.0
  0
SEQEND
  5
B5
330
B4
100
AcDbEntity
  8
001
370
    50
  0
POLYLINE
  5
BB
330
64
100
AcDbEntity
  8
001
 62
    40
370
    50
100
AcDb2dPolyline
 66
     1
 10
0.0
 20
0.0
 30
0.0
  0
VERTEX
  5
BD
330
BB
100
AcDbEntity
  8
001
 62
    40
370
    50
100
AcDbVertex
100
AcDb2dVertex
 10
52.858511
 20
48.573674
 30
0.0
  0
VERTEX
  5
BE
330
BB
100
AcDbEntity
  8
001
 62
    40
370
    50
100
AcDbVertex
100
AcDb2dVertex
 10
52.889698
 20
48.58475
 30
0.0
  0
VERTEX
  5
BF
330
BB
100
AcDbEntity
  8
001
 62
    40
370
    50
100
AcDbVertex
100
AcDb2dVertex
 10
52.93435
 20
48.600693
 30
0.0
  0
VERTEX
  5
C0
330
BB
100
AcDbEntity
  8
001
 62
    40
370
    50
100
AcDbVertex
100
AcDb2dVertex
 10
53.128196
 20
48.671459
 30
0.0
  0
VERTEX
  5
C1
330
BB
100
AcDbEntity
  8
001
 62
    40
370
    50
100
AcDbVertex
100
AcDb2dVertex
 10
53.297264
 20
48.736126
 30
0.0
  0
VERTEX
  5
C2
330
BB
100
AcDbEntity
  8
001
 62
    40
370
    50
100
AcDbVertex
100
AcDb2dVertex
 10
53.475483
 20
48.806753
 30
0.0
  0
VERTEX
  5
C3
330
BB
100
AcDbEntity
  8
001
 62
    40
370
    50
100
AcDbVertex
100
AcDb2dVertex
 10
53.656792
 20
48.880307
 30
0.0
  0
VERTEX
  5
C4
330
BB
100
AcDbEntity
  8
001
 62
    40
370
    50
100
AcDbVertex
100
AcDb2dVertex
 10
53.979013
 20
49.016663
 30
0.0
  0
VERTEX
  5
C5
330
BB
100
AcDbEntity
  8
001
 62
    40
370
    50
100
AcDbVertex
100
AcDb2dVertex
 10
54.322429
 20
49.177259
 30
0.0
  0
VERTEX
  5
C6
330
BB
100
AcDbEntity
  8
001
 62
    40
370
    50
100
AcDbVertex
100
AcDb2dVertex
 10
54.577731
 20
49.306459
 30
0.0
  0
VERTEX
  5
C7
330
BB
100
AcDbEntity
  8
001
 62
    40
370
    50
100
AcDbVertex
100
AcDb2dVertex
 10
54.759609
 20
49.403199
 30
0.0
  0
SEQEND
  5
BC
330
BB
100
AcDbEntity
  8
001
370
    50
  0
LINE
  5
C8
330
64
100
AcDbEntity
  8
001
 62
    40
370
    50
100
AcDbLine
 10
50.712165
 20
57.162571
 30
0.0
 11
50.737687
 21
57.097719
 31
0.0
  0
LINE
  5
C9
330
64
100
AcDbEntity
  8
001
 62
    40
370
    50
100
AcDbLine
 10
54.823209
 20
52.169457
 30
0.0
 11
54.759829
 21
52.276366
 31
0.0
  0
POLYLINE
  5
CA
330
64
100
AcDbEntity
  8
001
 62
    40
370
    50
100
AcDb2dPolyline
 66
     1
 10
0.0
 20
0.0
 30
0.0
  0
VERTEX
  5
CC
330
CA
100
AcDbEntity
  8
001
 62
    40
370
    50
100
AcDbVertex
100
AcDb2dVertex
 10
55.066243
 20
49.785775
 30
0.0
  0
VERTEX
  5
CD
330
CA
100
AcDbEntity
  8
001
 62
    40
370
    50
100
AcDbVertex
100
AcDb2dVertex
 10
55.069089
 20
49.824224
 30
0.0
  0
VERTEX
  5
CE
330
CA
100
AcDbEntity
  8
001
 62
    40
370
    50
100
AcDbVertex
100
AcDb2dVertex
 10
55.069213
 20
49.86277
 30
0.0
  0
VERTEX
  5
CF
330
CA
100
AcDbEntity
  8
001
 62
    40
370
    50
100
AcDbVertex
100
AcDb2dVertex
 10
55.062911
 20
49.907457
 30
0.0
  0
VERTEX
  5
D0
330
CA
100
AcDbEntity
  8
001
 62
    40
370
    50
100
AcDbVertex
100
AcDb2dVertex
 10
55.04851
 20
49.950021
 30
0.0
  0
VERTEX
  5
D1
330
CA
100
AcDbEntity
  8
001
 62
    40
370
    50
100
AcDbVertex
100
AcDb2dVertex
 10
55.033719
 20
49.977442
 30
0.0
  0
VERTEX
  5
D2
330
CA
100
AcDbEntity
  8
001
 62
    40
370
    50
100
AcDbVertex
100
AcDb2dVertex
 10
55.016791
 20
50.00377
 30
0.0
  0
SEQEND
  5
CB
330
CA
100
AcDbEntity
  8
001
370
    50
  0
POLYLINE
  5
D3
330
64
100
AcDbEntity
  8
001
 62
    40
370
    50
100
AcDb2dPolyline
 66
     1
 10
0.0
 20
0.0
 30
0.0
  0
VERTEX
  5
D5
330
D3
100
AcDbEntity
  8
001
 62
    40
370
    50
100
AcDbVertex
100
AcDb2dVertex
 10
54.951371
 20
49.550078
 30
0.0
  0
VERTEX
  5
D6
330
D3
100
AcDbEntity
  8
001
 62
    40
370
    50
100
AcDbVertex
100
AcDb2dVertex
 10
54.966945
 20
49.568618
 30
0.0
  0
VERTEX
  5
D7
330
D3
100
AcDbEntity
  8
001
 62
    40
370
    50
100
AcDbVertex
100
AcDb2dVertex
 10
54.981948
 20
49.587593
 30
0.0
  0
VERTEX
  5
D8
330
D3
100
AcDbEntity
  8
001
 62
    40
370
    50
100
AcDbVertex
100
AcDb2dVertex
 10
55.00642
 20
49.623931
 30
0.0
  0
VERTEX
  5
D9
330
D3
100
AcDbEntity
  8
001
 62
    40
370
    50
100
AcDbVertex
100
AcDb2dVertex
 10
55.027374
 20
49.662528
 30
0.0
  0
VERTEX
  5
DA
330
D3
100
AcDbEntity
  8
001
 62
    40
370
    50
100
AcDbVertex
100
AcDb2dVertex
 10
55.04479
 20
49.702798
 30
0.0
  0
VERTEX
  5
DB
330
D3
100
AcDbEntity
  8
001
 62
    40
370
    50
100
AcDbVertex
100
AcDb2dVertex
 10
55.057833
 20
49.744557
 30
0.0
  0
VERTEX
  5
DC
330
D3
100
AcDbEntity
  8
001
 62
    40
370
    50
100
AcDbVertex
100
AcDb2dVertex
 10
55.062353
 20
49.76509
 30
0.0
  0
VERTEX
  5
DD
330
D3
100
AcDbEntity
  8
001
 62
    40
370
    50
100
AcDbVertex
100
AcDb2dVertex
 10
55.066243
 20
49.785775
 30
0.0
  0
SEQEND
  5
D4
330
D3
100
AcDbEntity
  8
001
370
    50
  0
POLYLINE
  5
DE
330
64
100
AcDbEntity
  8
001
 62
    40
370
    50
100
AcDb2dPolyline
 66
     1
 10
0.0
 20
0.0
 30
0.0
  0
VERTEX
  5
E0
330
DE
100
AcDbEntity
  8
001
 62
    40
370
    50
100
AcDbVertex
100
AcDb2dVertex
 10
53.75127
 20
48.516538
 30
0.0
  0
VERTEX
  5
E1
330
DE
100
AcDbEntity
  8
001
 62
    40
370
    50
100
AcDbVertex
100
AcDb2dVertex
 10
53.864452
 20
48.571344
 30
0.0
  0
VERTEX
  5
E2
330
DE
100
AcDbEntity
  8
001
 62
    40
370
    50
100
AcDbVertex
100
AcDb2dVertex
 10
54.024264
 20
48.661197
 30
0.0
  0
VERTEX
  5
E3
330
DE
100
AcDbEntity
  8
001
 62
    40
370
    50
100
AcDbVertex
100
AcDb2dVertex
 10
54.337753
 20
48.897207
 30
0.0
  0
VERTEX
  5
E4
330
DE
100
AcDbEntity
  8
001
 62
    40
370
    50
100
AcDbVertex
100
AcDb2dVertex
 10
54.531272
 20
49.085955
 30
0.0
  0
SEQEND
  5
DF
330
DE
100
AcDbEntity
  8
001
370
    50
  0
POLYLINE
  5
E5
330
64
100
AcDbEntity
  8
001
 62
    40
370
    50
100
AcDb2dPolyline
 66
     1
 10
0.0
 20
0.0
 30
0.0
  0
VERTEX
  5
E7
330
E5
100
AcDbEntity
  8
001
 62
    40
370
    50
100
AcDbVertex
100
AcDb2dVertex
 10
55.066335
 20
49.786403
 30
0.0
  0
VERTEX
  5
E8
330
E5
100
AcDbEntity
  8
001
 62
    40
370
    50
100
AcDbVertex
100
AcDb2dVertex
 10
55.086207
 20
49.925886
 30
0.0
  0
VERTEX
  5
E9
330
E5
100
AcDbEntity
  8
001
 62
    40
370
    50
100
AcDbVertex
100
AcDb2dVertex
 10
55.106093
 20
50.065366
 30
0.0
  0
VERTEX
  5
EA
330
E5
100
AcDbEntity
  8
001
 62
    40
370
    50
100
AcDbVertex
100
AcDb2dVertex
 10
55.13333
 20
50.256142
 30
0.0
  0
VERTEX
  5
EB
330
E5
100
AcDbEntity
  8
001
 62
    40
370
    50
100
AcDbVertex
100
AcDb2dVertex
 10
55.160593
 20
50.446915
 30
0.0
  0
SEQEND
  5
E6
330
E5
100
AcDbEntity
  8
001
370
    50
  0
POLYLINE
  5
EC
330
64
100
AcDbEntity
  8
001
 62
    40
370
    50
100
AcDb2dPolyline
 66
     1
 10
0.0
 20
0.0
 30
0.0
  0
VERTEX
  5
EE
330
EC
100
AcDbEntity
  8
001
 62
    40
370
    50
100
AcDbVertex
100
AcDb2dVertex
 10
54.530619
 20
49.085233
 30
0.0
  0
VERTEX
  5
EF
330
EC
100
AcDbEntity
  8
001
 62
    40
370
    50
100
AcDbVertex
100
AcDb2dVertex
 10
54.644071
 20
49.210575
 30
0.0
  0
VERTEX
  5
F0
330
EC
100
AcDbEntity
  8
001
 62
    40
370
    50
100
AcDbVertex
100
AcDb2dVertex
 10
54.757524
 20
49.335917
 30
0.0
  0
VERTEX
  5
F1
330
EC
100
AcDbEntity
  8
001
 62
    40
370
    50
100
AcDbVertex
100
AcDb2dVertex
 10
54.85428
 20
49.442812
 30
0.0
  0
VERTEX
  5
F2
330
EC
100
AcDbEntity
  8
001
 62
    40
370
    50
100
AcDbVertex
100
AcDb2dVertex
 10
54.951037
 20
49.549706
 30
0.0
  0
SEQEND
  5
ED
330
EC
100
AcDbEntity
  8
001
370
    50
  0
POLYLINE
  5
F3
330
64
100
AcDbEntity
  8
001
 62
    40
370
    50
100
AcDb2dPolyline
 66
     1
 10
0.0
 20
0.0
 30
0.0
  0
VERTEX
  5
F5
330
F3
100
AcDbEntity
  8
001
 62
    40
370
    50
100
AcDbVertex
100
AcDb2dVertex
 10
55.160462
 20
50.445988
 30
0.0
  0
VERTEX
  5
F6
330
F3
100
AcDbEntity
  8
001
 62
    40
370
    50
100
AcDbVertex
100
AcDb2dVertex
 10
55.176619
 20
50.604806
 30
0.0
  0
VERTEX
  5
F7
330
F3
100
AcDbEntity
  8
001
 62
    40
370
    50
100
AcDbVertex
100
AcDb2dVertex
 10
55.187534
 20
50.82626
 30
0.0
  0
VERTEX
  5
F8
330
F3
100
AcDbEntity
  8
001
 62
    40
370
    50
100
AcDbVertex
100
AcDb2dVertex
 10
55.178841
 20
51.05669
 30
0.0
  0
VERTEX
  5
F9
330
F3
100
AcDbEntity
  8
001
 62
    40
370
    50
100
AcDbVertex
100
AcDb2dVertex
 10
55.152188
 20
51.26038
 30
0.0
  0
VERTEX
  5
FA
330
F3
100
AcDbEntity
  8
001
 62
    40
370
    50
100
AcDbVertex
100
AcDb2dVertex
 10
55.061234
 20
51.649923
 30
0.0
  0
VERTEX
  5
FB
330
F3
100
AcDbEntity
  8
001
 62
    40
370
    50
100
AcDbVertex
100
AcDb2dVertex
 10
54.875837
 20
52.07626
 30
0.0
  0
VERTEX
  5
FC
330
F3
100
AcDbEntity
  8
001
 62
    40
370
    50
100
AcDbVertex
100
AcDb2dVertex
 10
54.845073
 20
52.131519
 30
0.0
  0
VERTEX
  5
FD
330
F3
100
AcDbEntity
  8
001
 62
    40
370
    50
100
AcDbVertex
100
AcDb2dVertex
 10
54.823209
 20
52.169457
 30
0.0
  0
SEQEND
  5
F4
330
F3
100
AcDbEntity
  8
001
370
    50
  0
LINE
  5
FE
330
64
100
AcDbEntity
  8
001
 62
    40
370
    50
100
AcDbLine
 10
47.385366
 20
46.137767
 30
0.0
 11
47.120263
 21
46.019779
 31
0.0
  0
POLYLINE
  5
FF
330
64
100
AcDbEntity
  8
001
 62
    40
370
    50
100
AcDb2dPolyline
 66
     1
 10
0.0
 20
0.0
 30
0.0
  0
VERTEX
  5
101
330
FF
100
AcDbEntity
  8
001
 62
    40
370
    50
100
AcDbVertex
100
AcDb2dVertex
 10
47.385366
 20
46.137767
 30
0.0
  0
VERTEX
  5
102
330
FF
100
AcDbEntity
  8
001
 62
    40
370
    50
100
AcDbVertex
100
AcDb2dVertex
 10
47.416509
 20
46.148824
 30
0.0
  0
VERTEX
  5
103
330
FF
100
AcDbEntity
  8
001
 62
    40
370
    50
100
AcDbVertex
100
AcDb2dVertex
 10
47.461205
 20
46.164787
 30
0.0
  0
VERTEX
  5
104
330
FF
100
AcDbEntity
  8
001
 62
    40
370
    50
100
AcDbVertex
100
AcDb2dVertex
 10
47.657733
 20
46.23675
 30
0.0
  0
VERTEX
  5
105
330
FF
100
AcDbEntity
  8
001
 62
    40
370
    50
100
AcDbVertex
100
AcDb2dVertex
 10
47.824119
 20
46.30022
 30
0.0
  0
VERTEX
  5
106
330
FF
100
AcDbEntity
  8
001
 62
    40
370
    50
100
AcDbVertex
100
AcDb2dVertex
 10
47.990204
 20
46.365429
 30
0.0
  0
VERTEX
  5
107
330
FF
100
AcDbEntity
  8
001
 62
    40
370
    50
100
AcDbVertex
100
AcDb2dVertex
 10
48.183648
 20
46.444401
 30
0.0
  0
VERTEX
  5
108
330
FF
100
AcDbEntity
  8
001
 62
    40
370
    50
100
AcDbVertex
100
AcDb2dVertex
 10
48.239031
 20
46.467558
 30
0.0
  0
VERTEX
  5
109
330
FF
100
AcDbEntity
  8
001
 62
    40
370
    50
100
AcDbVertex
100
AcDb2dVertex
 10
48.277699
 20
46.483836
 30
0.0
  0
SEQEND
  5
100
330
FF
100
AcDbEntity
  8
001
370
    50
  0
LINE
  5
10A
330
64
100
AcDbEntity
  8
001
 62
    40
370
    50
100
AcDbLine
 10
52.858511
 20
48.573674
 30
0.0
 11
52.131006
 21
48.249886
 31
0.0
  0
LINE
  5
10B
330
64
100
AcDbEntity
  8
001
 62
    40
370
    50
100
AcDbLine
 10
48.141398
 20
46.019779
 30
0.0
 11
48.763783
 21
46.296781
 31
0.0
  0
LINE
  5
10C
330
64
100
AcDbEntity
  8
001
 62
    40
370
    50
100
AcDbLine
 10
53.152143
 20
48.249887
 30
0.0
 11
53.75127
 21
48.516538
 31
0.0
  0
POLYLINE
  5
10D
330
64
100
AcDbEntity
  8
001
 62
    40
370
    50
100
AcDb2dPolyline
 66
     1
 10
0.0
 20
0.0
 30
0.0
  0
VERTEX
  5
10F
330
10D
100
AcDbEntity
  8
001
 62
    40
370
    50
100
AcDbVertex
100
AcDb2dVertex
 10
49.407451
 20
47.095503
 30
0.0
  0
VERTEX
  5
110
330
10D
100
AcDbEntity
  8
001
 62
    40
370
    50
100
AcDbVertex
100
AcDb2dVertex
 10
49.401998
 20
47.179347
 30
0.0
  0
VERTEX
  5
111
330
10D
100
AcDbEntity
  8
001
 62
    40
370
    50
100
AcDbVertex
100
AcDb2dVertex
 10
49.390059
 20
47.301476
 30
0.0
  0
VERTEX
  5
112
330
10D
100
AcDbEntity
  8
001
 62
    40
370
    50
100
AcDbVertex
100
AcDb2dVertex
 10
49.320424
 20
47.681171
 30
0.0
  0
VERTEX
  5
113
330
10D
100
AcDbEntity
  8
001
 62
    40
370
    50
100
AcDbVertex
100
AcDb2dVertex
 10
49.251252
 20
47.936994
 30
0.0
  0
SEQEND
  5
10E
330
10D
100
AcDbEntity
  8
001
370
    50
  0
LINE
  5
114
330
64
100
AcDbEntity
  8
001
 62
    40
370
    50
100
AcDbLine
 10
51.881749
 20
49.107737
 30
0.0
 11
49.251252
 21
47.936994
 31
0.0
  0
LINE
  5
115
330
64
100
AcDbEntity
  8
001
 62
    40
370
    50
100
AcDbLine
 10
49.251252
 20
47.936994
 30
0.0
 11
48.356759
 21
49.445834
 31
0.0
  0
POLYLINE
  5
116
330
64
100
AcDbEntity
  8
001
 62
    40
370
    50
100
AcDb2dPolyline
 66
     1
 10
0.0
 20
0.0
 30
0.0
  0
VERTEX
  5
118
330
116
100
AcDbEntity
  8
001
 62
    40
370
    50
100
AcDbVertex
100
AcDb2dVertex
 10
48.356759
 20
49.445834
 30
0.0
  0
VERTEX
  5
119
330
116
100
AcDbEntity
  8
001
 62
    40
370
    50
100
AcDbVertex
100
AcDb2dVertex
 10
48.446736
 20
49.439384
 30
0.0
  0
VERTEX
  5
11A
330
116
100
AcDbEntity
  8
001
 62
    40
370
    50
100
AcDbVertex
100
AcDb2dVertex
 10
48.573146
 20
49.434775
 30
0.0
  0
VERTEX
  5
11B
330
116
100
AcDbEntity
  8
001
 62
    40
370
    50
100
AcDbVertex
100
AcDb2dVertex
 10
48.782632
 20
49.443118
 30
0.0
  0
VERTEX
  5
11C
330
116
100
AcDbEntity
  8
001
 62
    40
370
    50
100
AcDbVertex
100
AcDb2dVertex
 10
48.969065
 20
49.471996
 30
0.0
  0
VERTEX
  5
11D
330
116
100
AcDbEntity
  8
001
 62
    40
370
    50
100
AcDbVertex
100
AcDb2dVertex
 10
49.160565
 20
49.518296
 30
0.0
  0
VERTEX
  5
11E
330
116
100
AcDbEntity
  8
001
 62
    40
370
    50
100
AcDbVertex
100
AcDb2dVertex
 10
49.352954
 20
49.582528
 30
0.0
  0
VERTEX
  5
11F
330
116
100
AcDbEntity
  8
001
 62
    40
370
    50
100
AcDbVertex
100
AcDb2dVertex
 10
49.538476
 20
49.665824
 30
0.0
  0
VERTEX
  5
120
330
116
100
AcDbEntity
  8
001
 62
    40
370
    50
100
AcDbVertex
100
AcDb2dVertex
 10
49.71315
 20
49.763013
 30
0.0
  0
VERTEX
  5
121
330
116
100
AcDbEntity
  8
001
 62
    40
370
    50
100
AcDbVertex
100
AcDb2dVertex
 10
50.176704
 20
50.126349
 30
0.0
  0
VERTEX
  5
122
330
116
100
AcDbEntity
  8
001
 62
    40
370
    50
100
AcDbVertex
100
AcDb2dVertex
 10
50.547691
 20
50.659775
 30
0.0
  0
VERTEX
  5
123
330
116
100
AcDbEntity
  8
001
 62
    40
370
    50
100
AcDbVertex
100
AcDb2dVertex
 10
50.655591
 20
50.894588
 30
0.0
  0
VERTEX
  5
124
330
116
100
AcDbEntity
  8
001
 62
    40
370
    50
100
AcDbVertex
100
AcDb2dVertex
 10
50.721619
 20
51.064655
 30
0.0
  0
SEQEND
  5
117
330
116
100
AcDbEntity
  8
001
370
    50
  0
POLYLINE
  5
125
330
64
100
AcDbEntity
  8
001
 62
    40
370
    50
100
AcDb2dPolyline
 66
     1
 10
0.0
 20
0.0
 30
0.0
  0
VERTEX
  5
127
330
125
100
AcDbEntity
  8
001
 62
    40
370
    50
100
AcDbVertex
100
AcDb2dVertex
 10
46.424673
 20
52.704895
 30
0.0
  0
VERTEX
  5
128
330
125
100
AcDbEntity
  8
001
 62
    40
370
    50
100
AcDbVertex
100
AcDb2dVertex
 10
46.457359
 20
52.548552
 30
0.0
  0
VERTEX
  5
129
330
125
100
AcDbEntity
  8
001
 62
    40
370
    50
100
AcDbVertex
100
AcDb2dVertex
 10
46.489846
 20
52.392166
 30
0.0
  0
VERTEX
  5
12A
330
125
100
AcDbEntity
  8
001
 62
    40
370
    50
100
AcDbVertex
100
AcDb2dVertex
 10
46.52376
 20
52.228442
 30
0.0
  0
VERTEX
  5
12B
330
125
100
AcDbEntity
  8
001
 62
    40
370
    50
100
AcDbVertex
100
AcDb2dVertex
 10
46.55903
 20
52.065006
 30
0.0
  0
VERTEX
  5
12C
330
125
100
AcDbEntity
  8
001
 62
    40
370
    50
100
AcDbVertex
100
AcDb2dVertex
 10
46.597094
 20
51.9029
 30
0.0
  0
VERTEX
  5
12D
330
125
100
AcDbEntity
  8
001
 62
    40
370
    50
100
AcDbVertex
100
AcDb2dVertex
 10
46.638924
 20
51.741733
 30
0.0
  0
VERTEX
  5
12E
330
125
100
AcDbEntity
  8
001
 62
    40
370
    50
100
AcDbVertex
100
AcDb2dVertex
 10
46.686077
 20
51.578658
 30
0.0
  0
VERTEX
  5
12F
330
125
100
AcDbEntity
  8
001
 62
    40
370
    50
100
AcDbVertex
100
AcDb2dVertex
 10
46.738263
 20
51.417086
 30
0.0
  0
VERTEX
  5
130
330
125
100
AcDbEntity
  8
001
 62
    40
370
    50
100
AcDbVertex
100
AcDb2dVertex
 10
46.79606
 20
51.257612
 30
0.0
  0
VERTEX
  5
131
330
125
100
AcDbEntity
  8
001
 62
    40
370
    50
100
AcDbVertex
100
AcDb2dVertex
 10
46.861009
 20
51.101011
 30
0.0
  0
VERTEX
  5
132
330
125
100
AcDbEntity
  8
001
 62
    40
370
    50
100
AcDbVertex
100
AcDb2dVertex
 10
46.908174
 20
50.999654
 30
0.0
  0
VERTEX
  5
133
330
125
100
AcDbEntity
  8
001
 62
    40
370
    50
100
AcDbVertex
100
AcDb2dVertex
 10
46.957261
 20
50.899168
 30
0.0
  0
SEQEND
  5
126
330
125
100
AcDbEntity
  8
001
370
    50
  0
POLYLINE
  5
134
330
64
100
AcDbEntity
  8
001
 62
    40
370
    50
100
AcDb2dPolyline
 66
     1
 10
0.0
 20
0.0
 30
0.0
  0
VERTEX
  5
136
330
134
100
AcDbEntity
  8
001
 62
    40
370
    50
100
AcDbVertex
100
AcDb2dVertex
 10
46.957261
 20
50.899168
 30
0.0
  0
VERTEX
  5
137
330
134
100
AcDbEntity
  8
001
 62
    40
370
    50
100
AcDbVertex
100
AcDb2dVertex
 10
46.97508
 20
50.865791
 30
0.0
  0
VERTEX
  5
138
330
134
100
AcDbEntity
  8
001
 62
    40
370
    50
100
AcDbVertex
100
AcDb2dVertex
 10
46.993073
 20
50.832506
 30
0.0
  0
VERTEX
  5
139
330
134
100
AcDbEntity
  8
001
 62
    40
370
    50
100
AcDbVertex
100
AcDb2dVertex
 10
47.066723
 20
50.704018
 30
0.0
  0
VERTEX
  5
13A
330
134
100
AcDbEntity
  8
001
 62
    40
370
    50
100
AcDbVertex
100
AcDb2dVertex
 10
47.14575
 20
50.578738
 30
0.0
  0
VERTEX
  5
13B
330
134
100
AcDbEntity
  8
001
 62
    40
370
    50
100
AcDbVertex
100
AcDb2dVertex
 10
47.228073
 20
50.46001
 30
0.0
  0
VERTEX
  5
13C
330
134
100
AcDbEntity
  8
001
 62
    40
370
    50
100
AcDbVertex
100
AcDb2dVertex
 10
47.315643
 20
50.345119
 30
0.0
  0
VERTEX
  5
13D
330
134
100
AcDbEntity
  8
001
 62
    40
370
    50
100
AcDbVertex
100
AcDb2dVertex
 10
47.399531
 20
50.244596
 30
0.0
  0
VERTEX
  5
13E
330
134
100
AcDbEntity
  8
001
 62
    40
370
    50
100
AcDbVertex
100
AcDb2dVertex
 10
47.487404
 20
50.147527
 30
0.0
  0
VERTEX
  5
13F
330
134
100
AcDbEntity
  8
001
 62
    40
370
    50
100
AcDbVertex
100
AcDb2dVertex
 10
47.575884
 20
50.056857
 30
0.0
  0
VERTEX
  5
140
330
134
100
AcDbEntity
  8
001
 62
    40
370
    50
100
AcDbVertex
100
AcDb2dVertex
 10
47.66752
 20
49.969382
 30
0.0
  0
VERTEX
  5
141
330
134
100
AcDbEntity
  8
001
 62
    40
370
    50
100
AcDbVertex
100
AcDb2dVertex
 10
47.757507
 20
49.88906
 30
0.0
  0
VERTEX
  5
142
330
134
100
AcDbEntity
  8
001
 62
    40
370
    50
100
AcDbVertex
100
AcDb2dVertex
 10
47.849984
 20
49.811623
 30
0.0
  0
VERTEX
  5
143
330
134
100
AcDbEntity
  8
001
 62
    40
370
    50
100
AcDbVertex
100
AcDb2dVertex
 10
47.938108
 20
49.742081
 30
0.0
  0
VERTEX
  5
144
330
134
100
AcDbEntity
  8
001
 62
    40
370
    50
100
AcDbVertex
100
AcDb2dVertex
 10
48.027908
 20
49.674717
 30
0.0
  0
VERTEX
  5
145
330
134
100
AcDbEntity
  8
001
 62
    40
370
    50
100
AcDbVertex
100
AcDb2dVertex
 10
48.112854
 20
49.613569
 30
0.0
  0
VERTEX
  5
146
330
134
100
AcDbEntity
  8
001
 62
    40
370
    50
100
AcDbVertex
100
AcDb2dVertex
 10
48.198662
 20
49.553637
 30
0.0
  0
VERTEX
  5
147
330
134
100
AcDbEntity
  8
001
 62
    40
370
    50
100
AcDbVertex
100
AcDb2dVertex
 10
48.277595
 20
49.499566
 30
0.0
  0
VERTEX
  5
148
330
134
100
AcDbEntity
  8
001
 62
    40
370
    50
100
AcDbVertex
100
AcDb2dVertex
 10
48.356759
 20
49.445834
 30
0.0
  0
SEQEND
  5
135
330
134
100
AcDbEntity
  8
001
370
    50
  0
POLYLINE
  5
149
330
64
100
AcDbEntity
  8
001
 62
    40
370
    50
100
AcDb2dPolyline
 66
     1
 10
0.0
 20
0.0
 30
0.0
  0
VERTEX
  5
14B
330
149
100
AcDbEntity
  8
001
 62
    40
370
    50
100
AcDbVertex
100
AcDb2dVertex
 10
48.789533
 20
54.323716
 30
0.0
  0
VERTEX
  5
14C
330
149
100
AcDbEntity
  8
001
 62
    40
370
    50
100
AcDbVertex
100
AcDb2dVertex
 10
48.699556
 20
54.330166
 30
0.0
  0
VERTEX
  5
14D
330
149
100
AcDbEntity
  8
001
 62
    40
370
    50
100
AcDbVertex
100
AcDb2dVertex
 10
48.573146
 20
54.334775
 30
0.0
  0
VERTEX
  5
14E
330
149
100
AcDbEntity
  8
001
 62
    40
370
    50
100
AcDbVertex
100
AcDb2dVertex
 10
48.36366
 20
54.326432
 30
0.0
  0
VERTEX
  5
14F
330
149
100
AcDbEntity
  8
001
 62
    40
370
    50
100
AcDbVertex
100
AcDb2dVertex
 10
48.177227
 20
54.297554
 30
0.0
  0
VERTEX
  5
150
330
149
100
AcDbEntity
  8
001
 62
    40
370
    50
100
AcDbVertex
100
AcDb2dVertex
 10
47.985726
 20
54.251254
 30
0.0
  0
VERTEX
  5
151
330
149
100
AcDbEntity
  8
001
 62
    40
370
    50
100
AcDbVertex
100
AcDb2dVertex
 10
47.793337
 20
54.187022
 30
0.0
  0
VERTEX
  5
152
330
149
100
AcDbEntity
  8
001
 62
    40
370
    50
100
AcDbVertex
100
AcDb2dVertex
 10
47.607815
 20
54.103726
 30
0.0
  0
VERTEX
  5
153
330
149
100
AcDbEntity
  8
001
 62
    40
370
    50
100
AcDbVertex
100
AcDb2dVertex
 10
47.433142
 20
54.006537
 30
0.0
  0
VERTEX
  5
154
330
149
100
AcDbEntity
  8
001
 62
    40
370
    50
100
AcDbVertex
100
AcDb2dVertex
 10
46.969587
 20
53.643201
 30
0.0
  0
VERTEX
  5
155
330
149
100
AcDbEntity
  8
001
 62
    40
370
    50
100
AcDbVertex
100
AcDb2dVertex
 10
46.598601
 20
53.109775
 30
0.0
  0
VERTEX
  5
156
330
149
100
AcDbEntity
  8
001
 62
    40
370
    50
100
AcDbVertex
100
AcDb2dVertex
 10
46.4907
 20
52.874962
 30
0.0
  0
VERTEX
  5
157
330
149
100
AcDbEntity
  8
001
 62
    40
370
    50
100
AcDbVertex
100
AcDb2dVertex
 10
46.424673
 20
52.704895
 30
0.0
  0
SEQEND
  5
14A
330
149
100
AcDbEntity
  8
001
370
    50
  0
LINE
  5
158
330
64
100
AcDbEntity
  8
001
 62
    40
370
    50
100
AcDbLine
 10
50.046404
 20
57.631783
 30
0.0
 11
50.311507
 21
57.749771
 31
0.0
  0
POLYLINE
  5
159
330
64
100
AcDbEntity
  8
001
 62
    40
370
    50
100
AcDb2dPolyline
 66
     1
 10
0.0
 20
0.0
 30
0.0
  0
VERTEX
  5
15B
330
159
100
AcDbEntity
  8
001
 62
    40
370
    50
100
AcDbVertex
100
AcDb2dVertex
 10
50.356144
 20
57.76311
 30
0.0
  0
VERTEX
  5
15C
330
159
100
AcDbEntity
  8
001
 62
    40
370
    50
100
AcDbVertex
100
AcDb2dVertex
 10
50.346946
 20
57.761364
 30
0.0
  0
VERTEX
  5
15D
330
159
100
AcDbEntity
  8
001
 62
    40
370
    50
100
AcDbVertex
100
AcDb2dVertex
 10
50.333704
 20
57.758012
 30
0.0
  0
VERTEX
  5
15E
330
159
100
AcDbEntity
  8
001
 62
    40
370
    50
100
AcDbVertex
100
AcDb2dVertex
 10
50.320415
 20
57.753439
 30
0.0
  0
VERTEX
  5
15F
330
159
100
AcDbEntity
  8
001
 62
    40
370
    50
100
AcDbVertex
100
AcDb2dVertex
 10
50.311507
 20
57.749771
 30
0.0
  0
SEQEND
  5
15A
330
159
100
AcDbEntity
  8
001
370
    50
  0
POLYLINE
  5
160
330
64
100
AcDbEntity
  8
001
 62
    40
370
    50
100
AcDb2dPolyline
 66
     1
 10
0.0
 20
0.0
 30
0.0
  0
VERTEX
  5
162
330
160
100
AcDbEntity
  8
001
 62
    40
370
    50
100
AcDbVertex
100
AcDb2dVertex
 10
45.264543
 20
54.661813
 30
0.0
  0
VERTEX
  5
163
330
160
100
AcDbEntity
  8
001
 62
    40
370
    50
100
AcDbVertex
100
AcDb2dVertex
 10
45.128124
 20
54.789409
 30
0.0
  0
VERTEX
  5
164
330
160
100
AcDbEntity
  8
001
 62
    40
370
    50
100
AcDbVertex
100
AcDb2dVertex
 10
44.918955
 20
54.964102
 30
0.0
  0
VERTEX
  5
165
330
160
100
AcDbEntity
  8
001
 62
    40
370
    50
100
AcDbVertex
100
AcDb2dVertex
 10
44.71716
 20
55.106686
 30
0.0
  0
VERTEX
  5
166
330
160
100
AcDbEntity
  8
001
 62
    40
370
    50
100
AcDbVertex
100
AcDb2dVertex
 10
44.573259
 20
55.195876
 30
0.0
  0
SEQEND
  5
161
330
160
100
AcDbEntity
  8
001
370
    50
  0
LINE
  5
167
330
64
100
AcDbEntity
  8
001
 62
    40
370
    50
100
AcDbLine
 10
46.424673
 20
52.704895
 30
0.0
 11
45.264543
 21
54.661813
 31
0.0
  0
POLYLINE
  5
168
330
64
100
AcDbEntity
  8
001
 62
    40
370
    50
100
AcDb2dPolyline
 66
     1
 10
0.0
 20
0.0
 30
0.0
  0
VERTEX
  5
16A
330
168
100
AcDbEntity
  8
001
 62
    40
370
    50
100
AcDbVertex
100
AcDb2dVertex
 10
46.408604
 20
46.67183
 30
0.0
  0
VERTEX
  5
16B
330
168
100
AcDbEntity
  8
001
 62
    40
370
    50
100
AcDbVertex
100
AcDb2dVertex
 10
46.60902
 20
46.544157
 30
0.0
  0
VERTEX
  5
16C
330
168
100
AcDbEntity
  8
001
 62
    40
370
    50
100
AcDbVertex
100
AcDb2dVertex
 10
46.908881
 20
46.369541
 30
0.0
  0
VERTEX
  5
16D
330
168
100
AcDbEntity
  8
001
 62
    40
370
    50
100
AcDbVertex
100
AcDb2dVertex
 10
47.189336
 20
46.227029
 30
0.0
  0
VERTEX
  5
16E
330
168
100
AcDbEntity
  8
001
 62
    40
370
    50
100
AcDbVertex
100
AcDb2dVertex
 10
47.385366
 20
46.137767
 30
0.0
  0
SEQEND
  5
169
330
168
100
AcDbEntity
  8
001
370
    50
  0
POLYLINE
  5
16F
330
64
100
AcDbEntity
  8
001
 62
    40
370
    50
100
AcDb2dPolyline
 66
     1
 10
0.0
 20
0.0
 30
0.0
  0
VERTEX
  5
171
330
16F
100
AcDbEntity
  8
001
 62
    40
370
    50
100
AcDbVertex
100
AcDb2dVertex
 10
42.546029
 20
54.282929
 30
0.0
  0
VERTEX
  5
172
330
16F
100
AcDbEntity
  8
001
 62
    40
370
    50
100
AcDbVertex
100
AcDb2dVertex
 10
42.50594
 20
54.113639
 30
0.0
  0
VERTEX
  5
173
330
16F
100
AcDbEntity
  8
001
 62
    40
370
    50
100
AcDbVertex
100
AcDb2dVertex
 10
42.461018
 20
53.86368
 30
0.0
  0
VERTEX
  5
174
330
16F
100
AcDbEntity
  8
001
 62
    40
370
    50
100
AcDbVertex
100
AcDb2dVertex
 10
42.432027
 20
53.586999
 30
0.0
  0
VERTEX
  5
175
330
16F
100
AcDbEntity
  8
001
 62
    40
370
    50
100
AcDbVertex
100
AcDb2dVertex
 10
42.421895
 20
53.396649
 30
0.0
  0
SEQEND
  5
170
330
16F
100
AcDbEntity
  8
001
370
    50
  0
POLYLINE
  5
176
330
64
100
AcDbEntity
  8
001
 62
    40
370
    50
100
AcDb2dPolyline
 66
     1
 10
0.0
 20
0.0
 30
0.0
  0
VERTEX
  5
178
330
176
100
AcDbEntity
  8
001
 62
    40
370
    50
100
AcDbVertex
100
AcDb2dVertex
 10
42.746701
 20
54.366351
 30
0.0
  0
VERTEX
  5
179
330
176
100
AcDbEntity
  8
001
 62
    40
370
    50
100
AcDbVertex
100
AcDb2dVertex
 10
42.695861
 20
54.34678
 30
0.0
  0
VERTEX
  5
17A
330
176
100
AcDbEntity
  8
001
 62
    40
370
    50
100
AcDbVertex
100
AcDb2dVertex
 10
42.645325
 20
54.326478
 30
0.0
  0
VERTEX
  5
17B
330
176
100
AcDbEntity
  8
001
 62
    40
370
    50
100
AcDbVertex
100
AcDb2dVertex
 10
42.595527
 20
54.305065
 30
0.0
  0
VERTEX
  5
17C
330
176
100
AcDbEntity
  8
001
 62
    40
370
    50
100
AcDbVertex
100
AcDb2dVertex
 10
42.546029
 20
54.282929
 30
0.0
  0
SEQEND
  5
177
330
176
100
AcDbEntity
  8
001
370
    50
  0
POLYLINE
  5
17D
330
64
100
AcDbEntity
  8
001
 62
    40
370
    50
100
AcDb2dPolyline
 66
     1
 10
0.0
 20
0.0
 30
0.0
  0
VERTEX
  5
17F
330
17D
100
AcDbEntity
  8
001
 62
    40
370
    50
100
AcDbVertex
100
AcDb2dVertex
 10
42.746701
 20
54.366351
 30
0.0
  0
VERTEX
  5
180
330
17D
100
AcDbEntity
  8
001
 62
    40
370
    50
100
AcDbVertex
100
AcDb2dVertex
 10
42.847456
 20
54.404016
 30
0.0
  0
VERTEX
  5
181
330
17D
100
AcDbEntity
  8
001
 62
    40
370
    50
100
AcDbVertex
100
AcDb2dVertex
 10
42.98815
 20
54.457578
 30
0.0
  0
VERTEX
  5
182
330
17D
100
AcDbEntity
  8
001
 62
    40
370
    50
100
AcDbVertex
100
AcDb2dVertex
 10
43.17945
 20
54.532961
 30
0.0
  0
VERTEX
  5
183
330
17D
100
AcDbEntity
  8
001
 62
    40
370
    50
100
AcDbVertex
100
AcDb2dVertex
 10
43.347678
 20
54.601759
 30
0.0
  0
VERTEX
  5
184
330
17D
100
AcDbEntity
  8
001
 62
    40
370
    50
100
AcDbVertex
100
AcDb2dVertex
 10
43.663757
 20
54.735799
 30
0.0
  0
VERTEX
  5
185
330
17D
100
AcDbEntity
  8
001
 62
    40
370
    50
100
AcDbVertex
100
AcDb2dVertex
 10
44.013315
 20
54.898711
 30
0.0
  0
VERTEX
  5
186
330
17D
100
AcDbEntity
  8
001
 62
    40
370
    50
100
AcDbVertex
100
AcDb2dVertex
 10
44.341234
 20
55.06727
 30
0.0
  0
VERTEX
  5
187
330
17D
100
AcDbEntity
  8
001
 62
    40
370
    50
100
AcDbVertex
100
AcDb2dVertex
 10
44.573259
 20
55.195876
 30
0.0
  0
SEQEND
  5
17E
330
17D
100
AcDbEntity
  8
001
370
    50
  0
LINE
  5
188
330
64
100
AcDbEntity
  8
001
 62
    40
370
    50
100
AcDbLine
 10
45.264543
 20
54.661813
 30
0.0
 11
47.89504
 21
55.832556
 31
0.0
  0
POLYLINE
  5
189
330
64
100
AcDbEntity
  8
001
 62
    40
370
    50
100
AcDb2dPolyline
 66
     1
 10
0.0
 20
0.0
 30
0.0
  0
VERTEX
  5
18B
330
189
100
AcDbEntity
  8
001
 62
    40
370
    50
100
AcDbVertex
100
AcDb2dVertex
 10
50.365636
 20
50.784157
 30
0.0
  0
VERTEX
  5
18C
330
189
100
AcDbEntity
  8
001
 62
    40
370
    50
100
AcDbVertex
100
AcDb2dVertex
 10
50.40312
 20
50.844558
 30
0.0
  0
VERTEX
  5
18D
330
189
100
AcDbEntity
  8
001
 62
    40
370
    50
100
AcDbVertex
100
AcDb2dVertex
 10
50.453946
 20
50.932275
 30
0.0
  0
VERTEX
  5
18E
330
189
100
AcDbEntity
  8
001
 62
    40
370
    50
100
AcDbVertex
100
AcDb2dVertex
 10
50.595356
 20
51.250948
 30
0.0
  0
VERTEX
  5
18F
330
189
100
AcDbEntity
  8
001
 62
    40
370
    50
100
AcDbVertex
100
AcDb2dVertex
 10
50.664526
 20
51.553975
 30
0.0
  0
VERTEX
  5
190
330
189
100
AcDbEntity
  8
001
 62
    40
370
    50
100
AcDbVertex
100
AcDb2dVertex
 10
50.683979
 20
51.71683
 30
0.0
  0
VERTEX
  5
191
330
189
100
AcDbEntity
  8
001
 62
    40
370
    50
100
AcDbVertex
100
AcDb2dVertex
 10
50.691459
 20
51.884775
 30
0.0
  0
VERTEX
  5
192
330
189
100
AcDbEntity
  8
001
 62
    40
370
    50
100
AcDbVertex
100
AcDb2dVertex
 10
50.683979
 20
52.05272
 30
0.0
  0
VERTEX
  5
193
330
189
100
AcDbEntity
  8
001
 62
    40
370
    50
100
AcDbVertex
100
AcDb2dVertex
 10
50.664526
 20
52.215575
 30
0.0
  0
VERTEX
  5
194
330
189
100
AcDbEntity
  8
001
 62
    40
370
    50
100
AcDbVertex
100
AcDb2dVertex
 10
50.595356
 20
52.518602
 30
0.0
  0
VERTEX
  5
195
330
189
100
AcDbEntity
  8
001
 62
    40
370
    50
100
AcDbVertex
100
AcDb2dVertex
 10
50.453946
 20
52.837275
 30
0.0
  0
VERTEX
  5
196
330
189
100
AcDbEntity
  8
001
 62
    40
370
    50
100
AcDbVertex
100
AcDb2dVertex
 10
50.403115
 20
52.924999
 30
0.0
  0
VERTEX
  5
197
330
189
100
AcDbEntity
  8
001
 62
    40
370
    50
100
AcDbVertex
100
AcDb2dVertex
 10
50.365627
 20
52.985406
 30
0.0
  0
SEQEND
  5
18A
330
189
100
AcDbEntity
  8
001
370
    50
  0
LINE
  5
198
330
64
100
AcDbEntity
  8
001
 62
    40
370
    50
100
AcDbLine
 10
44.573259
 20
55.195876
 30
0.0
 11
48.022542
 21
56.731032
 31
0.0
  0
POLYLINE
  5
199
330
64
100
AcDbEntity
  8
001
 62
    40
370
    50
100
AcDb2dPolyline
 66
     1
 10
0.0
 20
0.0
 30
0.0
  0
VERTEX
  5
19B
330
199
100
AcDbEntity
  8
001
 62
    40
370
    50
100
AcDbVertex
100
AcDb2dVertex
 10
47.046443
 20
46.004557
 30
0.0
  0
VERTEX
  5
19C
330
199
100
AcDbEntity
  8
001
 62
    40
370
    50
100
AcDbVertex
100
AcDb2dVertex
 10
47.064087
 20
46.005773
 30
0.0
  0
VERTEX
  5
19D
330
199
100
AcDbEntity
  8
001
 62
    40
370
    50
100
AcDbVertex
100
AcDb2dVertex
 10
47.08717
 20
46.008928
 30
0.0
  0
VERTEX
  5
19E
330
199
100
AcDbEntity
  8
001
 62
    40
370
    50
100
AcDbVertex
100
AcDb2dVertex
 10
47.10254
 20
46.012755
 30
0.0
  0
VERTEX
  5
19F
330
199
100
AcDbEntity
  8
001
 62
    40
370
    50
100
AcDbVertex
100
AcDb2dVertex
 10
47.118765
 20
46.019121
 30
0.0
  0
VERTEX
  5
1A0
330
199
100
AcDbEntity
  8
001
 62
    40
370
    50
100
AcDbVertex
100
AcDb2dVertex
 10
47.119653
 20
46.01951
 30
0.0
  0
VERTEX
  5
1A1
330
199
100
AcDbEntity
  8
001
 62
    40
370
    50
100
AcDbVertex
100
AcDb2dVertex
 10
47.120263
 20
46.019779
 30
0.0
  0
SEQEND
  5
19A
330
199
100
AcDbEntity
  8
001
370
    50
  0
LINE
  5
1A2
330
64
100
AcDbEntity
  8
001
 62
    40
370
    50
100
AcDbLine
 10
46.863857
 20
46.097101
 30
0.0
 11
46.408604
 21
46.67183
 31
0.0
  0
POLYLINE
  5
1A3
330
64
100
AcDbEntity
  8
001
 62
    40
370
    50
100
AcDb2dPolyline
 66
     1
 10
0.0
 20
0.0
 30
0.0
  0
VERTEX
  5
1A5
330
1A3
100
AcDbEntity
  8
001
 62
    40
370
    50
100
AcDbVertex
100
AcDb2dVertex
 10
48.070176
 20
46.004556
 30
0.0
  0
VERTEX
  5
1A6
330
1A3
100
AcDbEntity
  8
001
 62
    40
370
    50
100
AcDbVertex
100
AcDb2dVertex
 10
48.084037
 20
46.005403
 30
0.0
  0
VERTEX
  5
1A7
330
1A3
100
AcDbEntity
  8
001
 62
    40
370
    50
100
AcDbVertex
100
AcDb2dVertex
 10
48.102495
 20
46.007595
 30
0.0
  0
VERTEX
  5
1A8
330
1A3
100
AcDbEntity
  8
001
 62
    40
370
    50
100
AcDbVertex
100
AcDb2dVertex
 10
48.118003
 20
46.010957
 30
0.0
  0
VERTEX
  5
1A9
330
1A3
100
AcDbEntity
  8
001
 62
    40
370
    50
100
AcDbVertex
100
AcDb2dVertex
 10
48.133833
 20
46.016618
 30
0.0
  0
VERTEX
  5
1AA
330
1A3
100
AcDbEntity
  8
001
 62
    40
370
    50
100
AcDbVertex
100
AcDb2dVertex
 10
48.138281
 20
46.018449
 30
0.0
  0
VERTEX
  5
1AB
330
1A3
100
AcDbEntity
  8
001
 62
    40
370
    50
100
AcDbVertex
100
AcDb2dVertex
 10
48.141398
 20
46.019779
 30
0.0
  0
SEQEND
  5
1A4
330
1A3
100
AcDbEntity
  8
001
370
    50
  0
POLYLINE
  5
1AC
330
64
100
AcDbEntity
  8
001
 62
    40
370
    50
100
AcDb2dPolyline
 66
     1
 10
0.0
 20
0.0
 30
0.0
  0
VERTEX
  5
1AE
330
1AC
100
AcDbEntity
  8
001
 62
    40
370
    50
100
AcDbVertex
100
AcDb2dVertex
 10
46.863857
 20
46.097101
 30
0.0
  0
VERTEX
  5
1AF
330
1AC
100
AcDbEntity
  8
001
 62
    40
370
    50
100
AcDbVertex
100
AcDb2dVertex
 10
46.873649
 20
46.085731
 30
0.0
  0
VERTEX
  5
1B0
330
1AC
100
AcDbEntity
  8
001
 62
    40
370
    50
100
AcDbVertex
100
AcDb2dVertex
 10
46.887988
 20
46.070728
 30
0.0
  0
VERTEX
  5
1B1
330
1AC
100
AcDbEntity
  8
001
 62
    40
370
    50
100
AcDbVertex
100
AcDb2dVertex
 10
46.90281
 20
46.057604
 30
0.0
  0
VERTEX
  5
1B2
330
1AC
100
AcDbEntity
  8
001
 62
    40
370
    50
100
AcDbVertex
100
AcDb2dVertex
 10
46.91713
 20
46.046952
 30
0.0
  0
VERTEX
  5
1B3
330
1AC
100
AcDbEntity
  8
001
 62
    40
370
    50
100
AcDbVertex
100
AcDb2dVertex
 10
46.947091
 20
46.028533
 30
0.0
  0
VERTEX
  5
1B4
330
1AC
100
AcDbEntity
  8
001
 62
    40
370
    50
100
AcDbVertex
100
AcDb2dVertex
 10
46.983351
 20
46.014344
 30
0.0
  0
VERTEX
  5
1B5
330
1AC
100
AcDbEntity
  8
001
 62
    40
370
    50
100
AcDbVertex
100
AcDb2dVertex
 10
47.019743
 20
46.007005
 30
0.0
  0
VERTEX
  5
1B6
330
1AC
100
AcDbEntity
  8
001
 62
    40
370
    50
100
AcDbVertex
100
AcDb2dVertex
 10
47.046443
 20
46.004557
 30
0.0
  0
SEQEND
  5
1AD
330
1AC
100
AcDbEntity
  8
001
370
    50
  0
LINE
  5
1B7
330
64
100
AcDbEntity
  8
001
 62
    40
370
    50
100
AcDbLine
 10
47.046443
 20
46.004557
 30
0.0
 11
48.070176
 21
46.004556
 31
0.0
  0
POLYLINE
  5
1B8
330
64
100
AcDbEntity
  8
001
 62
    40
370
    50
100
AcDb2dPolyline
 66
     1
 10
0.0
 20
0.0
 30
0.0
  0
VERTEX
  5
1BA
330
1B8
100
AcDbEntity
  8
001
 62
    40
370
    50
100
AcDbVertex
100
AcDb2dVertex
 10
42.546029
 20
54.282929
 30
0.0
  0
VERTEX
  5
1BB
330
1B8
100
AcDbEntity
  8
001
 62
    40
370
    50
100
AcDbVertex
100
AcDb2dVertex
 10
42.485926
 20
54.234332
 30
0.0
  0
VERTEX
  5
1BC
330
1B8
100
AcDbEntity
  8
001
 62
    40
370
    50
100
AcDbVertex
100
AcDb2dVertex
 10
42.429533
 20
54.181957
 30
0.0
  0
VERTEX
  5
1BD
330
1B8
100
AcDbEntity
  8
001
 62
    40
370
    50
100
AcDbVertex
100
AcDb2dVertex
 10
42.397429
 20
54.14565
 30
0.0
  0
VERTEX
  5
1BE
330
1B8
100
AcDbEntity
  8
001
 62
    40
370
    50
100
AcDbVertex
100
AcDb2dVertex
 10
42.367984
 20
54.107022
 30
0.0
  0
VERTEX
  5
1BF
330
1B8
100
AcDbEntity
  8
001
 62
    40
370
    50
100
AcDbVertex
100
AcDb2dVertex
 10
42.341213
 20
54.066863
 30
0.0
  0
VERTEX
  5
1C0
330
1B8
100
AcDbEntity
  8
001
 62
    40
370
    50
100
AcDbVertex
100
AcDb2dVertex
 10
42.317347
 20
54.024993
 30
0.0
  0
VERTEX
  5
1C1
330
1B8
100
AcDbEntity
  8
001
 62
    40
370
    50
100
AcDbVertex
100
AcDb2dVertex
 10
42.291383
 20
53.967409
 30
0.0
  0
VERTEX
  5
1C2
330
1B8
100
AcDbEntity
  8
001
 62
    40
370
    50
100
AcDbVertex
100
AcDb2dVertex
 10
42.272625
 20
53.90678
 30
0.0
  0
VERTEX
  5
1C3
330
1B8
100
AcDbEntity
  8
001
 62
    40
370
    50
100
AcDbVertex
100
AcDb2dVertex
 10
42.26502
 20
53.863212
 30
0.0
  0
VERTEX
  5
1C4
330
1B8
100
AcDbEntity
  8
001
 62
    40
370
    50
100
AcDbVertex
100
AcDb2dVertex
 10
42.264902
 20
53.819528
 30
0.0
  0
VERTEX
  5
1C5
330
1B8
100
AcDbEntity
  8
001
 62
    40
370
    50
100
AcDbVertex
100
AcDb2dVertex
 10
42.269687
 20
53.792534
 30
0.0
  0
VERTEX
  5
1C6
330
1B8
100
AcDbEntity
  8
001
 62
    40
370
    50
100
AcDbVertex
100
AcDb2dVertex
 10
42.276622
 20
53.765779
 30
0.0
  0
SEQEND
  5
1B9
330
1B8
100
AcDbEntity
  8
001
370
    50
  0
LINE
  5
1C7
330
64
100
AcDbEntity
  8
001
 62
    40
370
    50
100
AcDbLine
 10
42.421895
 20
53.396649
 30
0.0
 11
42.276622
 21
53.765779
 31
0.0
  0
LINE
  5
1C8
330
64
100
AcDbEntity
  8
001
 62
    40
370
    50
100
AcDbLine
 10
42.263806
 20
53.663315
 30
0.0
 11
46.408604
 21
46.67183
 31
0.0
  0
ENDBLK
  5
66
330
64
100
AcDbEntity
  8
0
100
AcDbBlockEnd
  0
BLOCK
  5
1CA
330
1C9
100
AcDbEntity
  8
0
100
AcDbBlockBegin
  2
M-1-2
 70
     0
 10
0.0
 20
0.0
 30
0.0
  3
M-1-2
  1

  0
POLYLINE
  5
1CC
330
1C9
100
AcDbEntity
  8
001
 62
     5
370
    50
100
AcDb2dPolyline
 66
     1
 10
0.0
 20
0.0
 30
0.0
  0
VERTEX
  5
1CE
330
1CC
100
AcDbEntity
  8
001
 62
     5
370
    50
100
AcDbVertex
100
AcDb2dVertex
 10
48.26227
 20
53.893432
 30
0.0
  0
VERTEX
  5
1CF
330
1CC
100
AcDbEntity
  8
001
 62
     5
370
    50
100
AcDbVertex
100
AcDb2dVertex
 10
48.178901
 20
53.872464
 30
0.0
  0
VERTEX
  5
1D0
330
1CC
100
AcDbEntity
  8
001
 62
     5
370
    50
100
AcDbVertex
100
AcDb2dVertex
 10
48.096265
 20
53.849029
 30
0.0
  0
VERTEX
  5
1D1
330
1CC
100
AcDbEntity
  8
001
 62
     5
370
    50
100
AcDbVertex
100
AcDb2dVertex
 10
48.019405
 20
53.822847
 30
0.0
  0
VERTEX
  5
1D2
330
1CC
100
AcDbEntity
  8
001
 62
     5
370
    50
100
AcDbVertex
100
AcDb2dVertex
 10
47.943861
 20
53.792948
 30
0.0
  0
VERTEX
  5
1D3
330
1CC
100
AcDbEntity
  8
001
 62
     5
370
    50
100
AcDbVertex
100
AcDb2dVertex
 10
47.869382
 20
53.759758
 30
0.0
  0
VERTEX
  5
1D4
330
1CC
100
AcDbEntity
  8
001
 62
     5
370
    50
100
AcDbVertex
100
AcDb2dVertex
 10
47.796402
 20
53.723438
 30
0.0
  0
VERTEX
  5
1D5
330
1CC
100
AcDbEntity
  8
001
 62
     5
370
    50
100
AcDbVertex
100
AcDb2dVertex
 10
47.724762
 20
53.683757
 30
0.0
  0
VERTEX
  5
1D6
330
1CC
100
AcDbEntity
  8
001
 62
     5
370
    50
100
AcDbVertex
100
AcDb2dVertex
 10
47.654916
 20
53.64098
 30
0.0
  0
VERTEX
  5
1D7
330
1CC
100
AcDbEntity
  8
001
 62
     5
370
    50
100
AcDbVertex
100
AcDb2dVertex
 10
47.586636
 20
53.595004
 30
0.0
  0
VERTEX
  5
1D8
330
1CC
100
AcDbEntity
  8
001
 62
     5
370
    50
100
AcDbVertex
100
AcDb2dVertex
 10
47.520392
 20
53.546145
 30
0.0
  0
VERTEX
  5
1D9
330
1CC
100
AcDbEntity
  8
001
 62
     5
370
    50
100
AcDbVertex
100
AcDb2dVertex
 10
47.45595
 20
53.494214
 30
0.0
  0
VERTEX
  5
1DA
330
1CC
100
AcDbEntity
  8
001
 62
     5
370
    50
100
AcDbVertex
100
AcDb2dVertex
 10
47.393775
 20
53.439588
 30
0.0
  0
VERTEX
  5
1DB
330
1CC
100
AcDbEntity
  8
001
 62
     5
370
    50
100
AcDbVertex
100
AcDb2dVertex
 10
47.33363
 20
53.382059
 30
0.0
  0
VERTEX
  5
1DC
330
1CC
100
AcDbEntity
  8
001
 62
     5
370
    50
100
AcDbVertex
100
AcDb2dVertex
 10
47.275958
 20
53.32205
 30
0.0
  0
VERTEX
  5
1DD
330
1CC
100
AcDbEntity
  8
001
 62
     5
370
    50
100
AcDbVertex
100
AcDb2dVertex
 10
47.220538
 20
53.259326
 30
0.0
  0
VERTEX
  5
1DE
330
1CC
100
AcDbEntity
  8
001
 62
     5
370
    50
100
AcDbVertex
100
AcDb2dVertex
 10
47.167777
 20
53.194349
 30
0.0
  0
VERTEX
  5
1DF
330
1CC
100
AcDbEntity
  8
001
 62
     5
370
    50
100
AcDbVertex
100
AcDb2dVertex
 10
47.117477
 20
53.126871
 30
0.0
  0
VERTEX
  5
1E0
330
1CC
100
AcDbEntity
  8
001
 62
     5
370
    50
100
AcDbVertex
100
AcDb2dVertex
 10
47.069999
 20
53.057378
 30
0.0
  0
VERTEX
  5
1E1
330
1CC
100
AcDbEntity
  8
001
 62
     5
370
    50
100
AcDbVertex
100
AcDb2dVertex
 10
47.025178
 20
52.985622
 30
0.0
  0
VERTEX
  5
1E2
330
1CC
100
AcDbEntity
  8
001
 62
     5
370
    50
100
AcDbVertex
100
AcDb2dVertex
 10
46.983323
 20
52.912097
 30
0.0
  0
VERTEX
  5
1E3
330
1CC
100
AcDbEntity
  8
001
 62
     5
370
    50
100
AcDbVertex
100
AcDb2dVertex
 10
46.944302
 20
52.83657
 30
0.0
  0
VERTEX
  5
1E4
330
1CC
100
AcDbEntity
  8
001
 62
     5
370
    50
100
AcDbVertex
100
AcDb2dVertex
 10
46.908367
 20
52.759527
 30
0.0
  0
VERTEX
  5
1E5
330
1CC
100
AcDbEntity
  8
001
 62
     5
370
    50
100
AcDbVertex
100
AcDb2dVertex
 10
46.875425
 20
52.680765
 30
0.0
  0
VERTEX
  5
1E6
330
1CC
100
AcDbEntity
  8
001
 62
     5
370
    50
100
AcDbVertex
100
AcDb2dVertex
 10
46.845669
 20
52.600743
 30
0.0
  0
VERTEX
  5
1E7
330
1CC
100
AcDbEntity
  8
001
 62
     5
370
    50
100
AcDbVertex
100
AcDb2dVertex
 10
46.819041
 20
52.519303
 30
0.0
  0
VERTEX
  5
1E8
330
1CC
100
AcDbEntity
  8
001
 62
     5
370
    50
100
AcDbVertex
100
AcDb2dVertex
 10
46.79568
 20
52.436866
 30
0.0
  0
VERTEX
  5
1E9
330
1CC
100
AcDbEntity
  8
001
 62
     5
370
    50
100
AcDbVertex
100
AcDb2dVertex
 10
46.775556
 20
52.353325
 30
0.0
  0
VERTEX
  5
1EA
330
1CC
100
AcDbEntity
  8
001
 62
     5
370
    50
100
AcDbVertex
100
AcDb2dVertex
 10
46.75876
 20
52.269051
 30
0.0
  0
VERTEX
  5
1EB
330
1CC
100
AcDbEntity
  8
001
 62
     5
370
    50
100
AcDbVertex
100
AcDb2dVertex
 10
46.745284
 20
52.184002
 30
0.0
  0
VERTEX
  5
1EC
330
1CC
100
AcDbEntity
  8
001
 62
     5
370
    50
100
AcDbVertex
100
AcDb2dVertex
 10
46.735178
 20
52.098486
 30
0.0
  0
VERTEX
  5
1ED
330
1CC
100
AcDbEntity
  8
001
 62
     5
370
    50
100
AcDbVertex
100
AcDb2dVertex
 10
46.728446
 20
52.012531
 30
0.0
  0
VERTEX
  5
1EE
330
1CC
100
AcDbEntity
  8
001
 62
     5
370
    50
100
AcDbVertex
100
AcDb2dVertex
 10
46.725108
 20
51.926377
 30
0.0
  0
VERTEX
  5
1EF
330
1CC
100
AcDbEntity
  8
001
 62
     5
370
    50
100
AcDbVertex
100
AcDb2dVertex
 10
46.725168
 20
51.840124
 30
0.0
  0
VERTEX
  5
1F0
330
1CC
100
AcDbEntity
  8
001
 62
     5
370
    50
100
AcDbVertex
100
AcDb2dVertex
 10
46.728628
 20
51.753941
 30
0.0
  0
VERTEX
  5
1F1
330
1CC
100
AcDbEntity
  8
001
 62
     5
370
    50
100
AcDbVertex
100
AcDb2dVertex
 10
46.735481
 20
51.668003
 30
0.0
  0
VERTEX
  5
1F2
330
1CC
100
AcDbEntity
  8
001
 62
     5
370
    50
100
AcDbVertex
100
AcDb2dVertex
 10
46.745722
 20
51.582402
 30
0.0
  0
VERTEX
  5
1F3
330
1CC
100
AcDbEntity
  8
001
 62
     5
370
    50
100
AcDbVertex
100
AcDb2dVertex
 10
46.75932
 20
51.497388
 30
0.0
  0
VERTEX
  5
1F4
330
1CC
100
AcDbEntity
  8
001
 62
     5
370
    50
100
AcDbVertex
100
AcDb2dVertex
 10
46.776274
 20
51.412979
 30
0.0
  0
VERTEX
  5
1F5
330
1CC
100
AcDbEntity
  8
001
 62
     5
370
    50
100
AcDbVertex
100
AcDb2dVertex
 10
46.796521
 20
51.329491
 30
0.0
  0
VERTEX
  5
1F6
330
1CC
100
AcDbEntity
  8
001
 62
     5
370
    50
100
AcDbVertex
100
AcDb2dVertex
 10
46.820074
 20
51.246875
 30
0.0
  0
VERTEX
  5
1F7
330
1CC
100
AcDbEntity
  8
001
 62
     5
370
    50
100
AcDbVertex
100
AcDb2dVertex
 10
46.846828
 20
51.165505
 30
0.0
  0
VERTEX
  5
1F8
330
1CC
100
AcDbEntity
  8
001
 62
     5
370
    50
100
AcDbVertex
100
AcDb2dVertex
 10
46.876818
 20
51.085271
 30
0.0
  0
VERTEX
  5
1F9
330
1CC
100
AcDbEntity
  8
001
 62
     5
370
    50
100
AcDbVertex
100
AcDb2dVertex
 10
46.909889
 20
51.006595
 30
0.0
  0
VERTEX
  5
1FA
330
1CC
100
AcDbEntity
  8
001
 62
     5
370
    50
100
AcDbVertex
100
AcDb2dVertex
 10
46.946108
 20
50.929318
 30
0.0
  0
VERTEX
  5
1FB
330
1CC
100
AcDbEntity
  8
001
 62
     5
370
    50
100
AcDbVertex
100
AcDb2dVertex
 10
46.985262
 20
50.853895
 30
0.0
  0
VERTEX
  5
1FC
330
1CC
100
AcDbEntity
  8
001
 62
     5
370
    50
100
AcDbVertex
100
AcDb2dVertex
 10
47.027455
 20
50.780128
 30
0.0
  0
VERTEX
  5
1FD
330
1CC
100
AcDbEntity
  8
001
 62
     5
370
    50
100
AcDbVertex
100
AcDb2dVertex
 10
47.072414
 20
50.708492
 30
0.0
  0
VERTEX
  5
1FE
330
1CC
100
AcDbEntity
  8
001
 62
     5
370
    50
100
AcDbVertex
100
AcDb2dVertex
 10
47.120281
 20
50.638766
 30
0.0
  0
VERTEX
  5
1FF
330
1CC
100
AcDbEntity
  8
001
 62
     5
370
    50
100
AcDbVertex
100
AcDb2dVertex
 10
47.170727
 20
50.571426
 30
0.0
  0
VERTEX
  5
200
330
1CC
100
AcDbEntity
  8
001
 62
     5
370
    50
100
AcDbVertex
100
AcDb2dVertex
 10
47.223926
 20
50.506241
 30
0.0
  0
VERTEX
  5
201
330
1CC
100
AcDbEntity
  8
001
 62
     5
370
    50
100
AcDbVertex
100
AcDb2dVertex
 10
47.279498
 20
50.443675
 30
0.0
  0
VERTEX
  5
202
330
1CC
100
AcDbEntity
  8
001
 62
     5
370
    50
100
AcDbVertex
100
AcDb2dVertex
 10
47.337648
 20
50.383498
 30
0.0
  0
VERTEX
  5
203
330
1CC
100
AcDbEntity
  8
001
 62
     5
370
    50
100
AcDbVertex
100
AcDb2dVertex
 10
47.397951
 20
50.326151
 30
0.0
  0
VERTEX
  5
204
330
1CC
100
AcDbEntity
  8
001
 62
     5
370
    50
100
AcDbVertex
100
AcDb2dVertex
 10
47.460632
 20
50.271413
 30
0.0
  0
VERTEX
  5
205
330
1CC
100
AcDbEntity
  8
001
 62
     5
370
    50
100
AcDbVertex
100
AcDb2dVertex
 10
47.525234
 20
50.219688
 30
0.0
  0
VERTEX
  5
206
330
1CC
100
AcDbEntity
  8
001
 62
     5
370
    50
100
AcDbVertex
100
AcDb2dVertex
 10
47.591995
 20
50.170781
 30
0.0
  0
VERTEX
  5
207
330
1CC
100
AcDbEntity
  8
001
 62
     5
370
    50
100
AcDbVertex
100
AcDb2dVertex
 10
47.660436
 20
50.125046
 30
0.0
  0
VERTEX
  5
208
330
1CC
100
AcDbEntity
  8
001
 62
     5
370
    50
100
AcDbVertex
100
AcDb2dVertex
 10
47.730792
 20
50.082312
 30
0.0
  0
VERTEX
  5
209
330
1CC
100
AcDbEntity
  8
001
 62
     5
370
    50
100
AcDbVertex
100
AcDb2dVertex
 10
47.80258
 20
50.042872
 30
0.0
  0
VERTEX
  5
20A
330
1CC
100
AcDbEntity
  8
001
 62
     5
370
    50
100
AcDbVertex
100
AcDb2dVertex
 10
47.876027
 20
50.006626
 30
0.0
  0
VERTEX
  5
20B
330
1CC
100
AcDbEntity
  8
001
 62
     5
370
    50
100
AcDbVertex
100
AcDb2dVertex
 10
47.950663
 20
49.973811
 30
0.0
  0
VERTEX
  5
20C
330
1CC
100
AcDbEntity
  8
001
 62
     5
370
    50
100
AcDbVertex
100
AcDb2dVertex
 10
48.02666
 20
49.944246
 30
0.0
  0
VERTEX
  5
20D
330
1CC
100
AcDbEntity
  8
001
 62
     5
370
    50
100
AcDbVertex
100
AcDb2dVertex
 10
48.103575
 20
49.918077
 30
0.0
  0
VERTEX
  5
20E
330
1CC
100
AcDbEntity
  8
001
 62
     5
370
    50
100
AcDbVertex
100
AcDb2dVertex
 10
48.181617
 20
49.895601
 30
0.0
  0
VERTEX
  5
20F
330
1CC
100
AcDbEntity
  8
001
 62
     5
370
    50
100
AcDbVertex
100
AcDb2dVertex
 10
48.225746
 20
49.884695
 30
0.0
  0
VERTEX
  5
210
330
1CC
100
AcDbEntity
  8
001
 62
     5
370
    50
100
AcDbVertex
100
AcDb2dVertex
 10
48.270042
 20
49.874448
 30
0.0
  0
SEQEND
  5
1CD
330
1CC
100
AcDbEntity
  8
001
370
    50
  0
POLYLINE
  5
211
330
1C9
100
AcDbEntity
  8
001
 62
     5
370
    50
100
AcDb2dPolyline
 66
     1
 10
0.0
 20
0.0
 30
0.0
  0
VERTEX
  5
213
330
211
100
AcDbEntity
  8
001
 62
     5
370
    50
100
AcDbVertex
100
AcDb2dVertex
 10
48.64637
 20
49.834776
 30
0.0
  0
VERTEX
  5
214
330
211
100
AcDbEntity
  8
001
 62
     5
370
    50
100
AcDbVertex
100
AcDb2dVertex
 10
48.78173
 20
49.840673
 30
0.0
  0
VERTEX
  5
215
330
211
100
AcDbEntity
  8
001
 62
     5
370
    50
100
AcDbVertex
100
AcDb2dVertex
 10
48.977648
 20
49.865924
 30
0.0
  0
VERTEX
  5
216
330
211
100
AcDbEntity
  8
001
 62
     5
370
    50
100
AcDbVertex
100
AcDb2dVertex
 10
48.991942
 20
49.868696
 30
0.0
  0
VERTEX
  5
217
330
211
100
AcDbEntity
  8
001
 62
     5
370
    50
100
AcDbVertex
100
AcDb2dVertex
 10
49.001711
 20
49.870654
 30
0.0
  0
SEQEND
  5
212
330
211
100
AcDbEntity
  8
001
370
    50
  0
POLYLINE
  5
218
330
1C9
100
AcDbEntity
  8
001
 62
     5
370
    50
100
AcDb2dPolyline
 66
     1
 10
0.0
 20
0.0
 30
0.0
  0
VERTEX
  5
21A
330
218
100
AcDbEntity
  8
001
 62
     5
370
    50
100
AcDbVertex
100
AcDb2dVertex
 10
48.646323
 20
53.934776
 30
0.0
  0
VERTEX
  5
21B
330
218
100
AcDbEntity
  8
001
 62
     5
370
    50
100
AcDbVertex
100
AcDb2dVertex
 10
48.510957
 20
53.928876
 30
0.0
  0
VERTEX
  5
21C
330
218
100
AcDbEntity
  8
001
 62
     5
370
    50
100
AcDbVertex
100
AcDb2dVertex
 10
48.315045
 20
53.903628
 30
0.0
  0
VERTEX
  5
21D
330
218
100
AcDbEntity
  8
001
 62
     5
370
    50
100
AcDbVertex
100
AcDb2dVertex
 10
48.286977
 20
53.898062
 30
0.0
  0
VERTEX
  5
21E
330
218
100
AcDbEntity
  8
001
 62
     5
370
    50
100
AcDbVertex
100
AcDb2dVertex
 10
48.267816
 20
53.894018
 30
0.0
  0
SEQEND
  5
219
330
218
100
AcDbEntity
  8
001
370
    50
  0
POLYLINE
  5
21F
330
1C9
100
AcDbEntity
  8
001
 62
     5
370
    50
100
AcDb2dPolyline
 66
     1
 10
0.0
 20
0.0
 30
0.0
  0
VERTEX
  5
221
330
21F
100
AcDbEntity
  8
001
 62
     5
370
    50
100
AcDbVertex
100
AcDb2dVertex
 10
47.431827
 20
51.821521
 30
0.0
  0
VERTEX
  5
222
330
21F
100
AcDbEntity
  8
001
 62
     5
370
    50
100
AcDbVertex
100
AcDb2dVertex
 10
47.390285
 20
51.783658
 30
0.0
  0
VERTEX
  5
223
330
21F
100
AcDbEntity
  8
001
 62
     5
370
    50
100
AcDbVertex
100
AcDb2dVertex
 10
47.343582
 20
51.72362
 30
0.0
  0
VERTEX
  5
224
330
21F
100
AcDbEntity
  8
001
 62
     5
370
    50
100
AcDbVertex
100
AcDb2dVertex
 10
47.322946
 20
51.678252
 30
0.0
  0
VERTEX
  5
225
330
21F
100
AcDbEntity
  8
001
 62
     5
370
    50
100
AcDbVertex
100
AcDb2dVertex
 10
47.312631
 20
51.632241
 30
0.0
  0
VERTEX
  5
226
330
21F
100
AcDbEntity
  8
001
 62
     5
370
    50
100
AcDbVertex
100
AcDb2dVertex
 10
47.309799
 20
51.608094
 30
0.0
  0
VERTEX
  5
227
330
21F
100
AcDbEntity
  8
001
 62
     5
370
    50
100
AcDbVertex
100
AcDb2dVertex
 10
47.308673
 20
51.58362
 30
0.0
  0
VERTEX
  5
228
330
21F
100
AcDbEntity
  8
001
 62
     5
370
    50
100
AcDbVertex
100
AcDb2dVertex
 10
47.309623
 20
51.559209
 30
0.0
  0
VERTEX
  5
229
330
21F
100
AcDbEntity
  8
001
 62
     5
370
    50
100
AcDbVertex
100
AcDb2dVertex
 10
47.312632
 20
51.534998
 30
0.0
  0
VERTEX
  5
22A
330
21F
100
AcDbEntity
  8
001
 62
     5
370
    50
100
AcDbVertex
100
AcDb2dVertex
 10
47.324342
 20
51.488115
 30
0.0
  0
VERTEX
  5
22B
330
21F
100
AcDbEntity
  8
001
 62
     5
370
    50
100
AcDbVertex
100
AcDb2dVertex
 10
47.343585
 20
51.44362
 30
0.0
  0
VERTEX
  5
22C
330
21F
100
AcDbEntity
  8
001
 62
     5
370
    50
100
AcDbVertex
100
AcDb2dVertex
 10
47.384441
 20
51.386115
 30
0.0
  0
VERTEX
  5
22D
330
21F
100
AcDbEntity
  8
001
 62
     5
370
    50
100
AcDbVertex
100
AcDb2dVertex
 10
47.438962
 20
51.341134
 30
0.0
  0
VERTEX
  5
22E
330
21F
100
AcDbEntity
  8
001
 62
     5
370
    50
100
AcDbVertex
100
AcDb2dVertex
 10
47.459389
 20
51.329859
 30
0.0
  0
VERTEX
  5
22F
330
21F
100
AcDbEntity
  8
001
 62
     5
370
    50
100
AcDbVertex
100
AcDb2dVertex
 10
47.480127
 20
51.320508
 30
0.0
  0
VERTEX
  5
230
330
21F
100
AcDbEntity
  8
001
 62
     5
370
    50
100
AcDbVertex
100
AcDb2dVertex
 10
47.500756
 20
51.313191
 30
0.0
  0
VERTEX
  5
231
330
21F
100
AcDbEntity
  8
001
 62
     5
370
    50
100
AcDbVertex
100
AcDb2dVertex
 10
47.524
 20
51.307876
 30
0.0
  0
VERTEX
  5
232
330
21F
100
AcDbEntity
  8
001
 62
     5
370
    50
100
AcDbVertex
100
AcDb2dVertex
 10
47.548501
 20
51.304787
 30
0.0
  0
VERTEX
  5
233
330
21F
100
AcDbEntity
  8
001
 62
     5
370
    50
100
AcDbVertex
100
AcDb2dVertex
 10
47.566371
 20
51.30364
 30
0.0
  0
SEQEND
  5
220
330
21F
100
AcDbEntity
  8
001
370
    50
  0
POLYLINE
  5
234
330
1C9
100
AcDbEntity
  8
001
 62
     5
370
    50
100
AcDb2dPolyline
 66
     1
 10
0.0
 20
0.0
 30
0.0
  0
VERTEX
  5
236
330
234
100
AcDbEntity
  8
001
 62
     5
370
    50
100
AcDbVertex
100
AcDb2dVertex
 10
48.053467
 20
50.79104
 30
0.0
  0
VERTEX
  5
237
330
234
100
AcDbEntity
  8
001
 62
     5
370
    50
100
AcDbVertex
100
AcDb2dVertex
 10
48.051291
 20
50.822222
 30
0.0
  0
VERTEX
  5
238
330
234
100
AcDbEntity
  8
001
 62
     5
370
    50
100
AcDbVertex
100
AcDb2dVertex
 10
48.04623
 20
50.866105
 30
0.0
  0
VERTEX
  5
239
330
234
100
AcDbEntity
  8
001
 62
     5
370
    50
100
AcDbVertex
100
AcDb2dVertex
 10
48.023974
 20
50.960301
 30
0.0
  0
VERTEX
  5
23A
330
234
100
AcDbEntity
  8
001
 62
     5
370
    50
100
AcDbVertex
100
AcDb2dVertex
 10
47.987694
 20
51.038915
 30
0.0
  0
VERTEX
  5
23B
330
234
100
AcDbEntity
  8
001
 62
     5
370
    50
100
AcDbVertex
100
AcDb2dVertex
 10
47.910472
 20
51.145535
 30
0.0
  0
VERTEX
  5
23C
330
234
100
AcDbEntity
  8
001
 62
     5
370
    50
100
AcDbVertex
100
AcDb2dVertex
 10
47.807322
 20
51.232732
 30
0.0
  0
VERTEX
  5
23D
330
234
100
AcDbEntity
  8
001
 62
     5
370
    50
100
AcDbVertex
100
AcDb2dVertex
 10
47.768688
 20
51.254162
 30
0.0
  0
VERTEX
  5
23E
330
234
100
AcDbEntity
  8
001
 62
     5
370
    50
100
AcDbVertex
100
AcDb2dVertex
 10
47.729472
 20
51.27174
 30
0.0
  0
VERTEX
  5
23F
330
234
100
AcDbEntity
  8
001
 62
     5
370
    50
100
AcDbVertex
100
AcDb2dVertex
 10
47.69046
 20
51.285549
 30
0.0
  0
VERTEX
  5
240
330
234
100
AcDbEntity
  8
001
 62
     5
370
    50
100
AcDbVertex
100
AcDb2dVertex
 10
47.646501
 20
51.295628
 30
0.0
  0
VERTEX
  5
241
330
234
100
AcDbEntity
  8
001
 62
     5
370
    50
100
AcDbVertex
100
AcDb2dVertex
 10
47.600166
 20
51.301474
 30
0.0
  0
VERTEX
  5
242
330
234
100
AcDbEntity
  8
001
 62
     5
370
    50
100
AcDbVertex
100
AcDb2dVertex
 10
47.566371
 20
51.30364
 30
0.0
  0
SEQEND
  5
235
330
234
100
AcDbEntity
  8
001
370
    50
  0
POLYLINE
  5
243
330
1C9
100
AcDbEntity
  8
001
 62
     5
370
    50
100
AcDb2dPolyline
 66
     1
 10
0.0
 20
0.0
 30
0.0
  0
VERTEX
  5
245
330
243
100
AcDbEntity
  8
001
 62
     5
370
    50
100
AcDbVertex
100
AcDb2dVertex
 10
48.313909
 20
50.519972
 30
0.0
  0
VERTEX
  5
246
330
243
100
AcDbEntity
  8
001
 62
     5
370
    50
100
AcDbVertex
100
AcDb2dVertex
 10
48.333004
 20
50.521015
 30
0.0
  0
VERTEX
  5
247
330
243
100
AcDbEntity
  8
001
 62
     5
370
    50
100
AcDbVertex
100
AcDb2dVertex
 10
48.359157
 20
50.524226
 30
0.0
  0
VERTEX
  5
248
330
243
100
AcDbEntity
  8
001
 62
     5
370
    50
100
AcDbVertex
100
AcDb2dVertex
 10
48.382437
 20
50.529647
 30
0.0
  0
VERTEX
  5
249
330
243
100
AcDbEntity
  8
001
 62
     5
370
    50
100
AcDbVertex
100
AcDb2dVertex
 10
48.40303
 20
50.536859
 30
0.0
  0
VERTEX
  5
24A
330
243
100
AcDbEntity
  8
001
 62
     5
370
    50
100
AcDbVertex
100
AcDb2dVertex
 10
48.423528
 20
50.545762
 30
0.0
  0
VERTEX
  5
24B
330
243
100
AcDbEntity
  8
001
 62
     5
370
    50
100
AcDbVertex
100
AcDb2dVertex
 10
48.444194
 20
50.557486
 30
0.0
  0
VERTEX
  5
24C
330
243
100
AcDbEntity
  8
001
 62
     5
370
    50
100
AcDbVertex
100
AcDb2dVertex
 10
48.502448
 20
50.610045
 30
0.0
  0
VERTEX
  5
24D
330
243
100
AcDbEntity
  8
001
 62
     5
370
    50
100
AcDbVertex
100
AcDb2dVertex
 10
48.538117
 20
50.657305
 30
0.0
  0
SEQEND
  5
244
330
243
100
AcDbEntity
  8
001
370
    50
  0
POLYLINE
  5
24E
330
1C9
100
AcDbEntity
  8
001
 62
     5
370
    50
100
AcDb2dPolyline
 66
     1
 10
0.0
 20
0.0
 30
0.0
  0
VERTEX
  5
250
330
24E
100
AcDbEntity
  8
001
 62
     5
370
    50
100
AcDbVertex
100
AcDb2dVertex
 10
49.194786
 20
50.854294
 30
0.0
  0
VERTEX
  5
251
330
24E
100
AcDbEntity
  8
001
 62
     5
370
    50
100
AcDbVertex
100
AcDb2dVertex
 10
49.168019
 20
50.868024
 30
0.0
  0
VERTEX
  5
252
330
24E
100
AcDbEntity
  8
001
 62
     5
370
    50
100
AcDbVertex
100
AcDb2dVertex
 10
49.13067
 20
50.885093
 30
0.0
  0
VERTEX
  5
253
330
24E
100
AcDbEntity
  8
001
 62
     5
370
    50
100
AcDbVertex
100
AcDb2dVertex
 10
49.089802
 20
50.899938
 30
0.0
  0
VERTEX
  5
254
330
24E
100
AcDbEntity
  8
001
 62
     5
370
    50
100
AcDbVertex
100
AcDb2dVertex
 10
49.047699
 20
50.908981
 30
0.0
  0
VERTEX
  5
255
330
24E
100
AcDbEntity
  8
001
 62
     5
370
    50
100
AcDbVertex
100
AcDb2dVertex
 10
48.998622
 20
50.914812
 30
0.0
  0
VERTEX
  5
256
330
24E
100
AcDbEntity
  8
001
 62
     5
370
    50
100
AcDbVertex
100
AcDb2dVertex
 10
48.962129
 20
50.917025
 30
0.0
  0
SEQEND
  5
24F
330
24E
100
AcDbEntity
  8
001
370
    50
  0
POLYLINE
  5
257
330
1C9
100
AcDbEntity
  8
001
 62
     5
370
    50
100
AcDb2dPolyline
 66
     1
 10
0.0
 20
0.0
 30
0.0
  0
VERTEX
  5
259
330
257
100
AcDbEntity
  8
001
 62
     5
370
    50
100
AcDbVertex
100
AcDb2dVertex
 10
49.31781
 20
50.821124
 30
0.0
  0
VERTEX
  5
25A
330
257
100
AcDbEntity
  8
001
 62
     5
370
    50
100
AcDbVertex
100
AcDb2dVertex
 10
49.336917
 20
50.822191
 30
0.0
  0
VERTEX
  5
25B
330
257
100
AcDbEntity
  8
001
 62
     5
370
    50
100
AcDbVertex
100
AcDb2dVertex
 10
49.363058
 20
50.825378
 30
0.0
  0
VERTEX
  5
25C
330
257
100
AcDbEntity
  8
001
 62
     5
370
    50
100
AcDbVertex
100
AcDb2dVertex
 10
49.386273
 20
50.830683
 30
0.0
  0
VERTEX
  5
25D
330
257
100
AcDbEntity
  8
001
 62
     5
370
    50
100
AcDbVertex
100
AcDb2dVertex
 10
49.406931
 20
50.838011
 30
0.0
  0
VERTEX
  5
25E
330
257
100
AcDbEntity
  8
001
 62
     5
370
    50
100
AcDbVertex
100
AcDb2dVertex
 10
49.427678
 20
50.847364
 30
0.0
  0
VERTEX
  5
25F
330
257
100
AcDbEntity
  8
001
 62
     5
370
    50
100
AcDbVertex
100
AcDb2dVertex
 10
49.448095
 20
50.858638
 30
0.0
  0
VERTEX
  5
260
330
257
100
AcDbEntity
  8
001
 62
     5
370
    50
100
AcDbVertex
100
AcDb2dVertex
 10
49.50257
 20
50.903672
 30
0.0
  0
VERTEX
  5
261
330
257
100
AcDbEntity
  8
001
 62
     5
370
    50
100
AcDbVertex
100
AcDb2dVertex
 10
49.54347
 20
50.961126
 30
0.0
  0
VERTEX
  5
262
330
257
100
AcDbEntity
  8
001
 62
     5
370
    50
100
AcDbVertex
100
AcDb2dVertex
 10
49.562807
 20
51.005477
 30
0.0
  0
VERTEX
  5
263
330
257
100
AcDbEntity
  8
001
 62
     5
370
    50
100
AcDbVertex
100
AcDb2dVertex
 10
49.57442
 20
51.052505
 30
0.0
  0
VERTEX
  5
264
330
257
100
AcDbEntity
  8
001
 62
     5
370
    50
100
AcDbVertex
100
AcDb2dVertex
 10
49.57729
 20
51.076933
 30
0.0
  0
VERTEX
  5
265
330
257
100
AcDbEntity
  8
001
 62
     5
370
    50
100
AcDbVertex
100
AcDb2dVertex
 10
49.578379
 20
51.101127
 30
0.0
  0
VERTEX
  5
266
330
257
100
AcDbEntity
  8
001
 62
     5
370
    50
100
AcDbVertex
100
AcDb2dVertex
 10
49.577733
 20
51.124854
 30
0.0
  0
VERTEX
  5
267
330
257
100
AcDbEntity
  8
001
 62
     5
370
    50
100
AcDbVertex
100
AcDb2dVertex
 10
49.574419
 20
51.149748
 30
0.0
  0
VERTEX
  5
268
330
257
100
AcDbEntity
  8
001
 62
     5
370
    50
100
AcDbVertex
100
AcDb2dVertex
 10
49.559951
 20
51.20146
 30
0.0
  0
VERTEX
  5
269
330
257
100
AcDbEntity
  8
001
 62
     5
370
    50
100
AcDbVertex
100
AcDb2dVertex
 10
49.544892
 20
51.238441
 30
0.0
  0
SEQEND
  5
258
330
257
100
AcDbEntity
  8
001
370
    50
  0
POLYLINE
  5
26A
330
1C9
100
AcDbEntity
  8
001
 62
     5
370
    50
100
AcDb2dPolyline
 66
     1
 10
0.0
 20
0.0
 30
0.0
  0
VERTEX
  5
26C
330
26A
100
AcDbEntity
  8
001
 62
     5
370
    50
100
AcDbVertex
100
AcDb2dVertex
 10
49.714465
 20
51.948029
 30
0.0
  0
VERTEX
  5
26D
330
26A
100
AcDbEntity
  8
001
 62
     5
370
    50
100
AcDbVertex
100
AcDb2dVertex
 10
49.635941
 20
51.876353
 30
0.0
  0
VERTEX
  5
26E
330
26A
100
AcDbEntity
  8
001
 62
     5
370
    50
100
AcDbVertex
100
AcDb2dVertex
 10
49.54758
 20
51.762885
 30
0.0
  0
VERTEX
  5
26F
330
26A
100
AcDbEntity
  8
001
 62
     5
370
    50
100
AcDbVertex
100
AcDb2dVertex
 10
49.50843
 20
51.677325
 30
0.0
  0
VERTEX
  5
270
330
26A
100
AcDbEntity
  8
001
 62
     5
370
    50
100
AcDbVertex
100
AcDb2dVertex
 10
49.489048
 20
51.590073
 30
0.0
  0
VERTEX
  5
271
330
26A
100
AcDbEntity
  8
001
 62
     5
370
    50
100
AcDbVertex
100
AcDb2dVertex
 10
49.483881
 20
51.544045
 30
0.0
  0
VERTEX
  5
272
330
26A
100
AcDbEntity
  8
001
 62
     5
370
    50
100
AcDbVertex
100
AcDb2dVertex
 10
49.481563
 20
51.498122
 30
0.0
  0
VERTEX
  5
273
330
26A
100
AcDbEntity
  8
001
 62
     5
370
    50
100
AcDbVertex
100
AcDb2dVertex
 10
49.48271
 20
51.453203
 30
0.0
  0
VERTEX
  5
274
330
26A
100
AcDbEntity
  8
001
 62
     5
370
    50
100
AcDbVertex
100
AcDb2dVertex
 10
49.48905
 20
51.406172
 30
0.0
  0
VERTEX
  5
275
330
26A
100
AcDbEntity
  8
001
 62
     5
370
    50
100
AcDbVertex
100
AcDb2dVertex
 10
49.516447
 20
51.308399
 30
0.0
  0
VERTEX
  5
276
330
26A
100
AcDbEntity
  8
001
 62
     5
370
    50
100
AcDbVertex
100
AcDb2dVertex
 10
49.544892
 20
51.238441
 30
0.0
  0
SEQEND
  5
26B
330
26A
100
AcDbEntity
  8
001
370
    50
  0
POLYLINE
  5
277
330
1C9
100
AcDbEntity
  8
001
 62
     5
370
    50
100
AcDb2dPolyline
 66
     1
 10
0.0
 20
0.0
 30
0.0
  0
VERTEX
  5
279
330
277
100
AcDbEntity
  8
001
 62
     5
370
    50
100
AcDbVertex
100
AcDb2dVertex
 10
49.714465
 20
51.948029
 30
0.0
  0
VERTEX
  5
27A
330
277
100
AcDbEntity
  8
001
 62
     5
370
    50
100
AcDbVertex
100
AcDb2dVertex
 10
49.756007
 20
51.985891
 30
0.0
  0
VERTEX
  5
27B
330
277
100
AcDbEntity
  8
001
 62
     5
370
    50
100
AcDbVertex
100
AcDb2dVertex
 10
49.80271
 20
52.04593
 30
0.0
  0
VERTEX
  5
27C
330
277
100
AcDbEntity
  8
001
 62
     5
370
    50
100
AcDbVertex
100
AcDb2dVertex
 10
49.823346
 20
52.091298
 30
0.0
  0
VERTEX
  5
27D
330
277
100
AcDbEntity
  8
001
 62
     5
370
    50
100
AcDbVertex
100
AcDb2dVertex
 10
49.83366
 20
52.137309
 30
0.0
  0
VERTEX
  5
27E
330
277
100
AcDbEntity
  8
001
 62
     5
370
    50
100
AcDbVertex
100
AcDb2dVertex
 10
49.836492
 20
52.161456
 30
0.0
  0
VERTEX
  5
27F
330
277
100
AcDbEntity
  8
001
 62
     5
370
    50
100
AcDbVertex
100
AcDb2dVertex
 10
49.837618
 20
52.18593
 30
0.0
  0
VERTEX
  5
280
330
277
100
AcDbEntity
  8
001
 62
     5
370
    50
100
AcDbVertex
100
AcDb2dVertex
 10
49.836669
 20
52.210341
 30
0.0
  0
VERTEX
  5
281
330
277
100
AcDbEntity
  8
001
 62
     5
370
    50
100
AcDbVertex
100
AcDb2dVertex
 10
49.833659
 20
52.234552
 30
0.0
  0
VERTEX
  5
282
330
277
100
AcDbEntity
  8
001
 62
     5
370
    50
100
AcDbVertex
100
AcDb2dVertex
 10
49.82195
 20
52.281435
 30
0.0
  0
VERTEX
  5
283
330
277
100
AcDbEntity
  8
001
 62
     5
370
    50
100
AcDbVertex
100
AcDb2dVertex
 10
49.802707
 20
52.32593
 30
0.0
  0
VERTEX
  5
284
330
277
100
AcDbEntity
  8
001
 62
     5
370
    50
100
AcDbVertex
100
AcDb2dVertex
 10
49.761851
 20
52.383435
 30
0.0
  0
VERTEX
  5
285
330
277
100
AcDbEntity
  8
001
 62
     5
370
    50
100
AcDbVertex
100
AcDb2dVertex
 10
49.70733
 20
52.428416
 30
0.0
  0
VERTEX
  5
286
330
277
100
AcDbEntity
  8
001
 62
     5
370
    50
100
AcDbVertex
100
AcDb2dVertex
 10
49.686902
 20
52.439691
 30
0.0
  0
VERTEX
  5
287
330
277
100
AcDbEntity
  8
001
 62
     5
370
    50
100
AcDbVertex
100
AcDb2dVertex
 10
49.666165
 20
52.449042
 30
0.0
  0
VERTEX
  5
288
330
277
100
AcDbEntity
  8
001
 62
     5
370
    50
100
AcDbVertex
100
AcDb2dVertex
 10
49.645536
 20
52.456359
 30
0.0
  0
VERTEX
  5
289
330
277
100
AcDbEntity
  8
001
 62
     5
370
    50
100
AcDbVertex
100
AcDb2dVertex
 10
49.622291
 20
52.461674
 30
0.0
  0
VERTEX
  5
28A
330
277
100
AcDbEntity
  8
001
 62
     5
370
    50
100
AcDbVertex
100
AcDb2dVertex
 10
49.59779
 20
52.464762
 30
0.0
  0
VERTEX
  5
28B
330
277
100
AcDbEntity
  8
001
 62
     5
370
    50
100
AcDbVertex
100
AcDb2dVertex
 10
49.57992
 20
52.46591
 30
0.0
  0
SEQEND
  5
278
330
277
100
AcDbEntity
  8
001
370
    50
  0
POLYLINE
  5
28C
330
1C9
100
AcDbEntity
  8
001
 62
     5
370
    50
100
AcDb2dPolyline
 66
     1
 10
0.0
 20
0.0
 30
0.0
  0
VERTEX
  5
28E
330
28C
100
AcDbEntity
  8
001
 62
     5
370
    50
100
AcDbVertex
100
AcDb2dVertex
 10
49.092825
 20
52.97851
 30
0.0
  0
VERTEX
  5
28F
330
28C
100
AcDbEntity
  8
001
 62
     5
370
    50
100
AcDbVertex
100
AcDb2dVertex
 10
49.095001
 20
52.947328
 30
0.0
  0
VERTEX
  5
290
330
28C
100
AcDbEntity
  8
001
 62
     5
370
    50
100
AcDbVertex
100
AcDb2dVertex
 10
49.100062
 20
52.903445
 30
0.0
  0
VERTEX
  5
291
330
28C
100
AcDbEntity
  8
001
 62
     5
370
    50
100
AcDbVertex
100
AcDb2dVertex
 10
49.122318
 20
52.809249
 30
0.0
  0
VERTEX
  5
292
330
28C
100
AcDbEntity
  8
001
 62
     5
370
    50
100
AcDbVertex
100
AcDb2dVertex
 10
49.158597
 20
52.730635
 30
0.0
  0
VERTEX
  5
293
330
28C
100
AcDbEntity
  8
001
 62
     5
370
    50
100
AcDbVertex
100
AcDb2dVertex
 10
49.235819
 20
52.624015
 30
0.0
  0
VERTEX
  5
294
330
28C
100
AcDbEntity
  8
001
 62
     5
370
    50
100
AcDbVertex
100
AcDb2dVertex
 10
49.33897
 20
52.536818
 30
0.0
  0
VERTEX
  5
295
330
28C
100
AcDbEntity
  8
001
 62
     5
370
    50
100
AcDbVertex
100
AcDb2dVertex
 10
49.377604
 20
52.515388
 30
0.0
  0
VERTEX
  5
296
330
28C
100
AcDbEntity
  8
001
 62
     5
370
    50
100
AcDbVertex
100
AcDb2dVertex
 10
49.41682
 20
52.49781
 30
0.0
  0
VERTEX
  5
297
330
28C
100
AcDbEntity
  8
001
 62
     5
370
    50
100
AcDbVertex
100
AcDb2dVertex
 10
49.455832
 20
52.484001
 30
0.0
  0
VERTEX
  5
298
330
28C
100
AcDbEntity
  8
001
 62
     5
370
    50
100
AcDbVertex
100
AcDb2dVertex
 10
49.49979
 20
52.473922
 30
0.0
  0
VERTEX
  5
299
330
28C
100
AcDbEntity
  8
001
 62
     5
370
    50
100
AcDbVertex
100
AcDb2dVertex
 10
49.546126
 20
52.468076
 30
0.0
  0
VERTEX
  5
29A
330
28C
100
AcDbEntity
  8
001
 62
     5
370
    50
100
AcDbVertex
100
AcDb2dVertex
 10
49.57992
 20
52.46591
 30
0.0
  0
SEQEND
  5
28D
330
28C
100
AcDbEntity
  8
001
370
    50
  0
POLYLINE
  5
29B
330
1C9
100
AcDbEntity
  8
001
 62
     5
370
    50
100
AcDb2dPolyline
 66
     1
 10
0.0
 20
0.0
 30
0.0
  0
VERTEX
  5
29D
330
29B
100
AcDbEntity
  8
001
 62
     5
370
    50
100
AcDbVertex
100
AcDb2dVertex
 10
48.832383
 20
53.249578
 30
0.0
  0
VERTEX
  5
29E
330
29B
100
AcDbEntity
  8
001
 62
     5
370
    50
100
AcDbVertex
100
AcDb2dVertex
 10
48.813288
 20
53.248535
 30
0.0
  0
VERTEX
  5
29F
330
29B
100
AcDbEntity
  8
001
 62
     5
370
    50
100
AcDbVertex
100
AcDb2dVertex
 10
48.787135
 20
53.245324
 30
0.0
  0
VERTEX
  5
2A0
330
29B
100
AcDbEntity
  8
001
 62
     5
370
    50
100
AcDbVertex
100
AcDb2dVertex
 10
48.763855
 20
53.239903
 30
0.0
  0
VERTEX
  5
2A1
330
29B
100
AcDbEntity
  8
001
 62
     5
370
    50
100
AcDbVertex
100
AcDb2dVertex
 10
48.743262
 20
53.232691
 30
0.0
  0
VERTEX
  5
2A2
330
29B
100
AcDbEntity
  8
001
 62
     5
370
    50
100
AcDbVertex
100
AcDb2dVertex
 10
48.722764
 20
53.223788
 30
0.0
  0
VERTEX
  5
2A3
330
29B
100
AcDbEntity
  8
001
 62
     5
370
    50
100
AcDbVertex
100
AcDb2dVertex
 10
48.702097
 20
53.212064
 30
0.0
  0
VERTEX
  5
2A4
330
29B
100
AcDbEntity
  8
001
 62
     5
370
    50
100
AcDbVertex
100
AcDb2dVertex
 10
48.643843
 20
53.159504
 30
0.0
  0
VERTEX
  5
2A5
330
29B
100
AcDbEntity
  8
001
 62
     5
370
    50
100
AcDbVertex
100
AcDb2dVertex
 10
48.608175
 20
53.112244
 30
0.0
  0
SEQEND
  5
29C
330
29B
100
AcDbEntity
  8
001
370
    50
  0
POLYLINE
  5
2A6
330
1C9
100
AcDbEntity
  8
001
 62
     5
370
    50
100
AcDb2dPolyline
 66
     1
 10
0.0
 20
0.0
 30
0.0
  0
VERTEX
  5
2A8
330
2A6
100
AcDbEntity
  8
001
 62
     5
370
    50
100
AcDbVertex
100
AcDb2dVertex
 10
47.951506
 20
52.915255
 30
0.0
  0
VERTEX
  5
2A9
330
2A6
100
AcDbEntity
  8
001
 62
     5
370
    50
100
AcDbVertex
100
AcDb2dVertex
 10
47.978273
 20
52.901526
 30
0.0
  0
VERTEX
  5
2AA
330
2A6
100
AcDbEntity
  8
001
 62
     5
370
    50
100
AcDbVertex
100
AcDb2dVertex
 10
48.015622
 20
52.884457
 30
0.0
  0
VERTEX
  5
2AB
330
2A6
100
AcDbEntity
  8
001
 62
     5
370
    50
100
AcDbVertex
100
AcDb2dVertex
 10
48.056489
 20
52.869611
 30
0.0
  0
VERTEX
  5
2AC
330
2A6
100
AcDbEntity
  8
001
 62
     5
370
    50
100
AcDbVertex
100
AcDb2dVertex
 10
48.098592
 20
52.860569
 30
0.0
  0
VERTEX
  5
2AD
330
2A6
100
AcDbEntity
  8
001
 62
     5
370
    50
100
AcDbVertex
100
AcDb2dVertex
 10
48.14767
 20
52.854738
 30
0.0
  0
VERTEX
  5
2AE
330
2A6
100
AcDbEntity
  8
001
 62
     5
370
    50
100
AcDbVertex
100
AcDb2dVertex
 10
48.184163
 20
52.852525
 30
0.0
  0
SEQEND
  5
2A7
330
2A6
100
AcDbEntity
  8
001
370
    50
  0
POLYLINE
  5
2AF
330
1C9
100
AcDbEntity
  8
001
 62
     5
370
    50
100
AcDb2dPolyline
 66
     1
 10
0.0
 20
0.0
 30
0.0
  0
VERTEX
  5
2B1
330
2AF
100
AcDbEntity
  8
001
 62
     5
370
    50
100
AcDbVertex
100
AcDb2dVertex
 10
47.828482
 20
52.948426
 30
0.0
  0
VERTEX
  5
2B2
330
2AF
100
AcDbEntity
  8
001
 62
     5
370
    50
100
AcDbVertex
100
AcDb2dVertex
 10
47.809374
 20
52.947359
 30
0.0
  0
VERTEX
  5
2B3
330
2AF
100
AcDbEntity
  8
001
 62
     5
370
    50
100
AcDbVertex
100
AcDb2dVertex
 10
47.783234
 20
52.944172
 30
0.0
  0
VERTEX
  5
2B4
330
2AF
100
AcDbEntity
  8
001
 62
     5
370
    50
100
AcDbVertex
100
AcDb2dVertex
 10
47.760019
 20
52.938867
 30
0.0
  0
VERTEX
  5
2B5
330
2AF
100
AcDbEntity
  8
001
 62
     5
370
    50
100
AcDbVertex
100
AcDb2dVertex
 10
47.739361
 20
52.931539
 30
0.0
  0
VERTEX
  5
2B6
330
2AF
100
AcDbEntity
  8
001
 62
     5
370
    50
100
AcDbVertex
100
AcDb2dVertex
 10
47.718613
 20
52.922186
 30
0.0
  0
VERTEX
  5
2B7
330
2AF
100
AcDbEntity
  8
001
 62
     5
370
    50
100
AcDbVertex
100
AcDb2dVertex
 10
47.698196
 20
52.910912
 30
0.0
  0
VERTEX
  5
2B8
330
2AF
100
AcDbEntity
  8
001
 62
     5
370
    50
100
AcDbVertex
100
AcDb2dVertex
 10
47.643721
 20
52.865877
 30
0.0
  0
VERTEX
  5
2B9
330
2AF
100
AcDbEntity
  8
001
 62
     5
370
    50
100
AcDbVertex
100
AcDb2dVertex
 10
47.602822
 20
52.808423
 30
0.0
  0
VERTEX
  5
2BA
330
2AF
100
AcDbEntity
  8
001
 62
     5
370
    50
100
AcDbVertex
100
AcDb2dVertex
 10
47.583485
 20
52.764072
 30
0.0
  0
VERTEX
  5
2BB
330
2AF
100
AcDbEntity
  8
001
 62
     5
370
    50
100
AcDbVertex
100
AcDb2dVertex
 10
47.571871
 20
52.717045
 30
0.0
  0
VERTEX
  5
2BC
330
2AF
100
AcDbEntity
  8
001
 62
     5
370
    50
100
AcDbVertex
100
AcDb2dVertex
 10
47.569002
 20
52.692617
 30
0.0
  0
VERTEX
  5
2BD
330
2AF
100
AcDbEntity
  8
001
 62
     5
370
    50
100
AcDbVertex
100
AcDb2dVertex
 10
47.567913
 20
52.668423
 30
0.0
  0
VERTEX
  5
2BE
330
2AF
100
AcDbEntity
  8
001
 62
     5
370
    50
100
AcDbVertex
100
AcDb2dVertex
 10
47.568558
 20
52.644696
 30
0.0
  0
VERTEX
  5
2BF
330
2AF
100
AcDbEntity
  8
001
 62
     5
370
    50
100
AcDbVertex
100
AcDb2dVertex
 10
47.571872
 20
52.619802
 30
0.0
  0
VERTEX
  5
2C0
330
2AF
100
AcDbEntity
  8
001
 62
     5
370
    50
100
AcDbVertex
100
AcDb2dVertex
 10
47.586341
 20
52.56809
 30
0.0
  0
VERTEX
  5
2C1
330
2AF
100
AcDbEntity
  8
001
 62
     5
370
    50
100
AcDbVertex
100
AcDb2dVertex
 10
47.6014
 20
52.531109
 30
0.0
  0
SEQEND
  5
2B0
330
2AF
100
AcDbEntity
  8
001
370
    50
  0
POLYLINE
  5
2C2
330
1C9
100
AcDbEntity
  8
001
 62
     5
370
    50
100
AcDb2dPolyline
 66
     1
 10
0.0
 20
0.0
 30
0.0
  0
VERTEX
  5
2C4
330
2C2
100
AcDbEntity
  8
001
 62
     5
370
    50
100
AcDbVertex
100
AcDb2dVertex
 10
47.431827
 20
51.821521
 30
0.0
  0
VERTEX
  5
2C5
330
2C2
100
AcDbEntity
  8
001
 62
     5
370
    50
100
AcDbVertex
100
AcDb2dVertex
 10
47.510351
 20
51.893196
 30
0.0
  0
VERTEX
  5
2C6
330
2C2
100
AcDbEntity
  8
001
 62
     5
370
    50
100
AcDbVertex
100
AcDb2dVertex
 10
47.598712
 20
52.006665
 30
0.0
  0
VERTEX
  5
2C7
330
2C2
100
AcDbEntity
  8
001
 62
     5
370
    50
100
AcDbVertex
100
AcDb2dVertex
 10
47.637861
 20
52.092225
 30
0.0
  0
VERTEX
  5
2C8
330
2C2
100
AcDbEntity
  8
001
 62
     5
370
    50
100
AcDbVertex
100
AcDb2dVertex
 10
47.657243
 20
52.179477
 30
0.0
  0
VERTEX
  5
2C9
330
2C2
100
AcDbEntity
  8
001
 62
     5
370
    50
100
AcDbVertex
100
AcDb2dVertex
 10
47.662411
 20
52.225504
 30
0.0
  0
VERTEX
  5
2CA
330
2C2
100
AcDbEntity
  8
001
 62
     5
370
    50
100
AcDbVertex
100
AcDb2dVertex
 10
47.664729
 20
52.271427
 30
0.0
  0
VERTEX
  5
2CB
330
2C2
100
AcDbEntity
  8
001
 62
     5
370
    50
100
AcDbVertex
100
AcDb2dVertex
 10
47.663582
 20
52.316347
 30
0.0
  0
VERTEX
  5
2CC
330
2C2
100
AcDbEntity
  8
001
 62
     5
370
    50
100
AcDbVertex
100
AcDb2dVertex
 10
47.657241
 20
52.363378
 30
0.0
  0
VERTEX
  5
2CD
330
2C2
100
AcDbEntity
  8
001
 62
     5
370
    50
100
AcDbVertex
100
AcDb2dVertex
 10
47.629844
 20
52.46115
 30
0.0
  0
VERTEX
  5
2CE
330
2C2
100
AcDbEntity
  8
001
 62
     5
370
    50
100
AcDbVertex
100
AcDb2dVertex
 10
47.6014
 20
52.531109
 30
0.0
  0
SEQEND
  5
2C3
330
2C2
100
AcDbEntity
  8
001
370
    50
  0
POLYLINE
  5
2CF
330
1C9
100
AcDbEntity
  8
001
 62
     5
370
    50
100
AcDb2dPolyline
 66
     1
 10
0.0
 20
0.0
 30
0.0
  0
VERTEX
  5
2D1
330
2CF
100
AcDbEntity
  8
001
 62
     5
370
    50
100
AcDbVertex
100
AcDb2dVertex
 10
48.756171
 20
49.834777
 30
0.0
  0
VERTEX
  5
2D2
330
2CF
100
AcDbEntity
  8
001
 62
     5
370
    50
100
AcDbVertex
100
AcDb2dVertex
 10
48.896065
 20
49.84259
 30
0.0
  0
VERTEX
  5
2D3
330
2CF
100
AcDbEntity
  8
001
 62
     5
370
    50
100
AcDbVertex
100
AcDb2dVertex
 10
49.087449
 20
49.865925
 30
0.0
  0
VERTEX
  5
2D4
330
2CF
100
AcDbEntity
  8
001
 62
     5
370
    50
100
AcDbVertex
100
AcDb2dVertex
 10
49.25742
 20
49.904756
 30
0.0
  0
VERTEX
  5
2D5
330
2CF
100
AcDbEntity
  8
001
 62
     5
370
    50
100
AcDbVertex
100
AcDb2dVertex
 10
49.408661
 20
49.958415
 30
0.0
  0
VERTEX
  5
2D6
330
2CF
100
AcDbEntity
  8
001
 62
     5
370
    50
100
AcDbVertex
100
AcDb2dVertex
 10
49.560556
 20
50.026909
 30
0.0
  0
VERTEX
  5
2D7
330
2CF
100
AcDbEntity
  8
001
 62
     5
370
    50
100
AcDbVertex
100
AcDb2dVertex
 10
49.710047
 20
50.109436
 30
0.0
  0
VERTEX
  5
2D8
330
2CF
100
AcDbEntity
  8
001
 62
     5
370
    50
100
AcDbVertex
100
AcDb2dVertex
 10
50.10907
 20
50.438789
 30
0.0
  0
VERTEX
  5
2D9
330
2CF
100
AcDbEntity
  8
001
 62
     5
370
    50
100
AcDbVertex
100
AcDb2dVertex
 10
50.408326
 20
50.859796
 30
0.0
  0
VERTEX
  5
2DA
330
2CF
100
AcDbEntity
  8
001
 62
     5
370
    50
100
AcDbVertex
100
AcDb2dVertex
 10
50.549408
 20
51.185444
 30
0.0
  0
VERTEX
  5
2DB
330
2CF
100
AcDbEntity
  8
001
 62
     5
370
    50
100
AcDbVertex
100
AcDb2dVertex
 10
50.634926
 20
51.528819
 30
0.0
  0
VERTEX
  5
2DC
330
2CF
100
AcDbEntity
  8
001
 62
     5
370
    50
100
AcDbVertex
100
AcDb2dVertex
 10
50.656664
 20
51.706267
 30
0.0
  0
VERTEX
  5
2DD
330
2CF
100
AcDbEntity
  8
001
 62
     5
370
    50
100
AcDbVertex
100
AcDb2dVertex
 10
50.663905
 20
51.884799
 30
0.0
  0
VERTEX
  5
2DE
330
2CF
100
AcDbEntity
  8
001
 62
     5
370
    50
100
AcDbVertex
100
AcDb2dVertex
 10
50.65666
 20
52.06333
 30
0.0
  0
VERTEX
  5
2DF
330
2CF
100
AcDbEntity
  8
001
 62
     5
370
    50
100
AcDbVertex
100
AcDb2dVertex
 10
50.634918
 20
52.240777
 30
0.0
  0
VERTEX
  5
2E0
330
2CF
100
AcDbEntity
  8
001
 62
     5
370
    50
100
AcDbVertex
100
AcDb2dVertex
 10
50.549393
 20
52.584151
 30
0.0
  0
VERTEX
  5
2E1
330
2CF
100
AcDbEntity
  8
001
 62
     5
370
    50
100
AcDbVertex
100
AcDb2dVertex
 10
50.408302
 20
52.909796
 30
0.0
  0
VERTEX
  5
2E2
330
2CF
100
AcDbEntity
  8
001
 62
     5
370
    50
100
AcDbVertex
100
AcDb2dVertex
 10
50.109037
 20
53.330795
 30
0.0
  0
VERTEX
  5
2E3
330
2CF
100
AcDbEntity
  8
001
 62
     5
370
    50
100
AcDbVertex
100
AcDb2dVertex
 10
49.710006
 20
53.66014
 30
0.0
  0
VERTEX
  5
2E4
330
2CF
100
AcDbEntity
  8
001
 62
     5
370
    50
100
AcDbVertex
100
AcDb2dVertex
 10
49.560513
 20
53.742664
 30
0.0
  0
VERTEX
  5
2E5
330
2CF
100
AcDbEntity
  8
001
 62
     5
370
    50
100
AcDbVertex
100
AcDb2dVertex
 10
49.408617
 20
53.811154
 30
0.0
  0
VERTEX
  5
2E6
330
2CF
100
AcDbEntity
  8
001
 62
     5
370
    50
100
AcDbVertex
100
AcDb2dVertex
 10
49.257375
 20
53.864809
 30
0.0
  0
VERTEX
  5
2E7
330
2CF
100
AcDbEntity
  8
001
 62
     5
370
    50
100
AcDbVertex
100
AcDb2dVertex
 10
49.087404
 20
53.903637
 30
0.0
  0
VERTEX
  5
2E8
330
2CF
100
AcDbEntity
  8
001
 62
     5
370
    50
100
AcDbVertex
100
AcDb2dVertex
 10
48.896019
 20
53.926968
 30
0.0
  0
VERTEX
  5
2E9
330
2CF
100
AcDbEntity
  8
001
 62
     5
370
    50
100
AcDbVertex
100
AcDb2dVertex
 10
48.756125
 20
53.934777
 30
0.0
  0
SEQEND
  5
2D0
330
2CF
100
AcDbEntity
  8
001
370
    50
  0
POLYLINE
  5
2EA
330
1C9
100
AcDbEntity
  8
001
 62
     5
370
    50
100
AcDb2dPolyline
 66
     1
 10
0.0
 20
0.0
 30
0.0
  0
VERTEX
  5
2EC
330
2EA
100
AcDbEntity
  8
001
 62
     5
370
    50
100
AcDbVertex
100
AcDb2dVertex
 10
49.009736
 20
53.897242
 30
0.0
  0
VERTEX
  5
2ED
330
2EA
100
AcDbEntity
  8
001
 62
     5
370
    50
100
AcDbVertex
100
AcDb2dVertex
 10
48.996693
 20
53.899904
 30
0.0
  0
VERTEX
  5
2EE
330
2EA
100
AcDbEntity
  8
001
 62
     5
370
    50
100
AcDbVertex
100
AcDb2dVertex
 10
48.977602
 20
53.903635
 30
0.0
  0
VERTEX
  5
2EF
330
2EA
100
AcDbEntity
  8
001
 62
     5
370
    50
100
AcDbVertex
100
AcDb2dVertex
 10
48.781686
 20
53.92888
 30
0.0
  0
VERTEX
  5
2F0
330
2EA
100
AcDbEntity
  8
001
 62
     5
370
    50
100
AcDbVertex
100
AcDb2dVertex
 10
48.646323
 20
53.934776
 30
0.0
  0
SEQEND
  5
2EB
330
2EA
100
AcDbEntity
  8
001
370
    50
  0
POLYLINE
  5
2F1
330
1C9
100
AcDbEntity
  8
001
 62
     5
370
    50
100
AcDb2dPolyline
 66
     1
 10
0.0
 20
0.0
 30
0.0
  0
VERTEX
  5
2F3
330
2F1
100
AcDbEntity
  8
001
 62
     5
370
    50
100
AcDbVertex
100
AcDb2dVertex
 10
48.27553
 20
49.873875
 30
0.0
  0
VERTEX
  5
2F4
330
2F1
100
AcDbEntity
  8
001
 62
     5
370
    50
100
AcDbVertex
100
AcDb2dVertex
 10
48.291584
 20
49.870543
 30
0.0
  0
VERTEX
  5
2F5
330
2F1
100
AcDbEntity
  8
001
 62
     5
370
    50
100
AcDbVertex
100
AcDb2dVertex
 10
48.315091
 20
49.865916
 30
0.0
  0
VERTEX
  5
2F6
330
2F1
100
AcDbEntity
  8
001
 62
     5
370
    50
100
AcDbVertex
100
AcDb2dVertex
 10
48.511006
 20
49.840672
 30
0.0
  0
VERTEX
  5
2F7
330
2F1
100
AcDbEntity
  8
001
 62
     5
370
    50
100
AcDbVertex
100
AcDb2dVertex
 10
48.64637
 20
49.834776
 30
0.0
  0
SEQEND
  5
2F2
330
2F1
100
AcDbEntity
  8
001
370
    50
  0
LINE
  5
2F8
330
1C9
100
AcDbEntity
  8
001
 62
     5
370
    50
100
AcDbLine
 10
48.64637
 20
49.834776
 30
0.0
 11
48.756171
 21
49.834777
 31
0.0
  0
LINE
  5
2F9
330
1C9
100
AcDbEntity
  8
001
 62
     5
370
    50
100
AcDbLine
 10
48.756125
 20
53.934777
 30
0.0
 11
48.646323
 21
53.934776
 31
0.0
  0
POLYLINE
  5
2FA
330
1C9
100
AcDbEntity
  8
001
 62
     5
370
    50
100
AcDb2dPolyline
 66
     1
 10
0.0
 20
0.0
 30
0.0
  0
VERTEX
  5
2FC
330
2FA
100
AcDbEntity
  8
001
 62
     5
370
    50
100
AcDbVertex
100
AcDb2dVertex
 10
49.194786
 20
50.854294
 30
0.0
  0
VERTEX
  5
2FD
330
2FA
100
AcDbEntity
  8
001
 62
     5
370
    50
100
AcDbVertex
100
AcDb2dVertex
 10
49.20894
 20
50.847035
 30
0.0
  0
VERTEX
  5
2FE
330
2FA
100
AcDbEntity
  8
001
 62
     5
370
    50
100
AcDbVertex
100
AcDb2dVertex
 10
49.228689
 20
50.838009
 30
0.0
  0
VERTEX
  5
2FF
330
2FA
100
AcDbEntity
  8
001
 62
     5
370
    50
100
AcDbVertex
100
AcDb2dVertex
 10
49.250299
 20
50.830159
 30
0.0
  0
VERTEX
  5
300
330
2FA
100
AcDbEntity
  8
001
 62
     5
370
    50
100
AcDbVertex
100
AcDb2dVertex
 10
49.272562
 20
50.825377
 30
0.0
  0
VERTEX
  5
301
330
2FA
100
AcDbEntity
  8
001
 62
     5
370
    50
100
AcDbVertex
100
AcDb2dVertex
 10
49.298513
 20
50.822294
 30
0.0
  0
VERTEX
  5
302
330
2FA
100
AcDbEntity
  8
001
 62
     5
370
    50
100
AcDbVertex
100
AcDb2dVertex
 10
49.31781
 20
50.821124
 30
0.0
  0
SEQEND
  5
2FB
330
2FA
100
AcDbEntity
  8
001
370
    50
  0
POLYLINE
  5
303
330
1C9
100
AcDbEntity
  8
001
 62
     5
370
    50
100
AcDb2dPolyline
 66
     1
 10
0.0
 20
0.0
 30
0.0
  0
VERTEX
  5
305
330
303
100
AcDbEntity
  8
001
 62
     5
370
    50
100
AcDbVertex
100
AcDb2dVertex
 10
48.962129
 20
50.917025
 30
0.0
  0
VERTEX
  5
306
330
303
100
AcDbEntity
  8
001
 62
     5
370
    50
100
AcDbVertex
100
AcDb2dVertex
 10
48.926018
 20
50.915051
 30
0.0
  0
VERTEX
  5
307
330
303
100
AcDbEntity
  8
001
 62
     5
370
    50
100
AcDbVertex
100
AcDb2dVertex
 10
48.876558
 20
50.908979
 30
0.0
  0
VERTEX
  5
308
330
303
100
AcDbEntity
  8
001
 62
     5
370
    50
100
AcDbVertex
100
AcDb2dVertex
 10
48.832532
 20
50.898727
 30
0.0
  0
VERTEX
  5
309
330
303
100
AcDbEntity
  8
001
 62
     5
370
    50
100
AcDbVertex
100
AcDb2dVertex
 10
48.793588
 20
50.885089
 30
0.0
  0
VERTEX
  5
30A
330
303
100
AcDbEntity
  8
001
 62
     5
370
    50
100
AcDbVertex
100
AcDb2dVertex
 10
48.754823
 20
50.868251
 30
0.0
  0
VERTEX
  5
30B
330
303
100
AcDbEntity
  8
001
 62
     5
370
    50
100
AcDbVertex
100
AcDb2dVertex
 10
48.715739
 20
50.846079
 30
0.0
  0
VERTEX
  5
30C
330
303
100
AcDbEntity
  8
001
 62
     5
370
    50
100
AcDbVertex
100
AcDb2dVertex
 10
48.605572
 20
50.746682
 30
0.0
  0
VERTEX
  5
30D
330
303
100
AcDbEntity
  8
001
 62
     5
370
    50
100
AcDbVertex
100
AcDb2dVertex
 10
48.538117
 20
50.657305
 30
0.0
  0
SEQEND
  5
304
330
303
100
AcDbEntity
  8
001
370
    50
  0
POLYLINE
  5
30E
330
1C9
100
AcDbEntity
  8
001
 62
     5
370
    50
100
AcDb2dPolyline
 66
     1
 10
0.0
 20
0.0
 30
0.0
  0
VERTEX
  5
310
330
30E
100
AcDbEntity
  8
001
 62
     5
370
    50
100
AcDbVertex
100
AcDb2dVertex
 10
49.503669
 20
50.904879
 30
0.0
  0
VERTEX
  5
311
330
30E
100
AcDbEntity
  8
001
 62
     5
370
    50
100
AcDbVertex
100
AcDb2dVertex
 10
49.495809
 20
50.906639
 30
0.0
  0
VERTEX
  5
312
330
30E
100
AcDbEntity
  8
001
 62
     5
370
    50
100
AcDbVertex
100
AcDb2dVertex
 10
49.484276
 20
50.908986
 30
0.0
  0
VERTEX
  5
313
330
30E
100
AcDbEntity
  8
001
 62
     5
370
    50
100
AcDbVertex
100
AcDb2dVertex
 10
49.433673
 20
50.915506
 30
0.0
  0
VERTEX
  5
314
330
30E
100
AcDbEntity
  8
001
 62
     5
370
    50
100
AcDbVertex
100
AcDb2dVertex
 10
49.398706
 20
50.91703
 30
0.0
  0
SEQEND
  5
30F
330
30E
100
AcDbEntity
  8
001
370
    50
  0
LINE
  5
315
330
1C9
100
AcDbEntity
  8
001
 62
     5
370
    50
100
AcDbLine
 10
49.398706
 20
50.91703
 30
0.0
 11
48.962129
 21
50.917025
 31
0.0
  0
POLYLINE
  5
316
330
1C9
100
AcDbEntity
  8
001
 62
     5
370
    50
100
AcDb2dPolyline
 66
     1
 10
0.0
 20
0.0
 30
0.0
  0
VERTEX
  5
318
330
316
100
AcDbEntity
  8
001
 62
     5
370
    50
100
AcDbVertex
100
AcDb2dVertex
 10
49.092825
 20
52.97851
 30
0.0
  0
VERTEX
  5
319
330
316
100
AcDbEntity
  8
001
 62
     5
370
    50
100
AcDbVertex
100
AcDb2dVertex
 10
49.091674
 20
52.994998
 30
0.0
  0
VERTEX
  5
31A
330
316
100
AcDbEntity
  8
001
 62
     5
370
    50
100
AcDbVertex
100
AcDb2dVertex
 10
49.088998
 20
53.018203
 30
0.0
  0
VERTEX
  5
31B
330
316
100
AcDbEntity
  8
001
 62
     5
370
    50
100
AcDbVertex
100
AcDb2dVertex
 10
49.077231
 20
53.068011
 30
0.0
  0
VERTEX
  5
31C
330
316
100
AcDbEntity
  8
001
 62
     5
370
    50
100
AcDbVertex
100
AcDb2dVertex
 10
49.058046
 20
53.109581
 30
0.0
  0
VERTEX
  5
31D
330
316
100
AcDbEntity
  8
001
 62
     5
370
    50
100
AcDbVertex
100
AcDb2dVertex
 10
49.017204
 20
53.165963
 30
0.0
  0
VERTEX
  5
31E
330
316
100
AcDbEntity
  8
001
 62
     5
370
    50
100
AcDbVertex
100
AcDb2dVertex
 10
48.962669
 20
53.212067
 30
0.0
  0
VERTEX
  5
31F
330
316
100
AcDbEntity
  8
001
 62
     5
370
    50
100
AcDbVertex
100
AcDb2dVertex
 10
48.942249
 20
53.223395
 30
0.0
  0
VERTEX
  5
320
330
316
100
AcDbEntity
  8
001
 62
     5
370
    50
100
AcDbVertex
100
AcDb2dVertex
 10
48.921504
 20
53.232693
 30
0.0
  0
VERTEX
  5
321
330
316
100
AcDbEntity
  8
001
 62
     5
370
    50
100
AcDbVertex
100
AcDb2dVertex
 10
48.900847
 20
53.240007
 30
0.0
  0
VERTEX
  5
322
330
316
100
AcDbEntity
  8
001
 62
     5
370
    50
100
AcDbVertex
100
AcDb2dVertex
 10
48.87763
 20
53.245325
 30
0.0
  0
VERTEX
  5
323
330
316
100
AcDbEntity
  8
001
 62
     5
370
    50
100
AcDbVertex
100
AcDb2dVertex
 10
48.85149
 20
53.248515
 30
0.0
  0
VERTEX
  5
324
330
316
100
AcDbEntity
  8
001
 62
     5
370
    50
100
AcDbVertex
100
AcDb2dVertex
 10
48.832383
 20
53.249578
 30
0.0
  0
SEQEND
  5
317
330
316
100
AcDbEntity
  8
001
370
    50
  0
POLYLINE
  5
325
330
1C9
100
AcDbEntity
  8
001
 62
     5
370
    50
100
AcDb2dPolyline
 66
     1
 10
0.0
 20
0.0
 30
0.0
  0
VERTEX
  5
327
330
325
100
AcDbEntity
  8
001
 62
     5
370
    50
100
AcDbVertex
100
AcDb2dVertex
 10
49.050673
 20
53.122485
 30
0.0
  0
VERTEX
  5
328
330
325
100
AcDbEntity
  8
001
 62
     5
370
    50
100
AcDbVertex
100
AcDb2dVertex
 10
49.049438
 20
53.120426
 30
0.0
  0
VERTEX
  5
329
330
325
100
AcDbEntity
  8
001
 62
     5
370
    50
100
AcDbVertex
100
AcDb2dVertex
 10
49.047661
 20
53.117401
 30
0.0
  0
VERTEX
  5
32A
330
325
100
AcDbEntity
  8
001
 62
     5
370
    50
100
AcDbVertex
100
AcDb2dVertex
 10
49.045922
 20
53.114349
 30
0.0
  0
VERTEX
  5
32B
330
325
100
AcDbEntity
  8
001
 62
     5
370
    50
100
AcDbVertex
100
AcDb2dVertex
 10
49.044752
 20
53.112249
 30
0.0
  0
SEQEND
  5
326
330
325
100
AcDbEntity
  8
001
370
    50
  0
POLYLINE
  5
32C
330
1C9
100
AcDbEntity
  8
001
 62
     5
370
    50
100
AcDb2dPolyline
 66
     1
 10
0.0
 20
0.0
 30
0.0
  0
VERTEX
  5
32E
330
32C
100
AcDbEntity
  8
001
 62
     5
370
    50
100
AcDbVertex
100
AcDb2dVertex
 10
48.184163
 20
52.852525
 30
0.0
  0
VERTEX
  5
32F
330
32C
100
AcDbEntity
  8
001
 62
     5
370
    50
100
AcDbVertex
100
AcDb2dVertex
 10
48.220274
 20
52.854499
 30
0.0
  0
VERTEX
  5
330
330
32C
100
AcDbEntity
  8
001
 62
     5
370
    50
100
AcDbVertex
100
AcDb2dVertex
 10
48.269733
 20
52.860571
 30
0.0
  0
VERTEX
  5
331
330
32C
100
AcDbEntity
  8
001
 62
     5
370
    50
100
AcDbVertex
100
AcDb2dVertex
 10
48.31376
 20
52.870823
 30
0.0
  0
VERTEX
  5
332
330
32C
100
AcDbEntity
  8
001
 62
     5
370
    50
100
AcDbVertex
100
AcDb2dVertex
 10
48.352704
 20
52.884461
 30
0.0
  0
VERTEX
  5
333
330
32C
100
AcDbEntity
  8
001
 62
     5
370
    50
100
AcDbVertex
100
AcDb2dVertex
 10
48.391469
 20
52.901299
 30
0.0
  0
VERTEX
  5
334
330
32C
100
AcDbEntity
  8
001
 62
     5
370
    50
100
AcDbVertex
100
AcDb2dVertex
 10
48.430553
 20
52.92347
 30
0.0
  0
VERTEX
  5
335
330
32C
100
AcDbEntity
  8
001
 62
     5
370
    50
100
AcDbVertex
100
AcDb2dVertex
 10
48.540719
 20
53.022868
 30
0.0
  0
VERTEX
  5
336
330
32C
100
AcDbEntity
  8
001
 62
     5
370
    50
100
AcDbVertex
100
AcDb2dVertex
 10
48.608175
 20
53.112244
 30
0.0
  0
SEQEND
  5
32D
330
32C
100
AcDbEntity
  8
001
370
    50
  0
LINE
  5
337
330
1C9
100
AcDbEntity
  8
001
 62
     5
370
    50
100
AcDbLine
 10
48.184163
 20
52.852525
 30
0.0
 11
48.62074
 21
52.85253
 31
0.0
  0
POLYLINE
  5
338
330
1C9
100
AcDbEntity
  8
001
 62
     5
370
    50
100
AcDb2dPolyline
 66
     1
 10
0.0
 20
0.0
 30
0.0
  0
VERTEX
  5
33A
330
338
100
AcDbEntity
  8
001
 62
     5
370
    50
100
AcDbVertex
100
AcDb2dVertex
 10
48.62074
 20
52.85253
 30
0.0
  0
VERTEX
  5
33B
330
338
100
AcDbEntity
  8
001
 62
     5
370
    50
100
AcDbVertex
100
AcDb2dVertex
 10
48.656851
 20
52.854504
 30
0.0
  0
VERTEX
  5
33C
330
338
100
AcDbEntity
  8
001
 62
     5
370
    50
100
AcDbVertex
100
AcDb2dVertex
 10
48.706311
 20
52.860576
 30
0.0
  0
VERTEX
  5
33D
330
338
100
AcDbEntity
  8
001
 62
     5
370
    50
100
AcDbVertex
100
AcDb2dVertex
 10
48.750337
 20
52.870828
 30
0.0
  0
VERTEX
  5
33E
330
338
100
AcDbEntity
  8
001
 62
     5
370
    50
100
AcDbVertex
100
AcDb2dVertex
 10
48.789281
 20
52.884466
 30
0.0
  0
VERTEX
  5
33F
330
338
100
AcDbEntity
  8
001
 62
     5
370
    50
100
AcDbVertex
100
AcDb2dVertex
 10
48.828046
 20
52.901304
 30
0.0
  0
VERTEX
  5
340
330
338
100
AcDbEntity
  8
001
 62
     5
370
    50
100
AcDbVertex
100
AcDb2dVertex
 10
48.86713
 20
52.923475
 30
0.0
  0
VERTEX
  5
341
330
338
100
AcDbEntity
  8
001
 62
     5
370
    50
100
AcDbVertex
100
AcDb2dVertex
 10
48.977297
 20
53.022873
 30
0.0
  0
VERTEX
  5
342
330
338
100
AcDbEntity
  8
001
 62
     5
370
    50
100
AcDbVertex
100
AcDb2dVertex
 10
49.044752
 20
53.112249
 30
0.0
  0
SEQEND
  5
339
330
338
100
AcDbEntity
  8
001
370
    50
  0
POLYLINE
  5
343
330
1C9
100
AcDbEntity
  8
001
 62
     5
370
    50
100
AcDb2dPolyline
 66
     1
 10
0.0
 20
0.0
 30
0.0
  0
VERTEX
  5
345
330
343
100
AcDbEntity
  8
001
 62
     5
370
    50
100
AcDbVertex
100
AcDb2dVertex
 10
48.053467
 20
50.79104
 30
0.0
  0
VERTEX
  5
346
330
343
100
AcDbEntity
  8
001
 62
     5
370
    50
100
AcDbVertex
100
AcDb2dVertex
 10
48.054618
 20
50.774552
 30
0.0
  0
VERTEX
  5
347
330
343
100
AcDbEntity
  8
001
 62
     5
370
    50
100
AcDbVertex
100
AcDb2dVertex
 10
48.057293
 20
50.751347
 30
0.0
  0
VERTEX
  5
348
330
343
100
AcDbEntity
  8
001
 62
     5
370
    50
100
AcDbVertex
100
AcDb2dVertex
 10
48.069061
 20
50.701539
 30
0.0
  0
VERTEX
  5
349
330
343
100
AcDbEntity
  8
001
 62
     5
370
    50
100
AcDbVertex
100
AcDb2dVertex
 10
48.088246
 20
50.659969
 30
0.0
  0
VERTEX
  5
34A
330
343
100
AcDbEntity
  8
001
 62
     5
370
    50
100
AcDbVertex
100
AcDb2dVertex
 10
48.129088
 20
50.603587
 30
0.0
  0
VERTEX
  5
34B
330
343
100
AcDbEntity
  8
001
 62
     5
370
    50
100
AcDbVertex
100
AcDb2dVertex
 10
48.183623
 20
50.557483
 30
0.0
  0
VERTEX
  5
34C
330
343
100
AcDbEntity
  8
001
 62
     5
370
    50
100
AcDbVertex
100
AcDb2dVertex
 10
48.204043
 20
50.546155
 30
0.0
  0
VERTEX
  5
34D
330
343
100
AcDbEntity
  8
001
 62
     5
370
    50
100
AcDbVertex
100
AcDb2dVertex
 10
48.224788
 20
50.536857
 30
0.0
  0
VERTEX
  5
34E
330
343
100
AcDbEntity
  8
001
 62
     5
370
    50
100
AcDbVertex
100
AcDb2dVertex
 10
48.245445
 20
50.529543
 30
0.0
  0
VERTEX
  5
34F
330
343
100
AcDbEntity
  8
001
 62
     5
370
    50
100
AcDbVertex
100
AcDb2dVertex
 10
48.268661
 20
50.524225
 30
0.0
  0
VERTEX
  5
350
330
343
100
AcDbEntity
  8
001
 62
     5
370
    50
100
AcDbVertex
100
AcDb2dVertex
 10
48.294802
 20
50.521035
 30
0.0
  0
VERTEX
  5
351
330
343
100
AcDbEntity
  8
001
 62
     5
370
    50
100
AcDbVertex
100
AcDb2dVertex
 10
48.313909
 20
50.519972
 30
0.0
  0
SEQEND
  5
344
330
343
100
AcDbEntity
  8
001
370
    50
  0
POLYLINE
  5
352
330
1C9
100
AcDbEntity
  8
001
 62
     5
370
    50
100
AcDb2dPolyline
 66
     1
 10
0.0
 20
0.0
 30
0.0
  0
VERTEX
  5
354
330
352
100
AcDbEntity
  8
001
 62
     5
370
    50
100
AcDbVertex
100
AcDb2dVertex
 10
48.490044
 20
50.791045
 30
0.0
  0
VERTEX
  5
355
330
352
100
AcDbEntity
  8
001
 62
     5
370
    50
100
AcDbVertex
100
AcDb2dVertex
 10
48.491276
 20
50.774393
 30
0.0
  0
VERTEX
  5
356
330
352
100
AcDbEntity
  8
001
 62
     5
370
    50
100
AcDbVertex
100
AcDb2dVertex
 10
48.493871
 20
50.751352
 30
0.0
  0
VERTEX
  5
357
330
352
100
AcDbEntity
  8
001
 62
     5
370
    50
100
AcDbVertex
100
AcDb2dVertex
 10
48.5041
 20
50.704653
 30
0.0
  0
VERTEX
  5
358
330
352
100
AcDbEntity
  8
001
 62
     5
370
    50
100
AcDbVertex
100
AcDb2dVertex
 10
48.524823
 20
50.659974
 30
0.0
  0
VERTEX
  5
359
330
352
100
AcDbEntity
  8
001
 62
     5
370
    50
100
AcDbVertex
100
AcDb2dVertex
 10
48.529118
 20
50.652353
 30
0.0
  0
VERTEX
  5
35A
330
352
100
AcDbEntity
  8
001
 62
     5
370
    50
100
AcDbVertex
100
AcDb2dVertex
 10
48.532196
 20
50.64707
 30
0.0
  0
SEQEND
  5
353
330
352
100
AcDbEntity
  8
001
370
    50
  0
POLYLINE
  5
35B
330
1C9
100
AcDbEntity
  8
001
 62
     5
370
    50
100
AcDb2dPolyline
 66
     1
 10
0.0
 20
0.0
 30
0.0
  0
VERTEX
  5
35D
330
35B
100
AcDbEntity
  8
001
 62
     5
370
    50
100
AcDbVertex
100
AcDb2dVertex
 10
48.490044
 20
50.791045
 30
0.0
  0
VERTEX
  5
35E
330
35B
100
AcDbEntity
  8
001
 62
     5
370
    50
100
AcDbVertex
100
AcDb2dVertex
 10
48.487868
 20
50.822227
 30
0.0
  0
VERTEX
  5
35F
330
35B
100
AcDbEntity
  8
001
 62
     5
370
    50
100
AcDbVertex
100
AcDb2dVertex
 10
48.482807
 20
50.86611
 30
0.0
  0
VERTEX
  5
360
330
35B
100
AcDbEntity
  8
001
 62
     5
370
    50
100
AcDbVertex
100
AcDb2dVertex
 10
48.460551
 20
50.960306
 30
0.0
  0
VERTEX
  5
361
330
35B
100
AcDbEntity
  8
001
 62
     5
370
    50
100
AcDbVertex
100
AcDb2dVertex
 10
48.424272
 20
51.03892
 30
0.0
  0
VERTEX
  5
362
330
35B
100
AcDbEntity
  8
001
 62
     5
370
    50
100
AcDbVertex
100
AcDb2dVertex
 10
48.34705
 20
51.14554
 30
0.0
  0
VERTEX
  5
363
330
35B
100
AcDbEntity
  8
001
 62
     5
370
    50
100
AcDbVertex
100
AcDb2dVertex
 10
48.243899
 20
51.232737
 30
0.0
  0
VERTEX
  5
364
330
35B
100
AcDbEntity
  8
001
 62
     5
370
    50
100
AcDbVertex
100
AcDb2dVertex
 10
48.205265
 20
51.254167
 30
0.0
  0
VERTEX
  5
365
330
35B
100
AcDbEntity
  8
001
 62
     5
370
    50
100
AcDbVertex
100
AcDb2dVertex
 10
48.166049
 20
51.271745
 30
0.0
  0
VERTEX
  5
366
330
35B
100
AcDbEntity
  8
001
 62
     5
370
    50
100
AcDbVertex
100
AcDb2dVertex
 10
48.127037
 20
51.285554
 30
0.0
  0
VERTEX
  5
367
330
35B
100
AcDbEntity
  8
001
 62
     5
370
    50
100
AcDbVertex
100
AcDb2dVertex
 10
48.083079
 20
51.295633
 30
0.0
  0
VERTEX
  5
368
330
35B
100
AcDbEntity
  8
001
 62
     5
370
    50
100
AcDbVertex
100
AcDb2dVertex
 10
48.036743
 20
51.301479
 30
0.0
  0
VERTEX
  5
369
330
35B
100
AcDbEntity
  8
001
 62
     5
370
    50
100
AcDbVertex
100
AcDb2dVertex
 10
48.002948
 20
51.303645
 30
0.0
  0
SEQEND
  5
35C
330
35B
100
AcDbEntity
  8
001
370
    50
  0
POLYLINE
  5
36A
330
1C9
100
AcDbEntity
  8
001
 62
     5
370
    50
100
AcDb2dPolyline
 66
     1
 10
0.0
 20
0.0
 30
0.0
  0
VERTEX
  5
36C
330
36A
100
AcDbEntity
  8
001
 62
     5
370
    50
100
AcDbVertex
100
AcDb2dVertex
 10
47.951506
 20
52.915255
 30
0.0
  0
VERTEX
  5
36D
330
36A
100
AcDbEntity
  8
001
 62
     5
370
    50
100
AcDbVertex
100
AcDb2dVertex
 10
47.937352
 20
52.922515
 30
0.0
  0
VERTEX
  5
36E
330
36A
100
AcDbEntity
  8
001
 62
     5
370
    50
100
AcDbVertex
100
AcDb2dVertex
 10
47.917603
 20
52.931541
 30
0.0
  0
VERTEX
  5
36F
330
36A
100
AcDbEntity
  8
001
 62
     5
370
    50
100
AcDbVertex
100
AcDb2dVertex
 10
47.895993
 20
52.939391
 30
0.0
  0
VERTEX
  5
370
330
36A
100
AcDbEntity
  8
001
 62
     5
370
    50
100
AcDbVertex
100
AcDb2dVertex
 10
47.873729
 20
52.944173
 30
0.0
  0
VERTEX
  5
371
330
36A
100
AcDbEntity
  8
001
 62
     5
370
    50
100
AcDbVertex
100
AcDb2dVertex
 10
47.847778
 20
52.947256
 30
0.0
  0
VERTEX
  5
372
330
36A
100
AcDbEntity
  8
001
 62
     5
370
    50
100
AcDbVertex
100
AcDb2dVertex
 10
47.828482
 20
52.948426
 30
0.0
  0
SEQEND
  5
36B
330
36A
100
AcDbEntity
  8
001
370
    50
  0
POLYLINE
  5
373
330
1C9
100
AcDbEntity
  8
001
 62
     5
370
    50
100
AcDb2dPolyline
 66
     1
 10
0.0
 20
0.0
 30
0.0
  0
VERTEX
  5
375
330
373
100
AcDbEntity
  8
001
 62
     5
370
    50
100
AcDbVertex
100
AcDb2dVertex
 10
48.0792
 20
52.864675
 30
0.0
  0
VERTEX
  5
376
330
373
100
AcDbEntity
  8
001
 62
     5
370
    50
100
AcDbVertex
100
AcDb2dVertex
 10
48.061375
 20
52.841945
 30
0.0
  0
VERTEX
  5
377
330
373
100
AcDbEntity
  8
001
 62
     5
370
    50
100
AcDbVertex
100
AcDb2dVertex
 10
48.039399
 20
52.808428
 30
0.0
  0
VERTEX
  5
378
330
373
100
AcDbEntity
  8
001
 62
     5
370
    50
100
AcDbVertex
100
AcDb2dVertex
 10
48.018632
 20
52.762514
 30
0.0
  0
VERTEX
  5
379
330
373
100
AcDbEntity
  8
001
 62
     5
370
    50
100
AcDbVertex
100
AcDb2dVertex
 10
48.008449
 20
52.717049
 30
0.0
  0
VERTEX
  5
37A
330
373
100
AcDbEntity
  8
001
 62
     5
370
    50
100
AcDbVertex
100
AcDb2dVertex
 10
48.005723
 20
52.692778
 30
0.0
  0
VERTEX
  5
37B
330
373
100
AcDbEntity
  8
001
 62
     5
370
    50
100
AcDbVertex
100
AcDb2dVertex
 10
48.00449
 20
52.668428
 30
0.0
  0
VERTEX
  5
37C
330
373
100
AcDbEntity
  8
001
 62
     5
370
    50
100
AcDbVertex
100
AcDb2dVertex
 10
48.005095
 20
52.644657
 30
0.0
  0
VERTEX
  5
37D
330
373
100
AcDbEntity
  8
001
 62
     5
370
    50
100
AcDbVertex
100
AcDb2dVertex
 10
48.00845
 20
52.619807
 30
0.0
  0
VERTEX
  5
37E
330
373
100
AcDbEntity
  8
001
 62
     5
370
    50
100
AcDbVertex
100
AcDb2dVertex
 10
48.022937
 20
52.568116
 30
0.0
  0
VERTEX
  5
37F
330
373
100
AcDbEntity
  8
001
 62
     5
370
    50
100
AcDbVertex
100
AcDb2dVertex
 10
48.037977
 20
52.531114
 30
0.0
  0
SEQEND
  5
374
330
373
100
AcDbEntity
  8
001
370
    50
  0
POLYLINE
  5
380
330
1C9
100
AcDbEntity
  8
001
 62
     5
370
    50
100
AcDb2dPolyline
 66
     1
 10
0.0
 20
0.0
 30
0.0
  0
VERTEX
  5
382
330
380
100
AcDbEntity
  8
001
 62
     5
370
    50
100
AcDbVertex
100
AcDb2dVertex
 10
47.868404
 20
51.821525
 30
0.0
  0
VERTEX
  5
383
330
380
100
AcDbEntity
  8
001
 62
     5
370
    50
100
AcDbVertex
100
AcDb2dVertex
 10
47.946928
 20
51.893201
 30
0.0
  0
VERTEX
  5
384
330
380
100
AcDbEntity
  8
001
 62
     5
370
    50
100
AcDbVertex
100
AcDb2dVertex
 10
48.035289
 20
52.00667
 30
0.0
  0
VERTEX
  5
385
330
380
100
AcDbEntity
  8
001
 62
     5
370
    50
100
AcDbVertex
100
AcDb2dVertex
 10
48.074439
 20
52.09223
 30
0.0
  0
VERTEX
  5
386
330
380
100
AcDbEntity
  8
001
 62
     5
370
    50
100
AcDbVertex
100
AcDb2dVertex
 10
48.093821
 20
52.179482
 30
0.0
  0
VERTEX
  5
387
330
380
100
AcDbEntity
  8
001
 62
     5
370
    50
100
AcDbVertex
100
AcDb2dVertex
 10
48.098988
 20
52.225509
 30
0.0
  0
VERTEX
  5
388
330
380
100
AcDbEntity
  8
001
 62
     5
370
    50
100
AcDbVertex
100
AcDb2dVertex
 10
48.101306
 20
52.271432
 30
0.0
  0
VERTEX
  5
389
330
380
100
AcDbEntity
  8
001
 62
     5
370
    50
100
AcDbVertex
100
AcDb2dVertex
 10
48.100159
 20
52.316351
 30
0.0
  0
VERTEX
  5
38A
330
380
100
AcDbEntity
  8
001
 62
     5
370
    50
100
AcDbVertex
100
AcDb2dVertex
 10
48.093819
 20
52.363383
 30
0.0
  0
VERTEX
  5
38B
330
380
100
AcDbEntity
  8
001
 62
     5
370
    50
100
AcDbVertex
100
AcDb2dVertex
 10
48.066422
 20
52.461155
 30
0.0
  0
VERTEX
  5
38C
330
380
100
AcDbEntity
  8
001
 62
     5
370
    50
100
AcDbVertex
100
AcDb2dVertex
 10
48.037977
 20
52.531114
 30
0.0
  0
SEQEND
  5
381
330
380
100
AcDbEntity
  8
001
370
    50
  0
POLYLINE
  5
38D
330
1C9
100
AcDbEntity
  8
001
 62
     5
370
    50
100
AcDb2dPolyline
 66
     1
 10
0.0
 20
0.0
 30
0.0
  0
VERTEX
  5
38F
330
38D
100
AcDbEntity
  8
001
 62
     5
370
    50
100
AcDbVertex
100
AcDb2dVertex
 10
47.868404
 20
51.821525
 30
0.0
  0
VERTEX
  5
390
330
38D
100
AcDbEntity
  8
001
 62
     5
370
    50
100
AcDbVertex
100
AcDb2dVertex
 10
47.826862
 20
51.783663
 30
0.0
  0
VERTEX
  5
391
330
38D
100
AcDbEntity
  8
001
 62
     5
370
    50
100
AcDbVertex
100
AcDb2dVertex
 10
47.780159
 20
51.723625
 30
0.0
  0
VERTEX
  5
392
330
38D
100
AcDbEntity
  8
001
 62
     5
370
    50
100
AcDbVertex
100
AcDb2dVertex
 10
47.759523
 20
51.678257
 30
0.0
  0
VERTEX
  5
393
330
38D
100
AcDbEntity
  8
001
 62
     5
370
    50
100
AcDbVertex
100
AcDb2dVertex
 10
47.749209
 20
51.632246
 30
0.0
  0
VERTEX
  5
394
330
38D
100
AcDbEntity
  8
001
 62
     5
370
    50
100
AcDbVertex
100
AcDb2dVertex
 10
47.746377
 20
51.608099
 30
0.0
  0
VERTEX
  5
395
330
38D
100
AcDbEntity
  8
001
 62
     5
370
    50
100
AcDbVertex
100
AcDb2dVertex
 10
47.74525
 20
51.583625
 30
0.0
  0
VERTEX
  5
396
330
38D
100
AcDbEntity
  8
001
 62
     5
370
    50
100
AcDbVertex
100
AcDb2dVertex
 10
47.7462
 20
51.559214
 30
0.0
  0
VERTEX
  5
397
330
38D
100
AcDbEntity
  8
001
 62
     5
370
    50
100
AcDbVertex
100
AcDb2dVertex
 10
47.74921
 20
51.535003
 30
0.0
  0
VERTEX
  5
398
330
38D
100
AcDbEntity
  8
001
 62
     5
370
    50
100
AcDbVertex
100
AcDb2dVertex
 10
47.760919
 20
51.48812
 30
0.0
  0
VERTEX
  5
399
330
38D
100
AcDbEntity
  8
001
 62
     5
370
    50
100
AcDbVertex
100
AcDb2dVertex
 10
47.780162
 20
51.443625
 30
0.0
  0
VERTEX
  5
39A
330
38D
100
AcDbEntity
  8
001
 62
     5
370
    50
100
AcDbVertex
100
AcDb2dVertex
 10
47.821018
 20
51.38612
 30
0.0
  0
VERTEX
  5
39B
330
38D
100
AcDbEntity
  8
001
 62
     5
370
    50
100
AcDbVertex
100
AcDb2dVertex
 10
47.875539
 20
51.341139
 30
0.0
  0
VERTEX
  5
39C
330
38D
100
AcDbEntity
  8
001
 62
     5
370
    50
100
AcDbVertex
100
AcDb2dVertex
 10
47.895967
 20
51.329864
 30
0.0
  0
VERTEX
  5
39D
330
38D
100
AcDbEntity
  8
001
 62
     5
370
    50
100
AcDbVertex
100
AcDb2dVertex
 10
47.916704
 20
51.320513
 30
0.0
  0
VERTEX
  5
39E
330
38D
100
AcDbEntity
  8
001
 62
     5
370
    50
100
AcDbVertex
100
AcDb2dVertex
 10
47.937333
 20
51.313196
 30
0.0
  0
VERTEX
  5
39F
330
38D
100
AcDbEntity
  8
001
 62
     5
370
    50
100
AcDbVertex
100
AcDb2dVertex
 10
47.960577
 20
51.307881
 30
0.0
  0
VERTEX
  5
3A0
330
38D
100
AcDbEntity
  8
001
 62
     5
370
    50
100
AcDbVertex
100
AcDb2dVertex
 10
47.985079
 20
51.304792
 30
0.0
  0
VERTEX
  5
3A1
330
38D
100
AcDbEntity
  8
001
 62
     5
370
    50
100
AcDbVertex
100
AcDb2dVertex
 10
48.002948
 20
51.303645
 30
0.0
  0
SEQEND
  5
38E
330
38D
100
AcDbEntity
  8
001
370
    50
  0
ENDBLK
  5
1CB
330
1C9
100
AcDbEntity
  8
0
100
AcDbBlockEnd
  0
BLOCK
  5
3A3
330
3A2
100
AcDbEntity
  8
0
100
AcDbBlockBegin
  2
*D3
 70
     1
 10
0.0
 20
0.0
 30
0.0
  3
*D3
  1

  0
LINE
  5
3A5
330
3A2
100
AcDbEntity
  8
001
370
     9
100
AcDbLine
 10
46.408604
 20
46.67183
 30
0.0
 11
58.4203
 21
26.41039
 31
0.0
  0
LINE
  5
3A6
330
3A2
100
AcDbEntity
  8
001
370
     9
100
AcDbLine
 10
42.263806
 20
41.503019
 30
0.0
 11
42.263806
 21
21.981235
 31
0.0
  0
ARC
  5
3A7
330
3A2
100
AcDbEntity
  8
001
370
     9
100
AcDbCircle
 10
42.263806
 20
53.663315
 30
0.0
 40
28.93208021672501
100
AcDbArc
 50
270.0
 51
300.660955
  0
POLYLINE
  5
3A8
330
3A2
100
AcDbEntity
  8
001
370
     9
100
AcDb2dPolyline
 66
     1
 10
0.0
 20
0.0
 30
0.0
  0
VERTEX
  5
3AA
330
3A8
100
AcDbEntity
  8
001
370
     9
100
AcDbVertex
100
AcDb2dVertex
 10
58.501814
 20
29.233756
 30
0.0
  0
VERTEX
  5
3AB
330
3A8
100
AcDbEntity
  8
001
370
     9
100
AcDbVertex
100
AcDb2dVertex
 10
57.017918
 20
28.77594
 30
0.0
  0
VERTEX
  5
3AC
330
3A8
100
AcDbEntity
  8
001
370
     9
100
AcDbVertex
100
AcDb2dVertex
 10
58.074102
 20
29.914368
 30
0.0
  0
SEQEND
  5
3A9
330
3A8
100
AcDbEntity
  8
001
370
     9
  0
POLYLINE
  5
3AD
330
3A2
100
AcDbEntity
  8
001
370
     9
100
AcDb2dPolyline
 66
     1
 10
0.0
 20
0.0
 30
0.0
  0
VERTEX
  5
3AF
330
3AD
100
AcDbEntity
  8
001
370
     9
100
AcDbVertex
100
AcDb2dVertex
 10
40.774728
 20
25.171903
 30
0.0
  0
VERTEX
  5
3B0
330
3AD
100
AcDbEntity
  8
001
370
     9
100
AcDbVertex
100
AcDb2dVertex
 10
42.263806
 20
24.731235
 30
0.0
  0
VERTEX
  5
3B1
330
3AD
100
AcDbEntity
  8
001
370
     9
100
AcDbVertex
100
AcDb2dVertex
 10
40.753893
 20
24.368326
 30
0.0
  0
SEQEND
  5
3AE
330
3AD
100
AcDbEntity
  8
001
370
     9
  0
TEXT
  5
3B2
330
3A2
100
AcDbEntity
  8
001
370
    30
100
AcDbText
 10
57.890445
 20
29.746599
 30
0.0
 40
4.0
  1
３０%%d
 50
45.282986
 41
0.978261
100
AcDbText
  0
POINT
  5
3B3
330
3A2
100
AcDbEntity
  8
001
370
     9
100
AcDbPoint
 10
46.408604
 20
46.67183
 30
0.0
  0
POINT
  5
3B4
330
3A2
100
AcDbEntity
  8
001
370
     9
100
AcDbPoint
 10
42.263806
 20
53.663315
 30
0.0
  0
POINT
  5
3B5
330
3A2
100
AcDbEntity
  8
001
370
     9
100
AcDbPoint
 10
42.263806
 20
53.663315
 30
0.0
  0
POINT
  5
3B6
330
3A2
100
AcDbEntity
  8
001
370
     9
100
AcDbPoint
 10
42.263806
 20
41.503019
 30
0.0
  0
ARC
  5
3B7
330
3A2
100
AcDbEntity
  8
001
370
     9
100
AcDbCircle
 10
42.263806
 20
53.663315
 30
0.0
 40
28.93208021672501
100
AcDbArc
 50
265.049113
 51
270.0
  0
ARC
  5
3B8
330
3A2
100
AcDbEntity
  8
001
370
     9
100
AcDbCircle
 10
42.263806
 20
53.663315
 30
0.0
 40
28.93208021672501
100
AcDbArc
 50
300.660955
 51
327.165114
  0
ENDBLK
  5
3A4
330
3A2
100
AcDbEntity
  8
0
100
AcDbBlockEnd
  0
BLOCK
  5
3BA
330
3B9
100
AcDbEntity
  8
0
100
AcDbBlockBegin
  2
*D4
 70
     1
 10
0.0
 20
0.0
 30
0.0
  3
*D4
  1

  0
LINE
  5
3BC
330
3B9
100
AcDbEntity
  8
001
370
     9
100
AcDbLine
 10
72.263806
 20
46.296781
 30
0.0
 11
72.263806
 21
18.164429
 31
0.0
  0
LINE
  5
3BD
330
3B9
100
AcDbEntity
  8
001
370
     9
100
AcDbLine
 10
42.263806
 20
41.503019
 30
0.0
 11
42.263806
 21
18.164429
 31
0.0
  0
LINE
  5
3BE
330
3B9
100
AcDbEntity
  8
001
370
     9
100
AcDbLine
 10
72.263806
 20
20.914429
 30
0.0
 11
42.263806
 21
20.914429
 31
0.0
  0
POLYLINE
  5
3BF
330
3B9
100
AcDbEntity
  8
001
370
     9
100
AcDb2dPolyline
 66
     1
 10
0.0
 20
0.0
 30
0.0
  0
VERTEX
  5
3C1
330
3BF
100
AcDbEntity
  8
001
370
     9
100
AcDbVertex
100
AcDb2dVertex
 10
70.763806
 20
21.316353
 30
0.0
  0
VERTEX
  5
3C2
330
3BF
100
AcDbEntity
  8
001
370
     9
100
AcDbVertex
100
AcDb2dVertex
 10
72.263806
 20
20.914429
 30
0.0
  0
VERTEX
  5
3C3
330
3BF
100
AcDbEntity
  8
001
370
     9
100
AcDbVertex
100
AcDb2dVertex
 10
70.763806
 20
20.512505
 30
0.0
  0
SEQEND
  5
3C0
330
3BF
100
AcDbEntity
  8
001
370
     9
  0
POLYLINE
  5
3C4
330
3B9
100
AcDbEntity
  8
001
370
     9
100
AcDb2dPolyline
 66
     1
 10
0.0
 20
0.0
 30
0.0
  0
VERTEX
  5
3C6
330
3C4
100
AcDbEntity
  8
001
370
     9
100
AcDbVertex
100
AcDb2dVertex
 10
43.763806
 20
20.512505
 30
0.0
  0
VERTEX
  5
3C7
330
3C4
100
AcDbEntity
  8
001
370
     9
100
AcDbVertex
100
AcDb2dVertex
 10
42.263806
 20
20.914429
 30
0.0
  0
VERTEX
  5
3C8
330
3C4
100
AcDbEntity
  8
001
370
     9
100
AcDbVertex
100
AcDb2dVertex
 10
43.763806
 20
21.316353
 30
0.0
  0
SEQEND
  5
3C5
330
3C4
100
AcDbEntity
  8
001
370
     9
  0
TEXT
  5
3C9
330
3B9
100
AcDbEntity
  8
001
370
    30
100
AcDbText
 10
57.012909
 20
21.914429
 30
0.0
 40
4.0
  1
３０
 41
0.833333
100
AcDbText
  0
POINT
  5
3CA
330
3B9
100
AcDbEntity
  8
001
370
     9
100
AcDbPoint
 10
72.263806
 20
46.296781
 30
0.0
  0
POINT
  5
3CB
330
3B9
100
AcDbEntity
  8
001
370
     9
100
AcDbPoint
 10
42.263806
 20
41.503019
 30
0.0
  0
POINT
  5
3CC
330
3B9
100
AcDbEntity
  8
001
370
     9
100
AcDbPoint
 10
42.263806
 20
20.914429
 30
0.0
  0
ENDBLK
  5
3BB
330
3B9
100
AcDbEntity
  8
0
100
AcDbBlockEnd
  0
BLOCK
  5
3CE
330
3CD
100
AcDbEntity
  8
0
100
AcDbBlockBegin
  2
*D5
 70
     1
 10
0.0
 20
0.0
 30
0.0
  3
*D5
  1

  0
LINE
  5
3D0
330
3CD
100
AcDbEntity
  8
001
370
     9
100
AcDbLine
 10
46.804188
 20
46.004557
 30
0.0
 11
46.804188
 21
30.406065
 31
0.0
  0
LINE
  5
3D1
330
3CD
100
AcDbEntity
  8
001
370
     9
100
AcDbLine
 10
42.263806
 20
41.503019
 30
0.0
 11
42.263806
 21
30.406065
 31
0.0
  0
LINE
  5
3D2
330
3CD
100
AcDbEntity
  8
001
370
     9
100
AcDbLine
 10
46.804188
 20
33.156065
 30
0.0
 11
42.263806
 21
33.156065
 31
0.0
  0
POLYLINE
  5
3D3
330
3CD
100
AcDbEntity
  8
001
370
     9
100
AcDb2dPolyline
 66
     1
 10
0.0
 20
0.0
 30
0.0
  0
VERTEX
  5
3D5
330
3D3
100
AcDbEntity
  8
001
370
     9
100
AcDbVertex
100
AcDb2dVertex
 10
48.304188
 20
32.754141
 30
0.0
  0
VERTEX
  5
3D6
330
3D3
100
AcDbEntity
  8
001
370
     9
100
AcDbVertex
100
AcDb2dVertex
 10
46.804188
 20
33.156065
 30
0.0
  0
VERTEX
  5
3D7
330
3D3
100
AcDbEntity
  8
001
370
     9
100
AcDbVertex
100
AcDb2dVertex
 10
48.304188
 20
33.557989
 30
0.0
  0
SEQEND
  5
3D4
330
3D3
100
AcDbEntity
  8
001
370
     9
  0
POLYLINE
  5
3D8
330
3CD
100
AcDbEntity
  8
001
370
     9
100
AcDb2dPolyline
 66
     1
 10
0.0
 20
0.0
 30
0.0
  0
VERTEX
  5
3DA
330
3D8
100
AcDbEntity
  8
001
370
     9
100
AcDbVertex
100
AcDb2dVertex
 10
40.763806
 20
33.557989
 30
0.0
  0
VERTEX
  5
3DB
330
3D8
100
AcDbEntity
  8
001
370
     9
100
AcDbVertex
100
AcDb2dVertex
 10
42.263806
 20
33.156065
 30
0.0
  0
VERTEX
  5
3DC
330
3D8
100
AcDbEntity
  8
001
370
     9
100
AcDbVertex
100
AcDb2dVertex
 10
40.763806
 20
32.754141
 30
0.0
  0
SEQEND
  5
3D9
330
3D8
100
AcDbEntity
  8
001
370
     9
  0
TEXT
  5
3DD
330
3CD
100
AcDbEntity
  8
001
370
    30
100
AcDbText
 10
19.482183
 20
34.156065
 30
0.0
 40
4.0
  1
（４．５）
 41
0.833333
100
AcDbText
  0
POINT
  5
3DE
330
3CD
100
AcDbEntity
  8
001
370
     9
100
AcDbPoint
 10
46.804188
 20
46.004557
 30
0.0
  0
POINT
  5
3DF
330
3CD
100
AcDbEntity
  8
001
370
     9
100
AcDbPoint
 10
42.263806
 20
41.503019
 30
0.0
  0
POINT
  5
3E0
330
3CD
100
AcDbEntity
  8
001
370
     9
100
AcDbPoint
 10
42.263806
 20
33.156065
 30
0.0
  0
LINE
  5
3E1
330
3CD
100
AcDbEntity
  8
001
370
     9
100
AcDbLine
 10
46.804188
 20
33.156065
 30
0.0
 11
49.304188
 21
33.156065
 31
0.0
  0
LINE
  5
3E2
330
3CD
100
AcDbEntity
  8
001
370
     9
100
AcDbLine
 10
42.263806
 20
33.156065
 30
0.0
 11
16.482183
 21
33.156065
 31
0.0
  0
ENDBLK
  5
3CF
330
3CD
100
AcDbEntity
  8
0
100
AcDbBlockEnd
  0
BLOCK
  5
3E4
330
3E3
100
AcDbEntity
  8
0
100
AcDbBlockBegin
  2
*D6
 70
     1
 10
0.0
 20
0.0
 30
0.0
  3
*D6
  1

  0
LINE
  5
3E6
330
3E3
100
AcDbEntity
  8
001
370
     9
100
AcDbLine
 10
42.263806
 20
41.503019
 30
0.0
 11
42.263806
 21
7.493411
 31
0.0
  0
LINE
  5
3E7
330
3E3
100
AcDbEntity
  8
001
370
     9
100
AcDbLine
 10
167.263806
 20
49.996781
 30
0.0
 11
167.263806
 21
7.493411
 31
0.0
  0
LINE
  5
3E8
330
3E3
100
AcDbEntity
  8
001
370
     9
100
AcDbLine
 10
42.263806
 20
10.243411
 30
0.0
 11
167.263806
 21
10.243411
 31
0.0
  0
POLYLINE
  5
3E9
330
3E3
100
AcDbEntity
  8
001
370
     9
100
AcDb2dPolyline
 66
     1
 10
0.0
 20
0.0
 30
0.0
  0
VERTEX
  5
3EB
330
3E9
100
AcDbEntity
  8
001
370
     9
100
AcDbVertex
100
AcDb2dVertex
 10
43.763806
 20
9.841487
 30
0.0
  0
VERTEX
  5
3EC
330
3E9
100
AcDbEntity
  8
001
370
     9
100
AcDbVertex
100
AcDb2dVertex
 10
42.263806
 20
10.243411
 30
0.0
  0
VERTEX
  5
3ED
330
3E9
100
AcDbEntity
  8
001
370
     9
100
AcDbVertex
100
AcDb2dVertex
 10
43.763806
 20
10.645335
 30
0.0
  0
SEQEND
  5
3EA
330
3E9
100
AcDbEntity
  8
001
370
     9
  0
POLYLINE
  5
3EE
330
3E3
100
AcDbEntity
  8
001
370
     9
100
AcDb2dPolyline
 66
     1
 10
0.0
 20
0.0
 30
0.0
  0
VERTEX
  5
3F0
330
3EE
100
AcDbEntity
  8
001
370
     9
100
AcDbVertex
100
AcDb2dVertex
 10
165.763806
 20
10.645335
 30
0.0
  0
VERTEX
  5
3F1
330
3EE
100
AcDbEntity
  8
001
370
     9
100
AcDbVertex
100
AcDb2dVertex
 10
167.263806
 20
10.243411
 30
0.0
  0
VERTEX
  5
3F2
330
3EE
100
AcDbEntity
  8
001
370
     9
100
AcDbVertex
100
AcDb2dVertex
 10
165.763806
 20
9.841487
 30
0.0
  0
SEQEND
  5
3EF
330
3EE
100
AcDbEntity
  8
001
370
     9
  0
TEXT
  5
3F3
330
3E3
100
AcDbEntity
  8
001
370
    30
100
AcDbText
 10
98.763806
 20
11.243411
 30
0.0
 40
4.0
  1
１２５
 41
0.833333
100
AcDbText
  0
POINT
  5
3F4
330
3E3
100
AcDbEntity
  8
001
370
     9
100
AcDbPoint
 10
42.263806
 20
41.503019
 30
0.0
  0
POINT
  5
3F5
330
3E3
100
AcDbEntity
  8
001
370
     9
100
AcDbPoint
 10
167.263806
 20
49.996781
 30
0.0
  0
POINT
  5
3F6
330
3E3
100
AcDbEntity
  8
001
370
     9
100
AcDbPoint
 10
167.263806
 20
10.243411
 30
0.0
  0
ENDBLK
  5
3E5
330
3E3
100
AcDbEntity
  8
0
100
AcDbBlockEnd
  0
BLOCK
  5
3F8
330
3F7
100
AcDbEntity
  8
0
100
AcDbBlockBegin
  2
*D7
 70
     1
 10
0.0
 20
0.0
 30
0.0
  3
*D7
  1

  0
LINE
  5
3FA
330
3F7
100
AcDbEntity
  8
001
370
     9
100
AcDbLine
 10
167.263806
 20
49.996781
 30
0.0
 11
167.263806
 21
18.164429
 31
0.0
  0
LINE
  5
3FB
330
3F7
100
AcDbEntity
  8
001
370
     9
100
AcDbLine
 10
72.263806
 20
46.296781
 30
0.0
 11
72.263806
 21
18.164429
 31
0.0
  0
LINE
  5
3FC
330
3F7
100
AcDbEntity
  8
001
370
     9
100
AcDbLine
 10
167.263806
 20
20.914429
 30
0.0
 11
72.263806
 21
20.914429
 31
0.0
  0
POLYLINE
  5
3FD
330
3F7
100
AcDbEntity
  8
001
370
     9
100
AcDb2dPolyline
 66
     1
 10
0.0
 20
0.0
 30
0.0
  0
VERTEX
  5
3FF
330
3FD
100
AcDbEntity
  8
001
370
     9
100
AcDbVertex
100
AcDb2dVertex
 10
165.763806
 20
21.316353
 30
0.0
  0
VERTEX
  5
400
330
3FD
100
AcDbEntity
  8
001
370
     9
100
AcDbVertex
100
AcDb2dVertex
 10
167.263806
 20
20.914429
 30
0.0
  0
VERTEX
  5
401
330
3FD
100
AcDbEntity
  8
001
370
     9
100
AcDbVertex
100
AcDb2dVertex
 10
165.763806
 20
20.512505
 30
0.0
  0
SEQEND
  5
3FE
330
3FD
100
AcDbEntity
  8
001
370
     9
  0
POLYLINE
  5
402
330
3F7
100
AcDbEntity
  8
001
370
     9
100
AcDb2dPolyline
 66
     1
 10
0.0
 20
0.0
 30
0.0
  0
VERTEX
  5
404
330
402
100
AcDbEntity
  8
001
370
     9
100
AcDbVertex
100
AcDb2dVertex
 10
73.763806
 20
20.512505
 30
0.0
  0
VERTEX
  5
405
330
402
100
AcDbEntity
  8
001
370
     9
100
AcDbVertex
100
AcDb2dVertex
 10
72.263806
 20
20.914429
 30
0.0
  0
VERTEX
  5
406
330
402
100
AcDbEntity
  8
001
370
     9
100
AcDbVertex
100
AcDb2dVertex
 10
73.763806
 20
21.316353
 30
0.0
  0
SEQEND
  5
403
330
402
100
AcDbEntity
  8
001
370
     9
  0
TEXT
  5
407
330
3F7
100
AcDbEntity
  8
001
370
    30
100
AcDbText
 10
115.763806
 20
21.914429
 30
0.0
 40
4.0
  1
９５
 41
0.833333
100
AcDbText
  0
POINT
  5
408
330
3F7
100
AcDbEntity
  8
001
370
     9
100
AcDbPoint
 10
167.263806
 20
49.996781
 30
0.0
  0
POINT
  5
409
330
3F7
100
AcDbEntity
  8
001
370
     9
100
AcDbPoint
 10
72.263806
 20
46.296781
 30
0.0
  0
POINT
  5
40A
330
3F7
100
AcDbEntity
  8
001
370
     9
100
AcDbPoint
 10
72.263806
 20
20.914429
 30
0.0
  0
ENDBLK
  5
3F9
330
3F7
100
AcDbEntity
  8
0
100
AcDbBlockEnd
  0
BLOCK
  5
40C
330
40B
100
AcDbEntity
  8
0
100
AcDbBlockBegin
  2
*D8
 70
     1
 10
0.0
 20
0.0
 30
0.0
  3
*D8
  1

  0
LINE
  5
40E
330
40B
100
AcDbEntity
  8
001
370
     9
100
AcDbLine
 10
161.263806
 20
63.996781
 30
0.0
 11
192.669697
 21
63.996781
 31
0.0
  0
LINE
  5
40F
330
40B
100
AcDbEntity
  8
001
370
     9
100
AcDbLine
 10
161.263806
 20
43.996781
 30
0.0
 11
192.669697
 21
43.996781
 31
0.0
  0
LINE
  5
410
330
40B
100
AcDbEntity
  8
001
370
     9
100
AcDbLine
 10
189.919697
 20
63.996781
 30
0.0
 11
189.919697
 21
43.996781
 31
0.0
  0
POLYLINE
  5
411
330
40B
100
AcDbEntity
  8
001
370
     9
100
AcDb2dPolyline
 66
     1
 10
0.0
 20
0.0
 30
0.0
  0
VERTEX
  5
413
330
411
100
AcDbEntity
  8
001
370
     9
100
AcDbVertex
100
AcDb2dVertex
 10
189.517773
 20
62.496781
 30
0.0
  0
VERTEX
  5
414
330
411
100
AcDbEntity
  8
001
370
     9
100
AcDbVertex
100
AcDb2dVertex
 10
189.919697
 20
63.996781
 30
0.0
  0
VERTEX
  5
415
330
411
100
AcDbEntity
  8
001
370
     9
100
AcDbVertex
100
AcDb2dVertex
 10
190.321621
 20
62.496781
 30
0.0
  0
SEQEND
  5
412
330
411
100
AcDbEntity
  8
001
370
     9
  0
POLYLINE
  5
416
330
40B
100
AcDbEntity
  8
001
370
     9
100
AcDb2dPolyline
 66
     1
 10
0.0
 20
0.0
 30
0.0
  0
VERTEX
  5
418
330
416
100
AcDbEntity
  8
001
370
     9
100
AcDbVertex
100
AcDb2dVertex
 10
190.321621
 20
45.496781
 30
0.0
  0
VERTEX
  5
419
330
416
100
AcDbEntity
  8
001
370
     9
100
AcDbVertex
100
AcDb2dVertex
 10
189.919697
 20
43.996781
 30
0.0
  0
VERTEX
  5
41A
330
416
100
AcDbEntity
  8
001
370
     9
100
AcDbVertex
100
AcDb2dVertex
 10
189.517773
 20
45.496781
 30
0.0
  0
SEQEND
  5
417
330
416
100
AcDbEntity
  8
001
370
     9
  0
TEXT
  5
41B
330
40B
100
AcDbEntity
  8
001
370
    30
100
AcDbText
 10
188.919697
 20
28.496781
 30
0.0
 40
4.0
  1
%%c２０
 50
90.000003
 41
0.882353
100
AcDbText
  0
POINT
  5
41C
330
40B
100
AcDbEntity
  8
001
370
     9
100
AcDbPoint
 10
161.263806
 20
63.996781
 30
0.0
  0
POINT
  5
41D
330
40B
100
AcDbEntity
  8
001
370
     9
100
AcDbPoint
 10
161.263806
 20
43.996781
 30
0.0
  0
POINT
  5
41E
330
40B
100
AcDbEntity
  8
001
370
     9
100
AcDbPoint
 10
189.919697
 20
43.996781
 30
0.0
  0
LINE
  5
41F
330
40B
100
AcDbEntity
  8
001
370
     9
100
AcDbLine
 10
189.919697
 20
43.996781
 30
0.0
 11
189.919697
 21
25.496781
 31
0.0
  0
ENDBLK
  5
40D
330
40B
100
AcDbEntity
  8
0
100
AcDbBlockEnd
  0
ENDSEC
  0
SECTION
  2
ENTITIES
  0
INSERT
  5
420
330
1F
100
AcDbEntity
  8
001
  6
ByBlock
 62
     0
370
    -2
100
AcDbBlockReference
  2
C32GUX-1
 10
0.0
 20
0.0
 30
0.0
  0
INSERT
  5
421
330
1F
100
AcDbEntity
  8
001
  6
ByBlock
 62
     0
370
    -2
100
AcDbBlockReference
  2
M-1-2
 10
0.0
 20
0.0
 30
0.0
  0
DIMENSION
  5
422
330
1F
100
AcDbEntity
  8
001
370
     9
100
AcDbDimension
  2
*D3
 10
42.263806
 20
53.663315
 30
0.0
 11
60.690898
 21
35.417354
 31
0.0
 70
    34
 71
     5
 42
-1.0
  3
Standard
100
AcDb2LineAngularDimension
 13
46.408604
 23
46.67183
 33
0.0
 14
42.263806
 24
53.663315
 34
0.0
 15
42.263806
 25
41.503019
 35
0.0
 16
49.913046
 26
25.760727
 36
0.0
  0
DIMENSION
  5
423
330
1F
100
AcDbEntity
  8
001
370
     9
100
AcDbDimension
  2
*D4
 10
42.263806
 20
20.914429
 30
0.0
 11
61.012909
 21
23.914429
 31
0.0
 70
   160
 71
     5
 42
-1.0
  3
Standard
100
AcDbAlignedDimension
 13
72.263806
 23
46.296781
 33
0.0
 14
42.263806
 24
41.503019
 34
0.0
 50
180.0
100
AcDbRotatedDimension
  0
DIMENSION
  5
424
330
1F
100
AcDbEntity
  8
001
370
     9
100
AcDbDimension
  2
*D5
 10
42.263806
 20
33.156065
 30
0.0
 11
29.482183
 21
36.156065
 31
0.0
 70
   160
 71
     5
 42
-1.0
  3
Standard
100
AcDbAlignedDimension
 13
46.804188
 23
46.004557
 33
0.0
 14
42.263806
 24
41.503019
 34
0.0
 50
180.0
100
AcDbRotatedDimension
  0
TEXT
  5
425
330
1F
100
AcDbEntity
  8
001
370
    30
100
AcDbText
 10
33.842351
 20
59.008851
 30
0.0
 40
4.0
  1
%%c０．６８
 50
90.000003
 41
0.862069
100
AcDbText
  0
POLYLINE
  5
426
330
1F
100
AcDbEntity
  8
001
370
     9
100
AcDb2dPolyline
 66
     1
 10
0.0
 20
0.0
 30
0.0
  0
VERTEX
  5
428
330
426
100
AcDbEntity
  8
001
370
     9
100
AcDbVertex
100
AcDb2dVertex
 10
35.244275
 20
55.163315
 30
0.0
  0
VERTEX
  5
429
330
426
100
AcDbEntity
  8
001
370
     9
100
AcDbVertex
100
AcDb2dVertex
 10
34.842351
 20
53.663315
 30
0.0
  0
VERTEX
  5
42A
330
426
100
AcDbEntity
  8
001
370
     9
100
AcDbVertex
100
AcDb2dVertex
 10
34.440428
 20
55.163315
 30
0.0
  0
SEQEND
  5
427
330
426
100
AcDbEntity
  8
001
370
     9
  0
LINE
  5
42B
330
1F
100
AcDbEntity
  8
001
370
     9
100
AcDbLine
 10
34.842351
 20
82.008851
 30
0.0
 11
34.842351
 21
53.663315
 31
0.0
  0
POLYLINE
  5
42C
330
1F
100
AcDbEntity
  8
001
370
     9
100
AcDb2dPolyline
 66
     1
 10
0.0
 20
0.0
 30
0.0
  0
VERTEX
  5
42E
330
42C
100
AcDbEntity
  8
001
370
     9
100
AcDbVertex
100
AcDb2dVertex
 10
42.263806
 20
53.663315
 30
0.0
  0
VERTEX
  5
42F
330
42C
100
AcDbEntity
  8
001
370
     9
100
AcDbVertex
100
AcDb2dVertex
 10
34.842351
 20
53.663315
 30
0.0
  0
VERTEX
  5
430
330
42C
100
AcDbEntity
  8
001
370
     9
100
AcDbVertex
100
AcDb2dVertex
 10
32.092351
 20
53.663315
 30
0.0
  0
SEQEND
  5
42D
330
42C
100
AcDbEntity
  8
001
370
     9
  0
DIMENSION
  5
431
330
1F
100
AcDbEntity
  8
001
370
     9
100
AcDbDimension
  2
*D6
 10
167.263806
 20
10.243411
 30
0.0
 11
104.763806
 21
13.243411
 31
0.0
 70
   160
 71
     5
 42
-1.0
  3
Standard
100
AcDbAlignedDimension
 13
42.263806
 23
41.503019
 33
0.0
 14
167.263806
 24
49.996781
 34
0.0
100
AcDbRotatedDimension
  0
DIMENSION
  5
432
330
1F
100
AcDbEntity
  8
001
370
     9
100
AcDbDimension
  2
*D7
 10
72.263806
 20
20.914429
 30
0.0
 11
119.763806
 21
23.914429
 31
0.0
 70
   160
 71
     5
 42
-1.0
  3
Standard
100
AcDbAlignedDimension
 13
167.263806
 23
49.996781
 33
0.0
 14
72.263806
 24
46.296781
 34
0.0
 50
180.0
100
AcDbRotatedDimension
  0
DIMENSION
  5
433
330
1F
100
AcDbEntity
  8
001
370
     9
100
AcDbDimension
  2
*D8
 10
189.919697
 20
43.996781
 30
0.0
 11
186.919697
 21
34.496781
 31
0.0
 70
   160
 71
     5
 42
-1.0
  3
Standard
100
AcDbAlignedDimension
 13
161.263806
 23
63.996781
 33
0.0
 14
161.263806
 24
43.996781
 34
0.0
 50
270.0
100
AcDbRotatedDimension
  0
TEXT
  5
434
330
1F
100
AcDbEntity
  8
001
370
    30
100
AcDbText
 10
23.217664
 20
49.934565
 30
0.0
 40
4.0
  1
%%c１６．２８
 50
90.000003
 41
0.857143
100
AcDbText
  0
POLYLINE
  5
435
330
1F
100
AcDbEntity
  8
001
370
     9
100
AcDb2dPolyline
 66
     1
 10
0.0
 20
0.0
 30
0.0
  0
VERTEX
  5
437
330
435
100
AcDbEntity
  8
001
370
     9
100
AcDbVertex
100
AcDb2dVertex
 10
24.619588
 20
47.504557
 30
0.0
  0
VERTEX
  5
438
330
435
100
AcDbEntity
  8
001
370
     9
100
AcDbVertex
100
AcDb2dVertex
 10
24.217664
 20
46.004557
 30
0.0
  0
VERTEX
  5
439
330
435
100
AcDbEntity
  8
001
370
     9
100
AcDbVertex
100
AcDb2dVertex
 10
23.81574
 20
47.504557
 30
0.0
  0
SEQEND
  5
436
330
435
100
AcDbEntity
  8
001
370
     9
  0
LINE
  5
43A
330
1F
100
AcDbEntity
  8
001
370
     9
100
AcDbLine
 10
24.217664
 20
62.285786
 30
0.0
 11
24.217664
 21
46.004557
 31
0.0
  0
POLYLINE
  5
43B
330
1F
100
AcDbEntity
  8
001
370
     9
100
AcDb2dPolyline
 66
     1
 10
0.0
 20
0.0
 30
0.0
  0
VERTEX
  5
43D
330
43B
100
AcDbEntity
  8
001
370
     9
100
AcDbVertex
100
AcDb2dVertex
 10
47.046443
 20
46.004557
 30
0.0
  0
VERTEX
  5
43E
330
43B
100
AcDbEntity
  8
001
370
     9
100
AcDbVertex
100
AcDb2dVertex
 10
24.217664
 20
46.004557
 30
0.0
  0
VERTEX
  5
43F
330
43B
100
AcDbEntity
  8
001
370
     9
100
AcDbVertex
100
AcDb2dVertex
 10
21.467664
 20
46.004557
 30
0.0
  0
SEQEND
  5
43C
330
43B
100
AcDbEntity
  8
001
370
     9
  0
TEXT
  5
440
330
1F
100
AcDbEntity
  8
001
370
    30
100
AcDbText
 10
27.599625
 20
92.75585
 30
0.0
 40
8.0
  1
面取りカッター面面　ＳＮＫ３０１５Ｃ
 41
0.833333
100
AcDbText
  0
LINE
  5
441
330
1F
100
AcDbEntity
  8
001
 62
   253
370
    50
100
AcDbLine
 10
161.263806
 20
63.996781
 30
0.0
 11
74.563806
 21
63.996781
 31
0.0
  0
LINE
  5
442
330
1F
100
AcDbEntity
  8
001
 62
   253
370
    50
100
AcDbLine
 10
161.263806
 20
43.996781
 30
0.0
 11
74.563806
 21
43.996781
 31
0.0
  0
LINE
  5
443
330
1F
100
AcDbEntity
  8
001
 62
   253
370
    50
100
AcDbLine
 10
74.563806
 20
63.996781
 30
0.0
 11
74.563806
 21
43.996781
 31
0.0
  0
ARC
  5
444
330
1F
100
AcDbEntity
  8
001
 62
   253
370
    50
100
AcDbCircle
 10
161.263806
 20
57.996781
 30
0.0
 40
6.0
100
AcDbArc
 50
0.0
 51
90.0
  0
ARC
  5
445
330
1F
100
AcDbEntity
  8
001
 62
   253
370
    50
100
AcDbCircle
 10
161.263806
 20
49.996781
 30
0.0
 40
6.0
100
AcDbArc
 50
270.0
 51
0.0
  0
LINE
  5
446
330
1F
100
AcDbEntity
  8
001
 62
   253
370
    50
100
AcDbLine
 10
167.263806
 20
57.996781
 30
0.0
 11
167.263806
 21
49.996781
 31
0.0
  0
LINE
  5
447
330
1F
100
AcDbEntity
  8
001
 62
   253
370
    50
100
AcDbLine
 10
74.563806
 20
63.996781
 30
0.0
 11
72.263806
 21
61.696781
 31
0.0
  0
LINE
  5
448
330
1F
100
AcDbEntity
  8
001
 62
   253
370
    50
100
AcDbLine
 10
72.263806
 20
46.296781
 30
0.0
 11
74.563806
 21
43.996781
 31
0.0
  0
LINE
  5
449
330
1F
100
AcDbEntity
  8
001
 62
   253
370
    50
100
AcDbLine
 10
72.263806
 20
61.696781
 30
0.0
 11
72.263806
 21
46.296781
 31
0.0
  0
POLYLINE
  5
44A
330
1F
100
AcDbEntity
  8
001
 62
   253
370
    50
100
AcDb2dPolyline
 66
     1
 10
0.0
 20
0.0
 30
0.0
  0
VERTEX
  5
44C
330
44A
100
AcDbEntity
  8
001
 62
   253
370
    50
100
AcDbVertex
100
AcDb2dVertex
 10
57.263806
 20
49.096053
 30
0.0
  0
VERTEX
  5
44D
330
44A
100
AcDbEntity
  8
001
 62
   253
370
    50
100
AcDbVertex
100
AcDb2dVertex
 10
57.403949
 20
49.529546
 30
0.0
  0
VERTEX
  5
44E
330
44A
100
AcDbEntity
  8
001
 62
   253
370
    50
100
AcDbVertex
100
AcDb2dVertex
 10
57.581384
 20
50.146781
 30
0.0
  0
VERTEX
  5
44F
330
44A
100
AcDbEntity
  8
001
 62
   253
370
    50
100
AcDbVertex
100
AcDb2dVertex
 10
57.85659
 20
51.45954
 30
0.0
  0
VERTEX
  5
450
330
44A
100
AcDbEntity
  8
001
 62
   253
370
    50
100
AcDbVertex
100
AcDb2dVertex
 10
57.979661
 20
52.65969
 30
0.0
  0
VERTEX
  5
451
330
44A
100
AcDbEntity
  8
001
 62
   253
370
    50
100
AcDbVertex
100
AcDb2dVertex
 10
58.016136
 20
53.319153
 30
0.0
  0
VERTEX
  5
452
330
44A
100
AcDbEntity
  8
001
 62
   253
370
    50
100
AcDbVertex
100
AcDb2dVertex
 10
58.030601
 20
53.996781
 30
0.0
  0
VERTEX
  5
453
330
44A
100
AcDbEntity
  8
001
 62
   253
370
    50
100
AcDbVertex
100
AcDb2dVertex
 10
58.016136
 20
54.674408
 30
0.0
  0
VERTEX
  5
454
330
44A
100
AcDbEntity
  8
001
 62
   253
370
    50
100
AcDbVertex
100
AcDb2dVertex
 10
57.979661
 20
55.333872
 30
0.0
  0
VERTEX
  5
455
330
44A
100
AcDbEntity
  8
001
 62
   253
370
    50
100
AcDbVertex
100
AcDb2dVertex
 10
57.85659
 20
56.534022
 30
0.0
  0
VERTEX
  5
456
330
44A
100
AcDbEntity
  8
001
 62
   253
370
    50
100
AcDbVertex
100
AcDb2dVertex
 10
57.581384
 20
57.846781
 30
0.0
  0
VERTEX
  5
457
330
44A
100
AcDbEntity
  8
001
 62
   253
370
    50
100
AcDbVertex
100
AcDb2dVertex
 10
57.403949
 20
58.464015
 30
0.0
  0
VERTEX
  5
458
330
44A
100
AcDbEntity
  8
001
 62
   253
370
    50
100
AcDbVertex
100
AcDb2dVertex
 10
57.263806
 20
58.897508
 30
0.0
  0
SEQEND
  5
44B
330
44A
100
AcDbEntity
  8
001
370
    50
  0
LINE
  5
459
330
1F
100
AcDbEntity
  8
001
 62
   253
370
    50
100
AcDbLine
 10
57.263806
 20
49.096053
 30
0.0
 11
57.263806
 21
58.897508
 31
0.0
  0
POLYLINE
  5
45A
330
1F
100
AcDbEntity
  8
001
 62
   253
370
    50
100
AcDb2dPolyline
 66
     1
 10
0.0
 20
0.0
 30
0.0
  0
VERTEX
  5
45C
330
45A
100
AcDbEntity
  8
001
 62
   253
370
    50
100
AcDbVertex
100
AcDb2dVertex
 10
61.662131
 20
61.696781
 30
0.0
  0
VERTEX
  5
45D
330
45A
100
AcDbEntity
  8
001
 62
   253
370
    50
100
AcDbVertex
100
AcDb2dVertex
 10
61.60124
 20
61.69475
 30
0.0
  0
VERTEX
  5
45E
330
45A
100
AcDbEntity
  8
001
 62
   253
370
    50
100
AcDbVertex
100
AcDb2dVertex
 10
61.513573
 20
61.68967
 30
0.0
  0
VERTEX
  5
45F
330
45A
100
AcDbEntity
  8
001
 62
   253
370
    50
100
AcDbVertex
100
AcDb2dVertex
 10
60.98458
 20
61.620373
 30
0.0
  0
VERTEX
  5
460
330
45A
100
AcDbEntity
  8
001
 62
   253
370
    50
100
AcDbVertex
100
AcDb2dVertex
 10
60.53792
 20
61.51535
 30
0.0
  0
VERTEX
  5
461
330
45A
100
AcDbEntity
  8
001
 62
   253
370
    50
100
AcDbVertex
100
AcDb2dVertex
 10
59.797866
 20
61.32709
 30
0.0
  0
VERTEX
  5
462
330
45A
100
AcDbEntity
  8
001
 62
   253
370
    50
100
AcDbVertex
100
AcDb2dVertex
 10
58.98944
 20
61.112582
 30
0.0
  0
VERTEX
  5
463
330
45A
100
AcDbEntity
  8
001
 62
   253
370
    50
100
AcDbVertex
100
AcDb2dVertex
 10
56.628589
 20
60.406648
 30
0.0
  0
VERTEX
  5
464
330
45A
100
AcDbEntity
  8
001
 62
   253
370
    50
100
AcDbVertex
100
AcDb2dVertex
 10
54.893277
 20
59.846734
 30
0.0
  0
SEQEND
  5
45B
330
45A
100
AcDbEntity
  8
001
370
    50
  0
LINE
  5
465
330
1F
100
AcDbEntity
  8
001
 62
   253
370
    50
100
AcDbLine
 10
72.263806
 20
61.696781
 30
0.0
 11
61.662131
 21
61.696781
 31
0.0
  0
LINE
  5
466
330
1F
100
AcDbEntity
  8
001
 62
   253
370
    50
100
AcDbLine
 10
48.455842
 20
46.296781
 30
0.0
 11
72.263806
 21
46.296781
 31
0.0
  0
POLYLINE
  5
467
330
1F
100
AcDbEntity
  8
001
 62
   253
370
    50
100
AcDb2dPolyline
 66
     1
 10
0.0
 20
0.0
 30
0.0
  0
VERTEX
  5
469
330
467
100
AcDbEntity
  8
001
 62
   253
370
    50
100
AcDbVertex
100
AcDb2dVertex
 10
54.273236
 20
47.946629
 30
0.0
  0
VERTEX
  5
46A
330
467
100
AcDbEntity
  8
001
 62
   253
370
    50
100
AcDbVertex
100
AcDb2dVertex
 10
54.916816
 20
48.155318
 30
0.0
  0
VERTEX
  5
46B
330
467
100
AcDbEntity
  8
001
 62
   253
370
    50
100
AcDbVertex
100
AcDb2dVertex
 10
55.84677
 20
48.489851
 30
0.0
  0
VERTEX
  5
46C
330
467
100
AcDbEntity
  8
001
 62
   253
370
    50
100
AcDbVertex
100
AcDb2dVertex
 10
56.692922
 20
48.838254
 30
0.0
  0
VERTEX
  5
46D
330
467
100
AcDbEntity
  8
001
 62
   253
370
    50
100
AcDbVertex
100
AcDb2dVertex
 10
57.263806
 20
49.096053
 30
0.0
  0
SEQEND
  5
468
330
467
100
AcDbEntity
  8
001
370
    50
  0
POLYLINE
  5
46E
330
1F
100
AcDbEntity
  8
001
 62
   253
370
    50
100
AcDb2dPolyline
 66
     1
 10
0.0
 20
0.0
 30
0.0
  0
VERTEX
  5
470
330
46E
100
AcDbEntity
  8
001
 62
   253
370
    50
100
AcDbVertex
100
AcDb2dVertex
 10
57.263806
 20
58.897508
 30
0.0
  0
VERTEX
  5
471
330
46E
100
AcDbEntity
  8
001
 62
   253
370
    50
100
AcDbVertex
100
AcDb2dVertex
 10
56.806757
 20
59.106143
 30
0.0
  0
VERTEX
  5
472
330
46E
100
AcDbEntity
  8
001
 62
   253
370
    50
100
AcDbVertex
100
AcDb2dVertex
 10
56.13077
 20
59.392295
 30
0.0
  0
VERTEX
  5
473
330
46E
100
AcDbEntity
  8
001
 62
   253
370
    50
100
AcDbVertex
100
AcDb2dVertex
 10
55.39901
 20
59.670007
 30
0.0
  0
VERTEX
  5
474
330
46E
100
AcDbEntity
  8
001
 62
   253
370
    50
100
AcDbVertex
100
AcDb2dVertex
 10
54.893277
 20
59.846734
 30
0.0
  0
SEQEND
  5
46F
330
46E
100
AcDbEntity
  8
001
370
    50
  0
POLYLINE
  5
475
330
1F
100
AcDbEntity
  8
001
 62
   253
370
    50
100
AcDb2dPolyline
 66
     1
 10
0.0
 20
0.0
 30
0.0
  0
VERTEX
  5
477
330
475
100
AcDbEntity
  8
001
 62
   253
370
    50
100
AcDbVertex
100
AcDb2dVertex
 10
48.563584
 20
46.719927
 30
0.0
  0
VERTEX
  5
478
330
475
100
AcDbEntity
  8
001
 62
   253
370
    50
100
AcDbVertex
100
AcDb2dVertex
 10
48.526942
 20
46.694047
 30
0.0
  0
VERTEX
  5
479
330
475
100
AcDbEntity
  8
001
 62
   253
370
    50
100
AcDbVertex
100
AcDb2dVertex
 10
48.471849
 20
46.654678
 30
0.0
  0
VERTEX
  5
47A
330
475
100
AcDbEntity
  8
001
 62
   253
370
    50
100
AcDbVertex
100
AcDb2dVertex
 10
48.274061
 20
46.499439
 30
0.0
  0
VERTEX
  5
47B
330
475
100
AcDbEntity
  8
001
 62
   253
370
    50
100
AcDbVertex
100
AcDb2dVertex
 10
48.23122
 20
46.363315
 30
0.0
  0
VERTEX
  5
47C
330
475
100
AcDbEntity
  8
001
 62
   253
370
    50
100
AcDbVertex
100
AcDb2dVertex
 10
48.345648
 20
46.313656
 30
0.0
  0
VERTEX
  5
47D
330
475
100
AcDbEntity
  8
001
 62
   253
370
    50
100
AcDbVertex
100
AcDb2dVertex
 10
48.455842
 20
46.296781
 30
0.0
  0
SEQEND
  5
476
330
475
100
AcDbEntity
  8
001
370
    50
  0
POLYLINE
  5
47E
330
1F
100
AcDbEntity
  8
001
 62
   253
370
    50
100
AcDb2dPolyline
 66
     1
 10
0.0
 20
0.0
 30
0.0
  0
VERTEX
  5
480
330
47E
100
AcDbEntity
  8
001
 62
   253
370
    50
100
AcDbVertex
100
AcDb2dVertex
 10
48.563584
 20
46.719927
 30
0.0
  0
VERTEX
  5
481
330
47E
100
AcDbEntity
  8
001
 62
   253
370
    50
100
AcDbVertex
100
AcDb2dVertex
 10
49.946695
 20
46.933364
 30
0.0
  0
VERTEX
  5
482
330
47E
100
AcDbEntity
  8
001
 62
   253
370
    50
100
AcDbVertex
100
AcDb2dVertex
 10
51.951906
 20
47.328385
 30
0.0
  0
VERTEX
  5
483
330
47E
100
AcDbEntity
  8
001
 62
   253
370
    50
100
AcDbVertex
100
AcDb2dVertex
 10
53.015194
 20
47.589825
 30
0.0
  0
VERTEX
  5
484
330
47E
100
AcDbEntity
  8
001
 62
   253
370
    50
100
AcDbVertex
100
AcDb2dVertex
 10
53.738287
 20
47.786772
 30
0.0
  0
SEQEND
  5
47F
330
47E
100
AcDbEntity
  8
001
370
    50
  0
POLYLINE
  5
485
330
1F
100
AcDbEntity
  8
001
 62
   253
370
    50
100
AcDb2dPolyline
 66
     1
 10
0.0
 20
0.0
 30
0.0
  0
VERTEX
  5
487
330
485
100
AcDbEntity
  8
001
 62
   253
370
    50
100
AcDbVertex
100
AcDb2dVertex
 10
53.738287
 20
47.786772
 30
0.0
  0
VERTEX
  5
488
330
485
100
AcDbEntity
  8
001
 62
   253
370
    50
100
AcDbVertex
100
AcDb2dVertex
 10
53.856076
 20
47.809398
 30
0.0
  0
VERTEX
  5
489
330
485
100
AcDbEntity
  8
001
 62
   253
370
    50
100
AcDbVertex
100
AcDb2dVertex
 10
53.972874
 20
47.836282
 30
0.0
  0
VERTEX
  5
48A
330
485
100
AcDbEntity
  8
001
 62
   253
370
    50
100
AcDbVertex
100
AcDb2dVertex
 10
54.086005
 20
47.870353
 30
0.0
  0
VERTEX
  5
48B
330
485
100
AcDbEntity
  8
001
 62
   253
370
    50
100
AcDbVertex
100
AcDb2dVertex
 10
54.196394
 20
47.912481
 30
0.0
  0
VERTEX
  5
48C
330
485
100
AcDbEntity
  8
001
 62
   253
370
    50
100
AcDbVertex
100
AcDb2dVertex
 10
54.234928
 20
47.929306
 30
0.0
  0
VERTEX
  5
48D
330
485
100
AcDbEntity
  8
001
 62
   253
370
    50
100
AcDbVertex
100
AcDb2dVertex
 10
54.273236
 20
47.946629
 30
0.0
  0
SEQEND
  5
486
330
485
100
AcDbEntity
  8
001
370
    50
  0
POLYLINE
  5
48E
330
1F
100
AcDbEntity
  8
001
 62
   253
370
    50
100
AcDb2dPolyline
 66
     1
 10
0.0
 20
0.0
 30
0.0
  0
VERTEX
  5
490
330
48E
100
AcDbEntity
  8
001
 62
   253
370
    50
100
AcDbVertex
100
AcDb2dVertex
 10
53.386876
 20
52.758089
 30
0.0
  0
VERTEX
  5
491
330
48E
100
AcDbEntity
  8
001
 62
   253
370
    50
100
AcDbVertex
100
AcDb2dVertex
 10
53.374036
 20
52.758046
 30
0.0
  0
VERTEX
  5
492
330
48E
100
AcDbEntity
  8
001
 62
   253
370
    50
100
AcDbVertex
100
AcDb2dVertex
 10
53.35527
 20
52.757859
 30
0.0
  0
VERTEX
  5
493
330
48E
100
AcDbEntity
  8
001
 62
   253
370
    50
100
AcDbVertex
100
AcDb2dVertex
 10
53.336506
 20
52.757498
 30
0.0
  0
VERTEX
  5
494
330
48E
100
AcDbEntity
  8
001
 62
   253
370
    50
100
AcDbVertex
100
AcDb2dVertex
 10
53.323669
 20
52.757167
 30
0.0
  0
SEQEND
  5
48F
330
48E
100
AcDbEntity
  8
001
370
    50
  0
LINE
  5
495
330
1F
100
AcDbEntity
  8
001
 62
   253
370
    50
100
AcDbLine
 10
53.323844
 20
52.757167
 30
0.0
 11
50.325981
 21
57.813989
 31
0.0
  0
LINE
  5
496
330
1F
100
AcDbEntity
  8
001
 62
   253
370
    50
100
AcDbLine
 10
50.325981
 20
57.813989
 30
0.0
 11
54.893277
 21
59.846734
 31
0.0
  0
POLYLINE
  5
497
330
1F
100
AcDbEntity
  8
001
 62
   253
370
    50
100
AcDb2dPolyline
 66
     1
 10
0.0
 20
0.0
 30
0.0
  0
VERTEX
  5
499
330
497
100
AcDbEntity
  8
001
 62
   253
370
    50
100
AcDbVertex
100
AcDb2dVertex
 10
54.273236
 20
47.946629
 30
0.0
  0
VERTEX
  5
49A
330
497
100
AcDbEntity
  8
001
 62
   253
370
    50
100
AcDbVertex
100
AcDb2dVertex
 10
54.38894
 20
48.003773
 30
0.0
  0
VERTEX
  5
49B
330
497
100
AcDbEntity
  8
001
 62
   253
370
    50
100
AcDbVertex
100
AcDb2dVertex
 10
54.550146
 20
48.093026
 30
0.0
  0
VERTEX
  5
49C
330
497
100
AcDbEntity
  8
001
 62
   253
370
    50
100
AcDbVertex
100
AcDb2dVertex
 10
55.069425
 20
48.510234
 30
0.0
  0
VERTEX
  5
49D
330
497
100
AcDbEntity
  8
001
 62
   253
370
    50
100
AcDbVertex
100
AcDb2dVertex
 10
55.401718
 20
49.008089
 30
0.0
  0
VERTEX
  5
49E
330
497
100
AcDbEntity
  8
001
 62
   253
370
    50
100
AcDbVertex
100
AcDb2dVertex
 10
55.569043
 20
49.402964
 30
0.0
  0
VERTEX
  5
49F
330
497
100
AcDbEntity
  8
001
 62
   253
370
    50
100
AcDbVertex
100
AcDb2dVertex
 10
55.67807
 20
49.823969
 30
0.0
  0
VERTEX
  5
4A0
330
497
100
AcDbEntity
  8
001
 62
   253
370
    50
100
AcDbVertex
100
AcDb2dVertex
 10
55.705057
 20
50.040595
 30
0.0
  0
VERTEX
  5
4A1
330
497
100
AcDbEntity
  8
001
 62
   253
370
    50
100
AcDbVertex
100
AcDb2dVertex
 10
55.713415
 20
50.258089
 30
0.0
  0
VERTEX
  5
4A2
330
497
100
AcDbEntity
  8
001
 62
   253
370
    50
100
AcDbVertex
100
AcDb2dVertex
 10
55.704444
 20
50.475745
 30
0.0
  0
VERTEX
  5
4A3
330
497
100
AcDbEntity
  8
001
 62
   253
370
    50
100
AcDbVertex
100
AcDb2dVertex
 10
55.67807
 20
50.69221
 30
0.0
  0
VERTEX
  5
4A4
330
497
100
AcDbEntity
  8
001
 62
   253
370
    50
100
AcDbVertex
100
AcDb2dVertex
 10
55.573868
 20
51.111003
 30
0.0
  0
VERTEX
  5
4A5
330
497
100
AcDbEntity
  8
001
 62
   253
370
    50
100
AcDbVertex
100
AcDb2dVertex
 10
55.401718
 20
51.508089
 30
0.0
  0
VERTEX
  5
4A6
330
497
100
AcDbEntity
  8
001
 62
   253
370
    50
100
AcDbVertex
100
AcDb2dVertex
 10
55.03673
 20
52.021491
 30
0.0
  0
VERTEX
  5
4A7
330
497
100
AcDbEntity
  8
001
 62
   253
370
    50
100
AcDbVertex
100
AcDb2dVertex
 10
54.550146
 20
52.423153
 30
0.0
  0
VERTEX
  5
4A8
330
497
100
AcDbEntity
  8
001
 62
   253
370
    50
100
AcDbVertex
100
AcDb2dVertex
 10
54.36784
 20
52.523794
 30
0.0
  0
VERTEX
  5
4A9
330
497
100
AcDbEntity
  8
001
 62
   253
370
    50
100
AcDbVertex
100
AcDb2dVertex
 10
54.1826
 20
52.607321
 30
0.0
  0
VERTEX
  5
4AA
330
497
100
AcDbEntity
  8
001
 62
   253
370
    50
100
AcDbVertex
100
AcDb2dVertex
 10
53.998158
 20
52.672756
 30
0.0
  0
VERTEX
  5
4AB
330
497
100
AcDbEntity
  8
001
 62
   253
370
    50
100
AcDbVertex
100
AcDb2dVertex
 10
53.790876
 20
52.720109
 30
0.0
  0
VERTEX
  5
4AC
330
497
100
AcDbEntity
  8
001
 62
   253
370
    50
100
AcDbVertex
100
AcDb2dVertex
 10
53.557479
 20
52.748564
 30
0.0
  0
VERTEX
  5
4AD
330
497
100
AcDbEntity
  8
001
 62
   253
370
    50
100
AcDbVertex
100
AcDb2dVertex
 10
53.386876
 20
52.758089
 30
0.0
  0
SEQEND
  5
498
330
497
100
AcDbEntity
  8
001
370
    50
  0
POLYLINE
  5
4AE
330
1F
100
AcDbEntity
  8
001
 62
   253
370
    50
100
AcDb2dPolyline
 66
     1
 10
0.0
 20
0.0
 30
0.0
  0
VERTEX
  5
4B0
330
4AE
100
AcDbEntity
  8
001
 62
   253
370
    50
100
AcDbVertex
100
AcDb2dVertex
 10
52.00119
 20
48.249886
 30
0.0
  0
VERTEX
  5
4B1
330
4AE
100
AcDbEntity
  8
001
 62
   253
370
    50
100
AcDbVertex
100
AcDb2dVertex
 10
52.092295
 20
48.182176
 30
0.0
  0
VERTEX
  5
4B2
330
4AE
100
AcDbEntity
  8
001
 62
   253
370
    50
100
AcDbVertex
100
AcDb2dVertex
 10
52.223607
 20
48.093026
 30
0.0
  0
VERTEX
  5
4B3
330
4AE
100
AcDbEntity
  8
001
 62
   253
370
    50
100
AcDbVertex
100
AcDb2dVertex
 10
52.413434
 20
47.986134
 30
0.0
  0
VERTEX
  5
4B4
330
4AE
100
AcDbEntity
  8
001
 62
   253
370
    50
100
AcDbVertex
100
AcDb2dVertex
 10
52.591153
 20
47.908858
 30
0.0
  0
VERTEX
  5
4B5
330
4AE
100
AcDbEntity
  8
001
 62
   253
370
    50
100
AcDbVertex
100
AcDb2dVertex
 10
52.77364
 20
47.845048
 30
0.0
  0
VERTEX
  5
4B6
330
4AE
100
AcDbEntity
  8
001
 62
   253
370
    50
100
AcDbVertex
100
AcDb2dVertex
 10
52.982877
 20
47.79607
 30
0.0
  0
VERTEX
  5
4B7
330
4AE
100
AcDbEntity
  8
001
 62
   253
370
    50
100
AcDbVertex
100
AcDb2dVertex
 10
53.216662
 20
47.767292
 30
0.0
  0
VERTEX
  5
4B8
330
4AE
100
AcDbEntity
  8
001
 62
   253
370
    50
100
AcDbVertex
100
AcDb2dVertex
 10
53.386876
 20
47.758089
 30
0.0
  0
SEQEND
  5
4AF
330
4AE
100
AcDbEntity
  8
001
370
    50
  0
POLYLINE
  5
4B9
330
1F
100
AcDbEntity
  8
001
 62
   253
370
    50
100
AcDb2dPolyline
 66
     1
 10
0.0
 20
0.0
 30
0.0
  0
VERTEX
  5
4BB
330
4B9
100
AcDbEntity
  8
001
 62
   253
370
    50
100
AcDbVertex
100
AcDb2dVertex
 10
52.00119
 20
48.249886
 30
0.0
  0
VERTEX
  5
4BC
330
4B9
100
AcDbEntity
  8
001
 62
   253
370
    50
100
AcDbVertex
100
AcDb2dVertex
 10
52.162882
 20
48.249886
 30
0.0
  0
VERTEX
  5
4BD
330
4B9
100
AcDbEntity
  8
001
 62
   253
370
    50
100
AcDbVertex
100
AcDb2dVertex
 10
52.324574
 20
48.249886
 30
0.0
  0
VERTEX
  5
4BE
330
4B9
100
AcDbEntity
  8
001
 62
   253
370
    50
100
AcDbVertex
100
AcDb2dVertex
 10
52.738357
 20
48.249886
 30
0.0
  0
VERTEX
  5
4BF
330
4B9
100
AcDbEntity
  8
001
 62
   253
370
    50
100
AcDbVertex
100
AcDb2dVertex
 10
53.152141
 20
48.249886
 30
0.0
  0
SEQEND
  5
4BA
330
4B9
100
AcDbEntity
  8
001
370
    50
  0
POLYLINE
  5
4C0
330
1F
100
AcDbEntity
  8
001
 62
   253
370
    50
100
AcDb2dPolyline
 66
     1
 10
0.0
 20
0.0
 30
0.0
  0
VERTEX
  5
4C2
330
4C0
100
AcDbEntity
  8
001
 62
   253
370
    50
100
AcDbVertex
100
AcDb2dVertex
 10
53.152144
 20
48.249886
 30
0.0
  0
VERTEX
  5
4C3
330
4C0
100
AcDbEntity
  8
001
 62
   253
370
    50
100
AcDbVertex
100
AcDb2dVertex
 10
53.244613
 20
48.181842
 30
0.0
  0
VERTEX
  5
4C4
330
4C0
100
AcDbEntity
  8
001
 62
   253
370
    50
100
AcDbVertex
100
AcDb2dVertex
 10
53.374561
 20
48.093026
 30
0.0
  0
VERTEX
  5
4C5
330
4C0
100
AcDbEntity
  8
001
 62
   253
370
    50
100
AcDbVertex
100
AcDb2dVertex
 10
53.551984
 20
47.989174
 30
0.0
  0
VERTEX
  5
4C6
330
4C0
100
AcDbEntity
  8
001
 62
   253
370
    50
100
AcDbVertex
100
AcDb2dVertex
 10
53.742107
 20
47.908858
 30
0.0
  0
VERTEX
  5
4C7
330
4C0
100
AcDbEntity
  8
001
 62
   253
370
    50
100
AcDbVertex
100
AcDb2dVertex
 10
53.878747
 20
47.861972
 30
0.0
  0
VERTEX
  5
4C8
330
4C0
100
AcDbEntity
  8
001
 62
   253
370
    50
100
AcDbVertex
100
AcDb2dVertex
 10
53.979091
 20
47.831255
 30
0.0
  0
SEQEND
  5
4C1
330
4C0
100
AcDbEntity
  8
001
370
    50
  0
LINE
  5
4C9
330
1F
100
AcDbEntity
  8
001
 62
   253
370
    50
100
AcDbLine
 10
53.42578
 20
52.757172
 30
0.0
 11
53.323844
 21
52.757167
 31
0.0
  0
POLYLINE
  5
4CA
330
1F
100
AcDbEntity
  8
001
 62
   253
370
    50
100
AcDb2dPolyline
 66
     1
 10
0.0
 20
0.0
 30
0.0
  0
VERTEX
  5
4CC
330
4CA
100
AcDbEntity
  8
001
 62
   253
370
    50
100
AcDbVertex
100
AcDb2dVertex
 10
53.386876
 20
47.758089
 30
0.0
  0
VERTEX
  5
4CD
330
4CA
100
AcDbEntity
  8
001
 62
   253
370
    50
100
AcDbVertex
100
AcDb2dVertex
 10
53.458549
 20
47.75944
 30
0.0
  0
VERTEX
  5
4CE
330
4CA
100
AcDbEntity
  8
001
 62
   253
370
    50
100
AcDbVertex
100
AcDb2dVertex
 10
53.563088
 20
47.76527
 30
0.0
  0
VERTEX
  5
4CF
330
4CA
100
AcDbEntity
  8
001
 62
   253
370
    50
100
AcDbVertex
100
AcDb2dVertex
 10
53.667281
 20
47.776476
 30
0.0
  0
VERTEX
  5
4D0
330
4CA
100
AcDbEntity
  8
001
 62
   253
370
    50
100
AcDbVertex
100
AcDb2dVertex
 10
53.738287
 20
47.786772
 30
0.0
  0
SEQEND
  5
4CB
330
4CA
100
AcDbEntity
  8
001
370
    50
  0
LINE
  5
4D1
330
1F
100
AcDbEntity
  8
001
 62
   253
370
    50
100
AcDbLine
 10
48.563584
 20
46.719927
 30
0.0
 11
52.00119
 21
48.249886
 31
0.0
  0
LINE
  5
4D2
330
1F
100
AcDbEntity
  8
001
  6
CENTER
 62
   253
370
     9
100
AcDbLine
 10
39.689955
 20
53.996781
 30
0.0
 11
176.459795
 21
53.996781
 31
0.0
  0
LINE
  5
4D3
330
1F
100
AcDbEntity
  8
001
 62
   253
370
     9
100
AcDbLine
 10
42.263806
 20
41.503019
 30
0.0
 11
42.263806
 21
53.996781
 31
0.0
  0
LINE
  5
4D4
330
1F
100
AcDbEntity
  8
001
370
    50
100
AcDbLine
 10
167.263806
 20
53.996781
 30
0.0
 11
171.369131
 21
56.366991
 31
0.0
  0
LINE
  5
4D5
330
1F
100
AcDbEntity
  8
001
370
    50
100
AcDbLine
 10
167.263806
 20
53.996781
 30
0.0
 11
171.369131
 21
51.626571
 31
0.0
  0
ENDSEC
  0
SECTION
  2
OBJECTS
  0
DICTIONARY
  5
C
330
0
100
AcDbDictionary
281
     1
  3
ACAD_GROUP
350
D
  3
ACAD_LAYOUT
350
1A
  3
ACAD_MLEADERSTYLE
350
4D9
  3
ACAD_MLINESTYLE
350
17
  3
ACAD_PLOTSETTINGS
350
19
  3
ACAD_PLOTSTYLENAME
350
E
  3
ACAD_SCALELIST
350
3B
  3
ACAD_TABLESTYLE
350
4D8
  3
ACAD_VISUALSTYLE
350
2A
  3
AcDbVariableDictionary
350
4D6
  0
DICTIONARY
  5
D
102
{ACAD_REACTORS
330
C
102
}
330
C
100
AcDbDictionary
281
     1
  0
DICTIONARY
  5
1A
102
{ACAD_REACTORS
330
C
102
}
330
C
100
AcDbDictionary
281
     1
  3
Layout1
350
1E
  3
Layout2
350
26
  3
Model
350
22
  0
DICTIONARY
  5
4D9
102
{ACAD_REACTORS
330
C
102
}
330
C
100
AcDbDictionary
281
     1
  0
DICTIONARY
  5
17
102
{ACAD_REACTORS
330
C
102
}
330
C
100
AcDbDictionary
281
     1
  3
Standard
350
18
  0
DICTIONARY
  5
19
102
{ACAD_REACTORS
330
C
102
}
330
C
100
AcDbDictionary
281
     1
  0
ACDBDICTIONARYWDFLT
  5
E
102
{ACAD_REACTORS
330
C
102
}
330
C
100
AcDbDictionary
281
     1
  3
Normal
350
F
100
AcDbDictionaryWithDefault
340
F
  0
DICTIONARY
  5
3B
102
{ACAD_REACTORS
330
C
102
}
330
C
100
AcDbDictionary
281
     1
  3
A0
350
3C
  3
A1
350
3D
  3
A2
350
3E
  3
A3
350
3F
  3
A4
350
40
  3
A5
350
41
  3
A6
350
42
  3
A7
350
43
  3
A8
350
44
  3
A9
350
45
  3
B0
350
46
  3
B1
350
47
  3
B2
350
48
  3
B3
350
49
  3
B4
350
4A
  3
B5
350
4B
  3
B6
350
4C
  3
B7
350
4D
  3
B8
350
4E
  3
B9
350
4F
  3
C0
350
50
  3
C1
350
51
  3
C2
350
52
  3
C3
350
53
  3
C4
350
54
  3
C5
350
55
  3
C6
350
56
  3
C7
350
57
  3
C8
350
58
  3
C9
350
59
  3
D0
350
5A
  3
D1
350
5B
  3
D2
350
5C
  0
DICTIONARY
  5
4D8
102
{ACAD_REACTORS
330
C
102
}
330
C
100
AcDbDictionary
281
     1
  0
DICTIONARY
  5
2A
102
{ACAD_REACTORS
330
C
102
}
330
C
100
AcDbDictionary
281
     1
  3
2dWireframe
350
2F
  3
3D Hidden
350
31
  3
3dWireframe
350
30
  3
Basic
350
32
  3
Brighten
350
36
  3
ColorChange
350
3A
  3
Conceptual
350
34
  3
Dim
350
35
  3
Facepattern
350
39
  3
Flat
350
2B
  3
FlatWithEdges
350
2C
  3
Gouraud
350
2D
  3
GouraudWithEdges
350
2E
  3
Linepattern
350
38
  3
Realistic
350
33
  3
Thicken
350
37
  0
DICTIONARY
  5
4D6
102
{ACAD_REACTORS
330
C
102
}
330
C
100
AcDbDictionary
281
     1
  3
CANNOSCALE
350
4D7
  3
PSOLHEIGHT
350
4DB
  3
PSOLWIDTH
350
4DA
  0
LAYOUT
  5
1E
102
{ACAD_REACTORS
330
1A
102
}
330
1A
100
AcDbPlotSettings
  1

  2
none_device
  4

  6

 40
0.0
 41
0.0
 42
0.0
 43
0.0
 44
0.0
 45
0.0
 46
0.0
 47
0.0
 48
0.0
 49
0.0
140
0.0
141
0.0
142
1.0
143
1.0
 70
   688
 72
     0
 73
     0
 74
     5
  7

 75
    16
147
1.0
148
0.0
149
0.0
100
AcDbLayout
  1
Layout1
 70
     1
 71
     1
 10
0.0
 20
0.0
 11
12.0
 21
9.0
 12
0.0
 22
0.0
 32
0.0
 14
1.000000E+20
 24
1.000000E+20
 34
0.0
 15
-1.000000E+20
 25
-1.000000E+20
 35
0.0
146
0.0
 13
0.0
 23
0.0
 33
0.0
 16
1.0
 26
0.0
 36
0.0
 17
0.0
 27
1.0
 37
0.0
 76
     0
330
1B
  0
LAYOUT
  5
26
102
{ACAD_REACTORS
330
1A
102
}
330
1A
100
AcDbPlotSettings
  1

  2
none_device
  4

  6

 40
0.0
 41
0.0
 42
0.0
 43
0.0
 44
0.0
 45
0.0
 46
0.0
 47
0.0
 48
0.0
 49
0.0
140
0.0
141
0.0
142
1.0
143
1.0
 70
   688
 72
     0
 73
     0
 74
     5
  7

 75
    16
147
1.0
148
0.0
149
0.0
100
AcDbLayout
  1
Layout2
 70
     1
 71
     2
 10
0.0
 20
0.0
 11
0.0
 21
0.0
 12
0.0
 22
0.0
 32
0.0
 14
0.0
 24
0.0
 34
0.0
 15
0.0
 25
0.0
 35
0.0
146
0.0
 13
0.0
 23
0.0
 33
0.0
 16
1.0
 26
0.0
 36
0.0
 17
0.0
 27
1.0
 37
0.0
 76
     0
330
23
  0
LAYOUT
  5
22
102
{ACAD_REACTORS
330
1A
102
}
330
1A
100
AcDbPlotSettings
  1

  2
none_device
  4

  6

 40
0.0
 41
0.0
 42
0.0
 43
0.0
 44
0.0
 45
0.0
 46
0.0
 47
0.0
 48
0.0
 49
0.0
140
0.0
141
0.0
142
1.0
143
1.0
 70
  1712
 72
     0
 73
     0
 74
     0
  7

 75
     0
147
1.0
148
0.0
149
0.0
100
AcDbLayout
  1
Model
 70
     1
 71
     0
 10
0.0
 20
0.0
 11
12.0
 21
9.0
 12
0.0
 22
0.0
 32
0.0
 14
16.482178
 24
7.493408
 34
0.0
 15
192.669693
 25
100.755852
 35
0.0
146
0.0
 13
0.0
 23
0.0
 33
0.0
 16
1.0
 26
0.0
 36
0.0
 17
0.0
 27
1.0
 37
0.0
 76
     0
330
1F
331
29
  0
MLINESTYLE
  5
18
102
{ACAD_REACTORS
330
17
102
}
330
17
100
AcDbMlineStyle
  2
Standard
 70
     0
  3

 62
   256
 51
90.0
 52
90.0
 71
     2
 49
0.5
 62
   256
  6
BYLAYER
 49
-0.5
 62
   256
  6
BYLAYER
  0
ACDBPLACEHOLDER
  5
F
102
{ACAD_REACTORS
330
E
102
}
330
E
  0
SCALE
  5
3C
102
{ACAD_REACTORS
330
3B
102
}
330
3B
100
AcDbScale
 70
     0
300
1:1
140
1.0
141
1.0
290
     1
  0
SCALE
  5
3D
102
{ACAD_REACTORS
330
3B
102
}
330
3B
100
AcDbScale
 70
     0
300
1:2
140
1.0
141
2.0
290
     0
  0
SCALE
  5
3E
102
{ACAD_REACTORS
330
3B
102
}
330
3B
100
AcDbScale
 70
     0
300
1:4
140
1.0
141
4.0
290
     0
  0
SCALE
  5
3F
102
{ACAD_REACTORS
330
3B
102
}
330
3B
100
AcDbScale
 70
     0
300
1:5
140
1.0
141
5.0
290
     0
  0
SCALE
  5
40
102
{ACAD_REACTORS
330
3B
102
}
330
3B
100
AcDbScale
 70
     0
300
1:8
140
1.0
141
8.0
290
     0
  0
SCALE
  5
41
102
{ACAD_REACTORS
330
3B
102
}
330
3B
100
AcDbScale
 70
     0
300
1:10
140
1.0
141
10.0
290
     0
  0
SCALE
  5
42
102
{ACAD_REACTORS
330
3B
102
}
330
3B
100
AcDbScale
 70
     0
300
1:16
140
1.0
141
16.0
290
     0
  0
SCALE
  5
43
102
{ACAD_REACTORS
330
3B
102
}
330
3B
100
AcDbScale
 70
     0
300
1:20
140
1.0
141
20.0
290
     0
  0
SCALE
  5
44
102
{ACAD_REACTORS
330
3B
102
}
330
3B
100
AcDbScale
 70
     0
300
1:30
140
1.0
141
30.0
290
     0
  0
SCALE
  5
45
102
{ACAD_REACTORS
330
3B
102
}
330
3B
100
AcDbScale
 70
     0
300
1:40
140
1.0
141
40.0
290
     0
  0
SCALE
  5
46
102
{ACAD_REACTORS
330
3B
102
}
330
3B
100
AcDbScale
 70
     0
300
1:50
140
1.0
141
50.0
290
     0
  0
SCALE
  5
47
102
{ACAD_REACTORS
330
3B
102
}
330
3B
100
AcDbScale
 70
     0
300
1:100
140
1.0
141
100.0
290
     0
  0
SCALE
  5
48
102
{ACAD_REACTORS
330
3B
102
}
330
3B
100
AcDbScale
 70
     0
300
2:1
140
2.0
141
1.0
290
     0
  0
SCALE
  5
49
102
{ACAD_REACTORS
330
3B
102
}
330
3B
100
AcDbScale
 70
     0
300
4:1
140
4.0
141
1.0
290
     0
  0
SCALE
  5
4A
102
{ACAD_REACTORS
330
3B
102
}
330
3B
100
AcDbScale
 70
     0
300
8:1
140
8.0
141
1.0
290
     0
  0
SCALE
  5
4B
102
{ACAD_REACTORS
330
3B
102
}
330
3B
100
AcDbScale
 70
     0
300
10:1
140
10.0
141
1.0
290
     0
  0
SCALE
  5
4C
102
{ACAD_REACTORS
330
3B
102
}
330
3B
100
AcDbScale
 70
     0
300
100:1
140
100.0
141
1.0
290
     0
  0
SCALE
  5
4D
102
{ACAD_REACTORS
330
3B
102
}
330
3B
100
AcDbScale
 70
     0
300
1/128" = 1'-0"
140
0.007812
141
12.0
290
     0
  0
SCALE
  5
4E
102
{ACAD_REACTORS
330
3B
102
}
330
3B
100
AcDbScale
 70
     0
300
1/64" = 1'-0"
140
0.015625
141
12.0
290
     0
  0
SCALE
  5
4F
102
{ACAD_REACTORS
330
3B
102
}
330
3B
100
AcDbScale
 70
     0
300
1/32" = 1'-0"
140
0.03125
141
12.0
290
     0
  0
SCALE
  5
50
102
{ACAD_REACTORS
330
3B
102
}
330
3B
100
AcDbScale
 70
     0
300
1/16" = 1'-0"
140
0.0625
141
12.0
290
     0
  0
SCALE
  5
51
102
{ACAD_REACTORS
330
3B
102
}
330
3B
100
AcDbScale
 70
     0
300
3/32" = 1'-0"
140
0.09375
141
12.0
290
     0
  0
SCALE
  5
52
102
{ACAD_REACTORS
330
3B
102
}
330
3B
100
AcDbScale
 70
     0
300
1/8" = 1'-0"
140
0.125
141
12.0
290
     0
  0
SCALE
  5
53
102
{ACAD_REACTORS
330
3B
102
}
330
3B
100
AcDbScale
 70
     0
300
3/16" = 1'-0"
140
0.1875
141
12.0
290
     0
  0
SCALE
  5
54
102
{ACAD_REACTORS
330
3B
102
}
330
3B
100
AcDbScale
 70
     0
300
1/4" = 1'-0"
140
0.25
141
12.0
290
     0
  0
SCALE
  5
55
102
{ACAD_REACTORS
330
3B
102
}
330
3B
100
AcDbScale
 70
     0
300
3/8" = 1'-0"
140
0.375
141
12.0
290
     0
  0
SCALE
  5
56
102
{ACAD_REACTORS
330
3B
102
}
330
3B
100
AcDbScale
 70
     0
300
1/2" = 1'-0"
140
0.5
141
12.0
290
     0
  0
SCALE
  5
57
102
{ACAD_REACTORS
330
3B
102
}
330
3B
100
AcDbScale
 70
     0
300
3/4" = 1'-0"
140
0.75
141
12.0
290
     0
  0
SCALE
  5
58
102
{ACAD_REACTORS
330
3B
102
}
330
3B
100
AcDbScale
 70
     0
300
1" = 1'-0"
140
1.0
141
12.0
290
     0
  0
SCALE
  5
59
102
{ACAD_REACTORS
330
3B
102
}
330
3B
100
AcDbScale
 70
     0
300
1-1/2" = 1'-0"
140
1.5
141
12.0
290
     0
  0
SCALE
  5
5A
102
{ACAD_REACTORS
330
3B
102
}
330
3B
100
AcDbScale
 70
     0
300
3" = 1'-0"
140
3.0
141
12.0
290
     0
  0
SCALE
  5
5B
102
{ACAD_REACTORS
330
3B
102
}
330
3B
100
AcDbScale
 70
     0
300
6" = 1'-0"
140
6.0
141
12.0
290
     0
  0
SCALE
  5
5C
102
{ACAD_REACTORS
330
3B
102
}
330
3B
100
AcDbScale
 70
     0
300
1'-0" = 1'-0"
140
12.0
141
12.0
290
     0
  0
VISUALSTYLE
  5
2F
102
{ACAD_REACTORS
330
2A
102
}
330
2A
100
AcDbVisualStyle
  2
2dWireframe
 70
     4
 71
     0
 72
     2
 73
     0
 90
        0
 40
-0.6
 41
-30.0
 62
     5
 63
     7
 74
     1
 91
        4
 64
     7
 65
   257
 75
     1
175
     1
 42
1.0
 92
        0
 66
   257
 43
1.0
 76
     1
 77
     6
 78
     2
 67
     7
 79
     5
170
     0
171
     0
290
     0
174
     0
 93
        1
 44
0.0
173
     0
291
     0
 45
0.0
1001
ACAD
1000
AcDbSavedByObjectVersion
1070
     0
  0
VISUALSTYLE
  5
31
102
{ACAD_REACTORS
330
2A
102
}
330
2A
100
AcDbVisualStyle
  2
3D Hidden
 70
     6
 71
     1
 72
     2
 73
     2
 90
        0
 40
-0.6
 41
-30.0
 62
     5
 63
     7
 74
     2
 91
        2
 64
     7
 65
   257
 75
     2
175
     1
 42
40.0
 92
        0
 66
   257
 43
1.0
 76
     1
 77
     6
 78
     2
 67
     7
 79
     3
170
     0
171
     0
290
     0
174
     0
 93
        1
 44
0.0
173
     0
291
     0
 45
0.0
1001
ACAD
1000
AcDbSavedByObjectVersion
1070
     0
  0
VISUALSTYLE
  5
30
102
{ACAD_REACTORS
330
2A
102
}
330
2A
100
AcDbVisualStyle
  2
3dWireframe
 70
     5
 71
     0
 72
     2
 73
     0
 90
        0
 40
-0.6
 41
-30.0
 62
     5
 63
     7
 74
     1
 91
        4
 64
     7
 65
   257
 75
     1
175
     1
 42
1.0
 92
        0
 66
   257
 43
1.0
 76
     1
 77
     6
 78
     2
 67
     7
 79
     5
170
     0
171
     0
290
     0
174
     0
 93
        1
 44
0.0
173
     0
291
     0
 45
0.0
1001
ACAD
1000
AcDbSavedByObjectVersion
1070
     0
  0
VISUALSTYLE
  5
32
102
{ACAD_REACTORS
330
2A
102
}
330
2A
100
AcDbVisualStyle
  2
Basic
 70
     7
 71
     1
 72
     0
 73
     1
 90
        0
 40
-0.6
 41
-30.0
 62
     5
 63
     7
 74
     0
 91
        4
 64
     7
 65
   257
 75
     1
175
     1
 42
1.0
 92
        8
 66
     7
 43
1.0
 76
     1
 77
     6
 78
     2
 67
     7
 79
     5
170
     0
171
     0
290
     0
174
     0
 93
        1
 44
0.0
173
     0
291
     1
 45
0.0
1001
ACAD
1000
AcDbSavedByObjectVersion
1070
     0
  0
VISUALSTYLE
  5
36
102
{ACAD_REACTORS
330
2A
102
}
330
2A
100
AcDbVisualStyle
  2
Brighten
 70
    12
 71
     2
 72
     2
 73
     0
 90
        0
 40
-0.6
 41
-30.0
 62
     5
 63
     7
 74
     1
 91
        4
 64
     7
 65
   257
 75
     1
175
     1
 42
1.0
 92
        8
 66
     7
 43
1.0
 76
     1
 77
     6
 78
     2
 67
     7
 79
     5
170
     0
171
     0
290
     0
174
     0
 93
        1
 44
50.0
173
     0
291
     1
 45
0.0
1001
ACAD
1000
AcDbSavedByObjectVersion
1070
     0
  0
VISUALSTYLE
  5
3A
102
{ACAD_REACTORS
330
2A
102
}
330
2A
100
AcDbVisualStyle
  2
ColorChange
 70
    16
 71
     2
 72
     2
 73
     3
 90
        0
 40
-0.6
 41
-30.0
 62
     5
 63
     8
 74
     1
 91
        4
 64
     7
 65
   257
 75
     1
175
     1
 42
1.0
 92
        8
 66
     8
 43
1.0
 76
     1
 77
     6
 78
     2
 67
     7
 79
     5
170
     0
171
     0
290
     0
174
     0
 93
        1
 44
0.0
173
     0
291
     1
 45
0.0
1001
ACAD
1000
AcDbSavedByObjectVersion
1070
     0
  0
VISUALSTYLE
  5
34
102
{ACAD_REACTORS
330
2A
102
}
330
2A
100
AcDbVisualStyle
  2
Conceptual
 70
     9
 71
     3
 72
     2
 73
     0
 90
        0
 40
-0.6
 41
-30.0
 62
     5
 63
     7
 74
     2
 91
        2
 64
     7
 65
   257
 75
     1
175
     1
 42
40.0
 92
        8
 66
     7
 43
1.0
 76
     1
 77
     6
 78
     2
 67
     7
 79
     3
170
     0
171
     0
290
     0
174
     0
 93
        1
 44
0.0
173
     0
291
     0
 45
0.0
1001
ACAD
1000
AcDbSavedByObjectVersion
1070
     0
  0
VISUALSTYLE
  5
35
102
{ACAD_REACTORS
330
2A
102
}
330
2A
100
AcDbVisualStyle
  2
Dim
 70
    11
 71
     2
 72
     2
 73
     0
 90
        0
 40
-0.6
 41
-30.0
 62
     5
 63
     7
 74
     1
 91
        4
 64
     7
 65
   257
 75
     1
175
     1
 42
1.0
 92
        8
 66
     7
 43
1.0
 76
     1
 77
     6
 78
     2
 67
     7
 79
     5
170
     0
171
     0
290
     0
174
     0
 93
        1
 44
-50.0
173
     0
291
     1
 45
0.0
1001
ACAD
1000
AcDbSavedByObjectVersion
1070
     0
  0
VISUALSTYLE
  5
39
102
{ACAD_REACTORS
330
2A
102
}
330
2A
100
AcDbVisualStyle
  2
Facepattern
 70
    15
 71
     2
 72
     2
 73
     0
 90
        0
 40
-0.6
 41
-30.0
 62
     5
 63
     7
 74
     1
 91
        4
 64
     7
 65
   257
 75
     1
175
     1
 42
1.0
 92
        8
 66
     7
 43
1.0
 76
     1
 77
     6
 78
     2
 67
     7
 79
     5
170
     0
171
     0
290
     0
174
     0
 93
        1
 44
0.0
173
     0
291
     1
 45
0.0
1001
ACAD
1000
AcDbSavedByObjectVersion
1070
     0
  0
VISUALSTYLE
  5
2B
102
{ACAD_REACTORS
330
2A
102
}
330
2A
100
AcDbVisualStyle
  2
Flat
 70
     0
 71
     2
 72
     1
 73
     1
 90
        2
 40
-0.6
 41
30.0
 62
     5
 63
     7
 74
     0
 91
        4
 64
     7
 65
   257
 75
     1
175
     1
 42
1.0
 92
        8
 66
     7
 43
1.0
 76
     1
 77
     6
 78
     2
 67
     7
 79
     5
170
     0
171
     0
290
     0
174
     0
 93
       13
 44
0.0
173
     0
291
     1
 45
0.0
1001
ACAD
1000
AcDbSavedByObjectVersion
1070
     0
  0
VISUALSTYLE
  5
2C
102
{ACAD_REACTORS
330
2A
102
}
330
2A
100
AcDbVisualStyle
  2
FlatWithEdges
 70
     1
 71
     2
 72
     1
 73
     1
 90
        2
 40
-0.6
 41
30.0
 62
     5
 63
     7
 74
     1
 91
        4
 64
     7
 65
   257
 75
     1
175
     1
 42
1.0
 92
        0
 66
   257
 43
1.0
 76
     1
 77
     6
 78
     2
 67
     7
 79
     5
170
     0
171
     0
290
     0
174
     0
 93
       13
 44
0.0
173
     0
291
     1
 45
0.0
1001
ACAD
1000
AcDbSavedByObjectVersion
1070
     0
  0
VISUALSTYLE
  5
2D
102
{ACAD_REACTORS
330
2A
102
}
330
2A
100
AcDbVisualStyle
  2
Gouraud
 70
     2
 71
     2
 72
     2
 73
     1
 90
        2
 40
-0.6
 41
30.0
 62
     5
 63
     7
 74
     0
 91
        4
 64
     7
 65
   257
 75
     1
175
     1
 42
1.0
 92
        0
 66
     7
 43
1.0
 76
     1
 77
     6
 78
     2
 67
     7
 79
     5
170
     0
171
     0
290
     0
174
     0
 93
       13
 44
0.0
173
     0
291
     1
 45
0.0
1001
ACAD
1000
AcDbSavedByObjectVersion
1070
     0
  0
VISUALSTYLE
  5
2E
102
{ACAD_REACTORS
330
2A
102
}
330
2A
100
AcDbVisualStyle
  2
GouraudWithEdges
 70
     3
 71
     2
 72
     2
 73
     1
 90
        2
 40
-0.6
 41
30.0
 62
     5
 63
     7
 74
     1
 91
        4
 64
     7
 65
   257
 75
     1
175
     1
 42
1.0
 92
        0
 66
   257
 43
1.0
 76
     1
 77
     6
 78
     2
 67
     7
 79
     5
170
     0
171
     0
290
     0
174
     0
 93
       13
 44
0.0
173
     0
291
     1
 45
0.0
1001
ACAD
1000
AcDbSavedByObjectVersion
1070
     0
  0
VISUALSTYLE
  5
38
102
{ACAD_REACTORS
330
2A
102
}
330
2A
100
AcDbVisualStyle
  2
Linepattern
 70
    14
 71
     2
 72
     2
 73
     0
 90
        0
 40
-0.6
 41
-30.0
 62
     5
 63
     7
 74
     1
 91
        4
 64
     7
 65
   257
 75
     7
175
     7
 42
1.0
 92
        8
 66
     7
 43
1.0
 76
     1
 77
     6
 78
     2
 67
     7
 79
     5
170
     0
171
     0
290
     0
174
     0
 93
        1
 44
0.0
173
     0
291
     1
 45
0.0
1001
ACAD
1000
AcDbSavedByObjectVersion
1070
     0
  0
VISUALSTYLE
  5
33
102
{ACAD_REACTORS
330
2A
102
}
330
2A
100
AcDbVisualStyle
  2
Realistic
 70
     8
 71
     2
 72
     2
 73
     0
 90
        0
 40
-0.6
 41
-30.0
 62
     5
 63
     7
 74
     1
 91
        0
 64
     7
 65
   257
 75
     1
175
     1
 42
1.0
 92
        8
 66
     8
 43
1.0
 76
     1
 77
     6
 78
     2
 67
     7
 79
     5
170
     0
171
     0
290
     0
174
     0
 93
       13
 44
0.0
173
     0
291
     0
 45
0.0
1001
ACAD
1000
AcDbSavedByObjectVersion
1070
     0
  0
VISUALSTYLE
  5
37
102
{ACAD_REACTORS
330
2A
102
}
330
2A
100
AcDbVisualStyle
  2
Thicken
 70
    13
 71
     2
 72
     2
 73
     0
 90
        0
 40
-0.6
 41
-30.0
 62
     5
 63
     7
 74
     1
 91
        4
 64
     7
 65
   257
 75
     1
175
     1
 42
1.0
 92
       12
 66
     7
 43
1.0
 76
     1
 77
     6
 78
     2
 67
     7
 79
     5
170
     0
171
     0
290
     0
174
     0
 93
        1
 44
0.0
173
     0
291
     1
 45
0.0
1001
ACAD
1000
AcDbSavedByObjectVersion
1070
     0
  0
DICTIONARYVAR
  5
4D7
102
{ACAD_REACTORS
330
4D6
102
}
330
4D6
100
DictionaryVariables
280
     0
  1
1:1
  0
DICTIONARYVAR
  5
4DB
102
{ACAD_REACTORS
330
4D6
102
}
330
4D6
100
DictionaryVariables
280
     0
  1
80.000000
  0
DICTIONARYVAR
  5
4DA
102
{ACAD_REACTORS
330
4D6
102
}
330
4D6
100
DictionaryVariables
280
     0
  1
5.000000
  0
ENDSEC
  0
EOF
