  0
SECTION
  2
HEADER
  9
$ACADVER
  1
AC1015
  9
$ACADMAINTVER
 70
     6
  9
$DWGCODEPAGE
  3
ANSI_932
  9
$INSBASE
 10
0.0
 20
0.0
 30
0.0
  9
$EXTMIN
 10
7.285629
 20
-1.111092
 30
0.0
  9
$EXTMAX
 10
188.733215
 20
88.58326
 30
0.0
  9
$LIMMIN
 10
0.0
 20
0.0
  9
$LIMMAX
 10
12.0
 20
9.0
  9
$ORTHOMODE
 70
     0
  9
$REGENMODE
 70
     1
  9
$FILLMODE
 70
     1
  9
$QTEXTMODE
 70
     0
  9
$MIRRTEXT
 70
     1
  9
$LTSCALE
 40
2.024063
  9
$ATTMODE
 70
     1
  9
$TEXTSIZE
 40
3.2
  9
$TRACEWID
 40
1.0
  9
$TEXTSTYLE
  7
Standard
  9
$CLAYER
  8
0
  9
$CELTYPE
  6
ByLayer
  9
$CECOLOR
 62
   256
  9
$CELTSCALE
 40
1.0
  9
$DISPSILH
 70
     0
  9
$DIMSCALE
 40
1.0
  9
$DIMASZ
 40
2.5
  9
$DIMEXO
 40
0.625
  9
$DIMDLI
 40
3.75
  9
$DIMRND
 40
0.0
  9
$DIMDLE
 40
0.0
  9
$DIMEXE
 40
1.25
  9
$DIMTP
 40
0.0
  9
$DIMTM
 40
0.0
  9
$DIMTXT
 40
2.5
  9
$DIMCEN
 40
0.09
  9
$DIMTSZ
 40
0.0
  9
$DIMTOL
 70
     0
  9
$DIMLIM
 70
     0
  9
$DIMTIH
 70
     0
  9
$DIMTOH
 70
     0
  9
$DIMSE1
 70
     0
  9
$DIMSE2
 70
     0
  9
$DIMTAD
 70
     0
  9
$DIMZIN
 70
     8
  9
$DIMBLK
  1

  9
$DIMASO
 70
     1
  9
$DIMSHO
 70
     0
  9
$DIMPOST
  1

  9
$DIMAPOST
  1

  9
$DIMALT
 70
     0
  9
$DIMALTD
 70
     3
  9
$DIMALTF
 40
0.03937
  9
$DIMLFAC
 40
1.0
  9
$DIMTOFL
 70
     1
  9
$DIMTVP
 40
0.0
  9
$DIMTIX
 70
     0
  9
$DIMSOXD
 70
     0
  9
$DIMSAH
 70
     0
  9
$DIMBLK1
  1

  9
$DIMBLK2
  1

  9
$DIMSTYLE
  2
ISO-25
  9
$DIMCLRD
 70
     0
  9
$DIMCLRE
 70
     0
  9
$DIMCLRT
 70
     0
  9
$DIMTFAC
 40
1.0
  9
$DIMGAP
 40
0.625
  9
$DIMJUST
 70
     0
  9
$DIMSD1
 70
     0
  9
$DIMSD2
 70
     0
  9
$DIMTOLJ
 70
     0
  9
$DIMTZIN
 70
     8
  9
$DIMALTZ
 70
     0
  9
$DIMALTTZ
 70
     0
  9
$DIMUPT
 70
     0
  9
$DIMDEC
 70
     2
  9
$DIMTDEC
 70
     2
  9
$DIMALTU
 70
     2
  9
$DIMALTTD
 70
     3
  9
$DIMTXSTY
  7
Standard
  9
$DIMAUNIT
 70
     0
  9
$DIMADEC
 70
     0
  9
$DIMALTRND
 40
0.0
  9
$DIMAZIN
 70
     0
  9
$DIMDSEP
 70
    44
  9
$DIMATFIT
 70
     3
  9
$DIMFRAC
 70
     0
  9
$DIMLDRBLK
  1

  9
$DIMLUNIT
 70
     2
  9
$DIMLWD
 70
    -2
  9
$DIMLWE
 70
    -2
  9
$DIMTMOVE
 70
     0
  9
$LUNITS
 70
     2
  9
$LUPREC
 70
     4
  9
$SKETCHINC
 40
1.0
  9
$FILLETRAD
 40
0.0
  9
$AUNITS
 70
     0
  9
$AUPREC
 70
     0
  9
$MENU
  1
.
  9
$ELEVATION
 40
0.0
  9
$PELEVATION
 40
0.0
  9
$THICKNESS
 40
0.0
  9
$LIMCHECK
 70
     0
  9
$CHAMFERA
 40
10.0
  9
$CHAMFERB
 40
10.0
  9
$CHAMFERC
 40
20.0
  9
$CHAMFERD
 40
0.0
  9
$SKPOLY
 70
     0
  9
$TDCREATE
 40
2456244.596701204
  9
$TDUCREATE
 40
2456244.221701204
  9
$TDUPDATE
 40
2456244.596701215
  9
$TDUUPDATE
 40
2456244.221701215
  9
$TDINDWG
 40
0.0000000116
  9
$TDUSRTIMER
 40
0.0000000116
  9
$USRTIMER
 70
     1
  9
$ANGBASE
 50
0.0
  9
$ANGDIR
 70
     0
  9
$PDMODE
 70
     0
  9
$PDSIZE
 40
0.0
  9
$PLINEWID
 40
0.0
  9
$SPLFRAME
 70
     0
  9
$SPLINETYPE
 70
     6
  9
$SPLINESEGS
 70
     8
  9
$HANDSEED
  5
4E7
  9
$SURFTAB1
 70
     6
  9
$SURFTAB2
 70
     6
  9
$SURFTYPE
 70
     6
  9
$SURFU
 70
     6
  9
$SURFV
 70
     6
  9
$UCSBASE
  2

  9
$UCSNAME
  2

  9
$UCSORG
 10
0.0
 20
0.0
 30
0.0
  9
$UCSXDIR
 10
1.0
 20
0.0
 30
0.0
  9
$UCSYDIR
 10
0.0
 20
1.0
 30
0.0
  9
$UCSORTHOREF
  2

  9
$UCSORTHOVIEW
 70
     0
  9
$UCSORGTOP
 10
0.0
 20
0.0
 30
0.0
  9
$UCSORGBOTTOM
 10
0.0
 20
0.0
 30
0.0
  9
$UCSORGLEFT
 10
0.0
 20
0.0
 30
0.0
  9
$UCSORGRIGHT
 10
0.0
 20
0.0
 30
0.0
  9
$UCSORGFRONT
 10
0.0
 20
0.0
 30
0.0
  9
$UCSORGBACK
 10
0.0
 20
0.0
 30
0.0
  9
$PUCSBASE
  2

  9
$PUCSNAME
  2

  9
$PUCSORG
 10
0.0
 20
0.0
 30
0.0
  9
$PUCSXDIR
 10
1.0
 20
0.0
 30
0.0
  9
$PUCSYDIR
 10
0.0
 20
1.0
 30
0.0
  9
$PUCSORTHOREF
  2

  9
$PUCSORTHOVIEW
 70
     0
  9
$PUCSORGTOP
 10
0.0
 20
0.0
 30
0.0
  9
$PUCSORGBOTTOM
 10
0.0
 20
0.0
 30
0.0
  9
$PUCSORGLEFT
 10
0.0
 20
0.0
 30
0.0
  9
$PUCSORGRIGHT
 10
0.0
 20
0.0
 30
0.0
  9
$PUCSORGFRONT
 10
0.0
 20
0.0
 30
0.0
  9
$PUCSORGBACK
 10
0.0
 20
0.0
 30
0.0
  9
$USERI1
 70
     0
  9
$USERI2
 70
     0
  9
$USERI3
 70
     0
  9
$USERI4
 70
     0
  9
$USERI5
 70
     0
  9
$USERR1
 40
0.0
  9
$USERR2
 40
0.0
  9
$USERR3
 40
0.0
  9
$USERR4
 40
0.0
  9
$USERR5
 40
0.0
  9
$WORLDVIEW
 70
     1
  9
$SHADEDGE
 70
     3
  9
$SHADEDIF
 70
    70
  9
$TILEMODE
 70
     1
  9
$MAXACTVP
 70
    64
  9
$PINSBASE
 10
0.0
 20
0.0
 30
0.0
  9
$PLIMCHECK
 70
     0
  9
$PEXTMIN
 10
1.000000E+20
 20
1.000000E+20
 30
0.0
  9
$PEXTMAX
 10
-1.000000E+20
 20
-1.000000E+20
 30
0.0
  9
$PLIMMIN
 10
0.0
 20
0.0
  9
$PLIMMAX
 10
12.0
 20
9.0
  9
$UNITMODE
 70
     0
  9
$VISRETAIN
 70
     1
  9
$PLINEGEN
 70
     0
  9
$PSLTSCALE
 70
     1
  9
$TREEDEPTH
 70
  3020
  9
$CMLSTYLE
  2
Standard
  9
$CMLJUST
 70
     0
  9
$CMLSCALE
 40
20.0
  9
$PROXYGRAPHICS
 70
     1
  9
$MEASUREMENT
 70
     1
  9
$CELWEIGHT
370
    -1
  9
$ENDCAPS
280
     0
  9
$JOINSTYLE
280
     0
  9
$LWDISPLAY
290
     0
  9
$INSUNITS
 70
     4
  9
$HYPERLINKBASE
  1

  9
$STYLESHEET
  1

  9
$XEDIT
290
     1
  9
$CEPSNTYPE
380
     0
  9
$PSTYLEMODE
290
     1
  9
$FINGERPRINTGUID
  2
{3F069460-1D87-429C-981B-6A9DC0283CF1}
  9
$VERSIONGUID
  2
{FAEB1C32-E019-11D5-929B-00C0DF256EC4}
  9
$EXTNAMES
290
     1
  9
$PSVPSCALE
 40
0.0
  9
$OLESTARTUP
290
     0
  0
ENDSEC
  0
SECTION
  2
CLASSES
  0
CLASS
  1
ACDBDICTIONARYWDFLT
  2
AcDbDictionaryWithDefault
  3
ObjectDBX Classes
 90
        0
280
     0
281
     0
  0
CLASS
  1
VISUALSTYLE
  2
AcDbVisualStyle
  3
ObjectDBX Classes
 90
     4095
280
     0
281
     0
  0
CLASS
  1
SCALE
  2
AcDbScale
  3
ObjectDBX Classes
 90
     1153
280
     0
281
     0
  0
CLASS
  1
DICTIONARYVAR
  2
AcDbDictionaryVar
  3
ObjectDBX Classes
 90
        0
280
     0
281
     0
  0
CLASS
  1
ACDBPLACEHOLDER
  2
AcDbPlaceHolder
  3
ObjectDBX Classes
 90
        0
280
     0
281
     0
  0
CLASS
  1
LAYOUT
  2
AcDbLayout
  3
ObjectDBX Classes
 90
        0
280
     0
281
     0
  0
ENDSEC
  0
SECTION
  2
TABLES
  0
TABLE
  2
VPORT
  5
8
330
0
100
AcDbSymbolTable
 70
     1
  0
VPORT
  5
29
330
8
100
AcDbSymbolTableRecord
100
AcDbViewportTableRecord
  2
*Active
 70
     0
 10
0.0
 20
0.0
 11
1.0
 21
1.0
 12
98.009422
 22
43.736084
 13
0.0
 23
0.0
 14
1.0
 24
1.0
 15
0.0
 25
0.0
 16
0.0
 26
0.0
 36
1.0
 17
0.0
 27
0.0
 37
0.0
 40
108.356508
 41
1.691288
 42
50.0
 43
0.0
 44
0.0
 50
0.0
 51
0.0
 71
     0
 72
   100
 73
     1
 74
     3
 75
     0
 76
     0
 77
     0
 78
     0
281
     0
 65
     1
110
0.0
120
0.0
130
0.0
111
1.0
121
0.0
131
0.0
112
0.0
122
1.0
132
0.0
 79
     0
146
0.0
  0
ENDTAB
  0
TABLE
  2
LTYPE
  5
5
330
0
100
AcDbSymbolTable
 70
     5
  0
LTYPE
  5
14
330
5
100
AcDbSymbolTableRecord
100
AcDbLinetypeTableRecord
  2
ByBlock
 70
     0
  3

 72
    65
 73
     0
 40
0.0
  0
LTYPE
  5
15
330
5
100
AcDbSymbolTableRecord
100
AcDbLinetypeTableRecord
  2
ByLayer
 70
     0
  3

 72
    65
 73
     0
 40
0.0
  0
LTYPE
  5
16
330
5
100
AcDbSymbolTableRecord
100
AcDbLinetypeTableRecord
  2
Continuous
 70
     0
  3
Solid line
 72
    65
 73
     0
 40
0.0
  0
LTYPE
  5
5D
330
5
100
AcDbSymbolTableRecord
100
AcDbLinetypeTableRecord
  2
DASHED
 70
     0
  3
DASHED
 72
    83
 73
     2
 40
0.75
 49
0.5
 74
     0
 49
-0.25
 74
     0
  0
LTYPE
  5
5E
330
5
100
AcDbSymbolTableRecord
100
AcDbLinetypeTableRecord
  2
HIDDEN
 70
     0
  3
HIDDEN
 72
    83
 73
     2
 40
0.375
 49
0.25
 74
     0
 49
-0.125
 74
     0
  0
LTYPE
  5
5F
330
5
100
AcDbSymbolTableRecord
100
AcDbLinetypeTableRecord
  2
CENTER
 70
     0
  3
CENTER
 72
    83
 73
     4
 40
2.0
 49
1.25
 74
     0
 49
-0.25
 74
     0
 49
0.25
 74
     0
 49
-0.25
 74
     0
  0
LTYPE
  5
60
330
5
100
AcDbSymbolTableRecord
100
AcDbLinetypeTableRecord
  2
PHANTOM
 70
     0
  3
PHANTOM
 72
    83
 73
     6
 40
2.5
 49
1.25
 74
     0
 49
-0.25
 74
     0
 49
0.25
 74
     0
 49
-0.25
 74
     0
 49
0.25
 74
     0
 49
-0.25
 74
     0
  0
ENDTAB
  0
TABLE
  2
LAYER
  5
2
330
0
100
AcDbSymbolTable
 70
     2
  0
LAYER
  5
10
330
2
100
AcDbSymbolTableRecord
100
AcDbLayerTableRecord
  2
0
 70
     0
 62
     7
  6
Continuous
370
    -3
390
F
  0
LAYER
  5
61
330
2
100
AcDbSymbolTableRecord
100
AcDbLayerTableRecord
  2
001
 70
     0
 62
     7
  6
Continuous
370
    -3
390
F
  0
ENDTAB
  0
TABLE
  2
STYLE
  5
3
330
0
100
AcDbSymbolTable
 70
     2
  0
STYLE
  5
11
330
3
100
AcDbSymbolTableRecord
100
AcDbTextStyleTableRecord
  2
Standard
 70
     0
 40
0.0
 41
1.0
 50
0.0
 71
     0
 42
0.2
  3
TXT
  4
BIGFONT
  0
STYLE
  5
62
330
3
100
AcDbSymbolTableRecord
100
AcDbTextStyleTableRecord
  2
TATEGAKI
 70
     4
 40
1.0
 41
1.0
 50
0.0
 71
     0
 42
0.2
  3
TXT
  4
BIGFONT
  0
ENDTAB
  0
TABLE
  2
VIEW
  5
6
330
0
100
AcDbSymbolTable
 70
     0
  0
ENDTAB
  0
TABLE
  2
UCS
  5
7
330
0
100
AcDbSymbolTable
 70
     0
  0
ENDTAB
  0
TABLE
  2
APPID
  5
9
330
0
100
AcDbSymbolTable
 70
     1
  0
APPID
  5
12
330
9
100
AcDbSymbolTableRecord
100
AcDbRegAppTableRecord
  2
ACAD
 70
     0
  0
ENDTAB
  0
TABLE
  2
DIMSTYLE
  5
A
330
0
100
AcDbSymbolTable
 70
     2
100
AcDbDimStyleTable
  0
DIMSTYLE
105
27
330
A
100
AcDbSymbolTableRecord
100
AcDbDimStyleTableRecord
  2
ISO-25
 70
     0
 41
2.5
 42
0.625
 43
3.75
 44
1.25
 73
     0
 74
     0
 77
     1
 78
     8
140
2.5
141
2.5
143
0.03937
147
0.625
171
     3
172
     1
271
     2
272
     2
274
     3
278
    44
283
     0
284
     8
340
11
  0
DIMSTYLE
105
63
102
{ACAD_REACTORS
330
444
330
445
330
446
330
453
330
454
330
455
102
}
330
A
100
AcDbSymbolTableRecord
100
AcDbDimStyleTableRecord
  2
Standard
 70
     0
 41
1.5
 42
0.0
 44
2.75
 73
     0
 74
     0
 77
     1
 78
     8
 79
     2
140
4.0
146
0.8
147
1.0
172
     1
179
     1
271
     1
340
11
  0
ENDTAB
  0
TABLE
  2
BLOCK_RECORD
  5
1
330
0
100
AcDbSymbolTable
 70
     9
  0
BLOCK_RECORD
  5
1F
330
1
100
AcDbSymbolTableRecord
100
AcDbBlockTableRecord
  2
*Model_Space
340
22
  0
BLOCK_RECORD
  5
1B
330
1
100
AcDbSymbolTableRecord
100
AcDbBlockTableRecord
  2
*Paper_Space
340
1E
  0
BLOCK_RECORD
  5
23
330
1
100
AcDbSymbolTableRecord
100
AcDbBlockTableRecord
  2
*Paper_Space0
340
26
  0
BLOCK_RECORD
  5
64
330
1
100
AcDbSymbolTableRecord
100
AcDbBlockTableRecord
  2
M-1-1
340
0
102
{BLKREFS
331
442
102
}
  0
BLOCK_RECORD
  5
260
330
1
100
AcDbSymbolTableRecord
100
AcDbBlockTableRecord
  2
C32GUX-2
340
0
102
{BLKREFS
331
443
102
}
  0
BLOCK_RECORD
  5
3C4
330
1
100
AcDbSymbolTableRecord
100
AcDbBlockTableRecord
  2
*D3
340
0
  0
BLOCK_RECORD
  5
3DB
330
1
100
AcDbSymbolTableRecord
100
AcDbBlockTableRecord
  2
*D4
340
0
  0
BLOCK_RECORD
  5
3F1
330
1
100
AcDbSymbolTableRecord
100
AcDbBlockTableRecord
  2
*D5
340
0
  0
BLOCK_RECORD
  5
405
330
1
100
AcDbSymbolTableRecord
100
AcDbBlockTableRecord
  2
*D6
340
0
  0
BLOCK_RECORD
  5
419
330
1
100
AcDbSymbolTableRecord
100
AcDbBlockTableRecord
  2
*D7
340
0
  0
BLOCK_RECORD
  5
42D
330
1
100
AcDbSymbolTableRecord
100
AcDbBlockTableRecord
  2
*D8
340
0
  0
ENDTAB
  0
ENDSEC
  0
SECTION
  2
BLOCKS
  0
BLOCK
  5
20
330
1F
100
AcDbEntity
  8
0
100
AcDbBlockBegin
  2
*Model_Space
 70
     0
 10
0.0
 20
0.0
 30
0.0
  3
*Model_Space
  1

  0
ENDBLK
  5
21
330
1F
100
AcDbEntity
  8
0
100
AcDbBlockEnd
  0
BLOCK
  5
1C
330
1B
100
AcDbEntity
 67
     1
  8
0
100
AcDbBlockBegin
  2
*Paper_Space
 70
     0
 10
0.0
 20
0.0
 30
0.0
  3
*Paper_Space
  1

  0
ENDBLK
  5
1D
330
1B
100
AcDbEntity
 67
     1
  8
0
100
AcDbBlockEnd
  0
BLOCK
  5
24
330
23
100
AcDbEntity
  8
0
100
AcDbBlockBegin
  2
*Paper_Space0
 70
     0
 10
0.0
 20
0.0
 30
0.0
  3
*Paper_Space0
  1

  0
ENDBLK
  5
25
330
23
100
AcDbEntity
  8
0
100
AcDbBlockEnd
  0
BLOCK
  5
65
330
64
100
AcDbEntity
  8
0
100
AcDbBlockBegin
  2
M-1-1
 70
     0
 10
0.0
 20
0.0
 30
0.0
  3
M-1-1
  1

  0
POLYLINE
  5
67
330
64
100
AcDbEntity
  8
001
 62
     5
370
    50
100
AcDb2dPolyline
 66
     1
 10
0.0
 20
0.0
 30
0.0
  0
VERTEX
  5
69
330
67
100
AcDbEntity
  8
001
 62
     5
370
    50
100
AcDbVertex
100
AcDb2dVertex
 10
41.728978
 20
42.96757
 30
0.0
  0
VERTEX
  5
6A
330
67
100
AcDbEntity
  8
001
 62
     5
370
    50
100
AcDbVertex
100
AcDb2dVertex
 10
41.661584
 20
42.945926
 30
0.0
  0
VERTEX
  5
6B
330
67
100
AcDbEntity
  8
001
 62
     5
370
    50
100
AcDbVertex
100
AcDb2dVertex
 10
41.594731
 20
42.922766
 30
0.0
  0
VERTEX
  5
6C
330
67
100
AcDbEntity
  8
001
 62
     5
370
    50
100
AcDbVertex
100
AcDb2dVertex
 10
41.517
 20
42.891883
 30
0.0
  0
VERTEX
  5
6D
330
67
100
AcDbEntity
  8
001
 62
     5
370
    50
100
AcDbVertex
100
AcDb2dVertex
 10
41.440764
 20
42.85738
 30
0.0
  0
VERTEX
  5
6E
330
67
100
AcDbEntity
  8
001
 62
     5
370
    50
100
AcDbVertex
100
AcDb2dVertex
 10
41.365876
 20
42.819674
 30
0.0
  0
VERTEX
  5
6F
330
67
100
AcDbEntity
  8
001
 62
     5
370
    50
100
AcDbVertex
100
AcDb2dVertex
 10
41.292642
 20
42.778886
 30
0.0
  0
VERTEX
  5
70
330
67
100
AcDbEntity
  8
001
 62
     5
370
    50
100
AcDbVertex
100
AcDb2dVertex
 10
41.221051
 20
42.734873
 30
0.0
  0
VERTEX
  5
71
330
67
100
AcDbEntity
  8
001
 62
     5
370
    50
100
AcDbVertex
100
AcDb2dVertex
 10
41.151404
 20
42.687831
 30
0.0
  0
VERTEX
  5
72
330
67
100
AcDbEntity
  8
001
 62
     5
370
    50
100
AcDbVertex
100
AcDb2dVertex
 10
41.083633
 20
42.63775
 30
0.0
  0
VERTEX
  5
73
330
67
100
AcDbEntity
  8
001
 62
     5
370
    50
100
AcDbVertex
100
AcDb2dVertex
 10
41.018042
 20
42.584852
 30
0.0
  0
VERTEX
  5
74
330
67
100
AcDbEntity
  8
001
 62
     5
370
    50
100
AcDbVertex
100
AcDb2dVertex
 10
40.954565
 20
42.529072
 30
0.0
  0
VERTEX
  5
75
330
67
100
AcDbEntity
  8
001
 62
     5
370
    50
100
AcDbVertex
100
AcDb2dVertex
 10
40.893494
 20
42.470668
 30
0.0
  0
VERTEX
  5
76
330
67
100
AcDbEntity
  8
001
 62
     5
370
    50
100
AcDbVertex
100
AcDb2dVertex
 10
40.834761
 20
42.409575
 30
0.0
  0
VERTEX
  5
77
330
67
100
AcDbEntity
  8
001
 62
     5
370
    50
100
AcDbVertex
100
AcDb2dVertex
 10
40.778638
 20
42.346078
 30
0.0
  0
VERTEX
  5
78
330
67
100
AcDbEntity
  8
001
 62
     5
370
    50
100
AcDbVertex
100
AcDb2dVertex
 10
40.725065
 20
42.280103
 30
0.0
  0
VERTEX
  5
79
330
67
100
AcDbEntity
  8
001
 62
     5
370
    50
100
AcDbVertex
100
AcDb2dVertex
 10
40.674287
 20
42.211954
 30
0.0
  0
VERTEX
  5
7A
330
67
100
AcDbEntity
  8
001
 62
     5
370
    50
100
AcDbVertex
100
AcDb2dVertex
 10
40.626253
 20
42.14156
 30
0.0
  0
VERTEX
  5
7B
330
67
100
AcDbEntity
  8
001
 62
     5
370
    50
100
AcDbVertex
100
AcDb2dVertex
 10
40.581178
 20
42.069237
 30
0.0
  0
VERTEX
  5
7C
330
67
100
AcDbEntity
  8
001
 62
     5
370
    50
100
AcDbVertex
100
AcDb2dVertex
 10
40.539025
 20
41.99492
 30
0.0
  0
VERTEX
  5
7D
330
67
100
AcDbEntity
  8
001
 62
     5
370
    50
100
AcDbVertex
100
AcDb2dVertex
 10
40.499973
 20
41.918928
 30
0.0
  0
VERTEX
  5
7E
330
67
100
AcDbEntity
  8
001
 62
     5
370
    50
100
AcDbVertex
100
AcDb2dVertex
 10
40.464
 20
41.841213
 30
0.0
  0
VERTEX
  5
7F
330
67
100
AcDbEntity
  8
001
 62
     5
370
    50
100
AcDbVertex
100
AcDb2dVertex
 10
40.431249
 20
41.762086
 30
0.0
  0
VERTEX
  5
80
330
67
100
AcDbEntity
  8
001
 62
     5
370
    50
100
AcDbVertex
100
AcDb2dVertex
 10
40.401711
 20
41.68152
 30
0.0
  0
VERTEX
  5
81
330
67
100
AcDbEntity
  8
001
 62
     5
370
    50
100
AcDbVertex
100
AcDb2dVertex
 10
40.375496
 20
41.599813
 30
0.0
  0
VERTEX
  5
82
330
67
100
AcDbEntity
  8
001
 62
     5
370
    50
100
AcDbVertex
100
AcDb2dVertex
 10
40.352606
 20
41.516966
 30
0.0
  0
VERTEX
  5
83
330
67
100
AcDbEntity
  8
001
 62
     5
370
    50
100
AcDbVertex
100
AcDb2dVertex
 10
40.333114
 20
41.433254
 30
0.0
  0
VERTEX
  5
84
330
67
100
AcDbEntity
  8
001
 62
     5
370
    50
100
AcDbVertex
100
AcDb2dVertex
 10
40.317026
 20
41.34871
 30
0.0
  0
VERTEX
  5
85
330
67
100
AcDbEntity
  8
001
 62
     5
370
    50
100
AcDbVertex
100
AcDb2dVertex
 10
40.304406
 20
41.263583
 30
0.0
  0
VERTEX
  5
86
330
67
100
AcDbEntity
  8
001
 62
     5
370
    50
100
AcDbVertex
100
AcDb2dVertex
 10
40.295269
 20
41.177944
 30
0.0
  0
VERTEX
  5
87
330
67
100
AcDbEntity
  8
001
 62
     5
370
    50
100
AcDbVertex
100
AcDb2dVertex
 10
40.289581
 20
41.091999
 30
0.0
  0
VERTEX
  5
88
330
67
100
AcDbEntity
  8
001
 62
     5
370
    50
100
AcDbVertex
100
AcDb2dVertex
 10
40.287364
 20
41.010373
 30
0.0
  0
VERTEX
  5
89
330
67
100
AcDbEntity
  8
001
 62
     5
370
    50
100
AcDbVertex
100
AcDb2dVertex
 10
40.288444
 20
40.928743
 30
0.0
  0
VERTEX
  5
8A
330
67
100
AcDbEntity
  8
001
 62
     5
370
    50
100
AcDbVertex
100
AcDb2dVertex
 10
40.289434
 20
40.903994
 30
0.0
  0
VERTEX
  5
8B
330
67
100
AcDbEntity
  8
001
 62
     5
370
    50
100
AcDbVertex
100
AcDb2dVertex
 10
40.290587
 20
40.879251
 30
0.0
  0
SEQEND
  5
68
330
67
100
AcDbEntity
  8
001
370
    50
  0
POLYLINE
  5
8C
330
64
100
AcDbEntity
  8
001
 62
     5
370
    50
100
AcDb2dPolyline
 66
     1
 10
0.0
 20
0.0
 30
0.0
  0
VERTEX
  5
8E
330
8C
100
AcDbEntity
  8
001
 62
     5
370
    50
100
AcDbVertex
100
AcDb2dVertex
 10
40.290587
 20
40.879251
 30
0.0
  0
VERTEX
  5
8F
330
8C
100
AcDbEntity
  8
001
 62
     5
370
    50
100
AcDbVertex
100
AcDb2dVertex
 10
40.293937
 20
40.831933
 30
0.0
  0
VERTEX
  5
90
330
8C
100
AcDbEntity
  8
001
 62
     5
370
    50
100
AcDbVertex
100
AcDb2dVertex
 10
40.297919
 20
40.784671
 30
0.0
  0
VERTEX
  5
91
330
8C
100
AcDbEntity
  8
001
 62
     5
370
    50
100
AcDbVertex
100
AcDb2dVertex
 10
40.308112
 20
40.699188
 30
0.0
  0
VERTEX
  5
92
330
8C
100
AcDbEntity
  8
001
 62
     5
370
    50
100
AcDbVertex
100
AcDb2dVertex
 10
40.322026
 20
40.614204
 30
0.0
  0
VERTEX
  5
93
330
8C
100
AcDbEntity
  8
001
 62
     5
370
    50
100
AcDbVertex
100
AcDb2dVertex
 10
40.339289
 20
40.529907
 30
0.0
  0
VERTEX
  5
94
330
8C
100
AcDbEntity
  8
001
 62
     5
370
    50
100
AcDbVertex
100
AcDb2dVertex
 10
40.359911
 20
40.446382
 30
0.0
  0
VERTEX
  5
95
330
8C
100
AcDbEntity
  8
001
 62
     5
370
    50
100
AcDbVertex
100
AcDb2dVertex
 10
40.383921
 20
40.363882
 30
0.0
  0
VERTEX
  5
96
330
8C
100
AcDbEntity
  8
001
 62
     5
370
    50
100
AcDbVertex
100
AcDb2dVertex
 10
40.411304
 20
40.282435
 30
0.0
  0
VERTEX
  5
97
330
8C
100
AcDbEntity
  8
001
 62
     5
370
    50
100
AcDbVertex
100
AcDb2dVertex
 10
40.441944
 20
40.202315
 30
0.0
  0
VERTEX
  5
98
330
8C
100
AcDbEntity
  8
001
 62
     5
370
    50
100
AcDbVertex
100
AcDb2dVertex
 10
40.475843
 20
40.123522
 30
0.0
  0
VERTEX
  5
99
330
8C
100
AcDbEntity
  8
001
 62
     5
370
    50
100
AcDbVertex
100
AcDb2dVertex
 10
40.512882
 20
40.04635
 30
0.0
  0
VERTEX
  5
9A
330
8C
100
AcDbEntity
  8
001
 62
     5
370
    50
100
AcDbVertex
100
AcDb2dVertex
 10
40.553072
 20
39.970771
 30
0.0
  0
VERTEX
  5
9B
330
8C
100
AcDbEntity
  8
001
 62
     5
370
    50
100
AcDbVertex
100
AcDb2dVertex
 10
40.59625
 20
39.897092
 30
0.0
  0
VERTEX
  5
9C
330
8C
100
AcDbEntity
  8
001
 62
     5
370
    50
100
AcDbVertex
100
AcDb2dVertex
 10
40.642444
 20
39.825266
 30
0.0
  0
VERTEX
  5
9D
330
8C
100
AcDbEntity
  8
001
 62
     5
370
    50
100
AcDbVertex
100
AcDb2dVertex
 10
40.691454
 20
39.755601
 30
0.0
  0
VERTEX
  5
9E
330
8C
100
AcDbEntity
  8
001
 62
     5
370
    50
100
AcDbVertex
100
AcDb2dVertex
 10
40.743323
 20
39.688037
 30
0.0
  0
VERTEX
  5
9F
330
8C
100
AcDbEntity
  8
001
 62
     5
370
    50
100
AcDbVertex
100
AcDb2dVertex
 10
40.797819
 20
39.622878
 30
0.0
  0
VERTEX
  5
A0
330
8C
100
AcDbEntity
  8
001
 62
     5
370
    50
100
AcDbVertex
100
AcDb2dVertex
 10
40.854994
 20
39.560057
 30
0.0
  0
VERTEX
  5
A1
330
8C
100
AcDbEntity
  8
001
 62
     5
370
    50
100
AcDbVertex
100
AcDb2dVertex
 10
40.914588
 20
39.499864
 30
0.0
  0
VERTEX
  5
A2
330
8C
100
AcDbEntity
  8
001
 62
     5
370
    50
100
AcDbVertex
100
AcDb2dVertex
 10
40.976662
 20
39.442232
 30
0.0
  0
VERTEX
  5
A3
330
8C
100
AcDbEntity
  8
001
 62
     5
370
    50
100
AcDbVertex
100
AcDb2dVertex
 10
41.040931
 20
39.387427
 30
0.0
  0
VERTEX
  5
A4
330
8C
100
AcDbEntity
  8
001
 62
     5
370
    50
100
AcDbVertex
100
AcDb2dVertex
 10
41.107462
 20
39.335393
 30
0.0
  0
VERTEX
  5
A5
330
8C
100
AcDbEntity
  8
001
 62
     5
370
    50
100
AcDbVertex
100
AcDb2dVertex
 10
41.175951
 20
39.286365
 30
0.0
  0
VERTEX
  5
A6
330
8C
100
AcDbEntity
  8
001
 62
     5
370
    50
100
AcDbVertex
100
AcDb2dVertex
 10
41.246464
 20
39.240293
 30
0.0
  0
VERTEX
  5
A7
330
8C
100
AcDbEntity
  8
001
 62
     5
370
    50
100
AcDbVertex
100
AcDb2dVertex
 10
41.318687
 20
39.197379
 30
0.0
  0
VERTEX
  5
A8
330
8C
100
AcDbEntity
  8
001
 62
     5
370
    50
100
AcDbVertex
100
AcDb2dVertex
 10
41.392679
 20
39.1576
 30
0.0
  0
VERTEX
  5
A9
330
8C
100
AcDbEntity
  8
001
 62
     5
370
    50
100
AcDbVertex
100
AcDb2dVertex
 10
41.46813
 20
39.121127
 30
0.0
  0
VERTEX
  5
AA
330
8C
100
AcDbEntity
  8
001
 62
     5
370
    50
100
AcDbVertex
100
AcDb2dVertex
 10
41.545071
 20
39.087893
 30
0.0
  0
VERTEX
  5
AB
330
8C
100
AcDbEntity
  8
001
 62
     5
370
    50
100
AcDbVertex
100
AcDb2dVertex
 10
41.623198
 20
39.058015
 30
0.0
  0
VERTEX
  5
AC
330
8C
100
AcDbEntity
  8
001
 62
     5
370
    50
100
AcDbVertex
100
AcDb2dVertex
 10
41.70256
 20
39.031656
 30
0.0
  0
VERTEX
  5
AD
330
8C
100
AcDbEntity
  8
001
 62
     5
370
    50
100
AcDbVertex
100
AcDb2dVertex
 10
41.719048
 20
39.026675
 30
0.0
  0
VERTEX
  5
AE
330
8C
100
AcDbEntity
  8
001
 62
     5
370
    50
100
AcDbVertex
100
AcDb2dVertex
 10
41.735561
 20
39.021775
 30
0.0
  0
SEQEND
  5
8D
330
8C
100
AcDbEntity
  8
001
370
    50
  0
POLYLINE
  5
AF
330
64
100
AcDbEntity
  8
001
 62
     5
370
    50
100
AcDb2dPolyline
 66
     1
 10
0.0
 20
0.0
 30
0.0
  0
VERTEX
  5
B1
330
AF
100
AcDbEntity
  8
001
 62
     5
370
    50
100
AcDbVertex
100
AcDb2dVertex
 10
42.271292
 20
43.045633
 30
0.0
  0
VERTEX
  5
B2
330
AF
100
AcDbEntity
  8
001
 62
     5
370
    50
100
AcDbVertex
100
AcDb2dVertex
 10
42.13105
 20
43.039736
 30
0.0
  0
VERTEX
  5
B3
330
AF
100
AcDbEntity
  8
001
 62
     5
370
    50
100
AcDbVertex
100
AcDb2dVertex
 10
41.928038
 20
43.014495
 30
0.0
  0
VERTEX
  5
B4
330
AF
100
AcDbEntity
  8
001
 62
     5
370
    50
100
AcDbVertex
100
AcDb2dVertex
 10
41.811656
 20
42.989209
 30
0.0
  0
VERTEX
  5
B5
330
AF
100
AcDbEntity
  8
001
 62
     5
370
    50
100
AcDbVertex
100
AcDb2dVertex
 10
41.732831
 20
42.968119
 30
0.0
  0
SEQEND
  5
B0
330
AF
100
AcDbEntity
  8
001
370
    50
  0
POLYLINE
  5
B6
330
64
100
AcDbEntity
  8
001
 62
     5
370
    50
100
AcDb2dPolyline
 66
     1
 10
0.0
 20
0.0
 30
0.0
  0
VERTEX
  5
B8
330
B6
100
AcDbEntity
  8
001
 62
     5
370
    50
100
AcDbVertex
100
AcDb2dVertex
 10
42.271219
 20
38.945633
 30
0.0
  0
VERTEX
  5
B9
330
B6
100
AcDbEntity
  8
001
 62
     5
370
    50
100
AcDbVertex
100
AcDb2dVertex
 10
42.411461
 20
38.95153
 30
0.0
  0
VERTEX
  5
BA
330
B6
100
AcDbEntity
  8
001
 62
     5
370
    50
100
AcDbVertex
100
AcDb2dVertex
 10
42.614473
 20
38.976771
 30
0.0
  0
VERTEX
  5
BB
330
B6
100
AcDbEntity
  8
001
 62
     5
370
    50
100
AcDbVertex
100
AcDb2dVertex
 10
42.729887
 20
39.001813
 30
0.0
  0
VERTEX
  5
BC
330
B6
100
AcDbEntity
  8
001
 62
     5
370
    50
100
AcDbVertex
100
AcDb2dVertex
 10
42.808065
 20
39.022673
 30
0.0
  0
SEQEND
  5
B7
330
B6
100
AcDbEntity
  8
001
370
    50
  0
POLYLINE
  5
BD
330
64
100
AcDbEntity
  8
001
 62
     5
370
    50
100
AcDb2dPolyline
 66
     1
 10
0.0
 20
0.0
 30
0.0
  0
VERTEX
  5
BF
330
BD
100
AcDbEntity
  8
001
 62
     5
370
    50
100
AcDbVertex
100
AcDb2dVertex
 10
42.15674
 20
42.393815
 30
0.0
  0
VERTEX
  5
C0
330
BD
100
AcDbEntity
  8
001
 62
     5
370
    50
100
AcDbVertex
100
AcDb2dVertex
 10
42.136944
 20
42.392741
 30
0.0
  0
VERTEX
  5
C1
330
BD
100
AcDbEntity
  8
001
 62
     5
370
    50
100
AcDbVertex
100
AcDb2dVertex
 10
42.109856
 20
42.389562
 30
0.0
  0
VERTEX
  5
C2
330
BD
100
AcDbEntity
  8
001
 62
     5
370
    50
100
AcDbVertex
100
AcDb2dVertex
 10
42.085834
 20
42.384307
 30
0.0
  0
VERTEX
  5
C3
330
BD
100
AcDbEntity
  8
001
 62
     5
370
    50
100
AcDbVertex
100
AcDb2dVertex
 10
42.064397
 20
42.376931
 30
0.0
  0
VERTEX
  5
C4
330
BD
100
AcDbEntity
  8
001
 62
     5
370
    50
100
AcDbVertex
100
AcDb2dVertex
 10
42.042889
 20
42.367427
 30
0.0
  0
VERTEX
  5
C5
330
BD
100
AcDbEntity
  8
001
 62
     5
370
    50
100
AcDbVertex
100
AcDb2dVertex
 10
42.021744
 20
42.356305
 30
0.0
  0
VERTEX
  5
C6
330
BD
100
AcDbEntity
  8
001
 62
     5
370
    50
100
AcDbVertex
100
AcDb2dVertex
 10
41.966196
 20
42.31473
 30
0.0
  0
VERTEX
  5
C7
330
BD
100
AcDbEntity
  8
001
 62
     5
370
    50
100
AcDbVertex
100
AcDb2dVertex
 10
41.922919
 20
42.253819
 30
0.0
  0
VERTEX
  5
C8
330
BD
100
AcDbEntity
  8
001
 62
     5
370
    50
100
AcDbVertex
100
AcDb2dVertex
 10
41.903971
 20
42.209544
 30
0.0
  0
VERTEX
  5
C9
330
BD
100
AcDbEntity
  8
001
 62
     5
370
    50
100
AcDbVertex
100
AcDb2dVertex
 10
41.893626
 20
42.17663
 30
0.0
  0
SEQEND
  5
BE
330
BD
100
AcDbEntity
  8
001
370
    50
  0
POLYLINE
  5
CA
330
64
100
AcDbEntity
  8
001
 62
     5
370
    50
100
AcDb2dPolyline
 66
     1
 10
0.0
 20
0.0
 30
0.0
  0
VERTEX
  5
CC
330
CA
100
AcDbEntity
  8
001
 62
     5
370
    50
100
AcDbVertex
100
AcDb2dVertex
 10
41.302962
 20
41.774775
 30
0.0
  0
VERTEX
  5
CD
330
CA
100
AcDbEntity
  8
001
 62
     5
370
    50
100
AcDbVertex
100
AcDb2dVertex
 10
41.304753
 20
41.774434
 30
0.0
  0
VERTEX
  5
CE
330
CA
100
AcDbEntity
  8
001
 62
     5
370
    50
100
AcDbVertex
100
AcDb2dVertex
 10
41.307374
 20
41.773947
 30
0.0
  0
VERTEX
  5
CF
330
CA
100
AcDbEntity
  8
001
 62
     5
370
    50
100
AcDbVertex
100
AcDb2dVertex
 10
41.359824
 20
41.767422
 30
0.0
  0
VERTEX
  5
D0
330
CA
100
AcDbEntity
  8
001
 62
     5
370
    50
100
AcDbVertex
100
AcDb2dVertex
 10
41.396037
 20
41.765901
 30
0.0
  0
SEQEND
  5
CB
330
CA
100
AcDbEntity
  8
001
370
    50
  0
POLYLINE
  5
D1
330
64
100
AcDbEntity
  8
001
 62
     5
370
    50
100
AcDb2dPolyline
 66
     1
 10
0.0
 20
0.0
 30
0.0
  0
VERTEX
  5
D3
330
D1
100
AcDbEntity
  8
001
 62
     5
370
    50
100
AcDbVertex
100
AcDb2dVertex
 10
41.253745
 20
41.779467
 30
0.0
  0
VERTEX
  5
D4
330
D1
100
AcDbEntity
  8
001
 62
     5
370
    50
100
AcDbVertex
100
AcDb2dVertex
 10
41.233951
 20
41.778401
 30
0.0
  0
VERTEX
  5
D5
330
D1
100
AcDbEntity
  8
001
 62
     5
370
    50
100
AcDbVertex
100
AcDb2dVertex
 10
41.206862
 20
41.775214
 30
0.0
  0
VERTEX
  5
D6
330
D1
100
AcDbEntity
  8
001
 62
     5
370
    50
100
AcDbVertex
100
AcDb2dVertex
 10
41.18283
 20
41.769916
 30
0.0
  0
VERTEX
  5
D7
330
D1
100
AcDbEntity
  8
001
 62
     5
370
    50
100
AcDbVertex
100
AcDb2dVertex
 10
41.161403
 20
41.762582
 30
0.0
  0
VERTEX
  5
D8
330
D1
100
AcDbEntity
  8
001
 62
     5
370
    50
100
AcDbVertex
100
AcDb2dVertex
 10
41.139932
 20
41.753243
 30
0.0
  0
VERTEX
  5
D9
330
D1
100
AcDbEntity
  8
001
 62
     5
370
    50
100
AcDbVertex
100
AcDb2dVertex
 10
41.118749
 20
41.741956
 30
0.0
  0
VERTEX
  5
DA
330
D1
100
AcDbEntity
  8
001
 62
     5
370
    50
100
AcDbVertex
100
AcDb2dVertex
 10
41.06248
 20
41.697195
 30
0.0
  0
VERTEX
  5
DB
330
D1
100
AcDbEntity
  8
001
 62
     5
370
    50
100
AcDbVertex
100
AcDb2dVertex
 10
41.019924
 20
41.639471
 30
0.0
  0
VERTEX
  5
DC
330
D1
100
AcDbEntity
  8
001
 62
     5
370
    50
100
AcDbVertex
100
AcDb2dVertex
 10
41.00002
 20
41.59505
 30
0.0
  0
VERTEX
  5
DD
330
D1
100
AcDbEntity
  8
001
 62
     5
370
    50
100
AcDbVertex
100
AcDb2dVertex
 10
40.987852
 20
41.548093
 30
0.0
  0
VERTEX
  5
DE
330
D1
100
AcDbEntity
  8
001
 62
     5
370
    50
100
AcDbVertex
100
AcDb2dVertex
 10
40.984733
 20
41.523901
 30
0.0
  0
VERTEX
  5
DF
330
D1
100
AcDbEntity
  8
001
 62
     5
370
    50
100
AcDbVertex
100
AcDb2dVertex
 10
40.983749
 20
41.499472
 30
0.0
  0
VERTEX
  5
E0
330
D1
100
AcDbEntity
  8
001
 62
     5
370
    50
100
AcDbVertex
100
AcDb2dVertex
 10
40.984918
 20
41.474944
 30
0.0
  0
VERTEX
  5
E1
330
D1
100
AcDbEntity
  8
001
 62
     5
370
    50
100
AcDbVertex
100
AcDb2dVertex
 10
40.98785
 20
41.45085
 30
0.0
  0
VERTEX
  5
E2
330
D1
100
AcDbEntity
  8
001
 62
     5
370
    50
100
AcDbVertex
100
AcDb2dVertex
 10
40.998544
 20
41.405243
 30
0.0
  0
VERTEX
  5
E3
330
D1
100
AcDbEntity
  8
001
 62
     5
370
    50
100
AcDbVertex
100
AcDb2dVertex
 10
41.019919
 20
41.359471
 30
0.0
  0
VERTEX
  5
E4
330
D1
100
AcDbEntity
  8
001
 62
     5
370
    50
100
AcDbVertex
100
AcDb2dVertex
 10
41.047188
 20
41.320581
 30
0.0
  0
VERTEX
  5
E5
330
D1
100
AcDbEntity
  8
001
 62
     5
370
    50
100
AcDbVertex
100
AcDb2dVertex
 10
41.06973
 20
41.294568
 30
0.0
  0
SEQEND
  5
D2
330
D1
100
AcDbEntity
  8
001
370
    50
  0
POLYLINE
  5
E6
330
64
100
AcDbEntity
  8
001
 62
     5
370
    50
100
AcDb2dPolyline
 66
     1
 10
0.0
 20
0.0
 30
0.0
  0
VERTEX
  5
E8
330
E6
100
AcDbEntity
  8
001
 62
     5
370
    50
100
AcDbVertex
100
AcDb2dVertex
 10
41.109974
 20
40.563147
 30
0.0
  0
VERTEX
  5
E9
330
E6
100
AcDbEntity
  8
001
 62
     5
370
    50
100
AcDbVertex
100
AcDb2dVertex
 10
41.13363
 20
40.595278
 30
0.0
  0
VERTEX
  5
EA
330
E6
100
AcDbEntity
  8
001
 62
     5
370
    50
100
AcDbVertex
100
AcDb2dVertex
 10
41.163923
 20
40.642304
 30
0.0
  0
VERTEX
  5
EB
330
E6
100
AcDbEntity
  8
001
 62
     5
370
    50
100
AcDbVertex
100
AcDb2dVertex
 10
41.204425
 20
40.729741
 30
0.0
  0
VERTEX
  5
EC
330
E6
100
AcDbEntity
  8
001
 62
     5
370
    50
100
AcDbVertex
100
AcDb2dVertex
 10
41.224575
 20
40.815114
 30
0.0
  0
VERTEX
  5
ED
330
E6
100
AcDbEntity
  8
001
 62
     5
370
    50
100
AcDbVertex
100
AcDb2dVertex
 10
41.230188
 20
40.860521
 30
0.0
  0
VERTEX
  5
EE
330
E6
100
AcDbEntity
  8
001
 62
     5
370
    50
100
AcDbVertex
100
AcDb2dVertex
 10
41.232334
 20
40.907064
 30
0.0
  0
VERTEX
  5
EF
330
E6
100
AcDbEntity
  8
001
 62
     5
370
    50
100
AcDbVertex
100
AcDb2dVertex
 10
41.230206
 20
40.953548
 30
0.0
  0
VERTEX
  5
F0
330
E6
100
AcDbEntity
  8
001
 62
     5
370
    50
100
AcDbVertex
100
AcDb2dVertex
 10
41.224578
 20
40.999015
 30
0.0
  0
VERTEX
  5
F1
330
E6
100
AcDbEntity
  8
001
 62
     5
370
    50
100
AcDbVertex
100
AcDb2dVertex
 10
41.204303
 20
41.085203
 30
0.0
  0
VERTEX
  5
F2
330
E6
100
AcDbEntity
  8
001
 62
     5
370
    50
100
AcDbVertex
100
AcDb2dVertex
 10
41.163932
 20
41.171827
 30
0.0
  0
VERTEX
  5
F3
330
E6
100
AcDbEntity
  8
001
 62
     5
370
    50
100
AcDbVertex
100
AcDb2dVertex
 10
41.112369
 20
41.245383
 30
0.0
  0
VERTEX
  5
F4
330
E6
100
AcDbEntity
  8
001
 62
     5
370
    50
100
AcDbVertex
100
AcDb2dVertex
 10
41.06973
 20
41.294568
 30
0.0
  0
SEQEND
  5
E7
330
E6
100
AcDbEntity
  8
001
370
    50
  0
POLYLINE
  5
F5
330
64
100
AcDbEntity
  8
001
 62
     5
370
    50
100
AcDb2dPolyline
 66
     1
 10
0.0
 20
0.0
 30
0.0
  0
VERTEX
  5
F7
330
F5
100
AcDbEntity
  8
001
 62
     5
370
    50
100
AcDbVertex
100
AcDb2dVertex
 10
41.315259
 20
40.101286
 30
0.0
  0
VERTEX
  5
F8
330
F5
100
AcDbEntity
  8
001
 62
     5
370
    50
100
AcDbVertex
100
AcDb2dVertex
 10
41.334415
 20
40.102092
 30
0.0
  0
VERTEX
  5
F9
330
F5
100
AcDbEntity
  8
001
 62
     5
370
    50
100
AcDbVertex
100
AcDb2dVertex
 10
41.362142
 20
40.105539
 30
0.0
  0
VERTEX
  5
FA
330
F5
100
AcDbEntity
  8
001
 62
     5
370
    50
100
AcDbVertex
100
AcDb2dVertex
 10
41.381373
 20
40.109858
 30
0.0
  0
VERTEX
  5
FB
330
F5
100
AcDbEntity
  8
001
 62
     5
370
    50
100
AcDbVertex
100
AcDb2dVertex
 10
41.394363
 20
40.113572
 30
0.0
  0
SEQEND
  5
F6
330
F5
100
AcDbEntity
  8
001
370
    50
  0
POLYLINE
  5
FC
330
64
100
AcDbEntity
  8
001
 62
     5
370
    50
100
AcDb2dPolyline
 66
     1
 10
0.0
 20
0.0
 30
0.0
  0
VERTEX
  5
FE
330
FC
100
AcDbEntity
  8
001
 62
     5
370
    50
100
AcDbVertex
100
AcDb2dVertex
 10
42.025271
 20
39.784006
 30
0.0
  0
VERTEX
  5
FF
330
FC
100
AcDbEntity
  8
001
 62
     5
370
    50
100
AcDbVertex
100
AcDb2dVertex
 10
42.010378
 20
39.821018
 30
0.0
  0
VERTEX
  5
100
330
FC
100
AcDbEntity
  8
001
 62
     5
370
    50
100
AcDbVertex
100
AcDb2dVertex
 10
41.986144
 20
39.872037
 30
0.0
  0
VERTEX
  5
101
330
FC
100
AcDbEntity
  8
001
 62
     5
370
    50
100
AcDbVertex
100
AcDb2dVertex
 10
41.90337
 20
39.987852
 30
0.0
  0
VERTEX
  5
102
330
FC
100
AcDbEntity
  8
001
 62
     5
370
    50
100
AcDbVertex
100
AcDb2dVertex
 10
41.799257
 20
40.065859
 30
0.0
  0
VERTEX
  5
103
330
FC
100
AcDbEntity
  8
001
 62
     5
370
    50
100
AcDbVertex
100
AcDb2dVertex
 10
41.759316
 20
40.086864
 30
0.0
  0
VERTEX
  5
104
330
FC
100
AcDbEntity
  8
001
 62
     5
370
    50
100
AcDbVertex
100
AcDb2dVertex
 10
41.718594
 20
40.104869
 30
0.0
  0
VERTEX
  5
105
330
FC
100
AcDbEntity
  8
001
 62
     5
370
    50
100
AcDbVertex
100
AcDb2dVertex
 10
41.678041
 20
40.118829
 30
0.0
  0
VERTEX
  5
106
330
FC
100
AcDbEntity
  8
001
 62
     5
370
    50
100
AcDbVertex
100
AcDb2dVertex
 10
41.632625
 20
40.12876
 30
0.0
  0
VERTEX
  5
107
330
FC
100
AcDbEntity
  8
001
 62
     5
370
    50
100
AcDbVertex
100
AcDb2dVertex
 10
41.581401
 20
40.134772
 30
0.0
  0
VERTEX
  5
108
330
FC
100
AcDbEntity
  8
001
 62
     5
370
    50
100
AcDbVertex
100
AcDb2dVertex
 10
41.543961
 20
40.136807
 30
0.0
  0
SEQEND
  5
FD
330
FC
100
AcDbEntity
  8
001
370
    50
  0
POLYLINE
  5
109
330
64
100
AcDbEntity
  8
001
 62
     5
370
    50
100
AcDb2dPolyline
 66
     1
 10
0.0
 20
0.0
 30
0.0
  0
VERTEX
  5
10B
330
109
100
AcDbEntity
  8
001
 62
     5
370
    50
100
AcDbVertex
100
AcDb2dVertex
 10
42.279777
 20
39.597453
 30
0.0
  0
VERTEX
  5
10C
330
109
100
AcDbEntity
  8
001
 62
     5
370
    50
100
AcDbVertex
100
AcDb2dVertex
 10
42.299573
 20
39.598527
 30
0.0
  0
VERTEX
  5
10D
330
109
100
AcDbEntity
  8
001
 62
     5
370
    50
100
AcDbVertex
100
AcDb2dVertex
 10
42.326661
 20
39.601706
 30
0.0
  0
VERTEX
  5
10E
330
109
100
AcDbEntity
  8
001
 62
     5
370
    50
100
AcDbVertex
100
AcDb2dVertex
 10
42.350683
 20
39.606961
 30
0.0
  0
VERTEX
  5
10F
330
109
100
AcDbEntity
  8
001
 62
     5
370
    50
100
AcDbVertex
100
AcDb2dVertex
 10
42.37212
 20
39.614337
 30
0.0
  0
VERTEX
  5
110
330
109
100
AcDbEntity
  8
001
 62
     5
370
    50
100
AcDbVertex
100
AcDb2dVertex
 10
42.393628
 20
39.623841
 30
0.0
  0
VERTEX
  5
111
330
109
100
AcDbEntity
  8
001
 62
     5
370
    50
100
AcDbVertex
100
AcDb2dVertex
 10
42.414774
 20
39.634963
 30
0.0
  0
VERTEX
  5
112
330
109
100
AcDbEntity
  8
001
 62
     5
370
    50
100
AcDbVertex
100
AcDb2dVertex
 10
42.470321
 20
39.676538
 30
0.0
  0
VERTEX
  5
113
330
109
100
AcDbEntity
  8
001
 62
     5
370
    50
100
AcDbVertex
100
AcDb2dVertex
 10
42.513599
 20
39.737449
 30
0.0
  0
VERTEX
  5
114
330
109
100
AcDbEntity
  8
001
 62
     5
370
    50
100
AcDbVertex
100
AcDb2dVertex
 10
42.532546
 20
39.781724
 30
0.0
  0
VERTEX
  5
115
330
109
100
AcDbEntity
  8
001
 62
     5
370
    50
100
AcDbVertex
100
AcDb2dVertex
 10
42.542891
 20
39.814638
 30
0.0
  0
SEQEND
  5
10A
330
109
100
AcDbEntity
  8
001
370
    50
  0
POLYLINE
  5
116
330
64
100
AcDbEntity
  8
001
 62
     5
370
    50
100
AcDb2dPolyline
 66
     1
 10
0.0
 20
0.0
 30
0.0
  0
VERTEX
  5
118
330
116
100
AcDbEntity
  8
001
 62
     5
370
    50
100
AcDbVertex
100
AcDb2dVertex
 10
43.133556
 20
40.216493
 30
0.0
  0
VERTEX
  5
119
330
116
100
AcDbEntity
  8
001
 62
     5
370
    50
100
AcDbVertex
100
AcDb2dVertex
 10
43.131764
 20
40.216834
 30
0.0
  0
VERTEX
  5
11A
330
116
100
AcDbEntity
  8
001
 62
     5
370
    50
100
AcDbVertex
100
AcDb2dVertex
 10
43.129143
 20
40.217321
 30
0.0
  0
VERTEX
  5
11B
330
116
100
AcDbEntity
  8
001
 62
     5
370
    50
100
AcDbVertex
100
AcDb2dVertex
 10
43.076693
 20
40.223846
 30
0.0
  0
VERTEX
  5
11C
330
116
100
AcDbEntity
  8
001
 62
     5
370
    50
100
AcDbVertex
100
AcDb2dVertex
 10
43.04048
 20
40.225367
 30
0.0
  0
SEQEND
  5
117
330
116
100
AcDbEntity
  8
001
370
    50
  0
POLYLINE
  5
11D
330
64
100
AcDbEntity
  8
001
 62
     5
370
    50
100
AcDb2dPolyline
 66
     1
 10
0.0
 20
0.0
 30
0.0
  0
VERTEX
  5
11F
330
11D
100
AcDbEntity
  8
001
 62
     5
370
    50
100
AcDbVertex
100
AcDb2dVertex
 10
43.182772
 20
40.211801
 30
0.0
  0
VERTEX
  5
120
330
11D
100
AcDbEntity
  8
001
 62
     5
370
    50
100
AcDbVertex
100
AcDb2dVertex
 10
43.202566
 20
40.212867
 30
0.0
  0
VERTEX
  5
121
330
11D
100
AcDbEntity
  8
001
 62
     5
370
    50
100
AcDbVertex
100
AcDb2dVertex
 10
43.229656
 20
40.216054
 30
0.0
  0
VERTEX
  5
122
330
11D
100
AcDbEntity
  8
001
 62
     5
370
    50
100
AcDbVertex
100
AcDb2dVertex
 10
43.253687
 20
40.221352
 30
0.0
  0
VERTEX
  5
123
330
11D
100
AcDbEntity
  8
001
 62
     5
370
    50
100
AcDbVertex
100
AcDb2dVertex
 10
43.275115
 20
40.228686
 30
0.0
  0
VERTEX
  5
124
330
11D
100
AcDbEntity
  8
001
 62
     5
370
    50
100
AcDbVertex
100
AcDb2dVertex
 10
43.296586
 20
40.238025
 30
0.0
  0
VERTEX
  5
125
330
11D
100
AcDbEntity
  8
001
 62
     5
370
    50
100
AcDbVertex
100
AcDb2dVertex
 10
43.317768
 20
40.249312
 30
0.0
  0
VERTEX
  5
126
330
11D
100
AcDbEntity
  8
001
 62
     5
370
    50
100
AcDbVertex
100
AcDb2dVertex
 10
43.374037
 20
40.294073
 30
0.0
  0
VERTEX
  5
127
330
11D
100
AcDbEntity
  8
001
 62
     5
370
    50
100
AcDbVertex
100
AcDb2dVertex
 10
43.416594
 20
40.351797
 30
0.0
  0
VERTEX
  5
128
330
11D
100
AcDbEntity
  8
001
 62
     5
370
    50
100
AcDbVertex
100
AcDb2dVertex
 10
43.436498
 20
40.396218
 30
0.0
  0
VERTEX
  5
129
330
11D
100
AcDbEntity
  8
001
 62
     5
370
    50
100
AcDbVertex
100
AcDb2dVertex
 10
43.448665
 20
40.443175
 30
0.0
  0
VERTEX
  5
12A
330
11D
100
AcDbEntity
  8
001
 62
     5
370
    50
100
AcDbVertex
100
AcDb2dVertex
 10
43.451784
 20
40.467367
 30
0.0
  0
VERTEX
  5
12B
330
11D
100
AcDbEntity
  8
001
 62
     5
370
    50
100
AcDbVertex
100
AcDb2dVertex
 10
43.452768
 20
40.491796
 30
0.0
  0
VERTEX
  5
12C
330
11D
100
AcDbEntity
  8
001
 62
     5
370
    50
100
AcDbVertex
100
AcDb2dVertex
 10
43.451599
 20
40.516324
 30
0.0
  0
VERTEX
  5
12D
330
11D
100
AcDbEntity
  8
001
 62
     5
370
    50
100
AcDbVertex
100
AcDb2dVertex
 10
43.448667
 20
40.540418
 30
0.0
  0
VERTEX
  5
12E
330
11D
100
AcDbEntity
  8
001
 62
     5
370
    50
100
AcDbVertex
100
AcDb2dVertex
 10
43.437974
 20
40.586025
 30
0.0
  0
VERTEX
  5
12F
330
11D
100
AcDbEntity
  8
001
 62
     5
370
    50
100
AcDbVertex
100
AcDb2dVertex
 10
43.416599
 20
40.631797
 30
0.0
  0
VERTEX
  5
130
330
11D
100
AcDbEntity
  8
001
 62
     5
370
    50
100
AcDbVertex
100
AcDb2dVertex
 10
43.389329
 20
40.670687
 30
0.0
  0
VERTEX
  5
131
330
11D
100
AcDbEntity
  8
001
 62
     5
370
    50
100
AcDbVertex
100
AcDb2dVertex
 10
43.366787
 20
40.6967
 30
0.0
  0
SEQEND
  5
11E
330
11D
100
AcDbEntity
  8
001
370
    50
  0
POLYLINE
  5
132
330
64
100
AcDbEntity
  8
001
 62
     5
370
    50
100
AcDb2dPolyline
 66
     1
 10
0.0
 20
0.0
 30
0.0
  0
VERTEX
  5
134
330
132
100
AcDbEntity
  8
001
 62
     5
370
    50
100
AcDbVertex
100
AcDb2dVertex
 10
43.326543
 20
41.428121
 30
0.0
  0
VERTEX
  5
135
330
132
100
AcDbEntity
  8
001
 62
     5
370
    50
100
AcDbVertex
100
AcDb2dVertex
 10
43.302888
 20
41.39599
 30
0.0
  0
VERTEX
  5
136
330
132
100
AcDbEntity
  8
001
 62
     5
370
    50
100
AcDbVertex
100
AcDb2dVertex
 10
43.272595
 20
41.348964
 30
0.0
  0
VERTEX
  5
137
330
132
100
AcDbEntity
  8
001
 62
     5
370
    50
100
AcDbVertex
100
AcDb2dVertex
 10
43.232092
 20
41.261527
 30
0.0
  0
VERTEX
  5
138
330
132
100
AcDbEntity
  8
001
 62
     5
370
    50
100
AcDbVertex
100
AcDb2dVertex
 10
43.211942
 20
41.176154
 30
0.0
  0
VERTEX
  5
139
330
132
100
AcDbEntity
  8
001
 62
     5
370
    50
100
AcDbVertex
100
AcDb2dVertex
 10
43.206329
 20
41.130747
 30
0.0
  0
VERTEX
  5
13A
330
132
100
AcDbEntity
  8
001
 62
     5
370
    50
100
AcDbVertex
100
AcDb2dVertex
 10
43.204184
 20
41.084204
 30
0.0
  0
VERTEX
  5
13B
330
132
100
AcDbEntity
  8
001
 62
     5
370
    50
100
AcDbVertex
100
AcDb2dVertex
 10
43.206312
 20
41.03772
 30
0.0
  0
VERTEX
  5
13C
330
132
100
AcDbEntity
  8
001
 62
     5
370
    50
100
AcDbVertex
100
AcDb2dVertex
 10
43.211939
 20
40.992253
 30
0.0
  0
VERTEX
  5
13D
330
132
100
AcDbEntity
  8
001
 62
     5
370
    50
100
AcDbVertex
100
AcDb2dVertex
 10
43.232214
 20
40.906065
 30
0.0
  0
VERTEX
  5
13E
330
132
100
AcDbEntity
  8
001
 62
     5
370
    50
100
AcDbVertex
100
AcDb2dVertex
 10
43.272585
 20
40.819441
 30
0.0
  0
VERTEX
  5
13F
330
132
100
AcDbEntity
  8
001
 62
     5
370
    50
100
AcDbVertex
100
AcDb2dVertex
 10
43.324148
 20
40.745885
 30
0.0
  0
VERTEX
  5
140
330
132
100
AcDbEntity
  8
001
 62
     5
370
    50
100
AcDbVertex
100
AcDb2dVertex
 10
43.366787
 20
40.6967
 30
0.0
  0
SEQEND
  5
133
330
132
100
AcDbEntity
  8
001
370
    50
  0
POLYLINE
  5
141
330
64
100
AcDbEntity
  8
001
 62
     5
370
    50
100
AcDb2dPolyline
 66
     1
 10
0.0
 20
0.0
 30
0.0
  0
VERTEX
  5
143
330
141
100
AcDbEntity
  8
001
 62
     5
370
    50
100
AcDbVertex
100
AcDb2dVertex
 10
43.121258
 20
41.889982
 30
0.0
  0
VERTEX
  5
144
330
141
100
AcDbEntity
  8
001
 62
     5
370
    50
100
AcDbVertex
100
AcDb2dVertex
 10
43.102102
 20
41.889176
 30
0.0
  0
VERTEX
  5
145
330
141
100
AcDbEntity
  8
001
 62
     5
370
    50
100
AcDbVertex
100
AcDb2dVertex
 10
43.074375
 20
41.885729
 30
0.0
  0
VERTEX
  5
146
330
141
100
AcDbEntity
  8
001
 62
     5
370
    50
100
AcDbVertex
100
AcDb2dVertex
 10
43.055144
 20
41.88141
 30
0.0
  0
VERTEX
  5
147
330
141
100
AcDbEntity
  8
001
 62
     5
370
    50
100
AcDbVertex
100
AcDb2dVertex
 10
43.042154
 20
41.877696
 30
0.0
  0
SEQEND
  5
142
330
141
100
AcDbEntity
  8
001
370
    50
  0
POLYLINE
  5
148
330
64
100
AcDbEntity
  8
001
 62
     5
370
    50
100
AcDb2dPolyline
 66
     1
 10
0.0
 20
0.0
 30
0.0
  0
VERTEX
  5
14A
330
148
100
AcDbEntity
  8
001
 62
     5
370
    50
100
AcDbVertex
100
AcDb2dVertex
 10
42.411246
 20
42.207262
 30
0.0
  0
VERTEX
  5
14B
330
148
100
AcDbEntity
  8
001
 62
     5
370
    50
100
AcDbVertex
100
AcDb2dVertex
 10
42.426139
 20
42.17025
 30
0.0
  0
VERTEX
  5
14C
330
148
100
AcDbEntity
  8
001
 62
     5
370
    50
100
AcDbVertex
100
AcDb2dVertex
 10
42.450374
 20
42.119231
 30
0.0
  0
VERTEX
  5
14D
330
148
100
AcDbEntity
  8
001
 62
     5
370
    50
100
AcDbVertex
100
AcDb2dVertex
 10
42.533147
 20
42.003416
 30
0.0
  0
VERTEX
  5
14E
330
148
100
AcDbEntity
  8
001
 62
     5
370
    50
100
AcDbVertex
100
AcDb2dVertex
 10
42.63726
 20
41.925408
 30
0.0
  0
VERTEX
  5
14F
330
148
100
AcDbEntity
  8
001
 62
     5
370
    50
100
AcDbVertex
100
AcDb2dVertex
 10
42.677201
 20
41.904404
 30
0.0
  0
VERTEX
  5
150
330
148
100
AcDbEntity
  8
001
 62
     5
370
    50
100
AcDbVertex
100
AcDb2dVertex
 10
42.717923
 20
41.886399
 30
0.0
  0
VERTEX
  5
151
330
148
100
AcDbEntity
  8
001
 62
     5
370
    50
100
AcDbVertex
100
AcDb2dVertex
 10
42.758476
 20
41.872439
 30
0.0
  0
VERTEX
  5
152
330
148
100
AcDbEntity
  8
001
 62
     5
370
    50
100
AcDbVertex
100
AcDb2dVertex
 10
42.803893
 20
41.862508
 30
0.0
  0
VERTEX
  5
153
330
148
100
AcDbEntity
  8
001
 62
     5
370
    50
100
AcDbVertex
100
AcDb2dVertex
 10
42.855117
 20
41.856496
 30
0.0
  0
VERTEX
  5
154
330
148
100
AcDbEntity
  8
001
 62
     5
370
    50
100
AcDbVertex
100
AcDb2dVertex
 10
42.892556
 20
41.854461
 30
0.0
  0
SEQEND
  5
149
330
148
100
AcDbEntity
  8
001
370
    50
  0
POLYLINE
  5
155
330
64
100
AcDbEntity
  8
001
 62
     5
370
    50
100
AcDb2dPolyline
 66
     1
 10
0.0
 20
0.0
 30
0.0
  0
VERTEX
  5
157
330
155
100
AcDbEntity
  8
001
 62
     5
370
    50
100
AcDbVertex
100
AcDb2dVertex
 10
42.350714
 20
38.945632
 30
0.0
  0
VERTEX
  5
158
330
155
100
AcDbEntity
  8
001
 62
     5
370
    50
100
AcDbVertex
100
AcDb2dVertex
 10
42.495634
 20
38.953433
 30
0.0
  0
VERTEX
  5
159
330
155
100
AcDbEntity
  8
001
 62
     5
370
    50
100
AcDbVertex
100
AcDb2dVertex
 10
42.693968
 20
38.97677
 30
0.0
  0
VERTEX
  5
15A
330
155
100
AcDbEntity
  8
001
 62
     5
370
    50
100
AcDbVertex
100
AcDb2dVertex
 10
42.869914
 20
39.01556
 30
0.0
  0
VERTEX
  5
15B
330
155
100
AcDbEntity
  8
001
 62
     5
370
    50
100
AcDbVertex
100
AcDb2dVertex
 10
43.026794
 20
39.06925
 30
0.0
  0
VERTEX
  5
15C
330
155
100
AcDbEntity
  8
001
 62
     5
370
    50
100
AcDbVertex
100
AcDb2dVertex
 10
43.183996
 20
39.137627
 30
0.0
  0
VERTEX
  5
15D
330
155
100
AcDbEntity
  8
001
 62
     5
370
    50
100
AcDbVertex
100
AcDb2dVertex
 10
43.339078
 20
39.220262
 30
0.0
  0
VERTEX
  5
15E
330
155
100
AcDbEntity
  8
001
 62
     5
370
    50
100
AcDbVertex
100
AcDb2dVertex
 10
43.750965
 20
39.548055
 30
0.0
  0
VERTEX
  5
15F
330
155
100
AcDbEntity
  8
001
 62
     5
370
    50
100
AcDbVertex
100
AcDb2dVertex
 10
44.062621
 20
39.970601
 30
0.0
  0
VERTEX
  5
160
330
155
100
AcDbEntity
  8
001
 62
     5
370
    50
100
AcDbVertex
100
AcDb2dVertex
 10
44.208553
 20
40.29563
 30
0.0
  0
VERTEX
  5
161
330
155
100
AcDbEntity
  8
001
 62
     5
370
    50
100
AcDbVertex
100
AcDb2dVertex
 10
44.297432
 20
40.639618
 30
0.0
  0
VERTEX
  5
162
330
155
100
AcDbEntity
  8
001
 62
     5
370
    50
100
AcDbVertex
100
AcDb2dVertex
 10
44.319961
 20
40.817028
 30
0.0
  0
VERTEX
  5
163
330
155
100
AcDbEntity
  8
001
 62
     5
370
    50
100
AcDbVertex
100
AcDb2dVertex
 10
44.327469
 20
40.995596
 30
0.0
  0
VERTEX
  5
164
330
155
100
AcDbEntity
  8
001
 62
     5
370
    50
100
AcDbVertex
100
AcDb2dVertex
 10
44.319967
 20
41.174165
 30
0.0
  0
VERTEX
  5
165
330
155
100
AcDbEntity
  8
001
 62
     5
370
    50
100
AcDbVertex
100
AcDb2dVertex
 10
44.297444
 20
41.351576
 30
0.0
  0
VERTEX
  5
166
330
155
100
AcDbEntity
  8
001
 62
     5
370
    50
100
AcDbVertex
100
AcDb2dVertex
 10
44.208578
 20
41.695567
 30
0.0
  0
VERTEX
  5
167
330
155
100
AcDbEntity
  8
001
 62
     5
370
    50
100
AcDbVertex
100
AcDb2dVertex
 10
44.062657
 20
42.020601
 30
0.0
  0
VERTEX
  5
168
330
155
100
AcDbEntity
  8
001
 62
     5
370
    50
100
AcDbVertex
100
AcDb2dVertex
 10
43.751017
 20
42.443158
 30
0.0
  0
VERTEX
  5
169
330
155
100
AcDbEntity
  8
001
 62
     5
370
    50
100
AcDbVertex
100
AcDb2dVertex
 10
43.339141
 20
42.770966
 30
0.0
  0
VERTEX
  5
16A
330
155
100
AcDbEntity
  8
001
 62
     5
370
    50
100
AcDbVertex
100
AcDb2dVertex
 10
43.184062
 20
42.853606
 30
0.0
  0
VERTEX
  5
16B
330
155
100
AcDbEntity
  8
001
 62
     5
370
    50
100
AcDbVertex
100
AcDb2dVertex
 10
43.026862
 20
42.921989
 30
0.0
  0
VERTEX
  5
16C
330
155
100
AcDbEntity
  8
001
 62
     5
370
    50
100
AcDbVertex
100
AcDb2dVertex
 10
42.869984
 20
42.975685
 30
0.0
  0
VERTEX
  5
16D
330
155
100
AcDbEntity
  8
001
 62
     5
370
    50
100
AcDbVertex
100
AcDb2dVertex
 10
42.69404
 20
43.014481
 30
0.0
  0
VERTEX
  5
16E
330
155
100
AcDbEntity
  8
001
 62
     5
370
    50
100
AcDbVertex
100
AcDb2dVertex
 10
42.495707
 20
43.037825
 30
0.0
  0
VERTEX
  5
16F
330
155
100
AcDbEntity
  8
001
 62
     5
370
    50
100
AcDbVertex
100
AcDb2dVertex
 10
42.350787
 20
43.045632
 30
0.0
  0
SEQEND
  5
156
330
155
100
AcDbEntity
  8
001
370
    50
  0
POLYLINE
  5
170
330
64
100
AcDbEntity
  8
001
 62
     5
370
    50
100
AcDb2dPolyline
 66
     1
 10
0.0
 20
0.0
 30
0.0
  0
VERTEX
  5
172
330
170
100
AcDbEntity
  8
001
 62
     5
370
    50
100
AcDbVertex
100
AcDb2dVertex
 10
41.73931
 20
39.021255
 30
0.0
  0
VERTEX
  5
173
330
170
100
AcDbEntity
  8
001
 62
     5
370
    50
100
AcDbVertex
100
AcDb2dVertex
 10
41.815509
 20
39.001088
 30
0.0
  0
VERTEX
  5
174
330
170
100
AcDbEntity
  8
001
 62
     5
370
    50
100
AcDbVertex
100
AcDb2dVertex
 10
41.927966
 20
38.976783
 30
0.0
  0
VERTEX
  5
175
330
170
100
AcDbEntity
  8
001
 62
     5
370
    50
100
AcDbVertex
100
AcDb2dVertex
 10
42.130978
 20
38.951535
 30
0.0
  0
VERTEX
  5
176
330
170
100
AcDbEntity
  8
001
 62
     5
370
    50
100
AcDbVertex
100
AcDb2dVertex
 10
42.271219
 20
38.945633
 30
0.0
  0
SEQEND
  5
171
330
170
100
AcDbEntity
  8
001
370
    50
  0
POLYLINE
  5
177
330
64
100
AcDbEntity
  8
001
 62
     5
370
    50
100
AcDb2dPolyline
 66
     1
 10
0.0
 20
0.0
 30
0.0
  0
VERTEX
  5
179
330
177
100
AcDbEntity
  8
001
 62
     5
370
    50
100
AcDbVertex
100
AcDb2dVertex
 10
42.848156
 20
42.956387
 30
0.0
  0
VERTEX
  5
17A
330
177
100
AcDbEntity
  8
001
 62
     5
370
    50
100
AcDbVertex
100
AcDb2dVertex
 10
42.753965
 20
42.983219
 30
0.0
  0
VERTEX
  5
17B
330
177
100
AcDbEntity
  8
001
 62
     5
370
    50
100
AcDbVertex
100
AcDb2dVertex
 10
42.614545
 20
43.014483
 30
0.0
  0
VERTEX
  5
17C
330
177
100
AcDbEntity
  8
001
 62
     5
370
    50
100
AcDbVertex
100
AcDb2dVertex
 10
42.411544
 20
43.039729
 30
0.0
  0
VERTEX
  5
17D
330
177
100
AcDbEntity
  8
001
 62
     5
370
    50
100
AcDbVertex
100
AcDb2dVertex
 10
42.271292
 20
43.045633
 30
0.0
  0
SEQEND
  5
178
330
177
100
AcDbEntity
  8
001
370
    50
  0
LINE
  5
17E
330
64
100
AcDbEntity
  8
001
 62
     5
370
    50
100
AcDbLine
 10
42.271219
 20
38.945633
 30
0.0
 11
42.350714
 21
38.945632
 31
0.0
  0
LINE
  5
17F
330
64
100
AcDbEntity
  8
001
 62
     5
370
    50
100
AcDbLine
 10
42.350787
 20
43.045632
 30
0.0
 11
42.271292
 21
43.045633
 31
0.0
  0
POLYLINE
  5
180
330
64
100
AcDbEntity
  8
001
 62
     5
370
    50
100
AcDb2dPolyline
 66
     1
 10
0.0
 20
0.0
 30
0.0
  0
VERTEX
  5
182
330
180
100
AcDbEntity
  8
001
 62
     5
370
    50
100
AcDbVertex
100
AcDb2dVertex
 10
43.133556
 20
40.216493
 30
0.0
  0
VERTEX
  5
183
330
180
100
AcDbEntity
  8
001
 62
     5
370
    50
100
AcDbVertex
100
AcDb2dVertex
 10
43.134503
 20
40.216313
 30
0.0
  0
VERTEX
  5
184
330
180
100
AcDbEntity
  8
001
 62
     5
370
    50
100
AcDbVertex
100
AcDb2dVertex
 10
43.135889
 20
40.216056
 30
0.0
  0
VERTEX
  5
185
330
180
100
AcDbEntity
  8
001
 62
     5
370
    50
100
AcDbVertex
100
AcDb2dVertex
 10
43.163623
 20
40.212605
 30
0.0
  0
VERTEX
  5
186
330
180
100
AcDbEntity
  8
001
 62
     5
370
    50
100
AcDbVertex
100
AcDb2dVertex
 10
43.182772
 20
40.211801
 30
0.0
  0
SEQEND
  5
181
330
180
100
AcDbEntity
  8
001
370
    50
  0
POLYLINE
  5
187
330
64
100
AcDbEntity
  8
001
 62
     5
370
    50
100
AcDb2dPolyline
 66
     1
 10
0.0
 20
0.0
 30
0.0
  0
VERTEX
  5
189
330
187
100
AcDbEntity
  8
001
 62
     5
370
    50
100
AcDbVertex
100
AcDb2dVertex
 10
43.326543
 20
41.428121
 30
0.0
  0
VERTEX
  5
18A
330
187
100
AcDbEntity
  8
001
 62
     5
370
    50
100
AcDbVertex
100
AcDb2dVertex
 10
43.33905
 20
41.445114
 30
0.0
  0
VERTEX
  5
18B
330
187
100
AcDbEntity
  8
001
 62
     5
370
    50
100
AcDbVertex
100
AcDb2dVertex
 10
43.35507
 20
41.469978
 30
0.0
  0
VERTEX
  5
18C
330
187
100
AcDbEntity
  8
001
 62
     5
370
    50
100
AcDbVertex
100
AcDb2dVertex
 10
43.376511
 20
41.516189
 30
0.0
  0
VERTEX
  5
18D
330
187
100
AcDbEntity
  8
001
 62
     5
370
    50
100
AcDbVertex
100
AcDb2dVertex
 10
43.387142
 20
41.561356
 30
0.0
  0
VERTEX
  5
18E
330
187
100
AcDbEntity
  8
001
 62
     5
370
    50
100
AcDbVertex
100
AcDb2dVertex
 10
43.390068
 20
41.585406
 30
0.0
  0
VERTEX
  5
18F
330
187
100
AcDbEntity
  8
001
 62
     5
370
    50
100
AcDbVertex
100
AcDb2dVertex
 10
43.391244
 20
41.609977
 30
0.0
  0
VERTEX
  5
190
330
187
100
AcDbEntity
  8
001
 62
     5
370
    50
100
AcDbVertex
100
AcDb2dVertex
 10
43.390263
 20
41.63442
 30
0.0
  0
VERTEX
  5
191
330
187
100
AcDbEntity
  8
001
 62
     5
370
    50
100
AcDbVertex
100
AcDb2dVertex
 10
43.387143
 20
41.658599
 30
0.0
  0
VERTEX
  5
192
330
187
100
AcDbEntity
  8
001
 62
     5
370
    50
100
AcDbVertex
100
AcDb2dVertex
 10
43.374976
 20
41.705548
 30
0.0
  0
VERTEX
  5
193
330
187
100
AcDbEntity
  8
001
 62
     5
370
    50
100
AcDbVertex
100
AcDb2dVertex
 10
43.355075
 20
41.749978
 30
0.0
  0
VERTEX
  5
194
330
187
100
AcDbEntity
  8
001
 62
     5
370
    50
100
AcDbVertex
100
AcDb2dVertex
 10
43.312521
 20
41.807707
 30
0.0
  0
VERTEX
  5
195
330
187
100
AcDbEntity
  8
001
 62
     5
370
    50
100
AcDbVertex
100
AcDb2dVertex
 10
43.256253
 20
41.852467
 30
0.0
  0
VERTEX
  5
196
330
187
100
AcDbEntity
  8
001
 62
     5
370
    50
100
AcDbVertex
100
AcDb2dVertex
 10
43.235071
 20
41.863754
 30
0.0
  0
VERTEX
  5
197
330
187
100
AcDbEntity
  8
001
 62
     5
370
    50
100
AcDbVertex
100
AcDb2dVertex
 10
43.2136
 20
41.873094
 30
0.0
  0
VERTEX
  5
198
330
187
100
AcDbEntity
  8
001
 62
     5
370
    50
100
AcDbVertex
100
AcDb2dVertex
 10
43.192173
 20
41.880429
 30
0.0
  0
VERTEX
  5
199
330
187
100
AcDbEntity
  8
001
 62
     5
370
    50
100
AcDbVertex
100
AcDb2dVertex
 10
43.168142
 20
41.885727
 30
0.0
  0
VERTEX
  5
19A
330
187
100
AcDbEntity
  8
001
 62
     5
370
    50
100
AcDbVertex
100
AcDb2dVertex
 10
43.141052
 20
41.888916
 30
0.0
  0
VERTEX
  5
19B
330
187
100
AcDbEntity
  8
001
 62
     5
370
    50
100
AcDbVertex
100
AcDb2dVertex
 10
43.121258
 20
41.889982
 30
0.0
  0
SEQEND
  5
188
330
187
100
AcDbEntity
  8
001
370
    50
  0
POLYLINE
  5
19C
330
64
100
AcDbEntity
  8
001
 62
     5
370
    50
100
AcDb2dPolyline
 66
     1
 10
0.0
 20
0.0
 30
0.0
  0
VERTEX
  5
19E
330
19C
100
AcDbEntity
  8
001
 62
     5
370
    50
100
AcDbVertex
100
AcDb2dVertex
 10
43.04048
 20
40.225367
 30
0.0
  0
VERTEX
  5
19F
330
19C
100
AcDbEntity
  8
001
 62
     5
370
    50
100
AcDbVertex
100
AcDb2dVertex
 10
43.003043
 20
40.223336
 30
0.0
  0
VERTEX
  5
1A0
330
19C
100
AcDbEntity
  8
001
 62
     5
370
    50
100
AcDbVertex
100
AcDb2dVertex
 10
42.951816
 20
40.217324
 30
0.0
  0
VERTEX
  5
1A1
330
19C
100
AcDbEntity
  8
001
 62
     5
370
    50
100
AcDbVertex
100
AcDb2dVertex
 10
42.906387
 20
40.207386
 30
0.0
  0
VERTEX
  5
1A2
330
19C
100
AcDbEntity
  8
001
 62
     5
370
    50
100
AcDbVertex
100
AcDb2dVertex
 10
42.865846
 20
40.193436
 30
0.0
  0
VERTEX
  5
1A3
330
19C
100
AcDbEntity
  8
001
 62
     5
370
    50
100
AcDbVertex
100
AcDb2dVertex
 10
42.825171
 20
40.175464
 30
0.0
  0
VERTEX
  5
1A4
330
19C
100
AcDbEntity
  8
001
 62
     5
370
    50
100
AcDbVertex
100
AcDb2dVertex
 10
42.785182
 20
40.154429
 30
0.0
  0
VERTEX
  5
1A5
330
19C
100
AcDbEntity
  8
001
 62
     5
370
    50
100
AcDbVertex
100
AcDb2dVertex
 10
42.680133
 20
40.075805
 30
0.0
  0
VERTEX
  5
1A6
330
19C
100
AcDbEntity
  8
001
 62
     5
370
    50
100
AcDbVertex
100
AcDb2dVertex
 10
42.598288
 20
39.960614
 30
0.0
  0
VERTEX
  5
1A7
330
19C
100
AcDbEntity
  8
001
 62
     5
370
    50
100
AcDbVertex
100
AcDb2dVertex
 10
42.562456
 20
39.876882
 30
0.0
  0
VERTEX
  5
1A8
330
19C
100
AcDbEntity
  8
001
 62
     5
370
    50
100
AcDbVertex
100
AcDb2dVertex
 10
42.542891
 20
39.814638
 30
0.0
  0
SEQEND
  5
19D
330
19C
100
AcDbEntity
  8
001
370
    50
  0
LINE
  5
1A9
330
64
100
AcDbEntity
  8
001
 62
     5
370
    50
100
AcDbLine
 10
43.265786
 20
40.225363
 30
0.0
 11
43.04048
 21
40.225367
 31
0.0
  0
POLYLINE
  5
1AA
330
64
100
AcDbEntity
  8
001
 62
     5
370
    50
100
AcDb2dPolyline
 66
     1
 10
0.0
 20
0.0
 30
0.0
  0
VERTEX
  5
1AC
330
1AA
100
AcDbEntity
  8
001
 62
     5
370
    50
100
AcDbVertex
100
AcDb2dVertex
 10
42.892556
 20
41.854461
 30
0.0
  0
VERTEX
  5
1AD
330
1AA
100
AcDbEntity
  8
001
 62
     5
370
    50
100
AcDbVertex
100
AcDb2dVertex
 10
42.928784
 20
41.855985
 30
0.0
  0
VERTEX
  5
1AE
330
1AA
100
AcDbEntity
  8
001
 62
     5
370
    50
100
AcDbVertex
100
AcDb2dVertex
 10
42.98122
 20
41.862504
 30
0.0
  0
VERTEX
  5
1AF
330
1AA
100
AcDbEntity
  8
001
 62
     5
370
    50
100
AcDbVertex
100
AcDb2dVertex
 10
43.017588
 20
41.870673
 30
0.0
  0
VERTEX
  5
1B0
330
1AA
100
AcDbEntity
  8
001
 62
     5
370
    50
100
AcDbVertex
100
AcDb2dVertex
 10
43.042154
 20
41.877696
 30
0.0
  0
SEQEND
  5
1AB
330
1AA
100
AcDbEntity
  8
001
370
    50
  0
LINE
  5
1B1
330
64
100
AcDbEntity
  8
001
 62
     5
370
    50
100
AcDbLine
 10
42.892556
 20
41.854461
 30
0.0
 11
43.208634
 21
41.854456
 31
0.0
  0
POLYLINE
  5
1B2
330
64
100
AcDbEntity
  8
001
 62
     5
370
    50
100
AcDb2dPolyline
 66
     1
 10
0.0
 20
0.0
 30
0.0
  0
VERTEX
  5
1B4
330
1B2
100
AcDbEntity
  8
001
 62
     5
370
    50
100
AcDbVertex
100
AcDb2dVertex
 10
43.208634
 20
41.854456
 30
0.0
  0
VERTEX
  5
1B5
330
1B2
100
AcDbEntity
  8
001
 62
     5
370
    50
100
AcDbVertex
100
AcDb2dVertex
 10
43.217015
 20
41.854537
 30
0.0
  0
VERTEX
  5
1B6
330
1B2
100
AcDbEntity
  8
001
 62
     5
370
    50
100
AcDbVertex
100
AcDb2dVertex
 10
43.229258
 20
41.854887
 30
0.0
  0
VERTEX
  5
1B7
330
1B2
100
AcDbEntity
  8
001
 62
     5
370
    50
100
AcDbVertex
100
AcDb2dVertex
 10
43.241488
 20
41.855562
 30
0.0
  0
VERTEX
  5
1B8
330
1B2
100
AcDbEntity
  8
001
 62
     5
370
    50
100
AcDbVertex
100
AcDb2dVertex
 10
43.249848
 20
41.856183
 30
0.0
  0
SEQEND
  5
1B3
330
1B2
100
AcDbEntity
  8
001
370
    50
  0
POLYLINE
  5
1B9
330
64
100
AcDbEntity
  8
001
 62
     5
370
    50
100
AcDb2dPolyline
 66
     1
 10
0.0
 20
0.0
 30
0.0
  0
VERTEX
  5
1BB
330
1B9
100
AcDbEntity
  8
001
 62
     5
370
    50
100
AcDbVertex
100
AcDb2dVertex
 10
42.025271
 20
39.784006
 30
0.0
  0
VERTEX
  5
1BC
330
1B9
100
AcDbEntity
  8
001
 62
     5
370
    50
100
AcDbVertex
100
AcDb2dVertex
 10
42.033146
 20
39.764435
 30
0.0
  0
VERTEX
  5
1BD
330
1B9
100
AcDbEntity
  8
001
 62
     5
370
    50
100
AcDbVertex
100
AcDb2dVertex
 10
42.045961
 20
39.737457
 30
0.0
  0
VERTEX
  5
1BE
330
1B9
100
AcDbEntity
  8
001
 62
     5
370
    50
100
AcDbVertex
100
AcDb2dVertex
 10
42.08973
 20
39.676217
 30
0.0
  0
VERTEX
  5
1BF
330
1B9
100
AcDbEntity
  8
001
 62
     5
370
    50
100
AcDbVertex
100
AcDb2dVertex
 10
42.144783
 20
39.634968
 30
0.0
  0
VERTEX
  5
1C0
330
1B9
100
AcDbEntity
  8
001
 62
     5
370
    50
100
AcDbVertex
100
AcDb2dVertex
 10
42.165903
 20
39.623862
 30
0.0
  0
VERTEX
  5
1C1
330
1B9
100
AcDbEntity
  8
001
 62
     5
370
    50
100
AcDbVertex
100
AcDb2dVertex
 10
42.187435
 20
39.614341
 30
0.0
  0
VERTEX
  5
1C2
330
1B9
100
AcDbEntity
  8
001
 62
     5
370
    50
100
AcDbVertex
100
AcDb2dVertex
 10
42.208879
 20
39.606959
 30
0.0
  0
VERTEX
  5
1C3
330
1B9
100
AcDbEntity
  8
001
 62
     5
370
    50
100
AcDbVertex
100
AcDb2dVertex
 10
42.232894
 20
39.601708
 30
0.0
  0
VERTEX
  5
1C4
330
1B9
100
AcDbEntity
  8
001
 62
     5
370
    50
100
AcDbVertex
100
AcDb2dVertex
 10
42.25998
 20
39.598529
 30
0.0
  0
VERTEX
  5
1C5
330
1B9
100
AcDbEntity
  8
001
 62
     5
370
    50
100
AcDbVertex
100
AcDb2dVertex
 10
42.279777
 20
39.597453
 30
0.0
  0
SEQEND
  5
1BA
330
1B9
100
AcDbEntity
  8
001
370
    50
  0
POLYLINE
  5
1C6
330
64
100
AcDbEntity
  8
001
 62
     5
370
    50
100
AcDb2dPolyline
 66
     1
 10
0.0
 20
0.0
 30
0.0
  0
VERTEX
  5
1C8
330
1C6
100
AcDbEntity
  8
001
 62
     5
370
    50
100
AcDbVertex
100
AcDb2dVertex
 10
42.34135
 20
39.784
 30
0.0
  0
VERTEX
  5
1C9
330
1C6
100
AcDbEntity
  8
001
 62
     5
370
    50
100
AcDbVertex
100
AcDb2dVertex
 10
42.348858
 20
39.764637
 30
0.0
  0
VERTEX
  5
1CA
330
1C6
100
AcDbEntity
  8
001
 62
     5
370
    50
100
AcDbVertex
100
AcDb2dVertex
 10
42.362039
 20
39.737451
 30
0.0
  0
VERTEX
  5
1CB
330
1C6
100
AcDbEntity
  8
001
 62
     5
370
    50
100
AcDbVertex
100
AcDb2dVertex
 10
42.402911
 20
39.682581
 30
0.0
  0
VERTEX
  5
1CC
330
1C6
100
AcDbEntity
  8
001
 62
     5
370
    50
100
AcDbVertex
100
AcDb2dVertex
 10
42.437818
 20
39.650432
 30
0.0
  0
SEQEND
  5
1C7
330
1C6
100
AcDbEntity
  8
001
370
    50
  0
POLYLINE
  5
1CD
330
64
100
AcDbEntity
  8
001
 62
     5
370
    50
100
AcDb2dPolyline
 66
     1
 10
0.0
 20
0.0
 30
0.0
  0
VERTEX
  5
1CF
330
1CD
100
AcDbEntity
  8
001
 62
     5
370
    50
100
AcDbVertex
100
AcDb2dVertex
 10
42.411246
 20
42.207262
 30
0.0
  0
VERTEX
  5
1D0
330
1CD
100
AcDbEntity
  8
001
 62
     5
370
    50
100
AcDbVertex
100
AcDb2dVertex
 10
42.403371
 20
42.226833
 30
0.0
  0
VERTEX
  5
1D1
330
1CD
100
AcDbEntity
  8
001
 62
     5
370
    50
100
AcDbVertex
100
AcDb2dVertex
 10
42.390556
 20
42.253811
 30
0.0
  0
VERTEX
  5
1D2
330
1CD
100
AcDbEntity
  8
001
 62
     5
370
    50
100
AcDbVertex
100
AcDb2dVertex
 10
42.346787
 20
42.315051
 30
0.0
  0
VERTEX
  5
1D3
330
1CD
100
AcDbEntity
  8
001
 62
     5
370
    50
100
AcDbVertex
100
AcDb2dVertex
 10
42.291735
 20
42.3563
 30
0.0
  0
VERTEX
  5
1D4
330
1CD
100
AcDbEntity
  8
001
 62
     5
370
    50
100
AcDbVertex
100
AcDb2dVertex
 10
42.270615
 20
42.367406
 30
0.0
  0
VERTEX
  5
1D5
330
1CD
100
AcDbEntity
  8
001
 62
     5
370
    50
100
AcDbVertex
100
AcDb2dVertex
 10
42.249082
 20
42.376927
 30
0.0
  0
VERTEX
  5
1D6
330
1CD
100
AcDbEntity
  8
001
 62
     5
370
    50
100
AcDbVertex
100
AcDb2dVertex
 10
42.227638
 20
42.384309
 30
0.0
  0
VERTEX
  5
1D7
330
1CD
100
AcDbEntity
  8
001
 62
     5
370
    50
100
AcDbVertex
100
AcDb2dVertex
 10
42.203623
 20
42.38956
 30
0.0
  0
VERTEX
  5
1D8
330
1CD
100
AcDbEntity
  8
001
 62
     5
370
    50
100
AcDbVertex
100
AcDb2dVertex
 10
42.176537
 20
42.392739
 30
0.0
  0
VERTEX
  5
1D9
330
1CD
100
AcDbEntity
  8
001
 62
     5
370
    50
100
AcDbVertex
100
AcDb2dVertex
 10
42.15674
 20
42.393815
 30
0.0
  0
SEQEND
  5
1CE
330
1CD
100
AcDbEntity
  8
001
370
    50
  0
POLYLINE
  5
1DA
330
64
100
AcDbEntity
  8
001
 62
     5
370
    50
100
AcDb2dPolyline
 66
     1
 10
0.0
 20
0.0
 30
0.0
  0
VERTEX
  5
1DC
330
1DA
100
AcDbEntity
  8
001
 62
     5
370
    50
100
AcDbVertex
100
AcDb2dVertex
 10
42.314778
 20
42.340831
 30
0.0
  0
VERTEX
  5
1DD
330
1DA
100
AcDbEntity
  8
001
 62
     5
370
    50
100
AcDbVertex
100
AcDb2dVertex
 10
42.279856
 20
42.308643
 30
0.0
  0
VERTEX
  5
1DE
330
1DA
100
AcDbEntity
  8
001
 62
     5
370
    50
100
AcDbVertex
100
AcDb2dVertex
 10
42.238997
 20
42.253814
 30
0.0
  0
VERTEX
  5
1DF
330
1DA
100
AcDbEntity
  8
001
 62
     5
370
    50
100
AcDbVertex
100
AcDb2dVertex
 10
42.219214
 20
42.209064
 30
0.0
  0
VERTEX
  5
1E0
330
1DA
100
AcDbEntity
  8
001
 62
     5
370
    50
100
AcDbVertex
100
AcDb2dVertex
 10
42.209704
 20
42.176625
 30
0.0
  0
SEQEND
  5
1DB
330
1DA
100
AcDbEntity
  8
001
370
    50
  0
POLYLINE
  5
1E1
330
64
100
AcDbEntity
  8
001
 62
     5
370
    50
100
AcDb2dPolyline
 66
     1
 10
0.0
 20
0.0
 30
0.0
  0
VERTEX
  5
1E3
330
1E1
100
AcDbEntity
  8
001
 62
     5
370
    50
100
AcDbVertex
100
AcDb2dVertex
 10
41.543961
 20
40.136807
 30
0.0
  0
VERTEX
  5
1E4
330
1E1
100
AcDbEntity
  8
001
 62
     5
370
    50
100
AcDbVertex
100
AcDb2dVertex
 10
41.507733
 20
40.135283
 30
0.0
  0
VERTEX
  5
1E5
330
1E1
100
AcDbEntity
  8
001
 62
     5
370
    50
100
AcDbVertex
100
AcDb2dVertex
 10
41.455297
 20
40.128764
 30
0.0
  0
VERTEX
  5
1E6
330
1E1
100
AcDbEntity
  8
001
 62
     5
370
    50
100
AcDbVertex
100
AcDb2dVertex
 10
41.418929
 20
40.120595
 30
0.0
  0
VERTEX
  5
1E7
330
1E1
100
AcDbEntity
  8
001
 62
     5
370
    50
100
AcDbVertex
100
AcDb2dVertex
 10
41.394363
 20
40.113572
 30
0.0
  0
SEQEND
  5
1E2
330
1E1
100
AcDbEntity
  8
001
370
    50
  0
POLYLINE
  5
1E8
330
64
100
AcDbEntity
  8
001
 62
     5
370
    50
100
AcDb2dPolyline
 66
     1
 10
0.0
 20
0.0
 30
0.0
  0
VERTEX
  5
1EA
330
1E8
100
AcDbEntity
  8
001
 62
     5
370
    50
100
AcDbVertex
100
AcDb2dVertex
 10
42.34135
 20
39.784
 30
0.0
  0
VERTEX
  5
1EB
330
1E8
100
AcDbEntity
  8
001
 62
     5
370
    50
100
AcDbVertex
100
AcDb2dVertex
 10
42.326457
 20
39.821012
 30
0.0
  0
VERTEX
  5
1EC
330
1E8
100
AcDbEntity
  8
001
 62
     5
370
    50
100
AcDbVertex
100
AcDb2dVertex
 10
42.302222
 20
39.872032
 30
0.0
  0
VERTEX
  5
1ED
330
1E8
100
AcDbEntity
  8
001
 62
     5
370
    50
100
AcDbVertex
100
AcDb2dVertex
 10
42.219448
 20
39.987847
 30
0.0
  0
VERTEX
  5
1EE
330
1E8
100
AcDbEntity
  8
001
 62
     5
370
    50
100
AcDbVertex
100
AcDb2dVertex
 10
42.115335
 20
40.065854
 30
0.0
  0
VERTEX
  5
1EF
330
1E8
100
AcDbEntity
  8
001
 62
     5
370
    50
100
AcDbVertex
100
AcDb2dVertex
 10
42.075394
 20
40.086858
 30
0.0
  0
VERTEX
  5
1F0
330
1E8
100
AcDbEntity
  8
001
 62
     5
370
    50
100
AcDbVertex
100
AcDb2dVertex
 10
42.034672
 20
40.104864
 30
0.0
  0
VERTEX
  5
1F1
330
1E8
100
AcDbEntity
  8
001
 62
     5
370
    50
100
AcDbVertex
100
AcDb2dVertex
 10
41.99412
 20
40.118823
 30
0.0
  0
VERTEX
  5
1F2
330
1E8
100
AcDbEntity
  8
001
 62
     5
370
    50
100
AcDbVertex
100
AcDb2dVertex
 10
41.948703
 20
40.128755
 30
0.0
  0
VERTEX
  5
1F3
330
1E8
100
AcDbEntity
  8
001
 62
     5
370
    50
100
AcDbVertex
100
AcDb2dVertex
 10
41.897479
 20
40.134767
 30
0.0
  0
VERTEX
  5
1F4
330
1E8
100
AcDbEntity
  8
001
 62
     5
370
    50
100
AcDbVertex
100
AcDb2dVertex
 10
41.860039
 20
40.136801
 30
0.0
  0
SEQEND
  5
1E9
330
1E8
100
AcDbEntity
  8
001
370
    50
  0
LINE
  5
1F5
330
64
100
AcDbEntity
  8
001
 62
     5
370
    50
100
AcDbLine
 10
41.860039
 20
40.136801
 30
0.0
 11
41.543961
 21
40.136807
 31
0.0
  0
POLYLINE
  5
1F6
330
64
100
AcDbEntity
  8
001
 62
     5
370
    50
100
AcDb2dPolyline
 66
     1
 10
0.0
 20
0.0
 30
0.0
  0
VERTEX
  5
1F8
330
1F6
100
AcDbEntity
  8
001
 62
     5
370
    50
100
AcDbVertex
100
AcDb2dVertex
 10
41.396037
 20
41.765901
 30
0.0
  0
VERTEX
  5
1F9
330
1F6
100
AcDbEntity
  8
001
 62
     5
370
    50
100
AcDbVertex
100
AcDb2dVertex
 10
41.433474
 20
41.767932
 30
0.0
  0
VERTEX
  5
1FA
330
1F6
100
AcDbEntity
  8
001
 62
     5
370
    50
100
AcDbVertex
100
AcDb2dVertex
 10
41.484701
 20
41.773944
 30
0.0
  0
VERTEX
  5
1FB
330
1F6
100
AcDbEntity
  8
001
 62
     5
370
    50
100
AcDbVertex
100
AcDb2dVertex
 10
41.530131
 20
41.783882
 30
0.0
  0
VERTEX
  5
1FC
330
1F6
100
AcDbEntity
  8
001
 62
     5
370
    50
100
AcDbVertex
100
AcDb2dVertex
 10
41.570671
 20
41.797832
 30
0.0
  0
VERTEX
  5
1FD
330
1F6
100
AcDbEntity
  8
001
 62
     5
370
    50
100
AcDbVertex
100
AcDb2dVertex
 10
41.611346
 20
41.815804
 30
0.0
  0
VERTEX
  5
1FE
330
1F6
100
AcDbEntity
  8
001
 62
     5
370
    50
100
AcDbVertex
100
AcDb2dVertex
 10
41.651336
 20
41.836839
 30
0.0
  0
VERTEX
  5
1FF
330
1F6
100
AcDbEntity
  8
001
 62
     5
370
    50
100
AcDbVertex
100
AcDb2dVertex
 10
41.756385
 20
41.915463
 30
0.0
  0
VERTEX
  5
200
330
1F6
100
AcDbEntity
  8
001
 62
     5
370
    50
100
AcDbVertex
100
AcDb2dVertex
 10
41.838229
 20
42.030654
 30
0.0
  0
VERTEX
  5
201
330
1F6
100
AcDbEntity
  8
001
 62
     5
370
    50
100
AcDbVertex
100
AcDb2dVertex
 10
41.874061
 20
42.114386
 30
0.0
  0
VERTEX
  5
202
330
1F6
100
AcDbEntity
  8
001
 62
     5
370
    50
100
AcDbVertex
100
AcDb2dVertex
 10
41.893626
 20
42.17663
 30
0.0
  0
SEQEND
  5
1F7
330
1F6
100
AcDbEntity
  8
001
370
    50
  0
LINE
  5
203
330
64
100
AcDbEntity
  8
001
 62
     5
370
    50
100
AcDbLine
 10
41.396037
 20
41.765901
 30
0.0
 11
41.712116
 21
41.765895
 31
0.0
  0
POLYLINE
  5
204
330
64
100
AcDbEntity
  8
001
 62
     5
370
    50
100
AcDb2dPolyline
 66
     1
 10
0.0
 20
0.0
 30
0.0
  0
VERTEX
  5
206
330
204
100
AcDbEntity
  8
001
 62
     5
370
    50
100
AcDbVertex
100
AcDb2dVertex
 10
41.712116
 20
41.765895
 30
0.0
  0
VERTEX
  5
207
330
204
100
AcDbEntity
  8
001
 62
     5
370
    50
100
AcDbVertex
100
AcDb2dVertex
 10
41.749553
 20
41.767926
 30
0.0
  0
VERTEX
  5
208
330
204
100
AcDbEntity
  8
001
 62
     5
370
    50
100
AcDbVertex
100
AcDb2dVertex
 10
41.80078
 20
41.773938
 30
0.0
  0
VERTEX
  5
209
330
204
100
AcDbEntity
  8
001
 62
     5
370
    50
100
AcDbVertex
100
AcDb2dVertex
 10
41.846209
 20
41.783877
 30
0.0
  0
VERTEX
  5
20A
330
204
100
AcDbEntity
  8
001
 62
     5
370
    50
100
AcDbVertex
100
AcDb2dVertex
 10
41.88675
 20
41.797826
 30
0.0
  0
VERTEX
  5
20B
330
204
100
AcDbEntity
  8
001
 62
     5
370
    50
100
AcDbVertex
100
AcDb2dVertex
 10
41.927425
 20
41.815798
 30
0.0
  0
VERTEX
  5
20C
330
204
100
AcDbEntity
  8
001
 62
     5
370
    50
100
AcDbVertex
100
AcDb2dVertex
 10
41.967414
 20
41.836833
 30
0.0
  0
VERTEX
  5
20D
330
204
100
AcDbEntity
  8
001
 62
     5
370
    50
100
AcDbVertex
100
AcDb2dVertex
 10
42.072463
 20
41.915458
 30
0.0
  0
VERTEX
  5
20E
330
204
100
AcDbEntity
  8
001
 62
     5
370
    50
100
AcDbVertex
100
AcDb2dVertex
 10
42.154308
 20
42.030649
 30
0.0
  0
VERTEX
  5
20F
330
204
100
AcDbEntity
  8
001
 62
     5
370
    50
100
AcDbVertex
100
AcDb2dVertex
 10
42.19014
 20
42.11438
 30
0.0
  0
VERTEX
  5
210
330
204
100
AcDbEntity
  8
001
 62
     5
370
    50
100
AcDbVertex
100
AcDb2dVertex
 10
42.209704
 20
42.176625
 30
0.0
  0
SEQEND
  5
205
330
204
100
AcDbEntity
  8
001
370
    50
  0
POLYLINE
  5
211
330
64
100
AcDbEntity
  8
001
 62
     5
370
    50
100
AcDb2dPolyline
 66
     1
 10
0.0
 20
0.0
 30
0.0
  0
VERTEX
  5
213
330
211
100
AcDbEntity
  8
001
 62
     5
370
    50
100
AcDbVertex
100
AcDb2dVertex
 10
41.109974
 20
40.563147
 30
0.0
  0
VERTEX
  5
214
330
211
100
AcDbEntity
  8
001
 62
     5
370
    50
100
AcDbVertex
100
AcDb2dVertex
 10
41.097468
 20
40.546154
 30
0.0
  0
VERTEX
  5
215
330
211
100
AcDbEntity
  8
001
 62
     5
370
    50
100
AcDbVertex
100
AcDb2dVertex
 10
41.081448
 20
40.52129
 30
0.0
  0
VERTEX
  5
216
330
211
100
AcDbEntity
  8
001
 62
     5
370
    50
100
AcDbVertex
100
AcDb2dVertex
 10
41.060006
 20
40.475079
 30
0.0
  0
VERTEX
  5
217
330
211
100
AcDbEntity
  8
001
 62
     5
370
    50
100
AcDbVertex
100
AcDb2dVertex
 10
41.049376
 20
40.429912
 30
0.0
  0
VERTEX
  5
218
330
211
100
AcDbEntity
  8
001
 62
     5
370
    50
100
AcDbVertex
100
AcDb2dVertex
 10
41.046449
 20
40.405862
 30
0.0
  0
VERTEX
  5
219
330
211
100
AcDbEntity
  8
001
 62
     5
370
    50
100
AcDbVertex
100
AcDb2dVertex
 10
41.045273
 20
40.381291
 30
0.0
  0
VERTEX
  5
21A
330
211
100
AcDbEntity
  8
001
 62
     5
370
    50
100
AcDbVertex
100
AcDb2dVertex
 10
41.046254
 20
40.356848
 30
0.0
  0
VERTEX
  5
21B
330
211
100
AcDbEntity
  8
001
 62
     5
370
    50
100
AcDbVertex
100
AcDb2dVertex
 10
41.049374
 20
40.332669
 30
0.0
  0
VERTEX
  5
21C
330
211
100
AcDbEntity
  8
001
 62
     5
370
    50
100
AcDbVertex
100
AcDb2dVertex
 10
41.061541
 20
40.28572
 30
0.0
  0
VERTEX
  5
21D
330
211
100
AcDbEntity
  8
001
 62
     5
370
    50
100
AcDbVertex
100
AcDb2dVertex
 10
41.081443
 20
40.24129
 30
0.0
  0
VERTEX
  5
21E
330
211
100
AcDbEntity
  8
001
 62
     5
370
    50
100
AcDbVertex
100
AcDb2dVertex
 10
41.123997
 20
40.183561
 30
0.0
  0
VERTEX
  5
21F
330
211
100
AcDbEntity
  8
001
 62
     5
370
    50
100
AcDbVertex
100
AcDb2dVertex
 10
41.180264
 20
40.138801
 30
0.0
  0
VERTEX
  5
220
330
211
100
AcDbEntity
  8
001
 62
     5
370
    50
100
AcDbVertex
100
AcDb2dVertex
 10
41.201446
 20
40.127514
 30
0.0
  0
VERTEX
  5
221
330
211
100
AcDbEntity
  8
001
 62
     5
370
    50
100
AcDbVertex
100
AcDb2dVertex
 10
41.222917
 20
40.118174
 30
0.0
  0
VERTEX
  5
222
330
211
100
AcDbEntity
  8
001
 62
     5
370
    50
100
AcDbVertex
100
AcDb2dVertex
 10
41.244344
 20
40.110839
 30
0.0
  0
VERTEX
  5
223
330
211
100
AcDbEntity
  8
001
 62
     5
370
    50
100
AcDbVertex
100
AcDb2dVertex
 10
41.268376
 20
40.10554
 30
0.0
  0
VERTEX
  5
224
330
211
100
AcDbEntity
  8
001
 62
     5
370
    50
100
AcDbVertex
100
AcDb2dVertex
 10
41.295465
 20
40.102352
 30
0.0
  0
VERTEX
  5
225
330
211
100
AcDbEntity
  8
001
 62
     5
370
    50
100
AcDbVertex
100
AcDb2dVertex
 10
41.315259
 20
40.101286
 30
0.0
  0
SEQEND
  5
212
330
211
100
AcDbEntity
  8
001
370
    50
  0
POLYLINE
  5
226
330
64
100
AcDbEntity
  8
001
 62
     5
370
    50
100
AcDb2dPolyline
 66
     1
 10
0.0
 20
0.0
 30
0.0
  0
VERTEX
  5
228
330
226
100
AcDbEntity
  8
001
 62
     5
370
    50
100
AcDbVertex
100
AcDb2dVertex
 10
41.426052
 20
40.563141
 30
0.0
  0
VERTEX
  5
229
330
226
100
AcDbEntity
  8
001
 62
     5
370
    50
100
AcDbVertex
100
AcDb2dVertex
 10
41.413547
 20
40.546148
 30
0.0
  0
VERTEX
  5
22A
330
226
100
AcDbEntity
  8
001
 62
     5
370
    50
100
AcDbVertex
100
AcDb2dVertex
 10
41.397526
 20
40.521284
 30
0.0
  0
VERTEX
  5
22B
330
226
100
AcDbEntity
  8
001
 62
     5
370
    50
100
AcDbVertex
100
AcDb2dVertex
 10
41.376074
 20
40.475079
 30
0.0
  0
VERTEX
  5
22C
330
226
100
AcDbEntity
  8
001
 62
     5
370
    50
100
AcDbVertex
100
AcDb2dVertex
 10
41.365454
 20
40.429906
 30
0.0
  0
VERTEX
  5
22D
330
226
100
AcDbEntity
  8
001
 62
     5
370
    50
100
AcDbVertex
100
AcDb2dVertex
 10
41.362545
 20
40.405846
 30
0.0
  0
VERTEX
  5
22E
330
226
100
AcDbEntity
  8
001
 62
     5
370
    50
100
AcDbVertex
100
AcDb2dVertex
 10
41.361351
 20
40.381285
 30
0.0
  0
VERTEX
  5
22F
330
226
100
AcDbEntity
  8
001
 62
     5
370
    50
100
AcDbVertex
100
AcDb2dVertex
 10
41.362274
 20
40.356877
 30
0.0
  0
VERTEX
  5
230
330
226
100
AcDbEntity
  8
001
 62
     5
370
    50
100
AcDbVertex
100
AcDb2dVertex
 10
41.365452
 20
40.332663
 30
0.0
  0
VERTEX
  5
231
330
226
100
AcDbEntity
  8
001
 62
     5
370
    50
100
AcDbVertex
100
AcDb2dVertex
 10
41.378208
 20
40.285364
 30
0.0
  0
VERTEX
  5
232
330
226
100
AcDbEntity
  8
001
 62
     5
370
    50
100
AcDbVertex
100
AcDb2dVertex
 10
41.397521
 20
40.241284
 30
0.0
  0
VERTEX
  5
233
330
226
100
AcDbEntity
  8
001
 62
     5
370
    50
100
AcDbVertex
100
AcDb2dVertex
 10
41.435931
 20
40.186021
 30
0.0
  0
VERTEX
  5
234
330
226
100
AcDbEntity
  8
001
 62
     5
370
    50
100
AcDbVertex
100
AcDb2dVertex
 10
41.496342
 20
40.138795
 30
0.0
  0
VERTEX
  5
235
330
226
100
AcDbEntity
  8
001
 62
     5
370
    50
100
AcDbVertex
100
AcDb2dVertex
 10
41.500129
 20
40.13658
 30
0.0
  0
VERTEX
  5
236
330
226
100
AcDbEntity
  8
001
 62
     5
370
    50
100
AcDbVertex
100
AcDb2dVertex
 10
41.502748
 20
40.13508
 30
0.0
  0
SEQEND
  5
227
330
226
100
AcDbEntity
  8
001
370
    50
  0
POLYLINE
  5
237
330
64
100
AcDbEntity
  8
001
 62
     5
370
    50
100
AcDb2dPolyline
 66
     1
 10
0.0
 20
0.0
 30
0.0
  0
VERTEX
  5
239
330
237
100
AcDbEntity
  8
001
 62
     5
370
    50
100
AcDbVertex
100
AcDb2dVertex
 10
41.302962
 20
41.774775
 30
0.0
  0
VERTEX
  5
23A
330
237
100
AcDbEntity
  8
001
 62
     5
370
    50
100
AcDbVertex
100
AcDb2dVertex
 10
41.302014
 20
41.774955
 30
0.0
  0
VERTEX
  5
23B
330
237
100
AcDbEntity
  8
001
 62
     5
370
    50
100
AcDbVertex
100
AcDb2dVertex
 10
41.300629
 20
41.775212
 30
0.0
  0
VERTEX
  5
23C
330
237
100
AcDbEntity
  8
001
 62
     5
370
    50
100
AcDbVertex
100
AcDb2dVertex
 10
41.272894
 20
41.778663
 30
0.0
  0
VERTEX
  5
23D
330
237
100
AcDbEntity
  8
001
 62
     5
370
    50
100
AcDbVertex
100
AcDb2dVertex
 10
41.253745
 20
41.779467
 30
0.0
  0
SEQEND
  5
238
330
237
100
AcDbEntity
  8
001
370
    50
  0
POLYLINE
  5
23E
330
64
100
AcDbEntity
  8
001
 62
     5
370
    50
100
AcDb2dPolyline
 66
     1
 10
0.0
 20
0.0
 30
0.0
  0
VERTEX
  5
240
330
23E
100
AcDbEntity
  8
001
 62
     5
370
    50
100
AcDbVertex
100
AcDb2dVertex
 10
41.48681
 20
41.765899
 30
0.0
  0
VERTEX
  5
241
330
23E
100
AcDbEntity
  8
001
 62
     5
370
    50
100
AcDbVertex
100
AcDb2dVertex
 10
41.482968
 20
41.764562
 30
0.0
  0
VERTEX
  5
242
330
23E
100
AcDbEntity
  8
001
 62
     5
370
    50
100
AcDbVertex
100
AcDb2dVertex
 10
41.477481
 20
41.762577
 30
0.0
  0
VERTEX
  5
243
330
23E
100
AcDbEntity
  8
001
 62
     5
370
    50
100
AcDbVertex
100
AcDb2dVertex
 10
41.454046
 20
41.752678
 30
0.0
  0
VERTEX
  5
244
330
23E
100
AcDbEntity
  8
001
 62
     5
370
    50
100
AcDbVertex
100
AcDb2dVertex
 10
41.434827
 20
41.741951
 30
0.0
  0
VERTEX
  5
245
330
23E
100
AcDbEntity
  8
001
 62
     5
370
    50
100
AcDbVertex
100
AcDb2dVertex
 10
41.380553
 20
41.697757
 30
0.0
  0
VERTEX
  5
246
330
23E
100
AcDbEntity
  8
001
 62
     5
370
    50
100
AcDbVertex
100
AcDb2dVertex
 10
41.336002
 20
41.639465
 30
0.0
  0
VERTEX
  5
247
330
23E
100
AcDbEntity
  8
001
 62
     5
370
    50
100
AcDbVertex
100
AcDb2dVertex
 10
41.315815
 20
41.594964
 30
0.0
  0
VERTEX
  5
248
330
23E
100
AcDbEntity
  8
001
 62
     5
370
    50
100
AcDbVertex
100
AcDb2dVertex
 10
41.30393
 20
41.548087
 30
0.0
  0
VERTEX
  5
249
330
23E
100
AcDbEntity
  8
001
 62
     5
370
    50
100
AcDbVertex
100
AcDb2dVertex
 10
41.30084
 20
41.523904
 30
0.0
  0
VERTEX
  5
24A
330
23E
100
AcDbEntity
  8
001
 62
     5
370
    50
100
AcDbVertex
100
AcDb2dVertex
 10
41.299828
 20
41.499466
 30
0.0
  0
VERTEX
  5
24B
330
23E
100
AcDbEntity
  8
001
 62
     5
370
    50
100
AcDbVertex
100
AcDb2dVertex
 10
41.300988
 20
41.474936
 30
0.0
  0
VERTEX
  5
24C
330
23E
100
AcDbEntity
  8
001
 62
     5
370
    50
100
AcDbVertex
100
AcDb2dVertex
 10
41.303929
 20
41.450844
 30
0.0
  0
VERTEX
  5
24D
330
23E
100
AcDbEntity
  8
001
 62
     5
370
    50
100
AcDbVertex
100
AcDb2dVertex
 10
41.314627
 20
41.405239
 30
0.0
  0
VERTEX
  5
24E
330
23E
100
AcDbEntity
  8
001
 62
     5
370
    50
100
AcDbVertex
100
AcDb2dVertex
 10
41.335997
 20
41.359465
 30
0.0
  0
VERTEX
  5
24F
330
23E
100
AcDbEntity
  8
001
 62
     5
370
    50
100
AcDbVertex
100
AcDb2dVertex
 10
41.363266
 20
41.320576
 30
0.0
  0
VERTEX
  5
250
330
23E
100
AcDbEntity
  8
001
 62
     5
370
    50
100
AcDbVertex
100
AcDb2dVertex
 10
41.385809
 20
41.294562
 30
0.0
  0
SEQEND
  5
23F
330
23E
100
AcDbEntity
  8
001
370
    50
  0
POLYLINE
  5
251
330
64
100
AcDbEntity
  8
001
 62
     5
370
    50
100
AcDb2dPolyline
 66
     1
 10
0.0
 20
0.0
 30
0.0
  0
VERTEX
  5
253
330
251
100
AcDbEntity
  8
001
 62
     5
370
    50
100
AcDbVertex
100
AcDb2dVertex
 10
41.426052
 20
40.563141
 30
0.0
  0
VERTEX
  5
254
330
251
100
AcDbEntity
  8
001
 62
     5
370
    50
100
AcDbVertex
100
AcDb2dVertex
 10
41.449708
 20
40.595273
 30
0.0
  0
VERTEX
  5
255
330
251
100
AcDbEntity
  8
001
 62
     5
370
    50
100
AcDbVertex
100
AcDb2dVertex
 10
41.480001
 20
40.642298
 30
0.0
  0
VERTEX
  5
256
330
251
100
AcDbEntity
  8
001
 62
     5
370
    50
100
AcDbVertex
100
AcDb2dVertex
 10
41.520503
 20
40.729735
 30
0.0
  0
VERTEX
  5
257
330
251
100
AcDbEntity
  8
001
 62
     5
370
    50
100
AcDbVertex
100
AcDb2dVertex
 10
41.540653
 20
40.815108
 30
0.0
  0
VERTEX
  5
258
330
251
100
AcDbEntity
  8
001
 62
     5
370
    50
100
AcDbVertex
100
AcDb2dVertex
 10
41.546266
 20
40.860516
 30
0.0
  0
VERTEX
  5
259
330
251
100
AcDbEntity
  8
001
 62
     5
370
    50
100
AcDbVertex
100
AcDb2dVertex
 10
41.548412
 20
40.907059
 30
0.0
  0
VERTEX
  5
25A
330
251
100
AcDbEntity
  8
001
 62
     5
370
    50
100
AcDbVertex
100
AcDb2dVertex
 10
41.546284
 20
40.953543
 30
0.0
  0
VERTEX
  5
25B
330
251
100
AcDbEntity
  8
001
 62
     5
370
    50
100
AcDbVertex
100
AcDb2dVertex
 10
41.540657
 20
40.999009
 30
0.0
  0
VERTEX
  5
25C
330
251
100
AcDbEntity
  8
001
 62
     5
370
    50
100
AcDbVertex
100
AcDb2dVertex
 10
41.520382
 20
41.085198
 30
0.0
  0
VERTEX
  5
25D
330
251
100
AcDbEntity
  8
001
 62
     5
370
    50
100
AcDbVertex
100
AcDb2dVertex
 10
41.48001
 20
41.171821
 30
0.0
  0
VERTEX
  5
25E
330
251
100
AcDbEntity
  8
001
 62
     5
370
    50
100
AcDbVertex
100
AcDb2dVertex
 10
41.428447
 20
41.245377
 30
0.0
  0
VERTEX
  5
25F
330
251
100
AcDbEntity
  8
001
 62
     5
370
    50
100
AcDbVertex
100
AcDb2dVertex
 10
41.385809
 20
41.294562
 30
0.0
  0
SEQEND
  5
252
330
251
100
AcDbEntity
  8
001
370
    50
  0
ENDBLK
  5
66
330
64
100
AcDbEntity
  8
0
100
AcDbBlockEnd
  0
BLOCK
  5
261
330
260
100
AcDbEntity
  8
0
100
AcDbBlockBegin
  2
C32GUX-2
 70
     0
 10
0.0
 20
0.0
 30
0.0
  3
C32GUX-2
  1

  0
POLYLINE
  5
263
330
260
100
AcDbEntity
  8
001
 62
    40
370
    50
100
AcDb2dPolyline
 66
     1
 10
0.0
 20
0.0
 30
0.0
  0
VERTEX
  5
265
330
263
100
AcDbEntity
  8
001
 62
    40
370
    50
100
AcDbVertex
100
AcDb2dVertex
 10
45.321058
 20
37.833745
 30
0.0
  0
VERTEX
  5
266
330
263
100
AcDbEntity
  8
001
 62
    40
370
    50
100
AcDbVertex
100
AcDb2dVertex
 10
45.503895
 20
37.686241
 30
0.0
  0
VERTEX
  5
267
330
263
100
AcDbEntity
  8
001
 62
    40
370
    50
100
AcDbVertex
100
AcDb2dVertex
 10
45.779436
 20
37.481921
 30
0.0
  0
VERTEX
  5
268
330
263
100
AcDbEntity
  8
001
 62
    40
370
    50
100
AcDbVertex
100
AcDb2dVertex
 10
46.040781
 20
37.310827
 30
0.0
  0
VERTEX
  5
269
330
263
100
AcDbEntity
  8
001
 62
    40
370
    50
100
AcDbVertex
100
AcDb2dVertex
 10
46.224674
 20
37.201599
 30
0.0
  0
SEQEND
  5
264
330
263
100
AcDbEntity
  8
001
370
    50
  0
LINE
  5
26A
330
260
100
AcDbEntity
  8
001
 62
    40
370
    50
100
AcDbLine
 10
44.340481
 20
39.919279
 30
0.0
 11
45.321058
 21
37.833745
 31
0.0
  0
POLYLINE
  5
26B
330
260
100
AcDbEntity
  8
001
 62
    40
370
    50
100
AcDb2dPolyline
 66
     1
 10
0.0
 20
0.0
 30
0.0
  0
VERTEX
  5
26D
330
26B
100
AcDbEntity
  8
001
 62
    40
370
    50
100
AcDbVertex
100
AcDb2dVertex
 10
44.340481
 20
39.919279
 30
0.0
  0
VERTEX
  5
26E
330
26B
100
AcDbEntity
  8
001
 62
    40
370
    50
100
AcDbVertex
100
AcDb2dVertex
 10
44.37747
 20
40.074629
 30
0.0
  0
VERTEX
  5
26F
330
26B
100
AcDbEntity
  8
001
 62
    40
370
    50
100
AcDbVertex
100
AcDb2dVertex
 10
44.410654
 20
40.23077
 30
0.0
  0
VERTEX
  5
270
330
26B
100
AcDbEntity
  8
001
 62
    40
370
    50
100
AcDbVertex
100
AcDb2dVertex
 10
44.437646
 20
40.394085
 30
0.0
  0
VERTEX
  5
271
330
26B
100
AcDbEntity
  8
001
 62
    40
370
    50
100
AcDbVertex
100
AcDb2dVertex
 10
44.456259
 20
40.558616
 30
0.0
  0
VERTEX
  5
272
330
26B
100
AcDbEntity
  8
001
 62
    40
370
    50
100
AcDbVertex
100
AcDb2dVertex
 10
44.466184
 20
40.721924
 30
0.0
  0
VERTEX
  5
273
330
26B
100
AcDbEntity
  8
001
 62
    40
370
    50
100
AcDbVertex
100
AcDb2dVertex
 10
44.467293
 20
40.885508
 30
0.0
  0
VERTEX
  5
274
330
26B
100
AcDbEntity
  8
001
 62
    40
370
    50
100
AcDbVertex
100
AcDb2dVertex
 10
44.458955
 20
41.051817
 30
0.0
  0
VERTEX
  5
275
330
26B
100
AcDbEntity
  8
001
 62
    40
370
    50
100
AcDbVertex
100
AcDb2dVertex
 10
44.440785
 20
41.21736
 30
0.0
  0
VERTEX
  5
276
330
26B
100
AcDbEntity
  8
001
 62
    40
370
    50
100
AcDbVertex
100
AcDb2dVertex
 10
44.412363
 20
41.382123
 30
0.0
  0
VERTEX
  5
277
330
26B
100
AcDbEntity
  8
001
 62
    40
370
    50
100
AcDbVertex
100
AcDb2dVertex
 10
44.37327
 20
41.544652
 30
0.0
  0
VERTEX
  5
278
330
26B
100
AcDbEntity
  8
001
 62
    40
370
    50
100
AcDbVertex
100
AcDb2dVertex
 10
44.329071
 20
41.687185
 30
0.0
  0
VERTEX
  5
279
330
26B
100
AcDbEntity
  8
001
 62
    40
370
    50
100
AcDbVertex
100
AcDb2dVertex
 10
44.276408
 20
41.826826
 30
0.0
  0
VERTEX
  5
27A
330
26B
100
AcDbEntity
  8
001
 62
    40
370
    50
100
AcDbVertex
100
AcDb2dVertex
 10
44.215237
 20
41.964108
 30
0.0
  0
VERTEX
  5
27B
330
26B
100
AcDbEntity
  8
001
 62
    40
370
    50
100
AcDbVertex
100
AcDb2dVertex
 10
44.146181
 20
42.097598
 30
0.0
  0
VERTEX
  5
27C
330
26B
100
AcDbEntity
  8
001
 62
    40
370
    50
100
AcDbVertex
100
AcDb2dVertex
 10
44.069537
 20
42.226756
 30
0.0
  0
VERTEX
  5
27D
330
26B
100
AcDbEntity
  8
001
 62
    40
370
    50
100
AcDbVertex
100
AcDb2dVertex
 10
43.985449
 20
42.35118
 30
0.0
  0
VERTEX
  5
27E
330
26B
100
AcDbEntity
  8
001
 62
    40
370
    50
100
AcDbVertex
100
AcDb2dVertex
 10
43.900363
 20
42.462809
 30
0.0
  0
VERTEX
  5
27F
330
26B
100
AcDbEntity
  8
001
 62
    40
370
    50
100
AcDbVertex
100
AcDb2dVertex
 10
43.809553
 20
42.569841
 30
0.0
  0
VERTEX
  5
280
330
26B
100
AcDbEntity
  8
001
 62
    40
370
    50
100
AcDbVertex
100
AcDb2dVertex
 10
43.713164
 20
42.672715
 30
0.0
  0
VERTEX
  5
281
330
26B
100
AcDbEntity
  8
001
 62
    40
370
    50
100
AcDbVertex
100
AcDb2dVertex
 10
43.612055
 20
42.770952
 30
0.0
  0
VERTEX
  5
282
330
26B
100
AcDbEntity
  8
001
 62
    40
370
    50
100
AcDbVertex
100
AcDb2dVertex
 10
43.507008
 20
42.864247
 30
0.0
  0
VERTEX
  5
283
330
26B
100
AcDbEntity
  8
001
 62
    40
370
    50
100
AcDbVertex
100
AcDb2dVertex
 10
43.398041
 20
42.952919
 30
0.0
  0
VERTEX
  5
284
330
26B
100
AcDbEntity
  8
001
 62
    40
370
    50
100
AcDbVertex
100
AcDb2dVertex
 10
43.287395
 20
43.0357
 30
0.0
  0
VERTEX
  5
285
330
26B
100
AcDbEntity
  8
001
 62
    40
370
    50
100
AcDbVertex
100
AcDb2dVertex
 10
43.173854
 20
43.114486
 30
0.0
  0
VERTEX
  5
286
330
26B
100
AcDbEntity
  8
001
 62
    40
370
    50
100
AcDbVertex
100
AcDb2dVertex
 10
43.058817
 20
43.189146
 30
0.0
  0
VERTEX
  5
287
330
26B
100
AcDbEntity
  8
001
 62
    40
370
    50
100
AcDbVertex
100
AcDb2dVertex
 10
42.941663
 20
43.260405
 30
0.0
  0
VERTEX
  5
288
330
26B
100
AcDbEntity
  8
001
 62
    40
370
    50
100
AcDbVertex
100
AcDb2dVertex
 10
42.825011
 20
43.327282
 30
0.0
  0
VERTEX
  5
289
330
26B
100
AcDbEntity
  8
001
 62
    40
370
    50
100
AcDbVertex
100
AcDb2dVertex
 10
42.707422
 20
43.392539
 30
0.0
  0
SEQEND
  5
26C
330
26B
100
AcDbEntity
  8
001
370
    50
  0
LINE
  5
28A
330
260
100
AcDbEntity
  8
001
 62
    40
370
    50
100
AcDbLine
 10
41.951369
 20
45.000545
 30
0.0
 11
42.707422
 21
43.392539
 31
0.0
  0
POLYLINE
  5
28B
330
260
100
AcDbEntity
  8
001
 62
    40
370
    50
100
AcDb2dPolyline
 66
     1
 10
0.0
 20
0.0
 30
0.0
  0
VERTEX
  5
28D
330
28B
100
AcDbEntity
  8
001
 62
    40
370
    50
100
AcDbVertex
100
AcDb2dVertex
 10
42.137164
 20
45.895091
 30
0.0
  0
VERTEX
  5
28E
330
28B
100
AcDbEntity
  8
001
 62
    40
370
    50
100
AcDbVertex
100
AcDb2dVertex
 10
42.083862
 20
45.726384
 30
0.0
  0
VERTEX
  5
28F
330
28B
100
AcDbEntity
  8
001
 62
    40
370
    50
100
AcDbVertex
100
AcDb2dVertex
 10
42.02079
 20
45.475972
 30
0.0
  0
VERTEX
  5
290
330
28B
100
AcDbEntity
  8
001
 62
    40
370
    50
100
AcDbVertex
100
AcDb2dVertex
 10
41.973262
 20
45.194773
 30
0.0
  0
VERTEX
  5
291
330
28B
100
AcDbEntity
  8
001
 62
    40
370
    50
100
AcDbVertex
100
AcDb2dVertex
 10
41.951369
 20
45.000545
 30
0.0
  0
SEQEND
  5
28C
330
28B
100
AcDbEntity
  8
001
370
    50
  0
POLYLINE
  5
292
330
260
100
AcDbEntity
  8
001
 62
    40
370
    50
100
AcDb2dPolyline
 66
     1
 10
0.0
 20
0.0
 30
0.0
  0
VERTEX
  5
294
330
292
100
AcDbEntity
  8
001
 62
    40
370
    50
100
AcDbVertex
100
AcDb2dVertex
 10
42.137164
 20
45.895091
 30
0.0
  0
VERTEX
  5
295
330
292
100
AcDbEntity
  8
001
 62
    40
370
    50
100
AcDbVertex
100
AcDb2dVertex
 10
42.247637
 20
45.923406
 30
0.0
  0
VERTEX
  5
296
330
292
100
AcDbEntity
  8
001
 62
    40
370
    50
100
AcDbVertex
100
AcDb2dVertex
 10
42.401163
 20
45.963282
 30
0.0
  0
VERTEX
  5
297
330
292
100
AcDbEntity
  8
001
 62
    40
370
    50
100
AcDbVertex
100
AcDb2dVertex
 10
42.597311
 20
46.015447
 30
0.0
  0
VERTEX
  5
298
330
292
100
AcDbEntity
  8
001
 62
    40
370
    50
100
AcDbVertex
100
AcDb2dVertex
 10
42.775384
 20
46.064399
 30
0.0
  0
VERTEX
  5
299
330
292
100
AcDbEntity
  8
001
 62
    40
370
    50
100
AcDbVertex
100
AcDb2dVertex
 10
42.961025
 20
46.116656
 30
0.0
  0
VERTEX
  5
29A
330
292
100
AcDbEntity
  8
001
 62
    40
370
    50
100
AcDbVertex
100
AcDb2dVertex
 10
43.1483
 20
46.170226
 30
0.0
  0
VERTEX
  5
29B
330
292
100
AcDbEntity
  8
001
 62
    40
370
    50
100
AcDbVertex
100
AcDb2dVertex
 10
43.483353
 20
46.268878
 30
0.0
  0
VERTEX
  5
29C
330
292
100
AcDbEntity
  8
001
 62
    40
370
    50
100
AcDbVertex
100
AcDb2dVertex
 10
43.845279
 20
46.383101
 30
0.0
  0
VERTEX
  5
29D
330
292
100
AcDbEntity
  8
001
 62
    40
370
    50
100
AcDbVertex
100
AcDb2dVertex
 10
44.121177
 20
46.475204
 30
0.0
  0
VERTEX
  5
29E
330
292
100
AcDbEntity
  8
001
 62
    40
370
    50
100
AcDbVertex
100
AcDb2dVertex
 10
44.319068
 20
46.543699
 30
0.0
  0
SEQEND
  5
293
330
292
100
AcDbEntity
  8
001
370
    50
  0
POLYLINE
  5
29F
330
260
100
AcDbEntity
  8
001
 62
    40
370
    50
100
AcDb2dPolyline
 66
     1
 10
0.0
 20
0.0
 30
0.0
  0
VERTEX
  5
2A1
330
29F
100
AcDbEntity
  8
001
 62
    40
370
    50
100
AcDbVertex
100
AcDb2dVertex
 10
45.015996
 20
45.911557
 30
0.0
  0
VERTEX
  5
2A2
330
29F
100
AcDbEntity
  8
001
 62
    40
370
    50
100
AcDbVertex
100
AcDb2dVertex
 10
44.879599
 20
46.058947
 30
0.0
  0
VERTEX
  5
2A3
330
29F
100
AcDbEntity
  8
001
 62
    40
370
    50
100
AcDbVertex
100
AcDb2dVertex
 10
44.669613
 20
46.263379
 30
0.0
  0
VERTEX
  5
2A4
330
29F
100
AcDbEntity
  8
001
 62
    40
370
    50
100
AcDbVertex
100
AcDb2dVertex
 10
44.465332
 20
46.434478
 30
0.0
  0
VERTEX
  5
2A5
330
29F
100
AcDbEntity
  8
001
 62
    40
370
    50
100
AcDbVertex
100
AcDb2dVertex
 10
44.319068
 20
46.543699
 30
0.0
  0
SEQEND
  5
2A0
330
29F
100
AcDbEntity
  8
001
370
    50
  0
LINE
  5
2A6
330
260
100
AcDbEntity
  8
001
 62
    40
370
    50
100
AcDbLine
 10
48.385685
 20
38.744757
 30
0.0
 11
45.015996
 21
45.911557
 31
0.0
  0
POLYLINE
  5
2A7
330
260
100
AcDbEntity
  8
001
 62
    40
370
    50
100
AcDb2dPolyline
 66
     1
 10
0.0
 20
0.0
 30
0.0
  0
VERTEX
  5
2A9
330
2A7
100
AcDbEntity
  8
001
 62
    40
370
    50
100
AcDbVertex
100
AcDb2dVertex
 10
48.408196
 20
37.862136
 30
0.0
  0
VERTEX
  5
2AA
330
2A7
100
AcDbEntity
  8
001
 62
    40
370
    50
100
AcDbVertex
100
AcDb2dVertex
 10
48.419655
 20
37.975629
 30
0.0
  0
VERTEX
  5
2AB
330
2A7
100
AcDbEntity
  8
001
 62
    40
370
    50
100
AcDbVertex
100
AcDb2dVertex
 10
48.428598
 20
38.141914
 30
0.0
  0
VERTEX
  5
2AC
330
2A7
100
AcDbEntity
  8
001
 62
    40
370
    50
100
AcDbVertex
100
AcDb2dVertex
 10
48.414966
 20
38.500289
 30
0.0
  0
VERTEX
  5
2AD
330
2A7
100
AcDbEntity
  8
001
 62
    40
370
    50
100
AcDbVertex
100
AcDb2dVertex
 10
48.385685
 20
38.744757
 30
0.0
  0
SEQEND
  5
2A8
330
2A7
100
AcDbEntity
  8
001
370
    50
  0
POLYLINE
  5
2AE
330
260
100
AcDbEntity
  8
001
 62
    40
370
    50
100
AcDb2dPolyline
 66
     1
 10
0.0
 20
0.0
 30
0.0
  0
VERTEX
  5
2B0
330
2AE
100
AcDbEntity
  8
001
 62
    40
370
    50
100
AcDbVertex
100
AcDb2dVertex
 10
48.26103
 20
37.798919
 30
0.0
  0
VERTEX
  5
2B1
330
2AE
100
AcDbEntity
  8
001
 62
    40
370
    50
100
AcDbVertex
100
AcDb2dVertex
 10
48.299327
 20
37.813162
 30
0.0
  0
VERTEX
  5
2B2
330
2AE
100
AcDbEntity
  8
001
 62
    40
370
    50
100
AcDbVertex
100
AcDb2dVertex
 10
48.337188
 20
37.828456
 30
0.0
  0
VERTEX
  5
2B3
330
2AE
100
AcDbEntity
  8
001
 62
    40
370
    50
100
AcDbVertex
100
AcDb2dVertex
 10
48.347583
 20
37.833018
 30
0.0
  0
VERTEX
  5
2B4
330
2AE
100
AcDbEntity
  8
001
 62
    40
370
    50
100
AcDbVertex
100
AcDb2dVertex
 10
48.357945
 20
37.837661
 30
0.0
  0
SEQEND
  5
2AF
330
2AE
100
AcDbEntity
  8
001
370
    50
  0
POLYLINE
  5
2B5
330
260
100
AcDbEntity
  8
001
 62
    40
370
    50
100
AcDb2dPolyline
 66
     1
 10
0.0
 20
0.0
 30
0.0
  0
VERTEX
  5
2B7
330
2B5
100
AcDbEntity
  8
001
 62
    40
370
    50
100
AcDbVertex
100
AcDb2dVertex
 10
46.224674
 20
37.201599
 30
0.0
  0
VERTEX
  5
2B8
330
2B5
100
AcDbEntity
  8
001
 62
    40
370
    50
100
AcDbVertex
100
AcDb2dVertex
 10
46.335154
 20
37.229916
 30
0.0
  0
VERTEX
  5
2B9
330
2B5
100
AcDbEntity
  8
001
 62
    40
370
    50
100
AcDbVertex
100
AcDb2dVertex
 10
46.488673
 20
37.269791
 30
0.0
  0
VERTEX
  5
2BA
330
2B5
100
AcDbEntity
  8
001
 62
    40
370
    50
100
AcDbVertex
100
AcDb2dVertex
 10
46.68476
 20
37.32194
 30
0.0
  0
VERTEX
  5
2BB
330
2B5
100
AcDbEntity
  8
001
 62
    40
370
    50
100
AcDbVertex
100
AcDb2dVertex
 10
46.862893
 20
37.370907
 30
0.0
  0
VERTEX
  5
2BC
330
2B5
100
AcDbEntity
  8
001
 62
    40
370
    50
100
AcDbVertex
100
AcDb2dVertex
 10
47.048776
 20
37.423225
 30
0.0
  0
VERTEX
  5
2BD
330
2B5
100
AcDbEntity
  8
001
 62
    40
370
    50
100
AcDbVertex
100
AcDb2dVertex
 10
47.23581
 20
37.476734
 30
0.0
  0
VERTEX
  5
2BE
330
2B5
100
AcDbEntity
  8
001
 62
    40
370
    50
100
AcDbVertex
100
AcDb2dVertex
 10
47.568618
 20
37.574824
 30
0.0
  0
VERTEX
  5
2BF
330
2B5
100
AcDbEntity
  8
001
 62
    40
370
    50
100
AcDbVertex
100
AcDb2dVertex
 10
47.932789
 20
37.689609
 30
0.0
  0
VERTEX
  5
2C0
330
2B5
100
AcDbEntity
  8
001
 62
    40
370
    50
100
AcDbVertex
100
AcDb2dVertex
 10
48.124685
 20
37.752918
 30
0.0
  0
VERTEX
  5
2C1
330
2B5
100
AcDbEntity
  8
001
 62
    40
370
    50
100
AcDbVertex
100
AcDb2dVertex
 10
48.26103
 20
37.798919
 30
0.0
  0
SEQEND
  5
2B6
330
2B5
100
AcDbEntity
  8
001
370
    50
  0
LINE
  5
2C2
330
260
100
AcDbEntity
  8
001
 62
    40
370
    50
100
AcDbLine
 10
48.385685
 20
38.744757
 30
0.0
 11
48.622622
 21
38.353489
 31
0.0
  0
POLYLINE
  5
2C3
330
260
100
AcDbEntity
  8
001
 62
    40
370
    50
100
AcDb2dPolyline
 66
     1
 10
0.0
 20
0.0
 30
0.0
  0
VERTEX
  5
2C5
330
2C3
100
AcDbEntity
  8
001
 62
    40
370
    50
100
AcDbVertex
100
AcDb2dVertex
 10
48.408196
 20
37.862136
 30
0.0
  0
VERTEX
  5
2C6
330
2C3
100
AcDbEntity
  8
001
 62
    40
370
    50
100
AcDbVertex
100
AcDb2dVertex
 10
48.468577
 20
37.903195
 30
0.0
  0
VERTEX
  5
2C7
330
2C3
100
AcDbEntity
  8
001
 62
    40
370
    50
100
AcDbVertex
100
AcDb2dVertex
 10
48.524547
 20
37.949292
 30
0.0
  0
VERTEX
  5
2C8
330
2C3
100
AcDbEntity
  8
001
 62
    40
370
    50
100
AcDbVertex
100
AcDb2dVertex
 10
48.554896
 20
37.981808
 30
0.0
  0
VERTEX
  5
2C9
330
2C3
100
AcDbEntity
  8
001
 62
    40
370
    50
100
AcDbVertex
100
AcDb2dVertex
 10
48.58196
 20
38.017234
 30
0.0
  0
VERTEX
  5
2CA
330
2C3
100
AcDbEntity
  8
001
 62
    40
370
    50
100
AcDbVertex
100
AcDb2dVertex
 10
48.605452
 20
38.05446
 30
0.0
  0
VERTEX
  5
2CB
330
2C3
100
AcDbEntity
  8
001
 62
    40
370
    50
100
AcDbVertex
100
AcDb2dVertex
 10
48.625358
 20
38.0938
 30
0.0
  0
VERTEX
  5
2CC
330
2C3
100
AcDbEntity
  8
001
 62
    40
370
    50
100
AcDbVertex
100
AcDb2dVertex
 10
48.645352
 20
38.149659
 30
0.0
  0
VERTEX
  5
2CD
330
2C3
100
AcDbEntity
  8
001
 62
    40
370
    50
100
AcDbVertex
100
AcDb2dVertex
 10
48.655078
 20
38.207838
 30
0.0
  0
VERTEX
  5
2CE
330
2C3
100
AcDbEntity
  8
001
 62
    40
370
    50
100
AcDbVertex
100
AcDb2dVertex
 10
48.65564
 20
38.226559
 30
0.0
  0
VERTEX
  5
2CF
330
2C3
100
AcDbEntity
  8
001
 62
    40
370
    50
100
AcDbVertex
100
AcDb2dVertex
 10
48.655524
 20
38.245312
 30
0.0
  0
SEQEND
  5
2C4
330
2C3
100
AcDbEntity
  8
001
370
    50
  0
LINE
  5
2D0
330
260
100
AcDbEntity
  8
001
 62
    40
370
    50
100
AcDbLine
 10
44.810931
 20
46.524059
 30
0.0
 11
45.015996
 21
45.911557
 31
0.0
  0
LINE
  5
2D1
330
260
100
AcDbEntity
  8
001
 62
    40
370
    50
100
AcDbLine
 10
46.335652
 20
44.897028
 30
0.0
 11
45.57066
 21
46.524045
 31
0.0
  0
LINE
  5
2D2
330
260
100
AcDbEntity
  8
001
 62
    40
370
    50
100
AcDbLine
 10
48.357945
 20
37.837661
 30
0.0
 11
48.408196
 21
37.862136
 31
0.0
  0
POLYLINE
  5
2D3
330
260
100
AcDbEntity
  8
001
 62
    40
370
    50
100
AcDb2dPolyline
 66
     1
 10
0.0
 20
0.0
 30
0.0
  0
VERTEX
  5
2D5
330
2D3
100
AcDbEntity
  8
001
 62
    40
370
    50
100
AcDbVertex
100
AcDb2dVertex
 10
48.655524
 20
38.245312
 30
0.0
  0
VERTEX
  5
2D6
330
2D3
100
AcDbEntity
  8
001
 62
    40
370
    50
100
AcDbVertex
100
AcDb2dVertex
 10
48.652589
 20
38.270604
 30
0.0
  0
VERTEX
  5
2D7
330
2D3
100
AcDbEntity
  8
001
 62
    40
370
    50
100
AcDbVertex
100
AcDb2dVertex
 10
48.647637
 20
38.295318
 30
0.0
  0
VERTEX
  5
2D8
330
2D3
100
AcDbEntity
  8
001
 62
    40
370
    50
100
AcDbVertex
100
AcDb2dVertex
 10
48.637231
 20
38.323759
 30
0.0
  0
VERTEX
  5
2D9
330
2D3
100
AcDbEntity
  8
001
 62
    40
370
    50
100
AcDbVertex
100
AcDb2dVertex
 10
48.623908
 20
38.351365
 30
0.0
  0
SEQEND
  5
2D4
330
2D3
100
AcDbEntity
  8
001
370
    50
  0
POLYLINE
  5
2DA
330
260
100
AcDbEntity
  8
001
 62
    40
370
    50
100
AcDb2dPolyline
 66
     1
 10
0.0
 20
0.0
 30
0.0
  0
VERTEX
  5
2DC
330
2DA
100
AcDbEntity
  8
001
 62
    40
370
    50
100
AcDbVertex
100
AcDb2dVertex
 10
46.825581
 20
37.160444
 30
0.0
  0
VERTEX
  5
2DD
330
2DA
100
AcDbEntity
  8
001
 62
    40
370
    50
100
AcDbVertex
100
AcDb2dVertex
 10
46.891107
 20
37.181118
 30
0.0
  0
VERTEX
  5
2DE
330
2DA
100
AcDbEntity
  8
001
 62
    40
370
    50
100
AcDbVertex
100
AcDb2dVertex
 10
46.985792
 20
37.21442
 30
0.0
  0
VERTEX
  5
2DF
330
2DA
100
AcDbEntity
  8
001
 62
    40
370
    50
100
AcDbVertex
100
AcDb2dVertex
 10
47.07845
 20
37.251798
 30
0.0
  0
VERTEX
  5
2E0
330
2DA
100
AcDbEntity
  8
001
 62
    40
370
    50
100
AcDbVertex
100
AcDb2dVertex
 10
47.141019
 20
37.279424
 30
0.0
  0
SEQEND
  5
2DB
330
2DA
100
AcDbEntity
  8
001
370
    50
  0
LINE
  5
2E1
330
260
100
AcDbEntity
  8
001
 62
    40
370
    50
100
AcDbLine
 10
48.655677
 20
38.242776
 30
0.0
 11
48.652888
 21
38.289349
 31
0.0
  0
POLYLINE
  5
2E2
330
260
100
AcDbEntity
  8
001
 62
    40
370
    50
100
AcDb2dPolyline
 66
     1
 10
0.0
 20
0.0
 30
0.0
  0
VERTEX
  5
2E4
330
2E2
100
AcDbEntity
  8
001
 62
    40
370
    50
100
AcDbVertex
100
AcDb2dVertex
 10
47.137676
 20
37.277886
 30
0.0
  0
VERTEX
  5
2E5
330
2E2
100
AcDbEntity
  8
001
 62
    40
370
    50
100
AcDbVertex
100
AcDb2dVertex
 10
47.473064
 20
37.431739
 30
0.0
  0
VERTEX
  5
2E6
330
2E2
100
AcDbEntity
  8
001
 62
    40
370
    50
100
AcDbVertex
100
AcDb2dVertex
 10
47.808451
 20
37.585592
 30
0.0
  0
VERTEX
  5
2E7
330
2E2
100
AcDbEntity
  8
001
 62
    40
370
    50
100
AcDbVertex
100
AcDb2dVertex
 10
48.082833
 20
37.711462
 30
0.0
  0
VERTEX
  5
2E8
330
2E2
100
AcDbEntity
  8
001
 62
    40
370
    50
100
AcDbVertex
100
AcDb2dVertex
 10
48.357214
 20
37.837332
 30
0.0
  0
SEQEND
  5
2E3
330
2E2
100
AcDbEntity
  8
001
370
    50
  0
LINE
  5
2E9
330
260
100
AcDbEntity
  8
001
 62
    40
370
    50
100
AcDbLine
 10
40.324138
 20
35.447566
 30
0.0
 11
40.038332
 21
35.362605
 31
0.0
  0
POLYLINE
  5
2EA
330
260
100
AcDbEntity
  8
001
 62
    40
370
    50
100
AcDb2dPolyline
 66
     1
 10
0.0
 20
0.0
 30
0.0
  0
VERTEX
  5
2EC
330
2EA
100
AcDbEntity
  8
001
 62
    40
370
    50
100
AcDbVertex
100
AcDb2dVertex
 10
40.324138
 20
35.447566
 30
0.0
  0
VERTEX
  5
2ED
330
2EA
100
AcDbEntity
  8
001
 62
    40
370
    50
100
AcDbVertex
100
AcDb2dVertex
 10
40.43461
 20
35.475881
 30
0.0
  0
VERTEX
  5
2EE
330
2EA
100
AcDbEntity
  8
001
 62
    40
370
    50
100
AcDbVertex
100
AcDb2dVertex
 10
40.588136
 20
35.515757
 30
0.0
  0
VERTEX
  5
2EF
330
2EA
100
AcDbEntity
  8
001
 62
    40
370
    50
100
AcDbVertex
100
AcDb2dVertex
 10
40.784284
 20
35.567921
 30
0.0
  0
VERTEX
  5
2F0
330
2EA
100
AcDbEntity
  8
001
 62
    40
370
    50
100
AcDbVertex
100
AcDb2dVertex
 10
40.962357
 20
35.616874
 30
0.0
  0
VERTEX
  5
2F1
330
2EA
100
AcDbEntity
  8
001
 62
    40
370
    50
100
AcDbVertex
100
AcDb2dVertex
 10
41.147999
 20
35.669131
 30
0.0
  0
VERTEX
  5
2F2
330
2EA
100
AcDbEntity
  8
001
 62
    40
370
    50
100
AcDbVertex
100
AcDb2dVertex
 10
41.335273
 20
35.7227
 30
0.0
  0
VERTEX
  5
2F3
330
2EA
100
AcDbEntity
  8
001
 62
    40
370
    50
100
AcDbVertex
100
AcDb2dVertex
 10
41.670326
 20
35.821352
 30
0.0
  0
VERTEX
  5
2F4
330
2EA
100
AcDbEntity
  8
001
 62
    40
370
    50
100
AcDbVertex
100
AcDb2dVertex
 10
42.032253
 20
35.935575
 30
0.0
  0
VERTEX
  5
2F5
330
2EA
100
AcDbEntity
  8
001
 62
    40
370
    50
100
AcDbVertex
100
AcDb2dVertex
 10
42.308151
 20
36.027678
 30
0.0
  0
VERTEX
  5
2F6
330
2EA
100
AcDbEntity
  8
001
 62
    40
370
    50
100
AcDbVertex
100
AcDb2dVertex
 10
42.506041
 20
36.096173
 30
0.0
  0
SEQEND
  5
2EB
330
2EA
100
AcDbEntity
  8
001
370
    50
  0
LINE
  5
2F7
330
260
100
AcDbEntity
  8
001
 62
    40
370
    50
100
AcDbLine
 10
46.224674
 20
37.201599
 30
0.0
 11
42.506041
 21
36.096173
 31
0.0
  0
LINE
  5
2F8
330
260
100
AcDbEntity
  8
001
 62
    40
370
    50
100
AcDbLine
 10
40.77764
 20
35.362592
 30
0.0
 11
46.825581
 21
37.160444
 31
0.0
  0
POLYLINE
  5
2F9
330
260
100
AcDbEntity
  8
001
 62
    40
370
    50
100
AcDb2dPolyline
 66
     1
 10
0.0
 20
0.0
 30
0.0
  0
VERTEX
  5
2FB
330
2F9
100
AcDbEntity
  8
001
 62
    40
370
    50
100
AcDbVertex
100
AcDb2dVertex
 10
42.506041
 20
36.096173
 30
0.0
  0
VERTEX
  5
2FC
330
2F9
100
AcDbEntity
  8
001
 62
    40
370
    50
100
AcDbVertex
100
AcDb2dVertex
 10
42.518454
 20
36.214488
 30
0.0
  0
VERTEX
  5
2FD
330
2F9
100
AcDbEntity
  8
001
 62
    40
370
    50
100
AcDbVertex
100
AcDb2dVertex
 10
42.528061
 20
36.38788
 30
0.0
  0
VERTEX
  5
2FE
330
2F9
100
AcDbEntity
  8
001
 62
    40
370
    50
100
AcDbVertex
100
AcDb2dVertex
 10
42.514452
 20
36.746251
 30
0.0
  0
VERTEX
  5
2FF
330
2F9
100
AcDbEntity
  8
001
 62
    40
370
    50
100
AcDbVertex
100
AcDb2dVertex
 10
42.485149
 20
36.990723
 30
0.0
  0
SEQEND
  5
2FA
330
2F9
100
AcDbEntity
  8
001
370
    50
  0
LINE
  5
300
330
260
100
AcDbEntity
  8
001
 62
    40
370
    50
100
AcDbLine
 10
45.321058
 20
37.833745
 30
0.0
 11
42.485149
 21
36.990723
 31
0.0
  0
LINE
  5
301
330
260
100
AcDbEntity
  8
001
 62
    40
370
    50
100
AcDbLine
 10
42.485149
 20
36.990723
 30
0.0
 11
41.729095
 21
38.598729
 31
0.0
  0
POLYLINE
  5
302
330
260
100
AcDbEntity
  8
001
 62
    40
370
    50
100
AcDb2dPolyline
 66
     1
 10
0.0
 20
0.0
 30
0.0
  0
VERTEX
  5
304
330
302
100
AcDbEntity
  8
001
 62
    40
370
    50
100
AcDbVertex
100
AcDb2dVertex
 10
41.729095
 20
38.598729
 30
0.0
  0
VERTEX
  5
305
330
302
100
AcDbEntity
  8
001
 62
    40
370
    50
100
AcDbVertex
100
AcDb2dVertex
 10
41.761455
 20
38.591989
 30
0.0
  0
VERTEX
  5
306
330
302
100
AcDbEntity
  8
001
 62
    40
370
    50
100
AcDbVertex
100
AcDb2dVertex
 10
41.807987
 20
38.582862
 30
0.0
  0
VERTEX
  5
307
330
302
100
AcDbEntity
  8
001
 62
    40
370
    50
100
AcDbVertex
100
AcDb2dVertex
 10
42.025815
 20
38.551972
 30
0.0
  0
VERTEX
  5
308
330
302
100
AcDbEntity
  8
001
 62
    40
370
    50
100
AcDbVertex
100
AcDb2dVertex
 10
42.218216
 20
38.545634
 30
0.0
  0
VERTEX
  5
309
330
302
100
AcDbEntity
  8
001
 62
    40
370
    50
100
AcDbVertex
100
AcDb2dVertex
 10
42.420586
 20
38.555877
 30
0.0
  0
VERTEX
  5
30A
330
302
100
AcDbEntity
  8
001
 62
    40
370
    50
100
AcDbVertex
100
AcDb2dVertex
 10
42.628446
 20
38.582848
 30
0.0
  0
VERTEX
  5
30B
330
302
100
AcDbEntity
  8
001
 62
    40
370
    50
100
AcDbVertex
100
AcDb2dVertex
 10
42.830606
 20
38.628518
 30
0.0
  0
VERTEX
  5
30C
330
302
100
AcDbEntity
  8
001
 62
    40
370
    50
100
AcDbVertex
100
AcDb2dVertex
 10
43.026213
 20
38.693373
 30
0.0
  0
VERTEX
  5
30D
330
302
100
AcDbEntity
  8
001
 62
    40
370
    50
100
AcDbVertex
100
AcDb2dVertex
 10
43.217295
 20
38.776935
 30
0.0
  0
VERTEX
  5
30E
330
302
100
AcDbEntity
  8
001
 62
    40
370
    50
100
AcDbVertex
100
AcDb2dVertex
 10
43.399431
 20
38.873851
 30
0.0
  0
VERTEX
  5
30F
330
302
100
AcDbEntity
  8
001
 62
    40
370
    50
100
AcDbVertex
100
AcDb2dVertex
 10
43.873283
 20
39.230952
 30
0.0
  0
VERTEX
  5
310
330
302
100
AcDbEntity
  8
001
 62
    40
370
    50
100
AcDbVertex
100
AcDb2dVertex
 10
44.264152
 20
39.770598
 30
0.0
  0
VERTEX
  5
311
330
302
100
AcDbEntity
  8
001
 62
    40
370
    50
100
AcDbVertex
100
AcDb2dVertex
 10
44.310039
 20
39.857969
 30
0.0
  0
VERTEX
  5
312
330
302
100
AcDbEntity
  8
001
 62
    40
370
    50
100
AcDbVertex
100
AcDb2dVertex
 10
44.340481
 20
39.919279
 30
0.0
  0
SEQEND
  5
303
330
302
100
AcDbEntity
  8
001
370
    50
  0
POLYLINE
  5
313
330
260
100
AcDbEntity
  8
001
 62
    40
370
    50
100
AcDb2dPolyline
 66
     1
 10
0.0
 20
0.0
 30
0.0
  0
VERTEX
  5
315
330
313
100
AcDbEntity
  8
001
 62
    40
370
    50
100
AcDbVertex
100
AcDb2dVertex
 10
40.096037
 20
42.071989
 30
0.0
  0
VERTEX
  5
316
330
313
100
AcDbEntity
  8
001
 62
    40
370
    50
100
AcDbVertex
100
AcDb2dVertex
 10
40.103282
 20
41.916234
 30
0.0
  0
VERTEX
  5
317
330
313
100
AcDbEntity
  8
001
 62
    40
370
    50
100
AcDbVertex
100
AcDb2dVertex
 10
40.11101
 20
41.760497
 30
0.0
  0
VERTEX
  5
318
330
313
100
AcDbEntity
  8
001
 62
    40
370
    50
100
AcDbVertex
100
AcDb2dVertex
 10
40.120374
 20
41.596484
 30
0.0
  0
VERTEX
  5
319
330
313
100
AcDbEntity
  8
001
 62
    40
370
    50
100
AcDbVertex
100
AcDb2dVertex
 10
40.132372
 20
41.43265
 30
0.0
  0
VERTEX
  5
31A
330
313
100
AcDbEntity
  8
001
 62
    40
370
    50
100
AcDbVertex
100
AcDb2dVertex
 10
40.148418
 20
41.268938
 30
0.0
  0
VERTEX
  5
31B
330
313
100
AcDbEntity
  8
001
 62
    40
370
    50
100
AcDbVertex
100
AcDb2dVertex
 10
40.169211
 20
41.105756
 30
0.0
  0
VERTEX
  5
31C
330
313
100
AcDbEntity
  8
001
 62
    40
370
    50
100
AcDbVertex
100
AcDb2dVertex
 10
40.196024
 20
40.939278
 30
0.0
  0
VERTEX
  5
31D
330
313
100
AcDbEntity
  8
001
 62
    40
370
    50
100
AcDbVertex
100
AcDb2dVertex
 10
40.228998
 20
40.773904
 30
0.0
  0
VERTEX
  5
31E
330
313
100
AcDbEntity
  8
001
 62
    40
370
    50
100
AcDbVertex
100
AcDb2dVertex
 10
40.268979
 20
40.609224
 30
0.0
  0
VERTEX
  5
31F
330
313
100
AcDbEntity
  8
001
 62
    40
370
    50
100
AcDbVertex
100
AcDb2dVertex
 10
40.3166
 20
40.446612
 30
0.0
  0
VERTEX
  5
320
330
313
100
AcDbEntity
  8
001
 62
    40
370
    50
100
AcDbVertex
100
AcDb2dVertex
 10
40.365845
 20
40.304332
 30
0.0
  0
VERTEX
  5
321
330
313
100
AcDbEntity
  8
001
 62
    40
370
    50
100
AcDbVertex
100
AcDb2dVertex
 10
40.421528
 20
40.164438
 30
0.0
  0
VERTEX
  5
322
330
313
100
AcDbEntity
  8
001
 62
    40
370
    50
100
AcDbVertex
100
AcDb2dVertex
 10
40.483261
 20
40.027585
 30
0.0
  0
VERTEX
  5
323
330
313
100
AcDbEntity
  8
001
 62
    40
370
    50
100
AcDbVertex
100
AcDb2dVertex
 10
40.55112
 20
39.893665
 30
0.0
  0
VERTEX
  5
324
330
313
100
AcDbEntity
  8
001
 62
    40
370
    50
100
AcDbVertex
100
AcDb2dVertex
 10
40.623832
 20
39.765096
 30
0.0
  0
VERTEX
  5
325
330
313
100
AcDbEntity
  8
001
 62
    40
370
    50
100
AcDbVertex
100
AcDb2dVertex
 10
40.70248
 20
39.640084
 30
0.0
  0
VERTEX
  5
326
330
313
100
AcDbEntity
  8
001
 62
    40
370
    50
100
AcDbVertex
100
AcDb2dVertex
 10
40.779619
 20
39.5291
 30
0.0
  0
VERTEX
  5
327
330
313
100
AcDbEntity
  8
001
 62
    40
370
    50
100
AcDbVertex
100
AcDb2dVertex
 10
40.86132
 20
39.421423
 30
0.0
  0
VERTEX
  5
328
330
313
100
AcDbEntity
  8
001
 62
    40
370
    50
100
AcDbVertex
100
AcDb2dVertex
 10
40.945216
 20
39.319302
 30
0.0
  0
VERTEX
  5
329
330
313
100
AcDbEntity
  8
001
 62
    40
370
    50
100
AcDbVertex
100
AcDb2dVertex
 10
41.03278
 20
39.220312
 30
0.0
  0
VERTEX
  5
32A
330
313
100
AcDbEntity
  8
001
 62
    40
370
    50
100
AcDbVertex
100
AcDb2dVertex
 10
41.120389
 20
39.12788
 30
0.0
  0
VERTEX
  5
32B
330
313
100
AcDbEntity
  8
001
 62
    40
370
    50
100
AcDbVertex
100
AcDb2dVertex
 10
41.210952
 20
39.038346
 30
0.0
  0
VERTEX
  5
32C
330
313
100
AcDbEntity
  8
001
 62
    40
370
    50
100
AcDbVertex
100
AcDb2dVertex
 10
41.298912
 20
38.956437
 30
0.0
  0
VERTEX
  5
32D
330
313
100
AcDbEntity
  8
001
 62
    40
370
    50
100
AcDbVertex
100
AcDb2dVertex
 10
41.388918
 20
38.876779
 30
0.0
  0
VERTEX
  5
32E
330
313
100
AcDbEntity
  8
001
 62
    40
370
    50
100
AcDbVertex
100
AcDb2dVertex
 10
41.47568
 20
38.803121
 30
0.0
  0
VERTEX
  5
32F
330
313
100
AcDbEntity
  8
001
 62
    40
370
    50
100
AcDbVertex
100
AcDb2dVertex
 10
41.563609
 20
38.730862
 30
0.0
  0
VERTEX
  5
330
330
313
100
AcDbEntity
  8
001
 62
    40
370
    50
100
AcDbVertex
100
AcDb2dVertex
 10
41.646168
 20
38.664565
 30
0.0
  0
VERTEX
  5
331
330
313
100
AcDbEntity
  8
001
 62
    40
370
    50
100
AcDbVertex
100
AcDb2dVertex
 10
41.729095
 20
38.598729
 30
0.0
  0
SEQEND
  5
314
330
313
100
AcDbEntity
  8
001
370
    50
  0
POLYLINE
  5
332
330
260
100
AcDbEntity
  8
001
 62
    40
370
    50
100
AcDb2dPolyline
 66
     1
 10
0.0
 20
0.0
 30
0.0
  0
VERTEX
  5
334
330
332
100
AcDbEntity
  8
001
 62
    40
370
    50
100
AcDbVertex
100
AcDb2dVertex
 10
42.707422
 20
43.392539
 30
0.0
  0
VERTEX
  5
335
330
332
100
AcDbEntity
  8
001
 62
    40
370
    50
100
AcDbVertex
100
AcDb2dVertex
 10
42.675062
 20
43.399279
 30
0.0
  0
VERTEX
  5
336
330
332
100
AcDbEntity
  8
001
 62
    40
370
    50
100
AcDbVertex
100
AcDb2dVertex
 10
42.628531
 20
43.408406
 30
0.0
  0
VERTEX
  5
337
330
332
100
AcDbEntity
  8
001
 62
    40
370
    50
100
AcDbVertex
100
AcDb2dVertex
 10
42.410702
 20
43.439296
 30
0.0
  0
VERTEX
  5
338
330
332
100
AcDbEntity
  8
001
 62
    40
370
    50
100
AcDbVertex
100
AcDb2dVertex
 10
42.218302
 20
43.445634
 30
0.0
  0
VERTEX
  5
339
330
332
100
AcDbEntity
  8
001
 62
    40
370
    50
100
AcDbVertex
100
AcDb2dVertex
 10
42.015932
 20
43.435391
 30
0.0
  0
VERTEX
  5
33A
330
332
100
AcDbEntity
  8
001
 62
    40
370
    50
100
AcDbVertex
100
AcDb2dVertex
 10
41.808071
 20
43.40842
 30
0.0
  0
VERTEX
  5
33B
330
332
100
AcDbEntity
  8
001
 62
    40
370
    50
100
AcDbVertex
100
AcDb2dVertex
 10
41.605911
 20
43.36275
 30
0.0
  0
VERTEX
  5
33C
330
332
100
AcDbEntity
  8
001
 62
    40
370
    50
100
AcDbVertex
100
AcDb2dVertex
 10
41.410304
 20
43.297895
 30
0.0
  0
VERTEX
  5
33D
330
332
100
AcDbEntity
  8
001
 62
    40
370
    50
100
AcDbVertex
100
AcDb2dVertex
 10
41.219223
 20
43.214333
 30
0.0
  0
VERTEX
  5
33E
330
332
100
AcDbEntity
  8
001
 62
    40
370
    50
100
AcDbVertex
100
AcDb2dVertex
 10
41.037086
 20
43.117417
 30
0.0
  0
VERTEX
  5
33F
330
332
100
AcDbEntity
  8
001
 62
    40
370
    50
100
AcDbVertex
100
AcDb2dVertex
 10
40.563234
 20
42.760316
 30
0.0
  0
VERTEX
  5
340
330
332
100
AcDbEntity
  8
001
 62
    40
370
    50
100
AcDbVertex
100
AcDb2dVertex
 10
40.172365
 20
42.22067
 30
0.0
  0
VERTEX
  5
341
330
332
100
AcDbEntity
  8
001
 62
    40
370
    50
100
AcDbVertex
100
AcDb2dVertex
 10
40.126478
 20
42.133299
 30
0.0
  0
VERTEX
  5
342
330
332
100
AcDbEntity
  8
001
 62
    40
370
    50
100
AcDbVertex
100
AcDb2dVertex
 10
40.096037
 20
42.071989
 30
0.0
  0
SEQEND
  5
333
330
332
100
AcDbEntity
  8
001
370
    50
  0
LINE
  5
343
330
260
100
AcDbEntity
  8
001
 62
    40
370
    50
100
AcDbLine
 10
44.319068
 20
46.543699
 30
0.0
 11
44.604873
 21
46.628659
 31
0.0
  0
POLYLINE
  5
344
330
260
100
AcDbEntity
  8
001
 62
    40
370
    50
100
AcDb2dPolyline
 66
     1
 10
0.0
 20
0.0
 30
0.0
  0
VERTEX
  5
346
330
344
100
AcDbEntity
  8
001
 62
    40
370
    50
100
AcDbVertex
100
AcDb2dVertex
 10
44.657058
 20
46.636402
 30
0.0
  0
VERTEX
  5
347
330
344
100
AcDbEntity
  8
001
 62
    40
370
    50
100
AcDbVertex
100
AcDb2dVertex
 10
44.65444
 20
46.636379
 30
0.0
  0
VERTEX
  5
348
330
344
100
AcDbEntity
  8
001
 62
    40
370
    50
100
AcDbVertex
100
AcDb2dVertex
 10
44.650616
 20
46.636282
 30
0.0
  0
VERTEX
  5
349
330
344
100
AcDbEntity
  8
001
 62
    40
370
    50
100
AcDbVertex
100
AcDb2dVertex
 10
44.623285
 20
46.633031
 30
0.0
  0
VERTEX
  5
34A
330
344
100
AcDbEntity
  8
001
 62
    40
370
    50
100
AcDbVertex
100
AcDb2dVertex
 10
44.604873
 20
46.628659
 30
0.0
  0
SEQEND
  5
345
330
344
100
AcDbEntity
  8
001
370
    50
  0
POLYLINE
  5
34B
330
260
100
AcDbEntity
  8
001
 62
    40
370
    50
100
AcDb2dPolyline
 66
     1
 10
0.0
 20
0.0
 30
0.0
  0
VERTEX
  5
34D
330
34B
100
AcDbEntity
  8
001
 62
    40
370
    50
100
AcDbVertex
100
AcDb2dVertex
 10
44.810931
 20
46.524059
 30
0.0
  0
VERTEX
  5
34E
330
34B
100
AcDbEntity
  8
001
 62
    40
370
    50
100
AcDbVertex
100
AcDb2dVertex
 10
44.808078
 20
46.531743
 30
0.0
  0
VERTEX
  5
34F
330
34B
100
AcDbEntity
  8
001
 62
    40
370
    50
100
AcDbVertex
100
AcDb2dVertex
 10
44.803688
 20
46.542324
 30
0.0
  0
VERTEX
  5
350
330
34B
100
AcDbEntity
  8
001
 62
    40
370
    50
100
AcDbVertex
100
AcDb2dVertex
 10
44.795989
 20
46.557423
 30
0.0
  0
VERTEX
  5
351
330
34B
100
AcDbEntity
  8
001
 62
    40
370
    50
100
AcDbVertex
100
AcDb2dVertex
 10
44.787489
 20
46.570174
 30
0.0
  0
VERTEX
  5
352
330
34B
100
AcDbEntity
  8
001
 62
    40
370
    50
100
AcDbVertex
100
AcDb2dVertex
 10
44.777687
 20
46.582375
 30
0.0
  0
VERTEX
  5
353
330
34B
100
AcDbEntity
  8
001
 62
    40
370
    50
100
AcDbVertex
100
AcDb2dVertex
 10
44.766605
 20
46.593959
 30
0.0
  0
VERTEX
  5
354
330
34B
100
AcDbEntity
  8
001
 62
    40
370
    50
100
AcDbVertex
100
AcDb2dVertex
 10
44.754648
 20
46.604138
 30
0.0
  0
VERTEX
  5
355
330
34B
100
AcDbEntity
  8
001
 62
    40
370
    50
100
AcDbVertex
100
AcDb2dVertex
 10
44.741671
 20
46.612957
 30
0.0
  0
VERTEX
  5
356
330
34B
100
AcDbEntity
  8
001
 62
    40
370
    50
100
AcDbVertex
100
AcDb2dVertex
 10
44.72771
 20
46.620467
 30
0.0
  0
VERTEX
  5
357
330
34B
100
AcDbEntity
  8
001
 62
    40
370
    50
100
AcDbVertex
100
AcDb2dVertex
 10
44.713444
 20
46.626591
 30
0.0
  0
VERTEX
  5
358
330
34B
100
AcDbEntity
  8
001
 62
    40
370
    50
100
AcDbVertex
100
AcDb2dVertex
 10
44.699039
 20
46.631276
 30
0.0
  0
VERTEX
  5
359
330
34B
100
AcDbEntity
  8
001
 62
    40
370
    50
100
AcDbVertex
100
AcDb2dVertex
 10
44.682781
 20
46.634445
 30
0.0
  0
VERTEX
  5
35A
330
34B
100
AcDbEntity
  8
001
 62
    40
370
    50
100
AcDbVertex
100
AcDb2dVertex
 10
44.667868
 20
46.635915
 30
0.0
  0
VERTEX
  5
35B
330
34B
100
AcDbEntity
  8
001
 62
    40
370
    50
100
AcDbVertex
100
AcDb2dVertex
 10
44.657058
 20
46.636402
 30
0.0
  0
SEQEND
  5
34C
330
34B
100
AcDbEntity
  8
001
370
    50
  0
LINE
  5
35C
330
260
100
AcDbEntity
  8
001
 62
    40
370
    50
100
AcDbLine
 10
45.397323
 20
46.636389
 30
0.0
 11
44.657058
 21
46.636402
 31
0.0
  0
POLYLINE
  5
35D
330
260
100
AcDbEntity
  8
001
 62
    40
370
    50
100
AcDb2dPolyline
 66
     1
 10
0.0
 20
0.0
 30
0.0
  0
VERTEX
  5
35F
330
35D
100
AcDbEntity
  8
001
 62
    40
370
    50
100
AcDbVertex
100
AcDb2dVertex
 10
45.57066
 20
46.524045
 30
0.0
  0
VERTEX
  5
360
330
35D
100
AcDbEntity
  8
001
 62
    40
370
    50
100
AcDbVertex
100
AcDb2dVertex
 10
45.568137
 20
46.529135
 30
0.0
  0
VERTEX
  5
361
330
35D
100
AcDbEntity
  8
001
 62
    40
370
    50
100
AcDbVertex
100
AcDb2dVertex
 10
45.564334
 20
46.536386
 30
0.0
  0
VERTEX
  5
362
330
35D
100
AcDbEntity
  8
001
 62
    40
370
    50
100
AcDbVertex
100
AcDb2dVertex
 10
45.532603
 20
46.580431
 30
0.0
  0
VERTEX
  5
363
330
35D
100
AcDbEntity
  8
001
 62
    40
370
    50
100
AcDbVertex
100
AcDb2dVertex
 10
45.493748
 20
46.609592
 30
0.0
  0
VERTEX
  5
364
330
35D
100
AcDbEntity
  8
001
 62
    40
370
    50
100
AcDbVertex
100
AcDb2dVertex
 10
45.478686
 20
46.61751
 30
0.0
  0
VERTEX
  5
365
330
35D
100
AcDbEntity
  8
001
 62
    40
370
    50
100
AcDbVertex
100
AcDb2dVertex
 10
45.463281
 20
46.624326
 30
0.0
  0
VERTEX
  5
366
330
35D
100
AcDbEntity
  8
001
 62
    40
370
    50
100
AcDbVertex
100
AcDb2dVertex
 10
45.447958
 20
46.629602
 30
0.0
  0
VERTEX
  5
367
330
35D
100
AcDbEntity
  8
001
 62
    40
370
    50
100
AcDbVertex
100
AcDb2dVertex
 10
45.430811
 20
46.63335
 30
0.0
  0
VERTEX
  5
368
330
35D
100
AcDbEntity
  8
001
 62
    40
370
    50
100
AcDbVertex
100
AcDb2dVertex
 10
45.411465
 20
46.635619
 30
0.0
  0
VERTEX
  5
369
330
35D
100
AcDbEntity
  8
001
 62
    40
370
    50
100
AcDbVertex
100
AcDb2dVertex
 10
45.397323
 20
46.636389
 30
0.0
  0
SEQEND
  5
35E
330
35D
100
AcDbEntity
  8
001
370
    50
  0
LINE
  5
36A
330
260
100
AcDbEntity
  8
001
 62
    40
370
    50
100
AcDbLine
 10
40.096037
 20
42.071989
 30
0.0
 11
39.115459
 21
44.157523
 31
0.0
  0
LINE
  5
36B
330
260
100
AcDbEntity
  8
001
 62
    40
370
    50
100
AcDbLine
 10
39.115459
 20
44.157523
 30
0.0
 11
41.951369
 21
45.000545
 31
0.0
  0
POLYLINE
  5
36C
330
260
100
AcDbEntity
  8
001
 62
    40
370
    50
100
AcDb2dPolyline
 66
     1
 10
0.0
 20
0.0
 30
0.0
  0
VERTEX
  5
36E
330
36C
100
AcDbEntity
  8
001
 62
    40
370
    50
100
AcDbVertex
100
AcDb2dVertex
 10
39.115459
 20
44.157523
 30
0.0
  0
VERTEX
  5
36F
330
36C
100
AcDbEntity
  8
001
 62
    40
370
    50
100
AcDbVertex
100
AcDb2dVertex
 10
38.979062
 20
44.304913
 30
0.0
  0
VERTEX
  5
370
330
36C
100
AcDbEntity
  8
001
 62
    40
370
    50
100
AcDbVertex
100
AcDb2dVertex
 10
38.769077
 20
44.509345
 30
0.0
  0
VERTEX
  5
371
330
36C
100
AcDbEntity
  8
001
 62
    40
370
    50
100
AcDbVertex
100
AcDb2dVertex
 10
38.564796
 20
44.680444
 30
0.0
  0
VERTEX
  5
372
330
36C
100
AcDbEntity
  8
001
 62
    40
370
    50
100
AcDbVertex
100
AcDb2dVertex
 10
38.418531
 20
44.789665
 30
0.0
  0
SEQEND
  5
36D
330
36C
100
AcDbEntity
  8
001
370
    50
  0
POLYLINE
  5
373
330
260
100
AcDbEntity
  8
001
 62
    40
370
    50
100
AcDb2dPolyline
 66
     1
 10
0.0
 20
0.0
 30
0.0
  0
VERTEX
  5
375
330
373
100
AcDbEntity
  8
001
 62
    40
370
    50
100
AcDbVertex
100
AcDb2dVertex
 10
39.420522
 20
36.079711
 30
0.0
  0
VERTEX
  5
376
330
373
100
AcDbEntity
  8
001
 62
    40
370
    50
100
AcDbVertex
100
AcDb2dVertex
 10
39.603358
 20
35.932207
 30
0.0
  0
VERTEX
  5
377
330
373
100
AcDbEntity
  8
001
 62
    40
370
    50
100
AcDbVertex
100
AcDb2dVertex
 10
39.8789
 20
35.727887
 30
0.0
  0
VERTEX
  5
378
330
373
100
AcDbEntity
  8
001
 62
    40
370
    50
100
AcDbVertex
100
AcDb2dVertex
 10
40.140245
 20
35.556793
 30
0.0
  0
VERTEX
  5
379
330
373
100
AcDbEntity
  8
001
 62
    40
370
    50
100
AcDbVertex
100
AcDb2dVertex
 10
40.324138
 20
35.447566
 30
0.0
  0
SEQEND
  5
374
330
373
100
AcDbEntity
  8
001
370
    50
  0
POLYLINE
  5
37A
330
260
100
AcDbEntity
  8
001
 62
    40
370
    50
100
AcDb2dPolyline
 66
     1
 10
0.0
 20
0.0
 30
0.0
  0
VERTEX
  5
37C
330
37A
100
AcDbEntity
  8
001
 62
    40
370
    50
100
AcDbVertex
100
AcDb2dVertex
 10
36.232383
 20
44.129128
 30
0.0
  0
VERTEX
  5
37D
330
37A
100
AcDbEntity
  8
001
 62
    40
370
    50
100
AcDbVertex
100
AcDb2dVertex
 10
36.180414
 20
43.962403
 30
0.0
  0
VERTEX
  5
37E
330
37A
100
AcDbEntity
  8
001
 62
    40
370
    50
100
AcDbVertex
100
AcDb2dVertex
 10
36.118831
 20
43.715054
 30
0.0
  0
VERTEX
  5
37F
330
37A
100
AcDbEntity
  8
001
 62
    40
370
    50
100
AcDbVertex
100
AcDb2dVertex
 10
36.07235
 20
43.437899
 30
0.0
  0
VERTEX
  5
380
330
37A
100
AcDbEntity
  8
001
 62
    40
370
    50
100
AcDbVertex
100
AcDb2dVertex
 10
36.050832
 20
43.246511
 30
0.0
  0
SEQEND
  5
37B
330
37A
100
AcDbEntity
  8
001
370
    50
  0
POLYLINE
  5
381
330
260
100
AcDbEntity
  8
001
 62
    40
370
    50
100
AcDb2dPolyline
 66
     1
 10
0.0
 20
0.0
 30
0.0
  0
VERTEX
  5
383
330
381
100
AcDbEntity
  8
001
 62
    40
370
    50
100
AcDbVertex
100
AcDb2dVertex
 10
36.436142
 20
44.192345
 30
0.0
  0
VERTEX
  5
384
330
381
100
AcDbEntity
  8
001
 62
    40
370
    50
100
AcDbVertex
100
AcDb2dVertex
 10
36.384489
 20
44.177996
 30
0.0
  0
VERTEX
  5
385
330
381
100
AcDbEntity
  8
001
 62
    40
370
    50
100
AcDbVertex
100
AcDb2dVertex
 10
36.333096
 20
44.162808
 30
0.0
  0
VERTEX
  5
386
330
381
100
AcDbEntity
  8
001
 62
    40
370
    50
100
AcDbVertex
100
AcDb2dVertex
 10
36.282611
 20
44.14638
 30
0.0
  0
VERTEX
  5
387
330
381
100
AcDbEntity
  8
001
 62
    40
370
    50
100
AcDbVertex
100
AcDb2dVertex
 10
36.232383
 20
44.129128
 30
0.0
  0
SEQEND
  5
382
330
381
100
AcDbEntity
  8
001
370
    50
  0
POLYLINE
  5
388
330
260
100
AcDbEntity
  8
001
 62
    40
370
    50
100
AcDb2dPolyline
 66
     1
 10
0.0
 20
0.0
 30
0.0
  0
VERTEX
  5
38A
330
388
100
AcDbEntity
  8
001
 62
    40
370
    50
100
AcDbVertex
100
AcDb2dVertex
 10
36.436142
 20
44.192345
 30
0.0
  0
VERTEX
  5
38B
330
388
100
AcDbEntity
  8
001
 62
    40
370
    50
100
AcDbVertex
100
AcDb2dVertex
 10
36.462607
 20
44.19927
 30
0.0
  0
VERTEX
  5
38C
330
388
100
AcDbEntity
  8
001
 62
    40
370
    50
100
AcDbVertex
100
AcDb2dVertex
 10
36.500627
 20
44.209248
 30
0.0
  0
VERTEX
  5
38D
330
388
100
AcDbEntity
  8
001
 62
    40
370
    50
100
AcDbVertex
100
AcDb2dVertex
 10
36.700527
 20
44.262471
 30
0.0
  0
VERTEX
  5
38E
330
388
100
AcDbEntity
  8
001
 62
    40
370
    50
100
AcDbVertex
100
AcDb2dVertex
 10
36.874847
 20
44.310365
 30
0.0
  0
VERTEX
  5
38F
330
388
100
AcDbEntity
  8
001
 62
    40
370
    50
100
AcDbVertex
100
AcDb2dVertex
 10
37.059411
 20
44.362319
 30
0.0
  0
VERTEX
  5
390
330
388
100
AcDbEntity
  8
001
 62
    40
370
    50
100
AcDbVertex
100
AcDb2dVertex
 10
37.247763
 20
44.416192
 30
0.0
  0
VERTEX
  5
391
330
388
100
AcDbEntity
  8
001
 62
    40
370
    50
100
AcDbVertex
100
AcDb2dVertex
 10
37.583433
 20
44.515017
 30
0.0
  0
VERTEX
  5
392
330
388
100
AcDbEntity
  8
001
 62
    40
370
    50
100
AcDbVertex
100
AcDb2dVertex
 10
37.944743
 20
44.629067
 30
0.0
  0
VERTEX
  5
393
330
388
100
AcDbEntity
  8
001
 62
    40
370
    50
100
AcDbVertex
100
AcDb2dVertex
 10
38.220569
 20
44.72115
 30
0.0
  0
VERTEX
  5
394
330
388
100
AcDbEntity
  8
001
 62
    40
370
    50
100
AcDbVertex
100
AcDb2dVertex
 10
38.418531
 20
44.789665
 30
0.0
  0
SEQEND
  5
389
330
388
100
AcDbEntity
  8
001
370
    50
  0
LINE
  5
395
330
260
100
AcDbEntity
  8
001
 62
    40
370
    50
100
AcDbLine
 10
38.418531
 20
44.789665
 30
0.0
 11
42.137164
 21
45.895091
 31
0.0
  0
POLYLINE
  5
396
330
260
100
AcDbEntity
  8
001
 62
    40
370
    50
100
AcDb2dPolyline
 66
     1
 10
0.0
 20
0.0
 30
0.0
  0
VERTEX
  5
398
330
396
100
AcDbEntity
  8
001
 62
    40
370
    50
100
AcDbVertex
100
AcDb2dVertex
 10
39.984234
 20
35.354863
 30
0.0
  0
VERTEX
  5
399
330
396
100
AcDbEntity
  8
001
 62
    40
370
    50
100
AcDbVertex
100
AcDb2dVertex
 10
40.002247
 20
35.355796
 30
0.0
  0
VERTEX
  5
39A
330
396
100
AcDbEntity
  8
001
 62
    40
370
    50
100
AcDbVertex
100
AcDb2dVertex
 10
40.028174
 20
35.359902
 30
0.0
  0
VERTEX
  5
39B
330
396
100
AcDbEntity
  8
001
 62
    40
370
    50
100
AcDbVertex
100
AcDb2dVertex
 10
40.034221
 20
35.361443
 30
0.0
  0
VERTEX
  5
39C
330
396
100
AcDbEntity
  8
001
 62
    40
370
    50
100
AcDbVertex
100
AcDb2dVertex
 10
40.038332
 20
35.362605
 30
0.0
  0
SEQEND
  5
397
330
396
100
AcDbEntity
  8
001
370
    50
  0
LINE
  5
39D
330
260
100
AcDbEntity
  8
001
 62
    40
370
    50
100
AcDbLine
 10
39.791431
 20
35.467206
 30
0.0
 11
39.420522
 21
36.079711
 31
0.0
  0
POLYLINE
  5
39E
330
260
100
AcDbEntity
  8
001
 62
    40
370
    50
100
AcDb2dPolyline
 66
     1
 10
0.0
 20
0.0
 30
0.0
  0
VERTEX
  5
3A0
330
39E
100
AcDbEntity
  8
001
 62
    40
370
    50
100
AcDbVertex
100
AcDb2dVertex
 10
40.724498
 20
35.35485
 30
0.0
  0
VERTEX
  5
3A1
330
39E
100
AcDbEntity
  8
001
 62
    40
370
    50
100
AcDbVertex
100
AcDb2dVertex
 10
40.73818
 20
35.355425
 30
0.0
  0
VERTEX
  5
3A2
330
39E
100
AcDbEntity
  8
001
 62
    40
370
    50
100
AcDbVertex
100
AcDb2dVertex
 10
40.757986
 20
35.357888
 30
0.0
  0
VERTEX
  5
3A3
330
39E
100
AcDbEntity
  8
001
 62
    40
370
    50
100
AcDbVertex
100
AcDb2dVertex
 10
40.769706
 20
35.360447
 30
0.0
  0
VERTEX
  5
3A4
330
39E
100
AcDbEntity
  8
001
 62
    40
370
    50
100
AcDbVertex
100
AcDb2dVertex
 10
40.77764
 20
35.362592
 30
0.0
  0
SEQEND
  5
39F
330
39E
100
AcDbEntity
  8
001
370
    50
  0
POLYLINE
  5
3A5
330
260
100
AcDbEntity
  8
001
 62
    40
370
    50
100
AcDb2dPolyline
 66
     1
 10
0.0
 20
0.0
 30
0.0
  0
VERTEX
  5
3A7
330
3A5
100
AcDbEntity
  8
001
 62
    40
370
    50
100
AcDbVertex
100
AcDb2dVertex
 10
39.791431
 20
35.467206
 30
0.0
  0
VERTEX
  5
3A8
330
3A5
100
AcDbEntity
  8
001
 62
    40
370
    50
100
AcDbVertex
100
AcDb2dVertex
 10
39.797217
 20
35.458324
 30
0.0
  0
VERTEX
  5
3A9
330
3A5
100
AcDbEntity
  8
001
 62
    40
370
    50
100
AcDbVertex
100
AcDb2dVertex
 10
39.805721
 20
35.446261
 30
0.0
  0
VERTEX
  5
3AA
330
3A5
100
AcDbEntity
  8
001
 62
    40
370
    50
100
AcDbVertex
100
AcDb2dVertex
 10
39.817948
 20
35.431237
 30
0.0
  0
VERTEX
  5
3AB
330
3A5
100
AcDbEntity
  8
001
 62
    40
370
    50
100
AcDbVertex
100
AcDb2dVertex
 10
39.830362
 20
35.418748
 30
0.0
  0
VERTEX
  5
3AC
330
3A5
100
AcDbEntity
  8
001
 62
    40
370
    50
100
AcDbVertex
100
AcDb2dVertex
 10
39.844216
 20
35.406734
 30
0.0
  0
VERTEX
  5
3AD
330
3A5
100
AcDbEntity
  8
001
 62
    40
370
    50
100
AcDbVertex
100
AcDb2dVertex
 10
39.858958
 20
35.39537
 30
0.0
  0
VERTEX
  5
3AE
330
3A5
100
AcDbEntity
  8
001
 62
    40
370
    50
100
AcDbVertex
100
AcDb2dVertex
 10
39.888971
 20
35.376806
 30
0.0
  0
VERTEX
  5
3AF
330
3A5
100
AcDbEntity
  8
001
 62
    40
370
    50
100
AcDbVertex
100
AcDb2dVertex
 10
39.92444
 20
35.363716
 30
0.0
  0
VERTEX
  5
3B0
330
3A5
100
AcDbEntity
  8
001
 62
    40
370
    50
100
AcDbVertex
100
AcDb2dVertex
 10
39.958902
 20
35.357146
 30
0.0
  0
VERTEX
  5
3B1
330
3A5
100
AcDbEntity
  8
001
 62
    40
370
    50
100
AcDbVertex
100
AcDb2dVertex
 10
39.984234
 20
35.354863
 30
0.0
  0
SEQEND
  5
3A6
330
3A5
100
AcDbEntity
  8
001
370
    50
  0
LINE
  5
3B2
330
260
100
AcDbEntity
  8
001
 62
    40
370
    50
100
AcDbLine
 10
39.984234
 20
35.354863
 30
0.0
 11
40.724498
 21
35.35485
 31
0.0
  0
POLYLINE
  5
3B3
330
260
100
AcDbEntity
  8
001
 62
    40
370
    50
100
AcDb2dPolyline
 66
     1
 10
0.0
 20
0.0
 30
0.0
  0
VERTEX
  5
3B5
330
3B3
100
AcDbEntity
  8
001
 62
    40
370
    50
100
AcDbVertex
100
AcDb2dVertex
 10
36.232383
 20
44.129128
 30
0.0
  0
VERTEX
  5
3B6
330
3B3
100
AcDbEntity
  8
001
 62
    40
370
    50
100
AcDbVertex
100
AcDb2dVertex
 10
36.166422
 20
44.087799
 30
0.0
  0
VERTEX
  5
3B7
330
3B3
100
AcDbEntity
  8
001
 62
    40
370
    50
100
AcDbVertex
100
AcDb2dVertex
 10
36.103969
 20
44.041973
 30
0.0
  0
VERTEX
  5
3B8
330
3B3
100
AcDbEntity
  8
001
 62
    40
370
    50
100
AcDbVertex
100
AcDb2dVertex
 10
36.068141
 20
44.009389
 30
0.0
  0
VERTEX
  5
3B9
330
3B3
100
AcDbEntity
  8
001
 62
    40
370
    50
100
AcDbVertex
100
AcDb2dVertex
 10
36.034883
 20
43.974031
 30
0.0
  0
VERTEX
  5
3BA
330
3B3
100
AcDbEntity
  8
001
 62
    40
370
    50
100
AcDbVertex
100
AcDb2dVertex
 10
36.00441
 20
43.936818
 30
0.0
  0
VERTEX
  5
3BB
330
3B3
100
AcDbEntity
  8
001
 62
    40
370
    50
100
AcDbVertex
100
AcDb2dVertex
 10
35.976876
 20
43.897465
 30
0.0
  0
VERTEX
  5
3BC
330
3B3
100
AcDbEntity
  8
001
 62
    40
370
    50
100
AcDbVertex
100
AcDb2dVertex
 10
35.946181
 20
43.842384
 30
0.0
  0
VERTEX
  5
3BD
330
3B3
100
AcDbEntity
  8
001
 62
    40
370
    50
100
AcDbVertex
100
AcDb2dVertex
 10
35.923016
 20
43.783427
 30
0.0
  0
VERTEX
  5
3BE
330
3B3
100
AcDbEntity
  8
001
 62
    40
370
    50
100
AcDbVertex
100
AcDb2dVertex
 10
35.912532
 20
43.739993
 30
0.0
  0
VERTEX
  5
3BF
330
3B3
100
AcDbEntity
  8
001
 62
    40
370
    50
100
AcDbVertex
100
AcDb2dVertex
 10
35.909877
 20
43.695948
 30
0.0
  0
VERTEX
  5
3C0
330
3B3
100
AcDbEntity
  8
001
 62
    40
370
    50
100
AcDbVertex
100
AcDb2dVertex
 10
35.913344
 20
43.667856
 30
0.0
  0
VERTEX
  5
3C1
330
3B3
100
AcDbEntity
  8
001
 62
    40
370
    50
100
AcDbVertex
100
AcDb2dVertex
 10
35.919126
 20
43.639901
 30
0.0
  0
SEQEND
  5
3B4
330
3B3
100
AcDbEntity
  8
001
370
    50
  0
LINE
  5
3C2
330
260
100
AcDbEntity
  8
001
 62
    40
370
    50
100
AcDbLine
 10
36.050832
 20
43.246511
 30
0.0
 11
35.919126
 21
43.639901
 31
0.0
  0
LINE
  5
3C3
330
260
100
AcDbEntity
  8
001
 62
    40
370
    50
100
AcDbLine
 10
35.909874
 20
43.546308
 30
0.0
 11
39.420522
 21
36.079711
 31
0.0
  0
ENDBLK
  5
262
330
260
100
AcDbEntity
  8
0
100
AcDbBlockEnd
  0
BLOCK
  5
3C5
330
3C4
100
AcDbEntity
  8
0
100
AcDbBlockBegin
  2
*D3
 70
     1
 10
0.0
 20
0.0
 30
0.0
  3
*D3
  1

  0
LINE
  5
3C7
330
3C4
100
AcDbEntity
  8
001
370
     9
100
AcDbLine
 10
39.420522
 20
36.079711
 30
0.0
 11
49.098553
 21
15.496057
 31
0.0
  0
LINE
  5
3C8
330
3C4
100
AcDbEntity
  8
001
370
     9
100
AcDbLine
 10
35.909874
 20
31.023236
 30
0.0
 11
35.909874
 21
12.550214
 31
0.0
  0
ARC
  5
3C9
330
3C4
100
AcDbEntity
  8
001
370
     9
100
AcDbCircle
 10
35.909874
 20
43.546308
 30
0.0
 40
28.24609371335583
100
AcDbArc
 50
270.0
 51
295.181992
  0
POLYLINE
  5
3CA
330
3C4
100
AcDbEntity
  8
001
370
     9
100
AcDb2dPolyline
 66
     1
 10
0.0
 20
0.0
 30
0.0
  0
VERTEX
  5
3CC
330
3CA
100
AcDbEntity
  8
001
370
     9
100
AcDbVertex
100
AcDb2dVertex
 10
49.449073
 20
18.299699
 30
0.0
  0
VERTEX
  5
3CD
330
3CA
100
AcDbEntity
  8
001
370
     9
100
AcDbVertex
100
AcDb2dVertex
 10
47.928442
 20
17.9847
 30
0.0
  0
VERTEX
  5
3CE
330
3CA
100
AcDbEntity
  8
001
370
     9
100
AcDbVertex
100
AcDb2dVertex
 10
49.087847
 20
19.017813
 30
0.0
  0
SEQEND
  5
3CB
330
3CA
100
AcDbEntity
  8
001
370
     9
  0
POLYLINE
  5
3CF
330
3C4
100
AcDbEntity
  8
001
370
     9
100
AcDb2dPolyline
 66
     1
 10
0.0
 20
0.0
 30
0.0
  0
VERTEX
  5
3D1
330
3CF
100
AcDbEntity
  8
001
370
     9
100
AcDbVertex
100
AcDb2dVertex
 10
34.421073
 20
15.74182
 30
0.0
  0
VERTEX
  5
3D2
330
3CF
100
AcDbEntity
  8
001
370
     9
100
AcDbVertex
100
AcDb2dVertex
 10
35.909874
 20
15.300214
 30
0.0
  0
VERTEX
  5
3D3
330
3CF
100
AcDbEntity
  8
001
370
     9
100
AcDbVertex
100
AcDb2dVertex
 10
34.399732
 20
14.938256
 30
0.0
  0
SEQEND
  5
3D0
330
3CF
100
AcDbEntity
  8
001
370
     9
  0
TEXT
  5
3D4
330
3C4
100
AcDbEntity
  8
001
370
    30
100
AcDbText
 10
50.882042
 20
20.0052
 30
0.0
 40
4.0
  1
２５%%d
 50
44.875572
 41
0.978261
100
AcDbText
  0
POINT
  5
3D5
330
3C4
100
AcDbEntity
  8
001
370
     9
100
AcDbPoint
 10
39.420522
 20
36.079711
 30
0.0
  0
POINT
  5
3D6
330
3C4
100
AcDbEntity
  8
001
370
     9
100
AcDbPoint
 10
35.909874
 20
43.546308
 30
0.0
  0
POINT
  5
3D7
330
3C4
100
AcDbEntity
  8
001
370
     9
100
AcDbPoint
 10
35.909874
 20
43.546308
 30
0.0
  0
POINT
  5
3D8
330
3C4
100
AcDbEntity
  8
001
370
     9
100
AcDbPoint
 10
35.909874
 20
31.023236
 30
0.0
  0
ARC
  5
3D9
330
3C4
100
AcDbEntity
  8
001
370
     9
100
AcDbCircle
 10
35.909874
 20
43.546308
 30
0.0
 40
28.24609371335583
100
AcDbArc
 50
264.928876
 51
270.0
  0
ARC
  5
3DA
330
3C4
100
AcDbEntity
  8
001
370
     9
100
AcDbCircle
 10
35.909874
 20
43.546308
 30
0.0
 40
28.24609371335583
100
AcDbArc
 50
295.181992
 51
327.04627
  0
ENDBLK
  5
3C6
330
3C4
100
AcDbEntity
  8
0
100
AcDbBlockEnd
  0
BLOCK
  5
3DC
330
3DB
100
AcDbEntity
  8
0
100
AcDbBlockBegin
  2
*D4
 70
     1
 10
0.0
 20
0.0
 30
0.0
  3
*D4
  1

  0
LINE
  5
3DE
330
3DB
100
AcDbEntity
  8
001
370
     9
100
AcDbLine
 10
39.420522
 20
36.079711
 30
0.0
 11
39.420522
 21
19.105373
 31
0.0
  0
LINE
  5
3DF
330
3DB
100
AcDbEntity
  8
001
370
     9
100
AcDbLine
 10
35.909874
 20
31.023236
 30
0.0
 11
35.909874
 21
19.105373
 31
0.0
  0
LINE
  5
3E0
330
3DB
100
AcDbEntity
  8
001
370
     9
100
AcDbLine
 10
39.420522
 20
21.855373
 30
0.0
 11
35.909874
 21
21.855373
 31
0.0
  0
POLYLINE
  5
3E1
330
3DB
100
AcDbEntity
  8
001
370
     9
100
AcDb2dPolyline
 66
     1
 10
0.0
 20
0.0
 30
0.0
  0
VERTEX
  5
3E3
330
3E1
100
AcDbEntity
  8
001
370
     9
100
AcDbVertex
100
AcDb2dVertex
 10
40.920522
 20
21.453449
 30
0.0
  0
VERTEX
  5
3E4
330
3E1
100
AcDbEntity
  8
001
370
     9
100
AcDbVertex
100
AcDb2dVertex
 10
39.420522
 20
21.855373
 30
0.0
  0
VERTEX
  5
3E5
330
3E1
100
AcDbEntity
  8
001
370
     9
100
AcDbVertex
100
AcDb2dVertex
 10
40.920522
 20
22.257297
 30
0.0
  0
SEQEND
  5
3E2
330
3E1
100
AcDbEntity
  8
001
370
     9
  0
POLYLINE
  5
3E6
330
3DB
100
AcDbEntity
  8
001
370
     9
100
AcDb2dPolyline
 66
     1
 10
0.0
 20
0.0
 30
0.0
  0
VERTEX
  5
3E8
330
3E6
100
AcDbEntity
  8
001
370
     9
100
AcDbVertex
100
AcDb2dVertex
 10
34.409874
 20
22.257297
 30
0.0
  0
VERTEX
  5
3E9
330
3E6
100
AcDbEntity
  8
001
370
     9
100
AcDbVertex
100
AcDb2dVertex
 10
35.909874
 20
21.855373
 30
0.0
  0
VERTEX
  5
3EA
330
3E6
100
AcDbEntity
  8
001
370
     9
100
AcDbVertex
100
AcDb2dVertex
 10
34.409874
 20
21.453449
 30
0.0
  0
SEQEND
  5
3E7
330
3E6
100
AcDbEntity
  8
001
370
     9
  0
TEXT
  5
3EB
330
3DB
100
AcDbEntity
  8
001
370
    30
100
AcDbText
 10
12.409874
 20
22.855373
 30
0.0
 40
4.0
  1
（３．５）
 41
0.833333
100
AcDbText
  0
POINT
  5
3EC
330
3DB
100
AcDbEntity
  8
001
370
     9
100
AcDbPoint
 10
39.420522
 20
36.079711
 30
0.0
  0
POINT
  5
3ED
330
3DB
100
AcDbEntity
  8
001
370
     9
100
AcDbPoint
 10
35.909874
 20
31.023236
 30
0.0
  0
POINT
  5
3EE
330
3DB
100
AcDbEntity
  8
001
370
     9
100
AcDbPoint
 10
35.909874
 20
21.855373
 30
0.0
  0
LINE
  5
3EF
330
3DB
100
AcDbEntity
  8
001
370
     9
100
AcDbLine
 10
39.420522
 20
21.855373
 30
0.0
 11
41.920522
 21
21.855373
 31
0.0
  0
LINE
  5
3F0
330
3DB
100
AcDbEntity
  8
001
370
     9
100
AcDbLine
 10
35.909874
 20
21.855373
 30
0.0
 11
9.409874
 21
21.855373
 31
0.0
  0
ENDBLK
  5
3DD
330
3DB
100
AcDbEntity
  8
0
100
AcDbBlockEnd
  0
BLOCK
  5
3F2
330
3F1
100
AcDbEntity
  8
0
100
AcDbBlockBegin
  2
*D5
 70
     1
 10
0.0
 20
0.0
 30
0.0
  3
*D5
  1

  0
LINE
  5
3F4
330
3F1
100
AcDbEntity
  8
001
370
     9
100
AcDbLine
 10
35.909874
 20
34.064709
 30
0.0
 11
35.909874
 21
8.221568
 31
0.0
  0
LINE
  5
3F5
330
3F1
100
AcDbEntity
  8
001
370
     9
100
AcDbLine
 10
65.909874
 20
35.416973
 30
0.0
 11
65.909874
 21
8.221568
 31
0.0
  0
LINE
  5
3F6
330
3F1
100
AcDbEntity
  8
001
370
     9
100
AcDbLine
 10
35.909874
 20
10.971568
 30
0.0
 11
65.909874
 21
10.971568
 31
0.0
  0
POLYLINE
  5
3F7
330
3F1
100
AcDbEntity
  8
001
370
     9
100
AcDb2dPolyline
 66
     1
 10
0.0
 20
0.0
 30
0.0
  0
VERTEX
  5
3F9
330
3F7
100
AcDbEntity
  8
001
370
     9
100
AcDbVertex
100
AcDb2dVertex
 10
37.409874
 20
10.569644
 30
0.0
  0
VERTEX
  5
3FA
330
3F7
100
AcDbEntity
  8
001
370
     9
100
AcDbVertex
100
AcDb2dVertex
 10
35.909874
 20
10.971568
 30
0.0
  0
VERTEX
  5
3FB
330
3F7
100
AcDbEntity
  8
001
370
     9
100
AcDbVertex
100
AcDb2dVertex
 10
37.409874
 20
11.373492
 30
0.0
  0
SEQEND
  5
3F8
330
3F7
100
AcDbEntity
  8
001
370
     9
  0
POLYLINE
  5
3FC
330
3F1
100
AcDbEntity
  8
001
370
     9
100
AcDb2dPolyline
 66
     1
 10
0.0
 20
0.0
 30
0.0
  0
VERTEX
  5
3FE
330
3FC
100
AcDbEntity
  8
001
370
     9
100
AcDbVertex
100
AcDb2dVertex
 10
64.409874
 20
11.373492
 30
0.0
  0
VERTEX
  5
3FF
330
3FC
100
AcDbEntity
  8
001
370
     9
100
AcDbVertex
100
AcDb2dVertex
 10
65.909874
 20
10.971568
 30
0.0
  0
VERTEX
  5
400
330
3FC
100
AcDbEntity
  8
001
370
     9
100
AcDbVertex
100
AcDb2dVertex
 10
64.409874
 20
10.569644
 30
0.0
  0
SEQEND
  5
3FD
330
3FC
100
AcDbEntity
  8
001
370
     9
  0
TEXT
  5
401
330
3F1
100
AcDbEntity
  8
001
370
    30
100
AcDbText
 10
46.909874
 20
11.971568
 30
0.0
 40
4.0
  1
３０
 41
0.833333
100
AcDbText
  0
POINT
  5
402
330
3F1
100
AcDbEntity
  8
001
370
     9
100
AcDbPoint
 10
35.909874
 20
34.064709
 30
0.0
  0
POINT
  5
403
330
3F1
100
AcDbEntity
  8
001
370
     9
100
AcDbPoint
 10
65.909874
 20
35.416973
 30
0.0
  0
POINT
  5
404
330
3F1
100
AcDbEntity
  8
001
370
     9
100
AcDbPoint
 10
65.909874
 20
10.971568
 30
0.0
  0
ENDBLK
  5
3F3
330
3F1
100
AcDbEntity
  8
0
100
AcDbBlockEnd
  0
BLOCK
  5
406
330
405
100
AcDbEntity
  8
0
100
AcDbBlockBegin
  2
*D6
 70
     1
 10
0.0
 20
0.0
 30
0.0
  3
*D6
  1

  0
LINE
  5
408
330
405
100
AcDbEntity
  8
001
370
     9
100
AcDbLine
 10
160.909874
 20
39.816973
 30
0.0
 11
160.909874
 21
-1.111093
 31
0.0
  0
LINE
  5
409
330
405
100
AcDbEntity
  8
001
370
     9
100
AcDbLine
 10
35.909874
 20
34.064709
 30
0.0
 11
35.909874
 21
-1.111093
 31
0.0
  0
LINE
  5
40A
330
405
100
AcDbEntity
  8
001
370
     9
100
AcDbLine
 10
160.909874
 20
1.638907
 30
0.0
 11
35.909874
 21
1.638907
 31
0.0
  0
POLYLINE
  5
40B
330
405
100
AcDbEntity
  8
001
370
     9
100
AcDb2dPolyline
 66
     1
 10
0.0
 20
0.0
 30
0.0
  0
VERTEX
  5
40D
330
40B
100
AcDbEntity
  8
001
370
     9
100
AcDbVertex
100
AcDb2dVertex
 10
159.409874
 20
2.040831
 30
0.0
  0
VERTEX
  5
40E
330
40B
100
AcDbEntity
  8
001
370
     9
100
AcDbVertex
100
AcDb2dVertex
 10
160.909874
 20
1.638907
 30
0.0
  0
VERTEX
  5
40F
330
40B
100
AcDbEntity
  8
001
370
     9
100
AcDbVertex
100
AcDb2dVertex
 10
159.409874
 20
1.236983
 30
0.0
  0
SEQEND
  5
40C
330
40B
100
AcDbEntity
  8
001
370
     9
  0
POLYLINE
  5
410
330
405
100
AcDbEntity
  8
001
370
     9
100
AcDb2dPolyline
 66
     1
 10
0.0
 20
0.0
 30
0.0
  0
VERTEX
  5
412
330
410
100
AcDbEntity
  8
001
370
     9
100
AcDbVertex
100
AcDb2dVertex
 10
37.409874
 20
1.236983
 30
0.0
  0
VERTEX
  5
413
330
410
100
AcDbEntity
  8
001
370
     9
100
AcDbVertex
100
AcDb2dVertex
 10
35.909874
 20
1.638907
 30
0.0
  0
VERTEX
  5
414
330
410
100
AcDbEntity
  8
001
370
     9
100
AcDbVertex
100
AcDb2dVertex
 10
37.409874
 20
2.040831
 30
0.0
  0
SEQEND
  5
411
330
410
100
AcDbEntity
  8
001
370
     9
  0
TEXT
  5
415
330
405
100
AcDbEntity
  8
001
370
    30
100
AcDbText
 10
92.409874
 20
2.638907
 30
0.0
 40
4.0
  1
１２５
 41
0.833333
100
AcDbText
  0
POINT
  5
416
330
405
100
AcDbEntity
  8
001
370
     9
100
AcDbPoint
 10
160.909874
 20
39.816973
 30
0.0
  0
POINT
  5
417
330
405
100
AcDbEntity
  8
001
370
     9
100
AcDbPoint
 10
35.909874
 20
34.064709
 30
0.0
  0
POINT
  5
418
330
405
100
AcDbEntity
  8
001
370
     9
100
AcDbPoint
 10
35.909874
 20
1.638907
 30
0.0
  0
ENDBLK
  5
407
330
405
100
AcDbEntity
  8
0
100
AcDbBlockEnd
  0
BLOCK
  5
41A
330
419
100
AcDbEntity
  8
0
100
AcDbBlockBegin
  2
*D7
 70
     1
 10
0.0
 20
0.0
 30
0.0
  3
*D7
  1

  0
LINE
  5
41C
330
419
100
AcDbEntity
  8
001
370
     9
100
AcDbLine
 10
65.909874
 20
34.816973
 30
0.0
 11
65.909874
 21
8.221568
 31
0.0
  0
LINE
  5
41D
330
419
100
AcDbEntity
  8
001
370
     9
100
AcDbLine
 10
160.909874
 20
39.816973
 30
0.0
 11
160.909874
 21
8.221568
 31
0.0
  0
LINE
  5
41E
330
419
100
AcDbEntity
  8
001
370
     9
100
AcDbLine
 10
65.909874
 20
10.971568
 30
0.0
 11
160.909874
 21
10.971568
 31
0.0
  0
POLYLINE
  5
41F
330
419
100
AcDbEntity
  8
001
370
     9
100
AcDb2dPolyline
 66
     1
 10
0.0
 20
0.0
 30
0.0
  0
VERTEX
  5
421
330
41F
100
AcDbEntity
  8
001
370
     9
100
AcDbVertex
100
AcDb2dVertex
 10
67.409874
 20
10.569644
 30
0.0
  0
VERTEX
  5
422
330
41F
100
AcDbEntity
  8
001
370
     9
100
AcDbVertex
100
AcDb2dVertex
 10
65.909874
 20
10.971568
 30
0.0
  0
VERTEX
  5
423
330
41F
100
AcDbEntity
  8
001
370
     9
100
AcDbVertex
100
AcDb2dVertex
 10
67.409874
 20
11.373492
 30
0.0
  0
SEQEND
  5
420
330
41F
100
AcDbEntity
  8
001
370
     9
  0
POLYLINE
  5
424
330
419
100
AcDbEntity
  8
001
370
     9
100
AcDb2dPolyline
 66
     1
 10
0.0
 20
0.0
 30
0.0
  0
VERTEX
  5
426
330
424
100
AcDbEntity
  8
001
370
     9
100
AcDbVertex
100
AcDb2dVertex
 10
159.409874
 20
11.373492
 30
0.0
  0
VERTEX
  5
427
330
424
100
AcDbEntity
  8
001
370
     9
100
AcDbVertex
100
AcDb2dVertex
 10
160.909874
 20
10.971568
 30
0.0
  0
VERTEX
  5
428
330
424
100
AcDbEntity
  8
001
370
     9
100
AcDbVertex
100
AcDb2dVertex
 10
159.409874
 20
10.569644
 30
0.0
  0
SEQEND
  5
425
330
424
100
AcDbEntity
  8
001
370
     9
  0
TEXT
  5
429
330
419
100
AcDbEntity
  8
001
370
    30
100
AcDbText
 10
109.409874
 20
11.971568
 30
0.0
 40
4.0
  1
９５
 41
0.833333
100
AcDbText
  0
POINT
  5
42A
330
419
100
AcDbEntity
  8
001
370
     9
100
AcDbPoint
 10
65.909874
 20
34.816973
 30
0.0
  0
POINT
  5
42B
330
419
100
AcDbEntity
  8
001
370
     9
100
AcDbPoint
 10
160.909874
 20
39.816973
 30
0.0
  0
POINT
  5
42C
330
419
100
AcDbEntity
  8
001
370
     9
100
AcDbPoint
 10
160.909874
 20
10.971568
 30
0.0
  0
ENDBLK
  5
41B
330
419
100
AcDbEntity
  8
0
100
AcDbBlockEnd
  0
BLOCK
  5
42E
330
42D
100
AcDbEntity
  8
0
100
AcDbBlockBegin
  2
*D8
 70
     1
 10
0.0
 20
0.0
 30
0.0
  3
*D8
  1

  0
LINE
  5
430
330
42D
100
AcDbEntity
  8
001
370
     9
100
AcDbLine
 10
154.909874
 20
53.816973
 30
0.0
 11
188.733219
 21
53.816973
 31
0.0
  0
LINE
  5
431
330
42D
100
AcDbEntity
  8
001
370
     9
100
AcDbLine
 10
154.909874
 20
33.816973
 30
0.0
 11
188.733219
 21
33.816973
 31
0.0
  0
LINE
  5
432
330
42D
100
AcDbEntity
  8
001
370
     9
100
AcDbLine
 10
185.983219
 20
53.816973
 30
0.0
 11
185.983219
 21
33.816973
 31
0.0
  0
POLYLINE
  5
433
330
42D
100
AcDbEntity
  8
001
370
     9
100
AcDb2dPolyline
 66
     1
 10
0.0
 20
0.0
 30
0.0
  0
VERTEX
  5
435
330
433
100
AcDbEntity
  8
001
370
     9
100
AcDbVertex
100
AcDb2dVertex
 10
185.581295
 20
52.316973
 30
0.0
  0
VERTEX
  5
436
330
433
100
AcDbEntity
  8
001
370
     9
100
AcDbVertex
100
AcDb2dVertex
 10
185.983219
 20
53.816973
 30
0.0
  0
VERTEX
  5
437
330
433
100
AcDbEntity
  8
001
370
     9
100
AcDbVertex
100
AcDb2dVertex
 10
186.385143
 20
52.316973
 30
0.0
  0
SEQEND
  5
434
330
433
100
AcDbEntity
  8
001
370
     9
  0
POLYLINE
  5
438
330
42D
100
AcDbEntity
  8
001
370
     9
100
AcDb2dPolyline
 66
     1
 10
0.0
 20
0.0
 30
0.0
  0
VERTEX
  5
43A
330
438
100
AcDbEntity
  8
001
370
     9
100
AcDbVertex
100
AcDb2dVertex
 10
186.385143
 20
35.316973
 30
0.0
  0
VERTEX
  5
43B
330
438
100
AcDbEntity
  8
001
370
     9
100
AcDbVertex
100
AcDb2dVertex
 10
185.983219
 20
33.816973
 30
0.0
  0
VERTEX
  5
43C
330
438
100
AcDbEntity
  8
001
370
     9
100
AcDbVertex
100
AcDb2dVertex
 10
185.581295
 20
35.316973
 30
0.0
  0
SEQEND
  5
439
330
438
100
AcDbEntity
  8
001
370
     9
  0
TEXT
  5
43D
330
42D
100
AcDbEntity
  8
001
370
    30
100
AcDbText
 10
184.983219
 20
18.316973
 30
0.0
 40
4.0
  1
%%c２０
 50
90.000003
 41
0.882353
100
AcDbText
  0
POINT
  5
43E
330
42D
100
AcDbEntity
  8
001
370
     9
100
AcDbPoint
 10
154.909874
 20
53.816973
 30
0.0
  0
POINT
  5
43F
330
42D
100
AcDbEntity
  8
001
370
     9
100
AcDbPoint
 10
154.909874
 20
33.816973
 30
0.0
  0
POINT
  5
440
330
42D
100
AcDbEntity
  8
001
370
     9
100
AcDbPoint
 10
185.983219
 20
33.816973
 30
0.0
  0
LINE
  5
441
330
42D
100
AcDbEntity
  8
001
370
     9
100
AcDbLine
 10
185.983219
 20
33.816973
 30
0.0
 11
185.983219
 21
15.316973
 31
0.0
  0
ENDBLK
  5
42F
330
42D
100
AcDbEntity
  8
0
100
AcDbBlockEnd
  0
ENDSEC
  0
SECTION
  2
ENTITIES
  0
INSERT
  5
442
330
1F
100
AcDbEntity
  8
001
  6
ByBlock
 62
     0
370
    -2
100
AcDbBlockReference
  2
M-1-1
 10
0.0
 20
0.0
 30
0.0
  0
INSERT
  5
443
330
1F
100
AcDbEntity
  8
001
  6
ByBlock
 62
     0
370
    -2
100
AcDbBlockReference
  2
C32GUX-2
 10
0.0
 20
0.0
 30
0.0
  0
DIMENSION
  5
444
330
1F
100
AcDbEntity
  8
001
370
     9
100
AcDbDimension
  2
*D3
 10
35.909874
 20
43.546308
 30
0.0
 11
53.722748
 21
25.655898
 31
0.0
 70
    34
 71
     5
 42
-1.0
  3
Standard
100
AcDb2LineAngularDimension
 13
39.420522
 23
36.079711
 33
0.0
 14
35.909874
 24
43.546308
 34
0.0
 15
35.909874
 25
31.023236
 35
0.0
 16
42.067236
 26
15.979504
 36
0.0
  0
DIMENSION
  5
445
330
1F
100
AcDbEntity
  8
001
370
     9
100
AcDbDimension
  2
*D4
 10
35.909874
 20
21.855373
 30
0.0
 11
22.409874
 21
24.855373
 31
0.0
 70
   160
 71
     5
 42
-1.0
  3
Standard
100
AcDbAlignedDimension
 13
39.420522
 23
36.079711
 33
0.0
 14
35.909874
 24
31.023236
 34
0.0
 50
180.0
100
AcDbRotatedDimension
  0
DIMENSION
  5
446
330
1F
100
AcDbEntity
  8
001
370
     9
100
AcDbDimension
  2
*D5
 10
65.909874
 20
10.971568
 30
0.0
 11
50.909874
 21
13.971568
 31
0.0
 70
   160
 71
     5
 42
-1.0
  3
Standard
100
AcDbAlignedDimension
 13
35.909874
 23
34.064709
 33
0.0
 14
65.909874
 24
35.416973
 34
0.0
100
AcDbRotatedDimension
  0
TEXT
  5
447
330
1F
100
AcDbEntity
  8
001
370
    30
100
AcDbText
 10
23.189677
 20
45.571741
 30
0.0
 40
4.0
  1
%%c０．５５
 50
90.000003
 41
0.862069
100
AcDbText
  0
POLYLINE
  5
448
330
1F
100
AcDbEntity
  8
001
370
     9
100
AcDb2dPolyline
 66
     1
 10
0.0
 20
0.0
 30
0.0
  0
VERTEX
  5
44A
330
448
100
AcDbEntity
  8
001
370
     9
100
AcDbVertex
100
AcDb2dVertex
 10
24.591601
 20
45.046308
 30
0.0
  0
VERTEX
  5
44B
330
448
100
AcDbEntity
  8
001
370
     9
100
AcDbVertex
100
AcDb2dVertex
 10
24.189677
 20
43.546308
 30
0.0
  0
VERTEX
  5
44C
330
448
100
AcDbEntity
  8
001
370
     9
100
AcDbVertex
100
AcDb2dVertex
 10
23.787753
 20
45.046308
 30
0.0
  0
SEQEND
  5
449
330
448
100
AcDbEntity
  8
001
370
     9
  0
LINE
  5
44D
330
1F
100
AcDbEntity
  8
001
370
     9
100
AcDbLine
 10
24.189677
 20
68.571741
 30
0.0
 11
24.189677
 21
43.546308
 31
0.0
  0
POLYLINE
  5
44E
330
1F
100
AcDbEntity
  8
001
370
     9
100
AcDb2dPolyline
 66
     1
 10
0.0
 20
0.0
 30
0.0
  0
VERTEX
  5
450
330
44E
100
AcDbEntity
  8
001
370
     9
100
AcDbVertex
100
AcDb2dVertex
 10
35.909874
 20
43.546308
 30
0.0
  0
VERTEX
  5
451
330
44E
100
AcDbEntity
  8
001
370
     9
100
AcDbVertex
100
AcDb2dVertex
 10
24.189677
 20
43.546308
 30
0.0
  0
VERTEX
  5
452
330
44E
100
AcDbEntity
  8
001
370
     9
100
AcDbVertex
100
AcDb2dVertex
 10
21.439677
 20
43.546308
 30
0.0
  0
SEQEND
  5
44F
330
44E
100
AcDbEntity
  8
001
370
     9
  0
DIMENSION
  5
453
330
1F
100
AcDbEntity
  8
001
370
     9
100
AcDbDimension
  2
*D6
 10
35.909874
 20
1.638907
 30
0.0
 11
98.409874
 21
4.638907
 31
0.0
 70
   160
 71
     5
 42
-1.0
  3
Standard
100
AcDbAlignedDimension
 13
160.909874
 23
39.816973
 33
0.0
 14
35.909874
 24
34.064709
 34
0.0
 50
180.0
100
AcDbRotatedDimension
  0
DIMENSION
  5
454
330
1F
100
AcDbEntity
  8
001
370
     9
100
AcDbDimension
  2
*D7
 10
160.909874
 20
10.971568
 30
0.0
 11
113.409874
 21
13.971568
 31
0.0
 70
   160
 71
     5
 42
-1.0
  3
Standard
100
AcDbAlignedDimension
 13
65.909874
 23
34.816973
 33
0.0
 14
160.909874
 24
39.816973
 34
0.0
100
AcDbRotatedDimension
  0
DIMENSION
  5
455
330
1F
100
AcDbEntity
  8
001
370
     9
100
AcDbDimension
  2
*D8
 10
185.983219
 20
33.816973
 30
0.0
 11
182.983219
 21
24.316973
 31
0.0
 70
   160
 71
     5
 42
-1.0
  3
Standard
100
AcDbAlignedDimension
 13
154.909874
 23
53.816973
 33
0.0
 14
154.909874
 24
33.816973
 34
0.0
 50
270.0
100
AcDbRotatedDimension
  0
TEXT
  5
456
330
1F
100
AcDbEntity
  8
001
370
    30
100
AcDbText
 10
11.285632
 20
38.381032
 30
0.0
 40
4.0
  1
%%c１６．９９
 50
90.000003
 41
0.857143
100
AcDbText
  0
POLYLINE
  5
457
330
1F
100
AcDbEntity
  8
001
370
     9
100
AcDb2dPolyline
 66
     1
 10
0.0
 20
0.0
 30
0.0
  0
VERTEX
  5
459
330
457
100
AcDbEntity
  8
001
370
     9
100
AcDbVertex
100
AcDb2dVertex
 10
12.687556
 20
36.854863
 30
0.0
  0
VERTEX
  5
45A
330
457
100
AcDbEntity
  8
001
370
     9
100
AcDbVertex
100
AcDb2dVertex
 10
12.285632
 20
35.354863
 30
0.0
  0
VERTEX
  5
45B
330
457
100
AcDbEntity
  8
001
370
     9
100
AcDbVertex
100
AcDb2dVertex
 10
11.883708
 20
36.854863
 30
0.0
  0
SEQEND
  5
458
330
457
100
AcDbEntity
  8
001
370
     9
  0
LINE
  5
45C
330
1F
100
AcDbEntity
  8
001
370
     9
100
AcDbLine
 10
12.285632
 20
35.354863
 30
0.0
 11
12.285632
 21
52.346125
 31
0.0
  0
POLYLINE
  5
45D
330
1F
100
AcDbEntity
  8
001
370
     9
100
AcDb2dPolyline
 66
     1
 10
0.0
 20
0.0
 30
0.0
  0
VERTEX
  5
45F
330
45D
100
AcDbEntity
  8
001
370
     9
100
AcDbVertex
100
AcDb2dVertex
 10
39.984234
 20
35.354863
 30
0.0
  0
VERTEX
  5
460
330
45D
100
AcDbEntity
  8
001
370
     9
100
AcDbVertex
100
AcDb2dVertex
 10
12.285632
 20
35.354863
 30
0.0
  0
VERTEX
  5
461
330
45D
100
AcDbEntity
  8
001
370
     9
100
AcDbVertex
100
AcDb2dVertex
 10
9.535632
 20
35.354863
 30
0.0
  0
SEQEND
  5
45E
330
45D
100
AcDbEntity
  8
001
370
     9
  0
TEXT
  5
462
330
1F
100
AcDbEntity
  8
001
370
    30
100
AcDbText
 10
23.953048
 20
80.583259
 30
0.0
 40
8.0
  1
面取りカッター面面　ＳＮＫ２５１５Ｃ
 41
0.833333
100
AcDbText
  0
LINE
  5
463
330
1F
100
AcDbEntity
  8
001
  6
CENTER
 62
   253
370
     9
100
AcDbLine
 10
33.336023
 20
43.816973
 30
0.0
 11
170.105863
 21
43.816973
 31
0.0
  0
LINE
  5
464
330
1F
100
AcDbEntity
  8
001
370
    50
100
AcDbLine
 10
160.909874
 20
43.816973
 30
0.0
 11
166.349324
 21
46.957441
 31
0.0
  0
LINE
  5
465
330
1F
100
AcDbEntity
  8
001
370
    50
100
AcDbLine
 10
160.909874
 20
43.816973
 30
0.0
 11
166.349324
 21
40.676505
 31
0.0
  0
LINE
  5
466
330
1F
100
AcDbEntity
  8
001
 62
   253
370
    50
100
AcDbLine
 10
154.909874
 20
53.816973
 30
0.0
 11
67.509874
 21
53.816973
 31
0.0
  0
LINE
  5
467
330
1F
100
AcDbEntity
  8
001
 62
   253
370
    50
100
AcDbLine
 10
154.909874
 20
33.816973
 30
0.0
 11
67.509874
 21
33.816973
 31
0.0
  0
LINE
  5
468
330
1F
100
AcDbEntity
  8
001
 62
   253
370
    50
100
AcDbLine
 10
67.509874
 20
53.816973
 30
0.0
 11
67.509874
 21
33.816973
 31
0.0
  0
ARC
  5
469
330
1F
100
AcDbEntity
  8
001
 62
   253
370
    50
100
AcDbCircle
 10
154.909874
 20
47.816973
 30
0.0
 40
6.0
100
AcDbArc
 50
0.0
 51
90.0
  0
ARC
  5
46A
330
1F
100
AcDbEntity
  8
001
 62
   253
370
    50
100
AcDbCircle
 10
154.909874
 20
39.816973
 30
0.0
 40
6.0
100
AcDbArc
 50
270.0
 51
0.0
  0
LINE
  5
46B
330
1F
100
AcDbEntity
  8
001
 62
   253
370
    50
100
AcDbLine
 10
160.909874
 20
47.816973
 30
0.0
 11
160.909874
 21
39.816973
 31
0.0
  0
LINE
  5
46C
330
1F
100
AcDbEntity
  8
001
 62
   253
370
    50
100
AcDbLine
 10
67.509874
 20
53.816973
 30
0.0
 11
65.909874
 21
52.216973
 31
0.0
  0
LINE
  5
46D
330
1F
100
AcDbEntity
  8
001
 62
   253
370
    50
100
AcDbLine
 10
67.509874
 20
33.816973
 30
0.0
 11
65.909874
 21
35.416973
 31
0.0
  0
LINE
  5
46E
330
1F
100
AcDbEntity
  8
001
 62
   253
370
    50
100
AcDbLine
 10
65.909874
 20
52.216973
 30
0.0
 11
65.909874
 21
35.416973
 31
0.0
  0
LINE
  5
46F
330
1F
100
AcDbEntity
  8
001
 62
   253
370
    50
100
AcDbLine
 10
40.685238
 20
52.216973
 30
0.0
 11
40.685238
 21
52.139271
 31
0.0
  0
POLYLINE
  5
470
330
1F
100
AcDbEntity
  8
001
 62
   253
370
    50
100
AcDb2dPolyline
 66
     1
 10
0.0
 20
0.0
 30
0.0
  0
VERTEX
  5
472
330
470
100
AcDbEntity
  8
001
 62
   253
370
    50
100
AcDbVertex
100
AcDb2dVertex
 10
41.553661
 20
35.593277
 30
0.0
  0
VERTEX
  5
473
330
470
100
AcDbEntity
  8
001
 62
   253
370
    50
100
AcDbVertex
100
AcDb2dVertex
 10
41.928106
 20
35.572627
 30
0.0
  0
VERTEX
  5
474
330
470
100
AcDbEntity
  8
001
 62
   253
370
    50
100
AcDbVertex
100
AcDb2dVertex
 10
42.475474
 20
35.544588
 30
0.0
  0
VERTEX
  5
475
330
470
100
AcDbEntity
  8
001
 62
   253
370
    50
100
AcDbVertex
100
AcDb2dVertex
 10
45.626177
 20
35.440578
 30
0.0
  0
VERTEX
  5
476
330
470
100
AcDbEntity
  8
001
 62
   253
370
    50
100
AcDbVertex
100
AcDb2dVertex
 10
47.783351
 20
35.416973
 30
0.0
  0
SEQEND
  5
471
330
470
100
AcDbEntity
  8
001
370
    50
  0
LINE
  5
477
330
1F
100
AcDbEntity
  8
001
 62
   253
370
    50
100
AcDbLine
 10
65.909874
 20
52.216973
 30
0.0
 11
40.685238
 21
52.216973
 31
0.0
  0
LINE
  5
478
330
1F
100
AcDbEntity
  8
001
 62
   253
370
    50
100
AcDbLine
 10
65.909874
 20
35.416973
 30
0.0
 11
47.783351
 21
35.416973
 31
0.0
  0
POLYLINE
  5
479
330
1F
100
AcDbEntity
  8
001
 62
   253
370
    50
100
AcDb2dPolyline
 66
     1
 10
0.0
 20
0.0
 30
0.0
  0
VERTEX
  5
47B
330
479
100
AcDbEntity
  8
001
 62
   253
370
    50
100
AcDbVertex
100
AcDb2dVertex
 10
50.909874
 20
36.403543
 30
0.0
  0
VERTEX
  5
47C
330
479
100
AcDbEntity
  8
001
 62
   253
370
    50
100
AcDbVertex
100
AcDb2dVertex
 10
50.96833
 20
36.459709
 30
0.0
  0
VERTEX
  5
47D
330
479
100
AcDbEntity
  8
001
 62
   253
370
    50
100
AcDbVertex
100
AcDb2dVertex
 10
51.052191
 20
36.54236
 30
0.0
  0
VERTEX
  5
47E
330
479
100
AcDbEntity
  8
001
 62
   253
370
    50
100
AcDbVertex
100
AcDb2dVertex
 10
52.19278
 20
38.058298
 30
0.0
  0
VERTEX
  5
47F
330
479
100
AcDbEntity
  8
001
 62
   253
370
    50
100
AcDbVertex
100
AcDb2dVertex
 10
52.801186
 20
39.616973
 30
0.0
  0
VERTEX
  5
480
330
479
100
AcDbEntity
  8
001
 62
   253
370
    50
100
AcDbVertex
100
AcDb2dVertex
 10
53.143769
 20
40.9599
 30
0.0
  0
VERTEX
  5
481
330
479
100
AcDbEntity
  8
001
 62
   253
370
    50
100
AcDbVertex
100
AcDb2dVertex
 10
53.368769
 20
42.358329
 30
0.0
  0
VERTEX
  5
482
330
479
100
AcDbEntity
  8
001
 62
   253
370
    50
100
AcDbVertex
100
AcDb2dVertex
 10
53.424462
 20
43.088616
 30
0.0
  0
VERTEX
  5
483
330
479
100
AcDbEntity
  8
001
 62
   253
370
    50
100
AcDbVertex
100
AcDb2dVertex
 10
53.441363
 20
43.816973
 30
0.0
  0
VERTEX
  5
484
330
479
100
AcDbEntity
  8
001
 62
   253
370
    50
100
AcDbVertex
100
AcDb2dVertex
 10
53.424462
 20
44.545331
 30
0.0
  0
VERTEX
  5
485
330
479
100
AcDbEntity
  8
001
 62
   253
370
    50
100
AcDbVertex
100
AcDb2dVertex
 10
53.368769
 20
45.275618
 30
0.0
  0
VERTEX
  5
486
330
479
100
AcDbEntity
  8
001
 62
   253
370
    50
100
AcDbVertex
100
AcDb2dVertex
 10
53.143769
 20
46.674047
 30
0.0
  0
VERTEX
  5
487
330
479
100
AcDbEntity
  8
001
 62
   253
370
    50
100
AcDbVertex
100
AcDb2dVertex
 10
52.801186
 20
48.016973
 30
0.0
  0
VERTEX
  5
488
330
479
100
AcDbEntity
  8
001
 62
   253
370
    50
100
AcDbVertex
100
AcDb2dVertex
 10
52.19278
 20
49.575648
 30
0.0
  0
VERTEX
  5
489
330
479
100
AcDbEntity
  8
001
 62
   253
370
    50
100
AcDbVertex
100
AcDb2dVertex
 10
51.052191
 20
51.091587
 30
0.0
  0
VERTEX
  5
48A
330
479
100
AcDbEntity
  8
001
 62
   253
370
    50
100
AcDbVertex
100
AcDb2dVertex
 10
50.96833
 20
51.174237
 30
0.0
  0
VERTEX
  5
48B
330
479
100
AcDbEntity
  8
001
 62
   253
370
    50
100
AcDbVertex
100
AcDb2dVertex
 10
50.909874
 20
51.230404
 30
0.0
  0
SEQEND
  5
47A
330
479
100
AcDbEntity
  8
001
370
    50
  0
POLYLINE
  5
48C
330
1F
100
AcDbEntity
  8
001
 62
   253
370
    50
100
AcDb2dPolyline
 66
     1
 10
0.0
 20
0.0
 30
0.0
  0
VERTEX
  5
48E
330
48C
100
AcDbEntity
  8
001
 62
   253
370
    50
100
AcDbVertex
100
AcDb2dVertex
 10
50.909874
 20
51.230404
 30
0.0
  0
VERTEX
  5
48F
330
48C
100
AcDbEntity
  8
001
 62
   253
370
    50
100
AcDbVertex
100
AcDb2dVertex
 10
49.392899
 20
51.431434
 30
0.0
  0
VERTEX
  5
490
330
48C
100
AcDbEntity
  8
001
 62
   253
370
    50
100
AcDbVertex
100
AcDb2dVertex
 10
47.235374
 20
51.673169
 30
0.0
  0
VERTEX
  5
491
330
48C
100
AcDbEntity
  8
001
 62
   253
370
    50
100
AcDbVertex
100
AcDb2dVertex
 10
44.648903
 20
51.908261
 30
0.0
  0
VERTEX
  5
492
330
48C
100
AcDbEntity
  8
001
 62
   253
370
    50
100
AcDbVertex
100
AcDb2dVertex
 10
41.845091
 20
52.089358
 30
0.0
  0
VERTEX
  5
493
330
48C
100
AcDbEntity
  8
001
 62
   253
370
    50
100
AcDbVertex
100
AcDb2dVertex
 10
41.156499
 20
52.120403
 30
0.0
  0
VERTEX
  5
494
330
48C
100
AcDbEntity
  8
001
 62
   253
370
    50
100
AcDbVertex
100
AcDb2dVertex
 10
40.685238
 20
52.139271
 30
0.0
  0
SEQEND
  5
48D
330
48C
100
AcDbEntity
  8
001
370
    50
  0
POLYLINE
  5
495
330
1F
100
AcDbEntity
  8
001
 62
   253
370
    50
100
AcDb2dPolyline
 66
     1
 10
0.0
 20
0.0
 30
0.0
  0
VERTEX
  5
497
330
495
100
AcDbEntity
  8
001
 62
   253
370
    50
100
AcDbVertex
100
AcDb2dVertex
 10
47.783351
 20
35.416973
 30
0.0
  0
VERTEX
  5
498
330
495
100
AcDbEntity
  8
001
 62
   253
370
    50
100
AcDbVertex
100
AcDb2dVertex
 10
48.391587
 20
35.41886
 30
0.0
  0
VERTEX
  5
499
330
495
100
AcDbEntity
  8
001
 62
   253
370
    50
100
AcDbVertex
100
AcDb2dVertex
 10
49.280499
 20
35.427055
 30
0.0
  0
VERTEX
  5
49A
330
495
100
AcDbEntity
  8
001
 62
   253
370
    50
100
AcDbVertex
100
AcDb2dVertex
 10
50.167336
 20
35.442791
 30
0.0
  0
VERTEX
  5
49B
330
495
100
AcDbEntity
  8
001
 62
   253
370
    50
100
AcDbVertex
100
AcDb2dVertex
 10
50.774052
 20
35.457276
 30
0.0
  0
SEQEND
  5
496
330
495
100
AcDbEntity
  8
001
370
    50
  0
POLYLINE
  5
49C
330
1F
100
AcDbEntity
  8
001
 62
   253
370
    50
100
AcDb2dPolyline
 66
     1
 10
0.0
 20
0.0
 30
0.0
  0
VERTEX
  5
49E
330
49C
100
AcDbEntity
  8
001
 62
   253
370
    50
100
AcDbVertex
100
AcDb2dVertex
 10
49.623069
 20
36.225695
 30
0.0
  0
VERTEX
  5
49F
330
49C
100
AcDbEntity
  8
001
 62
   253
370
    50
100
AcDbVertex
100
AcDb2dVertex
 10
49.67783
 20
36.176202
 30
0.0
  0
VERTEX
  5
4A0
330
49C
100
AcDbEntity
  8
001
 62
   253
370
    50
100
AcDbVertex
100
AcDb2dVertex
 10
49.755869
 20
36.106334
 30
0.0
  0
VERTEX
  5
4A1
330
49C
100
AcDbEntity
  8
001
 62
   253
370
    50
100
AcDbVertex
100
AcDb2dVertex
 10
50.05412
 20
35.850953
 30
0.0
  0
VERTEX
  5
4A2
330
49C
100
AcDbEntity
  8
001
 62
   253
370
    50
100
AcDbVertex
100
AcDb2dVertex
 10
50.371136
 20
35.644781
 30
0.0
  0
VERTEX
  5
4A3
330
49C
100
AcDbEntity
  8
001
 62
   253
370
    50
100
AcDbVertex
100
AcDb2dVertex
 10
50.600833
 20
35.529128
 30
0.0
  0
VERTEX
  5
4A4
330
49C
100
AcDbEntity
  8
001
 62
   253
370
    50
100
AcDbVertex
100
AcDb2dVertex
 10
50.774052
 20
35.457276
 30
0.0
  0
SEQEND
  5
49D
330
49C
100
AcDbEntity
  8
001
370
    50
  0
POLYLINE
  5
4A5
330
1F
100
AcDbEntity
  8
001
 62
   253
370
    50
100
AcDb2dPolyline
 66
     1
 10
0.0
 20
0.0
 30
0.0
  0
VERTEX
  5
4A7
330
4A5
100
AcDbEntity
  8
001
 62
   253
370
    50
100
AcDbVertex
100
AcDb2dVertex
 10
49.623069
 20
36.225695
 30
0.0
  0
VERTEX
  5
4A8
330
4A5
100
AcDbEntity
  8
001
 62
   253
370
    50
100
AcDbVertex
100
AcDb2dVertex
 10
49.886076
 20
36.260413
 30
0.0
  0
VERTEX
  5
4A9
330
4A5
100
AcDbEntity
  8
001
 62
   253
370
    50
100
AcDbVertex
100
AcDb2dVertex
 10
50.270284
 20
36.312536
 30
0.0
  0
VERTEX
  5
4AA
330
4A5
100
AcDbEntity
  8
001
 62
   253
370
    50
100
AcDbVertex
100
AcDb2dVertex
 10
50.650119
 20
36.366012
 30
0.0
  0
VERTEX
  5
4AB
330
4A5
100
AcDbEntity
  8
001
 62
   253
370
    50
100
AcDbVertex
100
AcDb2dVertex
 10
50.909874
 20
36.403543
 30
0.0
  0
SEQEND
  5
4A6
330
4A5
100
AcDbEntity
  8
001
370
    50
  0
LINE
  5
4AC
330
1F
100
AcDbEntity
  8
001
 62
   253
370
    50
100
AcDbLine
 10
50.909874
 20
51.230404
 30
0.0
 11
50.909874
 21
36.403543
 31
0.0
  0
POLYLINE
  5
4AD
330
1F
100
AcDbEntity
  8
001
 62
   253
370
    50
100
AcDb2dPolyline
 66
     1
 10
0.0
 20
0.0
 30
0.0
  0
VERTEX
  5
4AF
330
4AD
100
AcDbEntity
  8
001
 62
   253
370
    50
100
AcDbVertex
100
AcDb2dVertex
 10
43.925493
 20
47.347891
 30
0.0
  0
VERTEX
  5
4B0
330
4AD
100
AcDbEntity
  8
001
 62
   253
370
    50
100
AcDbVertex
100
AcDb2dVertex
 10
43.748729
 20
47.338287
 30
0.0
  0
VERTEX
  5
4B1
330
4AD
100
AcDbEntity
  8
001
 62
   253
370
    50
100
AcDbVertex
100
AcDb2dVertex
 10
43.506892
 20
47.30991
 30
0.0
  0
VERTEX
  5
4B2
330
4AD
100
AcDbEntity
  8
001
 62
   253
370
    50
100
AcDbVertex
100
AcDb2dVertex
 10
43.292495
 20
47.263041
 30
0.0
  0
VERTEX
  5
4B3
330
4AD
100
AcDbEntity
  8
001
 62
   253
370
    50
100
AcDbVertex
100
AcDb2dVertex
 10
43.10101
 20
47.197123
 30
0.0
  0
VERTEX
  5
4B4
330
4AD
100
AcDbEntity
  8
001
 62
   253
370
    50
100
AcDbVertex
100
AcDb2dVertex
 10
42.908655
 20
47.112054
 30
0.0
  0
VERTEX
  5
4B5
330
4AD
100
AcDbEntity
  8
001
 62
   253
370
    50
100
AcDbVertex
100
AcDb2dVertex
 10
42.72018
 20
47.012954
 30
0.0
  0
VERTEX
  5
4B6
330
4AD
100
AcDbEntity
  8
001
 62
   253
370
    50
100
AcDbVertex
100
AcDb2dVertex
 10
42.230501
 20
46.645894
 30
0.0
  0
VERTEX
  5
4B7
330
4AD
100
AcDbEntity
  8
001
 62
   253
370
    50
100
AcDbVertex
100
AcDb2dVertex
 10
41.83783
 20
46.097891
 30
0.0
  0
VERTEX
  5
4B8
330
4AD
100
AcDbEntity
  8
001
 62
   253
370
    50
100
AcDbVertex
100
AcDb2dVertex
 10
41.74569
 20
45.910697
 30
0.0
  0
VERTEX
  5
4B9
330
4AD
100
AcDbEntity
  8
001
 62
   253
370
    50
100
AcDbVertex
100
AcDb2dVertex
 10
41.687267
 20
45.776325
 30
0.0
  0
SEQEND
  5
4AE
330
4AD
100
AcDbEntity
  8
001
370
    50
  0
LINE
  5
4BA
330
1F
100
AcDbEntity
  8
001
 62
   253
370
    50
100
AcDbLine
 10
41.687267
 20
45.776325
 30
0.0
 11
37.909874
 21
44.653428
 31
0.0
  0
LINE
  5
4BB
330
1F
100
AcDbEntity
  8
001
 62
   253
370
    50
100
AcDbLine
 10
40.685238
 20
52.139271
 30
0.0
 11
37.909874
 21
46.974828
 31
0.0
  0
LINE
  5
4BC
330
1F
100
AcDbEntity
  8
001
 62
   253
370
    50
100
AcDbLine
 10
49.623069
 20
36.225695
 30
0.0
 11
46.088247
 21
43.743706
 31
0.0
  0
POLYLINE
  5
4BD
330
1F
100
AcDbEntity
  8
001
 62
   253
370
    50
100
AcDb2dPolyline
 66
     1
 10
0.0
 20
0.0
 30
0.0
  0
VERTEX
  5
4BF
330
4BD
100
AcDbEntity
  8
001
 62
   253
370
    50
100
AcDbVertex
100
AcDb2dVertex
 10
44.320327
 20
47.314129
 30
0.0
  0
VERTEX
  5
4C0
330
4BD
100
AcDbEntity
  8
001
 62
   253
370
    50
100
AcDbVertex
100
AcDb2dVertex
 10
44.310634
 20
47.312428
 30
0.0
  0
VERTEX
  5
4C1
330
4BD
100
AcDbEntity
  8
001
 62
   253
370
    50
100
AcDbVertex
100
AcDb2dVertex
 10
44.296561
 20
47.30991
 30
0.0
  0
VERTEX
  5
4C2
330
4BD
100
AcDbEntity
  8
001
 62
   253
370
    50
100
AcDbVertex
100
AcDb2dVertex
 10
44.075556
 20
47.260288
 30
0.0
  0
VERTEX
  5
4C3
330
4BD
100
AcDbEntity
  8
001
 62
   253
370
    50
100
AcDbVertex
100
AcDb2dVertex
 10
43.890678
 20
47.197123
 30
0.0
  0
VERTEX
  5
4C4
330
4BD
100
AcDbEntity
  8
001
 62
   253
370
    50
100
AcDbVertex
100
AcDb2dVertex
 10
43.700022
 20
47.1127
 30
0.0
  0
VERTEX
  5
4C5
330
4BD
100
AcDbEntity
  8
001
 62
   253
370
    50
100
AcDbVertex
100
AcDb2dVertex
 10
43.509847
 20
47.012954
 30
0.0
  0
VERTEX
  5
4C6
330
4BD
100
AcDbEntity
  8
001
 62
   253
370
    50
100
AcDbVertex
100
AcDb2dVertex
 10
43.024376
 20
46.648958
 30
0.0
  0
VERTEX
  5
4C7
330
4BD
100
AcDbEntity
  8
001
 62
   253
370
    50
100
AcDbVertex
100
AcDb2dVertex
 10
42.627494
 20
46.097891
 30
0.0
  0
VERTEX
  5
4C8
330
4BD
100
AcDbEntity
  8
001
 62
   253
370
    50
100
AcDbVertex
100
AcDb2dVertex
 10
42.600017
 20
46.04684
 30
0.0
  0
VERTEX
  5
4C9
330
4BD
100
AcDbEntity
  8
001
 62
   253
370
    50
100
AcDbVertex
100
AcDb2dVertex
 10
42.581504
 20
46.011376
 30
0.0
  0
SEQEND
  5
4BE
330
4BD
100
AcDbEntity
  8
001
370
    50
  0
POLYLINE
  5
4CA
330
1F
100
AcDbEntity
  8
001
 62
   253
370
    50
100
AcDb2dPolyline
 66
     1
 10
0.0
 20
0.0
 30
0.0
  0
VERTEX
  5
4CC
330
4CA
100
AcDbEntity
  8
001
 62
   253
370
    50
100
AcDbVertex
100
AcDb2dVertex
 10
46.088247
 20
43.743706
 30
0.0
  0
VERTEX
  5
4CD
330
4CA
100
AcDbEntity
  8
001
 62
   253
370
    50
100
AcDbVertex
100
AcDb2dVertex
 10
46.193975
 20
44.023306
 30
0.0
  0
VERTEX
  5
4CE
330
4CA
100
AcDbEntity
  8
001
 62
   253
370
    50
100
AcDbVertex
100
AcDb2dVertex
 10
46.299495
 20
44.413771
 30
0.0
  0
VERTEX
  5
4CF
330
4CA
100
AcDbEntity
  8
001
 62
   253
370
    50
100
AcDbVertex
100
AcDb2dVertex
 10
46.330091
 20
44.636721
 30
0.0
  0
VERTEX
  5
4D0
330
4CA
100
AcDbEntity
  8
001
 62
   253
370
    50
100
AcDbVertex
100
AcDb2dVertex
 10
46.336118
 20
44.847891
 30
0.0
  0
VERTEX
  5
4D1
330
4CA
100
AcDbEntity
  8
001
 62
   253
370
    50
100
AcDbVertex
100
AcDb2dVertex
 10
46.326057
 20
45.063742
 30
0.0
  0
VERTEX
  5
4D2
330
4CA
100
AcDbEntity
  8
001
 62
   253
370
    50
100
AcDbVertex
100
AcDb2dVertex
 10
46.299495
 20
45.282011
 30
0.0
  0
VERTEX
  5
4D3
330
4CA
100
AcDbEntity
  8
001
 62
   253
370
    50
100
AcDbVertex
100
AcDb2dVertex
 10
46.191725
 20
45.7028
 30
0.0
  0
VERTEX
  5
4D4
330
4CA
100
AcDbEntity
  8
001
 62
   253
370
    50
100
AcDbVertex
100
AcDb2dVertex
 10
46.013155
 20
46.097891
 30
0.0
  0
VERTEX
  5
4D5
330
4CA
100
AcDbEntity
  8
001
 62
   253
370
    50
100
AcDbVertex
100
AcDb2dVertex
 10
45.632858
 20
46.612692
 30
0.0
  0
VERTEX
  5
4D6
330
4CA
100
AcDbEntity
  8
001
 62
   253
370
    50
100
AcDbVertex
100
AcDb2dVertex
 10
45.130805
 20
47.012954
 30
0.0
  0
VERTEX
  5
4D7
330
4CA
100
AcDbEntity
  8
001
 62
   253
370
    50
100
AcDbVertex
100
AcDb2dVertex
 10
44.941695
 20
47.113758
 30
0.0
  0
VERTEX
  5
4D8
330
4CA
100
AcDbEntity
  8
001
 62
   253
370
    50
100
AcDbVertex
100
AcDb2dVertex
 10
44.749975
 20
47.197123
 30
0.0
  0
VERTEX
  5
4D9
330
4CA
100
AcDbEntity
  8
001
 62
   253
370
    50
100
AcDbVertex
100
AcDb2dVertex
 10
44.558656
 20
47.262595
 30
0.0
  0
VERTEX
  5
4DA
330
4CA
100
AcDbEntity
  8
001
 62
   253
370
    50
100
AcDbVertex
100
AcDb2dVertex
 10
44.344093
 20
47.30991
 30
0.0
  0
VERTEX
  5
4DB
330
4CA
100
AcDbEntity
  8
001
 62
   253
370
    50
100
AcDbVertex
100
AcDb2dVertex
 10
44.102224
 20
47.338376
 30
0.0
  0
VERTEX
  5
4DC
330
4CA
100
AcDbEntity
  8
001
 62
   253
370
    50
100
AcDbVertex
100
AcDb2dVertex
 10
43.925493
 20
47.347891
 30
0.0
  0
SEQEND
  5
4CB
330
4CA
100
AcDbEntity
  8
001
370
    50
  0
LINE
  5
4DD
330
1F
100
AcDbEntity
  8
001
 62
   253
370
    50
100
AcDbLine
 10
41.737638
 20
45.776325
 30
0.0
 11
41.687267
 21
45.776325
 31
0.0
  0
LINE
  5
4DE
330
1F
100
AcDbEntity
  8
001
 62
   253
370
    50
100
AcDbLine
 10
37.909874
 20
46.997273
 30
0.0
 11
37.909874
 21
44.617864
 31
0.0
  0
LINE
  5
4DF
330
1F
100
AcDbEntity
  8
001
 62
   253
370
    50
100
AcDbLine
 10
40.685238
 20
52.216973
 30
0.0
 11
37.909874
 21
46.997273
 31
0.0
  0
LINE
  5
4E0
330
1F
100
AcDbEntity
  8
001
 62
   253
370
     9
100
AcDbLine
 10
35.909874
 20
31.023236
 30
0.0
 11
35.909874
 21
43.715545
 31
0.0
  0
ENDSEC
  0
SECTION
  2
OBJECTS
  0
DICTIONARY
  5
C
330
0
100
AcDbDictionary
281
     1
  3
ACAD_GROUP
350
D
  3
ACAD_LAYOUT
350
1A
  3
ACAD_MLEADERSTYLE
350
4E4
  3
ACAD_MLINESTYLE
350
17
  3
ACAD_PLOTSETTINGS
350
19
  3
ACAD_PLOTSTYLENAME
350
E
  3
ACAD_SCALELIST
350
3B
  3
ACAD_TABLESTYLE
350
4E3
  3
ACAD_VISUALSTYLE
350
2A
  3
AcDbVariableDictionary
350
4E1
  0
DICTIONARY
  5
D
102
{ACAD_REACTORS
330
C
102
}
330
C
100
AcDbDictionary
281
     1
  0
DICTIONARY
  5
1A
102
{ACAD_REACTORS
330
C
102
}
330
C
100
AcDbDictionary
281
     1
  3
Layout1
350
1E
  3
Layout2
350
26
  3
Model
350
22
  0
DICTIONARY
  5
4E4
102
{ACAD_REACTORS
330
C
102
}
330
C
100
AcDbDictionary
281
     1
  0
DICTIONARY
  5
17
102
{ACAD_REACTORS
330
C
102
}
330
C
100
AcDbDictionary
281
     1
  3
Standard
350
18
  0
DICTIONARY
  5
19
102
{ACAD_REACTORS
330
C
102
}
330
C
100
AcDbDictionary
281
     1
  0
ACDBDICTIONARYWDFLT
  5
E
102
{ACAD_REACTORS
330
C
102
}
330
C
100
AcDbDictionary
281
     1
  3
Normal
350
F
100
AcDbDictionaryWithDefault
340
F
  0
DICTIONARY
  5
3B
102
{ACAD_REACTORS
330
C
102
}
330
C
100
AcDbDictionary
281
     1
  3
A0
350
3C
  3
A1
350
3D
  3
A2
350
3E
  3
A3
350
3F
  3
A4
350
40
  3
A5
350
41
  3
A6
350
42
  3
A7
350
43
  3
A8
350
44
  3
A9
350
45
  3
B0
350
46
  3
B1
350
47
  3
B2
350
48
  3
B3
350
49
  3
B4
350
4A
  3
B5
350
4B
  3
B6
350
4C
  3
B7
350
4D
  3
B8
350
4E
  3
B9
350
4F
  3
C0
350
50
  3
C1
350
51
  3
C2
350
52
  3
C3
350
53
  3
C4
350
54
  3
C5
350
55
  3
C6
350
56
  3
C7
350
57
  3
C8
350
58
  3
C9
350
59
  3
D0
350
5A
  3
D1
350
5B
  3
D2
350
5C
  0
DICTIONARY
  5
4E3
102
{ACAD_REACTORS
330
C
102
}
330
C
100
AcDbDictionary
281
     1
  0
DICTIONARY
  5
2A
102
{ACAD_REACTORS
330
C
102
}
330
C
100
AcDbDictionary
281
     1
  3
2dWireframe
350
2F
  3
3D Hidden
350
31
  3
3dWireframe
350
30
  3
Basic
350
32
  3
Brighten
350
36
  3
ColorChange
350
3A
  3
Conceptual
350
34
  3
Dim
350
35
  3
Facepattern
350
39
  3
Flat
350
2B
  3
FlatWithEdges
350
2C
  3
Gouraud
350
2D
  3
GouraudWithEdges
350
2E
  3
Linepattern
350
38
  3
Realistic
350
33
  3
Thicken
350
37
  0
DICTIONARY
  5
4E1
102
{ACAD_REACTORS
330
C
102
}
330
C
100
AcDbDictionary
281
     1
  3
CANNOSCALE
350
4E2
  3
PSOLHEIGHT
350
4E6
  3
PSOLWIDTH
350
4E5
  0
LAYOUT
  5
1E
102
{ACAD_REACTORS
330
1A
102
}
330
1A
100
AcDbPlotSettings
  1

  2
none_device
  4

  6

 40
0.0
 41
0.0
 42
0.0
 43
0.0
 44
0.0
 45
0.0
 46
0.0
 47
0.0
 48
0.0
 49
0.0
140
0.0
141
0.0
142
1.0
143
1.0
 70
   688
 72
     0
 73
     0
 74
     5
  7

 75
    16
147
1.0
148
0.0
149
0.0
100
AcDbLayout
  1
Layout1
 70
     1
 71
     1
 10
0.0
 20
0.0
 11
12.0
 21
9.0
 12
0.0
 22
0.0
 32
0.0
 14
1.000000E+20
 24
1.000000E+20
 34
0.0
 15
-1.000000E+20
 25
-1.000000E+20
 35
0.0
146
0.0
 13
0.0
 23
0.0
 33
0.0
 16
1.0
 26
0.0
 36
0.0
 17
0.0
 27
1.0
 37
0.0
 76
     0
330
1B
  0
LAYOUT
  5
26
102
{ACAD_REACTORS
330
1A
102
}
330
1A
100
AcDbPlotSettings
  1

  2
none_device
  4

  6

 40
0.0
 41
0.0
 42
0.0
 43
0.0
 44
0.0
 45
0.0
 46
0.0
 47
0.0
 48
0.0
 49
0.0
140
0.0
141
0.0
142
1.0
143
1.0
 70
   688
 72
     0
 73
     0
 74
     5
  7

 75
    16
147
1.0
148
0.0
149
0.0
100
AcDbLayout
  1
Layout2
 70
     1
 71
     2
 10
0.0
 20
0.0
 11
0.0
 21
0.0
 12
0.0
 22
0.0
 32
0.0
 14
0.0
 24
0.0
 34
0.0
 15
0.0
 25
0.0
 35
0.0
146
0.0
 13
0.0
 23
0.0
 33
0.0
 16
1.0
 26
0.0
 36
0.0
 17
0.0
 27
1.0
 37
0.0
 76
     0
330
23
  0
LAYOUT
  5
22
102
{ACAD_REACTORS
330
1A
102
}
330
1A
100
AcDbPlotSettings
  1

  2
none_device
  4

  6

 40
0.0
 41
0.0
 42
0.0
 43
0.0
 44
0.0
 45
0.0
 46
0.0
 47
0.0
 48
0.0
 49
0.0
140
0.0
141
0.0
142
1.0
143
1.0
 70
  1712
 72
     0
 73
     0
 74
     0
  7

 75
     0
147
1.0
148
0.0
149
0.0
100
AcDbLayout
  1
Model
 70
     1
 71
     0
 10
0.0
 20
0.0
 11
12.0
 21
9.0
 12
0.0
 22
0.0
 32
0.0
 14
7.285629
 24
-1.111092
 34
0.0
 15
188.733215
 25
88.58326
 35
0.0
146
0.0
 13
0.0
 23
0.0
 33
0.0
 16
1.0
 26
0.0
 36
0.0
 17
0.0
 27
1.0
 37
0.0
 76
     0
330
1F
331
29
  0
MLINESTYLE
  5
18
102
{ACAD_REACTORS
330
17
102
}
330
17
100
AcDbMlineStyle
  2
Standard
 70
     0
  3

 62
   256
 51
90.0
 52
90.0
 71
     2
 49
0.5
 62
   256
  6
BYLAYER
 49
-0.5
 62
   256
  6
BYLAYER
  0
ACDBPLACEHOLDER
  5
F
102
{ACAD_REACTORS
330
E
102
}
330
E
  0
SCALE
  5
3C
102
{ACAD_REACTORS
330
3B
102
}
330
3B
100
AcDbScale
 70
     0
300
1:1
140
1.0
141
1.0
290
     1
  0
SCALE
  5
3D
102
{ACAD_REACTORS
330
3B
102
}
330
3B
100
AcDbScale
 70
     0
300
1:2
140
1.0
141
2.0
290
     0
  0
SCALE
  5
3E
102
{ACAD_REACTORS
330
3B
102
}
330
3B
100
AcDbScale
 70
     0
300
1:4
140
1.0
141
4.0
290
     0
  0
SCALE
  5
3F
102
{ACAD_REACTORS
330
3B
102
}
330
3B
100
AcDbScale
 70
     0
300
1:5
140
1.0
141
5.0
290
     0
  0
SCALE
  5
40
102
{ACAD_REACTORS
330
3B
102
}
330
3B
100
AcDbScale
 70
     0
300
1:8
140
1.0
141
8.0
290
     0
  0
SCALE
  5
41
102
{ACAD_REACTORS
330
3B
102
}
330
3B
100
AcDbScale
 70
     0
300
1:10
140
1.0
141
10.0
290
     0
  0
SCALE
  5
42
102
{ACAD_REACTORS
330
3B
102
}
330
3B
100
AcDbScale
 70
     0
300
1:16
140
1.0
141
16.0
290
     0
  0
SCALE
  5
43
102
{ACAD_REACTORS
330
3B
102
}
330
3B
100
AcDbScale
 70
     0
300
1:20
140
1.0
141
20.0
290
     0
  0
SCALE
  5
44
102
{ACAD_REACTORS
330
3B
102
}
330
3B
100
AcDbScale
 70
     0
300
1:30
140
1.0
141
30.0
290
     0
  0
SCALE
  5
45
102
{ACAD_REACTORS
330
3B
102
}
330
3B
100
AcDbScale
 70
     0
300
1:40
140
1.0
141
40.0
290
     0
  0
SCALE
  5
46
102
{ACAD_REACTORS
330
3B
102
}
330
3B
100
AcDbScale
 70
     0
300
1:50
140
1.0
141
50.0
290
     0
  0
SCALE
  5
47
102
{ACAD_REACTORS
330
3B
102
}
330
3B
100
AcDbScale
 70
     0
300
1:100
140
1.0
141
100.0
290
     0
  0
SCALE
  5
48
102
{ACAD_REACTORS
330
3B
102
}
330
3B
100
AcDbScale
 70
     0
300
2:1
140
2.0
141
1.0
290
     0
  0
SCALE
  5
49
102
{ACAD_REACTORS
330
3B
102
}
330
3B
100
AcDbScale
 70
     0
300
4:1
140
4.0
141
1.0
290
     0
  0
SCALE
  5
4A
102
{ACAD_REACTORS
330
3B
102
}
330
3B
100
AcDbScale
 70
     0
300
8:1
140
8.0
141
1.0
290
     0
  0
SCALE
  5
4B
102
{ACAD_REACTORS
330
3B
102
}
330
3B
100
AcDbScale
 70
     0
300
10:1
140
10.0
141
1.0
290
     0
  0
SCALE
  5
4C
102
{ACAD_REACTORS
330
3B
102
}
330
3B
100
AcDbScale
 70
     0
300
100:1
140
100.0
141
1.0
290
     0
  0
SCALE
  5
4D
102
{ACAD_REACTORS
330
3B
102
}
330
3B
100
AcDbScale
 70
     0
300
1/128" = 1'-0"
140
0.007812
141
12.0
290
     0
  0
SCALE
  5
4E
102
{ACAD_REACTORS
330
3B
102
}
330
3B
100
AcDbScale
 70
     0
300
1/64" = 1'-0"
140
0.015625
141
12.0
290
     0
  0
SCALE
  5
4F
102
{ACAD_REACTORS
330
3B
102
}
330
3B
100
AcDbScale
 70
     0
300
1/32" = 1'-0"
140
0.03125
141
12.0
290
     0
  0
SCALE
  5
50
102
{ACAD_REACTORS
330
3B
102
}
330
3B
100
AcDbScale
 70
     0
300
1/16" = 1'-0"
140
0.0625
141
12.0
290
     0
  0
SCALE
  5
51
102
{ACAD_REACTORS
330
3B
102
}
330
3B
100
AcDbScale
 70
     0
300
3/32" = 1'-0"
140
0.09375
141
12.0
290
     0
  0
SCALE
  5
52
102
{ACAD_REACTORS
330
3B
102
}
330
3B
100
AcDbScale
 70
     0
300
1/8" = 1'-0"
140
0.125
141
12.0
290
     0
  0
SCALE
  5
53
102
{ACAD_REACTORS
330
3B
102
}
330
3B
100
AcDbScale
 70
     0
300
3/16" = 1'-0"
140
0.1875
141
12.0
290
     0
  0
SCALE
  5
54
102
{ACAD_REACTORS
330
3B
102
}
330
3B
100
AcDbScale
 70
     0
300
1/4" = 1'-0"
140
0.25
141
12.0
290
     0
  0
SCALE
  5
55
102
{ACAD_REACTORS
330
3B
102
}
330
3B
100
AcDbScale
 70
     0
300
3/8" = 1'-0"
140
0.375
141
12.0
290
     0
  0
SCALE
  5
56
102
{ACAD_REACTORS
330
3B
102
}
330
3B
100
AcDbScale
 70
     0
300
1/2" = 1'-0"
140
0.5
141
12.0
290
     0
  0
SCALE
  5
57
102
{ACAD_REACTORS
330
3B
102
}
330
3B
100
AcDbScale
 70
     0
300
3/4" = 1'-0"
140
0.75
141
12.0
290
     0
  0
SCALE
  5
58
102
{ACAD_REACTORS
330
3B
102
}
330
3B
100
AcDbScale
 70
     0
300
1" = 1'-0"
140
1.0
141
12.0
290
     0
  0
SCALE
  5
59
102
{ACAD_REACTORS
330
3B
102
}
330
3B
100
AcDbScale
 70
     0
300
1-1/2" = 1'-0"
140
1.5
141
12.0
290
     0
  0
SCALE
  5
5A
102
{ACAD_REACTORS
330
3B
102
}
330
3B
100
AcDbScale
 70
     0
300
3" = 1'-0"
140
3.0
141
12.0
290
     0
  0
SCALE
  5
5B
102
{ACAD_REACTORS
330
3B
102
}
330
3B
100
AcDbScale
 70
     0
300
6" = 1'-0"
140
6.0
141
12.0
290
     0
  0
SCALE
  5
5C
102
{ACAD_REACTORS
330
3B
102
}
330
3B
100
AcDbScale
 70
     0
300
1'-0" = 1'-0"
140
12.0
141
12.0
290
     0
  0
VISUALSTYLE
  5
2F
102
{ACAD_REACTORS
330
2A
102
}
330
2A
100
AcDbVisualStyle
  2
2dWireframe
 70
     4
 71
     0
 72
     2
 73
     0
 90
        0
 40
-0.6
 41
-30.0
 62
     5
 63
     7
 74
     1
 91
        4
 64
     7
 65
   257
 75
     1
175
     1
 42
1.0
 92
        0
 66
   257
 43
1.0
 76
     1
 77
     6
 78
     2
 67
     7
 79
     5
170
     0
171
     0
290
     0
174
     0
 93
        1
 44
0.0
173
     0
291
     0
 45
0.0
1001
ACAD
1000
AcDbSavedByObjectVersion
1070
     0
  0
VISUALSTYLE
  5
31
102
{ACAD_REACTORS
330
2A
102
}
330
2A
100
AcDbVisualStyle
  2
3D Hidden
 70
     6
 71
     1
 72
     2
 73
     2
 90
        0
 40
-0.6
 41
-30.0
 62
     5
 63
     7
 74
     2
 91
        2
 64
     7
 65
   257
 75
     2
175
     1
 42
40.0
 92
        0
 66
   257
 43
1.0
 76
     1
 77
     6
 78
     2
 67
     7
 79
     3
170
     0
171
     0
290
     0
174
     0
 93
        1
 44
0.0
173
     0
291
     0
 45
0.0
1001
ACAD
1000
AcDbSavedByObjectVersion
1070
     0
  0
VISUALSTYLE
  5
30
102
{ACAD_REACTORS
330
2A
102
}
330
2A
100
AcDbVisualStyle
  2
3dWireframe
 70
     5
 71
     0
 72
     2
 73
     0
 90
        0
 40
-0.6
 41
-30.0
 62
     5
 63
     7
 74
     1
 91
        4
 64
     7
 65
   257
 75
     1
175
     1
 42
1.0
 92
        0
 66
   257
 43
1.0
 76
     1
 77
     6
 78
     2
 67
     7
 79
     5
170
     0
171
     0
290
     0
174
     0
 93
        1
 44
0.0
173
     0
291
     0
 45
0.0
1001
ACAD
1000
AcDbSavedByObjectVersion
1070
     0
  0
VISUALSTYLE
  5
32
102
{ACAD_REACTORS
330
2A
102
}
330
2A
100
AcDbVisualStyle
  2
Basic
 70
     7
 71
     1
 72
     0
 73
     1
 90
        0
 40
-0.6
 41
-30.0
 62
     5
 63
     7
 74
     0
 91
        4
 64
     7
 65
   257
 75
     1
175
     1
 42
1.0
 92
        8
 66
     7
 43
1.0
 76
     1
 77
     6
 78
     2
 67
     7
 79
     5
170
     0
171
     0
290
     0
174
     0
 93
        1
 44
0.0
173
     0
291
     1
 45
0.0
1001
ACAD
1000
AcDbSavedByObjectVersion
1070
     0
  0
VISUALSTYLE
  5
36
102
{ACAD_REACTORS
330
2A
102
}
330
2A
100
AcDbVisualStyle
  2
Brighten
 70
    12
 71
     2
 72
     2
 73
     0
 90
        0
 40
-0.6
 41
-30.0
 62
     5
 63
     7
 74
     1
 91
        4
 64
     7
 65
   257
 75
     1
175
     1
 42
1.0
 92
        8
 66
     7
 43
1.0
 76
     1
 77
     6
 78
     2
 67
     7
 79
     5
170
     0
171
     0
290
     0
174
     0
 93
        1
 44
50.0
173
     0
291
     1
 45
0.0
1001
ACAD
1000
AcDbSavedByObjectVersion
1070
     0
  0
VISUALSTYLE
  5
3A
102
{ACAD_REACTORS
330
2A
102
}
330
2A
100
AcDbVisualStyle
  2
ColorChange
 70
    16
 71
     2
 72
     2
 73
     3
 90
        0
 40
-0.6
 41
-30.0
 62
     5
 63
     8
 74
     1
 91
        4
 64
     7
 65
   257
 75
     1
175
     1
 42
1.0
 92
        8
 66
     8
 43
1.0
 76
     1
 77
     6
 78
     2
 67
     7
 79
     5
170
     0
171
     0
290
     0
174
     0
 93
        1
 44
0.0
173
     0
291
     1
 45
0.0
1001
ACAD
1000
AcDbSavedByObjectVersion
1070
     0
  0
VISUALSTYLE
  5
34
102
{ACAD_REACTORS
330
2A
102
}
330
2A
100
AcDbVisualStyle
  2
Conceptual
 70
     9
 71
     3
 72
     2
 73
     0
 90
        0
 40
-0.6
 41
-30.0
 62
     5
 63
     7
 74
     2
 91
        2
 64
     7
 65
   257
 75
     1
175
     1
 42
40.0
 92
        8
 66
     7
 43
1.0
 76
     1
 77
     6
 78
     2
 67
     7
 79
     3
170
     0
171
     0
290
     0
174
     0
 93
        1
 44
0.0
173
     0
291
     0
 45
0.0
1001
ACAD
1000
AcDbSavedByObjectVersion
1070
     0
  0
VISUALSTYLE
  5
35
102
{ACAD_REACTORS
330
2A
102
}
330
2A
100
AcDbVisualStyle
  2
Dim
 70
    11
 71
     2
 72
     2
 73
     0
 90
        0
 40
-0.6
 41
-30.0
 62
     5
 63
     7
 74
     1
 91
        4
 64
     7
 65
   257
 75
     1
175
     1
 42
1.0
 92
        8
 66
     7
 43
1.0
 76
     1
 77
     6
 78
     2
 67
     7
 79
     5
170
     0
171
     0
290
     0
174
     0
 93
        1
 44
-50.0
173
     0
291
     1
 45
0.0
1001
ACAD
1000
AcDbSavedByObjectVersion
1070
     0
  0
VISUALSTYLE
  5
39
102
{ACAD_REACTORS
330
2A
102
}
330
2A
100
AcDbVisualStyle
  2
Facepattern
 70
    15
 71
     2
 72
     2
 73
     0
 90
        0
 40
-0.6
 41
-30.0
 62
     5
 63
     7
 74
     1
 91
        4
 64
     7
 65
   257
 75
     1
175
     1
 42
1.0
 92
        8
 66
     7
 43
1.0
 76
     1
 77
     6
 78
     2
 67
     7
 79
     5
170
     0
171
     0
290
     0
174
     0
 93
        1
 44
0.0
173
     0
291
     1
 45
0.0
1001
ACAD
1000
AcDbSavedByObjectVersion
1070
     0
  0
VISUALSTYLE
  5
2B
102
{ACAD_REACTORS
330
2A
102
}
330
2A
100
AcDbVisualStyle
  2
Flat
 70
     0
 71
     2
 72
     1
 73
     1
 90
        2
 40
-0.6
 41
30.0
 62
     5
 63
     7
 74
     0
 91
        4
 64
     7
 65
   257
 75
     1
175
     1
 42
1.0
 92
        8
 66
     7
 43
1.0
 76
     1
 77
     6
 78
     2
 67
     7
 79
     5
170
     0
171
     0
290
     0
174
     0
 93
       13
 44
0.0
173
     0
291
     1
 45
0.0
1001
ACAD
1000
AcDbSavedByObjectVersion
1070
     0
  0
VISUALSTYLE
  5
2C
102
{ACAD_REACTORS
330
2A
102
}
330
2A
100
AcDbVisualStyle
  2
FlatWithEdges
 70
     1
 71
     2
 72
     1
 73
     1
 90
        2
 40
-0.6
 41
30.0
 62
     5
 63
     7
 74
     1
 91
        4
 64
     7
 65
   257
 75
     1
175
     1
 42
1.0
 92
        0
 66
   257
 43
1.0
 76
     1
 77
     6
 78
     2
 67
     7
 79
     5
170
     0
171
     0
290
     0
174
     0
 93
       13
 44
0.0
173
     0
291
     1
 45
0.0
1001
ACAD
1000
AcDbSavedByObjectVersion
1070
     0
  0
VISUALSTYLE
  5
2D
102
{ACAD_REACTORS
330
2A
102
}
330
2A
100
AcDbVisualStyle
  2
Gouraud
 70
     2
 71
     2
 72
     2
 73
     1
 90
        2
 40
-0.6
 41
30.0
 62
     5
 63
     7
 74
     0
 91
        4
 64
     7
 65
   257
 75
     1
175
     1
 42
1.0
 92
        0
 66
     7
 43
1.0
 76
     1
 77
     6
 78
     2
 67
     7
 79
     5
170
     0
171
     0
290
     0
174
     0
 93
       13
 44
0.0
173
     0
291
     1
 45
0.0
1001
ACAD
1000
AcDbSavedByObjectVersion
1070
     0
  0
VISUALSTYLE
  5
2E
102
{ACAD_REACTORS
330
2A
102
}
330
2A
100
AcDbVisualStyle
  2
GouraudWithEdges
 70
     3
 71
     2
 72
     2
 73
     1
 90
        2
 40
-0.6
 41
30.0
 62
     5
 63
     7
 74
     1
 91
        4
 64
     7
 65
   257
 75
     1
175
     1
 42
1.0
 92
        0
 66
   257
 43
1.0
 76
     1
 77
     6
 78
     2
 67
     7
 79
     5
170
     0
171
     0
290
     0
174
     0
 93
       13
 44
0.0
173
     0
291
     1
 45
0.0
1001
ACAD
1000
AcDbSavedByObjectVersion
1070
     0
  0
VISUALSTYLE
  5
38
102
{ACAD_REACTORS
330
2A
102
}
330
2A
100
AcDbVisualStyle
  2
Linepattern
 70
    14
 71
     2
 72
     2
 73
     0
 90
        0
 40
-0.6
 41
-30.0
 62
     5
 63
     7
 74
     1
 91
        4
 64
     7
 65
   257
 75
     7
175
     7
 42
1.0
 92
        8
 66
     7
 43
1.0
 76
     1
 77
     6
 78
     2
 67
     7
 79
     5
170
     0
171
     0
290
     0
174
     0
 93
        1
 44
0.0
173
     0
291
     1
 45
0.0
1001
ACAD
1000
AcDbSavedByObjectVersion
1070
     0
  0
VISUALSTYLE
  5
33
102
{ACAD_REACTORS
330
2A
102
}
330
2A
100
AcDbVisualStyle
  2
Realistic
 70
     8
 71
     2
 72
     2
 73
     0
 90
        0
 40
-0.6
 41
-30.0
 62
     5
 63
     7
 74
     1
 91
        0
 64
     7
 65
   257
 75
     1
175
     1
 42
1.0
 92
        8
 66
     8
 43
1.0
 76
     1
 77
     6
 78
     2
 67
     7
 79
     5
170
     0
171
     0
290
     0
174
     0
 93
       13
 44
0.0
173
     0
291
     0
 45
0.0
1001
ACAD
1000
AcDbSavedByObjectVersion
1070
     0
  0
VISUALSTYLE
  5
37
102
{ACAD_REACTORS
330
2A
102
}
330
2A
100
AcDbVisualStyle
  2
Thicken
 70
    13
 71
     2
 72
     2
 73
     0
 90
        0
 40
-0.6
 41
-30.0
 62
     5
 63
     7
 74
     1
 91
        4
 64
     7
 65
   257
 75
     1
175
     1
 42
1.0
 92
       12
 66
     7
 43
1.0
 76
     1
 77
     6
 78
     2
 67
     7
 79
     5
170
     0
171
     0
290
     0
174
     0
 93
        1
 44
0.0
173
     0
291
     1
 45
0.0
1001
ACAD
1000
AcDbSavedByObjectVersion
1070
     0
  0
DICTIONARYVAR
  5
4E2
102
{ACAD_REACTORS
330
4E1
102
}
330
4E1
100
DictionaryVariables
280
     0
  1
1:1
  0
DICTIONARYVAR
  5
4E6
102
{ACAD_REACTORS
330
4E1
102
}
330
4E1
100
DictionaryVariables
280
     0
  1
80.000000
  0
DICTIONARYVAR
  5
4E5
102
{ACAD_REACTORS
330
4E1
102
}
330
4E1
100
DictionaryVariables
280
     0
  1
5.000000
  0
ENDSEC
  0
EOF
