  0
SECTION
  2
HEADER
  9
$ACADVER
  1
AC1015
  9
$ACADMAINTVER
 70
     6
  9
$DWGCODEPAGE
  3
ANSI_932
  9
$INSBASE
 10
0.0
 20
0.0
 30
0.0
  9
$EXTMIN
 10
66.380722
 20
40.398727
 30
0.0
  9
$EXTMAX
 10
248.019821
 20
126.128128
 30
0.0
  9
$LIMMIN
 10
0.0
 20
0.0
  9
$LIMMAX
 10
12.0
 20
9.0
  9
$ORTHOMODE
 70
     0
  9
$REGENMODE
 70
     1
  9
$FILLMODE
 70
     1
  9
$QTEXTMODE
 70
     0
  9
$MIRRTEXT
 70
     1
  9
$LTSCALE
 40
2.008539
  9
$ATTMODE
 70
     1
  9
$TEXTSIZE
 40
3.2
  9
$TRACEWID
 40
1.0
  9
$TEXTSTYLE
  7
Standard
  9
$CLAYER
  8
0
  9
$CELTYPE
  6
ByLayer
  9
$CECOLOR
 62
   256
  9
$CELTSCALE
 40
1.0
  9
$DISPSILH
 70
     0
  9
$DIMSCALE
 40
1.0
  9
$DIMASZ
 40
2.5
  9
$DIMEXO
 40
0.625
  9
$DIMDLI
 40
3.75
  9
$DIMRND
 40
0.0
  9
$DIMDLE
 40
0.0
  9
$DIMEXE
 40
1.25
  9
$DIMTP
 40
0.0
  9
$DIMTM
 40
0.0
  9
$DIMTXT
 40
2.5
  9
$DIMCEN
 40
0.09
  9
$DIMTSZ
 40
0.0
  9
$DIMTOL
 70
     0
  9
$DIMLIM
 70
     0
  9
$DIMTIH
 70
     0
  9
$DIMTOH
 70
     0
  9
$DIMSE1
 70
     0
  9
$DIMSE2
 70
     0
  9
$DIMTAD
 70
     0
  9
$DIMZIN
 70
     8
  9
$DIMBLK
  1

  9
$DIMASO
 70
     1
  9
$DIMSHO
 70
     0
  9
$DIMPOST
  1

  9
$DIMAPOST
  1

  9
$DIMALT
 70
     0
  9
$DIMALTD
 70
     3
  9
$DIMALTF
 40
0.03937
  9
$DIMLFAC
 40
1.0
  9
$DIMTOFL
 70
     1
  9
$DIMTVP
 40
0.0
  9
$DIMTIX
 70
     0
  9
$DIMSOXD
 70
     0
  9
$DIMSAH
 70
     0
  9
$DIMBLK1
  1

  9
$DIMBLK2
  1

  9
$DIMSTYLE
  2
ISO-25
  9
$DIMCLRD
 70
     0
  9
$DIMCLRE
 70
     0
  9
$DIMCLRT
 70
     0
  9
$DIMTFAC
 40
1.0
  9
$DIMGAP
 40
0.625
  9
$DIMJUST
 70
     0
  9
$DIMSD1
 70
     0
  9
$DIMSD2
 70
     0
  9
$DIMTOLJ
 70
     0
  9
$DIMTZIN
 70
     8
  9
$DIMALTZ
 70
     0
  9
$DIMALTTZ
 70
     0
  9
$DIMUPT
 70
     0
  9
$DIMDEC
 70
     2
  9
$DIMTDEC
 70
     2
  9
$DIMALTU
 70
     2
  9
$DIMALTTD
 70
     3
  9
$DIMTXSTY
  7
Standard
  9
$DIMAUNIT
 70
     0
  9
$DIMADEC
 70
     0
  9
$DIMALTRND
 40
0.0
  9
$DIMAZIN
 70
     0
  9
$DIMDSEP
 70
    44
  9
$DIMATFIT
 70
     3
  9
$DIMFRAC
 70
     0
  9
$DIMLDRBLK
  1

  9
$DIMLUNIT
 70
     2
  9
$DIMLWD
 70
    -2
  9
$DIMLWE
 70
    -2
  9
$DIMTMOVE
 70
     0
  9
$LUNITS
 70
     2
  9
$LUPREC
 70
     4
  9
$SKETCHINC
 40
1.0
  9
$FILLETRAD
 40
0.0
  9
$AUNITS
 70
     0
  9
$AUPREC
 70
     0
  9
$MENU
  1
.
  9
$ELEVATION
 40
0.0
  9
$PELEVATION
 40
0.0
  9
$THICKNESS
 40
0.0
  9
$LIMCHECK
 70
     0
  9
$CHAMFERA
 40
10.0
  9
$CHAMFERB
 40
10.0
  9
$CHAMFERC
 40
20.0
  9
$CHAMFERD
 40
0.0
  9
$SKPOLY
 70
     0
  9
$TDCREATE
 40
2456244.591099537
  9
$TDUCREATE
 40
2456244.216099537
  9
$TDUPDATE
 40
2456244.591099549
  9
$TDUUPDATE
 40
2456244.216099549
  9
$TDINDWG
 40
0.0000000116
  9
$TDUSRTIMER
 40
0.0000000116
  9
$USRTIMER
 70
     1
  9
$ANGBASE
 50
0.0
  9
$ANGDIR
 70
     0
  9
$PDMODE
 70
     0
  9
$PDSIZE
 40
0.0
  9
$PLINEWID
 40
0.0
  9
$SPLFRAME
 70
     0
  9
$SPLINETYPE
 70
     6
  9
$SPLINESEGS
 70
     8
  9
$HANDSEED
  5
4E2
  9
$SURFTAB1
 70
     6
  9
$SURFTAB2
 70
     6
  9
$SURFTYPE
 70
     6
  9
$SURFU
 70
     6
  9
$SURFV
 70
     6
  9
$UCSBASE
  2

  9
$UCSNAME
  2

  9
$UCSORG
 10
0.0
 20
0.0
 30
0.0
  9
$UCSXDIR
 10
1.0
 20
0.0
 30
0.0
  9
$UCSYDIR
 10
0.0
 20
1.0
 30
0.0
  9
$UCSORTHOREF
  2

  9
$UCSORTHOVIEW
 70
     0
  9
$UCSORGTOP
 10
0.0
 20
0.0
 30
0.0
  9
$UCSORGBOTTOM
 10
0.0
 20
0.0
 30
0.0
  9
$UCSORGLEFT
 10
0.0
 20
0.0
 30
0.0
  9
$UCSORGRIGHT
 10
0.0
 20
0.0
 30
0.0
  9
$UCSORGFRONT
 10
0.0
 20
0.0
 30
0.0
  9
$UCSORGBACK
 10
0.0
 20
0.0
 30
0.0
  9
$PUCSBASE
  2

  9
$PUCSNAME
  2

  9
$PUCSORG
 10
0.0
 20
0.0
 30
0.0
  9
$PUCSXDIR
 10
1.0
 20
0.0
 30
0.0
  9
$PUCSYDIR
 10
0.0
 20
1.0
 30
0.0
  9
$PUCSORTHOREF
  2

  9
$PUCSORTHOVIEW
 70
     0
  9
$PUCSORGTOP
 10
0.0
 20
0.0
 30
0.0
  9
$PUCSORGBOTTOM
 10
0.0
 20
0.0
 30
0.0
  9
$PUCSORGLEFT
 10
0.0
 20
0.0
 30
0.0
  9
$PUCSORGRIGHT
 10
0.0
 20
0.0
 30
0.0
  9
$PUCSORGFRONT
 10
0.0
 20
0.0
 30
0.0
  9
$PUCSORGBACK
 10
0.0
 20
0.0
 30
0.0
  9
$USERI1
 70
     0
  9
$USERI2
 70
     0
  9
$USERI3
 70
     0
  9
$USERI4
 70
     0
  9
$USERI5
 70
     0
  9
$USERR1
 40
0.0
  9
$USERR2
 40
0.0
  9
$USERR3
 40
0.0
  9
$USERR4
 40
0.0
  9
$USERR5
 40
0.0
  9
$WORLDVIEW
 70
     1
  9
$SHADEDGE
 70
     3
  9
$SHADEDIF
 70
    70
  9
$TILEMODE
 70
     1
  9
$MAXACTVP
 70
    64
  9
$PINSBASE
 10
0.0
 20
0.0
 30
0.0
  9
$PLIMCHECK
 70
     0
  9
$PEXTMIN
 10
1.000000E+20
 20
1.000000E+20
 30
0.0
  9
$PEXTMAX
 10
-1.000000E+20
 20
-1.000000E+20
 30
0.0
  9
$PLIMMIN
 10
0.0
 20
0.0
  9
$PLIMMAX
 10
12.0
 20
9.0
  9
$UNITMODE
 70
     0
  9
$VISRETAIN
 70
     1
  9
$PLINEGEN
 70
     0
  9
$PSLTSCALE
 70
     1
  9
$TREEDEPTH
 70
  3020
  9
$CMLSTYLE
  2
Standard
  9
$CMLJUST
 70
     0
  9
$CMLSCALE
 40
20.0
  9
$PROXYGRAPHICS
 70
     1
  9
$MEASUREMENT
 70
     1
  9
$CELWEIGHT
370
    -1
  9
$ENDCAPS
280
     0
  9
$JOINSTYLE
280
     0
  9
$LWDISPLAY
290
     0
  9
$INSUNITS
 70
     4
  9
$HYPERLINKBASE
  1

  9
$STYLESHEET
  1

  9
$XEDIT
290
     1
  9
$CEPSNTYPE
380
     0
  9
$PSTYLEMODE
290
     1
  9
$FINGERPRINTGUID
  2
{AF5C9FA4-35BF-45D2-895F-8517BC8E570C}
  9
$VERSIONGUID
  2
{FAEB1C32-E019-11D5-929B-00C0DF256EC4}
  9
$EXTNAMES
290
     1
  9
$PSVPSCALE
 40
0.0
  9
$OLESTARTUP
290
     0
  0
ENDSEC
  0
SECTION
  2
CLASSES
  0
CLASS
  1
ACDBDICTIONARYWDFLT
  2
AcDbDictionaryWithDefault
  3
ObjectDBX Classes
 90
        0
280
     0
281
     0
  0
CLASS
  1
VISUALSTYLE
  2
AcDbVisualStyle
  3
ObjectDBX Classes
 90
     4095
280
     0
281
     0
  0
CLASS
  1
SCALE
  2
AcDbScale
  3
ObjectDBX Classes
 90
     1153
280
     0
281
     0
  0
CLASS
  1
DICTIONARYVAR
  2
AcDbDictionaryVar
  3
ObjectDBX Classes
 90
        0
280
     0
281
     0
  0
CLASS
  1
ACDBPLACEHOLDER
  2
AcDbPlaceHolder
  3
ObjectDBX Classes
 90
        0
280
     0
281
     0
  0
CLASS
  1
LAYOUT
  2
AcDbLayout
  3
ObjectDBX Classes
 90
        0
280
     0
281
     0
  0
ENDSEC
  0
SECTION
  2
TABLES
  0
TABLE
  2
VPORT
  5
8
330
0
100
AcDbSymbolTable
 70
     1
  0
VPORT
  5
29
330
8
100
AcDbSymbolTableRecord
100
AcDbViewportTableRecord
  2
*Active
 70
     0
 10
0.0
 20
0.0
 11
1.0
 21
1.0
 12
157.200272
 22
83.263428
 13
0.0
 23
0.0
 14
1.0
 24
1.0
 15
0.0
 25
0.0
 16
0.0
 26
0.0
 36
1.0
 17
0.0
 27
0.0
 37
0.0
 40
108.470876
 41
1.691288
 42
50.0
 43
0.0
 44
0.0
 50
0.0
 51
0.0
 71
     0
 72
   100
 73
     1
 74
     3
 75
     0
 76
     0
 77
     0
 78
     0
281
     0
 65
     1
110
0.0
120
0.0
130
0.0
111
1.0
121
0.0
131
0.0
112
0.0
122
1.0
132
0.0
 79
     0
146
0.0
  0
ENDTAB
  0
TABLE
  2
LTYPE
  5
5
330
0
100
AcDbSymbolTable
 70
     5
  0
LTYPE
  5
14
330
5
100
AcDbSymbolTableRecord
100
AcDbLinetypeTableRecord
  2
ByBlock
 70
     0
  3

 72
    65
 73
     0
 40
0.0
  0
LTYPE
  5
15
330
5
100
AcDbSymbolTableRecord
100
AcDbLinetypeTableRecord
  2
ByLayer
 70
     0
  3

 72
    65
 73
     0
 40
0.0
  0
LTYPE
  5
16
330
5
100
AcDbSymbolTableRecord
100
AcDbLinetypeTableRecord
  2
Continuous
 70
     0
  3
Solid line
 72
    65
 73
     0
 40
0.0
  0
LTYPE
  5
5D
330
5
100
AcDbSymbolTableRecord
100
AcDbLinetypeTableRecord
  2
DASHED
 70
     0
  3
DASHED
 72
    83
 73
     2
 40
0.75
 49
0.5
 74
     0
 49
-0.25
 74
     0
  0
LTYPE
  5
5E
330
5
100
AcDbSymbolTableRecord
100
AcDbLinetypeTableRecord
  2
HIDDEN
 70
     0
  3
HIDDEN
 72
    83
 73
     2
 40
0.375
 49
0.25
 74
     0
 49
-0.125
 74
     0
  0
LTYPE
  5
5F
330
5
100
AcDbSymbolTableRecord
100
AcDbLinetypeTableRecord
  2
CENTER
 70
     0
  3
CENTER
 72
    83
 73
     4
 40
2.0
 49
1.25
 74
     0
 49
-0.25
 74
     0
 49
0.25
 74
     0
 49
-0.25
 74
     0
  0
LTYPE
  5
60
330
5
100
AcDbSymbolTableRecord
100
AcDbLinetypeTableRecord
  2
PHANTOM
 70
     0
  3
PHANTOM
 72
    83
 73
     6
 40
2.5
 49
1.25
 74
     0
 49
-0.25
 74
     0
 49
0.25
 74
     0
 49
-0.25
 74
     0
 49
0.25
 74
     0
 49
-0.25
 74
     0
  0
ENDTAB
  0
TABLE
  2
LAYER
  5
2
330
0
100
AcDbSymbolTable
 70
     2
  0
LAYER
  5
10
330
2
100
AcDbSymbolTableRecord
100
AcDbLayerTableRecord
  2
0
 70
     0
 62
     7
  6
Continuous
370
    -3
390
F
  0
LAYER
  5
61
330
2
100
AcDbSymbolTableRecord
100
AcDbLayerTableRecord
  2
001
 70
     0
 62
     7
  6
Continuous
370
    -3
390
F
  0
ENDTAB
  0
TABLE
  2
STYLE
  5
3
330
0
100
AcDbSymbolTable
 70
     2
  0
STYLE
  5
11
330
3
100
AcDbSymbolTableRecord
100
AcDbTextStyleTableRecord
  2
Standard
 70
     0
 40
0.0
 41
1.0
 50
0.0
 71
     0
 42
0.2
  3
TXT
  4
BIGFONT
  0
STYLE
  5
62
330
3
100
AcDbSymbolTableRecord
100
AcDbTextStyleTableRecord
  2
TATEGAKI
 70
     4
 40
1.0
 41
1.0
 50
0.0
 71
     0
 42
0.2
  3
TXT
  4
BIGFONT
  0
ENDTAB
  0
TABLE
  2
VIEW
  5
6
330
0
100
AcDbSymbolTable
 70
     0
  0
ENDTAB
  0
TABLE
  2
UCS
  5
7
330
0
100
AcDbSymbolTable
 70
     0
  0
ENDTAB
  0
TABLE
  2
APPID
  5
9
330
0
100
AcDbSymbolTable
 70
     1
  0
APPID
  5
12
330
9
100
AcDbSymbolTableRecord
100
AcDbRegAppTableRecord
  2
ACAD
 70
     0
  0
ENDTAB
  0
TABLE
  2
DIMSTYLE
  5
A
330
0
100
AcDbSymbolTable
 70
     2
100
AcDbDimStyleTable
  0
DIMSTYLE
105
27
330
A
100
AcDbSymbolTableRecord
100
AcDbDimStyleTableRecord
  2
ISO-25
 70
     0
 41
2.5
 42
0.625
 43
3.75
 44
1.25
 73
     0
 74
     0
 77
     1
 78
     8
140
2.5
141
2.5
143
0.03937
147
0.625
171
     3
172
     1
271
     2
272
     2
274
     3
278
    44
283
     0
284
     8
340
11
  0
DIMSTYLE
105
63
102
{ACAD_REACTORS
330
43E
330
43F
330
440
330
44D
330
44E
330
44F
102
}
330
A
100
AcDbSymbolTableRecord
100
AcDbDimStyleTableRecord
  2
Standard
 70
     0
 41
1.5
 42
0.0
 44
2.75
 73
     0
 74
     0
 77
     1
 78
     8
 79
     2
140
4.0
146
0.8
147
1.0
172
     1
179
     1
271
     1
340
11
  0
ENDTAB
  0
TABLE
  2
BLOCK_RECORD
  5
1
330
0
100
AcDbSymbolTable
 70
     9
  0
BLOCK_RECORD
  5
1F
330
1
100
AcDbSymbolTableRecord
100
AcDbBlockTableRecord
  2
*Model_Space
340
22
  0
BLOCK_RECORD
  5
1B
330
1
100
AcDbSymbolTableRecord
100
AcDbBlockTableRecord
  2
*Paper_Space
340
1E
  0
BLOCK_RECORD
  5
23
330
1
100
AcDbSymbolTableRecord
100
AcDbBlockTableRecord
  2
*Paper_Space0
340
26
  0
BLOCK_RECORD
  5
64
330
1
100
AcDbSymbolTableRecord
100
AcDbBlockTableRecord
  2
C32GUX-1
340
0
102
{BLKREFS
331
43C
102
}
  0
BLOCK_RECORD
  5
1C4
330
1
100
AcDbSymbolTableRecord
100
AcDbBlockTableRecord
  2
M-1-2
340
0
102
{BLKREFS
331
43D
102
}
  0
BLOCK_RECORD
  5
3BE
330
1
100
AcDbSymbolTableRecord
100
AcDbBlockTableRecord
  2
*D3
340
0
  0
BLOCK_RECORD
  5
3D2
330
1
100
AcDbSymbolTableRecord
100
AcDbBlockTableRecord
  2
*D4
340
0
  0
BLOCK_RECORD
  5
3E8
330
1
100
AcDbSymbolTableRecord
100
AcDbBlockTableRecord
  2
*D5
340
0
  0
BLOCK_RECORD
  5
3FF
330
1
100
AcDbSymbolTableRecord
100
AcDbBlockTableRecord
  2
*D6
340
0
  0
BLOCK_RECORD
  5
413
330
1
100
AcDbSymbolTableRecord
100
AcDbBlockTableRecord
  2
*D7
340
0
  0
BLOCK_RECORD
  5
427
330
1
100
AcDbSymbolTableRecord
100
AcDbBlockTableRecord
  2
*D8
340
0
  0
ENDTAB
  0
ENDSEC
  0
SECTION
  2
BLOCKS
  0
BLOCK
  5
20
330
1F
100
AcDbEntity
  8
0
100
AcDbBlockBegin
  2
*Model_Space
 70
     0
 10
0.0
 20
0.0
 30
0.0
  3
*Model_Space
  1

  0
ENDBLK
  5
21
330
1F
100
AcDbEntity
  8
0
100
AcDbBlockEnd
  0
BLOCK
  5
1C
330
1B
100
AcDbEntity
 67
     1
  8
0
100
AcDbBlockBegin
  2
*Paper_Space
 70
     0
 10
0.0
 20
0.0
 30
0.0
  3
*Paper_Space
  1

  0
ENDBLK
  5
1D
330
1B
100
AcDbEntity
 67
     1
  8
0
100
AcDbBlockEnd
  0
BLOCK
  5
24
330
23
100
AcDbEntity
  8
0
100
AcDbBlockBegin
  2
*Paper_Space0
 70
     0
 10
0.0
 20
0.0
 30
0.0
  3
*Paper_Space0
  1

  0
ENDBLK
  5
25
330
23
100
AcDbEntity
  8
0
100
AcDbBlockEnd
  0
BLOCK
  5
65
330
64
100
AcDbEntity
  8
0
100
AcDbBlockBegin
  2
C32GUX-1
 70
     0
 10
0.0
 20
0.0
 30
0.0
  3
C32GUX-1
  1

  0
LINE
  5
67
330
64
100
AcDbEntity
  8
001
 62
    40
370
    50
100
AcDbLine
 10
106.645857
 20
78.089671
 30
0.0
 11
106.808594
 21
77.669958
 31
0.0
  0
POLYLINE
  5
68
330
64
100
AcDbEntity
  8
001
 62
    40
370
    50
100
AcDb2dPolyline
 66
     1
 10
0.0
 20
0.0
 30
0.0
  0
VERTEX
  5
6A
330
68
100
AcDbEntity
  8
001
 62
    40
370
    50
100
AcDbVertex
100
AcDb2dVertex
 10
106.508011
 20
77.236818
 30
0.0
  0
VERTEX
  5
6B
330
68
100
AcDbEntity
  8
001
 62
    40
370
    50
100
AcDbVertex
100
AcDb2dVertex
 10
106.574918
 20
77.265239
 30
0.0
  0
VERTEX
  5
6C
330
68
100
AcDbEntity
  8
001
 62
    40
370
    50
100
AcDbVertex
100
AcDb2dVertex
 10
106.63852
 20
77.299409
 30
0.0
  0
VERTEX
  5
6D
330
68
100
AcDbEntity
  8
001
 62
    40
370
    50
100
AcDbVertex
100
AcDb2dVertex
 10
106.674298
 20
77.325114
 30
0.0
  0
VERTEX
  5
6E
330
68
100
AcDbEntity
  8
001
 62
    40
370
    50
100
AcDbVertex
100
AcDb2dVertex
 10
106.70744
 20
77.354272
 30
0.0
  0
VERTEX
  5
6F
330
68
100
AcDbEntity
  8
001
 62
    40
370
    50
100
AcDbVertex
100
AcDb2dVertex
 10
106.737306
 20
77.385746
 30
0.0
  0
VERTEX
  5
70
330
68
100
AcDbEntity
  8
001
 62
    40
370
    50
100
AcDbVertex
100
AcDb2dVertex
 10
106.764108
 20
77.419985
 30
0.0
  0
VERTEX
  5
71
330
68
100
AcDbEntity
  8
001
 62
    40
370
    50
100
AcDbVertex
100
AcDb2dVertex
 10
106.793992
 20
77.469989
 30
0.0
  0
VERTEX
  5
72
330
68
100
AcDbEntity
  8
001
 62
    40
370
    50
100
AcDbVertex
100
AcDb2dVertex
 10
106.814086
 20
77.524226
 30
0.0
  0
VERTEX
  5
73
330
68
100
AcDbEntity
  8
001
 62
    40
370
    50
100
AcDbVertex
100
AcDb2dVertex
 10
106.818838
 20
77.547328
 30
0.0
  0
VERTEX
  5
74
330
68
100
AcDbEntity
  8
001
 62
    40
370
    50
100
AcDbVertex
100
AcDb2dVertex
 10
106.822459
 20
77.570698
 30
0.0
  0
SEQEND
  5
69
330
68
100
AcDbEntity
  8
001
370
    50
  0
POLYLINE
  5
75
330
64
100
AcDbEntity
  8
001
 62
    40
370
    50
100
AcDb2dPolyline
 66
     1
 10
0.0
 20
0.0
 30
0.0
  0
VERTEX
  5
77
330
75
100
AcDbEntity
  8
001
 62
    40
370
    50
100
AcDbVertex
100
AcDb2dVertex
 10
106.508011
 20
77.236818
 30
0.0
  0
VERTEX
  5
78
330
75
100
AcDbEntity
  8
001
 62
    40
370
    50
100
AcDbVertex
100
AcDb2dVertex
 10
106.543241
 20
77.35666
 30
0.0
  0
VERTEX
  5
79
330
75
100
AcDbEntity
  8
001
 62
    40
370
    50
100
AcDbVertex
100
AcDb2dVertex
 10
106.585318
 20
77.534064
 30
0.0
  0
VERTEX
  5
7A
330
75
100
AcDbEntity
  8
001
 62
    40
370
    50
100
AcDbVertex
100
AcDb2dVertex
 10
106.631638
 20
77.862471
 30
0.0
  0
VERTEX
  5
7B
330
75
100
AcDbEntity
  8
001
 62
    40
370
    50
100
AcDbVertex
100
AcDb2dVertex
 10
106.645857
 20
78.089671
 30
0.0
  0
SEQEND
  5
76
330
75
100
AcDbEntity
  8
001
370
    50
  0
POLYLINE
  5
7C
330
64
100
AcDbEntity
  8
001
 62
    40
370
    50
100
AcDb2dPolyline
 66
     1
 10
0.0
 20
0.0
 30
0.0
  0
VERTEX
  5
7E
330
7C
100
AcDbEntity
  8
001
 62
    40
370
    50
100
AcDbVertex
100
AcDb2dVertex
 10
103.459381
 20
77.77255
 30
0.0
  0
VERTEX
  5
7F
330
7C
100
AcDbEntity
  8
001
 62
    40
370
    50
100
AcDbVertex
100
AcDb2dVertex
 10
103.612984
 20
77.597267
 30
0.0
  0
VERTEX
  5
80
330
7C
100
AcDbEntity
  8
001
 62
    40
370
    50
100
AcDbVertex
100
AcDb2dVertex
 10
103.847484
 20
77.350629
 30
0.0
  0
VERTEX
  5
81
330
7C
100
AcDbEntity
  8
001
 62
    40
370
    50
100
AcDbVertex
100
AcDb2dVertex
 10
104.0742
 20
77.138346
 30
0.0
  0
VERTEX
  5
82
330
7C
100
AcDbEntity
  8
001
 62
    40
370
    50
100
AcDbVertex
100
AcDb2dVertex
 10
104.235597
 20
76.999863
 30
0.0
  0
SEQEND
  5
7D
330
7C
100
AcDbEntity
  8
001
370
    50
  0
LINE
  5
83
330
64
100
AcDbEntity
  8
001
 62
    40
370
    50
100
AcDbLine
 10
102.858859
 20
80.008379
 30
0.0
 11
103.459381
 21
77.77255
 31
0.0
  0
POLYLINE
  5
84
330
64
100
AcDbEntity
  8
001
 62
    40
370
    50
100
AcDb2dPolyline
 66
     1
 10
0.0
 20
0.0
 30
0.0
  0
VERTEX
  5
86
330
84
100
AcDbEntity
  8
001
 62
    40
370
    50
100
AcDbVertex
100
AcDb2dVertex
 10
102.858859
 20
80.008379
 30
0.0
  0
VERTEX
  5
87
330
84
100
AcDbEntity
  8
001
 62
    40
370
    50
100
AcDbVertex
100
AcDb2dVertex
 10
102.921769
 20
80.158238
 30
0.0
  0
VERTEX
  5
88
330
84
100
AcDbEntity
  8
001
 62
    40
370
    50
100
AcDbVertex
100
AcDb2dVertex
 10
102.98119
 20
80.309452
 30
0.0
  0
VERTEX
  5
89
330
84
100
AcDbEntity
  8
001
 62
    40
370
    50
100
AcDbVertex
100
AcDb2dVertex
 10
103.035786
 20
80.468228
 30
0.0
  0
VERTEX
  5
8A
330
84
100
AcDbEntity
  8
001
 62
    40
370
    50
100
AcDbVertex
100
AcDb2dVertex
 10
103.082544
 20
80.62953
 30
0.0
  0
VERTEX
  5
8B
330
84
100
AcDbEntity
  8
001
 62
    40
370
    50
100
AcDbVertex
100
AcDb2dVertex
 10
103.120545
 20
80.790583
 30
0.0
  0
VERTEX
  5
8C
330
84
100
AcDbEntity
  8
001
 62
    40
370
    50
100
AcDbVertex
100
AcDb2dVertex
 10
103.150016
 20
80.953395
 30
0.0
  0
VERTEX
  5
8D
330
84
100
AcDbEntity
  8
001
 62
    40
370
    50
100
AcDbVertex
100
AcDb2dVertex
 10
103.170688
 20
81.120151
 30
0.0
  0
VERTEX
  5
8E
330
84
100
AcDbEntity
  8
001
 62
    40
370
    50
100
AcDbVertex
100
AcDb2dVertex
 10
103.181615
 20
81.287847
 30
0.0
  0
VERTEX
  5
8F
330
84
100
AcDbEntity
  8
001
 62
    40
370
    50
100
AcDbVertex
100
AcDb2dVertex
 10
103.182346
 20
81.456248
 30
0.0
  0
VERTEX
  5
90
330
84
100
AcDbEntity
  8
001
 62
    40
370
    50
100
AcDbVertex
100
AcDb2dVertex
 10
103.172211
 20
81.624313
 30
0.0
  0
VERTEX
  5
91
330
84
100
AcDbEntity
  8
001
 62
    40
370
    50
100
AcDbVertex
100
AcDb2dVertex
 10
103.153592
 20
81.773248
 30
0.0
  0
VERTEX
  5
92
330
84
100
AcDbEntity
  8
001
 62
    40
370
    50
100
AcDbVertex
100
AcDb2dVertex
 10
103.126141
 20
81.920821
 30
0.0
  0
VERTEX
  5
93
330
84
100
AcDbEntity
  8
001
 62
    40
370
    50
100
AcDbVertex
100
AcDb2dVertex
 10
103.089941
 20
82.067382
 30
0.0
  0
VERTEX
  5
94
330
84
100
AcDbEntity
  8
001
 62
    40
370
    50
100
AcDbVertex
100
AcDb2dVertex
 10
103.045309
 20
82.211597
 30
0.0
  0
VERTEX
  5
95
330
84
100
AcDbEntity
  8
001
 62
    40
370
    50
100
AcDbVertex
100
AcDb2dVertex
 10
102.992502
 20
82.352678
 30
0.0
  0
VERTEX
  5
96
330
84
100
AcDbEntity
  8
001
 62
    40
370
    50
100
AcDbVertex
100
AcDb2dVertex
 10
102.931518
 20
82.490406
 30
0.0
  0
VERTEX
  5
97
330
84
100
AcDbEntity
  8
001
 62
    40
370
    50
100
AcDbVertex
100
AcDb2dVertex
 10
102.867381
 20
82.615476
 30
0.0
  0
VERTEX
  5
98
330
84
100
AcDbEntity
  8
001
 62
    40
370
    50
100
AcDbVertex
100
AcDb2dVertex
 10
102.796767
 20
82.737014
 30
0.0
  0
VERTEX
  5
99
330
84
100
AcDbEntity
  8
001
 62
    40
370
    50
100
AcDbVertex
100
AcDb2dVertex
 10
102.720035
 20
82.855189
 30
0.0
  0
VERTEX
  5
9A
330
84
100
AcDbEntity
  8
001
 62
    40
370
    50
100
AcDbVertex
100
AcDb2dVertex
 10
102.637792
 20
82.969598
 30
0.0
  0
VERTEX
  5
9B
330
84
100
AcDbEntity
  8
001
 62
    40
370
    50
100
AcDbVertex
100
AcDb2dVertex
 10
102.550939
 20
83.079537
 30
0.0
  0
VERTEX
  5
9C
330
84
100
AcDbEntity
  8
001
 62
    40
370
    50
100
AcDbVertex
100
AcDb2dVertex
 10
102.459349
 20
83.18555
 30
0.0
  0
VERTEX
  5
9D
330
84
100
AcDbEntity
  8
001
 62
    40
370
    50
100
AcDbVertex
100
AcDb2dVertex
 10
102.365233
 20
83.285722
 30
0.0
  0
VERTEX
  5
9E
330
84
100
AcDbEntity
  8
001
 62
    40
370
    50
100
AcDbVertex
100
AcDb2dVertex
 10
102.267494
 20
83.382384
 30
0.0
  0
VERTEX
  5
9F
330
84
100
AcDbEntity
  8
001
 62
    40
370
    50
100
AcDbVertex
100
AcDb2dVertex
 10
102.167748
 20
83.474891
 30
0.0
  0
VERTEX
  5
A0
330
84
100
AcDbEntity
  8
001
 62
    40
370
    50
100
AcDbVertex
100
AcDb2dVertex
 10
102.065224
 20
83.564277
 30
0.0
  0
VERTEX
  5
A1
330
84
100
AcDbEntity
  8
001
 62
    40
370
    50
100
AcDbVertex
100
AcDb2dVertex
 10
101.962616
 20
83.648868
 30
0.0
  0
VERTEX
  5
A2
330
84
100
AcDbEntity
  8
001
 62
    40
370
    50
100
AcDbVertex
100
AcDb2dVertex
 10
101.858746
 20
83.731941
 30
0.0
  0
SEQEND
  5
85
330
84
100
AcDbEntity
  8
001
370
    50
  0
LINE
  5
A3
330
64
100
AcDbEntity
  8
001
 62
    40
370
    50
100
AcDbLine
 10
101.395726
 20
85.455829
 30
0.0
 11
101.858746
 21
83.731941
 31
0.0
  0
POLYLINE
  5
A4
330
64
100
AcDbEntity
  8
001
 62
    40
370
    50
100
AcDb2dPolyline
 66
     1
 10
0.0
 20
0.0
 30
0.0
  0
VERTEX
  5
A6
330
A4
100
AcDbEntity
  8
001
 62
    40
370
    50
100
AcDbVertex
100
AcDb2dVertex
 10
101.732337
 20
86.319855
 30
0.0
  0
VERTEX
  5
A7
330
A4
100
AcDbEntity
  8
001
 62
    40
370
    50
100
AcDbVertex
100
AcDb2dVertex
 10
101.650726
 20
86.160302
 30
0.0
  0
VERTEX
  5
A8
330
A4
100
AcDbEntity
  8
001
 62
    40
370
    50
100
AcDbVertex
100
AcDb2dVertex
 10
101.545625
 20
85.920774
 30
0.0
  0
VERTEX
  5
A9
330
A4
100
AcDbEntity
  8
001
 62
    40
370
    50
100
AcDbVertex
100
AcDb2dVertex
 10
101.450494
 20
85.646863
 30
0.0
  0
VERTEX
  5
AA
330
A4
100
AcDbEntity
  8
001
 62
    40
370
    50
100
AcDbVertex
100
AcDb2dVertex
 10
101.395726
 20
85.455829
 30
0.0
  0
SEQEND
  5
A5
330
A4
100
AcDbEntity
  8
001
370
    50
  0
POLYLINE
  5
AB
330
64
100
AcDbEntity
  8
001
 62
    40
370
    50
100
AcDb2dPolyline
 66
     1
 10
0.0
 20
0.0
 30
0.0
  0
VERTEX
  5
AD
330
AB
100
AcDbEntity
  8
001
 62
    40
370
    50
100
AcDbVertex
100
AcDb2dVertex
 10
101.732337
 20
86.319855
 30
0.0
  0
VERTEX
  5
AE
330
AB
100
AcDbEntity
  8
001
 62
    40
370
    50
100
AcDbVertex
100
AcDb2dVertex
 10
101.851884
 20
86.330251
 30
0.0
  0
VERTEX
  5
AF
330
AB
100
AcDbEntity
  8
001
 62
    40
370
    50
100
AcDbVertex
100
AcDb2dVertex
 10
102.017885
 20
86.344874
 30
0.0
  0
VERTEX
  5
B0
330
AB
100
AcDbEntity
  8
001
 62
    40
370
    50
100
AcDbVertex
100
AcDb2dVertex
 10
102.219849
 20
86.363064
 30
0.0
  0
VERTEX
  5
B1
330
AB
100
AcDbEntity
  8
001
 62
    40
370
    50
100
AcDbVertex
100
AcDb2dVertex
 10
102.40393
 20
86.380154
 30
0.0
  0
VERTEX
  5
B2
330
AB
100
AcDbEntity
  8
001
 62
    40
370
    50
100
AcDbVertex
100
AcDb2dVertex
 10
102.596002
 20
86.398374
 30
0.0
  0
VERTEX
  5
B3
330
AB
100
AcDbEntity
  8
001
 62
    40
370
    50
100
AcDbVertex
100
AcDb2dVertex
 10
102.789826
 20
86.417032
 30
0.0
  0
VERTEX
  5
B4
330
AB
100
AcDbEntity
  8
001
 62
    40
370
    50
100
AcDbVertex
100
AcDb2dVertex
 10
103.137116
 20
86.451354
 30
0.0
  0
VERTEX
  5
B5
330
AB
100
AcDbEntity
  8
001
 62
    40
370
    50
100
AcDbVertex
100
AcDb2dVertex
 10
103.514628
 20
86.491085
 30
0.0
  0
VERTEX
  5
B6
330
AB
100
AcDbEntity
  8
001
 62
    40
370
    50
100
AcDbVertex
100
AcDb2dVertex
 10
103.797536
 20
86.522392
 30
0.0
  0
VERTEX
  5
B7
330
AB
100
AcDbEntity
  8
001
 62
    40
370
    50
100
AcDbVertex
100
AcDb2dVertex
 10
104.000993
 20
86.545633
 30
0.0
  0
SEQEND
  5
AC
330
AB
100
AcDbEntity
  8
001
370
    50
  0
POLYLINE
  5
B8
330
64
100
AcDbEntity
  8
001
 62
    40
370
    50
100
AcDb2dPolyline
 66
     1
 10
0.0
 20
0.0
 30
0.0
  0
VERTEX
  5
BA
330
B8
100
AcDbEntity
  8
001
 62
    40
370
    50
100
AcDbVertex
100
AcDb2dVertex
 10
104.582203
 20
85.77295
 30
0.0
  0
VERTEX
  5
BB
330
B8
100
AcDbEntity
  8
001
 62
    40
370
    50
100
AcDbVertex
100
AcDb2dVertex
 10
104.472551
 20
85.947935
 30
0.0
  0
VERTEX
  5
BC
330
B8
100
AcDbEntity
  8
001
 62
    40
370
    50
100
AcDbVertex
100
AcDb2dVertex
 10
104.299766
 20
86.194869
 30
0.0
  0
VERTEX
  5
BD
330
B8
100
AcDbEntity
  8
001
 62
    40
370
    50
100
AcDbVertex
100
AcDb2dVertex
 10
104.127042
 20
86.406986
 30
0.0
  0
VERTEX
  5
BE
330
B8
100
AcDbEntity
  8
001
 62
    40
370
    50
100
AcDbVertex
100
AcDb2dVertex
 10
104.000993
 20
86.545633
 30
0.0
  0
SEQEND
  5
B9
330
B8
100
AcDbEntity
  8
001
370
    50
  0
LINE
  5
BF
330
64
100
AcDbEntity
  8
001
 62
    40
370
    50
100
AcDbLine
 10
106.645857
 20
78.089671
 30
0.0
 11
104.582203
 21
85.77295
 31
0.0
  0
LINE
  5
C0
330
64
100
AcDbEntity
  8
001
 62
    40
370
    50
100
AcDbLine
 10
106.350321
 20
77.207788
 30
0.0
 11
106.409864
 21
77.216137
 31
0.0
  0
POLYLINE
  5
C1
330
64
100
AcDbEntity
  8
001
 62
    40
370
    50
100
AcDb2dPolyline
 66
     1
 10
0.0
 20
0.0
 30
0.0
  0
VERTEX
  5
C3
330
C1
100
AcDbEntity
  8
001
 62
    40
370
    50
100
AcDbVertex
100
AcDb2dVertex
 10
104.235597
 20
76.999863
 30
0.0
  0
VERTEX
  5
C4
330
C1
100
AcDbEntity
  8
001
 62
    40
370
    50
100
AcDbVertex
100
AcDb2dVertex
 10
104.355152
 20
77.01026
 30
0.0
  0
VERTEX
  5
C5
330
C1
100
AcDbEntity
  8
001
 62
    40
370
    50
100
AcDbVertex
100
AcDb2dVertex
 10
104.521145
 20
77.024883
 30
0.0
  0
VERTEX
  5
C6
330
C1
100
AcDbEntity
  8
001
 62
    40
370
    50
100
AcDbVertex
100
AcDb2dVertex
 10
104.723045
 20
77.043067
 30
0.0
  0
VERTEX
  5
C7
330
C1
100
AcDbEntity
  8
001
 62
    40
370
    50
100
AcDbVertex
100
AcDb2dVertex
 10
104.90719
 20
77.060162
 30
0.0
  0
VERTEX
  5
C8
330
C1
100
AcDbEntity
  8
001
 62
    40
370
    50
100
AcDbVertex
100
AcDb2dVertex
 10
105.099514
 20
77.078404
 30
0.0
  0
VERTEX
  5
C9
330
C1
100
AcDbEntity
  8
001
 62
    40
370
    50
100
AcDbVertex
100
AcDb2dVertex
 10
105.293085
 20
77.09704
 30
0.0
  0
VERTEX
  5
CA
330
C1
100
AcDbEntity
  8
001
 62
    40
370
    50
100
AcDbVertex
100
AcDb2dVertex
 10
105.638023
 20
77.131161
 30
0.0
  0
VERTEX
  5
CB
330
C1
100
AcDbEntity
  8
001
 62
    40
370
    50
100
AcDbVertex
100
AcDb2dVertex
 10
106.017888
 20
77.171094
 30
0.0
  0
VERTEX
  5
CC
330
C1
100
AcDbEntity
  8
001
 62
    40
370
    50
100
AcDbVertex
100
AcDb2dVertex
 10
106.212148
 20
77.192363
 30
0.0
  0
VERTEX
  5
CD
330
C1
100
AcDbEntity
  8
001
 62
    40
370
    50
100
AcDbVertex
100
AcDb2dVertex
 10
106.350321
 20
77.207788
 30
0.0
  0
SEQEND
  5
C2
330
C1
100
AcDbEntity
  8
001
370
    50
  0
LINE
  5
CE
330
64
100
AcDbEntity
  8
001
 62
    40
370
    50
100
AcDbLine
 10
104.48407
 20
86.429591
 30
0.0
 11
104.582203
 21
85.77295
 31
0.0
  0
POLYLINE
  5
CF
330
64
100
AcDbEntity
  8
001
 62
    40
370
    50
100
AcDb2dPolyline
 66
     1
 10
0.0
 20
0.0
 30
0.0
  0
VERTEX
  5
D1
330
CF
100
AcDbEntity
  8
001
 62
    40
370
    50
100
AcDbVertex
100
AcDb2dVertex
 10
106.409864
 20
77.216137
 30
0.0
  0
VERTEX
  5
D2
330
CF
100
AcDbEntity
  8
001
 62
    40
370
    50
100
AcDbVertex
100
AcDb2dVertex
 10
106.420595
 20
77.217988
 30
0.0
  0
VERTEX
  5
D3
330
CF
100
AcDbEntity
  8
001
 62
    40
370
    50
100
AcDbVertex
100
AcDb2dVertex
 10
106.431312
 20
77.219913
 30
0.0
  0
VERTEX
  5
D4
330
CF
100
AcDbEntity
  8
001
 62
    40
370
    50
100
AcDbVertex
100
AcDb2dVertex
 10
106.469757
 20
77.227882
 30
0.0
  0
VERTEX
  5
D5
330
CF
100
AcDbEntity
  8
001
 62
    40
370
    50
100
AcDbVertex
100
AcDb2dVertex
 10
106.508011
 20
77.236818
 30
0.0
  0
SEQEND
  5
D0
330
CF
100
AcDbEntity
  8
001
370
    50
  0
POLYLINE
  5
D6
330
64
100
AcDbEntity
  8
001
 62
    40
370
    50
100
AcDb2dPolyline
 66
     1
 10
0.0
 20
0.0
 30
0.0
  0
VERTEX
  5
D8
330
D6
100
AcDbEntity
  8
001
 62
    40
370
    50
100
AcDbVertex
100
AcDb2dVertex
 10
106.822459
 20
77.570698
 30
0.0
  0
VERTEX
  5
D9
330
D6
100
AcDbEntity
  8
001
 62
    40
370
    50
100
AcDbVertex
100
AcDb2dVertex
 10
106.823187
 20
77.590274
 30
0.0
  0
VERTEX
  5
DA
330
D6
100
AcDbEntity
  8
001
 62
    40
370
    50
100
AcDbVertex
100
AcDb2dVertex
 10
106.822611
 20
77.609706
 30
0.0
  0
VERTEX
  5
DB
330
D6
100
AcDbEntity
  8
001
 62
    40
370
    50
100
AcDbVertex
100
AcDb2dVertex
 10
106.817523
 20
77.638986
 30
0.0
  0
VERTEX
  5
DC
330
D6
100
AcDbEntity
  8
001
 62
    40
370
    50
100
AcDbVertex
100
AcDb2dVertex
 10
106.809381
 20
77.66793
 30
0.0
  0
SEQEND
  5
D7
330
D6
100
AcDbEntity
  8
001
370
    50
  0
POLYLINE
  5
DD
330
64
100
AcDbEntity
  8
001
 62
    40
370
    50
100
AcDb2dPolyline
 66
     1
 10
0.0
 20
0.0
 30
0.0
  0
VERTEX
  5
DF
330
DD
100
AcDbEntity
  8
001
 62
    40
370
    50
100
AcDbVertex
100
AcDb2dVertex
 10
104.789216
 20
76.985528
 30
0.0
  0
VERTEX
  5
E0
330
DD
100
AcDbEntity
  8
001
 62
    40
370
    50
100
AcDbVertex
100
AcDb2dVertex
 10
104.813411
 20
76.98808
 30
0.0
  0
VERTEX
  5
E1
330
DD
100
AcDbEntity
  8
001
 62
    40
370
    50
100
AcDbVertex
100
AcDb2dVertex
 10
104.848725
 20
76.992219
 30
0.0
  0
VERTEX
  5
E2
330
DD
100
AcDbEntity
  8
001
 62
    40
370
    50
100
AcDbVertex
100
AcDb2dVertex
 10
104.883975
 20
76.996927
 30
0.0
  0
VERTEX
  5
E3
330
DD
100
AcDbEntity
  8
001
 62
    40
370
    50
100
AcDbVertex
100
AcDb2dVertex
 10
104.908056
 20
77.000427
 30
0.0
  0
SEQEND
  5
DE
330
DD
100
AcDbEntity
  8
001
370
    50
  0
LINE
  5
E4
330
64
100
AcDbEntity
  8
001
 62
    40
370
    50
100
AcDbLine
 10
106.822335
 20
77.569265
 30
0.0
 11
106.825311
 21
77.603627
 31
0.0
  0
POLYLINE
  5
E5
330
64
100
AcDbEntity
  8
001
 62
    40
370
    50
100
AcDb2dPolyline
 66
     1
 10
0.0
 20
0.0
 30
0.0
  0
VERTEX
  5
E7
330
E5
100
AcDbEntity
  8
001
 62
    40
370
    50
100
AcDbVertex
100
AcDb2dVertex
 10
104.902065
 20
76.999529
 30
0.0
  0
VERTEX
  5
E8
330
E5
100
AcDbEntity
  8
001
 62
    40
370
    50
100
AcDbVertex
100
AcDb2dVertex
 10
105.065151
 20
77.023034
 30
0.0
  0
VERTEX
  5
E9
330
E5
100
AcDbEntity
  8
001
 62
    40
370
    50
100
AcDbVertex
100
AcDb2dVertex
 10
105.228235
 20
77.046547
 30
0.0
  0
VERTEX
  5
EA
330
E5
100
AcDbEntity
  8
001
 62
    40
370
    50
100
AcDbVertex
100
AcDb2dVertex
 10
105.379169
 20
77.068319
 30
0.0
  0
VERTEX
  5
EB
330
E5
100
AcDbEntity
  8
001
 62
    40
370
    50
100
AcDbVertex
100
AcDb2dVertex
 10
105.530105
 20
77.09008
 30
0.0
  0
VERTEX
  5
EC
330
E5
100
AcDbEntity
  8
001
 62
    40
370
    50
100
AcDbVertex
100
AcDb2dVertex
 10
105.670436
 20
77.110281
 30
0.0
  0
VERTEX
  5
ED
330
E5
100
AcDbEntity
  8
001
 62
    40
370
    50
100
AcDbVertex
100
AcDb2dVertex
 10
105.810773
 20
77.130445
 30
0.0
  0
VERTEX
  5
EE
330
E5
100
AcDbEntity
  8
001
 62
    40
370
    50
100
AcDbVertex
100
AcDb2dVertex
 10
105.941929
 20
77.149254
 30
0.0
  0
VERTEX
  5
EF
330
E5
100
AcDbEntity
  8
001
 62
    40
370
    50
100
AcDbVertex
100
AcDb2dVertex
 10
106.07309
 20
77.168029
 30
0.0
  0
VERTEX
  5
F0
330
E5
100
AcDbEntity
  8
001
 62
    40
370
    50
100
AcDbVertex
100
AcDb2dVertex
 10
106.196378
 20
77.185648
 30
0.0
  0
VERTEX
  5
F1
330
E5
100
AcDbEntity
  8
001
 62
    40
370
    50
100
AcDbVertex
100
AcDb2dVertex
 10
106.319668
 20
77.203248
 30
0.0
  0
VERTEX
  5
F2
330
E5
100
AcDbEntity
  8
001
 62
    40
370
    50
100
AcDbVertex
100
AcDb2dVertex
 10
106.365313
 20
77.209761
 30
0.0
  0
VERTEX
  5
F3
330
E5
100
AcDbEntity
  8
001
 62
    40
370
    50
100
AcDbVertex
100
AcDb2dVertex
 10
106.410959
 20
77.216273
 30
0.0
  0
SEQEND
  5
E6
330
E5
100
AcDbEntity
  8
001
370
    50
  0
LINE
  5
F4
330
64
100
AcDbEntity
  8
001
 62
    40
370
    50
100
AcDbLine
 10
104.000993
 20
86.545633
 30
0.0
 11
104.298162
 21
86.575208
 31
0.0
  0
POLYLINE
  5
F5
330
64
100
AcDbEntity
  8
001
 62
    40
370
    50
100
AcDb2dPolyline
 66
     1
 10
0.0
 20
0.0
 30
0.0
  0
VERTEX
  5
F7
330
F5
100
AcDbEntity
  8
001
 62
    40
370
    50
100
AcDbVertex
100
AcDb2dVertex
 10
104.316632
 20
86.57613
 30
0.0
  0
VERTEX
  5
F8
330
F5
100
AcDbEntity
  8
001
 62
    40
370
    50
100
AcDbVertex
100
AcDb2dVertex
 10
104.312885
 20
86.576086
 30
0.0
  0
VERTEX
  5
F9
330
F5
100
AcDbEntity
  8
001
 62
    40
370
    50
100
AcDbVertex
100
AcDb2dVertex
 10
104.307413
 20
86.575899
 30
0.0
  0
VERTEX
  5
FA
330
F5
100
AcDbEntity
  8
001
 62
    40
370
    50
100
AcDbVertex
100
AcDb2dVertex
 10
104.301917
 20
86.575539
 30
0.0
  0
VERTEX
  5
FB
330
F5
100
AcDbEntity
  8
001
 62
    40
370
    50
100
AcDbVertex
100
AcDb2dVertex
 10
104.298162
 20
86.575208
 30
0.0
  0
SEQEND
  5
F6
330
F5
100
AcDbEntity
  8
001
370
    50
  0
LINE
  5
FC
330
64
100
AcDbEntity
  8
001
 62
    40
370
    50
100
AcDbLine
 10
98.100456
 20
76.389288
 30
0.0
 11
97.803287
 21
76.359714
 31
0.0
  0
POLYLINE
  5
FD
330
64
100
AcDbEntity
  8
001
 62
    40
370
    50
100
AcDb2dPolyline
 66
     1
 10
0.0
 20
0.0
 30
0.0
  0
VERTEX
  5
FF
330
FD
100
AcDbEntity
  8
001
 62
    40
370
    50
100
AcDbVertex
100
AcDb2dVertex
 10
98.100456
 20
76.389288
 30
0.0
  0
VERTEX
  5
100
330
FD
100
AcDbEntity
  8
001
 62
    40
370
    50
100
AcDbVertex
100
AcDb2dVertex
 10
98.220003
 20
76.399685
 30
0.0
  0
VERTEX
  5
101
330
FD
100
AcDbEntity
  8
001
 62
    40
370
    50
100
AcDbVertex
100
AcDb2dVertex
 10
98.386004
 20
76.414308
 30
0.0
  0
VERTEX
  5
102
330
FD
100
AcDbEntity
  8
001
 62
    40
370
    50
100
AcDbVertex
100
AcDb2dVertex
 10
98.587968
 20
76.432498
 30
0.0
  0
VERTEX
  5
103
330
FD
100
AcDbEntity
  8
001
 62
    40
370
    50
100
AcDbVertex
100
AcDb2dVertex
 10
98.772049
 20
76.449588
 30
0.0
  0
VERTEX
  5
104
330
FD
100
AcDbEntity
  8
001
 62
    40
370
    50
100
AcDbVertex
100
AcDb2dVertex
 10
98.964121
 20
76.467808
 30
0.0
  0
VERTEX
  5
105
330
FD
100
AcDbEntity
  8
001
 62
    40
370
    50
100
AcDbVertex
100
AcDb2dVertex
 10
99.157944
 20
76.486466
 30
0.0
  0
VERTEX
  5
106
330
FD
100
AcDbEntity
  8
001
 62
    40
370
    50
100
AcDbVertex
100
AcDb2dVertex
 10
99.505234
 20
76.520788
 30
0.0
  0
VERTEX
  5
107
330
FD
100
AcDbEntity
  8
001
 62
    40
370
    50
100
AcDbVertex
100
AcDb2dVertex
 10
99.882747
 20
76.560519
 30
0.0
  0
VERTEX
  5
108
330
FD
100
AcDbEntity
  8
001
 62
    40
370
    50
100
AcDbVertex
100
AcDb2dVertex
 10
100.165654
 20
76.591826
 30
0.0
  0
VERTEX
  5
109
330
FD
100
AcDbEntity
  8
001
 62
    40
370
    50
100
AcDbVertex
100
AcDb2dVertex
 10
100.369111
 20
76.615067
 30
0.0
  0
SEQEND
  5
FE
330
FD
100
AcDbEntity
  8
001
370
    50
  0
LINE
  5
10A
330
64
100
AcDbEntity
  8
001
 62
    40
370
    50
100
AcDbLine
 10
104.235597
 20
76.999863
 30
0.0
 11
100.369111
 21
76.615067
 31
0.0
  0
LINE
  5
10B
330
64
100
AcDbEntity
  8
001
 62
    40
370
    50
100
AcDbLine
 10
98.50081
 20
76.359701
 30
0.0
 11
104.789216
 21
76.985528
 31
0.0
  0
POLYLINE
  5
10C
330
64
100
AcDbEntity
  8
001
 62
    40
370
    50
100
AcDb2dPolyline
 66
     1
 10
0.0
 20
0.0
 30
0.0
  0
VERTEX
  5
10E
330
10C
100
AcDbEntity
  8
001
 62
    40
370
    50
100
AcDbVertex
100
AcDb2dVertex
 10
100.047696
 20
79.202985
 30
0.0
  0
VERTEX
  5
10F
330
10C
100
AcDbEntity
  8
001
 62
    40
370
    50
100
AcDbVertex
100
AcDb2dVertex
 10
100.086321
 20
79.18711
 30
0.0
  0
VERTEX
  5
110
330
10C
100
AcDbEntity
  8
001
 62
    40
370
    50
100
AcDbVertex
100
AcDb2dVertex
 10
100.141838
 20
79.165231
 30
0.0
  0
VERTEX
  5
111
330
10C
100
AcDbEntity
  8
001
 62
    40
370
    50
100
AcDbVertex
100
AcDb2dVertex
 10
100.351451
 20
79.095695
 30
0.0
  0
VERTEX
  5
112
330
10C
100
AcDbEntity
  8
001
 62
    40
370
    50
100
AcDbVertex
100
AcDb2dVertex
 10
100.541248
 20
79.054691
 30
0.0
  0
VERTEX
  5
113
330
10C
100
AcDbEntity
  8
001
 62
    40
370
    50
100
AcDbVertex
100
AcDb2dVertex
 10
100.743121
 20
79.028301
 30
0.0
  0
VERTEX
  5
114
330
10C
100
AcDbEntity
  8
001
 62
    40
370
    50
100
AcDbVertex
100
AcDb2dVertex
 10
100.953175
 20
79.017463
 30
0.0
  0
VERTEX
  5
115
330
10C
100
AcDbEntity
  8
001
 62
    40
370
    50
100
AcDbVertex
100
AcDb2dVertex
 10
101.160632
 20
79.02609
 30
0.0
  0
VERTEX
  5
116
330
10C
100
AcDbEntity
  8
001
 62
    40
370
    50
100
AcDbVertex
100
AcDb2dVertex
 10
101.365103
 20
79.054676
 30
0.0
  0
VERTEX
  5
117
330
10C
100
AcDbEntity
  8
001
 62
    40
370
    50
100
AcDbVertex
100
AcDb2dVertex
 10
101.567922
 20
79.1023
 30
0.0
  0
VERTEX
  5
118
330
10C
100
AcDbEntity
  8
001
 62
    40
370
    50
100
AcDbVertex
100
AcDb2dVertex
 10
101.764517
 20
79.1652
 30
0.0
  0
VERTEX
  5
119
330
10C
100
AcDbEntity
  8
001
 62
    40
370
    50
100
AcDbVertex
100
AcDb2dVertex
 10
101.952707
 20
79.242495
 30
0.0
  0
VERTEX
  5
11A
330
10C
100
AcDbEntity
  8
001
 62
    40
370
    50
100
AcDbVertex
100
AcDb2dVertex
 10
102.13928
 20
79.345678
 30
0.0
  0
VERTEX
  5
11B
330
10C
100
AcDbEntity
  8
001
 62
    40
370
    50
100
AcDbVertex
100
AcDb2dVertex
 10
102.574622
 20
79.698562
 30
0.0
  0
VERTEX
  5
11C
330
10C
100
AcDbEntity
  8
001
 62
    40
370
    50
100
AcDbVertex
100
AcDb2dVertex
 10
102.858859
 20
80.008379
 30
0.0
  0
SEQEND
  5
10D
330
10C
100
AcDbEntity
  8
001
370
    50
  0
POLYLINE
  5
11D
330
64
100
AcDbEntity
  8
001
 62
    40
370
    50
100
AcDb2dPolyline
 66
     1
 10
0.0
 20
0.0
 30
0.0
  0
VERTEX
  5
11F
330
11D
100
AcDbEntity
  8
001
 62
    40
370
    50
100
AcDbVertex
100
AcDb2dVertex
 10
99.047584
 20
82.926546
 30
0.0
  0
VERTEX
  5
120
330
11D
100
AcDbEntity
  8
001
 62
    40
370
    50
100
AcDbVertex
100
AcDb2dVertex
 10
99.026286
 20
82.776053
 30
0.0
  0
VERTEX
  5
121
330
11D
100
AcDbEntity
  8
001
 62
    40
370
    50
100
AcDbVertex
100
AcDb2dVertex
 10
99.005588
 20
82.625472
 30
0.0
  0
VERTEX
  5
122
330
11D
100
AcDbEntity
  8
001
 62
    40
370
    50
100
AcDbVertex
100
AcDb2dVertex
 10
98.985087
 20
82.465597
 30
0.0
  0
VERTEX
  5
123
330
11D
100
AcDbEntity
  8
001
 62
    40
370
    50
100
AcDbVertex
100
AcDb2dVertex
 10
98.967415
 20
82.305393
 30
0.0
  0
VERTEX
  5
124
330
11D
100
AcDbEntity
  8
001
 62
    40
370
    50
100
AcDbVertex
100
AcDb2dVertex
 10
98.953812
 20
82.143631
 30
0.0
  0
VERTEX
  5
125
330
11D
100
AcDbEntity
  8
001
 62
    40
370
    50
100
AcDbVertex
100
AcDb2dVertex
 10
98.94511
 20
81.981527
 30
0.0
  0
VERTEX
  5
126
330
11D
100
AcDbEntity
  8
001
 62
    40
370
    50
100
AcDbVertex
100
AcDb2dVertex
 10
98.94183
 20
81.814306
 30
0.0
  0
VERTEX
  5
127
330
11D
100
AcDbEntity
  8
001
 62
    40
370
    50
100
AcDbVertex
100
AcDb2dVertex
 10
98.944909
 20
81.647074
 30
0.0
  0
VERTEX
  5
128
330
11D
100
AcDbEntity
  8
001
 62
    40
370
    50
100
AcDbVertex
100
AcDb2dVertex
 10
98.955117
 20
81.478496
 30
0.0
  0
VERTEX
  5
129
330
11D
100
AcDbEntity
  8
001
 62
    40
370
    50
100
AcDbVertex
100
AcDb2dVertex
 10
98.973265
 20
81.310608
 30
0.0
  0
VERTEX
  5
12A
330
11D
100
AcDbEntity
  8
001
 62
    40
370
    50
100
AcDbVertex
100
AcDb2dVertex
 10
98.996718
 20
81.161745
 30
0.0
  0
VERTEX
  5
12B
330
11D
100
AcDbEntity
  8
001
 62
    40
370
    50
100
AcDbVertex
100
AcDb2dVertex
 10
99.026945
 20
81.014099
 30
0.0
  0
VERTEX
  5
12C
330
11D
100
AcDbEntity
  8
001
 62
    40
370
    50
100
AcDbVertex
100
AcDb2dVertex
 10
99.063794
 20
80.867809
 30
0.0
  0
VERTEX
  5
12D
330
11D
100
AcDbEntity
  8
001
 62
    40
370
    50
100
AcDbVertex
100
AcDb2dVertex
 10
99.107178
 20
80.723323
 30
0.0
  0
VERTEX
  5
12E
330
11D
100
AcDbEntity
  8
001
 62
    40
370
    50
100
AcDbVertex
100
AcDb2dVertex
 10
99.156434
 20
80.582702
 30
0.0
  0
VERTEX
  5
12F
330
11D
100
AcDbEntity
  8
001
 62
    40
370
    50
100
AcDbVertex
100
AcDb2dVertex
 10
99.212127
 20
80.444515
 30
0.0
  0
VERTEX
  5
130
330
11D
100
AcDbEntity
  8
001
 62
    40
370
    50
100
AcDbVertex
100
AcDb2dVertex
 10
99.268943
 20
80.320005
 30
0.0
  0
VERTEX
  5
131
330
11D
100
AcDbEntity
  8
001
 62
    40
370
    50
100
AcDbVertex
100
AcDb2dVertex
 10
99.330785
 20
80.197907
 30
0.0
  0
VERTEX
  5
132
330
11D
100
AcDbEntity
  8
001
 62
    40
370
    50
100
AcDbVertex
100
AcDb2dVertex
 10
99.39594
 20
80.080429
 30
0.0
  0
VERTEX
  5
133
330
11D
100
AcDbEntity
  8
001
 62
    40
370
    50
100
AcDbVertex
100
AcDb2dVertex
 10
99.465194
 20
79.965324
 30
0.0
  0
VERTEX
  5
134
330
11D
100
AcDbEntity
  8
001
 62
    40
370
    50
100
AcDbVertex
100
AcDb2dVertex
 10
99.53584
 20
79.856229
 30
0.0
  0
VERTEX
  5
135
330
11D
100
AcDbEntity
  8
001
 62
    40
370
    50
100
AcDbVertex
100
AcDb2dVertex
 10
99.609821
 20
79.749373
 30
0.0
  0
VERTEX
  5
136
330
11D
100
AcDbEntity
  8
001
 62
    40
370
    50
100
AcDbVertex
100
AcDb2dVertex
 10
99.682783
 20
79.650082
 30
0.0
  0
VERTEX
  5
137
330
11D
100
AcDbEntity
  8
001
 62
    40
370
    50
100
AcDbVertex
100
AcDb2dVertex
 10
99.758068
 20
79.552539
 30
0.0
  0
VERTEX
  5
138
330
11D
100
AcDbEntity
  8
001
 62
    40
370
    50
100
AcDbVertex
100
AcDb2dVertex
 10
99.831446
 20
79.461079
 30
0.0
  0
VERTEX
  5
139
330
11D
100
AcDbEntity
  8
001
 62
    40
370
    50
100
AcDbVertex
100
AcDb2dVertex
 10
99.906088
 20
79.370647
 30
0.0
  0
VERTEX
  5
13A
330
11D
100
AcDbEntity
  8
001
 62
    40
370
    50
100
AcDbVertex
100
AcDb2dVertex
 10
99.976707
 20
79.28666
 30
0.0
  0
VERTEX
  5
13B
330
11D
100
AcDbEntity
  8
001
 62
    40
370
    50
100
AcDbVertex
100
AcDb2dVertex
 10
100.047696
 20
79.202985
 30
0.0
  0
SEQEND
  5
11E
330
11D
100
AcDbEntity
  8
001
370
    50
  0
POLYLINE
  5
13C
330
64
100
AcDbEntity
  8
001
 62
    40
370
    50
100
AcDb2dPolyline
 66
     1
 10
0.0
 20
0.0
 30
0.0
  0
VERTEX
  5
13E
330
13C
100
AcDbEntity
  8
001
 62
    40
370
    50
100
AcDbVertex
100
AcDb2dVertex
 10
101.858746
 20
83.731941
 30
0.0
  0
VERTEX
  5
13F
330
13C
100
AcDbEntity
  8
001
 62
    40
370
    50
100
AcDbVertex
100
AcDb2dVertex
 10
101.820121
 20
83.747816
 30
0.0
  0
VERTEX
  5
140
330
13C
100
AcDbEntity
  8
001
 62
    40
370
    50
100
AcDbVertex
100
AcDb2dVertex
 10
101.764604
 20
83.769694
 30
0.0
  0
VERTEX
  5
141
330
13C
100
AcDbEntity
  8
001
 62
    40
370
    50
100
AcDbVertex
100
AcDb2dVertex
 10
101.554992
 20
83.839231
 30
0.0
  0
VERTEX
  5
142
330
13C
100
AcDbEntity
  8
001
 62
    40
370
    50
100
AcDbVertex
100
AcDb2dVertex
 10
101.365194
 20
83.880234
 30
0.0
  0
VERTEX
  5
143
330
13C
100
AcDbEntity
  8
001
 62
    40
370
    50
100
AcDbVertex
100
AcDb2dVertex
 10
101.163321
 20
83.906624
 30
0.0
  0
VERTEX
  5
144
330
13C
100
AcDbEntity
  8
001
 62
    40
370
    50
100
AcDbVertex
100
AcDb2dVertex
 10
100.953267
 20
83.917463
 30
0.0
  0
VERTEX
  5
145
330
13C
100
AcDbEntity
  8
001
 62
    40
370
    50
100
AcDbVertex
100
AcDb2dVertex
 10
100.74581
 20
83.908835
 30
0.0
  0
VERTEX
  5
146
330
13C
100
AcDbEntity
  8
001
 62
    40
370
    50
100
AcDbVertex
100
AcDb2dVertex
 10
100.541339
 20
83.880249
 30
0.0
  0
VERTEX
  5
147
330
13C
100
AcDbEntity
  8
001
 62
    40
370
    50
100
AcDbVertex
100
AcDb2dVertex
 10
100.33852
 20
83.832625
 30
0.0
  0
VERTEX
  5
148
330
13C
100
AcDbEntity
  8
001
 62
    40
370
    50
100
AcDbVertex
100
AcDb2dVertex
 10
100.141925
 20
83.769725
 30
0.0
  0
VERTEX
  5
149
330
13C
100
AcDbEntity
  8
001
 62
    40
370
    50
100
AcDbVertex
100
AcDb2dVertex
 10
99.953735
 20
83.69243
 30
0.0
  0
VERTEX
  5
14A
330
13C
100
AcDbEntity
  8
001
 62
    40
370
    50
100
AcDbVertex
100
AcDb2dVertex
 10
99.767163
 20
83.589247
 30
0.0
  0
VERTEX
  5
14B
330
13C
100
AcDbEntity
  8
001
 62
    40
370
    50
100
AcDbVertex
100
AcDb2dVertex
 10
99.33182
 20
83.236363
 30
0.0
  0
VERTEX
  5
14C
330
13C
100
AcDbEntity
  8
001
 62
    40
370
    50
100
AcDbVertex
100
AcDb2dVertex
 10
99.047584
 20
82.926546
 30
0.0
  0
SEQEND
  5
13D
330
13C
100
AcDbEntity
  8
001
370
    50
  0
POLYLINE
  5
14D
330
64
100
AcDbEntity
  8
001
 62
    40
370
    50
100
AcDb2dPolyline
 66
     1
 10
0.0
 20
0.0
 30
0.0
  0
VERTEX
  5
14F
330
14D
100
AcDbEntity
  8
001
 62
    40
370
    50
100
AcDbVertex
100
AcDb2dVertex
 10
100.369111
 20
76.615067
 30
0.0
  0
VERTEX
  5
150
330
14D
100
AcDbEntity
  8
001
 62
    40
370
    50
100
AcDbVertex
100
AcDb2dVertex
 10
100.406187
 20
76.739363
 30
0.0
  0
VERTEX
  5
151
330
14D
100
AcDbEntity
  8
001
 62
    40
370
    50
100
AcDbVertex
100
AcDb2dVertex
 10
100.450177
 20
76.923489
 30
0.0
  0
VERTEX
  5
152
330
14D
100
AcDbEntity
  8
001
 62
    40
370
    50
100
AcDbVertex
100
AcDb2dVertex
 10
100.496515
 20
77.251889
 30
0.0
  0
VERTEX
  5
153
330
14D
100
AcDbEntity
  8
001
 62
    40
370
    50
100
AcDbVertex
100
AcDb2dVertex
 10
100.510716
 20
77.479097
 30
0.0
  0
SEQEND
  5
14E
330
14D
100
AcDbEntity
  8
001
370
    50
  0
LINE
  5
154
330
64
100
AcDbEntity
  8
001
 62
    40
370
    50
100
AcDbLine
 10
103.459381
 20
77.77255
 30
0.0
 11
100.510716
 21
77.479097
 31
0.0
  0
LINE
  5
155
330
64
100
AcDbEntity
  8
001
 62
    40
370
    50
100
AcDbLine
 10
100.510716
 20
77.479097
 30
0.0
 11
100.047696
 21
79.202985
 31
0.0
  0
POLYLINE
  5
156
330
64
100
AcDbEntity
  8
001
 62
    40
370
    50
100
AcDb2dPolyline
 66
     1
 10
0.0
 20
0.0
 30
0.0
  0
VERTEX
  5
158
330
156
100
AcDbEntity
  8
001
 62
    40
370
    50
100
AcDbVertex
100
AcDb2dVertex
 10
104.48407
 20
86.429591
 30
0.0
  0
VERTEX
  5
159
330
156
100
AcDbEntity
  8
001
 62
    40
370
    50
100
AcDbVertex
100
AcDb2dVertex
 10
104.480759
 20
86.445318
 30
0.0
  0
VERTEX
  5
15A
330
156
100
AcDbEntity
  8
001
 62
    40
370
    50
100
AcDbVertex
100
AcDb2dVertex
 10
104.47468
 20
86.466458
 30
0.0
  0
VERTEX
  5
15B
330
156
100
AcDbEntity
  8
001
 62
    40
370
    50
100
AcDbVertex
100
AcDb2dVertex
 10
104.468194
 20
86.482242
 30
0.0
  0
VERTEX
  5
15C
330
156
100
AcDbEntity
  8
001
 62
    40
370
    50
100
AcDbVertex
100
AcDb2dVertex
 10
104.46051
 20
86.496071
 30
0.0
  0
VERTEX
  5
15D
330
156
100
AcDbEntity
  8
001
 62
    40
370
    50
100
AcDbVertex
100
AcDb2dVertex
 10
104.451547
 20
86.509354
 30
0.0
  0
VERTEX
  5
15E
330
156
100
AcDbEntity
  8
001
 62
    40
370
    50
100
AcDbVertex
100
AcDb2dVertex
 10
104.441263
 20
86.52204
 30
0.0
  0
VERTEX
  5
15F
330
156
100
AcDbEntity
  8
001
 62
    40
370
    50
100
AcDbVertex
100
AcDb2dVertex
 10
104.4299
 20
86.533439
 30
0.0
  0
VERTEX
  5
160
330
156
100
AcDbEntity
  8
001
 62
    40
370
    50
100
AcDbVertex
100
AcDb2dVertex
 10
104.417524
 20
86.543576
 30
0.0
  0
VERTEX
  5
161
330
156
100
AcDbEntity
  8
001
 62
    40
370
    50
100
AcDbVertex
100
AcDb2dVertex
 10
104.404248
 20
86.552467
 30
0.0
  0
VERTEX
  5
162
330
156
100
AcDbEntity
  8
001
 62
    40
370
    50
100
AcDbVertex
100
AcDb2dVertex
 10
104.390015
 20
86.560024
 30
0.0
  0
VERTEX
  5
163
330
156
100
AcDbEntity
  8
001
 62
    40
370
    50
100
AcDbVertex
100
AcDb2dVertex
 10
104.37479
 20
86.566196
 30
0.0
  0
VERTEX
  5
164
330
156
100
AcDbEntity
  8
001
 62
    40
370
    50
100
AcDbVertex
100
AcDb2dVertex
 10
104.35957
 20
86.570884
 30
0.0
  0
VERTEX
  5
165
330
156
100
AcDbEntity
  8
001
 62
    40
370
    50
100
AcDbVertex
100
AcDb2dVertex
 10
104.344472
 20
86.574119
 30
0.0
  0
VERTEX
  5
166
330
156
100
AcDbEntity
  8
001
 62
    40
370
    50
100
AcDbVertex
100
AcDb2dVertex
 10
104.327115
 20
86.575827
 30
0.0
  0
VERTEX
  5
167
330
156
100
AcDbEntity
  8
001
 62
    40
370
    50
100
AcDbVertex
100
AcDb2dVertex
 10
104.320963
 20
86.576054
 30
0.0
  0
VERTEX
  5
168
330
156
100
AcDbEntity
  8
001
 62
    40
370
    50
100
AcDbVertex
100
AcDb2dVertex
 10
104.316632
 20
86.57613
 30
0.0
  0
SEQEND
  5
157
330
156
100
AcDbEntity
  8
001
370
    50
  0
LINE
  5
169
330
64
100
AcDbEntity
  8
001
 62
    40
370
    50
100
AcDbLine
 10
104.910785
 20
86.576119
 30
0.0
 11
104.316632
 21
86.57613
 31
0.0
  0
LINE
  5
16A
330
64
100
AcDbEntity
  8
001
 62
    40
370
    50
100
AcDbLine
 10
99.047584
 20
82.926546
 30
0.0
 11
98.447061
 21
85.162375
 31
0.0
  0
LINE
  5
16B
330
64
100
AcDbEntity
  8
001
 62
    40
370
    50
100
AcDbLine
 10
98.447061
 20
85.162375
 30
0.0
 11
101.395726
 21
85.455829
 31
0.0
  0
POLYLINE
  5
16C
330
64
100
AcDbEntity
  8
001
 62
    40
370
    50
100
AcDb2dPolyline
 66
     1
 10
0.0
 20
0.0
 30
0.0
  0
VERTEX
  5
16E
330
16C
100
AcDbEntity
  8
001
 62
    40
370
    50
100
AcDbVertex
100
AcDb2dVertex
 10
98.447061
 20
85.162375
 30
0.0
  0
VERTEX
  5
16F
330
16C
100
AcDbEntity
  8
001
 62
    40
370
    50
100
AcDbVertex
100
AcDb2dVertex
 10
98.33741
 20
85.33736
 30
0.0
  0
VERTEX
  5
170
330
16C
100
AcDbEntity
  8
001
 62
    40
370
    50
100
AcDbVertex
100
AcDb2dVertex
 10
98.164625
 20
85.584294
 30
0.0
  0
VERTEX
  5
171
330
16C
100
AcDbEntity
  8
001
 62
    40
370
    50
100
AcDbVertex
100
AcDb2dVertex
 10
97.991901
 20
85.796412
 30
0.0
  0
VERTEX
  5
172
330
16C
100
AcDbEntity
  8
001
 62
    40
370
    50
100
AcDbVertex
100
AcDb2dVertex
 10
97.865852
 20
85.935059
 30
0.0
  0
SEQEND
  5
16D
330
16C
100
AcDbEntity
  8
001
370
    50
  0
LINE
  5
173
330
64
100
AcDbEntity
  8
001
 62
    40
370
    50
100
AcDbLine
 10
97.865852
 20
85.935059
 30
0.0
 11
101.732337
 21
86.319855
 31
0.0
  0
POLYLINE
  5
174
330
64
100
AcDbEntity
  8
001
 62
    40
370
    50
100
AcDb2dPolyline
 66
     1
 10
0.0
 20
0.0
 30
0.0
  0
VERTEX
  5
176
330
174
100
AcDbEntity
  8
001
 62
    40
370
    50
100
AcDbVertex
100
AcDb2dVertex
 10
97.32424
 20
77.161976
 30
0.0
  0
VERTEX
  5
177
330
174
100
AcDbEntity
  8
001
 62
    40
370
    50
100
AcDbVertex
100
AcDb2dVertex
 10
97.477843
 20
76.986693
 30
0.0
  0
VERTEX
  5
178
330
174
100
AcDbEntity
  8
001
 62
    40
370
    50
100
AcDbVertex
100
AcDb2dVertex
 10
97.712342
 20
76.740055
 30
0.0
  0
VERTEX
  5
179
330
174
100
AcDbEntity
  8
001
 62
    40
370
    50
100
AcDbVertex
100
AcDb2dVertex
 10
97.939059
 20
76.527771
 30
0.0
  0
VERTEX
  5
17A
330
174
100
AcDbEntity
  8
001
 62
    40
370
    50
100
AcDbVertex
100
AcDb2dVertex
 10
98.100456
 20
76.389288
 30
0.0
  0
SEQEND
  5
175
330
174
100
AcDbEntity
  8
001
370
    50
  0
POLYLINE
  5
17B
330
64
100
AcDbEntity
  8
001
 62
    40
370
    50
100
AcDb2dPolyline
 66
     1
 10
0.0
 20
0.0
 30
0.0
  0
VERTEX
  5
17D
330
17B
100
AcDbEntity
  8
001
 62
    40
370
    50
100
AcDbVertex
100
AcDb2dVertex
 10
95.590959
 20
85.698104
 30
0.0
  0
VERTEX
  5
17E
330
17B
100
AcDbEntity
  8
001
 62
    40
370
    50
100
AcDbVertex
100
AcDb2dVertex
 10
95.511008
 20
85.540292
 30
0.0
  0
VERTEX
  5
17F
330
17B
100
AcDbEntity
  8
001
 62
    40
370
    50
100
AcDbVertex
100
AcDb2dVertex
 10
95.407901
 20
85.303549
 30
0.0
  0
VERTEX
  5
180
330
17B
100
AcDbEntity
  8
001
 62
    40
370
    50
100
AcDbVertex
100
AcDb2dVertex
 10
95.314498
 20
85.033509
 30
0.0
  0
VERTEX
  5
181
330
17B
100
AcDbEntity
  8
001
 62
    40
370
    50
100
AcDbVertex
100
AcDb2dVertex
 10
95.260585
 20
84.845254
 30
0.0
  0
SEQEND
  5
17C
330
17B
100
AcDbEntity
  8
001
370
    50
  0
POLYLINE
  5
182
330
64
100
AcDbEntity
  8
001
 62
    40
370
    50
100
AcDb2dPolyline
 66
     1
 10
0.0
 20
0.0
 30
0.0
  0
VERTEX
  5
184
330
182
100
AcDbEntity
  8
001
 62
    40
370
    50
100
AcDbVertex
100
AcDb2dVertex
 10
95.802045
 20
85.727133
 30
0.0
  0
VERTEX
  5
185
330
182
100
AcDbEntity
  8
001
 62
    40
370
    50
100
AcDbVertex
100
AcDb2dVertex
 10
95.748801
 20
85.721535
 30
0.0
  0
VERTEX
  5
186
330
182
100
AcDbEntity
  8
001
 62
    40
370
    50
100
AcDbVertex
100
AcDb2dVertex
 10
95.695684
 20
85.715008
 30
0.0
  0
VERTEX
  5
187
330
182
100
AcDbEntity
  8
001
 62
    40
370
    50
100
AcDbVertex
100
AcDb2dVertex
 10
95.643259
 20
85.707013
 30
0.0
  0
VERTEX
  5
188
330
182
100
AcDbEntity
  8
001
 62
    40
370
    50
100
AcDbVertex
100
AcDb2dVertex
 10
95.590959
 20
85.698104
 30
0.0
  0
SEQEND
  5
183
330
182
100
AcDbEntity
  8
001
370
    50
  0
POLYLINE
  5
189
330
64
100
AcDbEntity
  8
001
 62
    40
370
    50
100
AcDb2dPolyline
 66
     1
 10
0.0
 20
0.0
 30
0.0
  0
VERTEX
  5
18B
330
189
100
AcDbEntity
  8
001
 62
    40
370
    50
100
AcDbVertex
100
AcDb2dVertex
 10
95.802045
 20
85.727133
 30
0.0
  0
VERTEX
  5
18C
330
189
100
AcDbEntity
  8
001
 62
    40
370
    50
100
AcDbVertex
100
AcDb2dVertex
 10
95.835222
 20
85.730073
 30
0.0
  0
VERTEX
  5
18D
330
189
100
AcDbEntity
  8
001
 62
    40
370
    50
100
AcDbVertex
100
AcDb2dVertex
 10
95.882744
 20
85.7343
 30
0.0
  0
VERTEX
  5
18E
330
189
100
AcDbEntity
  8
001
 62
    40
370
    50
100
AcDbVertex
100
AcDb2dVertex
 10
96.088406
 20
85.752841
 30
0.0
  0
VERTEX
  5
18F
330
189
100
AcDbEntity
  8
001
 62
    40
370
    50
100
AcDbVertex
100
AcDb2dVertex
 10
96.268789
 20
85.769579
 30
0.0
  0
VERTEX
  5
190
330
189
100
AcDbEntity
  8
001
 62
    40
370
    50
100
AcDbVertex
100
AcDb2dVertex
 10
96.4598
 20
85.787699
 30
0.0
  0
VERTEX
  5
191
330
189
100
AcDbEntity
  8
001
 62
    40
370
    50
100
AcDbVertex
100
AcDb2dVertex
 10
96.654684
 20
85.806457
 30
0.0
  0
VERTEX
  5
192
330
189
100
AcDbEntity
  8
001
 62
    40
370
    50
100
AcDbVertex
100
AcDb2dVertex
 10
97.00258
 20
85.840837
 30
0.0
  0
VERTEX
  5
193
330
189
100
AcDbEntity
  8
001
 62
    40
370
    50
100
AcDbVertex
100
AcDb2dVertex
 10
97.379487
 20
85.880511
 30
0.0
  0
VERTEX
  5
194
330
189
100
AcDbEntity
  8
001
 62
    40
370
    50
100
AcDbVertex
100
AcDb2dVertex
 10
97.662326
 20
85.911811
 30
0.0
  0
VERTEX
  5
195
330
189
100
AcDbEntity
  8
001
 62
    40
370
    50
100
AcDbVertex
100
AcDb2dVertex
 10
97.865852
 20
85.935059
 30
0.0
  0
SEQEND
  5
18A
330
189
100
AcDbEntity
  8
001
370
    50
  0
LINE
  5
196
330
64
100
AcDbEntity
  8
001
 62
    40
370
    50
100
AcDbLine
 10
97.578843
 20
76.505331
 30
0.0
 11
97.32424
 21
77.161976
 31
0.0
  0
POLYLINE
  5
197
330
64
100
AcDbEntity
  8
001
 62
    40
370
    50
100
AcDb2dPolyline
 66
     1
 10
0.0
 20
0.0
 30
0.0
  0
VERTEX
  5
199
330
197
100
AcDbEntity
  8
001
 62
    40
370
    50
100
AcDbVertex
100
AcDb2dVertex
 10
97.784602
 20
76.358792
 30
0.0
  0
VERTEX
  5
19A
330
197
100
AcDbEntity
  8
001
 62
    40
370
    50
100
AcDbVertex
100
AcDb2dVertex
 10
97.788414
 20
76.358835
 30
0.0
  0
VERTEX
  5
19B
330
197
100
AcDbEntity
  8
001
 62
    40
370
    50
100
AcDbVertex
100
AcDb2dVertex
 10
97.793982
 20
76.359022
 30
0.0
  0
VERTEX
  5
19C
330
197
100
AcDbEntity
  8
001
 62
    40
370
    50
100
AcDbVertex
100
AcDb2dVertex
 10
97.79951
 20
76.359382
 30
0.0
  0
VERTEX
  5
19D
330
197
100
AcDbEntity
  8
001
 62
    40
370
    50
100
AcDbVertex
100
AcDb2dVertex
 10
97.803287
 20
76.359714
 30
0.0
  0
SEQEND
  5
198
330
197
100
AcDbEntity
  8
001
370
    50
  0
POLYLINE
  5
19E
330
64
100
AcDbEntity
  8
001
 62
    40
370
    50
100
AcDb2dPolyline
 66
     1
 10
0.0
 20
0.0
 30
0.0
  0
VERTEX
  5
1A0
330
19E
100
AcDbEntity
  8
001
 62
    40
370
    50
100
AcDbVertex
100
AcDb2dVertex
 10
98.482232
 20
76.358779
 30
0.0
  0
VERTEX
  5
1A1
330
19E
100
AcDbEntity
  8
001
 62
    40
370
    50
100
AcDbVertex
100
AcDb2dVertex
 10
98.486012
 20
76.358822
 30
0.0
  0
VERTEX
  5
1A2
330
19E
100
AcDbEntity
  8
001
 62
    40
370
    50
100
AcDbVertex
100
AcDb2dVertex
 10
98.491532
 20
76.359009
 30
0.0
  0
VERTEX
  5
1A3
330
19E
100
AcDbEntity
  8
001
 62
    40
370
    50
100
AcDbVertex
100
AcDb2dVertex
 10
98.497044
 20
76.359369
 30
0.0
  0
VERTEX
  5
1A4
330
19E
100
AcDbEntity
  8
001
 62
    40
370
    50
100
AcDbVertex
100
AcDb2dVertex
 10
98.50081
 20
76.359701
 30
0.0
  0
SEQEND
  5
19F
330
19E
100
AcDbEntity
  8
001
370
    50
  0
POLYLINE
  5
1A5
330
64
100
AcDbEntity
  8
001
 62
    40
370
    50
100
AcDb2dPolyline
 66
     1
 10
0.0
 20
0.0
 30
0.0
  0
VERTEX
  5
1A7
330
1A5
100
AcDbEntity
  8
001
 62
    40
370
    50
100
AcDbVertex
100
AcDb2dVertex
 10
97.578843
 20
76.505331
 30
0.0
  0
VERTEX
  5
1A8
330
1A5
100
AcDbEntity
  8
001
 62
    40
370
    50
100
AcDbVertex
100
AcDb2dVertex
 10
97.587046
 20
76.487489
 30
0.0
  0
VERTEX
  5
1A9
330
1A5
100
AcDbEntity
  8
001
 62
    40
370
    50
100
AcDbVertex
100
AcDb2dVertex
 10
97.599917
 20
76.46399
 30
0.0
  0
VERTEX
  5
1AA
330
1A5
100
AcDbEntity
  8
001
 62
    40
370
    50
100
AcDbVertex
100
AcDb2dVertex
 10
97.610631
 20
76.448338
 30
0.0
  0
VERTEX
  5
1AB
330
1A5
100
AcDbEntity
  8
001
 62
    40
370
    50
100
AcDbVertex
100
AcDb2dVertex
 10
97.622043
 20
76.43485
 30
0.0
  0
VERTEX
  5
1AC
330
1A5
100
AcDbEntity
  8
001
 62
    40
370
    50
100
AcDbVertex
100
AcDb2dVertex
 10
97.63479
 20
76.421844
 30
0.0
  0
VERTEX
  5
1AD
330
1A5
100
AcDbEntity
  8
001
 62
    40
370
    50
100
AcDbVertex
100
AcDb2dVertex
 10
97.648402
 20
76.409476
 30
0.0
  0
VERTEX
  5
1AE
330
1A5
100
AcDbEntity
  8
001
 62
    40
370
    50
100
AcDbVertex
100
AcDb2dVertex
 10
97.676647
 20
76.388645
 30
0.0
  0
VERTEX
  5
1AF
330
1A5
100
AcDbEntity
  8
001
 62
    40
370
    50
100
AcDbVertex
100
AcDb2dVertex
 10
97.710516
 20
76.372972
 30
0.0
  0
VERTEX
  5
1B0
330
1A5
100
AcDbEntity
  8
001
 62
    40
370
    50
100
AcDbVertex
100
AcDb2dVertex
 10
97.752897
 20
76.362479
 30
0.0
  0
VERTEX
  5
1B1
330
1A5
100
AcDbEntity
  8
001
 62
    40
370
    50
100
AcDbVertex
100
AcDb2dVertex
 10
97.784602
 20
76.358792
 30
0.0
  0
SEQEND
  5
1A6
330
1A5
100
AcDbEntity
  8
001
370
    50
  0
LINE
  5
1B2
330
64
100
AcDbEntity
  8
001
 62
    40
370
    50
100
AcDbLine
 10
97.784602
 20
76.358792
 30
0.0
 11
98.482232
 21
76.358779
 31
0.0
  0
POLYLINE
  5
1B3
330
64
100
AcDbEntity
  8
001
 62
    40
370
    50
100
AcDb2dPolyline
 66
     1
 10
0.0
 20
0.0
 30
0.0
  0
VERTEX
  5
1B5
330
1B3
100
AcDbEntity
  8
001
 62
    40
370
    50
100
AcDbVertex
100
AcDb2dVertex
 10
95.590959
 20
85.698104
 30
0.0
  0
VERTEX
  5
1B6
330
1B3
100
AcDbEntity
  8
001
 62
    40
370
    50
100
AcDbVertex
100
AcDb2dVertex
 10
95.518651
 20
85.669407
 30
0.0
  0
VERTEX
  5
1B7
330
1B3
100
AcDbEntity
  8
001
 62
    40
370
    50
100
AcDbVertex
100
AcDb2dVertex
 10
95.449069
 20
85.635513
 30
0.0
  0
VERTEX
  5
1B8
330
1B3
100
AcDbEntity
  8
001
 62
    40
370
    50
100
AcDbVertex
100
AcDb2dVertex
 10
95.408051
 20
85.609719
 30
0.0
  0
VERTEX
  5
1B9
330
1B3
100
AcDbEntity
  8
001
 62
    40
370
    50
100
AcDbVertex
100
AcDb2dVertex
 10
95.369135
 20
85.58065
 30
0.0
  0
VERTEX
  5
1BA
330
1B3
100
AcDbEntity
  8
001
 62
    40
370
    50
100
AcDbVertex
100
AcDb2dVertex
 10
95.332613
 20
85.549133
 30
0.0
  0
VERTEX
  5
1BB
330
1B3
100
AcDbEntity
  8
001
 62
    40
370
    50
100
AcDbVertex
100
AcDb2dVertex
 10
95.298684
 20
85.514937
 30
0.0
  0
VERTEX
  5
1BC
330
1B3
100
AcDbEntity
  8
001
 62
    40
370
    50
100
AcDbVertex
100
AcDb2dVertex
 10
95.258843
 20
85.465405
 30
0.0
  0
VERTEX
  5
1BD
330
1B3
100
AcDbEntity
  8
001
 62
    40
370
    50
100
AcDbVertex
100
AcDb2dVertex
 10
95.225932
 20
85.410697
 30
0.0
  0
VERTEX
  5
1BE
330
1B3
100
AcDbEntity
  8
001
 62
    40
370
    50
100
AcDbVertex
100
AcDb2dVertex
 10
95.208124
 20
85.368925
 30
0.0
  0
VERTEX
  5
1BF
330
1B3
100
AcDbEntity
  8
001
 62
    40
370
    50
100
AcDbVertex
100
AcDb2dVertex
 10
95.197988
 20
85.325217
 30
0.0
  0
VERTEX
  5
1C0
330
1B3
100
AcDbEntity
  8
001
 62
    40
370
    50
100
AcDbVertex
100
AcDb2dVertex
 10
95.196605
 20
85.296233
 30
0.0
  0
VERTEX
  5
1C1
330
1B3
100
AcDbEntity
  8
001
 62
    40
370
    50
100
AcDbVertex
100
AcDb2dVertex
 10
95.197558
 20
85.266994
 30
0.0
  0
SEQEND
  5
1B4
330
1B3
100
AcDbEntity
  8
001
370
    50
  0
LINE
  5
1C2
330
64
100
AcDbEntity
  8
001
 62
    40
370
    50
100
AcDbLine
 10
95.196599
 20
85.273411
 30
0.0
 11
95.260585
 21
84.845254
 31
0.0
  0
LINE
  5
1C3
330
64
100
AcDbEntity
  8
001
 62
    40
370
    50
100
AcDbLine
 10
95.196481
 20
85.083923
 30
0.0
 11
97.32424
 21
77.161976
 31
0.0
  0
ENDBLK
  5
66
330
64
100
AcDbEntity
  8
0
100
AcDbBlockEnd
  0
BLOCK
  5
1C5
330
1C4
100
AcDbEntity
  8
0
100
AcDbBlockBegin
  2
M-1-2
 70
     0
 10
0.0
 20
0.0
 30
0.0
  3
M-1-2
  1

  0
POLYLINE
  5
1C7
330
1C4
100
AcDbEntity
  8
001
 62
     5
370
    50
100
AcDb2dPolyline
 66
     1
 10
0.0
 20
0.0
 30
0.0
  0
VERTEX
  5
1C9
330
1C7
100
AcDbEntity
  8
001
 62
     5
370
    50
100
AcDbVertex
100
AcDb2dVertex
 10
100.422075
 20
83.42822
 30
0.0
  0
VERTEX
  5
1CA
330
1C7
100
AcDbEntity
  8
001
 62
     5
370
    50
100
AcDbVertex
100
AcDb2dVertex
 10
100.37339
 20
83.411938
 30
0.0
  0
VERTEX
  5
1CB
330
1C7
100
AcDbEntity
  8
001
 62
     5
370
    50
100
AcDbVertex
100
AcDb2dVertex
 10
100.324979
 20
83.39489
 30
0.0
  0
VERTEX
  5
1CC
330
1C7
100
AcDbEntity
  8
001
 62
     5
370
    50
100
AcDbVertex
100
AcDb2dVertex
 10
100.246957
 20
83.364016
 30
0.0
  0
VERTEX
  5
1CD
330
1C7
100
AcDbEntity
  8
001
 62
     5
370
    50
100
AcDbVertex
100
AcDb2dVertex
 10
100.170409
 20
83.329569
 30
0.0
  0
VERTEX
  5
1CE
330
1C7
100
AcDbEntity
  8
001
 62
     5
370
    50
100
AcDbVertex
100
AcDb2dVertex
 10
100.095229
 20
83.291904
 30
0.0
  0
VERTEX
  5
1CF
330
1C7
100
AcDbEntity
  8
001
 62
     5
370
    50
100
AcDbVertex
100
AcDb2dVertex
 10
100.021701
 20
83.251137
 30
0.0
  0
VERTEX
  5
1D0
330
1C7
100
AcDbEntity
  8
001
 62
     5
370
    50
100
AcDbVertex
100
AcDb2dVertex
 10
99.94983
 20
83.207155
 30
0.0
  0
VERTEX
  5
1D1
330
1C7
100
AcDbEntity
  8
001
 62
     5
370
    50
100
AcDbVertex
100
AcDb2dVertex
 10
99.879898
 20
83.160142
 30
0.0
  0
VERTEX
  5
1D2
330
1C7
100
AcDbEntity
  8
001
 62
     5
370
    50
100
AcDbVertex
100
AcDb2dVertex
 10
99.81186
 20
83.110094
 30
0.0
  0
VERTEX
  5
1D3
330
1C7
100
AcDbEntity
  8
001
 62
     5
370
    50
100
AcDbVertex
100
AcDb2dVertex
 10
99.745997
 20
83.057219
 30
0.0
  0
VERTEX
  5
1D4
330
1C7
100
AcDbEntity
  8
001
 62
     5
370
    50
100
AcDbVertex
100
AcDb2dVertex
 10
99.682267
 20
83.001472
 30
0.0
  0
VERTEX
  5
1D5
330
1C7
100
AcDbEntity
  8
001
 62
     5
370
    50
100
AcDbVertex
100
AcDb2dVertex
 10
99.62094
 20
82.94309
 30
0.0
  0
VERTEX
  5
1D6
330
1C7
100
AcDbEntity
  8
001
 62
     5
370
    50
100
AcDbVertex
100
AcDb2dVertex
 10
99.561969
 20
82.882029
 30
0.0
  0
VERTEX
  5
1D7
330
1C7
100
AcDbEntity
  8
001
 62
     5
370
    50
100
AcDbVertex
100
AcDb2dVertex
 10
99.505608
 20
82.818552
 30
0.0
  0
VERTEX
  5
1D8
330
1C7
100
AcDbEntity
  8
001
 62
     5
370
    50
100
AcDbVertex
100
AcDb2dVertex
 10
99.451814
 20
82.752608
 30
0.0
  0
VERTEX
  5
1D9
330
1C7
100
AcDbEntity
  8
001
 62
     5
370
    50
100
AcDbVertex
100
AcDb2dVertex
 10
99.400817
 20
82.684479
 30
0.0
  0
VERTEX
  5
1DA
330
1C7
100
AcDbEntity
  8
001
 62
     5
370
    50
100
AcDbVertex
100
AcDb2dVertex
 10
99.352581
 20
82.614115
 30
0.0
  0
VERTEX
  5
1DB
330
1C7
100
AcDbEntity
  8
001
 62
     5
370
    50
100
AcDbVertex
100
AcDb2dVertex
 10
99.307306
 20
82.54181
 30
0.0
  0
VERTEX
  5
1DC
330
1C7
100
AcDbEntity
  8
001
 62
     5
370
    50
100
AcDbVertex
100
AcDb2dVertex
 10
99.26497
 20
82.467522
 30
0.0
  0
VERTEX
  5
1DD
330
1C7
100
AcDbEntity
  8
001
 62
     5
370
    50
100
AcDbVertex
100
AcDb2dVertex
 10
99.225741
 20
82.391548
 30
0.0
  0
VERTEX
  5
1DE
330
1C7
100
AcDbEntity
  8
001
 62
     5
370
    50
100
AcDbVertex
100
AcDb2dVertex
 10
99.189605
 20
82.31386
 30
0.0
  0
VERTEX
  5
1DF
330
1C7
100
AcDbEntity
  8
001
 62
     5
370
    50
100
AcDbVertex
100
AcDb2dVertex
 10
99.156699
 20
82.234749
 30
0.0
  0
VERTEX
  5
1E0
330
1C7
100
AcDbEntity
  8
001
 62
     5
370
    50
100
AcDbVertex
100
AcDb2dVertex
 10
99.12702
 20
82.154208
 30
0.0
  0
VERTEX
  5
1E1
330
1C7
100
AcDbEntity
  8
001
 62
     5
370
    50
100
AcDbVertex
100
AcDb2dVertex
 10
99.100673
 20
82.072517
 30
0.0
  0
VERTEX
  5
1E2
330
1C7
100
AcDbEntity
  8
001
 62
     5
370
    50
100
AcDbVertex
100
AcDb2dVertex
 10
99.077664
 20
81.989693
 30
0.0
  0
VERTEX
  5
1E3
330
1C7
100
AcDbEntity
  8
001
 62
     5
370
    50
100
AcDbVertex
100
AcDb2dVertex
 10
99.058063
 20
81.905996
 30
0.0
  0
VERTEX
  5
1E4
330
1C7
100
AcDbEntity
  8
001
 62
     5
370
    50
100
AcDbVertex
100
AcDb2dVertex
 10
99.041879
 20
81.821472
 30
0.0
  0
VERTEX
  5
1E5
330
1C7
100
AcDbEntity
  8
001
 62
     5
370
    50
100
AcDbVertex
100
AcDb2dVertex
 10
99.029175
 20
81.736359
 30
0.0
  0
VERTEX
  5
1E6
330
1C7
100
AcDbEntity
  8
001
 62
     5
370
    50
100
AcDbVertex
100
AcDb2dVertex
 10
99.019967
 20
81.650736
 30
0.0
  0
VERTEX
  5
1E7
330
1C7
100
AcDbEntity
  8
001
 62
     5
370
    50
100
AcDbVertex
100
AcDb2dVertex
 10
99.014218
 20
81.564804
 30
0.0
  0
VERTEX
  5
1E8
330
1C7
100
AcDbEntity
  8
001
 62
     5
370
    50
100
AcDbVertex
100
AcDb2dVertex
 10
99.011954
 20
81.483191
 30
0.0
  0
VERTEX
  5
1E9
330
1C7
100
AcDbEntity
  8
001
 62
     5
370
    50
100
AcDbVertex
100
AcDb2dVertex
 10
99.013001
 20
81.401572
 30
0.0
  0
VERTEX
  5
1EA
330
1C7
100
AcDbEntity
  8
001
 62
     5
370
    50
100
AcDbVertex
100
AcDb2dVertex
 10
99.014007
 20
81.3763
 30
0.0
  0
VERTEX
  5
1EB
330
1C7
100
AcDbEntity
  8
001
 62
     5
370
    50
100
AcDbVertex
100
AcDb2dVertex
 10
99.015185
 20
81.351035
 30
0.0
  0
SEQEND
  5
1C8
330
1C7
100
AcDbEntity
  8
001
370
    50
  0
POLYLINE
  5
1EC
330
1C4
100
AcDbEntity
  8
001
 62
     5
370
    50
100
AcDb2dPolyline
 66
     1
 10
0.0
 20
0.0
 30
0.0
  0
VERTEX
  5
1EE
330
1EC
100
AcDbEntity
  8
001
 62
     5
370
    50
100
AcDbVertex
100
AcDb2dVertex
 10
99.015185
 20
81.351035
 30
0.0
  0
VERTEX
  5
1EF
330
1EC
100
AcDbEntity
  8
001
 62
     5
370
    50
100
AcDbVertex
100
AcDb2dVertex
 10
99.01855
 20
81.303698
 30
0.0
  0
VERTEX
  5
1F0
330
1EC
100
AcDbEntity
  8
001
 62
     5
370
    50
100
AcDbVertex
100
AcDb2dVertex
 10
99.022551
 20
81.256418
 30
0.0
  0
VERTEX
  5
1F1
330
1EC
100
AcDbEntity
  8
001
 62
     5
370
    50
100
AcDbVertex
100
AcDb2dVertex
 10
99.032784
 20
81.170947
 30
0.0
  0
VERTEX
  5
1F2
330
1EC
100
AcDbEntity
  8
001
 62
     5
370
    50
100
AcDbVertex
100
AcDb2dVertex
 10
99.04675
 20
81.085978
 30
0.0
  0
VERTEX
  5
1F3
330
1EC
100
AcDbEntity
  8
001
 62
     5
370
    50
100
AcDbVertex
100
AcDb2dVertex
 10
99.064078
 20
81.001693
 30
0.0
  0
VERTEX
  5
1F4
330
1EC
100
AcDbEntity
  8
001
 62
     5
370
    50
100
AcDbVertex
100
AcDb2dVertex
 10
99.084774
 20
80.918185
 30
0.0
  0
VERTEX
  5
1F5
330
1EC
100
AcDbEntity
  8
001
 62
     5
370
    50
100
AcDbVertex
100
AcDb2dVertex
 10
99.108871
 20
80.835696
 30
0.0
  0
VERTEX
  5
1F6
330
1EC
100
AcDbEntity
  8
001
 62
     5
370
    50
100
AcDbVertex
100
AcDb2dVertex
 10
99.136351
 20
80.754266
 30
0.0
  0
VERTEX
  5
1F7
330
1EC
100
AcDbEntity
  8
001
 62
     5
370
    50
100
AcDbVertex
100
AcDb2dVertex
 10
99.167102
 20
80.674157
 30
0.0
  0
VERTEX
  5
1F8
330
1EC
100
AcDbEntity
  8
001
 62
     5
370
    50
100
AcDbVertex
100
AcDb2dVertex
 10
99.201119
 20
80.595381
 30
0.0
  0
VERTEX
  5
1F9
330
1EC
100
AcDbEntity
  8
001
 62
     5
370
    50
100
AcDbVertex
100
AcDb2dVertex
 10
99.23829
 20
80.518218
 30
0.0
  0
VERTEX
  5
1FA
330
1EC
100
AcDbEntity
  8
001
 62
     5
370
    50
100
AcDbVertex
100
AcDb2dVertex
 10
99.278619
 20
80.442657
 30
0.0
  0
VERTEX
  5
1FB
330
1EC
100
AcDbEntity
  8
001
 62
     5
370
    50
100
AcDbVertex
100
AcDb2dVertex
 10
99.321951
 20
80.368985
 30
0.0
  0
VERTEX
  5
1FC
330
1EC
100
AcDbEntity
  8
001
 62
     5
370
    50
100
AcDbVertex
100
AcDb2dVertex
 10
99.368302
 20
80.297175
 30
0.0
  0
VERTEX
  5
1FD
330
1EC
100
AcDbEntity
  8
001
 62
     5
370
    50
100
AcDbVertex
100
AcDb2dVertex
 10
99.417486
 20
80.227515
 30
0.0
  0
VERTEX
  5
1FE
330
1EC
100
AcDbEntity
  8
001
 62
     5
370
    50
100
AcDbVertex
100
AcDb2dVertex
 10
99.469532
 20
80.159966
 30
0.0
  0
VERTEX
  5
1FF
330
1EC
100
AcDbEntity
  8
001
 62
     5
370
    50
100
AcDbVertex
100
AcDb2dVertex
 10
99.524221
 20
80.09481
 30
0.0
  0
VERTEX
  5
200
330
1EC
100
AcDbEntity
  8
001
 62
     5
370
    50
100
AcDbVertex
100
AcDb2dVertex
 10
99.58159
 20
80.032001
 30
0.0
  0
VERTEX
  5
201
330
1EC
100
AcDbEntity
  8
001
 62
     5
370
    50
100
AcDbVertex
100
AcDb2dVertex
 10
99.641395
 20
79.971807
 30
0.0
  0
VERTEX
  5
202
330
1EC
100
AcDbEntity
  8
001
 62
     5
370
    50
100
AcDbVertex
100
AcDb2dVertex
 10
99.70368
 20
79.914185
 30
0.0
  0
VERTEX
  5
203
330
1EC
100
AcDbEntity
  8
001
 62
     5
370
    50
100
AcDbVertex
100
AcDb2dVertex
 10
99.768179
 20
79.859383
 30
0.0
  0
VERTEX
  5
204
330
1EC
100
AcDbEntity
  8
001
 62
     5
370
    50
100
AcDbVertex
100
AcDb2dVertex
 10
99.834935
 20
79.80735
 30
0.0
  0
VERTEX
  5
205
330
1EC
100
AcDbEntity
  8
001
 62
     5
370
    50
100
AcDbVertex
100
AcDb2dVertex
 10
99.903665
 20
79.758305
 30
0.0
  0
VERTEX
  5
206
330
1EC
100
AcDbEntity
  8
001
 62
     5
370
    50
100
AcDbVertex
100
AcDb2dVertex
 10
99.974422
 20
79.712248
 30
0.0
  0
VERTEX
  5
207
330
1EC
100
AcDbEntity
  8
001
 62
     5
370
    50
100
AcDbVertex
100
AcDb2dVertex
 10
100.046919
 20
79.66938
 30
0.0
  0
VERTEX
  5
208
330
1EC
100
AcDbEntity
  8
001
 62
     5
370
    50
100
AcDbVertex
100
AcDb2dVertex
 10
100.121152
 20
79.629547
 30
0.0
  0
VERTEX
  5
209
330
1EC
100
AcDbEntity
  8
001
 62
     5
370
    50
100
AcDbVertex
100
AcDb2dVertex
 10
100.196818
 20
79.592875
 30
0.0
  0
VERTEX
  5
20A
330
1EC
100
AcDbEntity
  8
001
 62
     5
370
    50
100
AcDbVertex
100
AcDb2dVertex
 10
100.274084
 20
79.559827
 30
0.0
  0
VERTEX
  5
20B
330
1EC
100
AcDbEntity
  8
001
 62
     5
370
    50
100
AcDbVertex
100
AcDb2dVertex
 10
100.356997
 20
79.529182
 30
0.0
  0
VERTEX
  5
20C
330
1EC
100
AcDbEntity
  8
001
 62
     5
370
    50
100
AcDbVertex
100
AcDb2dVertex
 10
100.440823
 20
79.500917
 30
0.0
  0
SEQEND
  5
1ED
330
1EC
100
AcDbEntity
  8
001
370
    50
  0
POLYLINE
  5
20D
330
1C4
100
AcDbEntity
  8
001
 62
     5
370
    50
100
AcDb2dPolyline
 66
     1
 10
0.0
 20
0.0
 30
0.0
  0
VERTEX
  5
20F
330
20D
100
AcDbEntity
  8
001
 62
     5
370
    50
100
AcDbVertex
100
AcDb2dVertex
 10
101.003261
 20
83.517462
 30
0.0
  0
VERTEX
  5
210
330
20D
100
AcDbEntity
  8
001
 62
     5
370
    50
100
AcDbVertex
100
AcDb2dVertex
 10
100.862435
 20
83.511564
 30
0.0
  0
VERTEX
  5
211
330
20D
100
AcDbEntity
  8
001
 62
     5
370
    50
100
AcDbVertex
100
AcDb2dVertex
 10
100.658587
 20
83.486324
 30
0.0
  0
VERTEX
  5
212
330
20D
100
AcDbEntity
  8
001
 62
     5
370
    50
100
AcDbVertex
100
AcDb2dVertex
 10
100.5196
 20
83.455333
 30
0.0
  0
VERTEX
  5
213
330
20D
100
AcDbEntity
  8
001
 62
     5
370
    50
100
AcDbVertex
100
AcDb2dVertex
 10
100.425681
 20
83.428763
 30
0.0
  0
SEQEND
  5
20E
330
20D
100
AcDbEntity
  8
001
370
    50
  0
POLYLINE
  5
214
330
1C4
100
AcDbEntity
  8
001
 62
     5
370
    50
100
AcDb2dPolyline
 66
     1
 10
0.0
 20
0.0
 30
0.0
  0
VERTEX
  5
216
330
214
100
AcDbEntity
  8
001
 62
     5
370
    50
100
AcDbVertex
100
AcDb2dVertex
 10
101.003184
 20
79.417462
 30
0.0
  0
VERTEX
  5
217
330
214
100
AcDbEntity
  8
001
 62
     5
370
    50
100
AcDbVertex
100
AcDb2dVertex
 10
101.144008
 20
79.423359
 30
0.0
  0
VERTEX
  5
218
330
214
100
AcDbEntity
  8
001
 62
     5
370
    50
100
AcDbVertex
100
AcDb2dVertex
 10
101.347859
 20
79.448599
 30
0.0
  0
VERTEX
  5
219
330
214
100
AcDbEntity
  8
001
 62
     5
370
    50
100
AcDbVertex
100
AcDb2dVertex
 10
101.481691
 20
79.478235
 30
0.0
  0
VERTEX
  5
21A
330
214
100
AcDbEntity
  8
001
 62
     5
370
    50
100
AcDbVertex
100
AcDb2dVertex
 10
101.572179
 20
79.503485
 30
0.0
  0
SEQEND
  5
215
330
214
100
AcDbEntity
  8
001
370
    50
  0
POLYLINE
  5
21B
330
1C4
100
AcDbEntity
  8
001
 62
     5
370
    50
100
AcDb2dPolyline
 66
     1
 10
0.0
 20
0.0
 30
0.0
  0
VERTEX
  5
21D
330
21B
100
AcDbEntity
  8
001
 62
     5
370
    50
100
AcDbVertex
100
AcDb2dVertex
 10
100.891448
 20
82.865644
 30
0.0
  0
VERTEX
  5
21E
330
21B
100
AcDbEntity
  8
001
 62
     5
370
    50
100
AcDbVertex
100
AcDb2dVertex
 10
100.871571
 20
82.86457
 30
0.0
  0
VERTEX
  5
21F
330
21B
100
AcDbEntity
  8
001
 62
     5
370
    50
100
AcDbVertex
100
AcDb2dVertex
 10
100.84437
 20
82.861391
 30
0.0
  0
VERTEX
  5
220
330
21B
100
AcDbEntity
  8
001
 62
     5
370
    50
100
AcDbVertex
100
AcDb2dVertex
 10
100.820252
 20
82.856136
 30
0.0
  0
VERTEX
  5
221
330
21B
100
AcDbEntity
  8
001
 62
     5
370
    50
100
AcDbVertex
100
AcDb2dVertex
 10
100.798723
 20
82.848759
 30
0.0
  0
VERTEX
  5
222
330
21B
100
AcDbEntity
  8
001
 62
     5
370
    50
100
AcDbVertex
100
AcDb2dVertex
 10
100.777129
 20
82.839257
 30
0.0
  0
VERTEX
  5
223
330
21B
100
AcDbEntity
  8
001
 62
     5
370
    50
100
AcDbVertex
100
AcDb2dVertex
 10
100.755893
 20
82.828133
 30
0.0
  0
VERTEX
  5
224
330
21B
100
AcDbEntity
  8
001
 62
     5
370
    50
100
AcDbVertex
100
AcDb2dVertex
 10
100.700142
 20
82.786591
 30
0.0
  0
VERTEX
  5
225
330
21B
100
AcDbEntity
  8
001
 62
     5
370
    50
100
AcDbVertex
100
AcDb2dVertex
 10
100.656659
 20
82.725648
 30
0.0
  0
VERTEX
  5
226
330
21B
100
AcDbEntity
  8
001
 62
     5
370
    50
100
AcDbVertex
100
AcDb2dVertex
 10
100.637636
 20
82.681377
 30
0.0
  0
VERTEX
  5
227
330
21B
100
AcDbEntity
  8
001
 62
     5
370
    50
100
AcDbVertex
100
AcDb2dVertex
 10
100.627245
 20
82.648459
 30
0.0
  0
SEQEND
  5
21C
330
21B
100
AcDbEntity
  8
001
370
    50
  0
POLYLINE
  5
228
330
1C4
100
AcDbEntity
  8
001
 62
     5
370
    50
100
AcDb2dPolyline
 66
     1
 10
0.0
 20
0.0
 30
0.0
  0
VERTEX
  5
22A
330
228
100
AcDbEntity
  8
001
 62
     5
370
    50
100
AcDbVertex
100
AcDb2dVertex
 10
100.034136
 20
82.246603
 30
0.0
  0
VERTEX
  5
22B
330
228
100
AcDbEntity
  8
001
 62
     5
370
    50
100
AcDbVertex
100
AcDb2dVertex
 10
100.035935
 20
82.246263
 30
0.0
  0
VERTEX
  5
22C
330
228
100
AcDbEntity
  8
001
 62
     5
370
    50
100
AcDbVertex
100
AcDb2dVertex
 10
100.038566
 20
82.245776
 30
0.0
  0
VERTEX
  5
22D
330
228
100
AcDbEntity
  8
001
 62
     5
370
    50
100
AcDbVertex
100
AcDb2dVertex
 10
100.091234
 20
82.23925
 30
0.0
  0
VERTEX
  5
22E
330
228
100
AcDbEntity
  8
001
 62
     5
370
    50
100
AcDbVertex
100
AcDb2dVertex
 10
100.127596
 20
82.237729
 30
0.0
  0
SEQEND
  5
229
330
228
100
AcDbEntity
  8
001
370
    50
  0
POLYLINE
  5
22F
330
1C4
100
AcDbEntity
  8
001
 62
     5
370
    50
100
AcDb2dPolyline
 66
     1
 10
0.0
 20
0.0
 30
0.0
  0
VERTEX
  5
231
330
22F
100
AcDbEntity
  8
001
 62
     5
370
    50
100
AcDbVertex
100
AcDb2dVertex
 10
99.984716
 20
82.251295
 30
0.0
  0
VERTEX
  5
232
330
22F
100
AcDbEntity
  8
001
 62
     5
370
    50
100
AcDbVertex
100
AcDb2dVertex
 10
99.964841
 20
82.25023
 30
0.0
  0
VERTEX
  5
233
330
22F
100
AcDbEntity
  8
001
 62
     5
370
    50
100
AcDbVertex
100
AcDb2dVertex
 10
99.937638
 20
82.247043
 30
0.0
  0
VERTEX
  5
234
330
22F
100
AcDbEntity
  8
001
 62
     5
370
    50
100
AcDbVertex
100
AcDb2dVertex
 10
99.91351
 20
82.241745
 30
0.0
  0
VERTEX
  5
235
330
22F
100
AcDbEntity
  8
001
 62
     5
370
    50
100
AcDbVertex
100
AcDb2dVertex
 10
99.891991
 20
82.234411
 30
0.0
  0
VERTEX
  5
236
330
22F
100
AcDbEntity
  8
001
 62
     5
370
    50
100
AcDbVertex
100
AcDb2dVertex
 10
99.870434
 20
82.225073
 30
0.0
  0
VERTEX
  5
237
330
22F
100
AcDbEntity
  8
001
 62
     5
370
    50
100
AcDbVertex
100
AcDb2dVertex
 10
99.849161
 20
82.213785
 30
0.0
  0
VERTEX
  5
238
330
22F
100
AcDbEntity
  8
001
 62
     5
370
    50
100
AcDbVertex
100
AcDb2dVertex
 10
99.792684
 20
82.169049
 30
0.0
  0
VERTEX
  5
239
330
22F
100
AcDbEntity
  8
001
 62
     5
370
    50
100
AcDbVertex
100
AcDb2dVertex
 10
99.749927
 20
82.1113
 30
0.0
  0
VERTEX
  5
23A
330
22F
100
AcDbEntity
  8
001
 62
     5
370
    50
100
AcDbVertex
100
AcDb2dVertex
 10
99.729944
 20
82.066889
 30
0.0
  0
VERTEX
  5
23B
330
22F
100
AcDbEntity
  8
001
 62
     5
370
    50
100
AcDbVertex
100
AcDb2dVertex
 10
99.717722
 20
82.019922
 30
0.0
  0
VERTEX
  5
23C
330
22F
100
AcDbEntity
  8
001
 62
     5
370
    50
100
AcDbVertex
100
AcDb2dVertex
 10
99.71459
 20
81.995731
 30
0.0
  0
VERTEX
  5
23D
330
22F
100
AcDbEntity
  8
001
 62
     5
370
    50
100
AcDbVertex
100
AcDb2dVertex
 10
99.713602
 20
81.971301
 30
0.0
  0
VERTEX
  5
23E
330
22F
100
AcDbEntity
  8
001
 62
     5
370
    50
100
AcDbVertex
100
AcDb2dVertex
 10
99.714776
 20
81.946773
 30
0.0
  0
VERTEX
  5
23F
330
22F
100
AcDbEntity
  8
001
 62
     5
370
    50
100
AcDbVertex
100
AcDb2dVertex
 10
99.71772
 20
81.922679
 30
0.0
  0
VERTEX
  5
240
330
22F
100
AcDbEntity
  8
001
 62
     5
370
    50
100
AcDbVertex
100
AcDb2dVertex
 10
99.728465
 20
81.877059
 30
0.0
  0
VERTEX
  5
241
330
22F
100
AcDbEntity
  8
001
 62
     5
370
    50
100
AcDbVertex
100
AcDb2dVertex
 10
99.749921
 20
81.8313
 30
0.0
  0
VERTEX
  5
242
330
22F
100
AcDbEntity
  8
001
 62
     5
370
    50
100
AcDbVertex
100
AcDb2dVertex
 10
99.777308
 20
81.792404
 30
0.0
  0
VERTEX
  5
243
330
22F
100
AcDbEntity
  8
001
 62
     5
370
    50
100
AcDbVertex
100
AcDb2dVertex
 10
99.799939
 20
81.766397
 30
0.0
  0
SEQEND
  5
230
330
22F
100
AcDbEntity
  8
001
370
    50
  0
POLYLINE
  5
244
330
1C4
100
AcDbEntity
  8
001
 62
     5
370
    50
100
AcDb2dPolyline
 66
     1
 10
0.0
 20
0.0
 30
0.0
  0
VERTEX
  5
246
330
244
100
AcDbEntity
  8
001
 62
     5
370
    50
100
AcDbVertex
100
AcDb2dVertex
 10
99.84035
 20
81.034975
 30
0.0
  0
VERTEX
  5
247
330
244
100
AcDbEntity
  8
001
 62
     5
370
    50
100
AcDbVertex
100
AcDb2dVertex
 10
99.8641
 20
81.067102
 30
0.0
  0
VERTEX
  5
248
330
244
100
AcDbEntity
  8
001
 62
     5
370
    50
100
AcDbVertex
100
AcDb2dVertex
 10
99.894521
 20
81.114132
 30
0.0
  0
VERTEX
  5
249
330
244
100
AcDbEntity
  8
001
 62
     5
370
    50
100
AcDbVertex
100
AcDb2dVertex
 10
99.935179
 20
81.201546
 30
0.0
  0
VERTEX
  5
24A
330
244
100
AcDbEntity
  8
001
 62
     5
370
    50
100
AcDbVertex
100
AcDb2dVertex
 10
99.955425
 20
81.286942
 30
0.0
  0
VERTEX
  5
24B
330
244
100
AcDbEntity
  8
001
 62
     5
370
    50
100
AcDbVertex
100
AcDb2dVertex
 10
99.961061
 20
81.332349
 30
0.0
  0
VERTEX
  5
24C
330
244
100
AcDbEntity
  8
001
 62
     5
370
    50
100
AcDbVertex
100
AcDb2dVertex
 10
99.963216
 20
81.378892
 30
0.0
  0
VERTEX
  5
24D
330
244
100
AcDbEntity
  8
001
 62
     5
370
    50
100
AcDbVertex
100
AcDb2dVertex
 10
99.961079
 20
81.425377
 30
0.0
  0
VERTEX
  5
24E
330
244
100
AcDbEntity
  8
001
 62
     5
370
    50
100
AcDbVertex
100
AcDb2dVertex
 10
99.955428
 20
81.470843
 30
0.0
  0
VERTEX
  5
24F
330
244
100
AcDbEntity
  8
001
 62
     5
370
    50
100
AcDbVertex
100
AcDb2dVertex
 10
99.935056
 20
81.557055
 30
0.0
  0
VERTEX
  5
250
330
244
100
AcDbEntity
  8
001
 62
     5
370
    50
100
AcDbVertex
100
AcDb2dVertex
 10
99.894531
 20
81.643655
 30
0.0
  0
VERTEX
  5
251
330
244
100
AcDbEntity
  8
001
 62
     5
370
    50
100
AcDbVertex
100
AcDb2dVertex
 10
99.842747
 20
81.717223
 30
0.0
  0
VERTEX
  5
252
330
244
100
AcDbEntity
  8
001
 62
     5
370
    50
100
AcDbVertex
100
AcDb2dVertex
 10
99.799939
 20
81.766397
 30
0.0
  0
SEQEND
  5
245
330
244
100
AcDbEntity
  8
001
370
    50
  0
POLYLINE
  5
253
330
1C4
100
AcDbEntity
  8
001
 62
     5
370
    50
100
AcDb2dPolyline
 66
     1
 10
0.0
 20
0.0
 30
0.0
  0
VERTEX
  5
255
330
253
100
AcDbEntity
  8
001
 62
     5
370
    50
100
AcDbVertex
100
AcDb2dVertex
 10
100.046484
 20
80.573114
 30
0.0
  0
VERTEX
  5
256
330
253
100
AcDbEntity
  8
001
 62
     5
370
    50
100
AcDbVertex
100
AcDb2dVertex
 10
100.065719
 20
80.57392
 30
0.0
  0
VERTEX
  5
257
330
253
100
AcDbEntity
  8
001
 62
     5
370
    50
100
AcDbVertex
100
AcDb2dVertex
 10
100.093561
 20
80.577367
 30
0.0
  0
VERTEX
  5
258
330
253
100
AcDbEntity
  8
001
 62
     5
370
    50
100
AcDbVertex
100
AcDb2dVertex
 10
100.112871
 20
80.581687
 30
0.0
  0
VERTEX
  5
259
330
253
100
AcDbEntity
  8
001
 62
     5
370
    50
100
AcDbVertex
100
AcDb2dVertex
 10
100.125916
 20
80.585401
 30
0.0
  0
SEQEND
  5
254
330
253
100
AcDbEntity
  8
001
370
    50
  0
POLYLINE
  5
25A
330
1C4
100
AcDbEntity
  8
001
 62
     5
370
    50
100
AcDb2dPolyline
 66
     1
 10
0.0
 20
0.0
 30
0.0
  0
VERTEX
  5
25C
330
25A
100
AcDbEntity
  8
001
 62
     5
370
    50
100
AcDbVertex
100
AcDb2dVertex
 10
100.759435
 20
80.255835
 30
0.0
  0
VERTEX
  5
25D
330
25A
100
AcDbEntity
  8
001
 62
     5
370
    50
100
AcDbVertex
100
AcDb2dVertex
 10
100.744479
 20
80.29285
 30
0.0
  0
VERTEX
  5
25E
330
25A
100
AcDbEntity
  8
001
 62
     5
370
    50
100
AcDbVertex
100
AcDb2dVertex
 10
100.720146
 20
80.343866
 30
0.0
  0
VERTEX
  5
25F
330
25A
100
AcDbEntity
  8
001
 62
     5
370
    50
100
AcDbVertex
100
AcDb2dVertex
 10
100.636978
 20
80.459741
 30
0.0
  0
VERTEX
  5
260
330
25A
100
AcDbEntity
  8
001
 62
     5
370
    50
100
AcDbVertex
100
AcDb2dVertex
 10
100.532486
 20
80.537688
 30
0.0
  0
VERTEX
  5
261
330
25A
100
AcDbEntity
  8
001
 62
     5
370
    50
100
AcDbVertex
100
AcDb2dVertex
 10
100.492375
 20
80.558694
 30
0.0
  0
VERTEX
  5
262
330
25A
100
AcDbEntity
  8
001
 62
     5
370
    50
100
AcDbVertex
100
AcDb2dVertex
 10
100.451489
 20
80.576698
 30
0.0
  0
VERTEX
  5
263
330
25A
100
AcDbEntity
  8
001
 62
     5
370
    50
100
AcDbVertex
100
AcDb2dVertex
 10
100.410763
 20
80.590659
 30
0.0
  0
VERTEX
  5
264
330
25A
100
AcDbEntity
  8
001
 62
     5
370
    50
100
AcDbVertex
100
AcDb2dVertex
 10
100.365164
 20
80.600589
 30
0.0
  0
VERTEX
  5
265
330
25A
100
AcDbEntity
  8
001
 62
     5
370
    50
100
AcDbVertex
100
AcDb2dVertex
 10
100.313727
 20
80.606601
 30
0.0
  0
VERTEX
  5
266
330
25A
100
AcDbEntity
  8
001
 62
     5
370
    50
100
AcDbVertex
100
AcDb2dVertex
 10
100.276134
 20
80.608635
 30
0.0
  0
SEQEND
  5
25B
330
25A
100
AcDbEntity
  8
001
370
    50
  0
POLYLINE
  5
267
330
1C4
100
AcDbEntity
  8
001
 62
     5
370
    50
100
AcDb2dPolyline
 66
     1
 10
0.0
 20
0.0
 30
0.0
  0
VERTEX
  5
269
330
267
100
AcDbEntity
  8
001
 62
     5
370
    50
100
AcDbVertex
100
AcDb2dVertex
 10
101.014994
 20
80.069282
 30
0.0
  0
VERTEX
  5
26A
330
267
100
AcDbEntity
  8
001
 62
     5
370
    50
100
AcDbVertex
100
AcDb2dVertex
 10
101.034872
 20
80.070356
 30
0.0
  0
VERTEX
  5
26B
330
267
100
AcDbEntity
  8
001
 62
     5
370
    50
100
AcDbVertex
100
AcDb2dVertex
 10
101.062072
 20
80.073535
 30
0.0
  0
VERTEX
  5
26C
330
267
100
AcDbEntity
  8
001
 62
     5
370
    50
100
AcDbVertex
100
AcDb2dVertex
 10
101.086191
 20
80.078789
 30
0.0
  0
VERTEX
  5
26D
330
267
100
AcDbEntity
  8
001
 62
     5
370
    50
100
AcDbVertex
100
AcDb2dVertex
 10
101.107719
 20
80.086166
 30
0.0
  0
VERTEX
  5
26E
330
267
100
AcDbEntity
  8
001
 62
     5
370
    50
100
AcDbVertex
100
AcDb2dVertex
 10
101.129313
 20
80.095668
 30
0.0
  0
VERTEX
  5
26F
330
267
100
AcDbEntity
  8
001
 62
     5
370
    50
100
AcDbVertex
100
AcDb2dVertex
 10
101.150549
 20
80.106792
 30
0.0
  0
VERTEX
  5
270
330
267
100
AcDbEntity
  8
001
 62
     5
370
    50
100
AcDbVertex
100
AcDb2dVertex
 10
101.2063
 20
80.148334
 30
0.0
  0
VERTEX
  5
271
330
267
100
AcDbEntity
  8
001
 62
     5
370
    50
100
AcDbVertex
100
AcDb2dVertex
 10
101.249784
 20
80.209277
 30
0.0
  0
VERTEX
  5
272
330
267
100
AcDbEntity
  8
001
 62
     5
370
    50
100
AcDbVertex
100
AcDb2dVertex
 10
101.268807
 20
80.253548
 30
0.0
  0
VERTEX
  5
273
330
267
100
AcDbEntity
  8
001
 62
     5
370
    50
100
AcDbVertex
100
AcDb2dVertex
 10
101.279197
 20
80.286466
 30
0.0
  0
SEQEND
  5
268
330
267
100
AcDbEntity
  8
001
370
    50
  0
POLYLINE
  5
274
330
1C4
100
AcDbEntity
  8
001
 62
     5
370
    50
100
AcDb2dPolyline
 66
     1
 10
0.0
 20
0.0
 30
0.0
  0
VERTEX
  5
276
330
274
100
AcDbEntity
  8
001
 62
     5
370
    50
100
AcDbVertex
100
AcDb2dVertex
 10
101.872307
 20
80.688322
 30
0.0
  0
VERTEX
  5
277
330
274
100
AcDbEntity
  8
001
 62
     5
370
    50
100
AcDbVertex
100
AcDb2dVertex
 10
101.870508
 20
80.688663
 30
0.0
  0
VERTEX
  5
278
330
274
100
AcDbEntity
  8
001
 62
     5
370
    50
100
AcDbVertex
100
AcDb2dVertex
 10
101.867877
 20
80.68915
 30
0.0
  0
VERTEX
  5
279
330
274
100
AcDbEntity
  8
001
 62
     5
370
    50
100
AcDbVertex
100
AcDb2dVertex
 10
101.815208
 20
80.695675
 30
0.0
  0
VERTEX
  5
27A
330
274
100
AcDbEntity
  8
001
 62
     5
370
    50
100
AcDbVertex
100
AcDb2dVertex
 10
101.778846
 20
80.697196
 30
0.0
  0
SEQEND
  5
275
330
274
100
AcDbEntity
  8
001
370
    50
  0
POLYLINE
  5
27B
330
1C4
100
AcDbEntity
  8
001
 62
     5
370
    50
100
AcDb2dPolyline
 66
     1
 10
0.0
 20
0.0
 30
0.0
  0
VERTEX
  5
27D
330
27B
100
AcDbEntity
  8
001
 62
     5
370
    50
100
AcDbVertex
100
AcDb2dVertex
 10
101.921726
 20
80.68363
 30
0.0
  0
VERTEX
  5
27E
330
27B
100
AcDbEntity
  8
001
 62
     5
370
    50
100
AcDbVertex
100
AcDb2dVertex
 10
101.941602
 20
80.684695
 30
0.0
  0
VERTEX
  5
27F
330
27B
100
AcDbEntity
  8
001
 62
     5
370
    50
100
AcDbVertex
100
AcDb2dVertex
 10
101.968804
 20
80.687883
 30
0.0
  0
VERTEX
  5
280
330
27B
100
AcDbEntity
  8
001
 62
     5
370
    50
100
AcDbVertex
100
AcDb2dVertex
 10
101.992932
 20
80.69318
 30
0.0
  0
VERTEX
  5
281
330
27B
100
AcDbEntity
  8
001
 62
     5
370
    50
100
AcDbVertex
100
AcDb2dVertex
 10
102.014451
 20
80.700514
 30
0.0
  0
VERTEX
  5
282
330
27B
100
AcDbEntity
  8
001
 62
     5
370
    50
100
AcDbVertex
100
AcDb2dVertex
 10
102.036008
 20
80.709852
 30
0.0
  0
VERTEX
  5
283
330
27B
100
AcDbEntity
  8
001
 62
     5
370
    50
100
AcDbVertex
100
AcDb2dVertex
 10
102.057281
 20
80.72114
 30
0.0
  0
VERTEX
  5
284
330
27B
100
AcDbEntity
  8
001
 62
     5
370
    50
100
AcDbVertex
100
AcDb2dVertex
 10
102.113758
 20
80.765876
 30
0.0
  0
VERTEX
  5
285
330
27B
100
AcDbEntity
  8
001
 62
     5
370
    50
100
AcDbVertex
100
AcDb2dVertex
 10
102.156516
 20
80.823625
 30
0.0
  0
VERTEX
  5
286
330
27B
100
AcDbEntity
  8
001
 62
     5
370
    50
100
AcDbVertex
100
AcDb2dVertex
 10
102.176498
 20
80.868036
 30
0.0
  0
VERTEX
  5
287
330
27B
100
AcDbEntity
  8
001
 62
     5
370
    50
100
AcDbVertex
100
AcDb2dVertex
 10
102.18872
 20
80.915003
 30
0.0
  0
VERTEX
  5
288
330
27B
100
AcDbEntity
  8
001
 62
     5
370
    50
100
AcDbVertex
100
AcDb2dVertex
 10
102.191852
 20
80.939194
 30
0.0
  0
VERTEX
  5
289
330
27B
100
AcDbEntity
  8
001
 62
     5
370
    50
100
AcDbVertex
100
AcDb2dVertex
 10
102.19284
 20
80.963625
 30
0.0
  0
VERTEX
  5
28A
330
27B
100
AcDbEntity
  8
001
 62
     5
370
    50
100
AcDbVertex
100
AcDb2dVertex
 10
102.191666
 20
80.988152
 30
0.0
  0
VERTEX
  5
28B
330
27B
100
AcDbEntity
  8
001
 62
     5
370
    50
100
AcDbVertex
100
AcDb2dVertex
 10
102.188722
 20
81.012246
 30
0.0
  0
VERTEX
  5
28C
330
27B
100
AcDbEntity
  8
001
 62
     5
370
    50
100
AcDbVertex
100
AcDb2dVertex
 10
102.177977
 20
81.057866
 30
0.0
  0
VERTEX
  5
28D
330
27B
100
AcDbEntity
  8
001
 62
     5
370
    50
100
AcDbVertex
100
AcDb2dVertex
 10
102.156521
 20
81.103625
 30
0.0
  0
VERTEX
  5
28E
330
27B
100
AcDbEntity
  8
001
 62
     5
370
    50
100
AcDbVertex
100
AcDb2dVertex
 10
102.129134
 20
81.142521
 30
0.0
  0
VERTEX
  5
28F
330
27B
100
AcDbEntity
  8
001
 62
     5
370
    50
100
AcDbVertex
100
AcDb2dVertex
 10
102.106503
 20
81.168529
 30
0.0
  0
SEQEND
  5
27C
330
27B
100
AcDbEntity
  8
001
370
    50
  0
POLYLINE
  5
290
330
1C4
100
AcDbEntity
  8
001
 62
     5
370
    50
100
AcDb2dPolyline
 66
     1
 10
0.0
 20
0.0
 30
0.0
  0
VERTEX
  5
292
330
290
100
AcDbEntity
  8
001
 62
     5
370
    50
100
AcDbVertex
100
AcDb2dVertex
 10
102.066093
 20
81.89995
 30
0.0
  0
VERTEX
  5
293
330
290
100
AcDbEntity
  8
001
 62
     5
370
    50
100
AcDbVertex
100
AcDb2dVertex
 10
102.042342
 20
81.867823
 30
0.0
  0
VERTEX
  5
294
330
290
100
AcDbEntity
  8
001
 62
     5
370
    50
100
AcDbVertex
100
AcDb2dVertex
 10
102.011921
 20
81.820793
 30
0.0
  0
VERTEX
  5
295
330
290
100
AcDbEntity
  8
001
 62
     5
370
    50
100
AcDbVertex
100
AcDb2dVertex
 10
101.971263
 20
81.73338
 30
0.0
  0
VERTEX
  5
296
330
290
100
AcDbEntity
  8
001
 62
     5
370
    50
100
AcDbVertex
100
AcDb2dVertex
 10
101.951017
 20
81.647984
 30
0.0
  0
VERTEX
  5
297
330
290
100
AcDbEntity
  8
001
 62
     5
370
    50
100
AcDbVertex
100
AcDb2dVertex
 10
101.945381
 20
81.602576
 30
0.0
  0
VERTEX
  5
298
330
290
100
AcDbEntity
  8
001
 62
     5
370
    50
100
AcDbVertex
100
AcDb2dVertex
 10
101.943227
 20
81.556033
 30
0.0
  0
VERTEX
  5
299
330
290
100
AcDbEntity
  8
001
 62
     5
370
    50
100
AcDbVertex
100
AcDb2dVertex
 10
101.945363
 20
81.509548
 30
0.0
  0
VERTEX
  5
29A
330
290
100
AcDbEntity
  8
001
 62
     5
370
    50
100
AcDbVertex
100
AcDb2dVertex
 10
101.951014
 20
81.464082
 30
0.0
  0
VERTEX
  5
29B
330
290
100
AcDbEntity
  8
001
 62
     5
370
    50
100
AcDbVertex
100
AcDb2dVertex
 10
101.971386
 20
81.37787
 30
0.0
  0
VERTEX
  5
29C
330
290
100
AcDbEntity
  8
001
 62
     5
370
    50
100
AcDbVertex
100
AcDb2dVertex
 10
102.011911
 20
81.29127
 30
0.0
  0
VERTEX
  5
29D
330
290
100
AcDbEntity
  8
001
 62
     5
370
    50
100
AcDbVertex
100
AcDb2dVertex
 10
102.063695
 20
81.217702
 30
0.0
  0
VERTEX
  5
29E
330
290
100
AcDbEntity
  8
001
 62
     5
370
    50
100
AcDbVertex
100
AcDb2dVertex
 10
102.106503
 20
81.168529
 30
0.0
  0
SEQEND
  5
291
330
290
100
AcDbEntity
  8
001
370
    50
  0
POLYLINE
  5
29F
330
1C4
100
AcDbEntity
  8
001
 62
     5
370
    50
100
AcDb2dPolyline
 66
     1
 10
0.0
 20
0.0
 30
0.0
  0
VERTEX
  5
2A1
330
29F
100
AcDbEntity
  8
001
 62
     5
370
    50
100
AcDbVertex
100
AcDb2dVertex
 10
101.859958
 20
82.361811
 30
0.0
  0
VERTEX
  5
2A2
330
29F
100
AcDbEntity
  8
001
 62
     5
370
    50
100
AcDbVertex
100
AcDb2dVertex
 10
101.840724
 20
82.361005
 30
0.0
  0
VERTEX
  5
2A3
330
29F
100
AcDbEntity
  8
001
 62
     5
370
    50
100
AcDbVertex
100
AcDb2dVertex
 10
101.812881
 20
82.357558
 30
0.0
  0
VERTEX
  5
2A4
330
29F
100
AcDbEntity
  8
001
 62
     5
370
    50
100
AcDbVertex
100
AcDb2dVertex
 10
101.793571
 20
82.353238
 30
0.0
  0
VERTEX
  5
2A5
330
29F
100
AcDbEntity
  8
001
 62
     5
370
    50
100
AcDbVertex
100
AcDb2dVertex
 10
101.780527
 20
82.349525
 30
0.0
  0
SEQEND
  5
2A0
330
29F
100
AcDbEntity
  8
001
370
    50
  0
POLYLINE
  5
2A6
330
1C4
100
AcDbEntity
  8
001
 62
     5
370
    50
100
AcDb2dPolyline
 66
     1
 10
0.0
 20
0.0
 30
0.0
  0
VERTEX
  5
2A8
330
2A6
100
AcDbEntity
  8
001
 62
     5
370
    50
100
AcDbVertex
100
AcDb2dVertex
 10
101.147007
 20
82.67909
 30
0.0
  0
VERTEX
  5
2A9
330
2A6
100
AcDbEntity
  8
001
 62
     5
370
    50
100
AcDbVertex
100
AcDb2dVertex
 10
101.161964
 20
82.642076
 30
0.0
  0
VERTEX
  5
2AA
330
2A6
100
AcDbEntity
  8
001
 62
     5
370
    50
100
AcDbVertex
100
AcDb2dVertex
 10
101.186296
 20
82.59106
 30
0.0
  0
VERTEX
  5
2AB
330
2A6
100
AcDbEntity
  8
001
 62
     5
370
    50
100
AcDbVertex
100
AcDb2dVertex
 10
101.269465
 20
82.475184
 30
0.0
  0
VERTEX
  5
2AC
330
2A6
100
AcDbEntity
  8
001
 62
     5
370
    50
100
AcDbVertex
100
AcDb2dVertex
 10
101.373957
 20
82.397237
 30
0.0
  0
VERTEX
  5
2AD
330
2A6
100
AcDbEntity
  8
001
 62
     5
370
    50
100
AcDbVertex
100
AcDb2dVertex
 10
101.414068
 20
82.376231
 30
0.0
  0
VERTEX
  5
2AE
330
2A6
100
AcDbEntity
  8
001
 62
     5
370
    50
100
AcDbVertex
100
AcDb2dVertex
 10
101.454953
 20
82.358227
 30
0.0
  0
VERTEX
  5
2AF
330
2A6
100
AcDbEntity
  8
001
 62
     5
370
    50
100
AcDbVertex
100
AcDb2dVertex
 10
101.495679
 20
82.344267
 30
0.0
  0
VERTEX
  5
2B0
330
2A6
100
AcDbEntity
  8
001
 62
     5
370
    50
100
AcDbVertex
100
AcDb2dVertex
 10
101.541278
 20
82.334336
 30
0.0
  0
VERTEX
  5
2B1
330
2A6
100
AcDbEntity
  8
001
 62
     5
370
    50
100
AcDbVertex
100
AcDb2dVertex
 10
101.592715
 20
82.328324
 30
0.0
  0
VERTEX
  5
2B2
330
2A6
100
AcDbEntity
  8
001
 62
     5
370
    50
100
AcDbVertex
100
AcDb2dVertex
 10
101.630309
 20
82.32629
 30
0.0
  0
SEQEND
  5
2A7
330
2A6
100
AcDbEntity
  8
001
370
    50
  0
POLYLINE
  5
2B3
330
1C4
100
AcDbEntity
  8
001
 62
     5
370
    50
100
AcDb2dPolyline
 66
     1
 10
0.0
 20
0.0
 30
0.0
  0
VERTEX
  5
2B5
330
2B3
100
AcDbEntity
  8
001
 62
     5
370
    50
100
AcDbVertex
100
AcDb2dVertex
 10
101.872307
 20
80.688322
 30
0.0
  0
VERTEX
  5
2B6
330
2B3
100
AcDbEntity
  8
001
 62
     5
370
    50
100
AcDbVertex
100
AcDb2dVertex
 10
101.873258
 20
80.688142
 30
0.0
  0
VERTEX
  5
2B7
330
2B3
100
AcDbEntity
  8
001
 62
     5
370
    50
100
AcDbVertex
100
AcDb2dVertex
 10
101.874649
 20
80.687884
 30
0.0
  0
VERTEX
  5
2B8
330
2B3
100
AcDbEntity
  8
001
 62
     5
370
    50
100
AcDbVertex
100
AcDb2dVertex
 10
101.902499
 20
80.684434
 30
0.0
  0
VERTEX
  5
2B9
330
2B3
100
AcDbEntity
  8
001
 62
     5
370
    50
100
AcDbVertex
100
AcDb2dVertex
 10
101.921726
 20
80.68363
 30
0.0
  0
SEQEND
  5
2B4
330
2B3
100
AcDbEntity
  8
001
370
    50
  0
POLYLINE
  5
2BA
330
1C4
100
AcDbEntity
  8
001
 62
     5
370
    50
100
AcDb2dPolyline
 66
     1
 10
0.0
 20
0.0
 30
0.0
  0
VERTEX
  5
2BC
330
2BA
100
AcDbEntity
  8
001
 62
     5
370
    50
100
AcDbVertex
100
AcDb2dVertex
 10
101.078186
 20
79.41746
 30
0.0
  0
VERTEX
  5
2BD
330
2BA
100
AcDbEntity
  8
001
 62
     5
370
    50
100
AcDbVertex
100
AcDb2dVertex
 10
101.223702
 20
79.42526
 30
0.0
  0
VERTEX
  5
2BE
330
2BA
100
AcDbEntity
  8
001
 62
     5
370
    50
100
AcDbVertex
100
AcDb2dVertex
 10
101.422861
 20
79.448598
 30
0.0
  0
VERTEX
  5
2BF
330
2BA
100
AcDbEntity
  8
001
 62
     5
370
    50
100
AcDbVertex
100
AcDb2dVertex
 10
101.599516
 20
79.487384
 30
0.0
  0
VERTEX
  5
2C0
330
2BA
100
AcDbEntity
  8
001
 62
     5
370
    50
100
AcDbVertex
100
AcDb2dVertex
 10
101.757065
 20
79.541078
 30
0.0
  0
VERTEX
  5
2C1
330
2BA
100
AcDbEntity
  8
001
 62
     5
370
    50
100
AcDbVertex
100
AcDb2dVertex
 10
101.914896
 20
79.609442
 30
0.0
  0
VERTEX
  5
2C2
330
2BA
100
AcDbEntity
  8
001
 62
     5
370
    50
100
AcDbVertex
100
AcDb2dVertex
 10
102.070642
 20
79.692089
 30
0.0
  0
VERTEX
  5
2C3
330
2BA
100
AcDbEntity
  8
001
 62
     5
370
    50
100
AcDbVertex
100
AcDb2dVertex
 10
102.484052
 20
80.0197
 30
0.0
  0
VERTEX
  5
2C4
330
2BA
100
AcDbEntity
  8
001
 62
     5
370
    50
100
AcDbVertex
100
AcDb2dVertex
 10
102.797179
 20
80.442428
 30
0.0
  0
VERTEX
  5
2C5
330
2BA
100
AcDbEntity
  8
001
 62
     5
370
    50
100
AcDbVertex
100
AcDb2dVertex
 10
102.943684
 20
80.767383
 30
0.0
  0
VERTEX
  5
2C6
330
2BA
100
AcDbEntity
  8
001
 62
     5
370
    50
100
AcDbVertex
100
AcDb2dVertex
 10
103.032963
 20
81.111445
 30
0.0
  0
VERTEX
  5
2C7
330
2BA
100
AcDbEntity
  8
001
 62
     5
370
    50
100
AcDbVertex
100
AcDb2dVertex
 10
103.055585
 20
81.28885
 30
0.0
  0
VERTEX
  5
2C8
330
2BA
100
AcDbEntity
  8
001
 62
     5
370
    50
100
AcDbVertex
100
AcDb2dVertex
 10
103.063125
 20
81.467423
 30
0.0
  0
VERTEX
  5
2C9
330
2BA
100
AcDbEntity
  8
001
 62
     5
370
    50
100
AcDbVertex
100
AcDb2dVertex
 10
103.055592
 20
81.645996
 30
0.0
  0
VERTEX
  5
2CA
330
2BA
100
AcDbEntity
  8
001
 62
     5
370
    50
100
AcDbVertex
100
AcDb2dVertex
 10
103.032976
 20
81.823402
 30
0.0
  0
VERTEX
  5
2CB
330
2BA
100
AcDbEntity
  8
001
 62
     5
370
    50
100
AcDbVertex
100
AcDb2dVertex
 10
102.943711
 20
82.167467
 30
0.0
  0
VERTEX
  5
2CC
330
2BA
100
AcDbEntity
  8
001
 62
     5
370
    50
100
AcDbVertex
100
AcDb2dVertex
 10
102.797218
 20
82.492428
 30
0.0
  0
VERTEX
  5
2CD
330
2BA
100
AcDbEntity
  8
001
 62
     5
370
    50
100
AcDbVertex
100
AcDb2dVertex
 10
102.484106
 20
82.915167
 30
0.0
  0
VERTEX
  5
2CE
330
2BA
100
AcDbEntity
  8
001
 62
     5
370
    50
100
AcDbVertex
100
AcDb2dVertex
 10
102.070709
 20
83.242794
 30
0.0
  0
VERTEX
  5
2CF
330
2BA
100
AcDbEntity
  8
001
 62
     5
370
    50
100
AcDbVertex
100
AcDb2dVertex
 10
101.914966
 20
83.325447
 30
0.0
  0
VERTEX
  5
2D0
330
2BA
100
AcDbEntity
  8
001
 62
     5
370
    50
100
AcDbVertex
100
AcDb2dVertex
 10
101.757137
 20
83.393817
 30
0.0
  0
VERTEX
  5
2D1
330
2BA
100
AcDbEntity
  8
001
 62
     5
370
    50
100
AcDbVertex
100
AcDb2dVertex
 10
101.599591
 20
83.447517
 30
0.0
  0
VERTEX
  5
2D2
330
2BA
100
AcDbEntity
  8
001
 62
     5
370
    50
100
AcDbVertex
100
AcDb2dVertex
 10
101.422938
 20
83.48631
 30
0.0
  0
VERTEX
  5
2D3
330
2BA
100
AcDbEntity
  8
001
 62
     5
370
    50
100
AcDbVertex
100
AcDb2dVertex
 10
101.223779
 20
83.509655
 30
0.0
  0
VERTEX
  5
2D4
330
2BA
100
AcDbEntity
  8
001
 62
     5
370
    50
100
AcDbVertex
100
AcDb2dVertex
 10
101.078264
 20
83.51746
 30
0.0
  0
SEQEND
  5
2BB
330
2BA
100
AcDbEntity
  8
001
370
    50
  0
POLYLINE
  5
2D5
330
1C4
100
AcDbEntity
  8
001
 62
     5
370
    50
100
AcDb2dPolyline
 66
     1
 10
0.0
 20
0.0
 30
0.0
  0
VERTEX
  5
2D7
330
2D5
100
AcDbEntity
  8
001
 62
     5
370
    50
100
AcDbVertex
100
AcDb2dVertex
 10
100.444271
 20
79.500422
 30
0.0
  0
VERTEX
  5
2D8
330
2D5
100
AcDbEntity
  8
001
 62
     5
370
    50
100
AcDbVertex
100
AcDb2dVertex
 10
100.530726
 20
79.476682
 30
0.0
  0
VERTEX
  5
2D9
330
2D5
100
AcDbEntity
  8
001
 62
     5
370
    50
100
AcDbVertex
100
AcDb2dVertex
 10
100.65851
 20
79.448612
 30
0.0
  0
VERTEX
  5
2DA
330
2D5
100
AcDbEntity
  8
001
 62
     5
370
    50
100
AcDbVertex
100
AcDb2dVertex
 10
100.862363
 20
79.423363
 30
0.0
  0
VERTEX
  5
2DB
330
2D5
100
AcDbEntity
  8
001
 62
     5
370
    50
100
AcDbVertex
100
AcDb2dVertex
 10
101.003184
 20
79.417462
 30
0.0
  0
SEQEND
  5
2D6
330
2D5
100
AcDbEntity
  8
001
370
    50
  0
POLYLINE
  5
2DC
330
1C4
100
AcDbEntity
  8
001
 62
     5
370
    50
100
AcDb2dPolyline
 66
     1
 10
0.0
 20
0.0
 30
0.0
  0
VERTEX
  5
2DE
330
2DC
100
AcDbEntity
  8
001
 62
     5
370
    50
100
AcDbVertex
100
AcDb2dVertex
 10
101.620881
 20
83.415683
 30
0.0
  0
VERTEX
  5
2DF
330
2DC
100
AcDbEntity
  8
001
 62
     5
370
    50
100
AcDbVertex
100
AcDb2dVertex
 10
101.510999
 20
83.448764
 30
0.0
  0
VERTEX
  5
2E0
330
2DC
100
AcDbEntity
  8
001
 62
     5
370
    50
100
AcDbVertex
100
AcDb2dVertex
 10
101.347935
 20
83.486311
 30
0.0
  0
VERTEX
  5
2E1
330
2DC
100
AcDbEntity
  8
001
 62
     5
370
    50
100
AcDbVertex
100
AcDb2dVertex
 10
101.144098
 20
83.511557
 30
0.0
  0
VERTEX
  5
2E2
330
2DC
100
AcDbEntity
  8
001
 62
     5
370
    50
100
AcDbVertex
100
AcDb2dVertex
 10
101.003261
 20
83.517462
 30
0.0
  0
SEQEND
  5
2DD
330
2DC
100
AcDbEntity
  8
001
370
    50
  0
LINE
  5
2E3
330
1C4
100
AcDbEntity
  8
001
 62
     5
370
    50
100
AcDbLine
 10
101.003184
 20
79.417462
 30
0.0
 11
101.078187
 21
79.41746
 31
0.0
  0
LINE
  5
2E4
330
1C4
100
AcDbEntity
  8
001
 62
     5
370
    50
100
AcDbLine
 10
101.078264
 20
83.51746
 30
0.0
 11
101.003261
 21
83.517462
 31
0.0
  0
POLYLINE
  5
2E5
330
1C4
100
AcDbEntity
  8
001
 62
     5
370
    50
100
AcDb2dPolyline
 66
     1
 10
0.0
 20
0.0
 30
0.0
  0
VERTEX
  5
2E7
330
2E5
100
AcDbEntity
  8
001
 62
     5
370
    50
100
AcDbVertex
100
AcDb2dVertex
 10
102.066093
 20
81.89995
 30
0.0
  0
VERTEX
  5
2E8
330
2E5
100
AcDbEntity
  8
001
 62
     5
370
    50
100
AcDbVertex
100
AcDb2dVertex
 10
102.078649
 20
81.91694
 30
0.0
  0
VERTEX
  5
2E9
330
2E5
100
AcDbEntity
  8
001
 62
     5
370
    50
100
AcDbVertex
100
AcDb2dVertex
 10
102.094737
 20
81.941806
 30
0.0
  0
VERTEX
  5
2EA
330
2E5
100
AcDbEntity
  8
001
 62
     5
370
    50
100
AcDbVertex
100
AcDb2dVertex
 10
102.116261
 20
81.988005
 30
0.0
  0
VERTEX
  5
2EB
330
2E5
100
AcDbEntity
  8
001
 62
     5
370
    50
100
AcDbVertex
100
AcDb2dVertex
 10
102.126942
 20
82.033184
 30
0.0
  0
VERTEX
  5
2EC
330
2E5
100
AcDbEntity
  8
001
 62
     5
370
    50
100
AcDbVertex
100
AcDb2dVertex
 10
102.12988
 20
82.057234
 30
0.0
  0
VERTEX
  5
2ED
330
2E5
100
AcDbEntity
  8
001
 62
     5
370
    50
100
AcDbVertex
100
AcDb2dVertex
 10
102.131061
 20
82.081806
 30
0.0
  0
VERTEX
  5
2EE
330
2E5
100
AcDbEntity
  8
001
 62
     5
370
    50
100
AcDbVertex
100
AcDb2dVertex
 10
102.130076
 20
82.106249
 30
0.0
  0
VERTEX
  5
2EF
330
2E5
100
AcDbEntity
  8
001
 62
     5
370
    50
100
AcDbVertex
100
AcDb2dVertex
 10
102.126944
 20
82.130427
 30
0.0
  0
VERTEX
  5
2F0
330
2E5
100
AcDbEntity
  8
001
 62
     5
370
    50
100
AcDbVertex
100
AcDb2dVertex
 10
102.114722
 20
82.177386
 30
0.0
  0
VERTEX
  5
2F1
330
2E5
100
AcDbEntity
  8
001
 62
     5
370
    50
100
AcDbVertex
100
AcDb2dVertex
 10
102.094742
 20
82.221806
 30
0.0
  0
VERTEX
  5
2F2
330
2E5
100
AcDbEntity
  8
001
 62
     5
370
    50
100
AcDbVertex
100
AcDb2dVertex
 10
102.051988
 20
82.27956
 30
0.0
  0
VERTEX
  5
2F3
330
2E5
100
AcDbEntity
  8
001
 62
     5
370
    50
100
AcDbVertex
100
AcDb2dVertex
 10
101.995512
 20
82.324295
 30
0.0
  0
VERTEX
  5
2F4
330
2E5
100
AcDbEntity
  8
001
 62
     5
370
    50
100
AcDbVertex
100
AcDb2dVertex
 10
101.974239
 20
82.335584
 30
0.0
  0
VERTEX
  5
2F5
330
2E5
100
AcDbEntity
  8
001
 62
     5
370
    50
100
AcDbVertex
100
AcDb2dVertex
 10
101.952683
 20
82.344923
 30
0.0
  0
VERTEX
  5
2F6
330
2E5
100
AcDbEntity
  8
001
 62
     5
370
    50
100
AcDbVertex
100
AcDb2dVertex
 10
101.931164
 20
82.352258
 30
0.0
  0
VERTEX
  5
2F7
330
2E5
100
AcDbEntity
  8
001
 62
     5
370
    50
100
AcDbVertex
100
AcDb2dVertex
 10
101.907036
 20
82.357556
 30
0.0
  0
VERTEX
  5
2F8
330
2E5
100
AcDbEntity
  8
001
 62
     5
370
    50
100
AcDbVertex
100
AcDb2dVertex
 10
101.879834
 20
82.360745
 30
0.0
  0
VERTEX
  5
2F9
330
2E5
100
AcDbEntity
  8
001
 62
     5
370
    50
100
AcDbVertex
100
AcDb2dVertex
 10
101.859958
 20
82.361811
 30
0.0
  0
SEQEND
  5
2E6
330
2E5
100
AcDbEntity
  8
001
370
    50
  0
POLYLINE
  5
2FA
330
1C4
100
AcDbEntity
  8
001
 62
     5
370
    50
100
AcDb2dPolyline
 66
     1
 10
0.0
 20
0.0
 30
0.0
  0
VERTEX
  5
2FC
330
2FA
100
AcDbEntity
  8
001
 62
     5
370
    50
100
AcDbVertex
100
AcDb2dVertex
 10
101.778846
 20
80.697196
 30
0.0
  0
VERTEX
  5
2FD
330
2FA
100
AcDbEntity
  8
001
 62
     5
370
    50
100
AcDbVertex
100
AcDb2dVertex
 10
101.741255
 20
80.695165
 30
0.0
  0
VERTEX
  5
2FE
330
2FA
100
AcDbEntity
  8
001
 62
     5
370
    50
100
AcDbVertex
100
AcDb2dVertex
 10
101.689815
 20
80.689153
 30
0.0
  0
VERTEX
  5
2FF
330
2FA
100
AcDbEntity
  8
001
 62
     5
370
    50
100
AcDbVertex
100
AcDb2dVertex
 10
101.644203
 20
80.679216
 30
0.0
  0
VERTEX
  5
300
330
2FA
100
AcDbEntity
  8
001
 62
     5
370
    50
100
AcDbVertex
100
AcDb2dVertex
 10
101.603489
 20
80.665265
 30
0.0
  0
VERTEX
  5
301
330
2FA
100
AcDbEntity
  8
001
 62
     5
370
    50
100
AcDbVertex
100
AcDb2dVertex
 10
101.562651
 20
80.647295
 30
0.0
  0
VERTEX
  5
302
330
2FA
100
AcDbEntity
  8
001
 62
     5
370
    50
100
AcDbVertex
100
AcDb2dVertex
 10
101.522491
 20
80.626258
 30
0.0
  0
VERTEX
  5
303
330
2FA
100
AcDbEntity
  8
001
 62
     5
370
    50
100
AcDbVertex
100
AcDb2dVertex
 10
101.417058
 20
80.547696
 30
0.0
  0
VERTEX
  5
304
330
2FA
100
AcDbEntity
  8
001
 62
     5
370
    50
100
AcDbVertex
100
AcDb2dVertex
 10
101.334824
 20
80.432443
 30
0.0
  0
VERTEX
  5
305
330
2FA
100
AcDbEntity
  8
001
 62
     5
370
    50
100
AcDbVertex
100
AcDb2dVertex
 10
101.298848
 20
80.34872
 30
0.0
  0
VERTEX
  5
306
330
2FA
100
AcDbEntity
  8
001
 62
     5
370
    50
100
AcDbVertex
100
AcDb2dVertex
 10
101.279197
 20
80.286466
 30
0.0
  0
SEQEND
  5
2FB
330
2FA
100
AcDbEntity
  8
001
370
    50
  0
LINE
  5
307
330
1C4
100
AcDbEntity
  8
001
 62
     5
370
    50
100
AcDbLine
 10
102.005083
 20
80.697192
 30
0.0
 11
101.778846
 21
80.697196
 31
0.0
  0
POLYLINE
  5
308
330
1C4
100
AcDbEntity
  8
001
 62
     5
370
    50
100
AcDb2dPolyline
 66
     1
 10
0.0
 20
0.0
 30
0.0
  0
VERTEX
  5
30A
330
308
100
AcDbEntity
  8
001
 62
     5
370
    50
100
AcDbVertex
100
AcDb2dVertex
 10
101.630309
 20
82.32629
 30
0.0
  0
VERTEX
  5
30B
330
308
100
AcDbEntity
  8
001
 62
     5
370
    50
100
AcDbVertex
100
AcDb2dVertex
 10
101.666685
 20
82.327813
 30
0.0
  0
VERTEX
  5
30C
330
308
100
AcDbEntity
  8
001
 62
     5
370
    50
100
AcDbVertex
100
AcDb2dVertex
 10
101.71934
 20
82.334333
 30
0.0
  0
VERTEX
  5
30D
330
308
100
AcDbEntity
  8
001
 62
     5
370
    50
100
AcDbVertex
100
AcDb2dVertex
 10
101.755857
 20
82.342502
 30
0.0
  0
VERTEX
  5
30E
330
308
100
AcDbEntity
  8
001
 62
     5
370
    50
100
AcDbVertex
100
AcDb2dVertex
 10
101.780527
 20
82.349525
 30
0.0
  0
SEQEND
  5
309
330
308
100
AcDbEntity
  8
001
370
    50
  0
LINE
  5
30F
330
1C4
100
AcDbEntity
  8
001
 62
     5
370
    50
100
AcDbLine
 10
101.630309
 20
82.32629
 30
0.0
 11
101.928524
 21
82.326284
 31
0.0
  0
POLYLINE
  5
310
330
1C4
100
AcDbEntity
  8
001
 62
     5
370
    50
100
AcDb2dPolyline
 66
     1
 10
0.0
 20
0.0
 30
0.0
  0
VERTEX
  5
312
330
310
100
AcDbEntity
  8
001
 62
     5
370
    50
100
AcDbVertex
100
AcDb2dVertex
 10
101.928524
 20
82.326284
 30
0.0
  0
VERTEX
  5
313
330
310
100
AcDbEntity
  8
001
 62
     5
370
    50
100
AcDbVertex
100
AcDb2dVertex
 10
101.940251
 20
82.326442
 30
0.0
  0
VERTEX
  5
314
330
310
100
AcDbEntity
  8
001
 62
     5
370
    50
100
AcDbVertex
100
AcDb2dVertex
 10
101.957373
 20
82.327123
 30
0.0
  0
VERTEX
  5
315
330
310
100
AcDbEntity
  8
001
 62
     5
370
    50
100
AcDbVertex
100
AcDb2dVertex
 10
101.974463
 20
82.328432
 30
0.0
  0
VERTEX
  5
316
330
310
100
AcDbEntity
  8
001
 62
     5
370
    50
100
AcDbVertex
100
AcDb2dVertex
 10
101.986132
 20
82.329636
 30
0.0
  0
SEQEND
  5
311
330
310
100
AcDbEntity
  8
001
370
    50
  0
POLYLINE
  5
317
330
1C4
100
AcDbEntity
  8
001
 62
     5
370
    50
100
AcDb2dPolyline
 66
     1
 10
0.0
 20
0.0
 30
0.0
  0
VERTEX
  5
319
330
317
100
AcDbEntity
  8
001
 62
     5
370
    50
100
AcDbVertex
100
AcDb2dVertex
 10
100.759435
 20
80.255835
 30
0.0
  0
VERTEX
  5
31A
330
317
100
AcDbEntity
  8
001
 62
     5
370
    50
100
AcDbVertex
100
AcDb2dVertex
 10
100.767344
 20
80.236262
 30
0.0
  0
VERTEX
  5
31B
330
317
100
AcDbEntity
  8
001
 62
     5
370
    50
100
AcDbVertex
100
AcDb2dVertex
 10
100.78021
 20
80.209286
 30
0.0
  0
VERTEX
  5
31C
330
317
100
AcDbEntity
  8
001
 62
     5
370
    50
100
AcDbVertex
100
AcDb2dVertex
 10
100.824188
 20
80.148014
 30
0.0
  0
VERTEX
  5
31D
330
317
100
AcDbEntity
  8
001
 62
     5
370
    50
100
AcDbVertex
100
AcDb2dVertex
 10
100.879441
 20
80.106797
 30
0.0
  0
VERTEX
  5
31E
330
317
100
AcDbEntity
  8
001
 62
     5
370
    50
100
AcDbVertex
100
AcDb2dVertex
 10
100.900651
 20
80.09569
 30
0.0
  0
VERTEX
  5
31F
330
317
100
AcDbEntity
  8
001
 62
     5
370
    50
100
AcDbVertex
100
AcDb2dVertex
 10
100.92227
 20
80.086169
 30
0.0
  0
VERTEX
  5
320
330
317
100
AcDbEntity
  8
001
 62
     5
370
    50
100
AcDbVertex
100
AcDb2dVertex
 10
100.943805
 20
80.078787
 30
0.0
  0
VERTEX
  5
321
330
317
100
AcDbEntity
  8
001
 62
     5
370
    50
100
AcDbVertex
100
AcDb2dVertex
 10
100.967917
 20
80.073536
 30
0.0
  0
VERTEX
  5
322
330
317
100
AcDbEntity
  8
001
 62
     5
370
    50
100
AcDbVertex
100
AcDb2dVertex
 10
100.995116
 20
80.070357
 30
0.0
  0
VERTEX
  5
323
330
317
100
AcDbEntity
  8
001
 62
     5
370
    50
100
AcDbVertex
100
AcDb2dVertex
 10
101.014994
 20
80.069282
 30
0.0
  0
SEQEND
  5
318
330
317
100
AcDbEntity
  8
001
370
    50
  0
POLYLINE
  5
324
330
1C4
100
AcDbEntity
  8
001
 62
     5
370
    50
100
AcDb2dPolyline
 66
     1
 10
0.0
 20
0.0
 30
0.0
  0
VERTEX
  5
326
330
324
100
AcDbEntity
  8
001
 62
     5
370
    50
100
AcDbVertex
100
AcDb2dVertex
 10
101.05765
 20
80.255829
 30
0.0
  0
VERTEX
  5
327
330
324
100
AcDbEntity
  8
001
 62
     5
370
    50
100
AcDbVertex
100
AcDb2dVertex
 10
101.065191
 20
80.236459
 30
0.0
  0
VERTEX
  5
328
330
324
100
AcDbEntity
  8
001
 62
     5
370
    50
100
AcDbVertex
100
AcDb2dVertex
 10
101.078425
 20
80.20928
 30
0.0
  0
VERTEX
  5
329
330
324
100
AcDbEntity
  8
001
 62
     5
370
    50
100
AcDbVertex
100
AcDb2dVertex
 10
101.124368
 20
80.149576
 30
0.0
  0
VERTEX
  5
32A
330
324
100
AcDbEntity
  8
001
 62
     5
370
    50
100
AcDbVertex
100
AcDb2dVertex
 10
101.164103
 20
80.115431
 30
0.0
  0
SEQEND
  5
325
330
324
100
AcDbEntity
  8
001
370
    50
  0
POLYLINE
  5
32B
330
1C4
100
AcDbEntity
  8
001
 62
     5
370
    50
100
AcDb2dPolyline
 66
     1
 10
0.0
 20
0.0
 30
0.0
  0
VERTEX
  5
32D
330
32B
100
AcDbEntity
  8
001
 62
     5
370
    50
100
AcDbVertex
100
AcDb2dVertex
 10
101.147007
 20
82.67909
 30
0.0
  0
VERTEX
  5
32E
330
32B
100
AcDbEntity
  8
001
 62
     5
370
    50
100
AcDbVertex
100
AcDb2dVertex
 10
101.139099
 20
82.698663
 30
0.0
  0
VERTEX
  5
32F
330
32B
100
AcDbEntity
  8
001
 62
     5
370
    50
100
AcDbVertex
100
AcDb2dVertex
 10
101.126232
 20
82.725639
 30
0.0
  0
VERTEX
  5
330
330
32B
100
AcDbEntity
  8
001
 62
     5
370
    50
100
AcDbVertex
100
AcDb2dVertex
 10
101.082254
 20
82.786912
 30
0.0
  0
VERTEX
  5
331
330
32B
100
AcDbEntity
  8
001
 62
     5
370
    50
100
AcDbVertex
100
AcDb2dVertex
 10
101.027001
 20
82.828128
 30
0.0
  0
VERTEX
  5
332
330
32B
100
AcDbEntity
  8
001
 62
     5
370
    50
100
AcDbVertex
100
AcDb2dVertex
 10
101.005792
 20
82.839236
 30
0.0
  0
VERTEX
  5
333
330
32B
100
AcDbEntity
  8
001
 62
     5
370
    50
100
AcDbVertex
100
AcDb2dVertex
 10
100.984172
 20
82.848756
 30
0.0
  0
VERTEX
  5
334
330
32B
100
AcDbEntity
  8
001
 62
     5
370
    50
100
AcDbVertex
100
AcDb2dVertex
 10
100.962637
 20
82.856138
 30
0.0
  0
VERTEX
  5
335
330
32B
100
AcDbEntity
  8
001
 62
     5
370
    50
100
AcDbVertex
100
AcDb2dVertex
 10
100.938525
 20
82.861389
 30
0.0
  0
VERTEX
  5
336
330
32B
100
AcDbEntity
  8
001
 62
     5
370
    50
100
AcDbVertex
100
AcDb2dVertex
 10
100.911326
 20
82.864568
 30
0.0
  0
VERTEX
  5
337
330
32B
100
AcDbEntity
  8
001
 62
     5
370
    50
100
AcDbVertex
100
AcDb2dVertex
 10
100.891448
 20
82.865644
 30
0.0
  0
SEQEND
  5
32C
330
32B
100
AcDbEntity
  8
001
370
    50
  0
POLYLINE
  5
338
330
1C4
100
AcDbEntity
  8
001
 62
     5
370
    50
100
AcDb2dPolyline
 66
     1
 10
0.0
 20
0.0
 30
0.0
  0
VERTEX
  5
33A
330
338
100
AcDbEntity
  8
001
 62
     5
370
    50
100
AcDbVertex
100
AcDb2dVertex
 10
101.040555
 20
82.819488
 30
0.0
  0
VERTEX
  5
33B
330
338
100
AcDbEntity
  8
001
 62
     5
370
    50
100
AcDbVertex
100
AcDb2dVertex
 10
101.0008
 20
82.785296
 30
0.0
  0
VERTEX
  5
33C
330
338
100
AcDbEntity
  8
001
 62
     5
370
    50
100
AcDbVertex
100
AcDb2dVertex
 10
100.954874
 20
82.725642
 30
0.0
  0
VERTEX
  5
33D
330
338
100
AcDbEntity
  8
001
 62
     5
370
    50
100
AcDbVertex
100
AcDb2dVertex
 10
100.935015
 20
82.680908
 30
0.0
  0
VERTEX
  5
33E
330
338
100
AcDbEntity
  8
001
 62
     5
370
    50
100
AcDbVertex
100
AcDb2dVertex
 10
100.92546
 20
82.648453
 30
0.0
  0
SEQEND
  5
339
330
338
100
AcDbEntity
  8
001
370
    50
  0
POLYLINE
  5
33F
330
1C4
100
AcDbEntity
  8
001
 62
     5
370
    50
100
AcDb2dPolyline
 66
     1
 10
0.0
 20
0.0
 30
0.0
  0
VERTEX
  5
341
330
33F
100
AcDbEntity
  8
001
 62
     5
370
    50
100
AcDbVertex
100
AcDb2dVertex
 10
100.276134
 20
80.608635
 30
0.0
  0
VERTEX
  5
342
330
33F
100
AcDbEntity
  8
001
 62
     5
370
    50
100
AcDbVertex
100
AcDb2dVertex
 10
100.239757
 20
80.607112
 30
0.0
  0
VERTEX
  5
343
330
33F
100
AcDbEntity
  8
001
 62
     5
370
    50
100
AcDbVertex
100
AcDb2dVertex
 10
100.187103
 20
80.600592
 30
0.0
  0
VERTEX
  5
344
330
33F
100
AcDbEntity
  8
001
 62
     5
370
    50
100
AcDbVertex
100
AcDb2dVertex
 10
100.150585
 20
80.592424
 30
0.0
  0
VERTEX
  5
345
330
33F
100
AcDbEntity
  8
001
 62
     5
370
    50
100
AcDbVertex
100
AcDb2dVertex
 10
100.125916
 20
80.585401
 30
0.0
  0
SEQEND
  5
340
330
33F
100
AcDbEntity
  8
001
370
    50
  0
POLYLINE
  5
346
330
1C4
100
AcDbEntity
  8
001
 62
     5
370
    50
100
AcDb2dPolyline
 66
     1
 10
0.0
 20
0.0
 30
0.0
  0
VERTEX
  5
348
330
346
100
AcDbEntity
  8
001
 62
     5
370
    50
100
AcDbVertex
100
AcDb2dVertex
 10
101.05765
 20
80.255829
 30
0.0
  0
VERTEX
  5
349
330
346
100
AcDbEntity
  8
001
 62
     5
370
    50
100
AcDbVertex
100
AcDb2dVertex
 10
101.042694
 20
80.292844
 30
0.0
  0
VERTEX
  5
34A
330
346
100
AcDbEntity
  8
001
 62
     5
370
    50
100
AcDbVertex
100
AcDb2dVertex
 10
101.018361
 20
80.34386
 30
0.0
  0
VERTEX
  5
34B
330
346
100
AcDbEntity
  8
001
 62
     5
370
    50
100
AcDbVertex
100
AcDb2dVertex
 10
100.935192
 20
80.459735
 30
0.0
  0
VERTEX
  5
34C
330
346
100
AcDbEntity
  8
001
 62
     5
370
    50
100
AcDbVertex
100
AcDb2dVertex
 10
100.830701
 20
80.537682
 30
0.0
  0
VERTEX
  5
34D
330
346
100
AcDbEntity
  8
001
 62
     5
370
    50
100
AcDbVertex
100
AcDb2dVertex
 10
100.79059
 20
80.558688
 30
0.0
  0
VERTEX
  5
34E
330
346
100
AcDbEntity
  8
001
 62
     5
370
    50
100
AcDbVertex
100
AcDb2dVertex
 10
100.749704
 20
80.576692
 30
0.0
  0
VERTEX
  5
34F
330
346
100
AcDbEntity
  8
001
 62
     5
370
    50
100
AcDbVertex
100
AcDb2dVertex
 10
100.708978
 20
80.590653
 30
0.0
  0
VERTEX
  5
350
330
346
100
AcDbEntity
  8
001
 62
     5
370
    50
100
AcDbVertex
100
AcDb2dVertex
 10
100.663379
 20
80.600583
 30
0.0
  0
VERTEX
  5
351
330
346
100
AcDbEntity
  8
001
 62
     5
370
    50
100
AcDbVertex
100
AcDb2dVertex
 10
100.611942
 20
80.606596
 30
0.0
  0
VERTEX
  5
352
330
346
100
AcDbEntity
  8
001
 62
     5
370
    50
100
AcDbVertex
100
AcDb2dVertex
 10
100.574348
 20
80.60863
 30
0.0
  0
SEQEND
  5
347
330
346
100
AcDbEntity
  8
001
370
    50
  0
LINE
  5
353
330
1C4
100
AcDbEntity
  8
001
 62
     5
370
    50
100
AcDbLine
 10
100.574348
 20
80.60863
 30
0.0
 11
100.276133
 21
80.608635
 31
0.0
  0
POLYLINE
  5
354
330
1C4
100
AcDbEntity
  8
001
 62
     5
370
    50
100
AcDb2dPolyline
 66
     1
 10
0.0
 20
0.0
 30
0.0
  0
VERTEX
  5
356
330
354
100
AcDbEntity
  8
001
 62
     5
370
    50
100
AcDbVertex
100
AcDb2dVertex
 10
100.127596
 20
82.237729
 30
0.0
  0
VERTEX
  5
357
330
354
100
AcDbEntity
  8
001
 62
     5
370
    50
100
AcDbVertex
100
AcDb2dVertex
 10
100.165187
 20
82.23976
 30
0.0
  0
VERTEX
  5
358
330
354
100
AcDbEntity
  8
001
 62
     5
370
    50
100
AcDbVertex
100
AcDb2dVertex
 10
100.216627
 20
82.245772
 30
0.0
  0
VERTEX
  5
359
330
354
100
AcDbEntity
  8
001
 62
     5
370
    50
100
AcDbVertex
100
AcDb2dVertex
 10
100.262239
 20
82.255709
 30
0.0
  0
VERTEX
  5
35A
330
354
100
AcDbEntity
  8
001
 62
     5
370
    50
100
AcDbVertex
100
AcDb2dVertex
 10
100.302953
 20
82.26966
 30
0.0
  0
VERTEX
  5
35B
330
354
100
AcDbEntity
  8
001
 62
     5
370
    50
100
AcDbVertex
100
AcDb2dVertex
 10
100.343791
 20
82.287631
 30
0.0
  0
VERTEX
  5
35C
330
354
100
AcDbEntity
  8
001
 62
     5
370
    50
100
AcDbVertex
100
AcDb2dVertex
 10
100.383951
 20
82.308667
 30
0.0
  0
VERTEX
  5
35D
330
354
100
AcDbEntity
  8
001
 62
     5
370
    50
100
AcDbVertex
100
AcDb2dVertex
 10
100.489384
 20
82.38723
 30
0.0
  0
VERTEX
  5
35E
330
354
100
AcDbEntity
  8
001
 62
     5
370
    50
100
AcDbVertex
100
AcDb2dVertex
 10
100.571619
 20
82.502482
 30
0.0
  0
VERTEX
  5
35F
330
354
100
AcDbEntity
  8
001
 62
     5
370
    50
100
AcDbVertex
100
AcDb2dVertex
 10
100.607594
 20
82.586206
 30
0.0
  0
VERTEX
  5
360
330
354
100
AcDbEntity
  8
001
 62
     5
370
    50
100
AcDbVertex
100
AcDb2dVertex
 10
100.627245
 20
82.648459
 30
0.0
  0
SEQEND
  5
355
330
354
100
AcDbEntity
  8
001
370
    50
  0
LINE
  5
361
330
1C4
100
AcDbEntity
  8
001
 62
     5
370
    50
100
AcDbLine
 10
100.127596
 20
82.237729
 30
0.0
 11
100.425811
 21
82.237724
 31
0.0
  0
POLYLINE
  5
362
330
1C4
100
AcDbEntity
  8
001
 62
     5
370
    50
100
AcDb2dPolyline
 66
     1
 10
0.0
 20
0.0
 30
0.0
  0
VERTEX
  5
364
330
362
100
AcDbEntity
  8
001
 62
     5
370
    50
100
AcDbVertex
100
AcDb2dVertex
 10
100.425811
 20
82.237724
 30
0.0
  0
VERTEX
  5
365
330
362
100
AcDbEntity
  8
001
 62
     5
370
    50
100
AcDbVertex
100
AcDb2dVertex
 10
100.463402
 20
82.239755
 30
0.0
  0
VERTEX
  5
366
330
362
100
AcDbEntity
  8
001
 62
     5
370
    50
100
AcDbVertex
100
AcDb2dVertex
 10
100.514842
 20
82.245767
 30
0.0
  0
VERTEX
  5
367
330
362
100
AcDbEntity
  8
001
 62
     5
370
    50
100
AcDbVertex
100
AcDb2dVertex
 10
100.560454
 20
82.255704
 30
0.0
  0
VERTEX
  5
368
330
362
100
AcDbEntity
  8
001
 62
     5
370
    50
100
AcDbVertex
100
AcDb2dVertex
 10
100.601168
 20
82.269654
 30
0.0
  0
VERTEX
  5
369
330
362
100
AcDbEntity
  8
001
 62
     5
370
    50
100
AcDbVertex
100
AcDb2dVertex
 10
100.642006
 20
82.287625
 30
0.0
  0
VERTEX
  5
36A
330
362
100
AcDbEntity
  8
001
 62
     5
370
    50
100
AcDbVertex
100
AcDb2dVertex
 10
100.682166
 20
82.308661
 30
0.0
  0
VERTEX
  5
36B
330
362
100
AcDbEntity
  8
001
 62
     5
370
    50
100
AcDbVertex
100
AcDb2dVertex
 10
100.787599
 20
82.387224
 30
0.0
  0
VERTEX
  5
36C
330
362
100
AcDbEntity
  8
001
 62
     5
370
    50
100
AcDbVertex
100
AcDb2dVertex
 10
100.869834
 20
82.502477
 30
0.0
  0
VERTEX
  5
36D
330
362
100
AcDbEntity
  8
001
 62
     5
370
    50
100
AcDbVertex
100
AcDb2dVertex
 10
100.905809
 20
82.5862
 30
0.0
  0
VERTEX
  5
36E
330
362
100
AcDbEntity
  8
001
 62
     5
370
    50
100
AcDbVertex
100
AcDb2dVertex
 10
100.92546
 20
82.648453
 30
0.0
  0
SEQEND
  5
363
330
362
100
AcDbEntity
  8
001
370
    50
  0
POLYLINE
  5
36F
330
1C4
100
AcDbEntity
  8
001
 62
     5
370
    50
100
AcDb2dPolyline
 66
     1
 10
0.0
 20
0.0
 30
0.0
  0
VERTEX
  5
371
330
36F
100
AcDbEntity
  8
001
 62
     5
370
    50
100
AcDbVertex
100
AcDb2dVertex
 10
99.84035
 20
81.034975
 30
0.0
  0
VERTEX
  5
372
330
36F
100
AcDbEntity
  8
001
 62
     5
370
    50
100
AcDbVertex
100
AcDb2dVertex
 10
99.827793
 20
81.017986
 30
0.0
  0
VERTEX
  5
373
330
36F
100
AcDbEntity
  8
001
 62
     5
370
    50
100
AcDbVertex
100
AcDb2dVertex
 10
99.811705
 20
80.993119
 30
0.0
  0
VERTEX
  5
374
330
36F
100
AcDbEntity
  8
001
 62
     5
370
    50
100
AcDbVertex
100
AcDb2dVertex
 10
99.790181
 20
80.94692
 30
0.0
  0
VERTEX
  5
375
330
36F
100
AcDbEntity
  8
001
 62
     5
370
    50
100
AcDbVertex
100
AcDb2dVertex
 10
99.7795
 20
80.901741
 30
0.0
  0
VERTEX
  5
376
330
36F
100
AcDbEntity
  8
001
 62
     5
370
    50
100
AcDbVertex
100
AcDb2dVertex
 10
99.776562
 20
80.877691
 30
0.0
  0
VERTEX
  5
377
330
36F
100
AcDbEntity
  8
001
 62
     5
370
    50
100
AcDbVertex
100
AcDb2dVertex
 10
99.775381
 20
80.85312
 30
0.0
  0
VERTEX
  5
378
330
36F
100
AcDbEntity
  8
001
 62
     5
370
    50
100
AcDbVertex
100
AcDb2dVertex
 10
99.776366
 20
80.828676
 30
0.0
  0
VERTEX
  5
379
330
36F
100
AcDbEntity
  8
001
 62
     5
370
    50
100
AcDbVertex
100
AcDb2dVertex
 10
99.779499
 20
80.804498
 30
0.0
  0
VERTEX
  5
37A
330
36F
100
AcDbEntity
  8
001
 62
     5
370
    50
100
AcDbVertex
100
AcDb2dVertex
 10
99.791721
 20
80.757539
 30
0.0
  0
VERTEX
  5
37B
330
36F
100
AcDbEntity
  8
001
 62
     5
370
    50
100
AcDbVertex
100
AcDb2dVertex
 10
99.8117
 20
80.713119
 30
0.0
  0
VERTEX
  5
37C
330
36F
100
AcDbEntity
  8
001
 62
     5
370
    50
100
AcDbVertex
100
AcDb2dVertex
 10
99.854455
 20
80.655365
 30
0.0
  0
VERTEX
  5
37D
330
36F
100
AcDbEntity
  8
001
 62
     5
370
    50
100
AcDbVertex
100
AcDb2dVertex
 10
99.91093
 20
80.61063
 30
0.0
  0
VERTEX
  5
37E
330
36F
100
AcDbEntity
  8
001
 62
     5
370
    50
100
AcDbVertex
100
AcDb2dVertex
 10
99.932203
 20
80.599341
 30
0.0
  0
VERTEX
  5
37F
330
36F
100
AcDbEntity
  8
001
 62
     5
370
    50
100
AcDbVertex
100
AcDb2dVertex
 10
99.95376
 20
80.590002
 30
0.0
  0
VERTEX
  5
380
330
36F
100
AcDbEntity
  8
001
 62
     5
370
    50
100
AcDbVertex
100
AcDb2dVertex
 10
99.975278
 20
80.582667
 30
0.0
  0
VERTEX
  5
381
330
36F
100
AcDbEntity
  8
001
 62
     5
370
    50
100
AcDbVertex
100
AcDb2dVertex
 10
99.999406
 20
80.577369
 30
0.0
  0
VERTEX
  5
382
330
36F
100
AcDbEntity
  8
001
 62
     5
370
    50
100
AcDbVertex
100
AcDb2dVertex
 10
100.026608
 20
80.574181
 30
0.0
  0
VERTEX
  5
383
330
36F
100
AcDbEntity
  8
001
 62
     5
370
    50
100
AcDbVertex
100
AcDb2dVertex
 10
100.046484
 20
80.573114
 30
0.0
  0
SEQEND
  5
370
330
36F
100
AcDbEntity
  8
001
370
    50
  0
POLYLINE
  5
384
330
1C4
100
AcDbEntity
  8
001
 62
     5
370
    50
100
AcDb2dPolyline
 66
     1
 10
0.0
 20
0.0
 30
0.0
  0
VERTEX
  5
386
330
384
100
AcDbEntity
  8
001
 62
     5
370
    50
100
AcDbVertex
100
AcDb2dVertex
 10
100.138565
 20
81.03497
 30
0.0
  0
VERTEX
  5
387
330
384
100
AcDbEntity
  8
001
 62
     5
370
    50
100
AcDbVertex
100
AcDb2dVertex
 10
100.126008
 20
81.017979
 30
0.0
  0
VERTEX
  5
388
330
384
100
AcDbEntity
  8
001
 62
     5
370
    50
100
AcDbVertex
100
AcDb2dVertex
 10
100.10992
 20
80.993113
 30
0.0
  0
VERTEX
  5
389
330
384
100
AcDbEntity
  8
001
 62
     5
370
    50
100
AcDbVertex
100
AcDb2dVertex
 10
100.088386
 20
80.94692
 30
0.0
  0
VERTEX
  5
38A
330
384
100
AcDbEntity
  8
001
 62
     5
370
    50
100
AcDbVertex
100
AcDb2dVertex
 10
100.077715
 20
80.901735
 30
0.0
  0
VERTEX
  5
38B
330
384
100
AcDbEntity
  8
001
 62
     5
370
    50
100
AcDbVertex
100
AcDb2dVertex
 10
100.074793
 20
80.877676
 30
0.0
  0
VERTEX
  5
38C
330
384
100
AcDbEntity
  8
001
 62
     5
370
    50
100
AcDbVertex
100
AcDb2dVertex
 10
100.073596
 20
80.853114
 30
0.0
  0
VERTEX
  5
38D
330
384
100
AcDbEntity
  8
001
 62
     5
370
    50
100
AcDbVertex
100
AcDb2dVertex
 10
100.074523
 20
80.828704
 30
0.0
  0
VERTEX
  5
38E
330
384
100
AcDbEntity
  8
001
 62
     5
370
    50
100
AcDbVertex
100
AcDb2dVertex
 10
100.077714
 20
80.804492
 30
0.0
  0
VERTEX
  5
38F
330
384
100
AcDbEntity
  8
001
 62
     5
370
    50
100
AcDbVertex
100
AcDb2dVertex
 10
100.090517
 20
80.757199
 30
0.0
  0
VERTEX
  5
390
330
384
100
AcDbEntity
  8
001
 62
     5
370
    50
100
AcDbVertex
100
AcDb2dVertex
 10
100.109915
 20
80.713113
 30
0.0
  0
VERTEX
  5
391
330
384
100
AcDbEntity
  8
001
 62
     5
370
    50
100
AcDbVertex
100
AcDb2dVertex
 10
100.148569
 20
80.657721
 30
0.0
  0
VERTEX
  5
392
330
384
100
AcDbEntity
  8
001
 62
     5
370
    50
100
AcDbVertex
100
AcDb2dVertex
 10
100.209145
 20
80.610624
 30
0.0
  0
VERTEX
  5
393
330
384
100
AcDbEntity
  8
001
 62
     5
370
    50
100
AcDbVertex
100
AcDb2dVertex
 10
100.21468
 20
80.607433
 30
0.0
  0
VERTEX
  5
394
330
384
100
AcDbEntity
  8
001
 62
     5
370
    50
100
AcDbVertex
100
AcDb2dVertex
 10
100.218525
 20
80.605283
 30
0.0
  0
SEQEND
  5
385
330
384
100
AcDbEntity
  8
001
370
    50
  0
POLYLINE
  5
395
330
1C4
100
AcDbEntity
  8
001
 62
     5
370
    50
100
AcDb2dPolyline
 66
     1
 10
0.0
 20
0.0
 30
0.0
  0
VERTEX
  5
397
330
395
100
AcDbEntity
  8
001
 62
     5
370
    50
100
AcDbVertex
100
AcDb2dVertex
 10
100.034136
 20
82.246603
 30
0.0
  0
VERTEX
  5
398
330
395
100
AcDbEntity
  8
001
 62
     5
370
    50
100
AcDbVertex
100
AcDb2dVertex
 10
100.033184
 20
82.246783
 30
0.0
  0
VERTEX
  5
399
330
395
100
AcDbEntity
  8
001
 62
     5
370
    50
100
AcDbVertex
100
AcDb2dVertex
 10
100.031793
 20
82.247041
 30
0.0
  0
VERTEX
  5
39A
330
395
100
AcDbEntity
  8
001
 62
     5
370
    50
100
AcDbVertex
100
AcDb2dVertex
 10
100.003943
 20
82.250491
 30
0.0
  0
VERTEX
  5
39B
330
395
100
AcDbEntity
  8
001
 62
     5
370
    50
100
AcDbVertex
100
AcDb2dVertex
 10
99.984716
 20
82.251295
 30
0.0
  0
SEQEND
  5
396
330
395
100
AcDbEntity
  8
001
370
    50
  0
POLYLINE
  5
39C
330
1C4
100
AcDbEntity
  8
001
 62
     5
370
    50
100
AcDb2dPolyline
 66
     1
 10
0.0
 20
0.0
 30
0.0
  0
VERTEX
  5
39E
330
39C
100
AcDbEntity
  8
001
 62
     5
370
    50
100
AcDbVertex
100
AcDb2dVertex
 10
100.199574
 20
82.237728
 30
0.0
  0
VERTEX
  5
39F
330
39C
100
AcDbEntity
  8
001
 62
     5
370
    50
100
AcDbVertex
100
AcDb2dVertex
 10
100.195716
 20
82.236391
 30
0.0
  0
VERTEX
  5
3A0
330
39C
100
AcDbEntity
  8
001
 62
     5
370
    50
100
AcDbVertex
100
AcDb2dVertex
 10
100.190206
 20
82.234406
 30
0.0
  0
VERTEX
  5
3A1
330
39C
100
AcDbEntity
  8
001
 62
     5
370
    50
100
AcDbVertex
100
AcDb2dVertex
 10
100.166678
 20
82.224508
 30
0.0
  0
VERTEX
  5
3A2
330
39C
100
AcDbEntity
  8
001
 62
     5
370
    50
100
AcDbVertex
100
AcDb2dVertex
 10
100.147376
 20
82.21378
 30
0.0
  0
VERTEX
  5
3A3
330
39C
100
AcDbEntity
  8
001
 62
     5
370
    50
100
AcDbVertex
100
AcDb2dVertex
 10
100.092897
 20
82.16961
 30
0.0
  0
VERTEX
  5
3A4
330
39C
100
AcDbEntity
  8
001
 62
     5
370
    50
100
AcDbVertex
100
AcDb2dVertex
 10
100.048142
 20
82.111294
 30
0.0
  0
VERTEX
  5
3A5
330
39C
100
AcDbEntity
  8
001
 62
     5
370
    50
100
AcDbVertex
100
AcDb2dVertex
 10
100.027876
 20
82.066803
 30
0.0
  0
VERTEX
  5
3A6
330
39C
100
AcDbEntity
  8
001
 62
     5
370
    50
100
AcDbVertex
100
AcDb2dVertex
 10
100.015937
 20
82.019916
 30
0.0
  0
VERTEX
  5
3A7
330
39C
100
AcDbEntity
  8
001
 62
     5
370
    50
100
AcDbVertex
100
AcDb2dVertex
 10
100.012833
 20
81.995733
 30
0.0
  0
VERTEX
  5
3A8
330
39C
100
AcDbEntity
  8
001
 62
     5
370
    50
100
AcDbVertex
100
AcDb2dVertex
 10
100.011817
 20
81.971295
 30
0.0
  0
VERTEX
  5
3A9
330
39C
100
AcDbEntity
  8
001
 62
     5
370
    50
100
AcDbVertex
100
AcDb2dVertex
 10
100.012982
 20
81.946765
 30
0.0
  0
VERTEX
  5
3AA
330
39C
100
AcDbEntity
  8
001
 62
     5
370
    50
100
AcDbVertex
100
AcDb2dVertex
 10
100.015935
 20
81.922673
 30
0.0
  0
VERTEX
  5
3AB
330
39C
100
AcDbEntity
  8
001
 62
     5
370
    50
100
AcDbVertex
100
AcDb2dVertex
 10
100.026685
 20
81.877055
 30
0.0
  0
VERTEX
  5
3AC
330
39C
100
AcDbEntity
  8
001
 62
     5
370
    50
100
AcDbVertex
100
AcDb2dVertex
 10
100.048136
 20
81.831294
 30
0.0
  0
VERTEX
  5
3AD
330
39C
100
AcDbEntity
  8
001
 62
     5
370
    50
100
AcDbVertex
100
AcDb2dVertex
 10
100.075522
 20
81.792398
 30
0.0
  0
VERTEX
  5
3AE
330
39C
100
AcDbEntity
  8
001
 62
     5
370
    50
100
AcDbVertex
100
AcDb2dVertex
 10
100.098154
 20
81.766391
 30
0.0
  0
SEQEND
  5
39D
330
39C
100
AcDbEntity
  8
001
370
    50
  0
POLYLINE
  5
3AF
330
1C4
100
AcDbEntity
  8
001
 62
     5
370
    50
100
AcDb2dPolyline
 66
     1
 10
0.0
 20
0.0
 30
0.0
  0
VERTEX
  5
3B1
330
3AF
100
AcDbEntity
  8
001
 62
     5
370
    50
100
AcDbVertex
100
AcDb2dVertex
 10
100.138565
 20
81.03497
 30
0.0
  0
VERTEX
  5
3B2
330
3AF
100
AcDbEntity
  8
001
 62
     5
370
    50
100
AcDbVertex
100
AcDb2dVertex
 10
100.162315
 20
81.067097
 30
0.0
  0
VERTEX
  5
3B3
330
3AF
100
AcDbEntity
  8
001
 62
     5
370
    50
100
AcDbVertex
100
AcDb2dVertex
 10
100.192736
 20
81.114127
 30
0.0
  0
VERTEX
  5
3B4
330
3AF
100
AcDbEntity
  8
001
 62
     5
370
    50
100
AcDbVertex
100
AcDb2dVertex
 10
100.233394
 20
81.20154
 30
0.0
  0
VERTEX
  5
3B5
330
3AF
100
AcDbEntity
  8
001
 62
     5
370
    50
100
AcDbVertex
100
AcDb2dVertex
 10
100.25364
 20
81.286936
 30
0.0
  0
VERTEX
  5
3B6
330
3AF
100
AcDbEntity
  8
001
 62
     5
370
    50
100
AcDbVertex
100
AcDb2dVertex
 10
100.259276
 20
81.332343
 30
0.0
  0
VERTEX
  5
3B7
330
3AF
100
AcDbEntity
  8
001
 62
     5
370
    50
100
AcDbVertex
100
AcDb2dVertex
 10
100.261431
 20
81.378887
 30
0.0
  0
VERTEX
  5
3B8
330
3AF
100
AcDbEntity
  8
001
 62
     5
370
    50
100
AcDbVertex
100
AcDb2dVertex
 10
100.259294
 20
81.425371
 30
0.0
  0
VERTEX
  5
3B9
330
3AF
100
AcDbEntity
  8
001
 62
     5
370
    50
100
AcDbVertex
100
AcDb2dVertex
 10
100.253643
 20
81.470837
 30
0.0
  0
VERTEX
  5
3BA
330
3AF
100
AcDbEntity
  8
001
 62
     5
370
    50
100
AcDbVertex
100
AcDb2dVertex
 10
100.233271
 20
81.55705
 30
0.0
  0
VERTEX
  5
3BB
330
3AF
100
AcDbEntity
  8
001
 62
     5
370
    50
100
AcDbVertex
100
AcDb2dVertex
 10
100.192746
 20
81.643649
 30
0.0
  0
VERTEX
  5
3BC
330
3AF
100
AcDbEntity
  8
001
 62
     5
370
    50
100
AcDbVertex
100
AcDb2dVertex
 10
100.140962
 20
81.717218
 30
0.0
  0
VERTEX
  5
3BD
330
3AF
100
AcDbEntity
  8
001
 62
     5
370
    50
100
AcDbVertex
100
AcDb2dVertex
 10
100.098154
 20
81.766391
 30
0.0
  0
SEQEND
  5
3B0
330
3AF
100
AcDbEntity
  8
001
370
    50
  0
ENDBLK
  5
1C6
330
1C4
100
AcDbEntity
  8
0
100
AcDbBlockEnd
  0
BLOCK
  5
3BF
330
3BE
100
AcDbEntity
  8
0
100
AcDbBlockBegin
  2
*D3
 70
     1
 10
0.0
 20
0.0
 30
0.0
  3
*D3
  1

  0
LINE
  5
3C1
330
3BE
100
AcDbEntity
  8
001
370
     9
100
AcDbLine
 10
95.196481
 20
75.574532
 30
0.0
 11
95.196481
 21
49.731392
 31
0.0
  0
LINE
  5
3C2
330
3BE
100
AcDbEntity
  8
001
370
     9
100
AcDbLine
 10
125.196481
 20
76.326797
 30
0.0
 11
125.196481
 21
49.731392
 31
0.0
  0
LINE
  5
3C3
330
3BE
100
AcDbEntity
  8
001
370
     9
100
AcDbLine
 10
95.196481
 20
52.481392
 30
0.0
 11
125.196481
 21
52.481392
 31
0.0
  0
POLYLINE
  5
3C4
330
3BE
100
AcDbEntity
  8
001
370
     9
100
AcDb2dPolyline
 66
     1
 10
0.0
 20
0.0
 30
0.0
  0
VERTEX
  5
3C6
330
3C4
100
AcDbEntity
  8
001
370
     9
100
AcDbVertex
100
AcDb2dVertex
 10
96.696481
 20
52.079468
 30
0.0
  0
VERTEX
  5
3C7
330
3C4
100
AcDbEntity
  8
001
370
     9
100
AcDbVertex
100
AcDb2dVertex
 10
95.196481
 20
52.481392
 30
0.0
  0
VERTEX
  5
3C8
330
3C4
100
AcDbEntity
  8
001
370
     9
100
AcDbVertex
100
AcDb2dVertex
 10
96.696481
 20
52.883315
 30
0.0
  0
SEQEND
  5
3C5
330
3C4
100
AcDbEntity
  8
001
370
     9
  0
POLYLINE
  5
3C9
330
3BE
100
AcDbEntity
  8
001
370
     9
100
AcDb2dPolyline
 66
     1
 10
0.0
 20
0.0
 30
0.0
  0
VERTEX
  5
3CB
330
3C9
100
AcDbEntity
  8
001
370
     9
100
AcDbVertex
100
AcDb2dVertex
 10
123.696481
 20
52.883315
 30
0.0
  0
VERTEX
  5
3CC
330
3C9
100
AcDbEntity
  8
001
370
     9
100
AcDbVertex
100
AcDb2dVertex
 10
125.196481
 20
52.481392
 30
0.0
  0
VERTEX
  5
3CD
330
3C9
100
AcDbEntity
  8
001
370
     9
100
AcDbVertex
100
AcDb2dVertex
 10
123.696481
 20
52.079468
 30
0.0
  0
SEQEND
  5
3CA
330
3C9
100
AcDbEntity
  8
001
370
     9
  0
TEXT
  5
3CE
330
3BE
100
AcDbEntity
  8
001
370
    30
100
AcDbText
 10
106.196481
 20
53.481392
 30
0.0
 40
4.0
  1
３０
 41
0.833333
100
AcDbText
  0
POINT
  5
3CF
330
3BE
100
AcDbEntity
  8
001
370
     9
100
AcDbPoint
 10
95.196481
 20
75.574532
 30
0.0
  0
POINT
  5
3D0
330
3BE
100
AcDbEntity
  8
001
370
     9
100
AcDbPoint
 10
125.196481
 20
76.326797
 30
0.0
  0
POINT
  5
3D1
330
3BE
100
AcDbEntity
  8
001
370
     9
100
AcDbPoint
 10
125.196481
 20
52.481392
 30
0.0
  0
ENDBLK
  5
3C0
330
3BE
100
AcDbEntity
  8
0
100
AcDbBlockEnd
  0
BLOCK
  5
3D3
330
3D2
100
AcDbEntity
  8
0
100
AcDbBlockBegin
  2
*D4
 70
     1
 10
0.0
 20
0.0
 30
0.0
  3
*D4
  1

  0
LINE
  5
3D5
330
3D2
100
AcDbEntity
  8
001
370
     9
100
AcDbLine
 10
95.196481
 20
75.574532
 30
0.0
 11
95.196481
 21
58.925137
 31
0.0
  0
LINE
  5
3D6
330
3D2
100
AcDbEntity
  8
001
370
     9
100
AcDbLine
 10
97.32424
 20
77.161976
 30
0.0
 11
97.32424
 21
58.925137
 31
0.0
  0
LINE
  5
3D7
330
3D2
100
AcDbEntity
  8
001
370
     9
100
AcDbLine
 10
95.196481
 20
61.675137
 30
0.0
 11
97.32424
 21
61.675137
 31
0.0
  0
POLYLINE
  5
3D8
330
3D2
100
AcDbEntity
  8
001
370
     9
100
AcDb2dPolyline
 66
     1
 10
0.0
 20
0.0
 30
0.0
  0
VERTEX
  5
3DA
330
3D8
100
AcDbEntity
  8
001
370
     9
100
AcDbVertex
100
AcDb2dVertex
 10
93.696481
 20
62.077061
 30
0.0
  0
VERTEX
  5
3DB
330
3D8
100
AcDbEntity
  8
001
370
     9
100
AcDbVertex
100
AcDb2dVertex
 10
95.196481
 20
61.675137
 30
0.0
  0
VERTEX
  5
3DC
330
3D8
100
AcDbEntity
  8
001
370
     9
100
AcDbVertex
100
AcDb2dVertex
 10
93.696481
 20
61.273214
 30
0.0
  0
SEQEND
  5
3D9
330
3D8
100
AcDbEntity
  8
001
370
     9
  0
POLYLINE
  5
3DD
330
3D2
100
AcDbEntity
  8
001
370
     9
100
AcDb2dPolyline
 66
     1
 10
0.0
 20
0.0
 30
0.0
  0
VERTEX
  5
3DF
330
3DD
100
AcDbEntity
  8
001
370
     9
100
AcDbVertex
100
AcDb2dVertex
 10
98.82424
 20
61.273214
 30
0.0
  0
VERTEX
  5
3E0
330
3DD
100
AcDbEntity
  8
001
370
     9
100
AcDbVertex
100
AcDb2dVertex
 10
97.32424
 20
61.675137
 30
0.0
  0
VERTEX
  5
3E1
330
3DD
100
AcDbEntity
  8
001
370
     9
100
AcDbVertex
100
AcDb2dVertex
 10
98.82424
 20
62.077061
 30
0.0
  0
SEQEND
  5
3DE
330
3DD
100
AcDbEntity
  8
001
370
     9
  0
TEXT
  5
3E2
330
3D2
100
AcDbEntity
  8
001
370
    30
100
AcDbText
 10
71.696481
 20
62.675137
 30
0.0
 40
4.0
  1
（２．１）
 41
0.833333
100
AcDbText
  0
POINT
  5
3E3
330
3D2
100
AcDbEntity
  8
001
370
     9
100
AcDbPoint
 10
95.196481
 20
75.574532
 30
0.0
  0
POINT
  5
3E4
330
3D2
100
AcDbEntity
  8
001
370
     9
100
AcDbPoint
 10
97.32424
 20
77.161976
 30
0.0
  0
POINT
  5
3E5
330
3D2
100
AcDbEntity
  8
001
370
     9
100
AcDbPoint
 10
97.32424
 20
61.675137
 30
0.0
  0
LINE
  5
3E6
330
3D2
100
AcDbEntity
  8
001
370
     9
100
AcDbLine
 10
95.196481
 20
61.675137
 30
0.0
 11
68.696481
 21
61.675137
 31
0.0
  0
LINE
  5
3E7
330
3D2
100
AcDbEntity
  8
001
370
     9
100
AcDbLine
 10
97.32424
 20
61.675137
 30
0.0
 11
99.82424
 21
61.675137
 31
0.0
  0
ENDBLK
  5
3D4
330
3D2
100
AcDbEntity
  8
0
100
AcDbBlockEnd
  0
BLOCK
  5
3E9
330
3E8
100
AcDbEntity
  8
0
100
AcDbBlockBegin
  2
*D5
 70
     1
 10
0.0
 20
0.0
 30
0.0
  3
*D5
  1

  0
LINE
  5
3EB
330
3E8
100
AcDbEntity
  8
001
370
     9
100
AcDbLine
 10
97.32424
 20
77.161976
 30
0.0
 11
103.02145
 21
55.950453
 31
0.0
  0
LINE
  5
3EC
330
3E8
100
AcDbEntity
  8
001
370
     9
100
AcDbLine
 10
95.196481
 20
75.574532
 30
0.0
 11
95.196481
 21
54.917895
 31
0.0
  0
ARC
  5
3ED
330
3E8
100
AcDbEntity
  8
001
370
     9
100
AcDbCircle
 10
95.196481
 20
85.083923
 30
0.0
 40
27.41602800034985
100
AcDbArc
 50
270.0
 51
285.034269
  0
POLYLINE
  5
3EE
330
3E8
100
AcDbEntity
  8
001
370
     9
100
AcDb2dPolyline
 66
     1
 10
0.0
 20
0.0
 30
0.0
  0
VERTEX
  5
3F0
330
3EE
100
AcDbEntity
  8
001
370
     9
100
AcDbVertex
100
AcDb2dVertex
 10
103.860416
 20
58.649728
 30
0.0
  0
VERTEX
  5
3F1
330
3EE
100
AcDbEntity
  8
001
370
     9
100
AcDbVertex
100
AcDb2dVertex
 10
102.308109
 20
58.606323
 30
0.0
  0
VERTEX
  5
3F2
330
3EE
100
AcDbEntity
  8
001
370
     9
100
AcDbVertex
100
AcDb2dVertex
 10
103.630744
 20
59.420066
 30
0.0
  0
SEQEND
  5
3EF
330
3EE
100
AcDbEntity
  8
001
370
     9
  0
POLYLINE
  5
3F3
330
3E8
100
AcDbEntity
  8
001
370
     9
100
AcDb2dPolyline
 66
     1
 10
0.0
 20
0.0
 30
0.0
  0
VERTEX
  5
3F5
330
3F3
100
AcDbEntity
  8
001
370
     9
100
AcDbVertex
100
AcDb2dVertex
 10
93.708036
 20
58.110698
 30
0.0
  0
VERTEX
  5
3F6
330
3F3
100
AcDbEntity
  8
001
370
     9
100
AcDbVertex
100
AcDb2dVertex
 10
95.196481
 20
57.667895
 30
0.0
  0
VERTEX
  5
3F7
330
3F3
100
AcDbEntity
  8
001
370
     9
100
AcDbVertex
100
AcDb2dVertex
 10
93.686048
 20
57.307151
 30
0.0
  0
SEQEND
  5
3F4
330
3F3
100
AcDbEntity
  8
001
370
     9
  0
TEXT
  5
3F8
330
3E8
100
AcDbEntity
  8
001
370
    30
100
AcDbText
 10
105.0291
 20
59.842566
 30
0.0
 40
4.0
  1
１５%%d
 50
34.079857
 41
0.978261
100
AcDbText
  0
POINT
  5
3F9
330
3E8
100
AcDbEntity
  8
001
370
     9
100
AcDbPoint
 10
97.32424
 20
77.161976
 30
0.0
  0
POINT
  5
3FA
330
3E8
100
AcDbEntity
  8
001
370
     9
100
AcDbPoint
 10
95.196481
 20
85.083923
 30
0.0
  0
POINT
  5
3FB
330
3E8
100
AcDbEntity
  8
001
370
     9
100
AcDbPoint
 10
95.196481
 20
85.083923
 30
0.0
  0
POINT
  5
3FC
330
3E8
100
AcDbEntity
  8
001
370
     9
100
AcDbPoint
 10
95.196481
 20
75.574532
 30
0.0
  0
ARC
  5
3FD
330
3E8
100
AcDbEntity
  8
001
370
     9
100
AcDbCircle
 10
95.196481
 20
85.083923
 30
0.0
 40
27.41602800034985
100
AcDbArc
 50
264.775339
 51
270.0
  0
ARC
  5
3FE
330
3E8
100
AcDbEntity
  8
001
370
     9
100
AcDbCircle
 10
95.196481
 20
85.083923
 30
0.0
 40
27.41602800034985
100
AcDbArc
 50
285.034269
 51
316.619042
  0
ENDBLK
  5
3EA
330
3E8
100
AcDbEntity
  8
0
100
AcDbBlockEnd
  0
BLOCK
  5
400
330
3FF
100
AcDbEntity
  8
0
100
AcDbBlockBegin
  2
*D6
 70
     1
 10
0.0
 20
0.0
 30
0.0
  3
*D6
  1

  0
LINE
  5
402
330
3FF
100
AcDbEntity
  8
001
370
     9
100
AcDbLine
 10
220.196481
 20
81.326797
 30
0.0
 11
220.196481
 21
40.398731
 31
0.0
  0
LINE
  5
403
330
3FF
100
AcDbEntity
  8
001
370
     9
100
AcDbLine
 10
95.196481
 20
75.574532
 30
0.0
 11
95.196481
 21
40.398731
 31
0.0
  0
LINE
  5
404
330
3FF
100
AcDbEntity
  8
001
370
     9
100
AcDbLine
 10
220.196481
 20
43.148731
 30
0.0
 11
95.196481
 21
43.148731
 31
0.0
  0
POLYLINE
  5
405
330
3FF
100
AcDbEntity
  8
001
370
     9
100
AcDb2dPolyline
 66
     1
 10
0.0
 20
0.0
 30
0.0
  0
VERTEX
  5
407
330
405
100
AcDbEntity
  8
001
370
     9
100
AcDbVertex
100
AcDb2dVertex
 10
218.696481
 20
43.550654
 30
0.0
  0
VERTEX
  5
408
330
405
100
AcDbEntity
  8
001
370
     9
100
AcDbVertex
100
AcDb2dVertex
 10
220.196481
 20
43.148731
 30
0.0
  0
VERTEX
  5
409
330
405
100
AcDbEntity
  8
001
370
     9
100
AcDbVertex
100
AcDb2dVertex
 10
218.696481
 20
42.746807
 30
0.0
  0
SEQEND
  5
406
330
405
100
AcDbEntity
  8
001
370
     9
  0
POLYLINE
  5
40A
330
3FF
100
AcDbEntity
  8
001
370
     9
100
AcDb2dPolyline
 66
     1
 10
0.0
 20
0.0
 30
0.0
  0
VERTEX
  5
40C
330
40A
100
AcDbEntity
  8
001
370
     9
100
AcDbVertex
100
AcDb2dVertex
 10
96.696481
 20
42.746807
 30
0.0
  0
VERTEX
  5
40D
330
40A
100
AcDbEntity
  8
001
370
     9
100
AcDbVertex
100
AcDb2dVertex
 10
95.196481
 20
43.148731
 30
0.0
  0
VERTEX
  5
40E
330
40A
100
AcDbEntity
  8
001
370
     9
100
AcDbVertex
100
AcDb2dVertex
 10
96.696481
 20
43.550654
 30
0.0
  0
SEQEND
  5
40B
330
40A
100
AcDbEntity
  8
001
370
     9
  0
TEXT
  5
40F
330
3FF
100
AcDbEntity
  8
001
370
    30
100
AcDbText
 10
151.696481
 20
44.148731
 30
0.0
 40
4.0
  1
１２５
 41
0.833333
100
AcDbText
  0
POINT
  5
410
330
3FF
100
AcDbEntity
  8
001
370
     9
100
AcDbPoint
 10
220.196481
 20
81.326797
 30
0.0
  0
POINT
  5
411
330
3FF
100
AcDbEntity
  8
001
370
     9
100
AcDbPoint
 10
95.196481
 20
75.574532
 30
0.0
  0
POINT
  5
412
330
3FF
100
AcDbEntity
  8
001
370
     9
100
AcDbPoint
 10
95.196481
 20
43.148731
 30
0.0
  0
ENDBLK
  5
401
330
3FF
100
AcDbEntity
  8
0
100
AcDbBlockEnd
  0
BLOCK
  5
414
330
413
100
AcDbEntity
  8
0
100
AcDbBlockBegin
  2
*D7
 70
     1
 10
0.0
 20
0.0
 30
0.0
  3
*D7
  1

  0
LINE
  5
416
330
413
100
AcDbEntity
  8
001
370
     9
100
AcDbLine
 10
125.196481
 20
76.326797
 30
0.0
 11
125.196481
 21
49.731392
 31
0.0
  0
LINE
  5
417
330
413
100
AcDbEntity
  8
001
370
     9
100
AcDbLine
 10
220.196481
 20
81.326797
 30
0.0
 11
220.196481
 21
49.731392
 31
0.0
  0
LINE
  5
418
330
413
100
AcDbEntity
  8
001
370
     9
100
AcDbLine
 10
125.196481
 20
52.481392
 30
0.0
 11
220.196481
 21
52.481392
 31
0.0
  0
POLYLINE
  5
419
330
413
100
AcDbEntity
  8
001
370
     9
100
AcDb2dPolyline
 66
     1
 10
0.0
 20
0.0
 30
0.0
  0
VERTEX
  5
41B
330
419
100
AcDbEntity
  8
001
370
     9
100
AcDbVertex
100
AcDb2dVertex
 10
126.696481
 20
52.079468
 30
0.0
  0
VERTEX
  5
41C
330
419
100
AcDbEntity
  8
001
370
     9
100
AcDbVertex
100
AcDb2dVertex
 10
125.196481
 20
52.481392
 30
0.0
  0
VERTEX
  5
41D
330
419
100
AcDbEntity
  8
001
370
     9
100
AcDbVertex
100
AcDb2dVertex
 10
126.696481
 20
52.883315
 30
0.0
  0
SEQEND
  5
41A
330
419
100
AcDbEntity
  8
001
370
     9
  0
POLYLINE
  5
41E
330
413
100
AcDbEntity
  8
001
370
     9
100
AcDb2dPolyline
 66
     1
 10
0.0
 20
0.0
 30
0.0
  0
VERTEX
  5
420
330
41E
100
AcDbEntity
  8
001
370
     9
100
AcDbVertex
100
AcDb2dVertex
 10
218.696481
 20
52.883315
 30
0.0
  0
VERTEX
  5
421
330
41E
100
AcDbEntity
  8
001
370
     9
100
AcDbVertex
100
AcDb2dVertex
 10
220.196481
 20
52.481392
 30
0.0
  0
VERTEX
  5
422
330
41E
100
AcDbEntity
  8
001
370
     9
100
AcDbVertex
100
AcDb2dVertex
 10
218.696481
 20
52.079468
 30
0.0
  0
SEQEND
  5
41F
330
41E
100
AcDbEntity
  8
001
370
     9
  0
TEXT
  5
423
330
413
100
AcDbEntity
  8
001
370
    30
100
AcDbText
 10
168.696481
 20
53.481392
 30
0.0
 40
4.0
  1
９５
 41
0.833333
100
AcDbText
  0
POINT
  5
424
330
413
100
AcDbEntity
  8
001
370
     9
100
AcDbPoint
 10
125.196481
 20
76.326797
 30
0.0
  0
POINT
  5
425
330
413
100
AcDbEntity
  8
001
370
     9
100
AcDbPoint
 10
220.196481
 20
81.326797
 30
0.0
  0
POINT
  5
426
330
413
100
AcDbEntity
  8
001
370
     9
100
AcDbPoint
 10
220.196481
 20
52.481392
 30
0.0
  0
ENDBLK
  5
415
330
413
100
AcDbEntity
  8
0
100
AcDbBlockEnd
  0
BLOCK
  5
428
330
427
100
AcDbEntity
  8
0
100
AcDbBlockBegin
  2
*D8
 70
     1
 10
0.0
 20
0.0
 30
0.0
  3
*D8
  1

  0
LINE
  5
42A
330
427
100
AcDbEntity
  8
001
370
     9
100
AcDbLine
 10
214.196481
 20
95.326797
 30
0.0
 11
248.019826
 21
95.326797
 31
0.0
  0
LINE
  5
42B
330
427
100
AcDbEntity
  8
001
370
     9
100
AcDbLine
 10
214.196481
 20
75.326797
 30
0.0
 11
248.019826
 21
75.326797
 31
0.0
  0
LINE
  5
42C
330
427
100
AcDbEntity
  8
001
370
     9
100
AcDbLine
 10
245.269826
 20
95.326797
 30
0.0
 11
245.269826
 21
75.326797
 31
0.0
  0
POLYLINE
  5
42D
330
427
100
AcDbEntity
  8
001
370
     9
100
AcDb2dPolyline
 66
     1
 10
0.0
 20
0.0
 30
0.0
  0
VERTEX
  5
42F
330
42D
100
AcDbEntity
  8
001
370
     9
100
AcDbVertex
100
AcDb2dVertex
 10
244.867902
 20
93.826797
 30
0.0
  0
VERTEX
  5
430
330
42D
100
AcDbEntity
  8
001
370
     9
100
AcDbVertex
100
AcDb2dVertex
 10
245.269826
 20
95.326797
 30
0.0
  0
VERTEX
  5
431
330
42D
100
AcDbEntity
  8
001
370
     9
100
AcDbVertex
100
AcDb2dVertex
 10
245.67175
 20
93.826797
 30
0.0
  0
SEQEND
  5
42E
330
42D
100
AcDbEntity
  8
001
370
     9
  0
POLYLINE
  5
432
330
427
100
AcDbEntity
  8
001
370
     9
100
AcDb2dPolyline
 66
     1
 10
0.0
 20
0.0
 30
0.0
  0
VERTEX
  5
434
330
432
100
AcDbEntity
  8
001
370
     9
100
AcDbVertex
100
AcDb2dVertex
 10
245.67175
 20
76.826797
 30
0.0
  0
VERTEX
  5
435
330
432
100
AcDbEntity
  8
001
370
     9
100
AcDbVertex
100
AcDb2dVertex
 10
245.269826
 20
75.326797
 30
0.0
  0
VERTEX
  5
436
330
432
100
AcDbEntity
  8
001
370
     9
100
AcDbVertex
100
AcDb2dVertex
 10
244.867902
 20
76.826797
 30
0.0
  0
SEQEND
  5
433
330
432
100
AcDbEntity
  8
001
370
     9
  0
TEXT
  5
437
330
427
100
AcDbEntity
  8
001
370
    30
100
AcDbText
 10
244.269826
 20
59.826797
 30
0.0
 40
4.0
  1
%%c２０
 50
90.000003
 41
0.882353
100
AcDbText
  0
POINT
  5
438
330
427
100
AcDbEntity
  8
001
370
     9
100
AcDbPoint
 10
214.196481
 20
95.326797
 30
0.0
  0
POINT
  5
439
330
427
100
AcDbEntity
  8
001
370
     9
100
AcDbPoint
 10
214.196481
 20
75.326797
 30
0.0
  0
POINT
  5
43A
330
427
100
AcDbEntity
  8
001
370
     9
100
AcDbPoint
 10
245.269826
 20
75.326797
 30
0.0
  0
LINE
  5
43B
330
427
100
AcDbEntity
  8
001
370
     9
100
AcDbLine
 10
245.269826
 20
75.326797
 30
0.0
 11
245.269826
 21
56.826797
 31
0.0
  0
ENDBLK
  5
429
330
427
100
AcDbEntity
  8
0
100
AcDbBlockEnd
  0
ENDSEC
  0
SECTION
  2
ENTITIES
  0
INSERT
  5
43C
330
1F
100
AcDbEntity
  8
001
  6
ByBlock
 62
     0
370
    -2
100
AcDbBlockReference
  2
C32GUX-1
 10
0.0
 20
0.0
 30
0.0
  0
INSERT
  5
43D
330
1F
100
AcDbEntity
  8
001
  6
ByBlock
 62
     0
370
    -2
100
AcDbBlockReference
  2
M-1-2
 10
0.0
 20
0.0
 30
0.0
  0
DIMENSION
  5
43E
330
1F
100
AcDbEntity
  8
001
370
     9
100
AcDbDimension
  2
*D3
 10
125.196481
 20
52.481392
 30
0.0
 11
110.196481
 21
55.481392
 31
0.0
 70
   160
 71
     5
 42
-1.0
  3
Standard
100
AcDbAlignedDimension
 13
95.196481
 23
75.574532
 33
0.0
 14
125.196481
 24
76.326797
 34
0.0
100
AcDbRotatedDimension
  0
DIMENSION
  5
43F
330
1F
100
AcDbEntity
  8
001
370
     9
100
AcDbDimension
  2
*D4
 10
97.32424
 20
61.675137
 30
0.0
 11
81.696481
 21
64.675137
 31
0.0
 70
   160
 71
     5
 42
-1.0
  3
Standard
100
AcDbAlignedDimension
 13
95.196481
 23
75.574532
 33
0.0
 14
97.32424
 24
77.161976
 34
0.0
100
AcDbRotatedDimension
  0
DIMENSION
  5
440
330
1F
100
AcDbEntity
  8
001
370
     9
100
AcDbDimension
  2
*D5
 10
95.196481
 20
85.083923
 30
0.0
 11
108.877949
 21
64.861168
 31
0.0
 70
    34
 71
     5
 42
-1.0
  3
Standard
100
AcDb2LineAngularDimension
 13
97.32424
 23
77.161976
 33
0.0
 14
95.196481
 24
85.083923
 34
0.0
 15
95.196481
 25
75.574532
 35
0.0
 16
98.783119
 26
57.903515
 36
0.0
  0
TEXT
  5
441
330
1F
100
AcDbEntity
  8
001
370
    30
100
AcDbText
 10
79.01024
 20
89.079492
 30
0.0
 40
4.0
  1
%%c０．５
 50
90.000003
 41
0.869565
100
AcDbText
  0
POLYLINE
  5
442
330
1F
100
AcDbEntity
  8
001
370
     9
100
AcDb2dPolyline
 66
     1
 10
0.0
 20
0.0
 30
0.0
  0
VERTEX
  5
444
330
442
100
AcDbEntity
  8
001
370
     9
100
AcDbVertex
100
AcDb2dVertex
 10
80.412164
 20
86.583923
 30
0.0
  0
VERTEX
  5
445
330
442
100
AcDbEntity
  8
001
370
     9
100
AcDbVertex
100
AcDb2dVertex
 10
80.01024
 20
85.083923
 30
0.0
  0
VERTEX
  5
446
330
442
100
AcDbEntity
  8
001
370
     9
100
AcDbVertex
100
AcDb2dVertex
 10
79.608316
 20
86.583923
 30
0.0
  0
SEQEND
  5
443
330
442
100
AcDbEntity
  8
001
370
     9
  0
LINE
  5
447
330
1F
100
AcDbEntity
  8
001
370
     9
100
AcDbLine
 10
80.01024
 20
85.083923
 30
0.0
 11
80.01024
 21
108.079492
 31
0.0
  0
POLYLINE
  5
448
330
1F
100
AcDbEntity
  8
001
370
     9
100
AcDb2dPolyline
 66
     1
 10
0.0
 20
0.0
 30
0.0
  0
VERTEX
  5
44A
330
448
100
AcDbEntity
  8
001
370
     9
100
AcDbVertex
100
AcDb2dVertex
 10
95.196481
 20
85.083923
 30
0.0
  0
VERTEX
  5
44B
330
448
100
AcDbEntity
  8
001
370
     9
100
AcDbVertex
100
AcDb2dVertex
 10
80.01024
 20
85.083923
 30
0.0
  0
VERTEX
  5
44C
330
448
100
AcDbEntity
  8
001
370
     9
100
AcDbVertex
100
AcDb2dVertex
 10
77.26024
 20
85.083923
 30
0.0
  0
SEQEND
  5
449
330
448
100
AcDbEntity
  8
001
370
     9
  0
DIMENSION
  5
44D
330
1F
100
AcDbEntity
  8
001
370
     9
100
AcDbDimension
  2
*D6
 10
95.196481
 20
43.148731
 30
0.0
 11
157.696481
 21
46.148731
 31
0.0
 70
   160
 71
     5
 42
-1.0
  3
Standard
100
AcDbAlignedDimension
 13
220.196481
 23
81.326797
 33
0.0
 14
95.196481
 24
75.574532
 34
0.0
 50
180.0
100
AcDbRotatedDimension
  0
DIMENSION
  5
44E
330
1F
100
AcDbEntity
  8
001
370
     9
100
AcDbDimension
  2
*D7
 10
220.196481
 20
52.481392
 30
0.0
 11
172.696481
 21
55.481392
 31
0.0
 70
   160
 71
     5
 42
-1.0
  3
Standard
100
AcDbAlignedDimension
 13
125.196481
 23
76.326797
 33
0.0
 14
220.196481
 24
81.326797
 34
0.0
100
AcDbRotatedDimension
  0
DIMENSION
  5
44F
330
1F
100
AcDbEntity
  8
001
370
     9
100
AcDbDimension
  2
*D8
 10
245.269826
 20
75.326797
 30
0.0
 11
242.269826
 21
65.826797
 31
0.0
 70
   160
 71
     5
 42
-1.0
  3
Standard
100
AcDbAlignedDimension
 13
214.196481
 23
95.326797
 33
0.0
 14
214.196481
 24
75.326797
 34
0.0
 50
270.0
100
AcDbRotatedDimension
  0
TEXT
  5
450
330
1F
100
AcDbEntity
  8
001
370
    30
100
AcDbText
 10
70.380712
 20
81.928568
 30
0.0
 40
4.0
  1
%%c１７．９５
 50
90.000003
 41
0.857143
100
AcDbText
  0
POLYLINE
  5
451
330
1F
100
AcDbEntity
  8
001
370
     9
100
AcDb2dPolyline
 66
     1
 10
0.0
 20
0.0
 30
0.0
  0
VERTEX
  5
453
330
451
100
AcDbEntity
  8
001
370
     9
100
AcDbVertex
100
AcDb2dVertex
 10
71.782636
 20
77.858792
 30
0.0
  0
VERTEX
  5
454
330
451
100
AcDbEntity
  8
001
370
     9
100
AcDbVertex
100
AcDb2dVertex
 10
71.380712
 20
76.358792
 30
0.0
  0
VERTEX
  5
455
330
451
100
AcDbEntity
  8
001
370
     9
100
AcDbVertex
100
AcDb2dVertex
 10
70.978788
 20
77.858792
 30
0.0
  0
SEQEND
  5
452
330
451
100
AcDbEntity
  8
001
370
     9
  0
LINE
  5
456
330
1F
100
AcDbEntity
  8
001
370
     9
100
AcDbLine
 10
71.380712
 20
94.305867
 30
0.0
 11
71.380712
 21
76.358792
 31
0.0
  0
POLYLINE
  5
457
330
1F
100
AcDbEntity
  8
001
370
     9
100
AcDb2dPolyline
 66
     1
 10
0.0
 20
0.0
 30
0.0
  0
VERTEX
  5
459
330
457
100
AcDbEntity
  8
001
370
     9
100
AcDbVertex
100
AcDb2dVertex
 10
97.784602
 20
76.358792
 30
0.0
  0
VERTEX
  5
45A
330
457
100
AcDbEntity
  8
001
370
     9
100
AcDbVertex
100
AcDb2dVertex
 10
71.380712
 20
76.358792
 30
0.0
  0
VERTEX
  5
45B
330
457
100
AcDbEntity
  8
001
370
     9
100
AcDbVertex
100
AcDb2dVertex
 10
68.630712
 20
76.358792
 30
0.0
  0
SEQEND
  5
458
330
457
100
AcDbEntity
  8
001
370
     9
  0
TEXT
  5
45C
330
1F
100
AcDbEntity
  8
001
370
    30
100
AcDbText
 10
85.169148
 20
118.128126
 30
0.0
 40
8.0
  1
面取りカッター面面　ＳＮＫ１５１６Ｃ
 41
0.833333
100
AcDbText
  0
LINE
  5
45D
330
1F
100
AcDbEntity
  8
001
 62
   253
370
    50
100
AcDbLine
 10
214.196481
 20
95.326797
 30
0.0
 11
126.196481
 21
95.326797
 31
0.0
  0
LINE
  5
45E
330
1F
100
AcDbEntity
  8
001
 62
   253
370
    50
100
AcDbLine
 10
214.196481
 20
75.326797
 30
0.0
 11
126.196481
 21
75.326797
 31
0.0
  0
LINE
  5
45F
330
1F
100
AcDbEntity
  8
001
 62
   253
370
    50
100
AcDbLine
 10
126.196481
 20
95.326797
 30
0.0
 11
126.196481
 21
75.326797
 31
0.0
  0
LINE
  5
460
330
1F
100
AcDbEntity
  8
001
 62
   253
370
    50
100
AcDbLine
 10
126.196481
 20
95.326797
 30
0.0
 11
125.196481
 21
94.326797
 31
0.0
  0
LINE
  5
461
330
1F
100
AcDbEntity
  8
001
 62
   253
370
    50
100
AcDbLine
 10
125.196481
 20
76.326797
 30
0.0
 11
126.196481
 21
75.326797
 31
0.0
  0
LINE
  5
462
330
1F
100
AcDbEntity
  8
001
 62
   253
370
    50
100
AcDbLine
 10
125.196481
 20
94.326797
 30
0.0
 11
125.196481
 21
76.326797
 31
0.0
  0
ARC
  5
463
330
1F
100
AcDbEntity
  8
001
 62
   253
370
    50
100
AcDbCircle
 10
214.196481
 20
89.326797
 30
0.0
 40
5.999999999999986
100
AcDbArc
 50
0.0
 51
90.0
  0
ARC
  5
464
330
1F
100
AcDbEntity
  8
001
 62
   253
370
    50
100
AcDbCircle
 10
214.196481
 20
81.326797
 30
0.0
 40
5.999999999999986
100
AcDbArc
 50
270.0
 51
0.0
  0
LINE
  5
465
330
1F
100
AcDbEntity
  8
001
 62
   253
370
    50
100
AcDbLine
 10
220.196481
 20
89.326797
 30
0.0
 11
220.196481
 21
81.326797
 31
0.0
  0
LINE
  5
466
330
1F
100
AcDbEntity
  8
001
 62
   253
370
    50
100
AcDbLine
 10
110.196481
 20
93.523981
 30
0.0
 11
110.196481
 21
77.129612
 31
0.0
  0
POLYLINE
  5
467
330
1F
100
AcDbEntity
  8
001
 62
   253
370
    50
100
AcDb2dPolyline
 66
     1
 10
0.0
 20
0.0
 30
0.0
  0
VERTEX
  5
469
330
467
100
AcDbEntity
  8
001
 62
   253
370
    50
100
AcDbVertex
100
AcDb2dVertex
 10
110.196481
 20
77.129612
 30
0.0
  0
VERTEX
  5
46A
330
467
100
AcDbEntity
  8
001
 62
   253
370
    50
100
AcDbVertex
100
AcDb2dVertex
 10
110.389892
 20
77.290629
 30
0.0
  0
VERTEX
  5
46B
330
467
100
AcDbEntity
  8
001
 62
   253
370
    50
100
AcDbVertex
100
AcDb2dVertex
 10
110.658896
 20
77.532568
 30
0.0
  0
VERTEX
  5
46C
330
467
100
AcDbEntity
  8
001
 62
   253
370
    50
100
AcDbVertex
100
AcDb2dVertex
 10
111.918851
 20
79.134729
 30
0.0
  0
VERTEX
  5
46D
330
467
100
AcDbEntity
  8
001
 62
   253
370
    50
100
AcDbVertex
100
AcDb2dVertex
 10
112.601049
 20
80.826797
 30
0.0
  0
VERTEX
  5
46E
330
467
100
AcDbEntity
  8
001
 62
   253
370
    50
100
AcDbVertex
100
AcDb2dVertex
 10
112.981989
 20
82.267575
 30
0.0
  0
VERTEX
  5
46F
330
467
100
AcDbEntity
  8
001
 62
   253
370
    50
100
AcDbVertex
100
AcDb2dVertex
 10
113.231315
 20
83.763963
 30
0.0
  0
VERTEX
  5
470
330
467
100
AcDbEntity
  8
001
 62
   253
370
    50
100
AcDbVertex
100
AcDb2dVertex
 10
113.293095
 20
84.545942
 30
0.0
  0
VERTEX
  5
471
330
467
100
AcDbEntity
  8
001
 62
   253
370
    50
100
AcDbVertex
100
AcDb2dVertex
 10
113.311926
 20
85.326797
 30
0.0
  0
VERTEX
  5
472
330
467
100
AcDbEntity
  8
001
 62
   253
370
    50
100
AcDbVertex
100
AcDb2dVertex
 10
113.293095
 20
86.107652
 30
0.0
  0
VERTEX
  5
473
330
467
100
AcDbEntity
  8
001
 62
   253
370
    50
100
AcDbVertex
100
AcDb2dVertex
 10
113.231315
 20
86.88963
 30
0.0
  0
VERTEX
  5
474
330
467
100
AcDbEntity
  8
001
 62
   253
370
    50
100
AcDbVertex
100
AcDb2dVertex
 10
112.981989
 20
88.386018
 30
0.0
  0
VERTEX
  5
475
330
467
100
AcDbEntity
  8
001
 62
   253
370
    50
100
AcDbVertex
100
AcDb2dVertex
 10
112.601049
 20
89.826797
 30
0.0
  0
VERTEX
  5
476
330
467
100
AcDbEntity
  8
001
 62
   253
370
    50
100
AcDbVertex
100
AcDb2dVertex
 10
111.918851
 20
91.518864
 30
0.0
  0
VERTEX
  5
477
330
467
100
AcDbEntity
  8
001
 62
   253
370
    50
100
AcDbVertex
100
AcDb2dVertex
 10
110.658896
 20
93.121025
 30
0.0
  0
VERTEX
  5
478
330
467
100
AcDbEntity
  8
001
 62
   253
370
    50
100
AcDbVertex
100
AcDb2dVertex
 10
110.389892
 20
93.362965
 30
0.0
  0
VERTEX
  5
479
330
467
100
AcDbEntity
  8
001
 62
   253
370
    50
100
AcDbVertex
100
AcDb2dVertex
 10
110.196481
 20
93.523981
 30
0.0
  0
SEQEND
  5
468
330
467
100
AcDbEntity
  8
001
370
    50
  0
LINE
  5
47A
330
1F
100
AcDbEntity
  8
001
 62
   253
370
    50
100
AcDbLine
 10
98.498261
 20
94.326797
 30
0.0
 11
98.498261
 21
94.299915
 31
0.0
  0
POLYLINE
  5
47B
330
1F
100
AcDbEntity
  8
001
 62
   253
370
    50
100
AcDb2dPolyline
 66
     1
 10
0.0
 20
0.0
 30
0.0
  0
VERTEX
  5
47D
330
47B
100
AcDbEntity
  8
001
 62
   253
370
    50
100
AcDbVertex
100
AcDb2dVertex
 10
100.26577
 20
76.535351
 30
0.0
  0
VERTEX
  5
47E
330
47B
100
AcDbEntity
  8
001
 62
   253
370
    50
100
AcDbVertex
100
AcDb2dVertex
 10
100.837489
 20
76.504497
 30
0.0
  0
VERTEX
  5
47F
330
47B
100
AcDbEntity
  8
001
 62
   253
370
    50
100
AcDbVertex
100
AcDb2dVertex
 10
101.673271
 20
76.463527
 30
0.0
  0
VERTEX
  5
480
330
47B
100
AcDbEntity
  8
001
 62
   253
370
    50
100
AcDbVertex
100
AcDb2dVertex
 10
104.138188
 20
76.376997
 30
0.0
  0
VERTEX
  5
481
330
47B
100
AcDbEntity
  8
001
 62
   253
370
    50
100
AcDbVertex
100
AcDb2dVertex
 10
106.268208
 20
76.336705
 30
0.0
  0
VERTEX
  5
482
330
47B
100
AcDbEntity
  8
001
 62
   253
370
    50
100
AcDbVertex
100
AcDb2dVertex
 10
107.725887
 20
76.326797
 30
0.0
  0
SEQEND
  5
47C
330
47B
100
AcDbEntity
  8
001
370
    50
  0
LINE
  5
483
330
1F
100
AcDbEntity
  8
001
 62
   253
370
    50
100
AcDbLine
 10
125.196481
 20
94.326797
 30
0.0
 11
98.498261
 21
94.326797
 31
0.0
  0
LINE
  5
484
330
1F
100
AcDbEntity
  8
001
 62
   253
370
    50
100
AcDbLine
 10
107.725887
 20
76.326797
 30
0.0
 11
125.196481
 21
76.326797
 31
0.0
  0
POLYLINE
  5
485
330
1F
100
AcDbEntity
  8
001
 62
   253
370
    50
100
AcDb2dPolyline
 66
     1
 10
0.0
 20
0.0
 30
0.0
  0
VERTEX
  5
487
330
485
100
AcDbEntity
  8
001
 62
   253
370
    50
100
AcDbVertex
100
AcDb2dVertex
 10
110.196481
 20
93.523981
 30
0.0
  0
VERTEX
  5
488
330
485
100
AcDbEntity
  8
001
 62
   253
370
    50
100
AcDbVertex
100
AcDb2dVertex
 10
108.799148
 20
93.673956
 30
0.0
  0
VERTEX
  5
489
330
485
100
AcDbEntity
  8
001
 62
   253
370
    50
100
AcDbVertex
100
AcDb2dVertex
 10
106.813892
 20
93.85788
 30
0.0
  0
VERTEX
  5
48A
330
485
100
AcDbEntity
  8
001
 62
   253
370
    50
100
AcDbVertex
100
AcDb2dVertex
 10
104.435533
 20
94.041376
 30
0.0
  0
VERTEX
  5
48B
330
485
100
AcDbEntity
  8
001
 62
   253
370
    50
100
AcDbVertex
100
AcDb2dVertex
 10
101.858895
 20
94.190067
 30
0.0
  0
VERTEX
  5
48C
330
485
100
AcDbEntity
  8
001
 62
   253
370
    50
100
AcDbVertex
100
AcDb2dVertex
 10
99.863903
 20
94.264874
 30
0.0
  0
VERTEX
  5
48D
330
485
100
AcDbEntity
  8
001
 62
   253
370
    50
100
AcDbVertex
100
AcDb2dVertex
 10
98.498261
 20
94.299915
 30
0.0
  0
SEQEND
  5
486
330
485
100
AcDbEntity
  8
001
370
    50
  0
POLYLINE
  5
48E
330
1F
100
AcDbEntity
  8
001
 62
   253
370
    50
100
AcDb2dPolyline
 66
     1
 10
0.0
 20
0.0
 30
0.0
  0
VERTEX
  5
490
330
48E
100
AcDbEntity
  8
001
 62
   253
370
    50
100
AcDbVertex
100
AcDb2dVertex
 10
107.725887
 20
76.326797
 30
0.0
  0
VERTEX
  5
491
330
48E
100
AcDbEntity
  8
001
 62
   253
370
    50
100
AcDbVertex
100
AcDb2dVertex
 10
107.764168
 20
76.326803
 30
0.0
  0
VERTEX
  5
492
330
48E
100
AcDbEntity
  8
001
 62
   253
370
    50
100
AcDbVertex
100
AcDb2dVertex
 10
107.820116
 20
76.32683
 30
0.0
  0
VERTEX
  5
493
330
48E
100
AcDbEntity
  8
001
 62
   253
370
    50
100
AcDbVertex
100
AcDb2dVertex
 10
107.876065
 20
76.326881
 30
0.0
  0
VERTEX
  5
494
330
48E
100
AcDbEntity
  8
001
 62
   253
370
    50
100
AcDbVertex
100
AcDb2dVertex
 10
107.914345
 20
76.326928
 30
0.0
  0
SEQEND
  5
48F
330
48E
100
AcDbEntity
  8
001
370
    50
  0
POLYLINE
  5
495
330
1F
100
AcDbEntity
  8
001
 62
   253
370
    50
100
AcDb2dPolyline
 66
     1
 10
0.0
 20
0.0
 30
0.0
  0
VERTEX
  5
497
330
495
100
AcDbEntity
  8
001
 62
   253
370
    50
100
AcDbVertex
100
AcDb2dVertex
 10
107.040359
 20
76.807068
 30
0.0
  0
VERTEX
  5
498
330
495
100
AcDbEntity
  8
001
 62
   253
370
    50
100
AcDbVertex
100
AcDb2dVertex
 10
107.103789
 20
76.749189
 30
0.0
  0
VERTEX
  5
499
330
495
100
AcDbEntity
  8
001
 62
   253
370
    50
100
AcDbVertex
100
AcDb2dVertex
 10
107.193963
 20
76.66919
 30
0.0
  0
VERTEX
  5
49A
330
495
100
AcDbEntity
  8
001
 62
   253
370
    50
100
AcDbVertex
100
AcDb2dVertex
 10
107.419105
 20
76.48919
 30
0.0
  0
VERTEX
  5
49B
330
495
100
AcDbEntity
  8
001
 62
   253
370
    50
100
AcDbVertex
100
AcDb2dVertex
 10
107.676437
 20
76.373747
 30
0.0
  0
VERTEX
  5
49C
330
495
100
AcDbEntity
  8
001
 62
   253
370
    50
100
AcDbVertex
100
AcDb2dVertex
 10
107.813795
 20
76.341017
 30
0.0
  0
VERTEX
  5
49D
330
495
100
AcDbEntity
  8
001
 62
   253
370
    50
100
AcDbVertex
100
AcDb2dVertex
 10
107.914345
 20
76.326928
 30
0.0
  0
SEQEND
  5
496
330
495
100
AcDbEntity
  8
001
370
    50
  0
POLYLINE
  5
49E
330
1F
100
AcDbEntity
  8
001
 62
   253
370
    50
100
AcDb2dPolyline
 66
     1
 10
0.0
 20
0.0
 30
0.0
  0
VERTEX
  5
4A0
330
49E
100
AcDbEntity
  8
001
 62
   253
370
    50
100
AcDbVertex
100
AcDb2dVertex
 10
107.040359
 20
76.807068
 30
0.0
  0
VERTEX
  5
4A1
330
49E
100
AcDbEntity
  8
001
 62
   253
370
    50
100
AcDbVertex
100
AcDb2dVertex
 10
107.687871
 20
76.866059
 30
0.0
  0
VERTEX
  5
4A2
330
49E
100
AcDbEntity
  8
001
 62
   253
370
    50
100
AcDbVertex
100
AcDb2dVertex
 10
108.633635
 20
76.958414
 30
0.0
  0
VERTEX
  5
4A3
330
49E
100
AcDbEntity
  8
001
 62
   253
370
    50
100
AcDbVertex
100
AcDb2dVertex
 10
109.56184
 20
77.057584
 30
0.0
  0
VERTEX
  5
4A4
330
49E
100
AcDbEntity
  8
001
 62
   253
370
    50
100
AcDbVertex
100
AcDb2dVertex
 10
110.196481
 20
77.129612
 30
0.0
  0
SEQEND
  5
49F
330
49E
100
AcDbEntity
  8
001
370
    50
  0
POLYLINE
  5
4A5
330
1F
100
AcDbEntity
  8
001
 62
   253
370
    50
100
AcDb2dPolyline
 66
     1
 10
0.0
 20
0.0
 30
0.0
  0
VERTEX
  5
4A7
330
4A5
100
AcDbEntity
  8
001
 62
   253
370
    50
100
AcDbVertex
100
AcDb2dVertex
 10
103.215185
 20
87.29195
 30
0.0
  0
VERTEX
  5
4A8
330
4A5
100
AcDbEntity
  8
001
 62
   253
370
    50
100
AcDbVertex
100
AcDb2dVertex
 10
103.037892
 20
87.282667
 30
0.0
  0
VERTEX
  5
4A9
330
4A5
100
AcDbEntity
  8
001
 62
   253
370
    50
100
AcDbVertex
100
AcDb2dVertex
 10
102.794851
 20
87.253969
 30
0.0
  0
VERTEX
  5
4AA
330
4A5
100
AcDbEntity
  8
001
 62
   253
370
    50
100
AcDbVertex
100
AcDb2dVertex
 10
102.578594
 20
87.205499
 30
0.0
  0
VERTEX
  5
4AB
330
4A5
100
AcDbEntity
  8
001
 62
   253
370
    50
100
AcDbVertex
100
AcDb2dVertex
 10
102.387288
 20
87.141181
 30
0.0
  0
VERTEX
  5
4AC
330
4A5
100
AcDbEntity
  8
001
 62
   253
370
    50
100
AcDbVertex
100
AcDb2dVertex
 10
102.197965
 20
87.062264
 30
0.0
  0
VERTEX
  5
4AD
330
4A5
100
AcDbEntity
  8
001
 62
   253
370
    50
100
AcDbVertex
100
AcDb2dVertex
 10
102.004881
 20
86.957013
 30
0.0
  0
VERTEX
  5
4AE
330
4A5
100
AcDbEntity
  8
001
 62
   253
370
    50
100
AcDbVertex
100
AcDb2dVertex
 10
101.557917
 20
86.595778
 30
0.0
  0
VERTEX
  5
4AF
330
4A5
100
AcDbEntity
  8
001
 62
   253
370
    50
100
AcDbVertex
100
AcDb2dVertex
 10
101.268978
 20
86.27847
 30
0.0
  0
SEQEND
  5
4A6
330
4A5
100
AcDbEntity
  8
001
370
    50
  0
LINE
  5
4B0
330
1F
100
AcDbEntity
  8
001
 62
   253
370
    50
100
AcDbLine
 10
101.268978
 20
86.27847
 30
0.0
 11
96.496481
 21
85.803507
 31
0.0
  0
LINE
  5
4B1
330
1F
100
AcDbEntity
  8
001
 62
   253
370
    50
100
AcDbLine
 10
98.498261
 20
94.299915
 30
0.0
 11
96.496481
 21
88.160352
 31
0.0
  0
LINE
  5
4B2
330
1F
100
AcDbEntity
  8
001
 62
   253
370
    50
100
AcDbLine
 10
107.040359
 20
76.807068
 30
0.0
 11
105.256544
 21
83.448437
 31
0.0
  0
POLYLINE
  5
4B3
330
1F
100
AcDbEntity
  8
001
 62
   253
370
    50
100
AcDb2dPolyline
 66
     1
 10
0.0
 20
0.0
 30
0.0
  0
VERTEX
  5
4B5
330
4B3
100
AcDbEntity
  8
001
 62
   253
370
    50
100
AcDbVertex
100
AcDb2dVertex
 10
103.587698
 20
87.262169
 30
0.0
  0
VERTEX
  5
4B6
330
4B3
100
AcDbEntity
  8
001
 62
   253
370
    50
100
AcDbVertex
100
AcDb2dVertex
 10
103.568127
 20
87.258899
 30
0.0
  0
VERTEX
  5
4B7
330
4B3
100
AcDbEntity
  8
001
 62
   253
370
    50
100
AcDbVertex
100
AcDb2dVertex
 10
103.539876
 20
87.253969
 30
0.0
  0
VERTEX
  5
4B8
330
4B3
100
AcDbEntity
  8
001
 62
   253
370
    50
100
AcDbVertex
100
AcDb2dVertex
 10
103.317756
 20
87.203302
 30
0.0
  0
VERTEX
  5
4B9
330
4B3
100
AcDbEntity
  8
001
 62
   253
370
    50
100
AcDbVertex
100
AcDb2dVertex
 10
103.132313
 20
87.141181
 30
0.0
  0
VERTEX
  5
4BA
330
4B3
100
AcDbEntity
  8
001
 62
   253
370
    50
100
AcDbVertex
100
AcDb2dVertex
 10
102.944988
 20
87.063016
 30
0.0
  0
VERTEX
  5
4BB
330
4B3
100
AcDbEntity
  8
001
 62
   253
370
    50
100
AcDbVertex
100
AcDb2dVertex
 10
102.749905
 20
86.957013
 30
0.0
  0
VERTEX
  5
4BC
330
4B3
100
AcDbEntity
  8
001
 62
   253
370
    50
100
AcDbVertex
100
AcDb2dVertex
 10
102.336213
 20
86.631295
 30
0.0
  0
VERTEX
  5
4BD
330
4B3
100
AcDbEntity
  8
001
 62
   253
370
    50
100
AcDbVertex
100
AcDb2dVertex
 10
102.066591
 20
86.349235
 30
0.0
  0
SEQEND
  5
4B4
330
4B3
100
AcDbEntity
  8
001
370
    50
  0
POLYLINE
  5
4BE
330
1F
100
AcDbEntity
  8
001
 62
   253
370
    50
100
AcDb2dPolyline
 66
     1
 10
0.0
 20
0.0
 30
0.0
  0
VERTEX
  5
4C0
330
4BE
100
AcDbEntity
  8
001
 62
   253
370
    50
100
AcDbVertex
100
AcDb2dVertex
 10
105.256544
 20
83.448437
 30
0.0
  0
VERTEX
  5
4C1
330
4BE
100
AcDbEntity
  8
001
 62
   253
370
    50
100
AcDbVertex
100
AcDb2dVertex
 10
105.279363
 20
83.486529
 30
0.0
  0
VERTEX
  5
4C2
330
4BE
100
AcDbEntity
  8
001
 62
   253
370
    50
100
AcDbVertex
100
AcDb2dVertex
 10
105.311495
 20
83.54195
 30
0.0
  0
VERTEX
  5
4C3
330
4BE
100
AcDbEntity
  8
001
 62
   253
370
    50
100
AcDbVertex
100
AcDb2dVertex
 10
105.504798
 20
83.961882
 30
0.0
  0
VERTEX
  5
4C4
330
4BE
100
AcDbEntity
  8
001
 62
   253
370
    50
100
AcDbVertex
100
AcDb2dVertex
 10
105.59902
 20
84.357829
 30
0.0
  0
VERTEX
  5
4C5
330
4BE
100
AcDbEntity
  8
001
 62
   253
370
    50
100
AcDbVertex
100
AcDb2dVertex
 10
105.625142
 20
84.571817
 30
0.0
  0
VERTEX
  5
4C6
330
4BE
100
AcDbEntity
  8
001
 62
   253
370
    50
100
AcDbVertex
100
AcDb2dVertex
 10
105.635795
 20
84.79195
 30
0.0
  0
VERTEX
  5
4C7
330
4BE
100
AcDbEntity
  8
001
 62
   253
370
    50
100
AcDbVertex
100
AcDb2dVertex
 10
105.627029
 20
85.010408
 30
0.0
  0
VERTEX
  5
4C8
330
4BE
100
AcDbEntity
  8
001
 62
   253
370
    50
100
AcDbVertex
100
AcDb2dVertex
 10
105.59902
 20
85.22607
 30
0.0
  0
VERTEX
  5
4C9
330
4BE
100
AcDbEntity
  8
001
 62
   253
370
    50
100
AcDbVertex
100
AcDb2dVertex
 10
105.489866
 20
85.645198
 30
0.0
  0
VERTEX
  5
4CA
330
4BE
100
AcDbEntity
  8
001
 62
   253
370
    50
100
AcDbVertex
100
AcDb2dVertex
 10
105.311495
 20
86.04195
 30
0.0
  0
VERTEX
  5
4CB
330
4BE
100
AcDbEntity
  8
001
 62
   253
370
    50
100
AcDbVertex
100
AcDb2dVertex
 10
104.929754
 20
86.55766
 30
0.0
  0
VERTEX
  5
4CC
330
4BE
100
AcDbEntity
  8
001
 62
   253
370
    50
100
AcDbVertex
100
AcDb2dVertex
 10
104.42549
 20
86.957013
 30
0.0
  0
VERTEX
  5
4CD
330
4BE
100
AcDbEntity
  8
001
 62
   253
370
    50
100
AcDbVertex
100
AcDb2dVertex
 10
104.235553
 20
87.057797
 30
0.0
  0
VERTEX
  5
4CE
330
4BE
100
AcDbEntity
  8
001
 62
   253
370
    50
100
AcDbVertex
100
AcDb2dVertex
 10
104.043083
 20
87.141181
 30
0.0
  0
VERTEX
  5
4CF
330
4BE
100
AcDbEntity
  8
001
 62
   253
370
    50
100
AcDbVertex
100
AcDb2dVertex
 10
103.850953
 20
87.206668
 30
0.0
  0
VERTEX
  5
4D0
330
4BE
100
AcDbEntity
  8
001
 62
   253
370
    50
100
AcDbVertex
100
AcDb2dVertex
 10
103.63552
 20
87.253969
 30
0.0
  0
VERTEX
  5
4D1
330
4BE
100
AcDbEntity
  8
001
 62
   253
370
    50
100
AcDbVertex
100
AcDb2dVertex
 10
103.392643
 20
87.282434
 30
0.0
  0
VERTEX
  5
4D2
330
4BE
100
AcDbEntity
  8
001
 62
   253
370
    50
100
AcDbVertex
100
AcDb2dVertex
 10
103.215185
 20
87.29195
 30
0.0
  0
SEQEND
  5
4BF
330
4BE
100
AcDbEntity
  8
001
370
    50
  0
LINE
  5
4D3
330
1F
100
AcDbEntity
  8
001
 62
   253
370
    50
100
AcDbLine
 10
101.316504
 20
86.27847
 30
0.0
 11
101.268978
 21
86.27847
 31
0.0
  0
LINE
  5
4D4
330
1F
100
AcDbEntity
  8
001
 62
   253
370
    50
100
AcDbLine
 10
96.496481
 20
88.165951
 30
0.0
 11
96.496481
 21
85.791142
 31
0.0
  0
LINE
  5
4D5
330
1F
100
AcDbEntity
  8
001
 62
   253
370
    50
100
AcDbLine
 10
98.498261
 20
94.326797
 30
0.0
 11
96.496481
 21
88.165951
 31
0.0
  0
LINE
  5
4D6
330
1F
100
AcDbEntity
  8
001
370
    50
100
AcDbLine
 10
220.196481
 20
85.326797
 30
0.0
 11
225.635931
 21
88.467265
 31
0.0
  0
LINE
  5
4D7
330
1F
100
AcDbEntity
  8
001
370
    50
100
AcDbLine
 10
220.196481
 20
85.326797
 30
0.0
 11
225.635931
 21
82.186329
 31
0.0
  0
LINE
  5
4D8
330
1F
100
AcDbEntity
  8
001
 62
   253
370
     9
100
AcDbLine
 10
95.196481
 20
75.574532
 30
0.0
 11
95.196481
 21
85.266994
 31
0.0
  0
LINE
  5
4D9
330
1F
100
AcDbEntity
  8
001
  6
CENTER
 62
   253
370
     9
100
AcDbLine
 10
89.94376
 20
85.326797
 30
0.0
 11
233.386331
 21
85.326797
 31
0.0
  0
LINE
  5
4DA
330
1F
100
AcDbEntity
  8
001
370
    50
100
AcDbLine
 10
95.196599
 20
85.273411
 30
0.0
 11
95.196599
 21
85.298331
 31
0.0
  0
LINE
  5
4DB
330
1F
100
AcDbEntity
  8
001
370
     9
100
AcDbLine
 10
95.196481
 20
85.266994
 30
0.0
 11
95.196481
 21
85.326797
 31
0.0
  0
ENDSEC
  0
SECTION
  2
OBJECTS
  0
DICTIONARY
  5
C
330
0
100
AcDbDictionary
281
     1
  3
ACAD_GROUP
350
D
  3
ACAD_LAYOUT
350
1A
  3
ACAD_MLEADERSTYLE
350
4DF
  3
ACAD_MLINESTYLE
350
17
  3
ACAD_PLOTSETTINGS
350
19
  3
ACAD_PLOTSTYLENAME
350
E
  3
ACAD_SCALELIST
350
3B
  3
ACAD_TABLESTYLE
350
4DE
  3
ACAD_VISUALSTYLE
350
2A
  3
AcDbVariableDictionary
350
4DC
  0
DICTIONARY
  5
D
102
{ACAD_REACTORS
330
C
102
}
330
C
100
AcDbDictionary
281
     1
  0
DICTIONARY
  5
1A
102
{ACAD_REACTORS
330
C
102
}
330
C
100
AcDbDictionary
281
     1
  3
Layout1
350
1E
  3
Layout2
350
26
  3
Model
350
22
  0
DICTIONARY
  5
4DF
102
{ACAD_REACTORS
330
C
102
}
330
C
100
AcDbDictionary
281
     1
  0
DICTIONARY
  5
17
102
{ACAD_REACTORS
330
C
102
}
330
C
100
AcDbDictionary
281
     1
  3
Standard
350
18
  0
DICTIONARY
  5
19
102
{ACAD_REACTORS
330
C
102
}
330
C
100
AcDbDictionary
281
     1
  0
ACDBDICTIONARYWDFLT
  5
E
102
{ACAD_REACTORS
330
C
102
}
330
C
100
AcDbDictionary
281
     1
  3
Normal
350
F
100
AcDbDictionaryWithDefault
340
F
  0
DICTIONARY
  5
3B
102
{ACAD_REACTORS
330
C
102
}
330
C
100
AcDbDictionary
281
     1
  3
A0
350
3C
  3
A1
350
3D
  3
A2
350
3E
  3
A3
350
3F
  3
A4
350
40
  3
A5
350
41
  3
A6
350
42
  3
A7
350
43
  3
A8
350
44
  3
A9
350
45
  3
B0
350
46
  3
B1
350
47
  3
B2
350
48
  3
B3
350
49
  3
B4
350
4A
  3
B5
350
4B
  3
B6
350
4C
  3
B7
350
4D
  3
B8
350
4E
  3
B9
350
4F
  3
C0
350
50
  3
C1
350
51
  3
C2
350
52
  3
C3
350
53
  3
C4
350
54
  3
C5
350
55
  3
C6
350
56
  3
C7
350
57
  3
C8
350
58
  3
C9
350
59
  3
D0
350
5A
  3
D1
350
5B
  3
D2
350
5C
  0
DICTIONARY
  5
4DE
102
{ACAD_REACTORS
330
C
102
}
330
C
100
AcDbDictionary
281
     1
  0
DICTIONARY
  5
2A
102
{ACAD_REACTORS
330
C
102
}
330
C
100
AcDbDictionary
281
     1
  3
2dWireframe
350
2F
  3
3D Hidden
350
31
  3
3dWireframe
350
30
  3
Basic
350
32
  3
Brighten
350
36
  3
ColorChange
350
3A
  3
Conceptual
350
34
  3
Dim
350
35
  3
Facepattern
350
39
  3
Flat
350
2B
  3
FlatWithEdges
350
2C
  3
Gouraud
350
2D
  3
GouraudWithEdges
350
2E
  3
Linepattern
350
38
  3
Realistic
350
33
  3
Thicken
350
37
  0
DICTIONARY
  5
4DC
102
{ACAD_REACTORS
330
C
102
}
330
C
100
AcDbDictionary
281
     1
  3
CANNOSCALE
350
4DD
  3
PSOLHEIGHT
350
4E1
  3
PSOLWIDTH
350
4E0
  0
LAYOUT
  5
1E
102
{ACAD_REACTORS
330
1A
102
}
330
1A
100
AcDbPlotSettings
  1

  2
none_device
  4

  6

 40
0.0
 41
0.0
 42
0.0
 43
0.0
 44
0.0
 45
0.0
 46
0.0
 47
0.0
 48
0.0
 49
0.0
140
0.0
141
0.0
142
1.0
143
1.0
 70
   688
 72
     0
 73
     0
 74
     5
  7

 75
    16
147
1.0
148
0.0
149
0.0
100
AcDbLayout
  1
Layout1
 70
     1
 71
     1
 10
0.0
 20
0.0
 11
12.0
 21
9.0
 12
0.0
 22
0.0
 32
0.0
 14
1.000000E+20
 24
1.000000E+20
 34
0.0
 15
-1.000000E+20
 25
-1.000000E+20
 35
0.0
146
0.0
 13
0.0
 23
0.0
 33
0.0
 16
1.0
 26
0.0
 36
0.0
 17
0.0
 27
1.0
 37
0.0
 76
     0
330
1B
  0
LAYOUT
  5
26
102
{ACAD_REACTORS
330
1A
102
}
330
1A
100
AcDbPlotSettings
  1

  2
none_device
  4

  6

 40
0.0
 41
0.0
 42
0.0
 43
0.0
 44
0.0
 45
0.0
 46
0.0
 47
0.0
 48
0.0
 49
0.0
140
0.0
141
0.0
142
1.0
143
1.0
 70
   688
 72
     0
 73
     0
 74
     5
  7

 75
    16
147
1.0
148
0.0
149
0.0
100
AcDbLayout
  1
Layout2
 70
     1
 71
     2
 10
0.0
 20
0.0
 11
0.0
 21
0.0
 12
0.0
 22
0.0
 32
0.0
 14
0.0
 24
0.0
 34
0.0
 15
0.0
 25
0.0
 35
0.0
146
0.0
 13
0.0
 23
0.0
 33
0.0
 16
1.0
 26
0.0
 36
0.0
 17
0.0
 27
1.0
 37
0.0
 76
     0
330
23
  0
LAYOUT
  5
22
102
{ACAD_REACTORS
330
1A
102
}
330
1A
100
AcDbPlotSettings
  1

  2
none_device
  4

  6

 40
0.0
 41
0.0
 42
0.0
 43
0.0
 44
0.0
 45
0.0
 46
0.0
 47
0.0
 48
0.0
 49
0.0
140
0.0
141
0.0
142
1.0
143
1.0
 70
  1712
 72
     0
 73
     0
 74
     0
  7

 75
     0
147
1.0
148
0.0
149
0.0
100
AcDbLayout
  1
Model
 70
     1
 71
     0
 10
0.0
 20
0.0
 11
12.0
 21
9.0
 12
0.0
 22
0.0
 32
0.0
 14
66.380722
 24
40.398727
 34
0.0
 15
248.019821
 25
126.128128
 35
0.0
146
0.0
 13
0.0
 23
0.0
 33
0.0
 16
1.0
 26
0.0
 36
0.0
 17
0.0
 27
1.0
 37
0.0
 76
     0
330
1F
331
29
  0
MLINESTYLE
  5
18
102
{ACAD_REACTORS
330
17
102
}
330
17
100
AcDbMlineStyle
  2
Standard
 70
     0
  3

 62
   256
 51
90.0
 52
90.0
 71
     2
 49
0.5
 62
   256
  6
BYLAYER
 49
-0.5
 62
   256
  6
BYLAYER
  0
ACDBPLACEHOLDER
  5
F
102
{ACAD_REACTORS
330
E
102
}
330
E
  0
SCALE
  5
3C
102
{ACAD_REACTORS
330
3B
102
}
330
3B
100
AcDbScale
 70
     0
300
1:1
140
1.0
141
1.0
290
     1
  0
SCALE
  5
3D
102
{ACAD_REACTORS
330
3B
102
}
330
3B
100
AcDbScale
 70
     0
300
1:2
140
1.0
141
2.0
290
     0
  0
SCALE
  5
3E
102
{ACAD_REACTORS
330
3B
102
}
330
3B
100
AcDbScale
 70
     0
300
1:4
140
1.0
141
4.0
290
     0
  0
SCALE
  5
3F
102
{ACAD_REACTORS
330
3B
102
}
330
3B
100
AcDbScale
 70
     0
300
1:5
140
1.0
141
5.0
290
     0
  0
SCALE
  5
40
102
{ACAD_REACTORS
330
3B
102
}
330
3B
100
AcDbScale
 70
     0
300
1:8
140
1.0
141
8.0
290
     0
  0
SCALE
  5
41
102
{ACAD_REACTORS
330
3B
102
}
330
3B
100
AcDbScale
 70
     0
300
1:10
140
1.0
141
10.0
290
     0
  0
SCALE
  5
42
102
{ACAD_REACTORS
330
3B
102
}
330
3B
100
AcDbScale
 70
     0
300
1:16
140
1.0
141
16.0
290
     0
  0
SCALE
  5
43
102
{ACAD_REACTORS
330
3B
102
}
330
3B
100
AcDbScale
 70
     0
300
1:20
140
1.0
141
20.0
290
     0
  0
SCALE
  5
44
102
{ACAD_REACTORS
330
3B
102
}
330
3B
100
AcDbScale
 70
     0
300
1:30
140
1.0
141
30.0
290
     0
  0
SCALE
  5
45
102
{ACAD_REACTORS
330
3B
102
}
330
3B
100
AcDbScale
 70
     0
300
1:40
140
1.0
141
40.0
290
     0
  0
SCALE
  5
46
102
{ACAD_REACTORS
330
3B
102
}
330
3B
100
AcDbScale
 70
     0
300
1:50
140
1.0
141
50.0
290
     0
  0
SCALE
  5
47
102
{ACAD_REACTORS
330
3B
102
}
330
3B
100
AcDbScale
 70
     0
300
1:100
140
1.0
141
100.0
290
     0
  0
SCALE
  5
48
102
{ACAD_REACTORS
330
3B
102
}
330
3B
100
AcDbScale
 70
     0
300
2:1
140
2.0
141
1.0
290
     0
  0
SCALE
  5
49
102
{ACAD_REACTORS
330
3B
102
}
330
3B
100
AcDbScale
 70
     0
300
4:1
140
4.0
141
1.0
290
     0
  0
SCALE
  5
4A
102
{ACAD_REACTORS
330
3B
102
}
330
3B
100
AcDbScale
 70
     0
300
8:1
140
8.0
141
1.0
290
     0
  0
SCALE
  5
4B
102
{ACAD_REACTORS
330
3B
102
}
330
3B
100
AcDbScale
 70
     0
300
10:1
140
10.0
141
1.0
290
     0
  0
SCALE
  5
4C
102
{ACAD_REACTORS
330
3B
102
}
330
3B
100
AcDbScale
 70
     0
300
100:1
140
100.0
141
1.0
290
     0
  0
SCALE
  5
4D
102
{ACAD_REACTORS
330
3B
102
}
330
3B
100
AcDbScale
 70
     0
300
1/128" = 1'-0"
140
0.007812
141
12.0
290
     0
  0
SCALE
  5
4E
102
{ACAD_REACTORS
330
3B
102
}
330
3B
100
AcDbScale
 70
     0
300
1/64" = 1'-0"
140
0.015625
141
12.0
290
     0
  0
SCALE
  5
4F
102
{ACAD_REACTORS
330
3B
102
}
330
3B
100
AcDbScale
 70
     0
300
1/32" = 1'-0"
140
0.03125
141
12.0
290
     0
  0
SCALE
  5
50
102
{ACAD_REACTORS
330
3B
102
}
330
3B
100
AcDbScale
 70
     0
300
1/16" = 1'-0"
140
0.0625
141
12.0
290
     0
  0
SCALE
  5
51
102
{ACAD_REACTORS
330
3B
102
}
330
3B
100
AcDbScale
 70
     0
300
3/32" = 1'-0"
140
0.09375
141
12.0
290
     0
  0
SCALE
  5
52
102
{ACAD_REACTORS
330
3B
102
}
330
3B
100
AcDbScale
 70
     0
300
1/8" = 1'-0"
140
0.125
141
12.0
290
     0
  0
SCALE
  5
53
102
{ACAD_REACTORS
330
3B
102
}
330
3B
100
AcDbScale
 70
     0
300
3/16" = 1'-0"
140
0.1875
141
12.0
290
     0
  0
SCALE
  5
54
102
{ACAD_REACTORS
330
3B
102
}
330
3B
100
AcDbScale
 70
     0
300
1/4" = 1'-0"
140
0.25
141
12.0
290
     0
  0
SCALE
  5
55
102
{ACAD_REACTORS
330
3B
102
}
330
3B
100
AcDbScale
 70
     0
300
3/8" = 1'-0"
140
0.375
141
12.0
290
     0
  0
SCALE
  5
56
102
{ACAD_REACTORS
330
3B
102
}
330
3B
100
AcDbScale
 70
     0
300
1/2" = 1'-0"
140
0.5
141
12.0
290
     0
  0
SCALE
  5
57
102
{ACAD_REACTORS
330
3B
102
}
330
3B
100
AcDbScale
 70
     0
300
3/4" = 1'-0"
140
0.75
141
12.0
290
     0
  0
SCALE
  5
58
102
{ACAD_REACTORS
330
3B
102
}
330
3B
100
AcDbScale
 70
     0
300
1" = 1'-0"
140
1.0
141
12.0
290
     0
  0
SCALE
  5
59
102
{ACAD_REACTORS
330
3B
102
}
330
3B
100
AcDbScale
 70
     0
300
1-1/2" = 1'-0"
140
1.5
141
12.0
290
     0
  0
SCALE
  5
5A
102
{ACAD_REACTORS
330
3B
102
}
330
3B
100
AcDbScale
 70
     0
300
3" = 1'-0"
140
3.0
141
12.0
290
     0
  0
SCALE
  5
5B
102
{ACAD_REACTORS
330
3B
102
}
330
3B
100
AcDbScale
 70
     0
300
6" = 1'-0"
140
6.0
141
12.0
290
     0
  0
SCALE
  5
5C
102
{ACAD_REACTORS
330
3B
102
}
330
3B
100
AcDbScale
 70
     0
300
1'-0" = 1'-0"
140
12.0
141
12.0
290
     0
  0
VISUALSTYLE
  5
2F
102
{ACAD_REACTORS
330
2A
102
}
330
2A
100
AcDbVisualStyle
  2
2dWireframe
 70
     4
 71
     0
 72
     2
 73
     0
 90
        0
 40
-0.6
 41
-30.0
 62
     5
 63
     7
 74
     1
 91
        4
 64
     7
 65
   257
 75
     1
175
     1
 42
1.0
 92
        0
 66
   257
 43
1.0
 76
     1
 77
     6
 78
     2
 67
     7
 79
     5
170
     0
171
     0
290
     0
174
     0
 93
        1
 44
0.0
173
     0
291
     0
 45
0.0
1001
ACAD
1000
AcDbSavedByObjectVersion
1070
     0
  0
VISUALSTYLE
  5
31
102
{ACAD_REACTORS
330
2A
102
}
330
2A
100
AcDbVisualStyle
  2
3D Hidden
 70
     6
 71
     1
 72
     2
 73
     2
 90
        0
 40
-0.6
 41
-30.0
 62
     5
 63
     7
 74
     2
 91
        2
 64
     7
 65
   257
 75
     2
175
     1
 42
40.0
 92
        0
 66
   257
 43
1.0
 76
     1
 77
     6
 78
     2
 67
     7
 79
     3
170
     0
171
     0
290
     0
174
     0
 93
        1
 44
0.0
173
     0
291
     0
 45
0.0
1001
ACAD
1000
AcDbSavedByObjectVersion
1070
     0
  0
VISUALSTYLE
  5
30
102
{ACAD_REACTORS
330
2A
102
}
330
2A
100
AcDbVisualStyle
  2
3dWireframe
 70
     5
 71
     0
 72
     2
 73
     0
 90
        0
 40
-0.6
 41
-30.0
 62
     5
 63
     7
 74
     1
 91
        4
 64
     7
 65
   257
 75
     1
175
     1
 42
1.0
 92
        0
 66
   257
 43
1.0
 76
     1
 77
     6
 78
     2
 67
     7
 79
     5
170
     0
171
     0
290
     0
174
     0
 93
        1
 44
0.0
173
     0
291
     0
 45
0.0
1001
ACAD
1000
AcDbSavedByObjectVersion
1070
     0
  0
VISUALSTYLE
  5
32
102
{ACAD_REACTORS
330
2A
102
}
330
2A
100
AcDbVisualStyle
  2
Basic
 70
     7
 71
     1
 72
     0
 73
     1
 90
        0
 40
-0.6
 41
-30.0
 62
     5
 63
     7
 74
     0
 91
        4
 64
     7
 65
   257
 75
     1
175
     1
 42
1.0
 92
        8
 66
     7
 43
1.0
 76
     1
 77
     6
 78
     2
 67
     7
 79
     5
170
     0
171
     0
290
     0
174
     0
 93
        1
 44
0.0
173
     0
291
     1
 45
0.0
1001
ACAD
1000
AcDbSavedByObjectVersion
1070
     0
  0
VISUALSTYLE
  5
36
102
{ACAD_REACTORS
330
2A
102
}
330
2A
100
AcDbVisualStyle
  2
Brighten
 70
    12
 71
     2
 72
     2
 73
     0
 90
        0
 40
-0.6
 41
-30.0
 62
     5
 63
     7
 74
     1
 91
        4
 64
     7
 65
   257
 75
     1
175
     1
 42
1.0
 92
        8
 66
     7
 43
1.0
 76
     1
 77
     6
 78
     2
 67
     7
 79
     5
170
     0
171
     0
290
     0
174
     0
 93
        1
 44
50.0
173
     0
291
     1
 45
0.0
1001
ACAD
1000
AcDbSavedByObjectVersion
1070
     0
  0
VISUALSTYLE
  5
3A
102
{ACAD_REACTORS
330
2A
102
}
330
2A
100
AcDbVisualStyle
  2
ColorChange
 70
    16
 71
     2
 72
     2
 73
     3
 90
        0
 40
-0.6
 41
-30.0
 62
     5
 63
     8
 74
     1
 91
        4
 64
     7
 65
   257
 75
     1
175
     1
 42
1.0
 92
        8
 66
     8
 43
1.0
 76
     1
 77
     6
 78
     2
 67
     7
 79
     5
170
     0
171
     0
290
     0
174
     0
 93
        1
 44
0.0
173
     0
291
     1
 45
0.0
1001
ACAD
1000
AcDbSavedByObjectVersion
1070
     0
  0
VISUALSTYLE
  5
34
102
{ACAD_REACTORS
330
2A
102
}
330
2A
100
AcDbVisualStyle
  2
Conceptual
 70
     9
 71
     3
 72
     2
 73
     0
 90
        0
 40
-0.6
 41
-30.0
 62
     5
 63
     7
 74
     2
 91
        2
 64
     7
 65
   257
 75
     1
175
     1
 42
40.0
 92
        8
 66
     7
 43
1.0
 76
     1
 77
     6
 78
     2
 67
     7
 79
     3
170
     0
171
     0
290
     0
174
     0
 93
        1
 44
0.0
173
     0
291
     0
 45
0.0
1001
ACAD
1000
AcDbSavedByObjectVersion
1070
     0
  0
VISUALSTYLE
  5
35
102
{ACAD_REACTORS
330
2A
102
}
330
2A
100
AcDbVisualStyle
  2
Dim
 70
    11
 71
     2
 72
     2
 73
     0
 90
        0
 40
-0.6
 41
-30.0
 62
     5
 63
     7
 74
     1
 91
        4
 64
     7
 65
   257
 75
     1
175
     1
 42
1.0
 92
        8
 66
     7
 43
1.0
 76
     1
 77
     6
 78
     2
 67
     7
 79
     5
170
     0
171
     0
290
     0
174
     0
 93
        1
 44
-50.0
173
     0
291
     1
 45
0.0
1001
ACAD
1000
AcDbSavedByObjectVersion
1070
     0
  0
VISUALSTYLE
  5
39
102
{ACAD_REACTORS
330
2A
102
}
330
2A
100
AcDbVisualStyle
  2
Facepattern
 70
    15
 71
     2
 72
     2
 73
     0
 90
        0
 40
-0.6
 41
-30.0
 62
     5
 63
     7
 74
     1
 91
        4
 64
     7
 65
   257
 75
     1
175
     1
 42
1.0
 92
        8
 66
     7
 43
1.0
 76
     1
 77
     6
 78
     2
 67
     7
 79
     5
170
     0
171
     0
290
     0
174
     0
 93
        1
 44
0.0
173
     0
291
     1
 45
0.0
1001
ACAD
1000
AcDbSavedByObjectVersion
1070
     0
  0
VISUALSTYLE
  5
2B
102
{ACAD_REACTORS
330
2A
102
}
330
2A
100
AcDbVisualStyle
  2
Flat
 70
     0
 71
     2
 72
     1
 73
     1
 90
        2
 40
-0.6
 41
30.0
 62
     5
 63
     7
 74
     0
 91
        4
 64
     7
 65
   257
 75
     1
175
     1
 42
1.0
 92
        8
 66
     7
 43
1.0
 76
     1
 77
     6
 78
     2
 67
     7
 79
     5
170
     0
171
     0
290
     0
174
     0
 93
       13
 44
0.0
173
     0
291
     1
 45
0.0
1001
ACAD
1000
AcDbSavedByObjectVersion
1070
     0
  0
VISUALSTYLE
  5
2C
102
{ACAD_REACTORS
330
2A
102
}
330
2A
100
AcDbVisualStyle
  2
FlatWithEdges
 70
     1
 71
     2
 72
     1
 73
     1
 90
        2
 40
-0.6
 41
30.0
 62
     5
 63
     7
 74
     1
 91
        4
 64
     7
 65
   257
 75
     1
175
     1
 42
1.0
 92
        0
 66
   257
 43
1.0
 76
     1
 77
     6
 78
     2
 67
     7
 79
     5
170
     0
171
     0
290
     0
174
     0
 93
       13
 44
0.0
173
     0
291
     1
 45
0.0
1001
ACAD
1000
AcDbSavedByObjectVersion
1070
     0
  0
VISUALSTYLE
  5
2D
102
{ACAD_REACTORS
330
2A
102
}
330
2A
100
AcDbVisualStyle
  2
Gouraud
 70
     2
 71
     2
 72
     2
 73
     1
 90
        2
 40
-0.6
 41
30.0
 62
     5
 63
     7
 74
     0
 91
        4
 64
     7
 65
   257
 75
     1
175
     1
 42
1.0
 92
        0
 66
     7
 43
1.0
 76
     1
 77
     6
 78
     2
 67
     7
 79
     5
170
     0
171
     0
290
     0
174
     0
 93
       13
 44
0.0
173
     0
291
     1
 45
0.0
1001
ACAD
1000
AcDbSavedByObjectVersion
1070
     0
  0
VISUALSTYLE
  5
2E
102
{ACAD_REACTORS
330
2A
102
}
330
2A
100
AcDbVisualStyle
  2
GouraudWithEdges
 70
     3
 71
     2
 72
     2
 73
     1
 90
        2
 40
-0.6
 41
30.0
 62
     5
 63
     7
 74
     1
 91
        4
 64
     7
 65
   257
 75
     1
175
     1
 42
1.0
 92
        0
 66
   257
 43
1.0
 76
     1
 77
     6
 78
     2
 67
     7
 79
     5
170
     0
171
     0
290
     0
174
     0
 93
       13
 44
0.0
173
     0
291
     1
 45
0.0
1001
ACAD
1000
AcDbSavedByObjectVersion
1070
     0
  0
VISUALSTYLE
  5
38
102
{ACAD_REACTORS
330
2A
102
}
330
2A
100
AcDbVisualStyle
  2
Linepattern
 70
    14
 71
     2
 72
     2
 73
     0
 90
        0
 40
-0.6
 41
-30.0
 62
     5
 63
     7
 74
     1
 91
        4
 64
     7
 65
   257
 75
     7
175
     7
 42
1.0
 92
        8
 66
     7
 43
1.0
 76
     1
 77
     6
 78
     2
 67
     7
 79
     5
170
     0
171
     0
290
     0
174
     0
 93
        1
 44
0.0
173
     0
291
     1
 45
0.0
1001
ACAD
1000
AcDbSavedByObjectVersion
1070
     0
  0
VISUALSTYLE
  5
33
102
{ACAD_REACTORS
330
2A
102
}
330
2A
100
AcDbVisualStyle
  2
Realistic
 70
     8
 71
     2
 72
     2
 73
     0
 90
        0
 40
-0.6
 41
-30.0
 62
     5
 63
     7
 74
     1
 91
        0
 64
     7
 65
   257
 75
     1
175
     1
 42
1.0
 92
        8
 66
     8
 43
1.0
 76
     1
 77
     6
 78
     2
 67
     7
 79
     5
170
     0
171
     0
290
     0
174
     0
 93
       13
 44
0.0
173
     0
291
     0
 45
0.0
1001
ACAD
1000
AcDbSavedByObjectVersion
1070
     0
  0
VISUALSTYLE
  5
37
102
{ACAD_REACTORS
330
2A
102
}
330
2A
100
AcDbVisualStyle
  2
Thicken
 70
    13
 71
     2
 72
     2
 73
     0
 90
        0
 40
-0.6
 41
-30.0
 62
     5
 63
     7
 74
     1
 91
        4
 64
     7
 65
   257
 75
     1
175
     1
 42
1.0
 92
       12
 66
     7
 43
1.0
 76
     1
 77
     6
 78
     2
 67
     7
 79
     5
170
     0
171
     0
290
     0
174
     0
 93
        1
 44
0.0
173
     0
291
     1
 45
0.0
1001
ACAD
1000
AcDbSavedByObjectVersion
1070
     0
  0
DICTIONARYVAR
  5
4DD
102
{ACAD_REACTORS
330
4DC
102
}
330
4DC
100
DictionaryVariables
280
     0
  1
1:1
  0
DICTIONARYVAR
  5
4E1
102
{ACAD_REACTORS
330
4DC
102
}
330
4DC
100
DictionaryVariables
280
     0
  1
80.000000
  0
DICTIONARYVAR
  5
4E0
102
{ACAD_REACTORS
330
4DC
102
}
330
4DC
100
DictionaryVariables
280
     0
  1
5.000000
  0
ENDSEC
  0
EOF
