  0
SECTION
  2
HEADER
  9
$ACADVER
  1
AC1009
  9
$INSBASE
 10
0.0
 20
0.0
 30
0.0
  9
$EXTMIN
 10
-29.418600000000001
 20
23.458300000000001
 30
0.0
  9
$EXTMAX
 10
90.251543677871993
 20
74.645041747736613
 30
0.0
  9
$LIMMIN
 10
0.0
 20
0.0
  9
$LIMMAX
 10
12.0
 20
9.0
  9
$ORTHOMODE
 70
     0
  9
$REGENMODE
 70
     1
  9
$FILLMODE
 70
     1
  9
$QTEXTMODE
 70
     0
  9
$MIRRTEXT
 70
     1
  9
$DRAGMODE
 70
     2
  9
$LTSCALE
 40
2.4587810000000001
  9
$OSMODE
 70
  2999
  9
$ATTMODE
 70
     1
  9
$TEXTSIZE
 40
0.2
  9
$TRACEWID
 40
1.0
  9
$TEXTSTYLE
  7
STANDARD
  9
$CLAYER
  8
0
  9
$CELTYPE
  6
BYLAYER
  9
$CECOLOR
 62
   256
  9
$DIMSCALE
 40
1.0
  9
$DIMASZ
 40
2.5
  9
$DIMEXO
 40
0.625
  9
$DIMDLI
 40
3.75
  9
$DIMRND
 40
0.0
  9
$DIMDLE
 40
0.0
  9
$DIMEXE
 40
1.25
  9
$DIMTP
 40
0.0
  9
$DIMTM
 40
0.0
  9
$DIMTXT
 40
2.5
  9
$DIMCEN
 40
0.09
  9
$DIMTSZ
 40
0.0
  9
$DIMTOL
 70
     0
  9
$DIMLIM
 70
     0
  9
$DIMTIH
 70
     0
  9
$DIMTOH
 70
     0
  9
$DIMSE1
 70
     0
  9
$DIMSE2
 70
     0
  9
$DIMTAD
 70
     1
  9
$DIMZIN
 70
     8
  9
$DIMBLK
  1

  9
$DIMASO
 70
     1
  9
$DIMSHO
 70
     0
  9
$DIMPOST
  1

  9
$DIMAPOST
  1

  9
$DIMALT
 70
     0
  9
$DIMALTD
 70
     3
  9
$DIMALTF
 40
0.03937
  9
$DIMLFAC
 40
1.0
  9
$DIMTOFL
 70
     1
  9
$DIMTVP
 40
0.0
  9
$DIMTIX
 70
     0
  9
$DIMSOXD
 70
     0
  9
$DIMSAH
 70
     0
  9
$DIMBLK1
  1

  9
$DIMBLK2
  1

  9
$DIMSTYLE
  2
ISO-25
  9
$DIMCLRD
 70
     0
  9
$DIMCLRE
 70
     0
  9
$DIMCLRT
 70
     0
  9
$DIMTFAC
 40
1.0
  9
$DIMGAP
 40
0.625
  9
$LUNITS
 70
     2
  9
$LUPREC
 70
     4
  9
$SKETCHINC
 40
1.0
  9
$FILLETRAD
 40
0.0
  9
$AUNITS
 70
     0
  9
$AUPREC
 70
     0
  9
$MENU
  1
.
  9
$ELEVATION
 40
0.0
  9
$PELEVATION
 40
0.0
  9
$THICKNESS
 40
0.0
  9
$LIMCHECK
 70
     0
  9
$BLIPMODE
 70
     0
  9
$CHAMFERA
 40
10.0
  9
$CHAMFERB
 40
10.0
  9
$SKPOLY
 70
     0
  9
$TDCREATE
 40
2454522.4578870018
  9
$TDUPDATE
 40
2455162.4840440508
  9
$TDINDWG
 40
0.0326352778
  9
$TDUSRTIMER
 40
0.0326329167
  9
$USRTIMER
 70
     1
  9
$ANGBASE
 50
0.0
  9
$ANGDIR
 70
     0
  9
$PDMODE
 70
     0
  9
$PDSIZE
 40
0.0
  9
$PLINEWID
 40
0.0
  9
$COORDS
 70
     2
  9
$SPLFRAME
 70
     0
  9
$SPLINETYPE
 70
     6
  9
$SPLINESEGS
 70
     8
  9
$ATTDIA
 70
     0
  9
$ATTREQ
 70
     1
  9
$HANDLING
 70
     1
  9
$HANDSEED
  5
1E5C
  9
$SURFTAB1
 70
     6
  9
$SURFTAB2
 70
     6
  9
$SURFTYPE
 70
     6
  9
$SURFU
 70
     6
  9
$SURFV
 70
     6
  9
$UCSNAME
  2

  9
$UCSORG
 10
0.0
 20
0.0
 30
0.0
  9
$UCSXDIR
 10
1.0
 20
0.0
 30
0.0
  9
$UCSYDIR
 10
0.0
 20
1.0
 30
0.0
  9
$PUCSNAME
  2

  9
$PUCSORG
 10
0.0
 20
0.0
 30
0.0
  9
$PUCSXDIR
 10
1.0
 20
0.0
 30
0.0
  9
$PUCSYDIR
 10
0.0
 20
1.0
 30
0.0
  9
$USERI1
 70
     0
  9
$USERI2
 70
     0
  9
$USERI3
 70
     0
  9
$USERI4
 70
     0
  9
$USERI5
 70
     0
  9
$USERR1
 40
0.0
  9
$USERR2
 40
0.0
  9
$USERR3
 40
0.0
  9
$USERR4
 40
0.0
  9
$USERR5
 40
0.0
  9
$WORLDVIEW
 70
     1
  9
$SHADEDGE
 70
     3
  9
$SHADEDIF
 70
    70
  9
$TILEMODE
 70
     1
  9
$MAXACTVP
 70
    64
  9
$PLIMCHECK
 70
     0
  9
$PEXTMIN
 10
1.0000000000000000E+020
 20
1.0000000000000000E+020
 30
0.0
  9
$PEXTMAX
 10
-1.0000000000000000E+020
 20
-1.0000000000000000E+020
 30
0.0
  9
$PLIMMIN
 10
0.0
 20
0.0
  9
$PLIMMAX
 10
12.0
 20
9.0
  9
$UNITMODE
 70
     0
  9
$VISRETAIN
 70
     1
  9
$PLINEGEN
 70
     0
  9
$PSLTSCALE
 70
     1
  0
ENDSEC
  0
SECTION
  2
TABLES
  0
TABLE
  2
VPORT
 70
     2
  0
VPORT
  2
*ACTIVE
 70
     0
 10
0.0
 20
0.0
 11
1.0
 21
1.0
 12
35.069984944948231
 22
50.461443713845071
 13
0.0
 23
0.0
 14
1.0
 24
1.0
 15
0.0
 25
0.0
 16
0.0
 26
0.0
 36
1.0
 17
0.0
 27
0.0
 37
0.0
 40
120.56511726992279
 41
1.4861111111111109
 42
50.0
 43
0.0
 44
0.0
 50
0.0
 51
0.0
 71
     0
 72
   100
 73
     1
 74
     3
 75
     0
 76
     0
 77
     0
 78
     0
  0
ENDTAB
  0
TABLE
  2
LTYPE
 70
     5
  0
LTYPE
  2
CONTINUOUS
 70
     0
  3
Solid line
 72
    65
 73
     0
 40
0.0
  0
LTYPE
  2
DASHED
 70
     0
  3
DASHED
 72
    83
 73
     2
 40
0.75
 49
0.5
 49
-0.25
  0
LTYPE
  2
HIDDEN
 70
     0
  3
HIDDEN
 72
    83
 73
     2
 40
0.375
 49
0.25
 49
-0.125
  0
LTYPE
  2
CENTER
 70
     0
  3
CENTER
 72
    83
 73
     4
 40
2.0
 49
1.25
 49
-0.25
 49
0.25
 49
-0.25
  0
LTYPE
  2
PHANTOM
 70
     0
  3
PHANTOM
 72
    83
 73
     6
 40
2.5
 49
1.25
 49
-0.25
 49
0.25
 49
-0.25
 49
0.25
 49
-0.25
  0
ENDTAB
  0
TABLE
  2
LAYER
 70
     3
  0
LAYER
  2
0
 70
     0
 62
     7
  6
CONTINUOUS
  0
LAYER
  2
001
 70
     0
 62
     7
  6
CONTINUOUS
  0
LAYER
  2
DEFPOINTS
 70
     0
 62
     7
  6
CONTINUOUS
  0
ENDTAB
  0
TABLE
  2
STYLE
 70
     2
  0
STYLE
  2
STANDARD
 70
     0
 40
0.0
 41
1.0
 50
0.0
 71
     0
 42
0.2
  3
TXT
  4
BIGFONT
  0
STYLE
  2
TATEGAKI
 70
     4
 40
1.0
 41
1.0
 50
0.0
 71
     0
 42
0.2
  3
TXT
  4
BIGFONT
  0
ENDTAB
  0
TABLE
  2
VIEW
 70
     0
  0
ENDTAB
  0
TABLE
  2
UCS
 70
     0
  0
ENDTAB
  0
TABLE
  2
APPID
 70
     1
  0
APPID
  2
ACAD
 70
     0
  0
ENDTAB
  0
TABLE
  2
DIMSTYLE
 70
     2
  0
DIMSTYLE
  2
ISO-25
 70
     0
  3

  4

  5

  6

  7

 40
1.0
 41
2.5
 42
0.625
 43
3.75
 44
1.25
 45
0.0
 46
0.0
 47
0.0
 48
0.0
140
2.5
141
2.5
142
0.0
143
0.03937
144
1.0
145
0.0
146
1.0
147
0.625
 71
     0
 72
     0
 73
     0
 74
     0
 75
     0
 76
     0
 77
     1
 78
     8
170
     0
171
     3
172
     1
173
     0
174
     0
175
     0
176
     0
177
     0
178
     0
  0
DIMSTYLE
  2
STANDARD
 70
     0
  3

  4

  5

  6

  7

 40
1.0
 41
1.5
 42
0.0
 43
0.38
 44
2.75
 45
0.0
 46
0.0
 47
0.0
 48
0.0
140
4.0
141
0.09
142
0.0
143
25.399999999999999
144
1.0
145
0.0
146
0.8
147
1.0
 71
     0
 72
     0
 73
     0
 74
     0
 75
     0
 76
     0
 77
     1
 78
     8
170
     0
171
     2
172
     1
173
     0
174
     0
175
     0
176
     0
177
     0
178
     0
  0
ENDTAB
  0
ENDSEC
  0
SECTION
  2
BLOCKS
  0
BLOCK
  8
0
  2
$MODEL_SPACE
 70
     0
 10
0.0
 20
0.0
 30
0.0
  3
$MODEL_SPACE
  1

  0
ENDBLK
  5
1AC6
  8
0
  0
BLOCK
 67
     1
  8
0
  2
$PAPER_SPACE
 70
     0
 10
0.0
 20
0.0
 30
0.0
  3
$PAPER_SPACE
  1

  0
ENDBLK
  5
1AC2
 67
     1
  8
0
  0
BLOCK
  8
0
  2
*D2
 70
     1
 10
0.0
 20
0.0
 30
0.0
  3
*D2
  1

  0
LINE
  5
67
  8
001
 10
53.285881999999987
 20
46.814485999999981
 30
0.0
 11
53.285881999999987
 21
23.390832
 31
0.0
  0
LINE
  5
68
  8
001
 10
125.285882
 20
47.814486000000002
 30
0.0
 11
125.285882
 21
23.390832
 31
0.0
  0
LINE
  5
69
  8
001
 10
53.285881999999987
 20
26.140832
 30
0.0
 11
125.285882
 21
26.140832
 31
0.0
  0
POLYLINE
  5
6A
  8
001
 66
     1
 10
0.0
 20
0.0
 30
0.0
  0
VERTEX
  5
1B72
  8
001
 10
54.785881999999987
 20
25.738907999999999
 30
0.0
  0
VERTEX
  5
1B73
  8
001
 10
53.285881999999987
 20
26.140832
 30
0.0
  0
VERTEX
  5
1B74
  8
001
 10
54.785881999999987
 20
26.542756000000001
 30
0.0
  0
SEQEND
  5
1B75
  8
001
  0
POLYLINE
  5
6F
  8
001
 66
     1
 10
0.0
 20
0.0
 30
0.0
  0
VERTEX
  5
1B76
  8
001
 10
123.785882
 20
26.542756000000001
 30
0.0
  0
VERTEX
  5
1B77
  8
001
 10
125.285882
 20
26.140832
 30
0.0
  0
VERTEX
  5
1B78
  8
001
 10
123.785882
 20
25.738907999999999
 30
0.0
  0
SEQEND
  5
1B79
  8
001
  0
TEXT
  5
74
  8
001
 10
85.285881999999987
 20
27.140832
 30
0.0
 40
4.0
  1
７２
 41
0.833333
  0
POINT
  5
75
  8
001
 10
53.285881999999987
 20
46.814485999999981
 30
0.0
  0
POINT
  5
76
  8
001
 10
125.285882
 20
47.814486000000002
 30
0.0
  0
POINT
  5
77
  8
001
 10
125.285882
 20
26.140832
 30
0.0
  0
ENDBLK
  5
66
  8
0
  0
BLOCK
  8
0
  2
*D3
 70
     1
 10
0.0
 20
0.0
 30
0.0
  3
*D3
  1

  0
LINE
  5
7B
  8
001
 10
20.285882000000001
 20
43.388483000000001
 30
0.0
 11
20.285882000000001
 21
23.390832
 31
0.0
  0
LINE
  5
7C
  8
001
 10
53.285881999999987
 20
46.814485999999981
 30
0.0
 11
53.285881999999987
 21
23.390832
 31
0.0
  0
LINE
  5
7D
  8
001
 10
20.285882000000001
 20
26.140832
 30
0.0
 11
53.285881999999987
 21
26.140832
 31
0.0
  0
POLYLINE
  5
7E
  8
001
 66
     1
 10
0.0
 20
0.0
 30
0.0
  0
VERTEX
  5
1B7A
  8
001
 10
21.785882000000001
 20
25.738907999999999
 30
0.0
  0
VERTEX
  5
1B7B
  8
001
 10
20.285882000000001
 20
26.140832
 30
0.0
  0
VERTEX
  5
1B7C
  8
001
 10
21.785882000000001
 20
26.542756000000001
 30
0.0
  0
SEQEND
  5
1B7D
  8
001
  0
POLYLINE
  5
83
  8
001
 66
     1
 10
0.0
 20
0.0
 30
0.0
  0
VERTEX
  5
1B7E
  8
001
 10
51.785882000000001
 20
26.542756000000001
 30
0.0
  0
VERTEX
  5
1B7F
  8
001
 10
53.285881999999987
 20
26.140832
 30
0.0
  0
VERTEX
  5
1B80
  8
001
 10
51.785882000000001
 20
25.738907999999999
 30
0.0
  0
SEQEND
  5
1B81
  8
001
  0
TEXT
  5
88
  8
001
 10
32.785882000000001
 20
27.140832
 30
0.0
 40
4.0
  1
３３
 41
0.833333
  0
POINT
  5
89
  8
001
 10
20.285882000000001
 20
43.388483000000001
 30
0.0
  0
POINT
  5
8A
  8
001
 10
53.285881999999987
 20
46.814485999999981
 30
0.0
  0
POINT
  5
8B
  8
001
 10
53.285881999999987
 20
26.140832
 30
0.0
  0
ENDBLK
  5
7A
  8
0
  0
BLOCK
  8
0
  2
*D4
 70
     1
 10
0.0
 20
0.0
 30
0.0
  3
*D4
  1

  0
LINE
  5
8F
  8
001
 10
125.285882
 20
47.814486000000002
 30
0.0
 11
125.285882
 21
13.775069999999999
 31
0.0
  0
LINE
  5
90
  8
001
 10
20.285882000000001
 20
43.388483000000001
 30
0.0
 11
20.285882000000001
 21
13.775069999999999
 31
0.0
  0
LINE
  5
91
  8
001
 10
125.285882
 20
16.525069999999999
 30
0.0
 11
20.285882000000001
 21
16.525069999999999
 31
0.0
  0
POLYLINE
  5
92
  8
001
 66
     1
 10
0.0
 20
0.0
 30
0.0
  0
VERTEX
  5
1B82
  8
001
 10
123.785882
 20
16.926994000000001
 30
0.0
  0
VERTEX
  5
1B83
  8
001
 10
125.285882
 20
16.525069999999999
 30
0.0
  0
VERTEX
  5
1B84
  8
001
 10
123.785882
 20
16.123145999999998
 30
0.0
  0
SEQEND
  5
1B85
  8
001
  0
POLYLINE
  5
97
  8
001
 66
     1
 10
0.0
 20
0.0
 30
0.0
  0
VERTEX
  5
1B86
  8
001
 10
21.785882000000001
 20
16.123145999999998
 30
0.0
  0
VERTEX
  5
1B87
  8
001
 10
20.285882000000001
 20
16.525069999999999
 30
0.0
  0
VERTEX
  5
1B88
  8
001
 10
21.785882000000001
 20
16.926994000000001
 30
0.0
  0
SEQEND
  5
1B89
  8
001
  0
TEXT
  5
9C
  8
001
 10
66.785882000000001
 20
17.525069999999999
 30
0.0
 40
4.0
  1
１０５
 41
0.833333
  0
POINT
  5
9D
  8
001
 10
125.285882
 20
47.814486000000002
 30
0.0
  0
POINT
  5
9E
  8
001
 10
20.285882000000001
 20
43.388483000000001
 30
0.0
  0
POINT
  5
9F
  8
001
 10
20.285882000000001
 20
16.525069999999999
 30
0.0
  0
ENDBLK
  5
8E
  8
0
  0
BLOCK
  8
0
  2
*D5
 70
     1
 10
0.0
 20
0.0
 30
0.0
  3
*D5
  1

  0
LINE
  5
A3
  8
001
 10
24.61665
 20
46.373064999999997
 30
0.0
 11
37.780571000000002
 21
33.209144000000002
 31
0.0
  0
LINE
  5
A4
  8
001
 10
20.285882000000001
 20
43.388483000000001
 30
0.0
 11
20.285882000000001
 21
25.962606999999998
 31
0.0
  0
ARC
  5
A5
  8
001
 10
20.285882000000001
 20
50.703833000000003
 30
0.0
 40
21.99122604123783
 50
270.0
 51
315.0
  0
POLYLINE
  5
A6
  8
001
 66
     1
 10
0.0
 20
0.0
 30
0.0
  0
VERTEX
  5
1B8A
  8
001
 10
34.465471000000001
 20
34.423538999999998
 30
0.0
  0
VERTEX
  5
1B8B
  8
001
 10
35.836027000000001
 20
35.153688000000002
 30
0.0
  0
VERTEX
  5
1B8C
  8
001
 10
35.014165000000013
 20
33.836081999999998
 30
0.0
  0
SEQEND
  5
1B8D
  8
001
  0
POLYLINE
  5
AB
  8
001
 66
     1
 10
0.0
 20
0.0
 30
0.0
  0
VERTEX
  5
1B8E
  8
001
 10
21.798715000000001
 20
28.362062999999999
 30
0.0
  0
VERTEX
  5
1B8F
  8
001
 10
20.285882000000001
 20
28.712606999999998
 30
0.0
  0
VERTEX
  5
1B90
  8
001
 10
21.771305000000002
 20
29.165444000000001
 30
0.0
  0
SEQEND
  5
1B91
  8
001
  0
TEXT
  5
B0
  8
001
 10
22.775599
 20
29.014368000000001
 30
0.0
 40
4.0
  1
４５%%d
 50
22.500001000000012
 41
0.9782610000000001
  0
POINT
  5
B1
  8
001
 10
24.61665
 20
46.373064999999997
 30
0.0
  0
POINT
  5
B2
  8
001
 10
20.285882000000001
 20
50.703833000000003
 30
0.0
  0
POINT
  5
B3
  8
001
 10
20.285882000000001
 20
50.703833000000003
 30
0.0
  0
POINT
  5
B4
  8
001
 10
20.285882000000001
 20
43.388483000000001
 30
0.0
  0
ENDBLK
  5
A2
  8
0
  0
BLOCK
  8
0
  2
*D6
 70
     1
 10
0.0
 20
0.0
 30
0.0
  3
*D6
  1

  0
LINE
  5
B8
  8
001
 10
123.285882
 20
55.814485999999981
 30
0.0
 11
145.15743699999999
 21
55.814485999999981
 31
0.0
  0
LINE
  5
B9
  8
001
 10
123.285882
 20
45.814485999999981
 30
0.0
 11
145.15743699999999
 21
45.814485999999981
 31
0.0
  0
LINE
  5
BA
  8
001
 10
142.40743699999999
 20
55.814485999999981
 30
0.0
 11
142.40743699999999
 21
45.814485999999981
 31
0.0
  0
POLYLINE
  5
BB
  8
001
 66
     1
 10
0.0
 20
0.0
 30
0.0
  0
VERTEX
  5
1B92
  8
001
 10
142.809361
 20
57.314486000000002
 30
0.0
  0
VERTEX
  5
1B93
  8
001
 10
142.40743699999999
 20
55.814485999999981
 30
0.0
  0
VERTEX
  5
1B94
  8
001
 10
142.00551299999981
 20
57.314486000000002
 30
0.0
  0
SEQEND
  5
1B95
  8
001
  0
POLYLINE
  5
C0
  8
001
 66
     1
 10
0.0
 20
0.0
 30
0.0
  0
VERTEX
  5
1B96
  8
001
 10
142.00551299999981
 20
44.314485999999981
 30
0.0
  0
VERTEX
  5
1B97
  8
001
 10
142.40743699999999
 20
45.814485999999981
 30
0.0
  0
VERTEX
  5
1B98
  8
001
 10
142.809361
 20
44.314485999999981
 30
0.0
  0
SEQEND
  5
1B99
  8
001
  0
TEXT
  5
C5
  8
001
 10
141.4074369999999
 20
30.314485999999999
 30
0.0
 40
4.0
  1
%%c１０
 50
90.000003000000007
 41
0.8823529999999999
  0
POINT
  5
C6
  8
001
 10
123.285882
 20
55.814485999999981
 30
0.0
  0
POINT
  5
C7
  8
001
 10
123.285882
 20
45.814485999999981
 30
0.0
  0
POINT
  5
C8
  8
001
 10
142.40743699999999
 20
45.814485999999981
 30
0.0
  0
LINE
  5
C9
  8
001
 10
142.40743699999999
 20
55.814485999999981
 30
0.0
 11
142.40743699999999
 21
58.314485999999981
 31
0.0
  0
LINE
  5
CA
  8
001
 10
142.40743699999999
 20
45.814485999999981
 30
0.0
 11
142.40743699999999
 21
27.314485999999999
 31
0.0
  0
ENDBLK
  5
B7
  8
0
  0
BLOCK
  8
0
  2
*D7
 70
     1
 10
0.0
 20
0.0
 30
0.0
  3
*D7
  1

  0
LINE
  5
CE
  8
001
 10
20.485882
 20
50.786675000000002
 30
0.0
 11
20.336988000000002
 21
50.920206
 31
0.0
  0
POLYLINE
  5
CF
  8
001
 66
     1
 10
0.0
 20
0.0
 30
0.0
  0
VERTEX
  5
1B9A
  8
001
 10
19.488624999999999
 20
52.220906999999983
 30
0.0
  0
VERTEX
  5
1B9B
  8
001
 10
20.336988000000002
 20
50.920206
 30
0.0
  0
VERTEX
  5
1B9C
  8
001
 10
18.951933
 20
51.622464000000001
 30
0.0
  0
SEQEND
  5
1B9D
  8
001
  0
TEXT
  5
D4
  8
001
 10
0.531646
 20
70.025137999999998
 30
0.0
 40
4.0
  1
（Ｒ０．２）
 50
318.1137930000001
 41
0.833333
  0
POINT
  5
D5
  8
001
 10
20.336988000000002
 20
50.920206
 30
0.0
  0
POINT
  5
D6
  8
001
 10
20.485882
 20
50.786675000000002
 30
0.0
  0
LINE
  5
D7
  8
001
 10
20.336988000000002
 20
50.920206
 30
0.0
 11
-2.3694250000000001
 21
71.283625000000001
 31
0.0
  0
ENDBLK
  5
CD
  8
0
  0
BLOCK
  8
0
  2
*D8
 70
     1
 10
0.0
 20
0.0
 30
0.0
  3
*D8
  1

  0
LINE
  5
1E1
  8
0
 62
     0
 10
19.733287261758399
 20
51.256427738241612
 30
0.0
 11
5.5013054218603443
 21
65.488409578139667
 31
0.0
  0
ARC
  5
1E2
  8
0
 62
     0
 10
20.175229000000009
 20
50.814485999999981
 30
0.0
 40
19.50206173743145
 50
7.3498746027943751
 51
51.246662450125271
  0
ARC
  5
1E3
  8
0
 62
     0
 10
20.175229000000009
 20
50.814485999999981
 30
0.0
 40
19.50206173743145
 50
83.753337549874686
 51
127.6501253972056
  0
SOLID
  5
1E4
  8
0
 62
     0
 10
39.932861165542548
 20
53.336051955390843
 30
0.0
 11
39.10124137308545
 21
53.282638799351687
 31
0.0
 12
39.677290737431463
 22
50.814485999999981
 32
0.0
 13
39.677290737431463
 23
50.814485999999981
 33
0.0
  0
SOLID
  5
1E5
  8
0
 62
     0
 10
8.5377648915969502
 20
65.942445271255366
 30
0.0
 11
7.9874897018214499
 21
66.568258070710584
 31
0.0
 12
6.3851888983435261
 22
64.604526101656475
 32
0.0
 13
6.3851888983435261
 23
64.604526101656475
 33
0.0
  0
INSERT
  5
1E6
  8
0
  2
*U9
 10
0.0
 20
0.0
 30
0.0
  0
POINT
  5
1E7
  8
DEFPOINTS
 62
     0
 10
33.96526910165651
 20
64.604526101656475
 30
0.0
  0
POINT
  5
1E8
  8
DEFPOINTS
 62
     0
 10
24.61665
 20
46.373064999999997
 30
0.0
  0
POINT
  5
1E9
  8
DEFPOINTS
 62
     0
 10
17.968807000000009
 20
50.814485999999981
 30
0.0
  0
POINT
  5
1EA
  8
DEFPOINTS
 62
     0
 10
130.23748900000001
 20
50.814485999999981
 30
0.0
  0
POINT
  5
1EB
  8
DEFPOINTS
 62
     0
 10
20.344460999999999
 20
50.645254000000001
 30
0.0
  0
ENDBLK
  5
1ED
  8
0
  0
BLOCK
  8
0
  2
*U9
 70
     1
 10
0.0
 20
0.0
 30
0.0
  3
*U9
  1

  0
TEXT
  5
30E
  8
0
 62
     0
 10
22.694572892948589
 20
69.526828855109898
 30
0.0
 40
2.5
  1
135°
 50
337.5
  0
ENDBLK
  5
310
  8
0
  0
BLOCK
  8
0
  2
*D10
 70
     1
 10
0.0
 20
0.0
 30
0.0
  3
*D10
  1

  0
LINE
  5
1FF
  8
0
 62
     0
 10
25.058591738241599
 20
45.931123261758387
 30
0.0
 11
36.870598184909547
 21
34.119116815090408
 31
0.0
  0
LINE
  5
200
  8
0
 62
     0
 10
25.058591738241599
 20
55.697848738241568
 30
0.0
 11
36.870598184909561
 21
67.50985518490954
 31
0.0
  0
ARC
  5
201
  8
0
 62
     0
 10
20.175229000000019
 20
50.814485999999981
 30
0.0
 40
22.360817530124951
 50
321.40916445271642
 51
330.37728717032257
  0
ARC
  5
202
  8
0
 62
     0
 10
20.175229000000019
 20
50.814485999999981
 30
0.0
 40
22.360817530124951
 50
353.16101298336559
 51
38.590835547283568
  0
SOLID
  5
203
  8
0
 62
     0
 10
37.963534039893887
 20
36.589126529250613
 30
0.0
 11
37.342259620567972
 21
37.144520569852119
 31
0.0
 12
35.986714708426369
 22
35.003000291573599
 32
0.0
 13
35.986714708426369
 23
35.003000291573599
 33
0.0
  0
SOLID
  5
204
  8
0
 62
     0
 10
37.342259620567972
 20
64.484451430147857
 30
0.0
 11
37.963534039893887
 21
65.039845470749356
 31
0.0
 12
35.986714708426391
 22
66.625971708426377
 32
0.0
 13
35.986714708426391
 23
66.625971708426377
 33
0.0
  0
INSERT
  5
205
  8
0
  2
*U11
 10
0.0
 20
0.0
 30
0.0
  0
POINT
  5
206
  8
DEFPOINTS
 62
     0
 10
41.774120149285039
 20
56.601891440858623
 30
0.0
  0
POINT
  5
207
  8
DEFPOINTS
 62
     0
 10
24.61665
 20
46.373064999999997
 30
0.0
  0
POINT
  5
208
  8
DEFPOINTS
 62
     0
 10
24.61665
 20
55.255906999999979
 30
0.0
  0
POINT
  5
209
  8
DEFPOINTS
 62
     0
 10
20.344460999999999
 20
50.983717999999982
 30
0.0
  0
POINT
  5
20A
  8
DEFPOINTS
 62
     0
 10
20.344460999999999
 20
50.645254000000001
 30
0.0
  0
ENDBLK
  5
1FE
  8
0
  0
BLOCK
  8
0
  2
*U11
 70
     1
 10
0.0
 20
0.0
 30
0.0
  3
*U11
  1

  0
TEXT
  5
312
  8
0
 62
     0
 10
41.414662703148792
 20
39.82658827015581
 30
0.0
 40
2.5
  1
90°
 50
71.769150076844141
  0
ENDBLK
  5
314
  8
0
  0
BLOCK
  8
0
  2
*D12
 70
     1
 10
0.0
 20
0.0
 30
0.0
  3
*D12
  1

  0
LINE
  5
315
  8
0
 62
     0
 10
25.058591738241599
 20
45.931123261758387
 30
0.0
 11
36.649498960177581
 21
34.34021603982243
 31
0.0
  0
ARC
  5
316
  8
0
 62
     0
 10
20.175229000000009
 20
50.814485999999981
 30
0.0
 40
22.048136007878771
 50
321.500154657096
 51
45.000000000000078
  0
INSERT
  5
317
  8
0
 62
     0
  2
_OPEN30
 10
35.765615483694397
 20
35.224099516305621
 30
0.0
 41
2.5
 42
2.5
 43
2.5
 50
228.250077328548
  0
TEXT
  5
31E
  8
0
 62
     0
 10
34.0364
 20
39.233199999999997
 30
0.0
 40
2.5
  1
90°
  0
POINT
  5
319
  8
DEFPOINTS
 62
     0
 10
41.472092991544059
 20
56.520963507849693
 30
0.0
  0
POINT
  5
31A
  8
DEFPOINTS
 62
     0
 10
24.61665
 20
46.37306499999999
 30
0.0
  0
POINT
  5
31B
  8
DEFPOINTS
 62
     0
 10
24.61665
 20
55.255906999999972
 30
0.0
  0
POINT
  5
31C
  8
DEFPOINTS
 62
     0
 10
20.344460999999988
 20
50.983717999999982
 30
0.0
  0
POINT
  5
31D
  8
DEFPOINTS
 62
     0
 10
20.344460999999999
 20
50.645253999999987
 30
0.0
  0
ENDBLK
  5
219
  8
0
  0
BLOCK
  8
0
  2
_OPEN30
 70
     0
 10
0.0
 20
0.0
 30
0.0
  3
_OPEN30
  1

  0
LINE
  5
23C
  8
0
  6
BYBLOCK
 62
     0
 10
-1.0
 20
0.26794919
 30
0.0
 11
0.0
 21
0.0
 31
0.0
  0
LINE
  5
23D
  8
0
  6
BYBLOCK
 62
     0
 10
0.0
 20
0.0
 30
0.0
 11
-1.0
 21
-0.26794919
 31
0.0
  0
LINE
  5
23E
  8
0
  6
BYBLOCK
 62
     0
 10
0.0
 20
0.0
 30
0.0
 11
-1.0
 21
0.0
 31
0.0
  0
ENDBLK
  5
240
  8
0
  0
BLOCK
  8
0
  2
_NONE
 70
     0
 10
0.0
 20
0.0
 30
0.0
  3
_NONE
  1

  0
ENDBLK
  5
231
  8
0
  0
BLOCK
  8
0
  2
*D15
 70
     1
 10
0.0
 20
0.0
 30
0.0
  3
*D15
  1

  0
LINE
  5
A04
  8
0
 62
     0
 10
92.040592387624841
 20
154.820915250399
 30
0.0
 11
103.63149960956081
 21
143.230008028463
 31
0.0
  0
ARC
  5
A05
  8
0
 62
     0
 10
87.157229649383254
 20
159.7042779886406
 30
0.0
 40
22.048136007878771
 50
321.50015465709589
 51
45.000000000000078
  0
INSERT
  5
A06
  8
0
 62
     0
  2
_OPEN30
 10
102.7476161330776
 20
144.1138915049462
 30
0.0
 41
2.5
 42
2.5
 43
2.5
 50
228.2500773285478
  0
INSERT
  5
A07
  8
0
  2
*U16
 10
0.0
 20
0.0
 30
0.0
  0
POINT
  5
A08
  8
DEFPOINTS
 62
     0
 10
108.4540936409273
 20
165.4107554964902
 30
0.0
  0
POINT
  5
A09
  8
DEFPOINTS
 62
     0
 10
91.598650649383274
 20
155.26285698864041
 30
0.0
  0
POINT
  5
A0A
  8
DEFPOINTS
 62
     0
 10
91.598650649383245
 20
164.1456989886405
 30
0.0
  0
POINT
  5
A0B
  8
DEFPOINTS
 62
     0
 10
87.326461649383262
 20
159.87350998864051
 30
0.0
  0
POINT
  5
A0C
  8
DEFPOINTS
 62
     0
 10
87.326461649383262
 20
159.5350459886406
 30
0.0
  0
ENDBLK
  5
A0E
  8
0
  0
BLOCK
  8
0
  2
*U16
 70
     1
 10
0.0
 20
0.0
 30
0.0
  3
*U16
  1

  0
TEXT
  5
DC7
  8
0
 62
     0
 10
105.84199537724879
 20
148.55945756756751
 30
0.0
 40
2.5
  1
90°
 50
69.222178124737241
  0
ENDBLK
  5
DC9
  8
0
  0
BLOCK
  8
0
  2
*D17
 70
     1
 10
0.0
 20
0.0
 30
0.0
  3
*D17
  1

  0
LINE
  5
A10
  8
001
 62
     0
 10
85.457812513995734
 20
161.47913650687801
 30
0.0
 11
83.596636378608196
 21
163.1482750251154
 31
0.0
  0
INSERT
  5
A11
  8
0
  2
*U18
 10
0.0
 20
0.0
 30
0.0
  0
LINE
  5
A12
  8
001
 62
     0
 10
87.467882649383284
 20
159.67646698864061
 30
0.0
 11
87.318988649383286
 21
159.80999798864059
 31
0.0
  0
SOLID
  5
A13
  8
001
 62
     0
 10
85.736002267035289
 20
161.78933252944259
 30
0.0
 11
85.179622760956192
 21
161.1689404843134
 31
0.0
 12
87.318988649383286
 22
159.80999798864059
 32
0.0
 13
87.318988649383286
 23
159.80999798864059
 33
0.0
  0
POINT
  5
A14
  8
DEFPOINTS
 62
     0
 10
87.318988649383286
 20
159.80999798864059
 30
0.0
  0
POINT
  5
A15
  8
DEFPOINTS
 62
     0
 10
87.467882649383284
 20
159.67646698864061
 30
0.0
  0
ENDBLK
  5
A17
  8
0
  0
BLOCK
  8
0
  2
*U18
 70
     1
 10
0.0
 20
0.0
 30
0.0
  3
*U18
  1

  0
TEXT
  5
DCB
  8
001
 62
     0
 10
74.311385198465544
 20
173.82605982178319
 30
0.0
 40
2.5
  1
R0.2
 50
318.11363509605388
  0
ENDBLK
  5
DCD
  8
0
  0
BLOCK
  8
0
  2
*D19
 70
     1
 10
0.0
 20
0.0
 30
0.0
  3
*D19
  1

  0
LINE
  5
A19
  8
001
 62
     0
 10
190.8928826493833
 20
164.7042779886406
 30
0.0
 11
210.6394376493833
 21
164.70427798864051
 31
0.0
  0
LINE
  5
A1A
  8
001
 62
     0
 10
190.8928826493833
 20
154.70427798864051
 30
0.0
 11
210.6394376493833
 21
154.70427798864051
 31
0.0
  0
LINE
  5
A1B
  8
001
 62
     0
 10
209.3894376493833
 20
162.20427798864051
 30
0.0
 11
209.3894376493833
 21
157.20427798864051
 31
0.0
  0
INSERT
  5
A1C
  8
0
  2
*U20
 10
0.0
 20
0.0
 30
0.0
  0
SOLID
  5
A1D
  8
001
 62
     0
 10
208.97277098271661
 20
162.20427798864051
 30
0.0
 11
209.8061043160499
 21
162.20427798864051
 31
0.0
 12
209.3894376493833
 22
164.70427798864051
 32
0.0
 13
209.3894376493833
 23
164.70427798864051
 33
0.0
  0
SOLID
  5
A1E
  8
001
 62
     0
 10
208.97277098271661
 20
157.20427798864051
 30
0.0
 11
209.8061043160499
 21
157.20427798864051
 31
0.0
 12
209.3894376493833
 22
154.70427798864051
 32
0.0
 13
209.3894376493833
 23
154.70427798864051
 33
0.0
  0
POINT
  5
A1F
  8
DEFPOINTS
 62
     0
 10
190.2678826493833
 20
164.7042779886406
 30
0.0
  0
POINT
  5
A20
  8
DEFPOINTS
 62
     0
 10
190.2678826493833
 20
154.70427798864051
 30
0.0
  0
POINT
  5
A21
  8
DEFPOINTS
 62
     0
 10
209.3894376493833
 20
154.70427798864051
 30
0.0
  0
ENDBLK
  5
A23
  8
0
  0
BLOCK
  8
0
  2
*U20
 70
     1
 10
0.0
 20
0.0
 30
0.0
  3
*U20
  1

  0
TEXT
  5
DCF
  8
001
 62
     0
 10
207.6394376493833
 20
143.74594465530711
 30
0.0
 40
2.5
  1
10
 50
90.0
  0
ENDBLK
  5
DD1
  8
0
  0
BLOCK
  8
0
  2
*D21
 70
     1
 10
0.0
 20
0.0
 30
0.0
  3
*D21
  1

  0
LINE
  5
A25
  8
001
 62
     0
 10
192.2678826493833
 20
156.07927798864051
 30
0.0
 11
192.2678826493833
 21
124.1648619886406
 31
0.0
  0
LINE
  5
A26
  8
001
 62
     0
 10
87.267882649383282
 20
151.65327498864059
 30
0.0
 11
87.267882649383282
 21
124.1648619886406
 31
0.0
  0
LINE
  5
A27
  8
001
 62
     0
 10
189.7678826493833
 20
125.4148619886406
 30
0.0
 11
89.767882649383282
 21
125.4148619886406
 31
0.0
  0
INSERT
  5
A28
  8
0
  2
*U22
 10
0.0
 20
0.0
 30
0.0
  0
SOLID
  5
A29
  8
001
 62
     0
 10
189.7678826493833
 20
125.8315286553072
 30
0.0
 11
189.7678826493833
 21
124.9981953219739
 31
0.0
 12
192.2678826493833
 22
125.4148619886406
 32
0.0
 13
192.2678826493833
 23
125.4148619886406
 33
0.0
  0
SOLID
  5
A2A
  8
001
 62
     0
 10
89.767882649383282
 20
125.8315286553072
 30
0.0
 11
89.767882649383282
 21
124.9981953219739
 31
0.0
 12
87.267882649383282
 22
125.4148619886406
 32
0.0
 13
87.267882649383282
 23
125.4148619886406
 33
0.0
  0
POINT
  5
A2B
  8
DEFPOINTS
 62
     0
 10
192.2678826493833
 20
156.70427798864051
 30
0.0
  0
POINT
  5
A2C
  8
DEFPOINTS
 62
     0
 10
87.267882649383282
 20
152.27827498864059
 30
0.0
  0
POINT
  5
A2D
  8
DEFPOINTS
 62
     0
 10
87.267882649383282
 20
125.4148619886406
 30
0.0
  0
ENDBLK
  5
A2F
  8
0
  0
BLOCK
  8
0
  2
*U22
 70
     1
 10
0.0
 20
0.0
 30
0.0
  3
*U22
  1

  0
TEXT
  5
DD3
  8
001
 62
     0
 10
137.0595493160499
 20
127.1648619886406
 30
0.0
 40
2.5
  1
105
  0
ENDBLK
  5
DD5
  8
0
  0
BLOCK
  8
0
  2
*D23
 70
     1
 10
0.0
 20
0.0
 30
0.0
  3
*D23
  1

  0
LINE
  5
A31
  8
001
 62
     0
 10
87.267882649383282
 20
151.65327498864059
 30
0.0
 11
87.267882649383282
 21
133.78062398864051
 31
0.0
  0
LINE
  5
A32
  8
001
 62
     0
 10
120.2678826493832
 20
155.07927798864051
 30
0.0
 11
120.2678826493832
 21
133.78062398864051
 31
0.0
  0
LINE
  5
A33
  8
001
 62
     0
 10
89.767882649383282
 20
135.03062398864051
 30
0.0
 11
117.7678826493832
 21
135.03062398864051
 31
0.0
  0
INSERT
  5
A34
  8
0
  2
*U24
 10
0.0
 20
0.0
 30
0.0
  0
SOLID
  5
A35
  8
001
 62
     0
 10
89.767882649383282
 20
135.4472906553072
 30
0.0
 11
89.767882649383282
 21
134.61395732197391
 31
0.0
 12
87.267882649383282
 22
135.03062398864051
 32
0.0
 13
87.267882649383282
 23
135.03062398864051
 33
0.0
  0
SOLID
  5
A36
  8
001
 62
     0
 10
117.7678826493832
 20
135.4472906553072
 30
0.0
 11
117.7678826493832
 21
134.61395732197391
 31
0.0
 12
120.2678826493832
 22
135.03062398864051
 32
0.0
 13
120.2678826493832
 23
135.03062398864051
 33
0.0
  0
POINT
  5
A37
  8
DEFPOINTS
 62
     0
 10
87.267882649383282
 20
152.27827498864059
 30
0.0
  0
POINT
  5
A38
  8
DEFPOINTS
 62
     0
 10
120.2678826493832
 20
155.70427798864051
 30
0.0
  0
POINT
  5
A39
  8
DEFPOINTS
 62
     0
 10
120.2678826493832
 20
135.03062398864051
 30
0.0
  0
ENDBLK
  5
A3B
  8
0
  0
BLOCK
  8
0
  2
*U24
 70
     1
 10
0.0
 20
0.0
 30
0.0
  3
*U24
  1

  0
TEXT
  5
DD7
  8
001
 62
     0
 10
101.6845493160499
 20
136.78062398864051
 30
0.0
 40
2.5
  1
33
  0
ENDBLK
  5
DD9
  8
0
  0
BLOCK
  8
0
  2
*D25
 70
     1
 10
0.0
 20
0.0
 30
0.0
  3
*D25
  1

  0
LINE
  5
A3D
  8
001
 62
     0
 10
120.2678826493832
 20
155.07927798864051
 30
0.0
 11
120.2678826493832
 21
133.78062398864051
 31
0.0
  0
LINE
  5
A3E
  8
001
 62
     0
 10
192.2678826493833
 20
156.07927798864051
 30
0.0
 11
192.2678826493833
 21
133.78062398864051
 31
0.0
  0
LINE
  5
A3F
  8
001
 62
     0
 10
122.7678826493832
 20
135.03062398864051
 30
0.0
 11
189.7678826493833
 21
135.03062398864051
 31
0.0
  0
INSERT
  5
A40
  8
0
  2
*U26
 10
0.0
 20
0.0
 30
0.0
  0
SOLID
  5
A41
  8
001
 62
     0
 10
122.7678826493832
 20
135.4472906553072
 30
0.0
 11
122.7678826493832
 21
134.61395732197391
 31
0.0
 12
120.2678826493832
 22
135.03062398864051
 32
0.0
 13
120.2678826493832
 23
135.03062398864051
 33
0.0
  0
SOLID
  5
A42
  8
001
 62
     0
 10
189.7678826493833
 20
135.4472906553072
 30
0.0
 11
189.7678826493833
 21
134.61395732197391
 31
0.0
 12
192.2678826493833
 22
135.03062398864051
 32
0.0
 13
192.2678826493833
 23
135.03062398864051
 33
0.0
  0
POINT
  5
A43
  8
DEFPOINTS
 62
     0
 10
120.2678826493832
 20
155.70427798864051
 30
0.0
  0
POINT
  5
A44
  8
DEFPOINTS
 62
     0
 10
192.2678826493833
 20
156.70427798864051
 30
0.0
  0
POINT
  5
A45
  8
DEFPOINTS
 62
     0
 10
192.2678826493833
 20
135.03062398864051
 30
0.0
  0
ENDBLK
  5
A47
  8
0
  0
BLOCK
  8
0
  2
*U26
 70
     1
 10
0.0
 20
0.0
 30
0.0
  3
*U26
  1

  0
TEXT
  5
DDB
  8
001
 62
     0
 10
154.1845493160499
 20
136.78062398864051
 30
0.0
 40
2.5
  1
72
  0
ENDBLK
  5
DDD
  8
0
  0
BLOCK
  8
0
  2
*D27
 70
     1
 10
0.0
 20
0.0
 30
0.0
  3
*D27
  1

  0
LINE
  5
DDE
  8
0
 62
     0
 10
68.767440037135415
 20
59.857048483213461
 30
0.0
 11
82.393970419097158
 21
59.857048483213461
 31
0.0
  0
LINE
  5
DDF
  8
0
 62
     0
 10
68.767440037135415
 20
51.857048483213461
 30
0.0
 11
82.393970419097158
 21
51.857048483213461
 31
0.0
  0
LINE
  5
DE0
  8
0
 62
     0
 10
81.143970419097158
 20
57.357048483213461
 30
0.0
 11
81.143970419097158
 21
54.357048483213461
 31
0.0
  0
SOLID
  5
DE1
  8
0
 62
     0
 10
80.727303752430501
 20
57.357048483213461
 30
0.0
 11
81.560637085763844
 21
57.357048483213461
 31
0.0
 12
81.143970419097158
 22
59.857048483213461
 32
0.0
 13
81.143970419097158
 23
59.857048483213461
 33
0.0
  0
SOLID
  5
DE2
  8
0
 62
     0
 10
80.727303752430501
 20
54.357048483213461
 30
0.0
 11
81.560637085763844
 21
54.357048483213461
 31
0.0
 12
81.143970419097158
 22
51.857048483213461
 32
0.0
 13
81.143970419097158
 23
51.857048483213461
 33
0.0
  0
TEXT
  5
E1C
  8
0
 62
     0
 10
74.269000000000005
 20
51.432000000000002
 30
0.0
 40
2.5
  1
%%c8
  0
POINT
  5
DE4
  8
DEFPOINTS
 62
     0
 10
68.142440037135415
 20
59.857048483213461
 30
0.0
  0
POINT
  5
DE5
  8
DEFPOINTS
 62
     0
 10
68.142440037135415
 20
51.857048483213461
 30
0.0
  0
POINT
  5
DE6
  8
DEFPOINTS
 62
     0
 10
81.143970419097158
 20
51.857048483213461
 30
0.0
  0
ENDBLK
  5
A54
  8
0
  0
BLOCK
  8
0
  2
*D28
 70
     1
 10
0.0
 20
0.0
 30
0.0
  3
*D28
  1

  0
LINE
  5
DE7
  8
0
 62
     0
 10
69.142440037135415
 20
52.232048483213482
 30
0.0
 11
69.142440037135415
 21
38.746508546955631
 31
0.0
  0
LINE
  5
DE8
  8
0
 62
     0
 10
9.1424400371353993
 20
52.432048483213521
 30
0.0
 11
9.1424400371353993
 21
38.746508546955631
 31
0.0
  0
LINE
  5
DE9
  8
0
 62
     0
 10
66.642440037135415
 20
39.996508546955631
 30
0.0
 11
11.642440037135399
 21
39.996508546955631
 31
0.0
  0
SOLID
  5
DEA
  8
0
 62
     0
 10
66.642440037135415
 20
40.413175213622289
 30
0.0
 11
66.642440037135415
 21
39.57984188028896
 31
0.0
 12
69.142440037135415
 22
39.996508546955631
 32
0.0
 13
69.142440037135415
 23
39.996508546955631
 33
0.0
  0
SOLID
  5
DEB
  8
0
 62
     0
 10
11.642440037135399
 20
40.413175213622289
 30
0.0
 11
11.642440037135399
 21
39.57984188028896
 31
0.0
 12
9.1424400371353993
 22
39.996508546955631
 32
0.0
 13
9.1424400371353993
 23
39.996508546955631
 33
0.0
  0
TEXT
  5
E1D
  8
0
 62
     0
 10
34.142400000000002
 20
37.4465
 30
0.0
 40
2.5
  1
60
  0
POINT
  5
DED
  8
DEFPOINTS
 62
     0
 10
69.142440037135415
 20
52.857048483213482
 30
0.0
  0
POINT
  5
DEE
  8
DEFPOINTS
 62
     0
 10
9.1424400371353993
 20
53.057048483213521
 30
0.0
  0
POINT
  5
DEF
  8
DEFPOINTS
 62
     0
 10
9.1424400371353993
 20
39.996508546955631
 30
0.0
  0
ENDBLK
  5
A61
  8
0
  0
BLOCK
  8
0
  2
*D29
 70
     1
 10
0.0
 20
0.0
 30
0.0
  3
*D29
  1

  0
LINE
  5
DF0
  8
0
 62
     0
 10
9.1424400371353993
 20
52.432048483213521
 30
0.0
 11
9.1424400371353993
 21
38.746508546955631
 31
0.0
  0
LINE
  5
DF1
  8
0
 62
     0
 10
-12.857559962864601
 20
52.168689483213541
 30
0.0
 11
-12.857559962864601
 21
38.746508546955631
 31
0.0
  0
LINE
  5
DF2
  8
0
 62
     0
 10
6.6424400371354011
 20
39.996508546955631
 30
0.0
 11
-10.357559962864601
 21
39.996508546955631
 31
0.0
  0
SOLID
  5
DF3
  8
0
 62
     0
 10
6.6424400371354011
 20
40.413175213622289
 30
0.0
 11
6.6424400371354011
 21
39.57984188028896
 31
0.0
 12
9.1424400371353993
 22
39.996508546955631
 32
0.0
 13
9.1424400371353993
 23
39.996508546955631
 33
0.0
  0
SOLID
  5
DF4
  8
0
 62
     0
 10
-10.357559962864601
 20
40.413175213622289
 30
0.0
 11
-10.357559962864601
 21
39.57984188028896
 31
0.0
 12
-12.857559962864601
 22
39.996508546955631
 32
0.0
 13
-12.857559962864601
 23
39.996508546955631
 33
0.0
  0
TEXT
  5
E1E
  8
0
 62
     0
 10
-6.8575600000000003
 20
37.4465
 30
0.0
 40
2.5
  1
22
  0
POINT
  5
DF6
  8
DEFPOINTS
 62
     0
 10
9.1424400371353993
 20
53.057048483213521
 30
0.0
  0
POINT
  5
DF7
  8
DEFPOINTS
 62
     0
 10
-12.857559962864601
 20
52.793689483213541
 30
0.0
  0
POINT
  5
DF8
  8
DEFPOINTS
 62
     0
 10
-12.857559962864601
 20
39.996508546955631
 30
0.0
  0
ENDBLK
  5
A6E
  8
0
  0
BLOCK
  8
0
  2
*D30
 70
     1
 10
0.0
 20
0.0
 30
0.0
  3
*D30
  1

  0
LINE
  5
DF9
  8
0
 62
     0
 10
69.142440037135415
 20
52.232048483213482
 30
0.0
 11
69.142440037135415
 21
32.227765020568711
 31
0.0
  0
LINE
  5
DFA
  8
0
 62
     0
 10
-12.857559962864601
 20
52.168689483213541
 30
0.0
 11
-12.857559962864601
 21
32.227765020568711
 31
0.0
  0
LINE
  5
DFB
  8
0
 62
     0
 10
66.642440037135415
 20
33.477765020568711
 30
0.0
 11
-10.357559962864601
 21
33.477765020568711
 31
0.0
  0
SOLID
  5
DFC
  8
0
 62
     0
 10
66.642440037135415
 20
33.894431687235389
 30
0.0
 11
66.642440037135415
 21
33.061098353902047
 31
0.0
 12
69.142440037135415
 22
33.477765020568711
 32
0.0
 13
69.142440037135415
 23
33.477765020568711
 33
0.0
  0
SOLID
  5
DFD
  8
0
 62
     0
 10
-10.357559962864601
 20
33.894431687235389
 30
0.0
 11
-10.357559962864601
 21
33.061098353902047
 31
0.0
 12
-12.857559962864601
 22
33.477765020568711
 32
0.0
 13
-12.857559962864601
 23
33.477765020568711
 33
0.0
  0
TEXT
  5
E1F
  8
0
 62
     0
 10
23.142399999999999
 20
30.927800000000001
 30
0.0
 40
2.5
  1
82
  0
POINT
  5
DFF
  8
DEFPOINTS
 62
     0
 10
69.142440037135415
 20
52.857048483213482
 30
0.0
  0
POINT
  5
E00
  8
DEFPOINTS
 62
     0
 10
-12.857559962864601
 20
52.793689483213541
 30
0.0
  0
POINT
  5
E01
  8
DEFPOINTS
 62
     0
 10
-12.857559962864601
 20
33.477765020568711
 30
0.0
  0
ENDBLK
  5
A7B
  8
0
  0
BLOCK
  8
0
  2
*D31
 70
     1
 10
0.0
 20
0.0
 30
0.0
  3
*D31
  1

  0
LINE
  5
E02
  8
0
 62
     0
 10
-9.6401672246229992
 20
52.351747744971952
 30
0.0
 11
-1.507229712124994
 21
44.21881023247402
 31
0.0
  0
ARC
  5
E03
  8
0
 62
     0
 10
-13.14546796286456
 20
55.857048483213482
 30
0.0
 40
15.20895437632514
 50
324.42873518140908
 51
44.999999999999673
  0
SOLID
  5
E04
  8
0
 62
     0
 10
-0.4567708708619487
 20
46.740353902308442
 30
0.0
 11
-1.09246295074593
 21
47.279185994909859
 31
0.0
 12
-2.39111318860818
 22
45.102693708957169
 32
0.0
 13
-2.39111318860818
 23
45.102693708957169
 33
0.0
  0
TEXT
  5
E20
  8
0
 62
     0
 10
-5.6837200000000001
 20
46.688699999999997
 30
0.0
 40
2.5
  1
90°
  0
POINT
  5
E06
  8
DEFPOINTS
 62
     0
 10
1.5452538600800521
 20
59.793415531901701
 30
0.0
  0
POINT
  5
E07
  8
DEFPOINTS
 62
     0
 10
-12.804046962864589
 20
56.198469483213437
 30
0.0
  0
POINT
  5
E08
  8
DEFPOINTS
 62
     0
 10
-12.804046962864589
 20
55.5156274832135
 30
0.0
  0
POINT
  5
E09
  8
DEFPOINTS
 62
     0
 10
-10.08210896286459
 20
52.793689483213512
 30
0.0
  0
POINT
  5
E0A
  8
DEFPOINTS
 62
     0
 10
-10.08210896286459
 20
58.920407483213388
 30
0.0
  0
ENDBLK
  5
A9B
  8
0
  0
BLOCK
  8
0
  2
*D32
 70
     1
 10
0.0
 20
0.0
 30
0.0
  3
*D32
  1

  0
LINE
  5
E0B
  8
0
 62
     0
 10
-14.54496484033262
 20
55.515627483213521
 30
0.0
 11
-20.98177744844083
 21
55.515627483213521
 31
0.0
  0
LINE
  5
E0C
  8
0
 62
     0
 10
-19.73177744844083
 20
53.015627483213521
 30
0.0
 11
-19.73177744844083
 21
50.515627483213521
 31
0.0
  0
LINE
  5
E0D
  8
0
 62
     0
 10
-19.73177744844082
 20
56.198469483213501
 30
0.0
 11
-19.73177744844082
 21
69.531802816546815
 31
0.0
  0
LINE
  5
E0E
  8
0
 62
     0
 10
-19.73177744844083
 20
55.515627483213521
 30
0.0
 11
-19.73177744844082
 21
56.198469483213501
 31
0.0
  0
SOLID
  5
E0F
  8
0
 62
     0
 10
-20.148444115107491
 20
53.015627483213521
 30
0.0
 11
-19.315110781774159
 21
53.015627483213521
 31
0.0
 12
-19.73177744844083
 22
55.515627483213521
 32
0.0
 13
-19.73177744844083
 23
55.515627483213521
 33
0.0
  0
TEXT
  5
E21
  8
0
 62
     0
 10
-26.6068
 20
60.940100000000001
 30
0.0
 40
2.5
  1
%%c0.7
  0
POINT
  5
E11
  8
DEFPOINTS
 62
     0
 10
-13.91996484033262
 20
55.515627483213521
 30
0.0
  0
POINT
  5
E12
  8
DEFPOINTS
 62
     0
 10
-13.91996484033263
 20
56.198469483213493
 30
0.0
  0
POINT
  5
E13
  8
DEFPOINTS
 62
     0
 10
-19.73177744844082
 20
56.198469483213501
 30
0.0
  0
ENDBLK
  5
B95
  8
0
  0
BLOCK
  8
0
  2
*D33
 70
     1
 10
0.0
 20
0.0
 30
0.0
  3
*D33
  1

  0
LINE
  5
E14
  8
0
 62
     0
 10
-14.45729196286459
 20
52.793689483213541
 30
0.0
 11
-29.237805495602569
 21
52.793689483213541
 31
0.0
  0
LINE
  5
E15
  8
0
 62
     0
 10
-27.987805495602579
 20
55.293689483213541
 30
0.0
 11
-27.987805495602569
 21
58.920407483213452
 31
0.0
  0
LINE
  5
E16
  8
0
 62
     0
 10
-27.987805495602569
 20
58.920407483213452
 30
0.0
 11
-27.987805495602569
 21
69.337074149880124
 31
0.0
  0
SOLID
  5
E17
  8
0
 62
     0
 10
-28.40447216226924
 20
55.293689483213541
 30
0.0
 11
-27.571138828935911
 21
55.293689483213541
 31
0.0
 12
-27.987805495602579
 22
52.793689483213541
 32
0.0
 13
-27.987805495602579
 23
52.793689483213541
 33
0.0
  0
TEXT
  5
E22
  8
0
 62
     0
 10
-34.8628
 20
60.953699999999991
 30
0.0
 40
2.5
  1
%%c6.1
  0
POINT
  5
E19
  8
DEFPOINTS
 62
     0
 10
-13.83229196286459
 20
52.793689483213541
 30
0.0
  0
POINT
  5
E1A
  8
DEFPOINTS
 62
     0
 10
-13.83229196286459
 20
58.920407483213452
 30
0.0
  0
POINT
  5
E1B
  8
DEFPOINTS
 62
     0
 10
-27.987805495602569
 20
58.920407483213452
 30
0.0
  0
ENDBLK
  5
BA4
  8
0
  0
BLOCK
  8
0
  2
*D34
 70
     1
 10
0.0
 20
0.0
 30
0.0
  3
*D34
  1

  0
LINE
  5
1A8E
  8
0
 62
     0
 10
-5.9003943797654301
 20
45.387572717480097
 30
0.0
 11
-23.793553765328621
 21
45.387572717480118
 31
0.0
  0
LINE
  5
1A8F
  8
0
 62
     0
 10
-22.543553765328621
 20
47.887572717480118
 30
0.0
 11
-22.543553765328621
 21
51.387572717480118
 31
0.0
  0
LINE
  5
1A90
  8
0
 62
     0
 10
-22.543553765328621
 20
51.387572717480118
 30
0.0
 11
-22.543553765328621
 21
60.61759838414676
 31
0.0
  0
SOLID
  5
1A91
  8
0
 62
     0
 10
-22.960220431995289
 20
47.887572717480118
 30
0.0
 11
-22.12688709866195
 21
47.887572717480118
 31
0.0
 12
-22.543553765328621
 22
45.387572717480118
 32
0.0
 13
-22.543553765328621
 23
45.387572717480118
 33
0.0
  0
TEXT
  5
1A9E
  8
0
 62
     0
 10
-29.418600000000001
 20
53.484299999999998
 30
0.0
 40
2.5
  1
%%c6
  0
POINT
  5
1A93
  8
DEFPOINTS
 62
     0
 10
-5.2753943797654301
 20
45.387572717480097
 30
0.0
  0
POINT
  5
1A94
  8
DEFPOINTS
 62
     0
 10
-5.275394379765431
 20
51.387572717480097
 30
0.0
  0
POINT
  5
1A95
  8
DEFPOINTS
 62
     0
 10
-22.543553765328621
 20
51.387572717480118
 30
0.0
  0
ENDBLK
  5
151F
  8
0
  0
BLOCK
  8
0
  2
*D35
 70
     1
 10
0.0
 20
0.0
 30
0.0
  3
*D35
  1

  0
LINE
  5
1A85
  8
0
 62
     0
 10
-5.8465443797654473
 20
48.109510717480127
 30
0.0
 11
-15.703364102040711
 21
48.109510717480127
 31
0.0
  0
LINE
  5
1A86
  8
0
 62
     0
 10
-14.453364102040711
 20
45.609510717480127
 30
0.0
 11
-14.453364102040711
 21
43.109510717480127
 31
0.0
  0
LINE
  5
1A87
  8
0
 62
     0
 10
-14.453364102040711
 20
48.665634717480067
 30
0.0
 11
-14.453364102040711
 21
62.062327050813472
 31
0.0
  0
LINE
  5
1A88
  8
0
 62
     0
 10
-14.453364102040711
 20
48.109510717480127
 30
0.0
 11
-14.453364102040711
 21
48.665634717480067
 31
0.0
  0
SOLID
  5
1A89
  8
0
 62
     0
 10
-14.87003076870738
 20
45.609510717480127
 30
0.0
 11
-14.03669743537405
 21
45.609510717480127
 31
0.0
 12
-14.453364102040711
 22
48.109510717480127
 32
0.0
 13
-14.453364102040711
 23
48.109510717480127
 33
0.0
  0
TEXT
  5
1A9F
  8
0
 62
     0
 10
-21.328399999999998
 20
53.470700000000001
 30
0.0
 40
2.5
  1
%%c0.6
  0
POINT
  5
1A8B
  8
DEFPOINTS
 62
     0
 10
-5.2215443797654473
 20
48.109510717480127
 30
0.0
  0
POINT
  5
1A8C
  8
DEFPOINTS
 62
     0
 10
-5.2215443797654473
 20
48.665634717480067
 30
0.0
  0
POINT
  5
1A8D
  8
DEFPOINTS
 62
     0
 10
-14.453364102040711
 20
48.665634717480067
 30
0.0
  0
ENDBLK
  5
152B
  8
0
  0
BLOCK
  8
0
  2
*D36
 70
     1
 10
0.0
 20
0.0
 30
0.0
  3
*D36
  1

  0
LINE
  5
1A7C
  8
0
 62
     0
 10
-1.0832696415238361
 20
44.882271979238581
 30
0.0
 11
8.1740217727553102
 21
35.624980564959557
 31
0.0
  0
ARC
  5
1A7D
  8
0
 62
     0
 10
-4.5885703797653932
 20
48.387572717480097
 30
0.0
 40
16.799030913131102
 50
323.53453744393761
 51
44.999999999999758
  0
SOLID
  5
1A7E
  8
0
 62
     0
 10
9.2372008227324152
 20
38.131380182861733
 30
0.0
 11
8.6057327484094888
 21
38.675156345961327
 31
0.0
 12
7.2901382962721231
 22
36.508864041442727
 32
0.0
 13
7.2901382962721231
 23
36.508864041442727
 33
0.0
  0
TEXT
  5
1AA0
  8
0
 62
     0
 10
4.5402899999999988
 20
39.156100000000002
 30
0.0
 40
2.5
  1
90°
  0
POINT
  5
1A80
  8
DEFPOINTS
 62
     0
 10
11.63804743585637
 20
52.735481857064407
 30
0.0
  0
POINT
  5
1A81
  8
DEFPOINTS
 62
     0
 10
-4.2471493797654301
 20
48.728993717480058
 30
0.0
  0
POINT
  5
1A82
  8
DEFPOINTS
 62
     0
 10
-4.2471493797654354
 20
48.04615171748015
 30
0.0
  0
POINT
  5
1A83
  8
DEFPOINTS
 62
     0
 10
-1.5252113797654301
 20
45.324213717480177
 30
0.0
  0
POINT
  5
1A84
  8
DEFPOINTS
 62
     0
 10
-1.5252113797654281
 20
51.450931717480053
 30
0.0
  0
ENDBLK
  5
153F
  8
0
  0
BLOCK
  8
0
  2
*D37
 70
     1
 10
0.0
 20
0.0
 30
0.0
  3
*D37
  1

  0
LINE
  5
1A6A
  8
0
 62
     0
 10
17.699337620234559
 20
44.962572717480157
 30
0.0
 11
17.699337620234559
 21
30.042719848602701
 31
0.0
  0
LINE
  5
1A6B
  8
0
 62
     0
 10
-4.3006623797654404
 20
44.69921371748017
 30
0.0
 11
-4.3006623797654413
 21
30.042719848602701
 31
0.0
  0
LINE
  5
1A6C
  8
0
 62
     0
 10
15.19933762023456
 20
31.292719848602701
 30
0.0
 11
-1.800662379765442
 21
31.292719848602701
 31
0.0
  0
SOLID
  5
1A6D
  8
0
 62
     0
 10
15.19933762023456
 20
31.709386515269369
 30
0.0
 11
15.19933762023456
 21
30.87605318193603
 31
0.0
 12
17.699337620234559
 22
31.292719848602701
 32
0.0
 13
17.699337620234559
 23
31.292719848602701
 33
0.0
  0
SOLID
  5
1A6E
  8
0
 62
     0
 10
-1.800662379765442
 20
31.709386515269369
 30
0.0
 11
-1.800662379765442
 21
30.87605318193603
 31
0.0
 12
-4.3006623797654413
 22
31.292719848602701
 32
0.0
 13
-4.3006623797654413
 23
31.292719848602701
 33
0.0
  0
TEXT
  5
1AA1
  8
0
 62
     0
 10
1.6993400000000001
 20
28.742699999999999
 30
0.0
 40
2.5
  1
22
  0
POINT
  5
1A70
  8
DEFPOINTS
 62
     0
 10
17.699337620234559
 20
45.587572717480157
 30
0.0
  0
POINT
  5
1A71
  8
DEFPOINTS
 62
     0
 10
-4.3006623797654404
 20
45.32421371748017
 30
0.0
  0
POINT
  5
1A72
  8
DEFPOINTS
 62
     0
 10
-4.3006623797654413
 20
31.292719848602701
 30
0.0
  0
ENDBLK
  5
154B
  8
0
  0
BLOCK
  8
0
  2
*D38
 70
     1
 10
0.0
 20
0.0
 30
0.0
  3
*D38
  1

  0
LINE
  5
1A61
  8
0
 62
     0
 10
77.699337620234573
 20
44.762572717480097
 30
0.0
 11
77.699337620234573
 21
30.042719848602701
 31
0.0
  0
LINE
  5
1A62
  8
0
 62
     0
 10
17.699337620234559
 20
44.962572717480157
 30
0.0
 11
17.699337620234559
 21
30.042719848602701
 31
0.0
  0
LINE
  5
1A63
  8
0
 62
     0
 10
75.199337620234573
 20
31.292719848602701
 30
0.0
 11
20.199337620234559
 21
31.292719848602701
 31
0.0
  0
SOLID
  5
1A64
  8
0
 62
     0
 10
75.199337620234573
 20
31.709386515269369
 30
0.0
 11
75.199337620234573
 21
30.87605318193603
 31
0.0
 12
77.699337620234573
 22
31.292719848602701
 32
0.0
 13
77.699337620234573
 23
31.292719848602701
 33
0.0
  0
SOLID
  5
1A65
  8
0
 62
     0
 10
20.199337620234559
 20
31.709386515269369
 30
0.0
 11
20.199337620234559
 21
30.87605318193603
 31
0.0
 12
17.699337620234559
 22
31.292719848602701
 32
0.0
 13
17.699337620234559
 23
31.292719848602701
 33
0.0
  0
TEXT
  5
1AA2
  8
0
 62
     0
 10
42.699300000000001
 20
28.742699999999999
 30
0.0
 40
2.5
  1
60
  0
POINT
  5
1A67
  8
DEFPOINTS
 62
     0
 10
77.699337620234573
 20
45.387572717480097
 30
0.0
  0
POINT
  5
1A68
  8
DEFPOINTS
 62
     0
 10
17.699337620234559
 20
45.587572717480157
 30
0.0
  0
POINT
  5
1A69
  8
DEFPOINTS
 62
     0
 10
17.699337620234559
 20
31.292719848602701
 30
0.0
  0
ENDBLK
  5
1557
  8
0
  0
BLOCK
  8
0
  2
*D39
 70
     1
 10
0.0
 20
0.0
 30
0.0
  3
*D39
  1

  0
LINE
  5
1A73
  8
0
 62
     0
 10
77.699337620234573
 20
44.762572717480097
 30
0.0
 11
77.699337620234573
 21
24.758289254835351
 31
0.0
  0
LINE
  5
1A74
  8
0
 62
     0
 10
-4.3006623797654404
 20
44.69921371748017
 30
0.0
 11
-4.3006623797654413
 21
24.758289254835351
 31
0.0
  0
LINE
  5
1A75
  8
0
 62
     0
 10
75.199337620234573
 20
26.008289254835351
 30
0.0
 11
-1.800662379765442
 21
26.008289254835351
 31
0.0
  0
SOLID
  5
1A76
  8
0
 62
     0
 10
75.199337620234573
 20
26.424955921502018
 30
0.0
 11
75.199337620234573
 21
25.591622588168679
 31
0.0
 12
77.699337620234573
 22
26.008289254835351
 32
0.0
 13
77.699337620234573
 23
26.008289254835351
 33
0.0
  0
SOLID
  5
1A77
  8
0
 62
     0
 10
-1.800662379765442
 20
26.424955921502018
 30
0.0
 11
-1.800662379765442
 21
25.591622588168679
 31
0.0
 12
-4.3006623797654413
 22
26.008289254835351
 32
0.0
 13
-4.3006623797654413
 23
26.008289254835351
 33
0.0
  0
TEXT
  5
1AA3
  8
0
 62
     0
 10
31.699300000000001
 20
23.458300000000001
 30
0.0
 40
2.5
  1
82
  0
POINT
  5
1A79
  8
DEFPOINTS
 62
     0
 10
77.699337620234573
 20
45.387572717480097
 30
0.0
  0
POINT
  5
1A7A
  8
DEFPOINTS
 62
     0
 10
-4.3006623797654404
 20
45.32421371748017
 30
0.0
  0
POINT
  5
1A7B
  8
DEFPOINTS
 62
     0
 10
-4.3006623797654413
 20
26.008289254835351
 30
0.0
  0
ENDBLK
  5
157F
  8
0
  0
BLOCK
  8
0
  2
*D40
 70
     1
 10
0.0
 20
0.0
 30
0.0
  3
*D40
  1

  0
LINE
  5
1A58
  8
0
 62
     0
 10
77.324337620234573
 20
52.387572717480097
 30
0.0
 11
90.251543677871993
 21
52.387572717480097
 31
0.0
  0
LINE
  5
1A59
  8
0
 62
     0
 10
77.324337620234573
 20
44.38757271748009
 30
0.0
 11
90.251543677871993
 21
44.387572717480069
 31
0.0
  0
LINE
  5
1A5A
  8
0
 62
     0
 10
89.001543677871993
 20
49.887572717480097
 30
0.0
 11
89.001543677871993
 21
46.887572717480069
 31
0.0
  0
SOLID
  5
1A5B
  8
0
 62
     0
 10
88.584877011205364
 20
49.887572717480097
 30
0.0
 11
89.418210344538693
 21
49.887572717480097
 31
0.0
 12
89.001543677871993
 22
52.387572717480097
 32
0.0
 13
89.001543677871993
 23
52.387572717480097
 33
0.0
  0
SOLID
  5
1A5C
  8
0
 62
     0
 10
88.584877011205364
 20
46.887572717480069
 30
0.0
 11
89.418210344538693
 21
46.887572717480069
 31
0.0
 12
89.001543677871993
 22
44.387572717480069
 32
0.0
 13
89.001543677871993
 23
44.387572717480069
 33
0.0
  0
TEXT
  5
1AA4
  8
0
 62
     0
 10
82.126499999999993
 20
43.766599999999997
 30
0.0
 40
2.5
  1
%%c8
  0
POINT
  5
1A5E
  8
DEFPOINTS
 62
     0
 10
76.699337620234573
 20
52.387572717480097
 30
0.0
  0
POINT
  5
1A5F
  8
DEFPOINTS
 62
     0
 10
76.699337620234573
 20
44.38757271748009
 30
0.0
  0
POINT
  5
1A60
  8
DEFPOINTS
 62
     0
 10
89.001543677871993
 20
44.387572717480069
 30
0.0
  0
ENDBLK
  5
158B
  8
0
  0
BLOCK
  8
0
  2
*D41
 70
     1
 10
0.0
 20
0.0
 30
0.0
  3
*D41
  1

  0
LINE
  5
1BCE
  8
0
 62
     0
 10
-5.8465443797654473
 20
48.109510717480127
 30
0.0
 11
-15.703364102040711
 21
48.109510717480127
 31
0.0
  0
LINE
  5
1BCF
  8
0
 62
     0
 10
-14.453364102040711
 20
45.609510717480127
 30
0.0
 11
-14.453364102040711
 21
43.109510717480127
 31
0.0
  0
LINE
  5
1BD0
  8
0
 62
     0
 10
-14.453364102040711
 20
48.665634717480067
 30
0.0
 11
-14.453364102040711
 21
62.062327050813472
 31
0.0
  0
LINE
  5
1BD1
  8
0
 62
     0
 10
-14.453364102040711
 20
48.109510717480127
 30
0.0
 11
-14.453364102040711
 21
48.665634717480067
 31
0.0
  0
INSERT
  5
1BD2
  8
0
 62
     0
  2
_OPEN30
 10
-14.453364102040711
 20
48.109510717480127
 30
0.0
 41
2.5
 42
2.5
 43
2.5
 50
90.0
  0
TEXT
  8
0
  40
2.5
  5
1E55
  62
0
  72
0
  71
0
 10
-21.3284
 20
53.4707
 30
0.000000
  1
%%c0.6
  0
POINT
  5
1BD4
  8
DEFPOINTS
 62
     0
 10
-5.2215443797654473
 20
48.109510717480127
 30
0.0
  0
POINT
  5
1BD5
  8
DEFPOINTS
 62
     0
 10
-5.2215443797654473
 20
48.665634717480067
 30
0.0
  0
POINT
  5
1BD6
  8
DEFPOINTS
 62
     0
 10
-14.453364102040711
 20
48.665634717480067
 30
0.0
  0
ENDBLK
  5
1B32
  8
0
  0
BLOCK
  8
0
  2
*D42
 70
     1
 10
0.0
 20
0.0
 30
0.0
  3
*D42
  1

  0
LINE
  5
1BD7
  8
0
 62
     0
 10
-5.9003943797654301
 20
45.387572717480097
 30
0.0
 11
-23.793553765328621
 21
45.387572717480111
 31
0.0
  0
LINE
  5
1BD8
  8
0
 62
     0
 10
-22.543553765328621
 20
47.887572717480111
 30
0.0
 11
-22.543553765328621
 21
51.387572717480111
 31
0.0
  0
LINE
  5
1BD9
  8
0
 62
     0
 10
-22.543553765328621
 20
51.387572717480111
 30
0.0
 11
-22.54355376532861
 21
60.61759838414676
 31
0.0
  0
INSERT
  5
1BDA
  8
0
 62
     0
  2
_OPEN30
 10
-22.543553765328621
 20
45.387572717480111
 30
0.0
 41
2.5
 42
2.5
 43
2.5
 50
270.0
  0
TEXT
  8
0
  40
2.5
  5
1E56
  62
0
  72
0
  71
0
 10
-29.4186
 20
53.4843
 30
0.000000
  1
%%c6
  0
POINT
  5
1BDC
  8
DEFPOINTS
 62
     0
 10
-5.2753943797654301
 20
45.387572717480097
 30
0.0
  0
POINT
  5
1BDD
  8
DEFPOINTS
 62
     0
 10
-5.275394379765431
 20
51.387572717480097
 30
0.0
  0
POINT
  5
1BDE
  8
DEFPOINTS
 62
     0
 10
-22.543553765328621
 20
51.387572717480111
 30
0.0
  0
ENDBLK
  5
1B3D
  8
0
  0
BLOCK
  8
0
  2
*D43
 70
     1
 10
0.0
 20
0.0
 30
0.0
  3
*D43
  1

  0
LINE
  5
1BB0
  8
0
 62
     0
 10
17.699337620234559
 20
44.962572717480157
 30
0.0
 11
17.699337620234559
 21
30.042719848602701
 31
0.0
  0
LINE
  5
1BB1
  8
0
 62
     0
 10
-4.3006623797654404
 20
44.69921371748017
 30
0.0
 11
-4.3006623797654413
 21
30.042719848602701
 31
0.0
  0
LINE
  5
1BB2
  8
0
 62
     0
 10
15.19933762023456
 20
31.292719848602701
 30
0.0
 11
-1.8006623797654411
 21
31.292719848602701
 31
0.0
  0
INSERT
  5
1BB3
  8
0
 62
     0
  2
_OPEN30
 10
17.699337620234559
 20
31.292719848602701
 30
0.0
 41
2.5
 42
2.5
 43
2.5
  0
SOLID
  5
1BB4
  8
0
 62
     0
 10
-1.8006623797654411
 20
31.709386515269369
 30
0.0
 11
-1.8006623797654411
 21
30.87605318193603
 31
0.0
 12
-4.3006623797654413
 22
31.292719848602701
 32
0.0
 13
-4.3006623797654413
 23
31.292719848602701
 33
0.0
  0
TEXT
  8
0
  40
2.5
  5
1E57
  62
0
  72
0
  71
0
 10
1.69934
 20
28.7427
 30
0.000000
  1
22
  0
POINT
  5
1BB6
  8
DEFPOINTS
 62
     0
 10
17.699337620234559
 20
45.587572717480157
 30
0.0
  0
POINT
  5
1BB7
  8
DEFPOINTS
 62
     0
 10
-4.3006623797654404
 20
45.32421371748017
 30
0.0
  0
POINT
  5
1BB8
  8
DEFPOINTS
 62
     0
 10
-4.3006623797654413
 20
31.292719848602701
 30
0.0
  0
ENDBLK
  5
1B49
  8
0
  0
BLOCK
  8
0
  2
*D44
 70
     1
 10
0.0
 20
0.0
 30
0.0
  3
*D44
  1

  0
LINE
  5
1BB9
  8
0
 62
     0
 10
77.699337620234573
 20
44.762572717480097
 30
0.0
 11
77.699337620234573
 21
24.758289254835351
 31
0.0
  0
LINE
  5
1BBA
  8
0
 62
     0
 10
-4.3006623797654404
 20
44.69921371748017
 30
0.0
 11
-4.3006623797654413
 21
24.758289254835351
 31
0.0
  0
LINE
  5
1BBB
  8
0
 62
     0
 10
75.199337620234573
 20
26.008289254835351
 30
0.0
 11
-1.8006623797654411
 21
26.008289254835351
 31
0.0
  0
INSERT
  5
1BBC
  8
0
 62
     0
  2
_OPEN30
 10
77.699337620234573
 20
26.008289254835351
 30
0.0
 41
2.5
 42
2.5
 43
2.5
  0
SOLID
  5
1BBD
  8
0
 62
     0
 10
-1.8006623797654411
 20
26.424955921502018
 30
0.0
 11
-1.8006623797654411
 21
25.59162258816869
 31
0.0
 12
-4.3006623797654413
 22
26.008289254835351
 32
0.0
 13
-4.3006623797654413
 23
26.008289254835351
 33
0.0
  0
TEXT
  8
0
  40
2.5
  5
1E58
  62
0
  72
0
  71
0
 10
31.6993
 20
23.4583
 30
0.000000
  1
82
  0
POINT
  5
1BBF
  8
DEFPOINTS
 62
     0
 10
77.699337620234573
 20
45.387572717480097
 30
0.0
  0
POINT
  5
1BC0
  8
DEFPOINTS
 62
     0
 10
-4.3006623797654404
 20
45.32421371748017
 30
0.0
  0
POINT
  5
1BC1
  8
DEFPOINTS
 62
     0
 10
-4.3006623797654413
 20
26.008289254835351
 30
0.0
  0
ENDBLK
  5
1B55
  8
0
  0
BLOCK
  8
0
  2
*D45
 70
     1
 10
0.0
 20
0.0
 30
0.0
  3
*D45
  1

  0
LINE
  5
1BA7
  8
0
 62
     0
 10
77.699337620234573
 20
44.762572717480097
 30
0.0
 11
77.699337620234573
 21
30.042719848602701
 31
0.0
  0
LINE
  5
1BA8
  8
0
 62
     0
 10
17.699337620234559
 20
44.962572717480157
 30
0.0
 11
17.699337620234559
 21
30.042719848602701
 31
0.0
  0
LINE
  5
1BA9
  8
0
 62
     0
 10
75.199337620234573
 20
31.292719848602701
 30
0.0
 11
20.199337620234559
 21
31.292719848602701
 31
0.0
  0
INSERT
  5
1BAA
  8
0
 62
     0
  2
_OPEN30
 10
77.699337620234573
 20
31.292719848602701
 30
0.0
 41
2.5
 42
2.5
 43
2.5
  0
SOLID
  5
1BAB
  8
0
 62
     0
 10
20.199337620234559
 20
31.709386515269369
 30
0.0
 11
20.199337620234559
 21
30.87605318193603
 31
0.0
 12
17.699337620234559
 22
31.292719848602701
 32
0.0
 13
17.699337620234559
 23
31.292719848602701
 33
0.0
  0
TEXT
  8
0
  40
2.5
  5
1E59
  62
0
  72
0
  71
0
 10
42.6993
 20
28.7427
 30
0.000000
  1
60
  0
POINT
  5
1BAD
  8
DEFPOINTS
 62
     0
 10
77.699337620234573
 20
45.387572717480097
 30
0.0
  0
POINT
  5
1BAE
  8
DEFPOINTS
 62
     0
 10
17.699337620234559
 20
45.587572717480157
 30
0.0
  0
POINT
  5
1BAF
  8
DEFPOINTS
 62
     0
 10
17.699337620234559
 20
31.292719848602701
 30
0.0
  0
ENDBLK
  5
1B61
  8
0
  0
BLOCK
  8
0
  2
*D46
 70
     1
 10
0.0
 20
0.0
 30
0.0
  3
*D46
  1

  0
LINE
  5
1B9E
  8
0
 62
     0
 10
77.324337620234573
 20
52.387572717480097
 30
0.0
 11
90.251543677871993
 21
52.38757271748009
 31
0.0
  0
LINE
  5
1B9F
  8
0
 62
     0
 10
77.324337620234573
 20
44.38757271748009
 30
0.0
 11
90.251543677871993
 21
44.387572717480083
 31
0.0
  0
LINE
  5
1BA0
  8
0
 62
     0
 10
89.001543677871993
 20
49.88757271748009
 30
0.0
 11
89.001543677871993
 21
46.887572717480083
 31
0.0
  0
INSERT
  5
1BA1
  8
0
 62
     0
  2
_OPEN30
 10
89.001543677871993
 20
52.38757271748009
 30
0.0
 41
2.5
 42
2.5
 43
2.5
 50
90.0
  0
SOLID
  5
1BA2
  8
0
 62
     0
 10
88.584877011205336
 20
46.887572717480083
 30
0.0
 11
89.418210344538679
 21
46.887572717480083
 31
0.0
 12
89.001543677871993
 22
44.387572717480083
 32
0.0
 13
89.001543677871993
 23
44.387572717480083
 33
0.0
  0
TEXT
  8
0
  40
2.5
  5
1E5A
  62
0
  72
0
  71
0
 10
82.1265
 20
43.7666
 30
0.000000
  1
%%c8
  0
POINT
  5
1BA4
  8
DEFPOINTS
 62
     0
 10
76.699337620234573
 20
52.387572717480097
 30
0.0
  0
POINT
  5
1BA5
  8
DEFPOINTS
 62
     0
 10
76.699337620234573
 20
44.38757271748009
 30
0.0
  0
POINT
  5
1BA6
  8
DEFPOINTS
 62
     0
 10
89.001543677871993
 20
44.387572717480083
 30
0.0
  0
ENDBLK
  5
1B6D
  8
0
  0
BLOCK
  8
0
  2
*D47
 70
     1
 10
0.0
 20
0.0
 30
0.0
  3
*D47
  1

  0
LINE
  5
1BC3
  8
0
 62
     0
 10
-1.0832696415238381
 20
44.882271979238581
 30
0.0
 11
8.1740217727552942
 21
35.624980564959543
 31
0.0
  0
ARC
  5
1BC4
  8
0
 62
     0
 10
-4.5885703797653958
 20
48.387572717480097
 30
0.0
 40
16.799030913131102
 50
323.53453744393761
 51
44.99999999999968
  0
SOLID
  5
1BC5
  8
0
 62
     0
 10
9.2372008227324045
 20
38.131380182861697
 30
0.0
 11
8.6057327484094763
 21
38.675156345961312
 31
0.0
 12
7.2901382962721062
 22
36.50886404144272
 32
0.0
 13
7.2901382962721062
 23
36.50886404144272
 33
0.0
  0
TEXT
  8
0
  40
2.5
  5
1E5B
  62
0
  72
0
  71
0
 10
4.54029
 20
39.1561
 30
0.000000
  1
90°
  0
POINT
  5
1BC7
  8
DEFPOINTS
 62
     0
 10
11.63804743585637
 20
52.735481857064379
 30
0.0
  0
POINT
  5
1BC8
  8
DEFPOINTS
 62
     0
 10
-4.2471493797654309
 20
48.728993717480058
 30
0.0
  0
POINT
  5
1BC9
  8
DEFPOINTS
 62
     0
 10
-4.2471493797654301
 20
48.04615171748015
 30
0.0
  0
POINT
  5
1BCA
  8
DEFPOINTS
 62
     0
 10
-1.525211379765433
 20
45.32421371748017
 30
0.0
  0
POINT
  5
1BCB
  8
DEFPOINTS
 62
     0
 10
-1.5252113797654301
 20
51.450931717480039
 30
0.0
  0
ENDBLK
  5
1BCD
  8
0
  0
ENDSEC
  0
SECTION
  2
ENTITIES
  0
TEXT
  5
108
  8
001
 10
16.61884362685419
 20
70.645041747736585
 30
0.0
 40
4.0
  1
ＳＣN0845E
 41
0.833333
  0
DIMENSION
  5
A48
  8
0
  2
*D46
 10
89.001543677871993
 20
44.387572717480083
 30
0.0
 11
89.001543677871993
 21
48.191626771534182
 31
0.0
 70
   128
 13
76.699337620234573
 23
52.387572717480097
 33
0.0
 14
76.699337620234573
 24
44.38757271748009
 34
0.0
 50
90.0
1001
ACAD
1000
DSTYLE
1002
{
1070
   287
1070
     3
1070
     6
1000
OPEN30
1070
   173
1070
     1
1070
     7
1000

1070
   287
1070
     3
1070
   287
1070
     3
1070
     3
1000
%%c<>
1070
   141
1040
0.09
1070
   274
1070
     2
1070
   279
1070
     0
1070
   284
1070
     0
1070
   285
1070
     0
1070
   286
1070
     0
1002
}
  0
DIMENSION
  5
A55
  8
0
  2
*D45
 10
17.699337620234559
 20
31.292719848602701
 30
0.0
 11
47.699337620234559
 21
31.292719848602701
 31
0.0
 70
   128
 13
77.699337620234573
 23
45.387572717480097
 33
0.0
 14
17.699337620234559
 24
45.587572717480157
 34
0.0
1001
ACAD
1000
DSTYLE
1002
{
1070
   287
1070
     3
1070
     6
1000
OPEN30
1070
   173
1070
     1
1070
     7
1000

1070
   287
1070
     3
1070
   287
1070
     3
1070
   141
1040
0.09
1070
   274
1070
     2
1070
   279
1070
     0
1070
   284
1070
     0
1070
   285
1070
     0
1070
   286
1070
     0
1002
}
  0
DIMENSION
  5
A62
  8
0
  2
*D43
 10
-4.3006623797654413
 20
31.292719848602701
 30
0.0
 11
6.6993376202345569
 21
31.292719848602701
 31
0.0
 70
   128
 13
17.699337620234559
 23
45.587572717480157
 33
0.0
 14
-4.3006623797654404
 24
45.32421371748017
 34
0.0
1001
ACAD
1000
DSTYLE
1002
{
1070
   287
1070
     3
1070
     6
1000
OPEN30
1070
   173
1070
     1
1070
     7
1000

1070
   287
1070
     3
1070
   287
1070
     3
1070
   141
1040
0.09
1070
   274
1070
     2
1070
   279
1070
     0
1070
   284
1070
     0
1070
   285
1070
     0
1070
   286
1070
     0
1002
}
  0
DIMENSION
  5
A6F
  8
0
  2
*D44
 10
-4.3006623797654413
 20
26.008289254835351
 30
0.0
 11
36.69933762023458
 21
26.008289254835351
 31
0.0
 70
   128
 13
77.699337620234573
 23
45.387572717480097
 33
0.0
 14
-4.3006623797654404
 24
45.32421371748017
 34
0.0
1001
ACAD
1000
DSTYLE
1002
{
1070
   287
1070
     3
1070
     6
1000
OPEN30
1070
   173
1070
     1
1070
     7
1000

1070
   287
1070
     3
1070
   287
1070
     3
1070
   141
1040
0.09
1070
   274
1070
     2
1070
   279
1070
     0
1070
   284
1070
     0
1070
   285
1070
     0
1070
   286
1070
     0
1002
}
  0
DIMENSION
  5
A8D
  8
0
  2
*D47
 10
-1.5252113797654321
 20
51.450931717480039
 30
0.0
 11
11.31538875094145
 21
42.977256313688102
 31
0.0
 70
   130
 13
-4.2471493797654301
 23
48.04615171748015
 33
0.0
 14
-1.5252113797654321
 24
45.32421371748017
 34
0.0
 15
-4.2471493797654301
 25
48.728993717480058
 35
0.0
 16
11.63804743585637
 26
52.735481857064379
 36
0.0
1001
ACAD
1000
DSTYLE
1002
{
1070
   287
1070
     3
1070
   271
1070
     0
1070
   287
1070
     3
1070
   271
1070
     0
1070
   287
1070
     3
1070
   271
1070
     0
1070
    75
1070
     1
1070
    76
1070
     0
1070
     7
1000
NONE
1070
   173
1070
     1
1070
     6
1000

1070
   282
1070
     0
1070
   141
1040
0.09
1070
   274
1070
     2
1070
   279
1070
     0
1070
   284
1070
     0
1070
   285
1070
     0
1070
   286
1070
     0
1002
}
  0
DIMENSION
  5
B87
  8
0
  2
*D41
 10
-14.453364102040711
 20
48.665634717480067
 30
0.0
 11
-14.45336410204072
 21
57.895660384146801
 31
0.0
 70
   128
 13
-5.2215443797654473
 23
48.109510717480127
 33
0.0
 14
-5.2215443797654473
 24
48.665634717480067
 34
0.0
 50
90.0
1001
ACAD
1000
DSTYLE
1002
{
1070
   287
1070
     3
1070
     3
1000
%%c<>
1070
    76
1070
     1
1070
   141
1040
0.09
1070
   173
1070
     1
1070
   271
1070
     1
1070
   274
1070
     2
1070
   279
1070
     0
1070
   284
1070
     0
1070
   285
1070
     0
1070
   286
1070
     0
1070
   287
1070
     3
1070
     6
1000
OPEN30
1070
     7
1000
NONE
1002
}
  0
DIMENSION
  5
B96
  8
0
  2
*D42
 10
-22.543553765328621
 20
51.387572717480111
 30
0.0
 11
-22.543553765328621
 21
57.909265050813417
 31
0.0
 70
   128
 13
-5.2753943797654301
 23
45.387572717480097
 33
0.0
 14
-5.275394379765431
 24
51.387572717480097
 34
0.0
 50
90.0
1001
ACAD
1000
DSTYLE
1002
{
1070
   287
1070
     3
1070
     3
1000
%%c<>
1070
    76
1070
     1
1070
   141
1040
0.09
1070
   173
1070
     1
1070
   271
1070
     1
1070
   274
1070
     2
1070
   279
1070
     0
1070
   284
1070
     0
1070
   285
1070
     0
1070
   286
1070
     0
1070
   287
1070
     3
1070
     6
1000
OPEN30
1070
     7
1000
NONE
1002
}
  0
LINE
  5
1187
  8
001
 10
-4.2471493797654301
 20
48.109510717480127
 30
0.0
 11
-5.2215443797654473
 21
48.109510717480127
 31
0.0
  0
ARC
  5
1188
  8
001
 10
-4.1612923797654258
 20
48.219294717480182
 30
0.0
 40
0.1393695895921145
 50
123.3994009999997
 51
231.9726780000002
  0
LINE
  5
1189
  8
001
 10
0.6658086202345716
 20
46.541354717480147
 30
0.0
 11
1.3245136202345691
 21
46.961949717480131
 31
0.0
  0
ARC
  5
118A
  8
001
 10
1.5443436202345691
 20
47.533658717480129
 30
0.0
 40
0.2450749717300895
 50
331.02612200000038
 51
40.100550999998582
  0
ARC
  5
118B
  8
001
 10
1.5650606202345601
 20
47.541602717480139
 30
0.0
 40
0.1707598516311905
 50
312.119505
 51
47.422813000000801
  0
LINE
  5
118C
  8
001
 10
1.0757676202345861
 20
47.00696571748017
 30
0.0
 11
0.3465616202345814
 21
46.541355717480137
 31
0.0
  0
POLYLINE
  5
118D
  8
001
 66
     1
 10
0.0
 20
0.0
 30
0.0
  0
VERTEX
  5
1BDF
  8
001
 10
0.4051466202345752
 20
46.495902717480128
 30
0.0
  0
VERTEX
  5
1BE0
  8
001
 10
0.4165396202345734
 20
46.491413717480143
 30
0.0
  0
VERTEX
  5
1BE1
  8
001
 10
0.4329376202345827
 20
46.485079717480119
 30
0.0
  0
VERTEX
  5
1BE2
  8
001
 10
0.5369966202345893
 20
46.449565717480127
 30
0.0
  0
VERTEX
  5
1BE3
  8
001
 10
0.6371546202345542
 20
46.428685717480093
 30
0.0
  0
VERTEX
  5
1BE4
  8
001
 10
0.7565946202345799
 20
46.415066717480151
 30
0.0
  0
VERTEX
  5
1BE5
  8
001
 10
0.8471246202345524
 20
46.409696717480116
 30
0.0
  0
SEQEND
  5
1BE6
  8
001
  0
POLYLINE
  5
1196
  8
001
 66
     1
 10
0.0
 20
0.0
 30
0.0
  0
VERTEX
  5
1BE7
  8
001
 10
1.0120796202345721
 20
48.926649717480132
 30
0.0
  0
VERTEX
  5
1BE8
  8
001
 10
1.0047386202345761
 20
48.925394717480167
 30
0.0
  0
VERTEX
  5
1BE9
  8
001
 10
0.9970206202345933
 20
48.924022717480113
 30
0.0
  0
VERTEX
  5
1BEA
  8
001
 10
0.9342986202345572
 20
48.910743717480152
 30
0.0
  0
VERTEX
  5
1BEB
  8
001
 10
0.8917686202345863
 20
48.899880717480137
 30
0.0
  0
SEQEND
  5
1BEC
  8
001
  0
ARC
  5
119D
  8
001
 10
0.8410856202345654
 20
47.673973717480109
 30
0.0
 40
1.2642954653866321
 50
270.27367699999962
 51
104.1551489999994
  0
LINE
  5
119E
  8
001
 10
-1.2378993797654501
 20
45.387572717480097
 30
0.0
 11
-0.8359643797654426
 21
45.587572717480157
 31
0.0
  0
ARC
  5
119F
  8
001
 10
-0.6947673797654375
 20
45.683777717480098
 30
0.0
 40
0.248865196432037
 50
171.82663400000041
 51
202.7413960000014
  0
LINE
  5
11A0
  8
001
 10
-4.3006623797654404
 20
48.212326717480138
 30
0.0
 11
-4.3006623797654404
 21
44.441609717480148
 31
0.0
  0
ARC
  5
11A1
  8
001
 10
-4.0908773797654288
 20
48.186111717480173
 30
0.0
 40
0.2097848016156651
 50
117.2079470000011
 51
134.53606599999961
  0
LINE
  5
11A2
  8
001
 10
77.699337620234573
 20
48.387572717480097
 30
0.0
 11
79.57009462023457
 21
47.30749071748015
 31
0.0
  0
LINE
  5
11A3
  8
001
 10
77.699337620234573
 20
48.387572717480097
 30
0.0
 11
79.57009462023457
 21
49.467654717480123
 31
0.0
  0
LINE
  5
11A4
  8
001
 10
-1.5252113797654361
 20
45.387572717480097
 30
0.0
 11
-5.2753943797654301
 21
45.387572717480097
 31
0.0
  0
ARC
  5
11A5
  8
001
 10
-0.7433493797654478
 20
55.473441717480121
 30
0.0
 40
9.7562878594104259
 50
268.83856200000002
 51
279.53477500000002
  0
LINE
  5
11A6
  8
001
 10
1.680593620234589
 20
47.667344717480141
 30
0.0
 11
-1.0975363797654141
 21
50.357798717480136
 31
0.0
  0
LINE
  5
11A7
  8
001
 10
1.0721086202345571
 20
48.534870717480139
 30
0.0
 11
0.6952036202345653
 21
48.899880717480137
 31
0.0
  0
LINE
  5
11A8
  8
001
 10
0.8727426202345894
 20
45.851934717480162
 30
0.0
 11
0.234644620234576
 21
46.469894717480138
 31
0.0
  0
LINE
  5
11A9
  8
001
 10
0.8727426202345894
 20
45.851934717480162
 30
0.0
 11
0.9581656202345811
 21
45.960337717480087
 31
0.0
  0
POLYLINE
  5
11AA
  8
001
 66
     1
 10
0.0
 20
0.0
 30
0.0
  0
VERTEX
  5
1BED
  8
001
 10
0.9581656202345811
 20
45.960337717480087
 30
0.0
  0
VERTEX
  5
1BEE
  8
001
 10
1.1548076202345781
 20
45.986185717480097
 30
0.0
  0
VERTEX
  5
1BEF
  8
001
 10
1.441913620234571
 20
46.026060717480092
 30
0.0
  0
VERTEX
  5
1BF0
  8
001
 10
2.1144356202345591
 20
46.131616717480142
 30
0.0
  0
VERTEX
  5
1BF1
  8
001
 10
2.5732116202345581
 20
46.21240971748017
 30
0.0
  0
SEQEND
  5
1BF2
  8
001
  0
LINE
  5
11B1
  8
001
 10
0.9581656202345811
 20
45.960337717480087
 30
0.0
 11
0.4051466202345752
 21
46.495902717480128
 31
0.0
  0
LINE
  5
11B2
  8
001
 10
-4.2471493797654301
 20
48.109510717480127
 30
0.0
 11
-1.5252113797654361
 21
45.387572717480097
 31
0.0
  0
LINE
  5
11B3
  8
001
  6
CENTER
 10
-6.1063593797654221
 20
48.387572717480097
 30
0.0
 11
79.396105620234565
 21
48.387572717480097
 31
0.0
  0
LINE
  5
11B4
  8
001
 10
76.699337620234573
 20
44.387572717480097
 30
0.0
 11
18.899337620234562
 21
44.387572717480097
 31
0.0
  0
LINE
  5
11B5
  8
001
 10
76.699337620234573
 20
52.387572717480097
 30
0.0
 11
18.899337620234562
 21
52.387572717480097
 31
0.0
  0
LINE
  5
11B6
  8
001
 10
76.699337620234573
 20
52.387572717480097
 30
0.0
 11
76.699337620234573
 21
44.387572717480097
 31
0.0
  0
LINE
  5
11B7
  8
001
 10
76.699337620234573
 20
44.387572717480097
 30
0.0
 11
77.699337620234573
 21
45.387572717480097
 31
0.0
  0
LINE
  5
11B8
  8
001
 10
76.699337620234573
 20
52.387572717480097
 30
0.0
 11
77.699337620234573
 21
51.387572717480097
 31
0.0
  0
POLYLINE
  5
11B9
  8
001
 66
     1
 10
0.0
 20
0.0
 30
0.0
  0
VERTEX
  5
1BF3
  8
001
 10
-1.6329603797654211
 20
47.503407717480172
 30
0.0
  0
VERTEX
  5
1BF4
  8
001
 10
-1.6353813797654191
 20
47.496996717480087
 30
0.0
  0
VERTEX
  5
1BF5
  8
001
 10
-1.6382493797654261
 20
47.487701717480142
 30
0.0
  0
VERTEX
  5
1BF6
  8
001
 10
-1.641305379765412
 20
47.461201717480137
 30
0.0
  0
VERTEX
  5
1BF7
  8
001
 10
-1.636688379765415
 20
47.437498717480139
 30
0.0
  0
VERTEX
  5
1BF8
  8
001
 10
-1.6303013797654271
 20
47.42154171748011
 30
0.0
  0
VERTEX
  5
1BF9
  8
001
 10
-1.6215043797654101
 20
47.406529717480097
 30
0.0
  0
VERTEX
  5
1BFA
  8
001
 10
-1.6161433797654461
 20
47.399635717480109
 30
0.0
  0
VERTEX
  5
1BFB
  8
001
 10
-1.6102343797654151
 20
47.393241717480123
 30
0.0
  0
VERTEX
  5
1BFC
  8
001
 10
-1.603840379765443
 20
47.387332717480142
 30
0.0
  0
VERTEX
  5
1BFD
  8
001
 10
-1.5969463797654271
 20
47.381971717480099
 30
0.0
  0
VERTEX
  5
1BFE
  8
001
 10
-1.581934379765414
 20
47.373174717480133
 30
0.0
  0
VERTEX
  5
1BFF
  8
001
 10
-1.5659773797654271
 20
47.366787717480108
 30
0.0
  0
VERTEX
  5
1C00
  8
001
 10
-1.542274379765443
 20
47.362170717480112
 30
0.0
  0
VERTEX
  5
1C01
  8
001
 10
-1.515774379765445
 20
47.365227717480131
 30
0.0
  0
VERTEX
  5
1C02
  8
001
 10
-1.506479379765409
 20
47.368094717480169
 30
0.0
  0
VERTEX
  5
1C03
  8
001
 10
-1.5000683797654231
 20
47.370515717480139
 30
0.0
  0
SEQEND
  5
1C04
  8
001
  0
LINE
  5
11CC
  8
001
 10
-1.540927379765435
 20
47.711808717480139
 30
0.0
 11
-1.6329603797654211
 21
47.503407717480172
 31
0.0
  0
LINE
  5
11CD
  8
001
 10
-1.5000683797654231
 20
47.370515717480139
 30
0.0
 11
-1.2916673797654421
 21
47.462548717480097
 31
0.0
  0
LINE
  5
11CE
  8
001
 10
-1.678050379765436
 20
47.574685717480108
 30
0.0
 11
-1.540927379765435
 21
47.711808717480139
 31
0.0
  0
POLYLINE
  5
11CF
  8
001
 66
     1
 10
0.0
 20
0.0
 30
0.0
  0
VERTEX
  5
1C05
  8
001
 10
-1.5998883797654171
 20
47.910618717480133
 30
0.0
  0
VERTEX
  5
1C06
  8
001
 10
-1.593863379765422
 20
47.868830717480137
 30
0.0
  0
VERTEX
  5
1C07
  8
001
 10
-1.5799353797654301
 20
47.808937717480141
 30
0.0
  0
VERTEX
  5
1C08
  8
001
 10
-1.5587883797654161
 20
47.750537717480142
 30
0.0
  0
VERTEX
  5
1C09
  8
001
 10
-1.540927379765435
 20
47.711808717480139
 30
0.0
  0
SEQEND
  5
1C0A
  8
001
  0
LINE
  5
11D6
  8
001
 10
-1.7951793797654141
 20
48.050392717480179
 30
0.0
 11
-1.5998883797654171
 21
47.910618717480133
 31
0.0
  0
LINE
  5
11D7
  8
001
 10
-1.7370113797654181
 20
47.773495717480152
 30
0.0
 11
-1.5998883797654171
 21
47.910618717480133
 31
0.0
  0
POLYLINE
  5
11D8
  8
001
 66
     1
 10
0.0
 20
0.0
 30
0.0
  0
VERTEX
  5
1C0B
  8
001
 10
-1.2916673797654421
 20
47.462548717480097
 30
0.0
  0
VERTEX
  5
1C0C
  8
001
 10
-1.2529383797654241
 20
47.444687717480107
 30
0.0
  0
VERTEX
  5
1C0D
  8
001
 10
-1.1945383797654181
 20
47.42354071748013
 30
0.0
  0
VERTEX
  5
1C0E
  8
001
 10
-1.134645379765429
 20
47.409612717480123
 30
0.0
  0
VERTEX
  5
1C0F
  8
001
 10
-1.0928573797654331
 20
47.403587717480143
 30
0.0
  0
SEQEND
  5
1C10
  8
001
  0
LINE
  5
11DF
  8
001
 10
-1.4287903797654149
 20
47.325426717480127
 30
0.0
 11
-1.2916673797654421
 21
47.462548717480097
 31
0.0
  0
LINE
  5
11E0
  8
001
 10
-1.0928573797654331
 20
47.403587717480143
 30
0.0
 11
-0.9530843797654141
 21
47.208296717480088
 31
0.0
  0
LINE
  5
11E1
  8
001
 10
-1.2299803797654061
 20
47.266465717480173
 30
0.0
 11
-1.0928573797654331
 21
47.403587717480143
 31
0.0
  0
POLYLINE
  5
11E2
  8
001
 66
     1
 10
0.0
 20
0.0
 30
0.0
  0
VERTEX
  5
1C11
  8
001
 10
-1.890601379765428
 20
48.087863717480147
 30
0.0
  0
VERTEX
  5
1C12
  8
001
 10
-1.8975943797654209
 20
48.087110717480137
 30
0.0
  0
VERTEX
  5
1C13
  8
001
 10
-1.907158379765433
 20
48.085445717480113
 30
0.0
  0
VERTEX
  5
1C14
  8
001
 10
-1.9155473797654281
 20
48.083071717480088
 30
0.0
  0
VERTEX
  5
1C15
  8
001
 10
-1.9228653797654249
 20
48.080157717480169
 30
0.0
  0
VERTEX
  5
1C16
  8
001
 10
-1.9298983797654321
 20
48.076742717480151
 30
0.0
  0
VERTEX
  5
1C17
  8
001
 10
-1.937242379765421
 20
48.072159717480133
 30
0.0
  0
VERTEX
  5
1C18
  8
001
 10
-1.9447313797654131
 20
48.06629771748014
 30
0.0
  0
VERTEX
  5
1C19
  8
001
 10
-1.949855379765409
 20
48.061695717480113
 30
0.0
  0
SEQEND
  5
1C1A
  8
001
  0
POLYLINE
  5
11ED
  8
001
 66
     1
 10
0.0
 20
0.0
 30
0.0
  0
VERTEX
  5
1C1B
  8
001
 10
-1.8293533797654209
 20
48.091326717480101
 30
0.0
  0
VERTEX
  5
1C1C
  8
001
 10
-1.825485379765438
 20
48.084224717480147
 30
0.0
  0
VERTEX
  5
1C1D
  8
001
 10
-1.8197373797654259
 20
48.074949717480131
 30
0.0
  0
VERTEX
  5
1C1E
  8
001
 10
-1.8145253797654259
 20
48.067972717480131
 30
0.0
  0
VERTEX
  5
1C1F
  8
001
 10
-1.808468379765428
 20
48.061661717480142
 30
0.0
  0
VERTEX
  5
1C20
  8
001
 10
-1.8009603797654259
 20
48.055012717480103
 30
0.0
  0
VERTEX
  5
1C21
  8
001
 10
-1.7951793797654141
 20
48.050392717480179
 30
0.0
  0
SEQEND
  5
1C22
  8
001
  0
POLYLINE
  5
11F6
  8
001
 66
     1
 10
0.0
 20
0.0
 30
0.0
  0
VERTEX
  5
1C23
  8
001
 10
-0.9530843797654141
 20
47.208296717480088
 30
0.0
  0
VERTEX
  5
1C24
  8
001
 10
-0.9484633797654281
 20
47.202515717480139
 30
0.0
  0
VERTEX
  5
1C25
  8
001
 10
-0.9418143797654182
 20
47.195007717480152
 30
0.0
  0
VERTEX
  5
1C26
  8
001
 10
-0.9355043797654332
 20
47.188950717480097
 30
0.0
  0
VERTEX
  5
1C27
  8
001
 10
-0.9285263797654296
 20
47.183738717480132
 30
0.0
  0
VERTEX
  5
1C28
  8
001
 10
-0.9192513797654272
 20
47.177990717480142
 30
0.0
  0
VERTEX
  5
1C29
  8
001
 10
-0.9121493797654521
 20
47.174122717480138
 30
0.0
  0
SEQEND
  5
1C2A
  8
001
  0
POLYLINE
  5
11FF
  8
001
 66
     1
 10
0.0
 20
0.0
 30
0.0
  0
VERTEX
  5
1C2B
  8
001
 10
-1.090206379765418
 20
47.071173717480107
 30
0.0
  0
VERTEX
  5
1C2C
  8
001
 10
-1.0856533797654311
 20
47.065428717480138
 30
0.0
  0
VERTEX
  5
1C2D
  8
001
 10
-1.07893737976542
 20
47.057885717480133
 30
0.0
  0
VERTEX
  5
1C2E
  8
001
 10
-1.0722913797654301
 20
47.051650717480122
 30
0.0
  0
VERTEX
  5
1C2F
  8
001
 10
-1.0656493797654321
 20
47.046615717480137
 30
0.0
  0
VERTEX
  5
1C30
  8
001
 10
-1.050976379765443
 20
47.037967717480171
 30
0.0
  0
VERTEX
  5
1C31
  8
001
 10
-1.034680379765432
 20
47.031431717480118
 30
0.0
  0
VERTEX
  5
1C32
  8
001
 10
-1.009645379765429
 20
47.027247717480122
 30
0.0
  0
VERTEX
  5
1C33
  8
001
 10
-0.9844773797654514
 20
47.029870717480136
 30
0.0
  0
VERTEX
  5
1C34
  8
001
 10
-0.9764243797654328
 20
47.032236717480139
 30
0.0
  0
VERTEX
  5
1C35
  8
001
 10
-0.968771379765428
 20
47.035159717480127
 30
0.0
  0
VERTEX
  5
1C36
  8
001
 10
-0.961649379765447
 20
47.038576717480169
 30
0.0
  0
VERTEX
  5
1C37
  8
001
 10
-0.9543933797654348
 20
47.043156717480137
 30
0.0
  0
VERTEX
  5
1C38
  8
001
 10
-0.9469223797654252
 20
47.049018717480131
 30
0.0
  0
VERTEX
  5
1C39
  8
001
 10
-0.941780379765419
 20
47.053620717480143
 30
0.0
  0
SEQEND
  5
1C3A
  8
001
  0
LINE
  5
1210
  8
001
 10
-1.6587933797654271
 20
48.100972717480147
 30
0.0
 11
-1.5216713797654211
 21
48.238095717480107
 31
0.0
  0
POLYLINE
  5
1211
  8
001
 66
     1
 10
0.0
 20
0.0
 30
0.0
  0
VERTEX
  5
1C3B
  8
001
 10
-1.5189453797654251
 20
48.240820717480119
 30
0.0
  0
VERTEX
  5
1C3C
  8
001
 10
-1.5223843797654111
 20
48.2385487174801
 30
0.0
  0
VERTEX
  5
1C3D
  8
001
 10
-1.527378379765423
 20
48.235180717480148
 30
0.0
  0
VERTEX
  5
1C3E
  8
001
 10
-1.5693193797654299
 20
48.202733717480093
 30
0.0
  0
VERTEX
  5
1C3F
  8
001
 10
-1.596121379765435
 20
48.178148717480099
 30
0.0
  0
SEQEND
  5
1C40
  8
001
  0
LINE
  5
1218
  8
001
 10
-0.9025033797654201
 20
47.344682717480147
 30
0.0
 11
-0.7653813797654152
 21
47.481805717480142
 31
0.0
  0
POLYLINE
  5
1219
  8
001
 66
     1
 10
0.0
 20
0.0
 30
0.0
  0
VERTEX
  5
1C41
  8
001
 10
-0.9025033797654201
 20
47.344682717480147
 30
0.0
  0
VERTEX
  5
1C42
  8
001
 10
-0.8990643797654341
 20
47.346954717480088
 30
0.0
  0
VERTEX
  5
1C43
  8
001
 10
-0.8940703797654235
 20
47.350322717480132
 30
0.0
  0
VERTEX
  5
1C44
  8
001
 10
-0.8521293797654153
 20
47.382769717480173
 30
0.0
  0
VERTEX
  5
1C45
  8
001
 10
-0.8253273797654401
 20
47.407354717480132
 30
0.0
  0
SEQEND
  5
1C46
  8
001
  0
LINE
  5
1220
  8
001
 10
-1.372176379765448
 20
48.548503717480102
 30
0.0
 11
-1.3818223797654241
 21
48.377943717480143
 31
0.0
  0
LINE
  5
1221
  8
001
 10
-1.5189453797654251
 20
48.240820717480119
 30
0.0
 11
-1.3818223797654241
 21
48.377943717480143
 31
0.0
  0
LINE
  5
1222
  8
001
 10
-0.6255323797654171
 20
47.621653717480172
 30
0.0
 11
-0.4549723797654224
 21
47.63129971748014
 31
0.0
  0
LINE
  5
1223
  8
001
 10
-0.7626553797654198
 20
47.484530717480148
 30
0.0
 11
-0.6255323797654171
 21
47.621653717480172
 31
0.0
  0
POLYLINE
  5
1224
  8
001
 66
     1
 10
0.0
 20
0.0
 30
0.0
  0
VERTEX
  5
1C47
  8
001
 10
-1.331242379765426
 20
48.514329717480102
 30
0.0
  0
VERTEX
  5
1C48
  8
001
 10
-1.335795379765442
 20
48.520074717480163
 30
0.0
  0
VERTEX
  5
1C49
  8
001
 10
-1.342511379765426
 20
48.527618717480152
 30
0.0
  0
VERTEX
  5
1C4A
  8
001
 10
-1.3491573797654151
 20
48.533853717480142
 30
0.0
  0
VERTEX
  5
1C4B
  8
001
 10
-1.3557993797654431
 20
48.538887717480108
 30
0.0
  0
VERTEX
  5
1C4C
  8
001
 10
-1.370472379765431
 20
48.547535717480123
 30
0.0
  0
VERTEX
  5
1C4D
  8
001
 10
-1.3867683797654411
 20
48.554071717480099
 30
0.0
  0
VERTEX
  5
1C4E
  8
001
 10
-1.411803379765415
 20
48.558255717480172
 30
0.0
  0
VERTEX
  5
1C4F
  8
001
 10
-1.436971379765424
 20
48.555632717480137
 30
0.0
  0
VERTEX
  5
1C50
  8
001
 10
-1.4450243797654421
 20
48.553267717480139
 30
0.0
  0
VERTEX
  5
1C51
  8
001
 10
-1.452678379765415
 20
48.550344717480201
 30
0.0
  0
VERTEX
  5
1C52
  8
001
 10
-1.4597993797654281
 20
48.546927717480123
 30
0.0
  0
VERTEX
  5
1C53
  8
001
 10
-1.467055379765412
 20
48.542346717480143
 30
0.0
  0
VERTEX
  5
1C54
  8
001
 10
-1.47452637976545
 20
48.536485717480097
 30
0.0
  0
VERTEX
  5
1C55
  8
001
 10
-1.479668379765428
 20
48.53188271748013
 30
0.0
  0
SEQEND
  5
1C56
  8
001
  0
POLYLINE
  5
1235
  8
001
 66
     1
 10
0.0
 20
0.0
 30
0.0
  0
VERTEX
  5
1C57
  8
001
 10
-0.5308473797654472
 20
47.497640717480181
 30
0.0
  0
VERTEX
  5
1C58
  8
001
 10
-0.5238543797654245
 20
47.498392717480137
 30
0.0
  0
VERTEX
  5
1C59
  8
001
 10
-0.5142903797654415
 20
47.500057717480153
 30
0.0
  0
VERTEX
  5
1C5A
  8
001
 10
-0.5059013797654473
 20
47.502431717480128
 30
0.0
  0
VERTEX
  5
1C5B
  8
001
 10
-0.4985833797654209
 20
47.505346717480087
 30
0.0
  0
VERTEX
  5
1C5C
  8
001
 10
-0.4915503797654425
 20
47.508760717480108
 30
0.0
  0
VERTEX
  5
1C5D
  8
001
 10
-0.4842063797654248
 20
47.51334371748014
 30
0.0
  0
VERTEX
  5
1C5E
  8
001
 10
-0.4767173797654324
 20
47.519205717480133
 30
0.0
  0
VERTEX
  5
1C5F
  8
001
 10
-0.4715933797654374
 20
47.523807717480167
 30
0.0
  0
SEQEND
  5
1C60
  8
001
  0
LINE
  5
1240
  8
001
 10
-0.3026563797654092
 20
46.933052717480088
 30
0.0
 11
-0.2757203797654313
 21
46.959988717480137
 31
0.0
  0
LINE
  5
1241
  8
001
 10
-1.9574853797654139
 20
48.813757717480151
 30
0.0
 11
-2.0704233797654279
 21
48.700819717480151
 31
0.0
  0
POLYLINE
  5
1242
  8
001
 66
     1
 10
0.0
 20
0.0
 30
0.0
  0
VERTEX
  5
1C61
  8
001
 10
0.0974356202345632
 20
48.172402717480097
 30
0.0
  0
VERTEX
  5
1C62
  8
001
 10
0.093514620234572
 20
48.186650717480113
 30
0.0
  0
VERTEX
  5
1C63
  8
001
 10
0.0876426202345897
 20
48.207235717480089
 30
0.0
  0
VERTEX
  5
1C64
  8
001
 10
0.0050376202345603
 20
48.422827717480118
 30
0.0
  0
VERTEX
  5
1C65
  8
001
 10
-0.1021563797654323
 20
48.59435071748009
 30
0.0
  0
VERTEX
  5
1C66
  8
001
 10
-0.1688283797654151
 20
48.678929717480123
 30
0.0
  0
VERTEX
  5
1C67
  8
001
 10
-0.2430223797654492
 20
48.760453717480118
 30
0.0
  0
VERTEX
  5
1C68
  8
001
 10
-0.3232633797654216
 20
48.834683717480118
 30
0.0
  0
VERTEX
  5
1C69
  8
001
 10
-0.4091253797654418
 20
48.901319717480128
 30
0.0
  0
VERTEX
  5
1C6A
  8
001
 10
-0.5944383797654214
 20
49.011908717480132
 30
0.0
  0
VERTEX
  5
1C6B
  8
001
 10
-0.7962413797654336
 20
49.091118717480128
 30
0.0
  0
VERTEX
  5
1C6C
  8
001
 10
-1.108441379765422
 20
49.142455717480182
 30
0.0
  0
VERTEX
  5
1C6D
  8
001
 10
-1.423777379765454
 20
49.110629717480087
 30
0.0
  0
VERTEX
  5
1C6E
  8
001
 10
-1.524477379765443
 20
49.081113717480143
 30
0.0
  0
VERTEX
  5
1C6F
  8
001
 10
-1.6201053797654179
 20
49.044527717480094
 30
0.0
  0
VERTEX
  5
1C70
  8
001
 10
-1.70911137976543
 20
49.001802717480132
 30
0.0
  0
VERTEX
  5
1C71
  8
001
 10
-1.7998283797654151
 20
48.944558717480113
 30
0.0
  0
VERTEX
  5
1C72
  8
001
 10
-1.893216379765418
 20
48.871292717480173
 30
0.0
  0
VERTEX
  5
1C73
  8
001
 10
-1.9574853797654139
 20
48.813757717480151
 30
0.0
  0
SEQEND
  5
1C74
  8
001
  0
POLYLINE
  5
1257
  8
001
 66
     1
 10
0.0
 20
0.0
 30
0.0
  0
VERTEX
  5
1C75
  8
001
 10
-1.9200973797654211
 20
48.826562717480151
 30
0.0
  0
VERTEX
  5
1C76
  8
001
 10
-1.952369379765428
 20
48.803112717480133
 30
0.0
  0
VERTEX
  5
1C77
  8
001
 10
-1.998086379765424
 20
48.766999717480132
 30
0.0
  0
VERTEX
  5
1C78
  8
001
 10
-2.0416673797654421
 20
48.72841771748017
 30
0.0
  0
VERTEX
  5
1C79
  8
001
 10
-2.0704233797654279
 20
48.700819717480151
 30
0.0
  0
SEQEND
  5
1C7A
  8
001
  0
POLYLINE
  5
125E
  8
001
 66
     1
 10
0.0
 20
0.0
 30
0.0
  0
VERTEX
  5
1C7B
  8
001
 10
-0.4563913797654209
 20
46.804947717480147
 30
0.0
  0
VERTEX
  5
1C7C
  8
001
 10
-0.4233563797654086
 20
46.828784717480183
 30
0.0
  0
VERTEX
  5
1C7D
  8
001
 10
-0.3765823797654093
 20
46.865545717480138
 30
0.0
  0
VERTEX
  5
1C7E
  8
001
 10
-0.3320323797654225
 20
46.904884717480172
 30
0.0
  0
VERTEX
  5
1C7F
  8
001
 10
-0.3026563797654092
 20
46.933052717480088
 30
0.0
  0
SEQEND
  5
1C80
  8
001
  0
POLYLINE
  5
1265
  8
001
 66
     1
 10
0.0
 20
0.0
 30
0.0
  0
VERTEX
  5
1C81
  8
001
 10
-0.2757103797654281
 20
46.959998717480119
 30
0.0
  0
VERTEX
  5
1C82
  8
001
 10
-0.26756337976542
 20
46.968249717480127
 30
0.0
  0
VERTEX
  5
1C83
  8
001
 10
-0.2594543797654296
 20
46.976538717480139
 30
0.0
  0
VERTEX
  5
1C84
  8
001
 10
-0.2230283797654238
 20
47.015648717480133
 30
0.0
  0
VERTEX
  5
1C85
  8
001
 10
-0.1881943797654344
 20
47.056196717480127
 30
0.0
  0
VERTEX
  5
1C86
  8
001
 10
-0.152904379765431
 20
47.100730717480133
 30
0.0
  0
VERTEX
  5
1C87
  8
001
 10
-0.1194683797654363
 20
47.146667717480149
 30
0.0
  0
VERTEX
  5
1C88
  8
001
 10
-0.0879593797654366
 20
47.193950717480092
 30
0.0
  0
VERTEX
  5
1C89
  8
001
 10
-0.0584433797654356
 20
47.242504717480131
 30
0.0
  0
VERTEX
  5
1C8A
  8
001
 10
-0.0302103797654354
 20
47.293708717480087
 30
0.0
  0
VERTEX
  5
1C8B
  8
001
 10
-0.0041993797654243
 20
47.346077717480092
 30
0.0
  0
VERTEX
  5
1C8C
  8
001
 10
0.0195386202345844
 20
47.39951771748013
 30
0.0
  0
VERTEX
  5
1C8D
  8
001
 10
0.0409426202345742
 20
47.453934717480131
 30
0.0
  0
VERTEX
  5
1C8E
  8
001
 10
0.0594356202345807
 20
47.507605717480139
 30
0.0
  0
VERTEX
  5
1C8F
  8
001
 10
0.0756426202345892
 20
47.562011717480168
 30
0.0
  0
VERTEX
  5
1C90
  8
001
 10
0.0895336202345618
 20
47.617057717480108
 30
0.0
  0
VERTEX
  5
1C91
  8
001
 10
0.1010756202345533
 20
47.672646717480099
 30
0.0
  0
VERTEX
  5
1C92
  8
001
 10
0.1104746202345552
 20
47.730417717480179
 30
0.0
  0
VERTEX
  5
1C93
  8
001
 10
0.1172966202345833
 20
47.788543717480131
 30
0.0
  0
VERTEX
  5
1C94
  8
001
 10
0.1215216202345744
 20
47.846913717480149
 30
0.0
  0
VERTEX
  5
1C95
  8
001
 10
0.1232276202345588
 20
47.905431717480099
 30
0.0
  0
VERTEX
  5
1C96
  8
001
 10
0.1221066202345753
 20
47.972256717480143
 30
0.0
  0
VERTEX
  5
1C97
  8
001
 10
0.1172586202345656
 20
48.038866717480118
 30
0.0
  0
VERTEX
  5
1C98
  8
001
 10
0.1084466202345879
 20
48.105764717480142
 30
0.0
  0
VERTEX
  5
1C99
  8
001
 10
0.0974356202345632
 20
48.172402717480097
 30
0.0
  0
SEQEND
  5
1C9A
  8
001
  0
POLYLINE
  5
1280
  8
001
 66
     1
 10
0.0
 20
0.0
 30
0.0
  0
VERTEX
  5
1C9B
  8
001
 10
-0.9926583797654304
 20
48.260077717480101
 30
0.0
  0
VERTEX
  5
1C9C
  8
001
 10
-1.0313873797654181
 20
48.277938717480133
 30
0.0
  0
VERTEX
  5
1C9D
  8
001
 10
-1.0897873797654241
 20
48.299085717480132
 30
0.0
  0
VERTEX
  5
1C9E
  8
001
 10
-1.149680379765412
 20
48.313013717480153
 30
0.0
  0
VERTEX
  5
1C9F
  8
001
 10
-1.1914683797654391
 20
48.319038717480183
 30
0.0
  0
SEQEND
  5
1CA0
  8
001
  0
LINE
  5
1287
  8
001
 10
-0.9926583797654304
 20
48.260077717480101
 30
0.0
 11
-0.7842573797654211
 21
48.352110717480123
 31
0.0
  0
POLYLINE
  5
1288
  8
001
 66
     1
 10
0.0
 20
0.0
 30
0.0
  0
VERTEX
  5
1CA1
  8
001
 10
-0.6513653797654229
 20
48.219218717480139
 30
0.0
  0
VERTEX
  5
1CA2
  8
001
 10
-0.6489443797654249
 20
48.225629717480089
 30
0.0
  0
VERTEX
  5
1CA3
  8
001
 10
-0.646077379765444
 20
48.234924717480183
 30
0.0
  0
VERTEX
  5
1CA4
  8
001
 10
-0.6430203797654315
 20
48.261424717480168
 30
0.0
  0
VERTEX
  5
1CA5
  8
001
 10
-0.6476373797654276
 20
48.285127717480123
 30
0.0
  0
VERTEX
  5
1CA6
  8
001
 10
-0.6540243797654455
 20
48.301084717480137
 30
0.0
  0
VERTEX
  5
1CA7
  8
001
 10
-0.6628213797654327
 20
48.3160967174801
 30
0.0
  0
VERTEX
  5
1CA8
  8
001
 10
-0.6681823797654261
 20
48.322990717480138
 30
0.0
  0
VERTEX
  5
1CA9
  8
001
 10
-0.6740913797654287
 20
48.329384717480153
 30
0.0
  0
VERTEX
  5
1CAA
  8
001
 10
-0.6804853797654289
 20
48.335293717480099
 30
0.0
  0
VERTEX
  5
1CAB
  8
001
 10
-0.6873793797654173
 20
48.340654717480113
 30
0.0
  0
VERTEX
  5
1CAC
  8
001
 10
-0.7023923797654277
 20
48.349451717480108
 30
0.0
  0
VERTEX
  5
1CAD
  8
001
 10
-0.7183483797654449
 20
48.355838717480133
 30
0.0
  0
VERTEX
  5
1CAE
  8
001
 10
-0.742051379765428
 20
48.360455717480129
 30
0.0
  0
VERTEX
  5
1CAF
  8
001
 10
-0.7685513797654267
 20
48.357399717480121
 30
0.0
  0
VERTEX
  5
1CB0
  8
001
 10
-0.7778463797654354
 20
48.354531717480143
 30
0.0
  0
VERTEX
  5
1CB1
  8
001
 10
-0.7842573797654211
 20
48.352110717480123
 30
0.0
  0
SEQEND
  5
1CB2
  8
001
  0
LINE
  5
129B
  8
001
 10
-0.6513653797654229
 20
48.219218717480139
 30
0.0
 11
-0.7433983797654378
 21
48.010817717480151
 31
0.0
  0
POLYLINE
  5
129C
  8
001
 66
     1
 10
0.0
 20
0.0
 30
0.0
  0
VERTEX
  5
1CB3
  8
001
 10
-0.6844383797654247
 20
47.812007717480142
 30
0.0
  0
VERTEX
  5
1CB4
  8
001
 10
-0.6904623797654211
 20
47.853795717480118
 30
0.0
  0
VERTEX
  5
1CB5
  8
001
 10
-0.7043903797654423
 20
47.91368871748017
 30
0.0
  0
VERTEX
  5
1CB6
  8
001
 10
-0.7255373797654272
 20
47.972088717480183
 30
0.0
  0
VERTEX
  5
1CB7
  8
001
 10
-0.7433983797654378
 20
48.010817717480151
 30
0.0
  0
SEQEND
  5
1CB8
  8
001
  0
LINE
  5
12A3
  8
001
 10
-0.6844383797654247
 20
47.812007717480142
 30
0.0
 11
-0.4891463797654298
 21
47.672233717480147
 31
0.0
  0
POLYLINE
  5
12A4
  8
001
 66
     1
 10
0.0
 20
0.0
 30
0.0
  0
VERTEX
  5
1CB9
  8
001
 10
-0.4715933797654374
 20
47.523807717480167
 30
0.0
  0
VERTEX
  5
1CBA
  8
001
 10
-0.4669913797654317
 20
47.528949717480138
 30
0.0
  0
VERTEX
  5
1CBB
  8
001
 10
-0.4611293797654242
 20
47.536420717480141
 30
0.0
  0
VERTEX
  5
1CBC
  8
001
 10
-0.4565493797654483
 20
47.543676717480132
 30
0.0
  0
VERTEX
  5
1CBD
  8
001
 10
-0.4531323797654352
 20
47.550798717480099
 30
0.0
  0
VERTEX
  5
1CBE
  8
001
 10
-0.4502093797654254
 20
47.558451717480132
 30
0.0
  0
VERTEX
  5
1CBF
  8
001
 10
-0.4478433797654306
 20
47.566504717480143
 30
0.0
  0
VERTEX
  5
1CC0
  8
001
 10
-0.4452203797654306
 20
47.591672717480137
 30
0.0
  0
VERTEX
  5
1CC1
  8
001
 10
-0.4494043797654115
 20
47.616707717480139
 30
0.0
  0
VERTEX
  5
1CC2
  8
001
 10
-0.4559403797654227
 20
47.63300371748015
 30
0.0
  0
VERTEX
  5
1CC3
  8
001
 10
-0.4645883797654166
 20
47.64767671748011
 30
0.0
  0
VERTEX
  5
1CC4
  8
001
 10
-0.4696223797654399
 20
47.654318717480109
 30
0.0
  0
VERTEX
  5
1CC5
  8
001
 10
-0.4758583797654127
 20
47.660964717480098
 30
0.0
  0
VERTEX
  5
1CC6
  8
001
 10
-0.4834013797654393
 20
47.667680717480138
 30
0.0
  0
VERTEX
  5
1CC7
  8
001
 10
-0.4891463797654298
 20
47.672233717480147
 30
0.0
  0
SEQEND
  5
1CC8
  8
001
  0
LINE
  5
12B5
  8
001
 10
-0.5308473797654472
 20
47.497640717480181
 30
0.0
 11
-0.7626553797654198
 21
47.484530717480148
 31
0.0
  0
POLYLINE
  5
12B6
  8
001
 66
     1
 10
0.0
 20
0.0
 30
0.0
  0
VERTEX
  5
1CC9
  8
001
 10
-0.8253273797654401
 20
47.407354717480132
 30
0.0
  0
VERTEX
  5
1CCA
  8
001
 10
-0.8007423797654381
 20
47.434156717480093
 30
0.0
  0
VERTEX
  5
1CCB
  8
001
 10
-0.7682953797654477
 20
47.476097717480087
 30
0.0
  0
VERTEX
  5
1CCC
  8
001
 10
-0.764927379765453
 20
47.481091717480112
 30
0.0
  0
VERTEX
  5
1CCD
  8
001
 10
-0.7626553797654198
 20
47.484530717480148
 30
0.0
  0
SEQEND
  5
1CCE
  8
001
  0
LINE
  5
12BD
  8
001
 10
-0.9025033797654201
 20
47.344682717480147
 30
0.0
 11
-0.9156123797654343
 21
47.112874717480167
 31
0.0
  0
POLYLINE
  5
12BE
  8
001
 66
     1
 10
0.0
 20
0.0
 30
0.0
  0
VERTEX
  5
1CCF
  8
001
 10
-0.941780379765419
 20
47.053620717480143
 30
0.0
  0
VERTEX
  5
1CD0
  8
001
 10
-0.9371783797654131
 20
47.058744717480181
 30
0.0
  0
VERTEX
  5
1CD1
  8
001
 10
-0.9313163797654341
 20
47.066233717480152
 30
0.0
  0
VERTEX
  5
1CD2
  8
001
 10
-0.9267333797654374
 20
47.073577717480127
 30
0.0
  0
VERTEX
  5
1CD3
  8
001
 10
-0.9233193797654449
 20
47.080611717480153
 30
0.0
  0
VERTEX
  5
1CD4
  8
001
 10
-0.9204043797654152
 20
47.087928717480153
 30
0.0
  0
VERTEX
  5
1CD5
  8
001
 10
-0.918030379765412
 20
47.096317717480133
 30
0.0
  0
VERTEX
  5
1CD6
  8
001
 10
-0.9163653797654376
 20
47.105881717480138
 30
0.0
  0
VERTEX
  5
1CD7
  8
001
 10
-0.9156123797654343
 20
47.112874717480167
 30
0.0
  0
SEQEND
  5
1CD8
  8
001
  0
LINE
  5
12C9
  8
001
 10
-1.090206379765418
 20
47.071173717480107
 30
0.0
 11
-1.2299803797654061
 21
47.266465717480173
 31
0.0
  0
POLYLINE
  5
12CA
  8
001
 66
     1
 10
0.0
 20
0.0
 30
0.0
  0
VERTEX
  5
1CD9
  8
001
 10
-1.4287903797654149
 20
47.325426717480127
 30
0.0
  0
VERTEX
  5
1CDA
  8
001
 10
-1.3900613797654271
 20
47.307564717480147
 30
0.0
  0
VERTEX
  5
1CDB
  8
001
 10
-1.3316613797654211
 20
47.286417717480148
 30
0.0
  0
VERTEX
  5
1CDC
  8
001
 10
-1.2717683797654331
 20
47.272489717480127
 30
0.0
  0
VERTEX
  5
1CDD
  8
001
 10
-1.2299803797654061
 20
47.266465717480173
 30
0.0
  0
SEQEND
  5
1CDE
  8
001
  0
LINE
  5
12D1
  8
001
 10
-1.4287903797654149
 20
47.325426717480127
 30
0.0
 11
-1.6371913797654241
 21
47.233392717480172
 31
0.0
  0
POLYLINE
  5
12D2
  8
001
 66
     1
 10
0.0
 20
0.0
 30
0.0
  0
VERTEX
  5
1CDF
  8
001
 10
-1.7700833797654241
 20
47.366284717480141
 30
0.0
  0
VERTEX
  5
1CE0
  8
001
 10
-1.7725043797654221
 20
47.359873717480113
 30
0.0
  0
VERTEX
  5
1CE1
  8
001
 10
-1.77537137976543
 20
47.350578717480097
 30
0.0
  0
VERTEX
  5
1CE2
  8
001
 10
-1.7784283797654139
 20
47.324078717480099
 30
0.0
  0
VERTEX
  5
1CE3
  8
001
 10
-1.773811379765418
 20
47.300375717480087
 30
0.0
  0
VERTEX
  5
1CE4
  8
001
 10
-1.7674243797654281
 20
47.284419717480141
 30
0.0
  0
VERTEX
  5
1CE5
  8
001
 10
-1.758627379765441
 20
47.26940671748013
 30
0.0
  0
VERTEX
  5
1CE6
  8
001
 10
-1.7532663797654191
 20
47.262512717480142
 30
0.0
  0
VERTEX
  5
1CE7
  8
001
 10
-1.7473573797654181
 20
47.256118717480142
 30
0.0
  0
VERTEX
  5
1CE8
  8
001
 10
-1.740963379765418
 20
47.250209717480168
 30
0.0
  0
VERTEX
  5
1CE9
  8
001
 10
-1.7340693797654281
 20
47.24484871748011
 30
0.0
  0
VERTEX
  5
1CEA
  8
001
 10
-1.7190573797654161
 20
47.236051717480137
 30
0.0
  0
VERTEX
  5
1CEB
  8
001
 10
-1.7031003797654301
 20
47.229665717480138
 30
0.0
  0
VERTEX
  5
1CEC
  8
001
 10
-1.679397379765446
 20
47.225047717480138
 30
0.0
  0
VERTEX
  5
1CED
  8
001
 10
-1.652897379765448
 20
47.2281047174801
 30
0.0
  0
VERTEX
  5
1CEE
  8
001
 10
-1.6436023797654391
 20
47.230971717480067
 30
0.0
  0
VERTEX
  5
1CEF
  8
001
 10
-1.6371913797654241
 20
47.233392717480172
 30
0.0
  0
SEQEND
  5
1CF0
  8
001
  0
LINE
  5
12E5
  8
001
 10
-1.7700833797654241
 20
47.366284717480141
 30
0.0
 11
-1.678050379765436
 21
47.574685717480108
 31
0.0
  0
POLYLINE
  5
12E6
  8
001
 66
     1
 10
0.0
 20
0.0
 30
0.0
  0
VERTEX
  5
1CF1
  8
001
 10
-1.7370113797654181
 20
47.773495717480152
 30
0.0
  0
VERTEX
  5
1CF2
  8
001
 10
-1.730986379765425
 20
47.731707717480163
 30
0.0
  0
VERTEX
  5
1CF3
  8
001
 10
-1.7170583797654331
 20
47.671814717480117
 30
0.0
  0
VERTEX
  5
1CF4
  8
001
 10
-1.6959113797654191
 20
47.613414717480097
 30
0.0
  0
VERTEX
  5
1CF5
  8
001
 10
-1.678050379765436
 20
47.574685717480108
 30
0.0
  0
SEQEND
  5
1CF6
  8
001
  0
LINE
  5
12ED
  8
001
 10
-1.7370113797654181
 20
47.773495717480152
 30
0.0
 11
-1.9323023797654439
 21
47.913269717480148
 31
0.0
  0
POLYLINE
  5
12EE
  8
001
 66
     1
 10
0.0
 20
0.0
 30
0.0
  0
VERTEX
  5
1CF7
  8
001
 10
-1.949855379765409
 20
48.061695717480113
 30
0.0
  0
VERTEX
  5
1CF8
  8
001
 10
-1.9544583797654109
 20
48.056553717480142
 30
0.0
  0
VERTEX
  5
1CF9
  8
001
 10
-1.960319379765421
 20
48.049082717480132
 30
0.0
  0
VERTEX
  5
1CFA
  8
001
 10
-1.9649003797654521
 20
48.041826717480141
 30
0.0
  0
VERTEX
  5
1CFB
  8
001
 10
-1.9683173797654361
 20
48.034705717480151
 30
0.0
  0
VERTEX
  5
1CFC
  8
001
 10
-1.9712403797654181
 20
48.027051717480163
 30
0.0
  0
VERTEX
  5
1CFD
  8
001
 10
-1.9736053797654161
 20
48.018998717480137
 30
0.0
  0
VERTEX
  5
1CFE
  8
001
 10
-1.9762283797654161
 20
47.99383071748013
 30
0.0
  0
VERTEX
  5
1CFF
  8
001
 10
-1.972044379765435
 20
47.968795717480127
 30
0.0
  0
VERTEX
  5
1D00
  8
001
 10
-1.965508379765424
 20
47.952499717480109
 30
0.0
  0
VERTEX
  5
1D01
  8
001
 10
-1.9568603797654289
 20
47.937826717480149
 30
0.0
  0
VERTEX
  5
1D02
  8
001
 10
-1.951826379765434
 20
47.93118471748015
 30
0.0
  0
VERTEX
  5
1D03
  8
001
 10
-1.9455913797654301
 20
47.924538717480168
 30
0.0
  0
VERTEX
  5
1D04
  8
001
 10
-1.9380473797654361
 20
47.917822717480128
 30
0.0
  0
VERTEX
  5
1D05
  8
001
 10
-1.9323023797654439
 20
47.913269717480148
 30
0.0
  0
SEQEND
  5
1D06
  8
001
  0
LINE
  5
12FF
  8
001
 10
-1.890601379765428
 20
48.087863717480147
 30
0.0
 11
-1.6587933797654271
 21
48.100972717480147
 31
0.0
  0
POLYLINE
  5
1300
  8
001
 66
     1
 10
0.0
 20
0.0
 30
0.0
  0
VERTEX
  5
1D07
  8
001
 10
-1.596121379765435
 20
48.178148717480099
 30
0.0
  0
VERTEX
  5
1D08
  8
001
 10
-1.620706379765408
 20
48.151346717480138
 30
0.0
  0
VERTEX
  5
1D09
  8
001
 10
-1.6531533797654261
 20
48.109405717480172
 30
0.0
  0
VERTEX
  5
1D0A
  8
001
 10
-1.656521379765421
 20
48.104411717480147
 30
0.0
  0
VERTEX
  5
1D0B
  8
001
 10
-1.6587933797654271
 20
48.100972717480147
 30
0.0
  0
SEQEND
  5
1D0C
  8
001
  0
LINE
  5
1307
  8
001
 10
-1.5189453797654251
 20
48.240820717480119
 30
0.0
 11
-1.5058363797654111
 21
48.472628717480113
 31
0.0
  0
POLYLINE
  5
1308
  8
001
 66
     1
 10
0.0
 20
0.0
 30
0.0
  0
VERTEX
  5
1D0D
  8
001
 10
-1.479668379765428
 20
48.53188271748013
 30
0.0
  0
VERTEX
  5
1D0E
  8
001
 10
-1.4842703797654331
 20
48.526758717480099
 30
0.0
  0
VERTEX
  5
1D0F
  8
001
 10
-1.490132379765412
 20
48.519269717480142
 30
0.0
  0
VERTEX
  5
1D10
  8
001
 10
-1.494715379765438
 20
48.511925717480089
 30
0.0
  0
VERTEX
  5
1D11
  8
001
 10
-1.4981303797654271
 20
48.504892717480168
 30
0.0
  0
VERTEX
  5
1D12
  8
001
 10
-1.50104437976543
 20
48.497574717480113
 30
0.0
  0
VERTEX
  5
1D13
  8
001
 10
-1.503418379765435
 20
48.489185717480147
 30
0.0
  0
VERTEX
  5
1D14
  8
001
 10
-1.5050833797654359
 20
48.479621717480143
 30
0.0
  0
VERTEX
  5
1D15
  8
001
 10
-1.5058363797654111
 20
48.472628717480113
 30
0.0
  0
SEQEND
  5
1D16
  8
001
  0
LINE
  5
1313
  8
001
 10
-1.331242379765426
 20
48.514329717480102
 30
0.0
 11
-1.1914683797654391
 21
48.319038717480183
 31
0.0
  0
POLYLINE
  5
1314
  8
001
 66
     1
 10
0.0
 20
0.0
 30
0.0
  0
VERTEX
  5
1D17
  8
001
 10
-2.0704233797654279
 20
48.700819717480151
 30
0.0
  0
VERTEX
  5
1D18
  8
001
 10
-2.1268063797654122
 20
48.639356717480091
 30
0.0
  0
VERTEX
  5
1D19
  8
001
 10
-2.2012233797654499
 20
48.543162717480143
 30
0.0
  0
VERTEX
  5
1D1A
  8
001
 10
-2.201945379765446
 20
48.542106717480117
 30
0.0
  0
VERTEX
  5
1D1B
  8
001
 10
-2.2024383797654239
 20
48.541383717480137
 30
0.0
  0
SEQEND
  5
1D1C
  8
001
  0
POLYLINE
  5
131B
  8
001
 66
     1
 10
0.0
 20
0.0
 30
0.0
  0
VERTEX
  5
1D1D
  8
001
 10
-0.3026563797654092
 20
46.933052717480088
 30
0.0
  0
VERTEX
  5
1D1E
  8
001
 10
-0.2462733797654266
 20
46.994515717480148
 30
0.0
  0
VERTEX
  5
1D1F
  8
001
 10
-0.1718563797654156
 20
47.090709717480152
 30
0.0
  0
VERTEX
  5
1D20
  8
001
 10
-0.1714293797654136
 20
47.091333717480147
 30
0.0
  0
VERTEX
  5
1D21
  8
001
 10
-0.1711383797654378
 20
47.091760717480142
 30
0.0
  0
SEQEND
  5
1D22
  8
001
  0
POLYLINE
  5
1322
  8
001
 66
     1
 10
0.0
 20
0.0
 30
0.0
  0
VERTEX
  5
1D23
  8
001
 10
-2.2038133797654198
 20
48.53972571748011
 30
0.0
  0
VERTEX
  5
1D24
  8
001
 10
-2.222035379765428
 20
48.511759717480167
 30
0.0
  0
VERTEX
  5
1D25
  8
001
 10
-2.239732379765428
 20
48.483470717480152
 30
0.0
  0
VERTEX
  5
1D26
  8
001
 10
-2.2598333797654102
 20
48.448550717480138
 30
0.0
  0
VERTEX
  5
1D27
  8
001
 10
-2.278568379765431
 20
48.412863717480143
 30
0.0
  0
VERTEX
  5
1D28
  8
001
 10
-2.2961013797654442
 20
48.37647371748011
 30
0.0
  0
VERTEX
  5
1D29
  8
001
 10
-2.3123603797654351
 20
48.339504717480111
 30
0.0
  0
VERTEX
  5
1D2A
  8
001
 10
-2.3273293797654162
 20
48.301871717480147
 30
0.0
  0
VERTEX
  5
1D2B
  8
001
 10
-2.3409513797654422
 20
48.263729717480139
 30
0.0
  0
VERTEX
  5
1D2C
  8
001
 10
-2.3532643797654189
 20
48.225011717480129
 30
0.0
  0
VERTEX
  5
1D2D
  8
001
 10
-2.3642123797654322
 20
48.185886717480173
 30
0.0
  0
VERTEX
  5
1D2E
  8
001
 10
-2.373816379765429
 20
48.146264717480101
 30
0.0
  0
VERTEX
  5
1D2F
  8
001
 10
-2.382032379765433
 20
48.106332717480143
 30
0.0
  0
VERTEX
  5
1D30
  8
001
 10
-2.388880379765423
 20
48.065988717480153
 30
0.0
  0
VERTEX
  5
1D31
  8
001
 10
-2.394328379765426
 20
48.025432717480157
 30
0.0
  0
VERTEX
  5
1D32
  8
001
 10
-2.3983893797654319
 20
47.984553717480154
 30
0.0
  0
VERTEX
  5
1D33
  8
001
 10
-2.4010423797654421
 20
47.943559717480127
 30
0.0
  0
VERTEX
  5
1D34
  8
001
 10
-2.4022953797654321
 20
47.902333717480133
 30
0.0
  0
VERTEX
  5
1D35
  8
001
 10
-2.402141379765423
 20
47.861089717480127
 30
0.0
  0
VERTEX
  5
1D36
  8
001
 10
-2.400578379765419
 20
47.819709717480123
 30
0.0
  0
VERTEX
  5
1D37
  8
001
 10
-2.397616379765422
 20
47.77840571748014
 30
0.0
  0
VERTEX
  5
1D38
  8
001
 10
-2.3932453797654301
 20
47.737061717480167
 30
0.0
  0
VERTEX
  5
1D39
  8
001
 10
-2.3874883797654141
 20
47.695887717480097
 30
0.0
  0
VERTEX
  5
1D3A
  8
001
 10
-2.3803273797654461
 20
47.654771717480088
 30
0.0
  0
VERTEX
  5
1D3B
  8
001
 10
-2.3717993797654331
 20
47.613917717480142
 30
0.0
  0
VERTEX
  5
1D3C
  8
001
 10
-2.3618823797654311
 20
47.5732227174801
 30
0.0
  0
VERTEX
  5
1D3D
  8
001
 10
-2.3506223797654391
 20
47.532877717480119
 30
0.0
  0
VERTEX
  5
1D3E
  8
001
 10
-2.3379933797654351
 20
47.492790717480148
 30
0.0
  0
VERTEX
  5
1D3F
  8
001
 10
-2.3240523797654471
 20
47.453141717480143
 30
0.0
  0
VERTEX
  5
1D40
  8
001
 10
-2.3087703797654342
 20
47.413849717480147
 30
0.0
  0
VERTEX
  5
1D41
  8
001
 10
-2.2922103797654341
 20
47.375079717480091
 30
0.0
  0
VERTEX
  5
1D42
  8
001
 10
-2.2743463797654311
 20
47.336766717480138
 30
0.0
  0
VERTEX
  5
1D43
  8
001
 10
-2.2552433797654312
 20
47.299055717480137
 30
0.0
  0
VERTEX
  5
1D44
  8
001
 10
-2.2348793797654301
 20
47.261899717480162
 30
0.0
  0
VERTEX
  5
1D45
  8
001
 10
-2.2133213797654321
 20
47.2254227174801
 30
0.0
  0
VERTEX
  5
1D46
  8
001
 10
-2.1905523797654478
 20
47.189594717480126
 30
0.0
  0
VERTEX
  5
1D47
  8
001
 10
-2.166637379765433
 20
47.154521717480108
 30
0.0
  0
VERTEX
  5
1D48
  8
001
 10
-2.1415673797654322
 20
47.120189717480088
 30
0.0
  0
VERTEX
  5
1D49
  8
001
 10
-2.1154053797654342
 20
47.086683717480142
 30
0.0
  0
VERTEX
  5
1D4A
  8
001
 10
-2.0881523797654311
 20
47.05400771748014
 30
0.0
  0
VERTEX
  5
1D4B
  8
001
 10
-2.0598633797654311
 20
47.022224717480107
 30
0.0
  0
VERTEX
  5
1D4C
  8
001
 10
-2.030555379765417
 20
46.991351717480143
 30
0.0
  0
VERTEX
  5
1D4D
  8
001
 10
-2.000267379765432
 20
46.961442717480168
 30
0.0
  0
VERTEX
  5
1D4E
  8
001
 10
-1.9690303797654281
 20
46.932532717480171
 30
0.0
  0
VERTEX
  5
1D4F
  8
001
 10
-1.9368923797654241
 20
46.904622717480137
 30
0.0
  0
VERTEX
  5
1D50
  8
001
 10
-1.9039103797654191
 20
46.877751717480109
 30
0.0
  0
VERTEX
  5
1D51
  8
001
 10
-1.8700333797654289
 20
46.852029717480143
 30
0.0
  0
VERTEX
  5
1D52
  8
001
 10
-1.854576379765432
 20
46.840898717480087
 30
0.0
  0
VERTEX
  5
1D53
  8
001
 10
-1.8390233797654501
 20
46.829898717480077
 30
0.0
  0
SEQEND
  5
1D54
  8
001
  0
POLYLINE
  5
1355
  8
001
 66
     1
 10
0.0
 20
0.0
 30
0.0
  0
VERTEX
  5
1D55
  8
001
 10
-0.6266913797654186
 20
46.707498717480107
 30
0.0
  0
VERTEX
  5
1D56
  8
001
 10
-0.6189733797654357
 20
46.711107717480147
 30
0.0
  0
VERTEX
  5
1D57
  8
001
 10
-0.6112693797654459
 20
46.714748717480113
 30
0.0
  0
VERTEX
  5
1D58
  8
001
 10
-0.5751793797654159
 20
46.732819717480133
 30
0.0
  0
VERTEX
  5
1D59
  8
001
 10
-0.5397683797654338
 20
46.75220571748013
 30
0.0
  0
VERTEX
  5
1D5A
  8
001
 10
-0.5051283797654094
 20
46.772767717480178
 30
0.0
  0
VERTEX
  5
1D5B
  8
001
 10
-0.4712733797654495
 20
46.794582717480111
 30
0.0
  0
VERTEX
  5
1D5C
  8
001
 10
-0.4646243797654394
 20
46.799083717480123
 30
0.0
  0
VERTEX
  5
1D5D
  8
001
 10
-0.4579933797654407
 20
46.803610717480119
 30
0.0
  0
SEQEND
  5
1D5E
  8
001
  0
POLYLINE
  5
1360
  8
001
 66
     1
 10
0.0
 20
0.0
 30
0.0
  0
VERTEX
  5
1D5F
  8
001
 10
-1.839037379765414
 20
46.829908717480109
 30
0.0
  0
VERTEX
  5
1D60
  8
001
 10
-1.8038583797654151
 20
46.80687071748013
 30
0.0
  0
VERTEX
  5
1D61
  8
001
 10
-1.7681963797654401
 20
46.784624717480142
 30
0.0
  0
VERTEX
  5
1D62
  8
001
 10
-1.725144379765424
 20
46.760273717480118
 30
0.0
  0
VERTEX
  5
1D63
  8
001
 10
-1.681042379765443
 20
46.737828717480163
 30
0.0
  0
VERTEX
  5
1D64
  8
001
 10
-1.6350143797654351
 20
46.7165747174801
 30
0.0
  0
VERTEX
  5
1D65
  8
001
 10
-1.588211379765424
 20
46.697110717480143
 30
0.0
  0
VERTEX
  5
1D66
  8
001
 10
-1.540745379765438
 20
46.679533717480112
 30
0.0
  0
VERTEX
  5
1D67
  8
001
 10
-1.492623379765432
 20
46.663825717480087
 30
0.0
  0
VERTEX
  5
1D68
  8
001
 10
-1.4424173797654301
 20
46.649586717480133
 30
0.0
  0
VERTEX
  5
1D69
  8
001
 10
-1.391687379765413
 20
46.637349717480163
 30
0.0
  0
VERTEX
  5
1D6A
  8
001
 10
-1.340608379765426
 20
46.627152717480087
 30
0.0
  0
VERTEX
  5
1D6B
  8
001
 10
-1.2891653797654199
 20
46.618991717480142
 30
0.0
  0
VERTEX
  5
1D6C
  8
001
 10
-1.236198379765425
 20
46.612770717480139
 30
0.0
  0
VERTEX
  5
1D6D
  8
001
 10
-1.1830213797654481
 20
46.608723717480132
 30
0.0
  0
VERTEX
  5
1D6E
  8
001
 10
-1.1297983797654461
 20
46.606871717480082
 30
0.0
  0
VERTEX
  5
1D6F
  8
001
 10
-1.076544379765437
 20
46.6072277174801
 30
0.0
  0
VERTEX
  5
1D70
  8
001
 10
-1.021700379765434
 20
46.609932717480142
 30
0.0
  0
VERTEX
  5
1D71
  8
001
 10
-0.9670273797654543
 20
46.615032717480169
 30
0.0
  0
VERTEX
  5
1D72
  8
001
 10
-0.9126043797654119
 20
46.622552717480097
 30
0.0
  0
VERTEX
  5
1D73
  8
001
 10
-0.8585753797654263
 20
46.632505717480171
 30
0.0
  0
VERTEX
  5
1D74
  8
001
 10
-0.8030363797654159
 20
46.645431717480093
 30
0.0
  0
VERTEX
  5
1D75
  8
001
 10
-0.7481843797654335
 20
46.661055717480153
 30
0.0
  0
VERTEX
  5
1D76
  8
001
 10
-0.6938743797654468
 20
46.679590717480139
 30
0.0
  0
VERTEX
  5
1D77
  8
001
 10
-0.6407353797654311
 20
46.701187717480138
 30
0.0
  0
VERTEX
  5
1D78
  8
001
 10
-0.6337413797654392
 20
46.704313717480147
 30
0.0
  0
VERTEX
  5
1D79
  8
001
 10
-0.6267603797654147
 20
46.70746871748014
 30
0.0
  0
SEQEND
  5
1D7A
  8
001
  0
LINE
  5
137D
  8
001
 10
-3.5127193797654281
 20
48.780663717480152
 30
0.0
 11
-1.830473379765436
 21
49.854806717480137
 31
0.0
  0
POLYLINE
  5
137E
  8
001
 66
     1
 10
0.0
 20
0.0
 30
0.0
  0
VERTEX
  5
1D7B
  8
001
 10
-4.186787379765434
 20
48.372688717480173
 30
0.0
  0
VERTEX
  5
1D7C
  8
001
 10
-4.1815653797654289
 20
48.375682717480167
 30
0.0
  0
VERTEX
  5
1D7D
  8
001
 10
-4.1739643797654349
 20
48.380043717480127
 30
0.0
  0
VERTEX
  5
1D7E
  8
001
 10
-4.0048553797654147
 20
48.478424717480138
 30
0.0
  0
VERTEX
  5
1D7F
  8
001
 10
-3.8645813797654101
 20
48.562251717480152
 30
0.0
  0
VERTEX
  5
1D80
  8
001
 10
-3.7243583797654192
 20
48.647722717480107
 30
0.0
  0
VERTEX
  5
1D81
  8
001
 10
-3.559203379765421
 20
48.751096717480102
 30
0.0
  0
VERTEX
  5
1D82
  8
001
 10
-3.531742379765431
 20
48.76854471748014
 30
0.0
  0
VERTEX
  5
1D83
  8
001
 10
-3.5127193797654281
 20
48.780663717480152
 30
0.0
  0
SEQEND
  5
1D84
  8
001
  0
POLYLINE
  5
1389
  8
001
 66
     1
 10
0.0
 20
0.0
 30
0.0
  0
VERTEX
  5
1D85
  8
001
 10
-1.36390937976543
 20
49.402966717480112
 30
0.0
  0
VERTEX
  5
1D86
  8
001
 10
-1.408497379765435
 20
49.397314717480143
 30
0.0
  0
VERTEX
  5
1D87
  8
001
 10
-1.471215379765425
 20
49.387685717480103
 30
0.0
  0
VERTEX
  5
1D88
  8
001
 10
-1.602627379765436
 20
49.358471717480143
 30
0.0
  0
VERTEX
  5
1D89
  8
001
 10
-1.716276379765445
 20
49.320013717480151
 30
0.0
  0
VERTEX
  5
1D8A
  8
001
 10
-1.8314213797654291
 20
49.270540717480173
 30
0.0
  0
VERTEX
  5
1D8B
  8
001
 10
-1.9462113797654279
 20
49.209512717480138
 30
0.0
  0
VERTEX
  5
1D8C
  8
001
 10
-2.2500813797654171
 20
48.963391717480143
 30
0.0
  0
VERTEX
  5
1D8D
  8
001
 10
-2.4789513797654461
 20
48.660474717480142
 30
0.0
  0
VERTEX
  5
1D8E
  8
001
 10
-2.5857073797654082
 20
48.438611717480171
 30
0.0
  0
VERTEX
  5
1D8F
  8
001
 10
-2.6518363797654261
 20
48.170946717480099
 30
0.0
  0
VERTEX
  5
1D90
  8
001
 10
-2.6664063797654181
 20
48.051877717480131
 30
0.0
  0
VERTEX
  5
1D91
  8
001
 10
-2.6729013797654471
 20
47.967350717480137
 30
0.0
  0
SEQEND
  5
1D92
  8
001
  0
POLYLINE
  5
1398
  8
001
 66
     1
 10
0.0
 20
0.0
 30
0.0
  0
VERTEX
  5
1D93
  8
001
 10
-1.073042379765438
 20
46.417981717480131
 30
0.0
  0
VERTEX
  5
1D94
  8
001
 10
-1.1329713797654211
 20
46.413410717480133
 30
0.0
  0
VERTEX
  5
1D95
  8
001
 10
-1.1929663797654371
 20
46.410723717480089
 30
0.0
  0
VERTEX
  5
1D96
  8
001
 10
-1.206068379765439
 20
46.410553717480113
 30
0.0
  0
VERTEX
  5
1D97
  8
001
 10
-1.219173379765436
 20
46.410473717480087
 30
0.0
  0
SEQEND
  5
1D98
  8
001
  0
POLYLINE
  5
139F
  8
001
 66
     1
 10
0.0
 20
0.0
 30
0.0
  0
VERTEX
  5
1D99
  8
001
 10
-1.17832337976543
 20
49.410473717480087
 30
0.0
  0
VERTEX
  5
1D9A
  8
001
 10
-1.285024379765445
 20
49.404764717480127
 30
0.0
  0
VERTEX
  5
1D9B
  8
001
 10
-1.4310633797654191
 20
49.387685717480103
 30
0.0
  0
VERTEX
  5
1D9C
  8
001
 10
-1.5605913797654389
 20
49.359304717480143
 30
0.0
  0
VERTEX
  5
1D9D
  8
001
 10
-1.6761233797654409
 20
49.320013717480151
 30
0.0
  0
VERTEX
  5
1D9E
  8
001
 10
-1.7918483797654401
 20
49.269992717480129
 30
0.0
  0
VERTEX
  5
1D9F
  8
001
 10
-1.9060593797654231
 20
49.209512717480138
 30
0.0
  0
VERTEX
  5
1DA0
  8
001
 10
-2.2091283797654162
 20
48.969860717480117
 30
0.0
  0
VERTEX
  5
1DA1
  8
001
 10
-2.4387993797654399
 20
48.660474717480142
 30
0.0
  0
VERTEX
  5
1DA2
  8
001
 10
-2.5462103797654261
 20
48.422728717480148
 30
0.0
  0
VERTEX
  5
1DA3
  8
001
 10
-2.611683379765422
 20
48.170946717480099
 30
0.0
  0
VERTEX
  5
1DA4
  8
001
 10
-2.62826937976544
 20
48.041139717480107
 30
0.0
  0
VERTEX
  5
1DA5
  8
001
 10
-2.6337953797654441
 20
47.910474717480142
 30
0.0
  0
VERTEX
  5
1DA6
  8
001
 10
-2.62826937976544
 20
47.779809717480127
 30
0.0
  0
VERTEX
  5
1DA7
  8
001
 10
-2.6116843797654199
 20
47.650002717480099
 30
0.0
  0
VERTEX
  5
1DA8
  8
001
 10
-2.5462113797654231
 20
47.398220717480093
 30
0.0
  0
VERTEX
  5
1DA9
  8
001
 10
-2.4387993797654399
 20
47.160474717480142
 30
0.0
  0
VERTEX
  5
1DAA
  8
001
 10
-2.2091283797654162
 20
46.851088717480131
 30
0.0
  0
VERTEX
  5
1DAB
  8
001
 10
-1.9060603797654201
 20
46.611436717480153
 30
0.0
  0
VERTEX
  5
1DAC
  8
001
 10
-1.791849379765436
 20
46.550955717480107
 30
0.0
  0
VERTEX
  5
1DAD
  8
001
 10
-1.676124379765439
 20
46.50093571748009
 30
0.0
  0
VERTEX
  5
1DAE
  8
001
 10
-1.560592379765438
 20
46.461643717480086
 30
0.0
  0
VERTEX
  5
1DAF
  8
001
 10
-1.431064379765415
 20
46.433262717480147
 30
0.0
  0
VERTEX
  5
1DB0
  8
001
 10
-1.2850253797654421
 20
46.416183717480131
 30
0.0
  0
VERTEX
  5
1DB1
  8
001
 10
-1.178324379765427
 20
46.410473717480087
 30
0.0
  0
SEQEND
  5
1DB2
  8
001
  0
POLYLINE
  5
13BA
  8
001
 66
     1
 10
0.0
 20
0.0
 30
0.0
  0
VERTEX
  5
1DB3
  8
001
 10
-1.2191323797654261
 20
49.410473717480087
 30
0.0
  0
VERTEX
  5
1DB4
  8
001
 10
-1.211195379765428
 20
49.410378717480171
 30
0.0
  0
VERTEX
  5
1DB5
  8
001
 10
-1.203257379765432
 20
49.410263717480177
 30
0.0
  0
VERTEX
  5
1DB6
  8
001
 10
-1.123379379765423
 20
49.406883717480127
 30
0.0
  0
VERTEX
  5
1DB7
  8
001
 10
-1.0437933797654451
 20
49.399124717480163
 30
0.0
  0
VERTEX
  5
1DB8
  8
001
 10
-0.9654483797654336
 20
49.386785717480102
 30
0.0
  0
VERTEX
  5
1DB9
  8
001
 10
-0.8879743797654383
 20
49.369815717480137
 30
0.0
  0
VERTEX
  5
1DBA
  8
001
 10
-0.8117473797654498
 20
49.348335717480147
 30
0.0
  0
VERTEX
  5
1DBB
  8
001
 10
-0.7368913797654387
 20
49.322476717480129
 30
0.0
  0
VERTEX
  5
1DBC
  8
001
 10
-0.6630623797654212
 20
49.292150717480119
 30
0.0
  0
VERTEX
  5
1DBD
  8
001
 10
-0.5910603797654233
 20
49.257705717480107
 30
0.0
  0
VERTEX
  5
1DBE
  8
001
 10
-0.5207493797654479
 20
49.21909771748016
 30
0.0
  0
VERTEX
  5
1DBF
  8
001
 10
-0.4527103797654207
 20
49.176618717480139
 30
0.0
  0
VERTEX
  5
1DC0
  8
001
 10
-0.3856873797654145
 20
49.129328717480121
 30
0.0
  0
VERTEX
  5
1DC1
  8
001
 10
-0.3213783797654059
 20
49.078401717480119
 30
0.0
  0
VERTEX
  5
1DC2
  8
001
 10
-0.2591183797654253
 20
49.023378717480171
 30
0.0
  0
VERTEX
  5
1DC3
  8
001
 10
-0.1998853797654192
 20
48.965108717480113
 30
0.0
  0
VERTEX
  5
1DC4
  8
001
 10
-0.1435773797654463
 20
48.903510717480103
 30
0.0
  0
VERTEX
  5
1DC5
  8
001
 10
-0.0906373797654396
 20
48.838997717480147
 30
0.0
  0
VERTEX
  5
1DC6
  8
001
 10
-0.0424503797654268
 20
48.773497717480147
 30
0.0
  0
VERTEX
  5
1DC7
  8
001
 10
0.002304620234554
 20
48.70560371748013
 30
0.0
  0
VERTEX
  5
1DC8
  8
001
 10
0.0437926202345693
 20
48.635103717480142
 30
0.0
  0
VERTEX
  5
1DC9
  8
001
 10
0.0816276202345705
 20
48.562578717480172
 30
0.0
  0
VERTEX
  5
1DCA
  8
001
 10
0.1156216202345774
 20
48.488340717480121
 30
0.0
  0
VERTEX
  5
1DCB
  8
001
 10
0.1456766202345534
 20
48.412421717480143
 30
0.0
  0
VERTEX
  5
1DCC
  8
001
 10
0.1722546202345541
 20
48.332936717480138
 30
0.0
  0
VERTEX
  5
1DCD
  8
001
 10
0.1943936202345924
 20
48.252106717480103
 30
0.0
  0
VERTEX
  5
1DCE
  8
001
 10
0.2120556202345654
 20
48.169940717480131
 30
0.0
  0
VERTEX
  5
1DCF
  8
001
 10
0.2251596202345638
 20
48.086903717480141
 30
0.0
  0
VERTEX
  5
1DD0
  8
001
 10
0.2335796202345648
 20
48.003529717480141
 30
0.0
  0
VERTEX
  5
1DD1
  8
001
 10
0.2368226202345625
 20
47.919846717480127
 30
0.0
  0
VERTEX
  5
1DD2
  8
001
 10
0.236614620234576
 20
47.8867217174801
 30
0.0
  0
VERTEX
  5
1DD3
  8
001
 10
0.2359496202345497
 20
47.853597717480099
 30
0.0
  0
SEQEND
  5
1DD4
  8
001
  0
POLYLINE
  5
13DD
  8
001
 66
     1
 10
0.0
 20
0.0
 30
0.0
  0
VERTEX
  5
1DD5
  8
001
 10
-1.219173379765436
 20
46.410473717480087
 30
0.0
  0
VERTEX
  5
1DD6
  8
001
 10
-1.2665073797654141
 20
46.411548717480102
 30
0.0
  0
VERTEX
  5
1DD7
  8
001
 10
-1.3137923797654301
 20
46.41357471748011
 30
0.0
  0
VERTEX
  5
1DD8
  8
001
 10
-1.3760843797654161
 20
46.418883717480107
 30
0.0
  0
VERTEX
  5
1DD9
  8
001
 10
-1.438092379765435
 20
46.427073717480141
 30
0.0
  0
VERTEX
  5
1DDA
  8
001
 10
-1.499867379765419
 20
46.437827717480097
 30
0.0
  0
VERTEX
  5
1DDB
  8
001
 10
-1.561129379765418
 20
46.451132717480149
 30
0.0
  0
VERTEX
  5
1DDC
  8
001
 10
-1.6200453797654291
 20
46.466561717480147
 30
0.0
  0
VERTEX
  5
1DDD
  8
001
 10
-1.6782753797654371
 20
46.484420717480127
 30
0.0
  0
VERTEX
  5
1DDE
  8
001
 10
-1.735756379765433
 20
46.504665717480179
 30
0.0
  0
VERTEX
  5
1DDF
  8
001
 10
-1.7923503797654501
 20
46.527268717480112
 30
0.0
  0
VERTEX
  5
1DE0
  8
001
 10
-1.849502379765452
 20
46.552947717480137
 30
0.0
  0
VERTEX
  5
1DE1
  8
001
 10
-1.9055013797654381
 20
46.581056717480131
 30
0.0
  0
VERTEX
  5
1DE2
  8
001
 10
-1.9602043797654281
 20
46.611522717480113
 30
0.0
  0
VERTEX
  5
1DE3
  8
001
 10
-2.013535379765413
 20
46.64432971748009
 30
0.0
  0
VERTEX
  5
1DE4
  8
001
 10
-2.06446037976542
 20
46.678786717480129
 30
0.0
  0
VERTEX
  5
1DE5
  8
001
 10
-2.113858379765416
 20
46.715400717480108
 30
0.0
  0
VERTEX
  5
1DE6
  8
001
 10
-2.1615703797654362
 20
46.754052717480128
 30
0.0
  0
VERTEX
  5
1DE7
  8
001
 10
-2.2075623797654189
 20
46.794735717480137
 30
0.0
  0
VERTEX
  5
1DE8
  8
001
 10
-2.2530063797654232
 20
46.838673717480098
 30
0.0
  0
VERTEX
  5
1DE9
  8
001
 10
-2.2964373797654201
 20
46.884606717480096
 30
0.0
  0
VERTEX
  5
1DEA
  8
001
 10
-2.337724379765433
 20
46.932378717480148
 30
0.0
  0
VERTEX
  5
1DEB
  8
001
 10
-2.376830379765408
 20
46.981949717480099
 30
0.0
  0
VERTEX
  5
1DEC
  8
001
 10
-2.411554379765418
 20
47.030144717480141
 30
0.0
  0
VERTEX
  5
1DED
  8
001
 10
-2.4442283797654039
 20
47.079752717480112
 30
0.0
  0
VERTEX
  5
1DEE
  8
001
 10
-2.474821379765443
 20
47.130687717480143
 30
0.0
  0
VERTEX
  5
1DEF
  8
001
 10
-2.503279379765416
 20
47.182844717480179
 30
0.0
  0
VERTEX
  5
1DF0
  8
001
 10
-2.5302883797654361
 20
47.237685717480133
 30
0.0
  0
VERTEX
  5
1DF1
  8
001
 10
-2.554980379765424
 20
47.29360871748014
 30
0.0
  0
VERTEX
  5
1DF2
  8
001
 10
-2.5773923797654259
 20
47.350632717480138
 30
0.0
  0
VERTEX
  5
1DF3
  8
001
 10
-2.5974493797654361
 20
47.408526717480129
 30
0.0
  0
VERTEX
  5
1DF4
  8
001
 10
-2.6151563797654078
 20
47.467244717480177
 30
0.0
  0
VERTEX
  5
1DF5
  8
001
 10
-2.630508379765415
 20
47.526623717480099
 30
0.0
  0
VERTEX
  5
1DF6
  8
001
 10
-2.6435683797654401
 20
47.586777717480103
 30
0.0
  0
VERTEX
  5
1DF7
  8
001
 10
-2.654269379765422
 20
47.647392717480137
 30
0.0
  0
VERTEX
  5
1DF8
  8
001
 10
-2.6628533797654081
 20
47.71039671748013
 30
0.0
  0
VERTEX
  5
1DF9
  8
001
 10
-2.669020379765441
 20
47.773691717480119
 30
0.0
  0
VERTEX
  5
1DFA
  8
001
 10
-2.6728293797654299
 20
47.837353717480141
 30
0.0
  0
VERTEX
  5
1DFB
  8
001
 10
-2.674065379765437
 20
47.901101717480103
 30
0.0
  0
VERTEX
  5
1DFC
  8
001
 10
-2.6736743797654281
 20
47.934227717480098
 30
0.0
  0
VERTEX
  5
1DFD
  8
001
 10
-2.6729013797654471
 20
47.967350717480137
 30
0.0
  0
SEQEND
  5
1DFE
  8
001
  0
POLYLINE
  5
1408
  8
001
 66
     1
 10
0.0
 20
0.0
 30
0.0
  0
VERTEX
  5
1DFF
  8
001
 10
-1.073042379765438
 20
46.417981717480131
 30
0.0
  0
VERTEX
  5
1E00
  8
001
 10
-1.0284543797654051
 20
46.423633717480143
 30
0.0
  0
VERTEX
  5
1E01
  8
001
 10
-0.9657363797654168
 20
46.433262717480147
 30
0.0
  0
VERTEX
  5
1E02
  8
001
 10
-0.8343243797654338
 20
46.462475717480118
 30
0.0
  0
VERTEX
  5
1E03
  8
001
 10
-0.7206753797654529
 20
46.500934717480149
 30
0.0
  0
VERTEX
  5
1E04
  8
001
 10
-0.6055293797654147
 20
46.550407717480148
 30
0.0
  0
VERTEX
  5
1E05
  8
001
 10
-0.4907403797654412
 20
46.611435717480092
 30
0.0
  0
VERTEX
  5
1E06
  8
001
 10
-0.1868703797654234
 20
46.857556717480108
 30
0.0
  0
VERTEX
  5
1E07
  8
001
 10
0.0419996202345487
 20
47.160473717480087
 30
0.0
  0
VERTEX
  5
1E08
  8
001
 10
0.1487556202345672
 20
47.382336717480143
 30
0.0
  0
VERTEX
  5
1E09
  8
001
 10
0.2148846202345567
 20
47.650001717480151
 30
0.0
  0
VERTEX
  5
1E0A
  8
001
 10
0.2294546202345771
 20
47.769070717480133
 30
0.0
  0
VERTEX
  5
1E0B
  8
001
 10
0.2359496202345497
 20
47.853597717480099
 30
0.0
  0
SEQEND
  5
1E0C
  8
001
  0
LINE
  5
1417
  8
001
 10
-1.5252113797654361
 20
45.387572717480097
 30
0.0
 11
-1.2378993797654501
 21
45.387572717480097
 31
0.0
  0
LINE
  5
1418
  8
001
 10
1.75874462023458
 20
47.414941717480133
 30
0.0
 11
1.3245136202345691
 21
46.961949717480131
 31
0.0
  0
POLYLINE
  5
1419
  8
001
 66
     1
 10
0.0
 20
0.0
 30
0.0
  0
VERTEX
  5
1E0D
  8
001
 10
-1.5252113797654361
 20
45.387572717480097
 30
0.0
  0
VERTEX
  5
1E0E
  8
001
 10
-1.4174193797654191
 20
45.447536717480141
 30
0.0
  0
VERTEX
  5
1E0F
  8
001
 10
-1.267723379765441
 20
45.532202717480118
 30
0.0
  0
VERTEX
  5
1E10
  8
001
 10
-1.1026443797654211
 20
45.628136717480167
 30
0.0
  0
VERTEX
  5
1E11
  8
001
 10
-0.9583393797654196
 20
45.714410717480114
 30
0.0
  0
VERTEX
  5
1E12
  8
001
 10
-0.8172453797654384
 20
45.800410717480133
 30
0.0
  0
VERTEX
  5
1E13
  8
001
 10
-0.6529613797654295
 20
45.903255717480128
 30
0.0
  0
VERTEX
  5
1E14
  8
001
 10
-0.6255093797654184
 20
45.920697717480138
 30
0.0
  0
VERTEX
  5
1E15
  8
001
 10
-0.6064773797654368
 20
45.9328227174801
 30
0.0
  0
SEQEND
  5
1E16
  8
001
  0
LINE
  5
1424
  8
001
 10
1.7318046202345541
 20
47.691519717480148
 30
0.0
 11
1.0721086202345571
 21
48.534870717480139
 31
0.0
  0
LINE
  5
1425
  8
001
 10
-1.041344379765432
 20
50.400057717480131
 30
0.0
 11
-1.017159379765415
 21
50.400057717480131
 31
0.0
  0
LINE
  5
1426
  8
001
 10
-1.36390937976543
 20
49.402966717480112
 30
0.0
 11
-1.2191323797654261
 21
49.410473717480087
 31
0.0
  0
POLYLINE
  5
1427
  8
001
 66
     1
 10
0.0
 20
0.0
 30
0.0
  0
VERTEX
  5
1E17
  8
001
 10
1.0757676202345861
 20
47.00696571748017
 30
0.0
  0
VERTEX
  5
1E18
  8
001
 10
1.287029620234561
 20
47.14446271748011
 30
0.0
  0
VERTEX
  5
1E19
  8
001
 10
1.591311620234563
 20
47.35201771748018
 30
0.0
  0
VERTEX
  5
1E1A
  8
001
 10
1.6437906202345669
 20
47.389285717480099
 30
0.0
  0
VERTEX
  5
1E1B
  8
001
 10
1.6795856202345749
 20
47.414941717480133
 30
0.0
  0
SEQEND
  5
1E1C
  8
001
  0
POLYLINE
  5
142E
  8
001
 66
     1
 10
0.0
 20
0.0
 30
0.0
  0
VERTEX
  5
1E1D
  8
001
 10
-1.830473379765436
 20
49.854806717480137
 30
0.0
  0
VERTEX
  5
1E1E
  8
001
 10
-1.619142379765435
 20
49.992212717480122
 30
0.0
  0
VERTEX
  5
1E1F
  8
001
 10
-1.314930379765427
 20
50.199858717480147
 30
0.0
  0
VERTEX
  5
1E20
  8
001
 10
-1.151743379765434
 20
50.317696717480082
 30
0.0
  0
VERTEX
  5
1E21
  8
001
 10
-1.041344379765432
 20
50.400057717480131
 30
0.0
  0
SEQEND
  5
1E22
  8
001
  0
LINE
  5
1435
  8
001
 10
-0.9411043797654199
 20
45.719158717480127
 30
0.0
 11
0.234644620234576
 21
46.469894717480138
 31
0.0
  0
LINE
  5
1436
  8
001
 10
0.234644620234576
 20
46.469894717480138
 30
0.0
 11
0.3148656202345705
 21
46.541355717480137
 31
0.0
  0
POLYLINE
  5
1437
  8
001
 66
     1
 10
0.0
 20
0.0
 30
0.0
  0
VERTEX
  5
1E23
  8
001
 10
0.3148656202345705
 20
46.541355717480137
 30
0.0
  0
VERTEX
  5
1E24
  8
001
 10
0.3330066202345563
 20
46.531440717480152
 30
0.0
  0
VERTEX
  5
1E25
  8
001
 10
0.3597986202345567
 20
46.517484717480151
 30
0.0
  0
VERTEX
  5
1E26
  8
001
 10
0.3866176202345741
 20
46.504451717480137
 30
0.0
  0
VERTEX
  5
1E27
  8
001
 10
0.4051466202345752
 20
46.495902717480128
 30
0.0
  0
SEQEND
  5
1E28
  8
001
  0
LINE
  5
143E
  8
001
 10
0.5319036202345731
 20
48.899880717480137
 30
0.0
 11
0.8917686202345863
 21
48.899880717480137
 31
0.0
  0
POLYLINE
  5
143F
  8
001
 66
     1
 10
0.0
 20
0.0
 30
0.0
  0
VERTEX
  5
1E29
  8
001
 10
0.6658086202345716
 20
46.541354717480147
 30
0.0
  0
VERTEX
  5
1E2A
  8
001
 10
0.7191356202345675
 20
46.516448717480088
 30
0.0
  0
VERTEX
  5
1E2B
  8
001
 10
0.7928026202345678
 20
46.485079717480119
 30
0.0
  0
VERTEX
  5
1E2C
  8
001
 10
0.8905866202345578
 20
46.451407717480137
 30
0.0
  0
VERTEX
  5
1E2D
  8
001
 10
0.9970196202345675
 20
46.428685717480093
 30
0.0
  0
VERTEX
  5
1E2E
  8
001
 10
1.0150816202345521
 20
46.425593717480133
 30
0.0
  0
VERTEX
  5
1E2F
  8
001
 10
1.0277036202345751
 20
46.423526717480087
 30
0.0
  0
SEQEND
  5
1E30
  8
001
  0
LINE
  5
1448
  8
001
 10
0.6658086202345716
 20
46.541354717480147
 30
0.0
 11
0.3148656202345705
 21
46.541355717480137
 31
0.0
  0
LINE
  5
1449
  8
001
 10
-0.0848043797654157
 20
50.995382717480148
 30
0.0
 11
-1.017159379765415
 21
50.400057717480131
 31
0.0
  0
LINE
  5
144A
  8
001
 10
-1.017159379765415
 20
50.400057717480131
 30
0.0
 11
0.5319036202345731
 21
48.899880717480137
 31
0.0
  0
POLYLINE
  5
144B
  8
001
 66
     1
 10
0.0
 20
0.0
 30
0.0
  0
VERTEX
  5
1E31
  8
001
 10
2.437391620234564
 20
50.651134717480147
 30
0.0
  0
VERTEX
  5
1E32
  8
001
 10
2.0335716202345671
 20
50.720476717480139
 30
0.0
  0
VERTEX
  5
1E33
  8
001
 10
1.441913620234571
 20
50.8124437174801
 30
0.0
  0
VERTEX
  5
1E34
  8
001
 10
0.5364446202345903
 20
50.929002717480103
 30
0.0
  0
VERTEX
  5
1E35
  8
001
 10
-0.0848043797654157
 20
50.995382717480148
 30
0.0
  0
SEQEND
  5
1E36
  8
001
  0
LINE
  5
1452
  8
001
 10
17.699337620234559
 20
51.187572717480123
 30
0.0
 11
0.4889866202345843
 21
51.187572717480123
 31
0.0
  0
LINE
  5
1453
  8
001
 10
17.699337620234559
 20
45.587572717480157
 30
0.0
 11
-0.924285379765422
 21
45.587572717480157
 31
0.0
  0
POLYLINE
  5
1454
  8
001
 66
     1
 10
0.0
 20
0.0
 30
0.0
  0
VERTEX
  5
1E37
  8
001
 10
0.4889866202345843
 20
51.187572717480123
 30
0.0
  0
VERTEX
  5
1E38
  8
001
 10
0.4664066202345795
 20
51.185848717480098
 30
0.0
  0
VERTEX
  5
1E39
  8
001
 10
0.4343786202345541
 20
51.181761717480143
 30
0.0
  0
VERTEX
  5
1E3A
  8
001
 10
0.3065406202345855
 20
51.152222717480129
 30
0.0
  0
VERTEX
  5
1E3B
  8
001
 10
0.1914326202345649
 20
51.108000717480131
 30
0.0
  0
VERTEX
  5
1E3C
  8
001
 10
0.0335846202345636
 20
51.044078717480147
 30
0.0
  0
VERTEX
  5
1E3D
  8
001
 10
-0.0848043797654157
 20
50.995382717480148
 30
0.0
  0
SEQEND
  5
1E3E
  8
001
  0
POLYLINE
  5
145D
  8
001
 66
     1
 10
0.0
 20
0.0
 30
0.0
  0
VERTEX
  5
1E3F
  8
001
 10
2.5732116202345581
 20
46.149050717480108
 30
0.0
  0
VERTEX
  5
1E40
  8
001
 10
2.787153620234561
 20
46.513948717480091
 30
0.0
  0
VERTEX
  5
1E41
  8
001
 10
3.0167736202345719
 20
47.046440717480138
 30
0.0
  0
VERTEX
  5
1E42
  8
001
 10
3.1353776202345491
 20
47.517420717480142
 30
0.0
  0
VERTEX
  5
1E43
  8
001
 10
3.1798196202345821
 20
47.967978717480143
 30
0.0
  0
VERTEX
  5
1E44
  8
001
 10
3.1884586202345702
 20
48.209564717480127
 30
0.0
  0
VERTEX
  5
1E45
  8
001
 10
3.1858496202345621
 20
48.455077717480087
 30
0.0
  0
VERTEX
  5
1E46
  8
001
 10
3.1687826202345661
 20
48.700064717480132
 30
0.0
  0
VERTEX
  5
1E47
  8
001
 10
3.140790620234581
 20
48.9401257174801
 30
0.0
  0
VERTEX
  5
1E48
  8
001
 10
3.060280620234578
 20
49.384961717480166
 30
0.0
  0
VERTEX
  5
1E49
  8
001
 10
2.9043926202345731
 20
49.845626717480123
 30
0.0
  0
VERTEX
  5
1E4A
  8
001
 10
2.6559676202345761
 20
50.324783717480088
 30
0.0
  0
VERTEX
  5
1E4B
  8
001
 10
2.437391620234564
 20
50.651134717480147
 30
0.0
  0
SEQEND
  5
1E4C
  8
001
  0
LINE
  5
146C
  8
001
 10
2.437391620234564
 20
50.651134717480147
 30
0.0
 11
2.5732116202345581
 21
46.149050717480108
 31
0.0
  0
LINE
  5
146D
  8
001
 10
77.699337620234573
 20
45.387572717480097
 30
0.0
 11
77.699337620234573
 21
51.387572717480097
 31
0.0
  0
LINE
  5
146E
  8
001
 10
18.899337620234562
 20
44.387572717480097
 30
0.0
 11
18.899337620234562
 21
52.387572717480097
 31
0.0
  0
LINE
  5
146F
  8
001
 10
17.699337620234559
 20
45.587572717480157
 30
0.0
 11
17.699337620234559
 21
51.187572717480123
 31
0.0
  0
LINE
  5
1470
  8
001
 10
17.699337620234559
 20
45.587572717480157
 30
0.0
 11
18.899337620234562
 21
44.387572717480097
 31
0.0
  0
LINE
  5
1471
  8
001
 10
18.899337620234562
 20
52.387572717480097
 30
0.0
 11
17.699337620234559
 21
51.187572717480123
 31
0.0
  0
ENDSEC
  0
EOF
