  0
SECTION
  2
HEADER
  9
$ACADVER
  1
AC1015
  9
$ACADMAINTVER
 70
     6
  9
$DWGCODEPAGE
  3
ANSI_932
  9
$INSBASE
 10
0.0
 20
0.0
 30
0.0
  9
$EXTMIN
 10
-4.856842
 20
22.595657
 30
0.0
  9
$EXTMAX
 10
183.599701
 20
86.931534
 30
0.0
  9
$LIMMIN
 10
0.0
 20
0.0
  9
$LIMMAX
 10
12.0
 20
9.0
  9
$ORTHOMODE
 70
     0
  9
$REGENMODE
 70
     1
  9
$FILLMODE
 70
     1
  9
$QTEXTMODE
 70
     0
  9
$MIRRTEXT
 70
     1
  9
$LTSCALE
 40
1.991356
  9
$ATTMODE
 70
     1
  9
$TEXTSIZE
 40
3.2
  9
$TRACEWID
 40
1.0
  9
$TEXTSTYLE
  7
Standard
  9
$CLAYER
  8
0
  9
$CELTYPE
  6
ByLayer
  9
$CECOLOR
 62
   256
  9
$CELTSCALE
 40
1.0
  9
$DISPSILH
 70
     0
  9
$DIMSCALE
 40
1.0
  9
$DIMASZ
 40
2.5
  9
$DIMEXO
 40
0.625
  9
$DIMDLI
 40
3.75
  9
$DIMRND
 40
0.0
  9
$DIMDLE
 40
0.0
  9
$DIMEXE
 40
1.25
  9
$DIMTP
 40
0.0
  9
$DIMTM
 40
0.0
  9
$DIMTXT
 40
2.5
  9
$DIMCEN
 40
0.09
  9
$DIMTSZ
 40
0.0
  9
$DIMTOL
 70
     0
  9
$DIMLIM
 70
     0
  9
$DIMTIH
 70
     0
  9
$DIMTOH
 70
     0
  9
$DIMSE1
 70
     0
  9
$DIMSE2
 70
     0
  9
$DIMTAD
 70
     0
  9
$DIMZIN
 70
     8
  9
$DIMBLK
  1

  9
$DIMASO
 70
     1
  9
$DIMSHO
 70
     0
  9
$DIMPOST
  1

  9
$DIMAPOST
  1

  9
$DIMALT
 70
     0
  9
$DIMALTD
 70
     3
  9
$DIMALTF
 40
0.03937
  9
$DIMLFAC
 40
1.0
  9
$DIMTOFL
 70
     1
  9
$DIMTVP
 40
0.0
  9
$DIMTIX
 70
     0
  9
$DIMSOXD
 70
     0
  9
$DIMSAH
 70
     0
  9
$DIMBLK1
  1

  9
$DIMBLK2
  1

  9
$DIMSTYLE
  2
ISO-25
  9
$DIMCLRD
 70
     0
  9
$DIMCLRE
 70
     0
  9
$DIMCLRT
 70
     0
  9
$DIMTFAC
 40
1.0
  9
$DIMGAP
 40
0.625
  9
$DIMJUST
 70
     0
  9
$DIMSD1
 70
     0
  9
$DIMSD2
 70
     0
  9
$DIMTOLJ
 70
     0
  9
$DIMTZIN
 70
     8
  9
$DIMALTZ
 70
     0
  9
$DIMALTTZ
 70
     0
  9
$DIMUPT
 70
     0
  9
$DIMDEC
 70
     2
  9
$DIMTDEC
 70
     2
  9
$DIMALTU
 70
     2
  9
$DIMALTTD
 70
     3
  9
$DIMTXSTY
  7
Standard
  9
$DIMAUNIT
 70
     0
  9
$DIMADEC
 70
     0
  9
$DIMALTRND
 40
0.0
  9
$DIMAZIN
 70
     0
  9
$DIMDSEP
 70
    44
  9
$DIMATFIT
 70
     3
  9
$DIMFRAC
 70
     0
  9
$DIMLDRBLK
  1

  9
$DIMLUNIT
 70
     2
  9
$DIMLWD
 70
    -2
  9
$DIMLWE
 70
    -2
  9
$DIMTMOVE
 70
     0
  9
$LUNITS
 70
     2
  9
$LUPREC
 70
     4
  9
$SKETCHINC
 40
1.0
  9
$FILLETRAD
 40
0.0
  9
$AUNITS
 70
     0
  9
$AUPREC
 70
     0
  9
$MENU
  1
.
  9
$ELEVATION
 40
0.0
  9
$PELEVATION
 40
0.0
  9
$THICKNESS
 40
0.0
  9
$LIMCHECK
 70
     0
  9
$CHAMFERA
 40
10.0
  9
$CHAMFERB
 40
10.0
  9
$CHAMFERC
 40
20.0
  9
$CHAMFERD
 40
0.0
  9
$SKPOLY
 70
     0
  9
$TDCREATE
 40
2454732.450521007
  9
$TDUCREATE
 40
2454732.075521007
  9
$TDUPDATE
 40
2454732.450521018
  9
$TDUUPDATE
 40
2454732.075521018
  9
$TDINDWG
 40
0.0000000116
  9
$TDUSRTIMER
 40
0.0000000116
  9
$USRTIMER
 70
     1
  9
$ANGBASE
 50
0.0
  9
$ANGDIR
 70
     0
  9
$PDMODE
 70
     0
  9
$PDSIZE
 40
0.0
  9
$PLINEWID
 40
0.0
  9
$SPLFRAME
 70
     0
  9
$SPLINETYPE
 70
     6
  9
$SPLINESEGS
 70
     8
  9
$HANDSEED
  5
161
  9
$SURFTAB1
 70
     6
  9
$SURFTAB2
 70
     6
  9
$SURFTYPE
 70
     6
  9
$SURFU
 70
     6
  9
$SURFV
 70
     6
  9
$UCSBASE
  2

  9
$UCSNAME
  2

  9
$UCSORG
 10
0.0
 20
0.0
 30
0.0
  9
$UCSXDIR
 10
1.0
 20
0.0
 30
0.0
  9
$UCSYDIR
 10
0.0
 20
1.0
 30
0.0
  9
$UCSORTHOREF
  2

  9
$UCSORTHOVIEW
 70
     0
  9
$UCSORGTOP
 10
0.0
 20
0.0
 30
0.0
  9
$UCSORGBOTTOM
 10
0.0
 20
0.0
 30
0.0
  9
$UCSORGLEFT
 10
0.0
 20
0.0
 30
0.0
  9
$UCSORGRIGHT
 10
0.0
 20
0.0
 30
0.0
  9
$UCSORGFRONT
 10
0.0
 20
0.0
 30
0.0
  9
$UCSORGBACK
 10
0.0
 20
0.0
 30
0.0
  9
$PUCSBASE
  2

  9
$PUCSNAME
  2

  9
$PUCSORG
 10
0.0
 20
0.0
 30
0.0
  9
$PUCSXDIR
 10
1.0
 20
0.0
 30
0.0
  9
$PUCSYDIR
 10
0.0
 20
1.0
 30
0.0
  9
$PUCSORTHOREF
  2

  9
$PUCSORTHOVIEW
 70
     0
  9
$PUCSORGTOP
 10
0.0
 20
0.0
 30
0.0
  9
$PUCSORGBOTTOM
 10
0.0
 20
0.0
 30
0.0
  9
$PUCSORGLEFT
 10
0.0
 20
0.0
 30
0.0
  9
$PUCSORGRIGHT
 10
0.0
 20
0.0
 30
0.0
  9
$PUCSORGFRONT
 10
0.0
 20
0.0
 30
0.0
  9
$PUCSORGBACK
 10
0.0
 20
0.0
 30
0.0
  9
$USERI1
 70
     0
  9
$USERI2
 70
     0
  9
$USERI3
 70
     0
  9
$USERI4
 70
     0
  9
$USERI5
 70
     0
  9
$USERR1
 40
0.0
  9
$USERR2
 40
0.0
  9
$USERR3
 40
0.0
  9
$USERR4
 40
0.0
  9
$USERR5
 40
0.0
  9
$WORLDVIEW
 70
     1
  9
$SHADEDGE
 70
     3
  9
$SHADEDIF
 70
    70
  9
$TILEMODE
 70
     1
  9
$MAXACTVP
 70
    64
  9
$PINSBASE
 10
0.0
 20
0.0
 30
0.0
  9
$PLIMCHECK
 70
     0
  9
$PEXTMIN
 10
1.000000E+20
 20
1.000000E+20
 30
0.0
  9
$PEXTMAX
 10
-1.000000E+20
 20
-1.000000E+20
 30
0.0
  9
$PLIMMIN
 10
0.0
 20
0.0
  9
$PLIMMAX
 10
12.0
 20
9.0
  9
$UNITMODE
 70
     0
  9
$VISRETAIN
 70
     1
  9
$PLINEGEN
 70
     0
  9
$PSLTSCALE
 70
     1
  9
$TREEDEPTH
 70
  3020
  9
$CMLSTYLE
  2
Standard
  9
$CMLJUST
 70
     0
  9
$CMLSCALE
 40
20.0
  9
$PROXYGRAPHICS
 70
     1
  9
$MEASUREMENT
 70
     1
  9
$CELWEIGHT
370
    -1
  9
$ENDCAPS
280
     0
  9
$JOINSTYLE
280
     0
  9
$LWDISPLAY
290
     0
  9
$INSUNITS
 70
     4
  9
$HYPERLINKBASE
  1

  9
$STYLESHEET
  1

  9
$XEDIT
290
     1
  9
$CEPSNTYPE
380
     0
  9
$PSTYLEMODE
290
     1
  9
$FINGERPRINTGUID
  2
{B7F7421F-4E01-4E28-8830-DDB62C42F670}
  9
$VERSIONGUID
  2
{FAEB1C32-E019-11D5-929B-00C0DF256EC4}
  9
$EXTNAMES
290
     1
  9
$PSVPSCALE
 40
0.0
  9
$OLESTARTUP
290
     0
  0
ENDSEC
  0
SECTION
  2
CLASSES
  0
CLASS
  1
ACDBDICTIONARYWDFLT
  2
AcDbDictionaryWithDefault
  3
ObjectDBX Classes
 90
        0
280
     0
281
     0
  0
CLASS
  1
VISUALSTYLE
  2
AcDbVisualStyle
  3
ObjectDBX Classes
 90
     4095
280
     0
281
     0
  0
CLASS
  1
SCALE
  2
AcDbScale
  3
ObjectDBX Classes
 90
     1153
280
     0
281
     0
  0
CLASS
  1
DICTIONARYVAR
  2
AcDbDictionaryVar
  3
ObjectDBX Classes
 90
        0
280
     0
281
     0
  0
CLASS
  1
ACDBPLACEHOLDER
  2
AcDbPlaceHolder
  3
ObjectDBX Classes
 90
        0
280
     0
281
     0
  0
CLASS
  1
LAYOUT
  2
AcDbLayout
  3
ObjectDBX Classes
 90
        0
280
     0
281
     0
  0
ENDSEC
  0
SECTION
  2
TABLES
  0
TABLE
  2
VPORT
  5
8
330
0
100
AcDbSymbolTable
 70
     1
  0
VPORT
  5
29
330
8
100
AcDbSymbolTableRecord
100
AcDbViewportTableRecord
  2
*Active
 70
     0
 10
0.0
 20
0.0
 11
1.0
 21
1.0
 12
89.371429
 22
54.763596
 13
0.0
 23
0.0
 14
1.0
 24
1.0
 15
0.0
 25
0.0
 16
0.0
 26
0.0
 36
1.0
 17
0.0
 27
0.0
 37
0.0
 40
112.542103
 41
1.691288
 42
50.0
 43
0.0
 44
0.0
 50
0.0
 51
0.0
 71
     0
 72
   100
 73
     1
 74
     3
 75
     0
 76
     0
 77
     0
 78
     0
281
     0
 65
     1
110
0.0
120
0.0
130
0.0
111
1.0
121
0.0
131
0.0
112
0.0
122
1.0
132
0.0
 79
     0
146
0.0
  0
ENDTAB
  0
TABLE
  2
LTYPE
  5
5
330
0
100
AcDbSymbolTable
 70
     5
  0
LTYPE
  5
14
330
5
100
AcDbSymbolTableRecord
100
AcDbLinetypeTableRecord
  2
ByBlock
 70
     0
  3

 72
    65
 73
     0
 40
0.0
  0
LTYPE
  5
15
330
5
100
AcDbSymbolTableRecord
100
AcDbLinetypeTableRecord
  2
ByLayer
 70
     0
  3

 72
    65
 73
     0
 40
0.0
  0
LTYPE
  5
16
330
5
100
AcDbSymbolTableRecord
100
AcDbLinetypeTableRecord
  2
Continuous
 70
     0
  3
Solid line
 72
    65
 73
     0
 40
0.0
  0
LTYPE
  5
5D
330
5
100
AcDbSymbolTableRecord
100
AcDbLinetypeTableRecord
  2
DASHED
 70
     0
  3
DASHED
 72
    83
 73
     2
 40
0.75
 49
0.5
 74
     0
 49
-0.25
 74
     0
  0
LTYPE
  5
5E
330
5
100
AcDbSymbolTableRecord
100
AcDbLinetypeTableRecord
  2
HIDDEN
 70
     0
  3
HIDDEN
 72
    83
 73
     2
 40
0.375
 49
0.25
 74
     0
 49
-0.125
 74
     0
  0
LTYPE
  5
5F
330
5
100
AcDbSymbolTableRecord
100
AcDbLinetypeTableRecord
  2
CENTER
 70
     0
  3
CENTER
 72
    83
 73
     4
 40
2.0
 49
1.25
 74
     0
 49
-0.25
 74
     0
 49
0.25
 74
     0
 49
-0.25
 74
     0
  0
LTYPE
  5
60
330
5
100
AcDbSymbolTableRecord
100
AcDbLinetypeTableRecord
  2
PHANTOM
 70
     0
  3
PHANTOM
 72
    83
 73
     6
 40
2.5
 49
1.25
 74
     0
 49
-0.25
 74
     0
 49
0.25
 74
     0
 49
-0.25
 74
     0
 49
0.25
 74
     0
 49
-0.25
 74
     0
  0
ENDTAB
  0
TABLE
  2
LAYER
  5
2
330
0
100
AcDbSymbolTable
 70
     2
  0
LAYER
  5
10
330
2
100
AcDbSymbolTableRecord
100
AcDbLayerTableRecord
  2
0
 70
     0
 62
     7
  6
Continuous
370
    -3
390
F
  0
LAYER
  5
61
330
2
100
AcDbSymbolTableRecord
100
AcDbLayerTableRecord
  2
001
 70
     0
 62
     7
  6
Continuous
370
    -3
390
F
  0
ENDTAB
  0
TABLE
  2
STYLE
  5
3
330
0
100
AcDbSymbolTable
 70
     2
  0
STYLE
  5
11
330
3
100
AcDbSymbolTableRecord
100
AcDbTextStyleTableRecord
  2
Standard
 70
     0
 40
0.0
 41
1.0
 50
0.0
 71
     0
 42
0.2
  3
TXT
  4
BIGFONT
  0
STYLE
  5
62
330
3
100
AcDbSymbolTableRecord
100
AcDbTextStyleTableRecord
  2
TATEGAKI
 70
     4
 40
1.0
 41
1.0
 50
0.0
 71
     0
 42
0.2
  3
TXT
  4
BIGFONT
  0
ENDTAB
  0
TABLE
  2
VIEW
  5
6
330
0
100
AcDbSymbolTable
 70
     0
  0
ENDTAB
  0
TABLE
  2
UCS
  5
7
330
0
100
AcDbSymbolTable
 70
     0
  0
ENDTAB
  0
TABLE
  2
APPID
  5
9
330
0
100
AcDbSymbolTable
 70
     1
  0
APPID
  5
12
330
9
100
AcDbSymbolTableRecord
100
AcDbRegAppTableRecord
  2
ACAD
 70
     0
  0
ENDTAB
  0
TABLE
  2
DIMSTYLE
  5
A
330
0
100
AcDbSymbolTable
 70
     2
100
AcDbDimStyleTable
  0
DIMSTYLE
105
27
330
A
100
AcDbSymbolTableRecord
100
AcDbDimStyleTableRecord
  2
ISO-25
 70
     0
 41
2.5
 42
0.625
 43
3.75
 44
1.25
 73
     0
 74
     0
 77
     1
 78
     8
140
2.5
141
2.5
143
0.03937
147
0.625
171
     3
172
     1
271
     2
272
     2
274
     3
278
    44
283
     0
284
     8
340
11
  0
DIMSTYLE
105
63
102
{ACAD_REACTORS
330
F6
330
F7
330
F8
330
F9
330
FA
330
113
330
114
102
}
330
A
100
AcDbSymbolTableRecord
100
AcDbDimStyleTableRecord
  2
Standard
 70
     0
 41
1.5
 42
0.0
 44
2.75
 73
     0
 74
     0
 77
     1
 78
     8
 79
     2
140
4.0
146
0.8
147
1.0
172
     1
179
     1
271
     1
340
11
  0
ENDTAB
  0
TABLE
  2
BLOCK_RECORD
  5
1
330
0
100
AcDbSymbolTable
 70
     8
  0
BLOCK_RECORD
  5
1F
330
1
100
AcDbSymbolTableRecord
100
AcDbBlockTableRecord
  2
*Model_Space
340
22
  0
BLOCK_RECORD
  5
1B
330
1
100
AcDbSymbolTableRecord
100
AcDbBlockTableRecord
  2
*Paper_Space
340
1E
  0
BLOCK_RECORD
  5
23
330
1
100
AcDbSymbolTableRecord
100
AcDbBlockTableRecord
  2
*Paper_Space0
340
26
  0
BLOCK_RECORD
  5
64
330
1
100
AcDbSymbolTableRecord
100
AcDbBlockTableRecord
  2
*D1
340
0
  0
BLOCK_RECORD
  5
79
330
1
100
AcDbSymbolTableRecord
100
AcDbBlockTableRecord
  2
*D2
340
0
  0
BLOCK_RECORD
  5
8E
330
1
100
AcDbSymbolTableRecord
100
AcDbBlockTableRecord
  2
*D3
340
0
  0
BLOCK_RECORD
  5
A2
330
1
100
AcDbSymbolTableRecord
100
AcDbBlockTableRecord
  2
*D4
340
0
  0
BLOCK_RECORD
  5
B6
330
1
100
AcDbSymbolTableRecord
100
AcDbBlockTableRecord
  2
*D5
340
0
  0
BLOCK_RECORD
  5
CA
330
1
100
AcDbSymbolTableRecord
100
AcDbBlockTableRecord
  2
*D6
340
0
  0
BLOCK_RECORD
  5
E0
330
1
100
AcDbSymbolTableRecord
100
AcDbBlockTableRecord
  2
*D7
340
0
  0
ENDTAB
  0
ENDSEC
  0
SECTION
  2
BLOCKS
  0
BLOCK
  5
20
330
1F
100
AcDbEntity
  8
0
100
AcDbBlockBegin
  2
*Model_Space
 70
     0
 10
0.0
 20
0.0
 30
0.0
  3
*Model_Space
  1

  0
ENDBLK
  5
21
330
1F
100
AcDbEntity
  8
0
100
AcDbBlockEnd
  0
BLOCK
  5
1C
330
1B
100
AcDbEntity
 67
     1
  8
0
100
AcDbBlockBegin
  2
*Paper_Space
 70
     0
 10
0.0
 20
0.0
 30
0.0
  3
*Paper_Space
  1

  0
ENDBLK
  5
1D
330
1B
100
AcDbEntity
 67
     1
  8
0
100
AcDbBlockEnd
  0
BLOCK
  5
24
330
23
100
AcDbEntity
  8
0
100
AcDbBlockBegin
  2
*Paper_Space0
 70
     0
 10
0.0
 20
0.0
 30
0.0
  3
*Paper_Space0
  1

  0
ENDBLK
  5
25
330
23
100
AcDbEntity
  8
0
100
AcDbBlockEnd
  0
BLOCK
  5
65
330
64
100
AcDbEntity
  8
0
100
AcDbBlockBegin
  2
*D1
 70
     1
 10
0.0
 20
0.0
 30
0.0
  3
*D1
  1

  0
LINE
  5
67
330
64
100
AcDbEntity
  8
001
370
     9
100
AcDbLine
 10
21.617578
 20
51.224146
 30
0.0
 11
29.472604
 21
43.369121
 31
0.0
  0
LINE
  5
68
330
64
100
AcDbEntity
  8
001
370
     9
100
AcDbLine
 10
21.900421
 20
50.435119
 30
0.0
 11
21.900421
 21
40.23262
 31
0.0
  0
ARC
  5
69
330
64
100
AcDbEntity
  8
001
370
     9
100
AcDbCircle
 10
21.900421
 20
50.941304
 30
0.0
 40
9.137255192278701
100
AcDbArc
 50
270.0
 51
315.0
  0
POLYLINE
  5
6A
330
64
100
AcDbEntity
  8
001
370
     9
100
AcDb2dPolyline
 66
     1
 10
0.0
 20
0.0
 30
0.0
  0
VERTEX
  5
6C
330
6A
100
AcDbEntity
  8
001
370
     9
100
AcDbVertex
100
AcDb2dVertex
 10
27.572985
 20
44.073119
 30
0.0
  0
VERTEX
  5
6D
330
6A
100
AcDbEntity
  8
001
370
     9
100
AcDbVertex
100
AcDb2dVertex
 10
28.361436
 20
44.480288
 30
0.0
  0
VERTEX
  5
6E
330
6A
100
AcDbEntity
  8
001
370
     9
100
AcDbVertex
100
AcDb2dVertex
 10
27.882202
 20
43.733443
 30
0.0
  0
SEQEND
  5
6B
330
6A
100
AcDbEntity
  8
001
370
     9
  0
POLYLINE
  5
6F
330
64
100
AcDbEntity
  8
001
370
     9
100
AcDb2dPolyline
 66
     1
 10
0.0
 20
0.0
 30
0.0
  0
VERTEX
  5
71
330
6F
100
AcDbEntity
  8
001
370
     9
100
AcDbVertex
100
AcDb2dVertex
 10
22.767389
 20
41.614819
 30
0.0
  0
VERTEX
  5
72
330
6F
100
AcDbEntity
  8
001
370
     9
100
AcDbVertex
100
AcDb2dVertex
 10
21.900421
 20
41.804048
 30
0.0
  0
VERTEX
  5
73
330
6F
100
AcDbEntity
  8
001
370
     9
100
AcDbVertex
100
AcDb2dVertex
 10
22.745852
 20
42.073655
 30
0.0
  0
SEQEND
  5
70
330
6F
100
AcDbEntity
  8
001
370
     9
  0
TEXT
  5
74
330
64
100
AcDbEntity
  8
001
370
    30
100
AcDbText
 10
23.549174
 20
41.863303
 30
0.0
 40
2.285714
  1
４５%%d
 50
32.108224
 41
0.978261
100
AcDbText
  0
POINT
  5
75
330
64
100
AcDbEntity
  8
001
370
     9
100
AcDbPoint
 10
21.617578
 20
51.224146
 30
0.0
  0
POINT
  5
76
330
64
100
AcDbEntity
  8
001
370
     9
100
AcDbPoint
 10
21.900421
 20
50.941304
 30
0.0
  0
POINT
  5
77
330
64
100
AcDbEntity
  8
001
370
     9
100
AcDbPoint
 10
21.900421
 20
50.941304
 30
0.0
  0
POINT
  5
78
330
64
100
AcDbEntity
  8
001
370
     9
100
AcDbPoint
 10
21.900421
 20
50.435119
 30
0.0
  0
ENDBLK
  5
66
330
64
100
AcDbEntity
  8
0
100
AcDbBlockEnd
  0
BLOCK
  5
7A
330
79
100
AcDbEntity
  8
0
100
AcDbBlockBegin
  2
*D2
 70
     1
 10
0.0
 20
0.0
 30
0.0
  3
*D2
  1

  0
LINE
  5
7C
330
79
100
AcDbEntity
  8
001
370
     9
100
AcDbLine
 10
22.183263
 20
51.224146
 30
0.0
 11
14.364856
 21
43.405739
 31
0.0
  0
LINE
  5
7D
330
79
100
AcDbEntity
  8
001
370
     9
100
AcDbLine
 10
21.900421
 20
50.435119
 30
0.0
 11
21.900421
 21
40.284406
 31
0.0
  0
ARC
  5
7E
330
79
100
AcDbEntity
  8
001
370
     9
100
AcDbCircle
 10
21.900421
 20
50.941304
 30
0.0
 40
9.085468651972961
100
AcDbArc
 50
225.0
 51
270.0
  0
POLYLINE
  5
7F
330
79
100
AcDbEntity
  8
001
370
     9
100
AcDb2dPolyline
 66
     1
 10
0.0
 20
0.0
 30
0.0
  0
VERTEX
  5
81
330
7F
100
AcDbEntity
  8
001
370
     9
100
AcDbVertex
100
AcDb2dVertex
 10
21.055061
 20
42.125668
 30
0.0
  0
VERTEX
  5
82
330
7F
100
AcDbEntity
  8
001
370
     9
100
AcDbVertex
100
AcDb2dVertex
 10
21.900421
 20
41.855835
 30
0.0
  0
VERTEX
  5
83
330
7F
100
AcDbEntity
  8
001
370
     9
100
AcDbVertex
100
AcDb2dVertex
 10
21.033401
 20
41.666837
 30
0.0
  0
SEQEND
  5
80
330
7F
100
AcDbEntity
  8
001
370
     9
  0
POLYLINE
  5
84
330
79
100
AcDbEntity
  8
001
370
     9
100
AcDb2dPolyline
 66
     1
 10
0.0
 20
0.0
 30
0.0
  0
VERTEX
  5
86
330
84
100
AcDbEntity
  8
001
370
     9
100
AcDbVertex
100
AcDb2dVertex
 10
15.955458
 20
43.77019
 30
0.0
  0
VERTEX
  5
87
330
84
100
AcDbEntity
  8
001
370
     9
100
AcDbVertex
100
AcDb2dVertex
 10
15.476024
 20
44.516907
 30
0.0
  0
VERTEX
  5
88
330
84
100
AcDbEntity
  8
001
370
     9
100
AcDbVertex
100
AcDb2dVertex
 10
16.264584
 20
44.109948
 30
0.0
  0
SEQEND
  5
85
330
84
100
AcDbEntity
  8
001
370
     9
  0
TEXT
  5
89
330
79
100
AcDbEntity
  8
001
370
    30
100
AcDbText
 10
15.474652
 20
44.387414
 30
0.0
 40
2.285714
  1
４５%%d
 50
337.500001
 41
0.978261
100
AcDbText
  0
POINT
  5
8A
330
79
100
AcDbEntity
  8
001
370
     9
100
AcDbPoint
 10
22.183263
 20
51.224146
 30
0.0
  0
POINT
  5
8B
330
79
100
AcDbEntity
  8
001
370
     9
100
AcDbPoint
 10
21.900421
 20
50.941304
 30
0.0
  0
POINT
  5
8C
330
79
100
AcDbEntity
  8
001
370
     9
100
AcDbPoint
 10
21.900421
 20
50.941304
 30
0.0
  0
POINT
  5
8D
330
79
100
AcDbEntity
  8
001
370
     9
100
AcDbPoint
 10
21.900421
 20
50.435119
 30
0.0
  0
ENDBLK
  5
7B
330
79
100
AcDbEntity
  8
0
100
AcDbBlockEnd
  0
BLOCK
  5
8F
330
8E
100
AcDbEntity
  8
0
100
AcDbBlockBegin
  2
*D3
 70
     1
 10
0.0
 20
0.0
 30
0.0
  3
*D3
  1

  0
LINE
  5
91
330
8E
100
AcDbEntity
  8
001
370
     9
100
AcDbLine
 10
37.330914
 20
54.856989
 30
0.0
 11
37.330914
 21
29.332634
 31
0.0
  0
LINE
  5
92
330
8E
100
AcDbEntity
  8
001
370
     9
100
AcDbLine
 10
15.330914
 20
57.51081
 30
0.0
 11
15.330914
 21
29.332634
 31
0.0
  0
LINE
  5
93
330
8E
100
AcDbEntity
  8
001
370
     9
100
AcDbLine
 10
37.330914
 20
30.904062
 30
0.0
 11
15.330914
 21
30.904062
 31
0.0
  0
POLYLINE
  5
94
330
8E
100
AcDbEntity
  8
001
370
     9
100
AcDb2dPolyline
 66
     1
 10
0.0
 20
0.0
 30
0.0
  0
VERTEX
  5
96
330
94
100
AcDbEntity
  8
001
370
     9
100
AcDbVertex
100
AcDb2dVertex
 10
36.473771
 20
31.133733
 30
0.0
  0
VERTEX
  5
97
330
94
100
AcDbEntity
  8
001
370
     9
100
AcDbVertex
100
AcDb2dVertex
 10
37.330914
 20
30.904062
 30
0.0
  0
VERTEX
  5
98
330
94
100
AcDbEntity
  8
001
370
     9
100
AcDbVertex
100
AcDb2dVertex
 10
36.473771
 20
30.674391
 30
0.0
  0
SEQEND
  5
95
330
94
100
AcDbEntity
  8
001
370
     9
  0
POLYLINE
  5
99
330
8E
100
AcDbEntity
  8
001
370
     9
100
AcDb2dPolyline
 66
     1
 10
0.0
 20
0.0
 30
0.0
  0
VERTEX
  5
9B
330
99
100
AcDbEntity
  8
001
370
     9
100
AcDbVertex
100
AcDb2dVertex
 10
16.188057
 20
30.674391
 30
0.0
  0
VERTEX
  5
9C
330
99
100
AcDbEntity
  8
001
370
     9
100
AcDbVertex
100
AcDb2dVertex
 10
15.330914
 20
30.904062
 30
0.0
  0
VERTEX
  5
9D
330
99
100
AcDbEntity
  8
001
370
     9
100
AcDbVertex
100
AcDb2dVertex
 10
16.188057
 20
31.133733
 30
0.0
  0
SEQEND
  5
9A
330
99
100
AcDbEntity
  8
001
370
     9
  0
TEXT
  5
9E
330
8E
100
AcDbEntity
  8
001
370
    30
100
AcDbText
 10
24.0452
 20
31.475491
 30
0.0
 40
2.285714
  1
２２
 41
0.833333
100
AcDbText
  0
POINT
  5
9F
330
8E
100
AcDbEntity
  8
001
370
     9
100
AcDbPoint
 10
37.330914
 20
54.856989
 30
0.0
  0
POINT
  5
A0
330
8E
100
AcDbEntity
  8
001
370
     9
100
AcDbPoint
 10
15.330914
 20
57.51081
 30
0.0
  0
POINT
  5
A1
330
8E
100
AcDbEntity
  8
001
370
     9
100
AcDbPoint
 10
15.330914
 20
30.904062
 30
0.0
  0
ENDBLK
  5
90
330
8E
100
AcDbEntity
  8
0
100
AcDbBlockEnd
  0
BLOCK
  5
A3
330
A2
100
AcDbEntity
  8
0
100
AcDbBlockBegin
  2
*D4
 70
     1
 10
0.0
 20
0.0
 30
0.0
  3
*D4
  1

  0
LINE
  5
A5
330
A2
100
AcDbEntity
  8
001
370
     9
100
AcDbLine
 10
165.330914
 20
56.856989
 30
0.0
 11
165.330914
 21
29.332634
 31
0.0
  0
LINE
  5
A6
330
A2
100
AcDbEntity
  8
001
370
     9
100
AcDbLine
 10
37.330914
 20
54.856989
 30
0.0
 11
37.330914
 21
29.332634
 31
0.0
  0
LINE
  5
A7
330
A2
100
AcDbEntity
  8
001
370
     9
100
AcDbLine
 10
165.330914
 20
30.904062
 30
0.0
 11
37.330914
 21
30.904062
 31
0.0
  0
POLYLINE
  5
A8
330
A2
100
AcDbEntity
  8
001
370
     9
100
AcDb2dPolyline
 66
     1
 10
0.0
 20
0.0
 30
0.0
  0
VERTEX
  5
AA
330
A8
100
AcDbEntity
  8
001
370
     9
100
AcDbVertex
100
AcDb2dVertex
 10
164.473771
 20
31.133733
 30
0.0
  0
VERTEX
  5
AB
330
A8
100
AcDbEntity
  8
001
370
     9
100
AcDbVertex
100
AcDb2dVertex
 10
165.330914
 20
30.904062
 30
0.0
  0
VERTEX
  5
AC
330
A8
100
AcDbEntity
  8
001
370
     9
100
AcDbVertex
100
AcDb2dVertex
 10
164.473771
 20
30.674391
 30
0.0
  0
SEQEND
  5
A9
330
A8
100
AcDbEntity
  8
001
370
     9
  0
POLYLINE
  5
AD
330
A2
100
AcDbEntity
  8
001
370
     9
100
AcDb2dPolyline
 66
     1
 10
0.0
 20
0.0
 30
0.0
  0
VERTEX
  5
AF
330
AD
100
AcDbEntity
  8
001
370
     9
100
AcDbVertex
100
AcDb2dVertex
 10
38.188057
 20
30.674391
 30
0.0
  0
VERTEX
  5
B0
330
AD
100
AcDbEntity
  8
001
370
     9
100
AcDbVertex
100
AcDb2dVertex
 10
37.330914
 20
30.904062
 30
0.0
  0
VERTEX
  5
B1
330
AD
100
AcDbEntity
  8
001
370
     9
100
AcDbVertex
100
AcDb2dVertex
 10
38.188057
 20
31.133733
 30
0.0
  0
SEQEND
  5
AE
330
AD
100
AcDbEntity
  8
001
370
     9
  0
TEXT
  5
B2
330
A2
100
AcDbEntity
  8
001
370
    30
100
AcDbText
 10
97.902343
 20
31.475491
 30
0.0
 40
2.285714
  1
１２８
 41
0.833333
100
AcDbText
  0
POINT
  5
B3
330
A2
100
AcDbEntity
  8
001
370
     9
100
AcDbPoint
 10
165.330914
 20
56.856989
 30
0.0
  0
POINT
  5
B4
330
A2
100
AcDbEntity
  8
001
370
     9
100
AcDbPoint
 10
37.330914
 20
54.856989
 30
0.0
  0
POINT
  5
B5
330
A2
100
AcDbEntity
  8
001
370
     9
100
AcDbPoint
 10
37.330914
 20
30.904062
 30
0.0
  0
ENDBLK
  5
A4
330
A2
100
AcDbEntity
  8
0
100
AcDbBlockEnd
  0
BLOCK
  5
B7
330
B6
100
AcDbEntity
  8
0
100
AcDbBlockBegin
  2
*D5
 70
     1
 10
0.0
 20
0.0
 30
0.0
  3
*D5
  1

  0
LINE
  5
B9
330
B6
100
AcDbEntity
  8
001
370
     9
100
AcDbLine
 10
165.330914
 20
56.856989
 30
0.0
 11
165.330914
 21
22.595658
 31
0.0
  0
LINE
  5
BA
330
B6
100
AcDbEntity
  8
001
370
     9
100
AcDbLine
 10
15.330914
 20
57.51081
 30
0.0
 11
15.330914
 21
22.595658
 31
0.0
  0
LINE
  5
BB
330
B6
100
AcDbEntity
  8
001
370
     9
100
AcDbLine
 10
165.330914
 20
24.167087
 30
0.0
 11
15.330914
 21
24.167087
 31
0.0
  0
POLYLINE
  5
BC
330
B6
100
AcDbEntity
  8
001
370
     9
100
AcDb2dPolyline
 66
     1
 10
0.0
 20
0.0
 30
0.0
  0
VERTEX
  5
BE
330
BC
100
AcDbEntity
  8
001
370
     9
100
AcDbVertex
100
AcDb2dVertex
 10
164.473771
 20
24.396757
 30
0.0
  0
VERTEX
  5
BF
330
BC
100
AcDbEntity
  8
001
370
     9
100
AcDbVertex
100
AcDb2dVertex
 10
165.330914
 20
24.167087
 30
0.0
  0
VERTEX
  5
C0
330
BC
100
AcDbEntity
  8
001
370
     9
100
AcDbVertex
100
AcDb2dVertex
 10
164.473771
 20
23.937416
 30
0.0
  0
SEQEND
  5
BD
330
BC
100
AcDbEntity
  8
001
370
     9
  0
POLYLINE
  5
C1
330
B6
100
AcDbEntity
  8
001
370
     9
100
AcDb2dPolyline
 66
     1
 10
0.0
 20
0.0
 30
0.0
  0
VERTEX
  5
C3
330
C1
100
AcDbEntity
  8
001
370
     9
100
AcDbVertex
100
AcDb2dVertex
 10
16.188057
 20
23.937416
 30
0.0
  0
VERTEX
  5
C4
330
C1
100
AcDbEntity
  8
001
370
     9
100
AcDbVertex
100
AcDb2dVertex
 10
15.330914
 20
24.167087
 30
0.0
  0
VERTEX
  5
C5
330
C1
100
AcDbEntity
  8
001
370
     9
100
AcDbVertex
100
AcDb2dVertex
 10
16.188057
 20
24.396757
 30
0.0
  0
SEQEND
  5
C2
330
C1
100
AcDbEntity
  8
001
370
     9
  0
TEXT
  5
C6
330
B6
100
AcDbEntity
  8
001
370
    30
100
AcDbText
 10
86.902343
 20
24.738515
 30
0.0
 40
2.285714
  1
１５０
 41
0.833333
100
AcDbText
  0
POINT
  5
C7
330
B6
100
AcDbEntity
  8
001
370
     9
100
AcDbPoint
 10
165.330914
 20
56.856989
 30
0.0
  0
POINT
  5
C8
330
B6
100
AcDbEntity
  8
001
370
     9
100
AcDbPoint
 10
15.330914
 20
57.51081
 30
0.0
  0
POINT
  5
C9
330
B6
100
AcDbEntity
  8
001
370
     9
100
AcDbPoint
 10
15.330914
 20
24.167087
 30
0.0
  0
ENDBLK
  5
B8
330
B6
100
AcDbEntity
  8
0
100
AcDbBlockEnd
  0
BLOCK
  5
CB
330
CA
100
AcDbEntity
  8
0
100
AcDbBlockBegin
  2
*D6
 70
     1
 10
0.0
 20
0.0
 30
0.0
  3
*D6
  1

  0
LINE
  5
CD
330
CA
100
AcDbEntity
  8
001
370
     9
100
AcDbLine
 10
163.330914
 20
54.856989
 30
0.0
 11
183.599701
 21
54.856989
 31
0.0
  0
LINE
  5
CE
330
CA
100
AcDbEntity
  8
001
370
     9
100
AcDbLine
 10
163.330914
 20
66.856989
 30
0.0
 11
183.599701
 21
66.856989
 31
0.0
  0
LINE
  5
CF
330
CA
100
AcDbEntity
  8
001
370
     9
100
AcDbLine
 10
180.849701
 20
54.856989
 30
0.0
 11
180.849701
 21
66.856989
 31
0.0
  0
POLYLINE
  5
D0
330
CA
100
AcDbEntity
  8
001
370
     9
100
AcDb2dPolyline
 66
     1
 10
0.0
 20
0.0
 30
0.0
  0
VERTEX
  5
D2
330
D0
100
AcDbEntity
  8
001
370
     9
100
AcDbVertex
100
AcDb2dVertex
 10
180.447777
 20
53.356989
 30
0.0
  0
VERTEX
  5
D3
330
D0
100
AcDbEntity
  8
001
370
     9
100
AcDbVertex
100
AcDb2dVertex
 10
180.849701
 20
54.856989
 30
0.0
  0
VERTEX
  5
D4
330
D0
100
AcDbEntity
  8
001
370
     9
100
AcDbVertex
100
AcDb2dVertex
 10
181.251625
 20
53.356989
 30
0.0
  0
SEQEND
  5
D1
330
D0
100
AcDbEntity
  8
001
370
     9
  0
POLYLINE
  5
D5
330
CA
100
AcDbEntity
  8
001
370
     9
100
AcDb2dPolyline
 66
     1
 10
0.0
 20
0.0
 30
0.0
  0
VERTEX
  5
D7
330
D5
100
AcDbEntity
  8
001
370
     9
100
AcDbVertex
100
AcDb2dVertex
 10
181.251625
 20
68.356989
 30
0.0
  0
VERTEX
  5
D8
330
D5
100
AcDbEntity
  8
001
370
     9
100
AcDbVertex
100
AcDb2dVertex
 10
180.849701
 20
66.856989
 30
0.0
  0
VERTEX
  5
D9
330
D5
100
AcDbEntity
  8
001
370
     9
100
AcDbVertex
100
AcDb2dVertex
 10
180.447777
 20
68.356989
 30
0.0
  0
SEQEND
  5
D6
330
D5
100
AcDbEntity
  8
001
370
     9
  0
TEXT
  5
DA
330
CA
100
AcDbEntity
  8
001
370
    30
100
AcDbText
 10
179.849701
 20
42.856989
 30
0.0
 40
3.0
  1
%%c１２
 50
90.000003
 41
0.882353
100
AcDbText
  0
POINT
  5
DB
330
CA
100
AcDbEntity
  8
001
370
     9
100
AcDbPoint
 10
163.330914
 20
54.856989
 30
0.0
  0
POINT
  5
DC
330
CA
100
AcDbEntity
  8
001
370
     9
100
AcDbPoint
 10
163.330914
 20
66.856989
 30
0.0
  0
POINT
  5
DD
330
CA
100
AcDbEntity
  8
001
370
     9
100
AcDbPoint
 10
180.849701
 20
66.856989
 30
0.0
  0
LINE
  5
DE
330
CA
100
AcDbEntity
  8
001
370
     9
100
AcDbLine
 10
180.849701
 20
54.856989
 30
0.0
 11
180.849701
 21
39.856989
 31
0.0
  0
LINE
  5
DF
330
CA
100
AcDbEntity
  8
001
370
     9
100
AcDbLine
 10
180.849701
 20
66.856989
 30
0.0
 11
180.849701
 21
69.356989
 31
0.0
  0
ENDBLK
  5
CC
330
CA
100
AcDbEntity
  8
0
100
AcDbBlockEnd
  0
BLOCK
  5
E1
330
E0
100
AcDbEntity
  8
0
100
AcDbBlockBegin
  2
*D7
 70
     1
 10
0.0
 20
0.0
 30
0.0
  3
*D7
  1

  0
LINE
  5
E3
330
E0
100
AcDbEntity
  8
001
370
     9
100
AcDbLine
 10
21.900421
 20
50.435119
 30
0.0
 11
21.900421
 21
35.505273
 31
0.0
  0
LINE
  5
E4
330
E0
100
AcDbEntity
  8
001
370
     9
100
AcDbLine
 10
15.330914
 20
57.51081
 30
0.0
 11
15.330914
 21
35.505273
 31
0.0
  0
LINE
  5
E5
330
E0
100
AcDbEntity
  8
001
370
     9
100
AcDbLine
 10
21.900421
 20
37.076701
 30
0.0
 11
15.330914
 21
37.076701
 31
0.0
  0
POLYLINE
  5
E6
330
E0
100
AcDbEntity
  8
001
370
     9
100
AcDb2dPolyline
 66
     1
 10
0.0
 20
0.0
 30
0.0
  0
VERTEX
  5
E8
330
E6
100
AcDbEntity
  8
001
370
     9
100
AcDbVertex
100
AcDb2dVertex
 10
22.757564
 20
36.847031
 30
0.0
  0
VERTEX
  5
E9
330
E6
100
AcDbEntity
  8
001
370
     9
100
AcDbVertex
100
AcDb2dVertex
 10
21.900421
 20
37.076701
 30
0.0
  0
VERTEX
  5
EA
330
E6
100
AcDbEntity
  8
001
370
     9
100
AcDbVertex
100
AcDb2dVertex
 10
22.757564
 20
37.306372
 30
0.0
  0
SEQEND
  5
E7
330
E6
100
AcDbEntity
  8
001
370
     9
  0
POLYLINE
  5
EB
330
E0
100
AcDbEntity
  8
001
370
     9
100
AcDb2dPolyline
 66
     1
 10
0.0
 20
0.0
 30
0.0
  0
VERTEX
  5
ED
330
EB
100
AcDbEntity
  8
001
370
     9
100
AcDbVertex
100
AcDb2dVertex
 10
14.473771
 20
37.306372
 30
0.0
  0
VERTEX
  5
EE
330
EB
100
AcDbEntity
  8
001
370
     9
100
AcDbVertex
100
AcDb2dVertex
 10
15.330914
 20
37.076701
 30
0.0
  0
VERTEX
  5
EF
330
EB
100
AcDbEntity
  8
001
370
     9
100
AcDbVertex
100
AcDb2dVertex
 10
14.473771
 20
36.847031
 30
0.0
  0
SEQEND
  5
EC
330
EB
100
AcDbEntity
  8
001
370
     9
  0
TEXT
  5
F0
330
E0
100
AcDbEntity
  8
001
370
    30
100
AcDbText
 10
-0.383372
 20
37.64813
 30
0.0
 40
2.285714
  1
（６．５７）
 41
0.833333
100
AcDbText
  0
POINT
  5
F1
330
E0
100
AcDbEntity
  8
001
370
     9
100
AcDbPoint
 10
21.900421
 20
50.435119
 30
0.0
  0
POINT
  5
F2
330
E0
100
AcDbEntity
  8
001
370
     9
100
AcDbPoint
 10
15.330914
 20
57.51081
 30
0.0
  0
POINT
  5
F3
330
E0
100
AcDbEntity
  8
001
370
     9
100
AcDbPoint
 10
15.330914
 20
37.076701
 30
0.0
  0
LINE
  5
F4
330
E0
100
AcDbEntity
  8
001
370
     9
100
AcDbLine
 10
21.900421
 20
37.076701
 30
0.0
 11
23.328992
 21
37.076701
 31
0.0
  0
LINE
  5
F5
330
E0
100
AcDbEntity
  8
001
370
     9
100
AcDbLine
 10
15.330914
 20
37.076701
 30
0.0
 11
-2.097658
 21
37.076701
 31
0.0
  0
ENDBLK
  5
E2
330
E0
100
AcDbEntity
  8
0
100
AcDbBlockEnd
  0
ENDSEC
  0
SECTION
  2
ENTITIES
  0
DIMENSION
  5
F6
330
1F
100
AcDbEntity
  8
001
370
     9
100
AcDbDimension
  2
*D1
 10
21.900421
 20
50.941304
 30
0.0
 11
25.845879
 21
44.65371
 31
0.0
 70
    34
 71
     5
 42
-1.0
  3
Standard
100
AcDb2LineAngularDimension
 13
21.617578
 23
51.224146
 33
0.0
 14
21.900421
 24
50.941304
 34
0.0
 15
21.900421
 25
50.435119
 35
0.0
 16
25.397097
 26
42.49958
 36
0.0
  0
DIMENSION
  5
F7
330
1F
100
AcDbEntity
  8
001
370
     9
100
AcDbDimension
  2
*D2
 10
21.900421
 20
50.941304
 30
0.0
 11
19.079591
 21
44.131219
 31
0.0
 70
    34
 71
     5
 42
-1.0
  3
Standard
100
AcDb2LineAngularDimension
 13
22.183263
 23
51.224146
 33
0.0
 14
21.900421
 24
50.941304
 34
0.0
 15
21.900421
 25
50.435119
 35
0.0
 16
18.423562
 26
42.547425
 36
0.0
  0
DIMENSION
  5
F8
330
1F
100
AcDbEntity
  8
001
370
     9
100
AcDbDimension
  2
*D3
 10
15.330914
 20
30.904062
 30
0.0
 11
26.330914
 21
32.618348
 31
0.0
 70
   160
 71
     5
 42
-1.0
  3
Standard
100
AcDbAlignedDimension
 13
37.330914
 23
54.856989
 33
0.0
 14
15.330914
 24
57.51081
 34
0.0
 50
180.0
100
AcDbRotatedDimension
  0
DIMENSION
  5
F9
330
1F
100
AcDbEntity
  8
001
370
     9
100
AcDbDimension
  2
*D4
 10
37.330914
 20
30.904062
 30
0.0
 11
101.330914
 21
32.618348
 31
0.0
 70
   160
 71
     5
 42
-1.0
  3
Standard
100
AcDbAlignedDimension
 13
165.330914
 23
56.856989
 33
0.0
 14
37.330914
 24
54.856989
 34
0.0
 50
180.0
100
AcDbRotatedDimension
  0
DIMENSION
  5
FA
330
1F
100
AcDbEntity
  8
001
370
     9
100
AcDbDimension
  2
*D5
 10
15.330914
 20
24.167087
 30
0.0
 11
90.330914
 21
25.881373
 31
0.0
 70
   160
 71
     5
 42
-1.0
  3
Standard
100
AcDbAlignedDimension
 13
165.330914
 23
56.856989
 33
0.0
 14
15.330914
 24
57.51081
 34
0.0
 50
180.0
100
AcDbRotatedDimension
  0
TEXT
  5
FB
330
1F
100
AcDbEntity
  8
001
370
    30
100
AcDbText
 10
4.544024
 20
54.526756
 30
0.0
 40
2.285714
  1
（%%c６．７）
 50
90.000003
 41
0.857143
100
AcDbText
  0
POLYLINE
  5
FC
330
1F
100
AcDbEntity
  8
001
370
     9
100
AcDb2dPolyline
 66
     1
 10
0.0
 20
0.0
 30
0.0
  0
VERTEX
  5
FE
330
FC
100
AcDbEntity
  8
001
370
     9
100
AcDbVertex
100
AcDb2dVertex
 10
5.345123
 20
58.367953
 30
0.0
  0
VERTEX
  5
FF
330
FC
100
AcDbEntity
  8
001
370
     9
100
AcDbVertex
100
AcDb2dVertex
 10
5.115452
 20
57.51081
 30
0.0
  0
VERTEX
  5
100
330
FC
100
AcDbEntity
  8
001
370
     9
100
AcDbVertex
100
AcDb2dVertex
 10
4.885781
 20
58.367953
 30
0.0
  0
SEQEND
  5
FD
330
FC
100
AcDbEntity
  8
001
370
     9
  0
LINE
  5
101
330
1F
100
AcDbEntity
  8
001
370
     9
100
AcDbLine
 10
5.115452
 20
65.256989
 30
0.0
 11
5.115452
 21
57.51081
 31
0.0
  0
POLYLINE
  5
102
330
1F
100
AcDbEntity
  8
001
370
     9
100
AcDb2dPolyline
 66
     1
 10
0.0
 20
0.0
 30
0.0
  0
VERTEX
  5
104
330
102
100
AcDbEntity
  8
001
370
     9
100
AcDbVertex
100
AcDb2dVertex
 10
15.330914
 20
57.51081
 30
0.0
  0
VERTEX
  5
105
330
102
100
AcDbEntity
  8
001
370
     9
100
AcDbVertex
100
AcDb2dVertex
 10
5.115452
 20
57.51081
 30
0.0
  0
VERTEX
  5
106
330
102
100
AcDbEntity
  8
001
370
     9
100
AcDbVertex
100
AcDb2dVertex
 10
3.544024
 20
57.51081
 30
0.0
  0
SEQEND
  5
103
330
102
100
AcDbEntity
  8
001
370
     9
  0
TEXT
  5
107
330
1F
100
AcDbEntity
  8
001
370
    30
100
AcDbText
 10
-2.571128
 20
54.678378
 30
0.0
 40
2.285714
  1
%%c１９．５
 50
90.000003
 41
0.862069
100
AcDbText
  0
POLYLINE
  5
108
330
1F
100
AcDbEntity
  8
001
370
     9
100
AcDb2dPolyline
 66
     1
 10
0.0
 20
0.0
 30
0.0
  0
VERTEX
  5
10A
330
108
100
AcDbEntity
  8
001
370
     9
100
AcDbVertex
100
AcDb2dVertex
 10
-1.770029
 20
51.964132
 30
0.0
  0
VERTEX
  5
10B
330
108
100
AcDbEntity
  8
001
370
     9
100
AcDbVertex
100
AcDb2dVertex
 10
-1.999699
 20
51.106989
 30
0.0
  0
VERTEX
  5
10C
330
108
100
AcDbEntity
  8
001
370
     9
100
AcDbVertex
100
AcDb2dVertex
 10
-2.22937
 20
51.964132
 30
0.0
  0
SEQEND
  5
109
330
108
100
AcDbEntity
  8
001
370
     9
  0
LINE
  5
10D
330
1F
100
AcDbEntity
  8
001
370
     9
100
AcDbLine
 10
-1.999699
 20
69.956989
 30
0.0
 11
-1.999699
 21
51.106989
 31
0.0
  0
POLYLINE
  5
10E
330
1F
100
AcDbEntity
  8
001
370
     9
100
AcDb2dPolyline
 66
     1
 10
0.0
 20
0.0
 30
0.0
  0
VERTEX
  5
110
330
10E
100
AcDbEntity
  8
001
370
     9
100
AcDbVertex
100
AcDb2dVertex
 10
21.900421
 20
51.106989
 30
0.0
  0
VERTEX
  5
111
330
10E
100
AcDbEntity
  8
001
370
     9
100
AcDbVertex
100
AcDb2dVertex
 10
-1.999699
 20
51.106989
 30
0.0
  0
VERTEX
  5
112
330
10E
100
AcDbEntity
  8
001
370
     9
100
AcDbVertex
100
AcDb2dVertex
 10
-3.571128
 20
51.106989
 30
0.0
  0
SEQEND
  5
10F
330
10E
100
AcDbEntity
  8
001
370
     9
  0
DIMENSION
  5
113
330
1F
100
AcDbEntity
  8
001
370
     9
100
AcDbDimension
  2
*D6
 10
180.849701
 20
66.856989
 30
0.0
 11
178.349701
 21
47.356989
 31
0.0
 70
   160
 71
     5
 42
-1.0
  3
Standard
100
AcDbAlignedDimension
 13
163.330914
 23
54.856989
 33
0.0
 14
163.330914
 24
66.856989
 34
0.0
 50
90.0
100
AcDbRotatedDimension
  0
DIMENSION
  5
114
330
1F
100
AcDbEntity
  8
001
370
     9
100
AcDbDimension
  2
*D7
 10
15.330914
 20
37.076701
 30
0.0
 11
6.473771
 21
38.790987
 31
0.0
 70
   160
 71
     5
 42
-1.0
  3
Standard
100
AcDbAlignedDimension
 13
21.900421
 23
50.435119
 33
0.0
 14
15.330914
 24
57.51081
 34
0.0
 50
180.0
100
AcDbRotatedDimension
  0
LINE
  5
115
330
1F
100
AcDbEntity
  8
001
370
    50
100
AcDbLine
 10
37.330914
 20
54.856989
 30
0.0
 11
37.330914
 21
66.856989
 31
0.0
  0
CIRCLE
  5
116
330
1F
100
AcDbEntity
  8
001
370
    50
100
AcDbCircle
 10
21.900421
 20
57.676496
 30
0.0
 40
2.5
  0
LINE
  5
117
330
1F
100
AcDbEntity
  8
001
370
    50
100
AcDbLine
 10
22.477771
 20
58.676496
 30
0.0
 11
22.160228
 21
59.226496
 31
0.0
  0
LINE
  5
118
330
1F
100
AcDbEntity
  8
001
370
    50
100
AcDbLine
 10
21.32307
 20
58.676496
 30
0.0
 11
21.640613
 21
59.226496
 31
0.0
  0
LINE
  5
119
330
1F
100
AcDbEntity
  8
001
370
    50
100
AcDbLine
 10
21.32307
 20
58.676496
 30
0.0
 11
20.687985
 21
58.676496
 31
0.0
  0
LINE
  5
11A
330
1F
100
AcDbEntity
  8
001
370
    50
100
AcDbLine
 10
20.74572
 20
57.676496
 30
0.0
 11
20.428177
 21
58.226496
 31
0.0
  0
LINE
  5
11B
330
1F
100
AcDbEntity
  8
001
370
    50
100
AcDbLine
 10
20.74572
 20
57.676496
 30
0.0
 11
20.428177
 21
57.126496
 31
0.0
  0
LINE
  5
11C
330
1F
100
AcDbEntity
  8
001
370
    50
100
AcDbLine
 10
21.32307
 20
56.676496
 30
0.0
 11
20.687985
 21
56.676496
 31
0.0
  0
LINE
  5
11D
330
1F
100
AcDbEntity
  8
001
370
    50
100
AcDbLine
 10
21.32307
 20
56.676496
 30
0.0
 11
21.640613
 21
56.126496
 31
0.0
  0
LINE
  5
11E
330
1F
100
AcDbEntity
  8
001
370
    50
100
AcDbLine
 10
22.477771
 20
56.676496
 30
0.0
 11
22.160228
 21
56.126496
 31
0.0
  0
LINE
  5
11F
330
1F
100
AcDbEntity
  8
001
370
    50
100
AcDbLine
 10
22.477771
 20
56.676496
 30
0.0
 11
23.112856
 21
56.676496
 31
0.0
  0
LINE
  5
120
330
1F
100
AcDbEntity
  8
001
370
    50
100
AcDbLine
 10
23.055121
 20
57.676496
 30
0.0
 11
23.372664
 21
57.126496
 31
0.0
  0
LINE
  5
121
330
1F
100
AcDbEntity
  8
001
370
    50
100
AcDbLine
 10
23.055121
 20
57.676496
 30
0.0
 11
23.372664
 21
58.226496
 31
0.0
  0
LINE
  5
122
330
1F
100
AcDbEntity
  8
001
370
    50
100
AcDbLine
 10
22.477771
 20
58.676496
 30
0.0
 11
23.112856
 21
58.676496
 31
0.0
  0
ARC
  5
123
330
1F
100
AcDbEntity
  8
001
370
    50
100
AcDbCircle
 10
21.900421
 20
59.076496
 30
0.0
 40
0.3
100
AcDbArc
 50
30.0
 51
150.0
  0
ARC
  5
124
330
1F
100
AcDbEntity
  8
001
370
    50
100
AcDbCircle
 10
23.112856
 20
58.376496
 30
0.0
 40
0.3
100
AcDbArc
 50
330.0
 51
90.0
  0
ARC
  5
125
330
1F
100
AcDbEntity
  8
001
370
    50
100
AcDbCircle
 10
23.112856
 20
56.976496
 30
0.0
 40
0.3
100
AcDbArc
 50
270.0
 51
30.0
  0
ARC
  5
126
330
1F
100
AcDbEntity
  8
001
370
    50
100
AcDbCircle
 10
21.900421
 20
56.276496
 30
0.0
 40
0.3
100
AcDbArc
 50
210.0
 51
330.0
  0
ARC
  5
127
330
1F
100
AcDbEntity
  8
001
370
    50
100
AcDbCircle
 10
20.687985
 20
56.976496
 30
0.0
 40
0.3
100
AcDbArc
 50
150.0
 51
270.0
  0
ARC
  5
128
330
1F
100
AcDbEntity
  8
001
370
    50
100
AcDbCircle
 10
20.687985
 20
58.376496
 30
0.0
 40
0.3
100
AcDbArc
 50
90.0
 51
210.0
  0
CIRCLE
  5
129
330
1F
100
AcDbEntity
  8
001
370
    50
100
AcDbCircle
 10
21.900421
 20
57.676496
 30
0.0
 40
3.0
  0
ARC
  5
12A
330
1F
100
AcDbEntity
  8
001
370
    50
100
AcDbCircle
 10
15.730914
 20
57.676496
 30
0.0
 40
0.3999999999999999
100
AcDbArc
 50
135.0
 51
225.0
  0
LINE
  5
12B
330
1F
100
AcDbEntity
  8
001
370
    50
100
AcDbLine
 10
21.617578
 20
64.128845
 30
0.0
 11
15.448071
 21
57.959338
 31
0.0
  0
ARC
  5
12C
330
1F
100
AcDbEntity
  8
001
370
    50
100
AcDbCircle
 10
21.900421
 20
63.846002
 30
0.0
 40
0.3999999999999999
100
AcDbArc
 50
45.0
 51
135.0
  0
LINE
  5
12D
330
1F
100
AcDbEntity
  8
001
370
    50
100
AcDbLine
 10
28.35277
 20
57.959338
 30
0.0
 11
22.183263
 21
64.128845
 31
0.0
  0
ARC
  5
12E
330
1F
100
AcDbEntity
  8
001
370
    50
100
AcDbCircle
 10
28.069927
 20
57.676496
 30
0.0
 40
0.3999999999999999
100
AcDbArc
 50
315.0
 51
45.0
  0
LINE
  5
12F
330
1F
100
AcDbEntity
  8
001
370
    50
100
AcDbLine
 10
22.183263
 20
51.224146
 30
0.0
 11
28.35277
 21
57.393653
 31
0.0
  0
ARC
  5
130
330
1F
100
AcDbEntity
  8
001
370
    50
100
AcDbCircle
 10
21.900421
 20
51.506989
 30
0.0
 40
0.3999999999999999
100
AcDbArc
 50
225.0
 51
315.0
  0
LINE
  5
131
330
1F
100
AcDbEntity
  8
001
370
    50
100
AcDbLine
 10
15.448071
 20
57.393653
 30
0.0
 11
21.617578
 21
51.224146
 31
0.0
  0
LINE
  5
132
330
1F
100
AcDbEntity
  8
001
370
    50
100
AcDbLine
 10
25.729338
 20
66.856989
 30
0.0
 11
22.163196
 21
69.956989
 31
0.0
  0
LINE
  5
133
330
1F
100
AcDbEntity
  8
001
370
    50
100
AcDbLine
 10
21.637646
 20
69.956989
 30
0.0
 11
16.230914
 21
65.256989
 31
0.0
  0
LINE
  5
134
330
1F
100
AcDbEntity
  8
001
370
    50
100
AcDbLine
 10
16.230914
 20
62.75855
 30
0.0
 11
18.364887
 21
64.892523
 31
0.0
  0
LINE
  5
135
330
1F
100
AcDbEntity
  8
001
370
    50
100
AcDbLine
 10
22.163196
 20
69.956989
 30
0.0
 11
21.637646
 21
69.956989
 31
0.0
  0
LINE
  5
136
330
1F
100
AcDbEntity
  8
001
370
    50
100
AcDbLine
 10
165.330914
 20
56.856989
 30
0.0
 11
165.330914
 21
64.856989
 31
0.0
  0
POLYLINE
  5
137
330
1F
100
AcDbEntity
  8
001
370
    50
100
AcDb2dPolyline
 66
     1
 10
0.0
 20
0.0
 30
0.0
  0
VERTEX
  5
139
330
137
100
AcDbEntity
  8
001
370
    50
100
AcDbVertex
100
AcDb2dVertex
 10
29.745021
 20
55.769003
 30
0.0
  0
VERTEX
  5
13A
330
137
100
AcDbEntity
  8
001
370
    50
100
AcDbVertex
100
AcDb2dVertex
 10
30.047494
 20
55.562291
 30
0.0
  0
VERTEX
  5
13B
330
137
100
AcDbEntity
  8
001
370
    50
100
AcDbVertex
100
AcDb2dVertex
 10
30.454303
 20
55.292855
 30
0.0
  0
VERTEX
  5
13C
330
137
100
AcDbEntity
  8
001
370
    50
100
AcDbVertex
100
AcDb2dVertex
 10
30.719685
 20
55.127985
 30
0.0
  0
VERTEX
  5
13D
330
137
100
AcDbEntity
  8
001
370
    50
100
AcDbVertex
100
AcDb2dVertex
 10
31.010568
 20
54.986843
 30
0.0
  0
VERTEX
  5
13E
330
137
100
AcDbEntity
  8
001
370
    50
100
AcDbVertex
100
AcDb2dVertex
 10
31.232107
 20
54.904461
 30
0.0
  0
VERTEX
  5
13F
330
137
100
AcDbEntity
  8
001
370
    50
100
AcDbVertex
100
AcDb2dVertex
 10
31.396806
 20
54.860323
 30
0.0
  0
SEQEND
  5
138
330
137
100
AcDbEntity
  8
001
370
    50
  0
LINE
  5
140
330
1F
100
AcDbEntity
  8
001
370
    50
100
AcDbLine
 10
35.468154
 20
54.860323
 30
0.0
 11
31.396806
 21
54.860323
 31
0.0
  0
ARC
  5
141
330
1F
100
AcDbEntity
  8
001
370
    50
100
AcDbCircle
 10
21.900421
 20
61.356989
 30
0.0
 40
5.0
100
AcDbArc
 50
45.0
 51
135.0
  0
LINE
  5
142
330
1F
100
AcDbEntity
  8
001
370
    50
100
AcDbLine
 10
35.471488
 20
54.856989
 30
0.0
 11
25.435955
 21
64.892523
 31
0.0
  0
LINE
  5
143
330
1F
100
AcDbEntity
  8
001
370
    50
100
AcDbLine
 10
25.729338
 20
64.59914
 30
0.0
 11
25.729338
 21
66.856989
 31
0.0
  0
LINE
  5
144
330
1F
100
AcDbEntity
  8
001
370
    50
100
AcDbLine
 10
22.163196
 20
66.350079
 30
0.0
 11
22.163196
 21
69.956989
 31
0.0
  0
LINE
  5
145
330
1F
100
AcDbEntity
  8
001
370
    50
100
AcDbLine
 10
21.637646
 20
66.350079
 30
0.0
 11
21.637646
 21
69.956989
 31
0.0
  0
LINE
  5
146
330
1F
100
AcDbEntity
  8
001
370
    50
100
AcDbLine
 10
16.230914
 20
58.742181
 30
0.0
 11
16.230914
 21
65.256989
 31
0.0
  0
LINE
  5
147
330
1F
100
AcDbEntity
  8
001
370
    50
100
AcDbLine
 10
26.72812
 20
55.769003
 30
0.0
 11
29.745021
 21
55.769003
 31
0.0
  0
LINE
  5
148
330
1F
100
AcDbEntity
  8
001
370
    50
100
AcDbLine
 10
28.446914
 20
57.810215
 30
0.0
 11
31.396806
 21
54.860323
 31
0.0
  0
LINE
  5
149
330
1F
100
AcDbEntity
  8
001
370
    50
100
AcDbLine
 10
29.745021
 20
55.769003
 30
0.0
 11
28.236571
 21
57.277454
 31
0.0
  0
ARC
  5
14A
330
1F
100
AcDbEntity
  8
001
370
    50
100
AcDbCircle
 10
21.900421
 20
62.846002
 30
0.0
 40
2.0
100
AcDbArc
 50
348.611134
 51
191.388866
  0
ARC
  5
14B
330
1F
100
AcDbEntity
  8
001
370
    50
100
AcDbCircle
 10
163.330914
 20
64.856989
 30
0.0
 40
2.0
100
AcDbArc
 50
0.0
 51
90.0
  0
ARC
  5
14C
330
1F
100
AcDbEntity
  8
001
370
    50
100
AcDbCircle
 10
163.330914
 20
56.856989
 30
0.0
 40
2.0
100
AcDbArc
 50
270.0
 51
0.0
  0
LINE
  5
14D
330
1F
100
AcDbEntity
  8
001
370
    50
100
AcDbLine
 10
165.330914
 20
60.856989
 30
0.0
 11
167.92899
 21
62.356989
 31
0.0
  0
LINE
  5
14E
330
1F
100
AcDbEntity
  8
001
370
    50
100
AcDbLine
 10
165.330914
 20
60.856989
 30
0.0
 11
167.92899
 21
59.356989
 31
0.0
  0
LINE
  5
14F
330
1F
100
AcDbEntity
  8
001
  6
CENTER
370
     9
100
AcDbLine
 10
14.254618
 20
60.856989
 30
0.0
 11
167.131757
 21
60.856989
 31
0.0
  0
LINE
  5
150
330
1F
100
AcDbEntity
  8
001
  6
PHANTOM
370
     9
100
AcDbLine
 10
15.330914
 20
57.51081
 30
0.0
 11
15.448071
 21
57.393653
 31
0.0
  0
LINE
  5
151
330
1F
100
AcDbEntity
  8
001
  6
PHANTOM
370
     9
100
AcDbLine
 10
15.330914
 20
57.51081
 30
0.0
 11
15.330914
 21
57.676496
 31
0.0
  0
LINE
  5
152
330
1F
100
AcDbEntity
  8
001
  6
CENTER
370
     9
100
AcDbLine
 10
21.900421
 20
50.435119
 30
0.0
 11
21.900421
 21
61.505252
 31
0.0
  0
LINE
  5
153
330
1F
100
AcDbEntity
  8
001
370
    50
100
AcDbLine
 10
39.330914
 20
54.856989
 30
0.0
 11
39.330914
 21
66.856989
 31
0.0
  0
LINE
  5
154
330
1F
100
AcDbEntity
  8
001
370
    50
100
AcDbLine
 10
39.330914
 20
66.856989
 30
0.0
 11
163.330914
 21
66.856989
 31
0.0
  0
LINE
  5
155
330
1F
100
AcDbEntity
  8
001
370
    50
100
AcDbLine
 10
37.330914
 20
66.856989
 30
0.0
 11
25.729338
 21
66.856989
 31
0.0
  0
LINE
  5
156
330
1F
100
AcDbEntity
  8
001
370
    50
100
AcDbLine
 10
39.330914
 20
54.856989
 30
0.0
 11
163.330914
 21
54.856989
 31
0.0
  0
LINE
  5
157
330
1F
100
AcDbEntity
  8
001
370
    50
100
AcDbLine
 10
37.330914
 20
54.856989
 30
0.0
 11
35.471488
 21
54.856989
 31
0.0
  0
LINE
  5
158
330
1F
100
AcDbEntity
  8
001
370
    50
100
AcDbLine
 10
39.330914
 20
66.356989
 30
0.0
 11
37.330914
 21
66.356989
 31
0.0
  0
LINE
  5
159
330
1F
100
AcDbEntity
  8
001
370
    50
100
AcDbLine
 10
39.330914
 20
55.356989
 30
0.0
 11
37.330914
 21
55.356989
 31
0.0
  0
TEXT
  5
15A
330
1F
100
AcDbEntity
  8
001
370
    30
100
AcDbText
 10
12.735207
 20
82.931537
 30
0.0
 40
4.0
  1
ＲＶ１２－１９Ｓ
 41
0.833333
100
AcDbText
  0
ENDSEC
  0
SECTION
  2
OBJECTS
  0
DICTIONARY
  5
C
330
0
100
AcDbDictionary
281
     1
  3
ACAD_GROUP
350
D
  3
ACAD_LAYOUT
350
1A
  3
ACAD_MLEADERSTYLE
350
15E
  3
ACAD_MLINESTYLE
350
17
  3
ACAD_PLOTSETTINGS
350
19
  3
ACAD_PLOTSTYLENAME
350
E
  3
ACAD_SCALELIST
350
3B
  3
ACAD_TABLESTYLE
350
15D
  3
ACAD_VISUALSTYLE
350
2A
  3
AcDbVariableDictionary
350
15B
  0
DICTIONARY
  5
D
102
{ACAD_REACTORS
330
C
102
}
330
C
100
AcDbDictionary
281
     1
  0
DICTIONARY
  5
1A
102
{ACAD_REACTORS
330
C
102
}
330
C
100
AcDbDictionary
281
     1
  3
Layout1
350
1E
  3
Layout2
350
26
  3
Model
350
22
  0
DICTIONARY
  5
15E
102
{ACAD_REACTORS
330
C
102
}
330
C
100
AcDbDictionary
281
     1
  0
DICTIONARY
  5
17
102
{ACAD_REACTORS
330
C
102
}
330
C
100
AcDbDictionary
281
     1
  3
Standard
350
18
  0
DICTIONARY
  5
19
102
{ACAD_REACTORS
330
C
102
}
330
C
100
AcDbDictionary
281
     1
  0
ACDBDICTIONARYWDFLT
  5
E
102
{ACAD_REACTORS
330
C
102
}
330
C
100
AcDbDictionary
281
     1
  3
Normal
350
F
100
AcDbDictionaryWithDefault
340
F
  0
DICTIONARY
  5
3B
102
{ACAD_REACTORS
330
C
102
}
330
C
100
AcDbDictionary
281
     1
  3
A0
350
3C
  3
A1
350
3D
  3
A2
350
3E
  3
A3
350
3F
  3
A4
350
40
  3
A5
350
41
  3
A6
350
42
  3
A7
350
43
  3
A8
350
44
  3
A9
350
45
  3
B0
350
46
  3
B1
350
47
  3
B2
350
48
  3
B3
350
49
  3
B4
350
4A
  3
B5
350
4B
  3
B6
350
4C
  3
B7
350
4D
  3
B8
350
4E
  3
B9
350
4F
  3
C0
350
50
  3
C1
350
51
  3
C2
350
52
  3
C3
350
53
  3
C4
350
54
  3
C5
350
55
  3
C6
350
56
  3
C7
350
57
  3
C8
350
58
  3
C9
350
59
  3
D0
350
5A
  3
D1
350
5B
  3
D2
350
5C
  0
DICTIONARY
  5
15D
102
{ACAD_REACTORS
330
C
102
}
330
C
100
AcDbDictionary
281
     1
  0
DICTIONARY
  5
2A
102
{ACAD_REACTORS
330
C
102
}
330
C
100
AcDbDictionary
281
     1
  3
2dWireframe
350
2F
  3
3D Hidden
350
31
  3
3dWireframe
350
30
  3
Basic
350
32
  3
Brighten
350
36
  3
ColorChange
350
3A
  3
Conceptual
350
34
  3
Dim
350
35
  3
Facepattern
350
39
  3
Flat
350
2B
  3
FlatWithEdges
350
2C
  3
Gouraud
350
2D
  3
GouraudWithEdges
350
2E
  3
Linepattern
350
38
  3
Realistic
350
33
  3
Thicken
350
37
  0
DICTIONARY
  5
15B
102
{ACAD_REACTORS
330
C
102
}
330
C
100
AcDbDictionary
281
     1
  3
CANNOSCALE
350
15C
  3
PSOLHEIGHT
350
160
  3
PSOLWIDTH
350
15F
  0
LAYOUT
  5
1E
102
{ACAD_REACTORS
330
1A
102
}
330
1A
100
AcDbPlotSettings
  1

  2
none_device
  4

  6

 40
0.0
 41
0.0
 42
0.0
 43
0.0
 44
0.0
 45
0.0
 46
0.0
 47
0.0
 48
0.0
 49
0.0
140
0.0
141
0.0
142
1.0
143
1.0
 70
   688
 72
     0
 73
     0
 74
     5
  7

 75
    16
147
1.0
148
0.0
149
0.0
100
AcDbLayout
  1
Layout1
 70
     1
 71
     1
 10
0.0
 20
0.0
 11
12.0
 21
9.0
 12
0.0
 22
0.0
 32
0.0
 14
1.000000E+20
 24
1.000000E+20
 34
0.0
 15
-1.000000E+20
 25
-1.000000E+20
 35
0.0
146
0.0
 13
0.0
 23
0.0
 33
0.0
 16
1.0
 26
0.0
 36
0.0
 17
0.0
 27
1.0
 37
0.0
 76
     0
330
1B
  0
LAYOUT
  5
26
102
{ACAD_REACTORS
330
1A
102
}
330
1A
100
AcDbPlotSettings
  1

  2
none_device
  4

  6

 40
0.0
 41
0.0
 42
0.0
 43
0.0
 44
0.0
 45
0.0
 46
0.0
 47
0.0
 48
0.0
 49
0.0
140
0.0
141
0.0
142
1.0
143
1.0
 70
   688
 72
     0
 73
     0
 74
     5
  7

 75
    16
147
1.0
148
0.0
149
0.0
100
AcDbLayout
  1
Layout2
 70
     1
 71
     2
 10
0.0
 20
0.0
 11
0.0
 21
0.0
 12
0.0
 22
0.0
 32
0.0
 14
0.0
 24
0.0
 34
0.0
 15
0.0
 25
0.0
 35
0.0
146
0.0
 13
0.0
 23
0.0
 33
0.0
 16
1.0
 26
0.0
 36
0.0
 17
0.0
 27
1.0
 37
0.0
 76
     0
330
23
  0
LAYOUT
  5
22
102
{ACAD_REACTORS
330
1A
102
}
330
1A
100
AcDbPlotSettings
  1

  2
none_device
  4

  6

 40
0.0
 41
0.0
 42
0.0
 43
0.0
 44
0.0
 45
0.0
 46
0.0
 47
0.0
 48
0.0
 49
0.0
140
0.0
141
0.0
142
1.0
143
1.0
 70
  1712
 72
     0
 73
     0
 74
     0
  7

 75
     0
147
1.0
148
0.0
149
0.0
100
AcDbLayout
  1
Model
 70
     1
 71
     0
 10
0.0
 20
0.0
 11
12.0
 21
9.0
 12
0.0
 22
0.0
 32
0.0
 14
-4.856842
 24
22.595657
 34
0.0
 15
183.599701
 25
86.931534
 35
0.0
146
0.0
 13
0.0
 23
0.0
 33
0.0
 16
1.0
 26
0.0
 36
0.0
 17
0.0
 27
1.0
 37
0.0
 76
     0
330
1F
331
29
  0
MLINESTYLE
  5
18
102
{ACAD_REACTORS
330
17
102
}
330
17
100
AcDbMlineStyle
  2
Standard
 70
     0
  3

 62
   256
 51
90.0
 52
90.0
 71
     2
 49
0.5
 62
   256
  6
BYLAYER
 49
-0.5
 62
   256
  6
BYLAYER
  0
ACDBPLACEHOLDER
  5
F
102
{ACAD_REACTORS
330
E
102
}
330
E
  0
SCALE
  5
3C
102
{ACAD_REACTORS
330
3B
102
}
330
3B
100
AcDbScale
 70
     0
300
1:1
140
1.0
141
1.0
290
     1
  0
SCALE
  5
3D
102
{ACAD_REACTORS
330
3B
102
}
330
3B
100
AcDbScale
 70
     0
300
1:2
140
1.0
141
2.0
290
     0
  0
SCALE
  5
3E
102
{ACAD_REACTORS
330
3B
102
}
330
3B
100
AcDbScale
 70
     0
300
1:4
140
1.0
141
4.0
290
     0
  0
SCALE
  5
3F
102
{ACAD_REACTORS
330
3B
102
}
330
3B
100
AcDbScale
 70
     0
300
1:5
140
1.0
141
5.0
290
     0
  0
SCALE
  5
40
102
{ACAD_REACTORS
330
3B
102
}
330
3B
100
AcDbScale
 70
     0
300
1:8
140
1.0
141
8.0
290
     0
  0
SCALE
  5
41
102
{ACAD_REACTORS
330
3B
102
}
330
3B
100
AcDbScale
 70
     0
300
1:10
140
1.0
141
10.0
290
     0
  0
SCALE
  5
42
102
{ACAD_REACTORS
330
3B
102
}
330
3B
100
AcDbScale
 70
     0
300
1:16
140
1.0
141
16.0
290
     0
  0
SCALE
  5
43
102
{ACAD_REACTORS
330
3B
102
}
330
3B
100
AcDbScale
 70
     0
300
1:20
140
1.0
141
20.0
290
     0
  0
SCALE
  5
44
102
{ACAD_REACTORS
330
3B
102
}
330
3B
100
AcDbScale
 70
     0
300
1:30
140
1.0
141
30.0
290
     0
  0
SCALE
  5
45
102
{ACAD_REACTORS
330
3B
102
}
330
3B
100
AcDbScale
 70
     0
300
1:40
140
1.0
141
40.0
290
     0
  0
SCALE
  5
46
102
{ACAD_REACTORS
330
3B
102
}
330
3B
100
AcDbScale
 70
     0
300
1:50
140
1.0
141
50.0
290
     0
  0
SCALE
  5
47
102
{ACAD_REACTORS
330
3B
102
}
330
3B
100
AcDbScale
 70
     0
300
1:100
140
1.0
141
100.0
290
     0
  0
SCALE
  5
48
102
{ACAD_REACTORS
330
3B
102
}
330
3B
100
AcDbScale
 70
     0
300
2:1
140
2.0
141
1.0
290
     0
  0
SCALE
  5
49
102
{ACAD_REACTORS
330
3B
102
}
330
3B
100
AcDbScale
 70
     0
300
4:1
140
4.0
141
1.0
290
     0
  0
SCALE
  5
4A
102
{ACAD_REACTORS
330
3B
102
}
330
3B
100
AcDbScale
 70
     0
300
8:1
140
8.0
141
1.0
290
     0
  0
SCALE
  5
4B
102
{ACAD_REACTORS
330
3B
102
}
330
3B
100
AcDbScale
 70
     0
300
10:1
140
10.0
141
1.0
290
     0
  0
SCALE
  5
4C
102
{ACAD_REACTORS
330
3B
102
}
330
3B
100
AcDbScale
 70
     0
300
100:1
140
100.0
141
1.0
290
     0
  0
SCALE
  5
4D
102
{ACAD_REACTORS
330
3B
102
}
330
3B
100
AcDbScale
 70
     0
300
1/128" = 1'-0"
140
0.007812
141
12.0
290
     0
  0
SCALE
  5
4E
102
{ACAD_REACTORS
330
3B
102
}
330
3B
100
AcDbScale
 70
     0
300
1/64" = 1'-0"
140
0.015625
141
12.0
290
     0
  0
SCALE
  5
4F
102
{ACAD_REACTORS
330
3B
102
}
330
3B
100
AcDbScale
 70
     0
300
1/32" = 1'-0"
140
0.03125
141
12.0
290
     0
  0
SCALE
  5
50
102
{ACAD_REACTORS
330
3B
102
}
330
3B
100
AcDbScale
 70
     0
300
1/16" = 1'-0"
140
0.0625
141
12.0
290
     0
  0
SCALE
  5
51
102
{ACAD_REACTORS
330
3B
102
}
330
3B
100
AcDbScale
 70
     0
300
3/32" = 1'-0"
140
0.09375
141
12.0
290
     0
  0
SCALE
  5
52
102
{ACAD_REACTORS
330
3B
102
}
330
3B
100
AcDbScale
 70
     0
300
1/8" = 1'-0"
140
0.125
141
12.0
290
     0
  0
SCALE
  5
53
102
{ACAD_REACTORS
330
3B
102
}
330
3B
100
AcDbScale
 70
     0
300
3/16" = 1'-0"
140
0.1875
141
12.0
290
     0
  0
SCALE
  5
54
102
{ACAD_REACTORS
330
3B
102
}
330
3B
100
AcDbScale
 70
     0
300
1/4" = 1'-0"
140
0.25
141
12.0
290
     0
  0
SCALE
  5
55
102
{ACAD_REACTORS
330
3B
102
}
330
3B
100
AcDbScale
 70
     0
300
3/8" = 1'-0"
140
0.375
141
12.0
290
     0
  0
SCALE
  5
56
102
{ACAD_REACTORS
330
3B
102
}
330
3B
100
AcDbScale
 70
     0
300
1/2" = 1'-0"
140
0.5
141
12.0
290
     0
  0
SCALE
  5
57
102
{ACAD_REACTORS
330
3B
102
}
330
3B
100
AcDbScale
 70
     0
300
3/4" = 1'-0"
140
0.75
141
12.0
290
     0
  0
SCALE
  5
58
102
{ACAD_REACTORS
330
3B
102
}
330
3B
100
AcDbScale
 70
     0
300
1" = 1'-0"
140
1.0
141
12.0
290
     0
  0
SCALE
  5
59
102
{ACAD_REACTORS
330
3B
102
}
330
3B
100
AcDbScale
 70
     0
300
1-1/2" = 1'-0"
140
1.5
141
12.0
290
     0
  0
SCALE
  5
5A
102
{ACAD_REACTORS
330
3B
102
}
330
3B
100
AcDbScale
 70
     0
300
3" = 1'-0"
140
3.0
141
12.0
290
     0
  0
SCALE
  5
5B
102
{ACAD_REACTORS
330
3B
102
}
330
3B
100
AcDbScale
 70
     0
300
6" = 1'-0"
140
6.0
141
12.0
290
     0
  0
SCALE
  5
5C
102
{ACAD_REACTORS
330
3B
102
}
330
3B
100
AcDbScale
 70
     0
300
1'-0" = 1'-0"
140
12.0
141
12.0
290
     0
  0
VISUALSTYLE
  5
2F
102
{ACAD_REACTORS
330
2A
102
}
330
2A
100
AcDbVisualStyle
  2
2dWireframe
 70
     4
 71
     0
 72
     2
 73
     0
 90
        0
 40
-0.6
 41
-30.0
 62
     5
 63
     7
 74
     1
 91
        4
 64
     7
 65
   257
 75
     1
175
     1
 42
1.0
 92
        0
 66
   257
 43
1.0
 76
     1
 77
     6
 78
     2
 67
     7
 79
     5
170
     0
171
     0
290
     0
174
     0
 93
        1
 44
0.0
173
     0
291
     0
 45
0.0
1001
ACAD
1000
AcDbSavedByObjectVersion
1070
     0
  0
VISUALSTYLE
  5
31
102
{ACAD_REACTORS
330
2A
102
}
330
2A
100
AcDbVisualStyle
  2
3D Hidden
 70
     6
 71
     1
 72
     2
 73
     2
 90
        0
 40
-0.6
 41
-30.0
 62
     5
 63
     7
 74
     2
 91
        2
 64
     7
 65
   257
 75
     2
175
     1
 42
40.0
 92
        0
 66
   257
 43
1.0
 76
     1
 77
     6
 78
     2
 67
     7
 79
     3
170
     0
171
     0
290
     0
174
     0
 93
        1
 44
0.0
173
     0
291
     0
 45
0.0
1001
ACAD
1000
AcDbSavedByObjectVersion
1070
     0
  0
VISUALSTYLE
  5
30
102
{ACAD_REACTORS
330
2A
102
}
330
2A
100
AcDbVisualStyle
  2
3dWireframe
 70
     5
 71
     0
 72
     2
 73
     0
 90
        0
 40
-0.6
 41
-30.0
 62
     5
 63
     7
 74
     1
 91
        4
 64
     7
 65
   257
 75
     1
175
     1
 42
1.0
 92
        0
 66
   257
 43
1.0
 76
     1
 77
     6
 78
     2
 67
     7
 79
     5
170
     0
171
     0
290
     0
174
     0
 93
        1
 44
0.0
173
     0
291
     0
 45
0.0
1001
ACAD
1000
AcDbSavedByObjectVersion
1070
     0
  0
VISUALSTYLE
  5
32
102
{ACAD_REACTORS
330
2A
102
}
330
2A
100
AcDbVisualStyle
  2
Basic
 70
     7
 71
     1
 72
     0
 73
     1
 90
        0
 40
-0.6
 41
-30.0
 62
     5
 63
     7
 74
     0
 91
        4
 64
     7
 65
   257
 75
     1
175
     1
 42
1.0
 92
        8
 66
     7
 43
1.0
 76
     1
 77
     6
 78
     2
 67
     7
 79
     5
170
     0
171
     0
290
     0
174
     0
 93
        1
 44
0.0
173
     0
291
     1
 45
0.0
1001
ACAD
1000
AcDbSavedByObjectVersion
1070
     0
  0
VISUALSTYLE
  5
36
102
{ACAD_REACTORS
330
2A
102
}
330
2A
100
AcDbVisualStyle
  2
Brighten
 70
    12
 71
     2
 72
     2
 73
     0
 90
        0
 40
-0.6
 41
-30.0
 62
     5
 63
     7
 74
     1
 91
        4
 64
     7
 65
   257
 75
     1
175
     1
 42
1.0
 92
        8
 66
     7
 43
1.0
 76
     1
 77
     6
 78
     2
 67
     7
 79
     5
170
     0
171
     0
290
     0
174
     0
 93
        1
 44
50.0
173
     0
291
     1
 45
0.0
1001
ACAD
1000
AcDbSavedByObjectVersion
1070
     0
  0
VISUALSTYLE
  5
3A
102
{ACAD_REACTORS
330
2A
102
}
330
2A
100
AcDbVisualStyle
  2
ColorChange
 70
    16
 71
     2
 72
     2
 73
     3
 90
        0
 40
-0.6
 41
-30.0
 62
     5
 63
     8
 74
     1
 91
        4
 64
     7
 65
   257
 75
     1
175
     1
 42
1.0
 92
        8
 66
     8
 43
1.0
 76
     1
 77
     6
 78
     2
 67
     7
 79
     5
170
     0
171
     0
290
     0
174
     0
 93
        1
 44
0.0
173
     0
291
     1
 45
0.0
1001
ACAD
1000
AcDbSavedByObjectVersion
1070
     0
  0
VISUALSTYLE
  5
34
102
{ACAD_REACTORS
330
2A
102
}
330
2A
100
AcDbVisualStyle
  2
Conceptual
 70
     9
 71
     3
 72
     2
 73
     0
 90
        0
 40
-0.6
 41
-30.0
 62
     5
 63
     7
 74
     2
 91
        2
 64
     7
 65
   257
 75
     1
175
     1
 42
40.0
 92
        8
 66
     7
 43
1.0
 76
     1
 77
     6
 78
     2
 67
     7
 79
     3
170
     0
171
     0
290
     0
174
     0
 93
        1
 44
0.0
173
     0
291
     0
 45
0.0
1001
ACAD
1000
AcDbSavedByObjectVersion
1070
     0
  0
VISUALSTYLE
  5
35
102
{ACAD_REACTORS
330
2A
102
}
330
2A
100
AcDbVisualStyle
  2
Dim
 70
    11
 71
     2
 72
     2
 73
     0
 90
        0
 40
-0.6
 41
-30.0
 62
     5
 63
     7
 74
     1
 91
        4
 64
     7
 65
   257
 75
     1
175
     1
 42
1.0
 92
        8
 66
     7
 43
1.0
 76
     1
 77
     6
 78
     2
 67
     7
 79
     5
170
     0
171
     0
290
     0
174
     0
 93
        1
 44
-50.0
173
     0
291
     1
 45
0.0
1001
ACAD
1000
AcDbSavedByObjectVersion
1070
     0
  0
VISUALSTYLE
  5
39
102
{ACAD_REACTORS
330
2A
102
}
330
2A
100
AcDbVisualStyle
  2
Facepattern
 70
    15
 71
     2
 72
     2
 73
     0
 90
        0
 40
-0.6
 41
-30.0
 62
     5
 63
     7
 74
     1
 91
        4
 64
     7
 65
   257
 75
     1
175
     1
 42
1.0
 92
        8
 66
     7
 43
1.0
 76
     1
 77
     6
 78
     2
 67
     7
 79
     5
170
     0
171
     0
290
     0
174
     0
 93
        1
 44
0.0
173
     0
291
     1
 45
0.0
1001
ACAD
1000
AcDbSavedByObjectVersion
1070
     0
  0
VISUALSTYLE
  5
2B
102
{ACAD_REACTORS
330
2A
102
}
330
2A
100
AcDbVisualStyle
  2
Flat
 70
     0
 71
     2
 72
     1
 73
     1
 90
        2
 40
-0.6
 41
30.0
 62
     5
 63
     7
 74
     0
 91
        4
 64
     7
 65
   257
 75
     1
175
     1
 42
1.0
 92
        8
 66
     7
 43
1.0
 76
     1
 77
     6
 78
     2
 67
     7
 79
     5
170
     0
171
     0
290
     0
174
     0
 93
       13
 44
0.0
173
     0
291
     1
 45
0.0
1001
ACAD
1000
AcDbSavedByObjectVersion
1070
     0
  0
VISUALSTYLE
  5
2C
102
{ACAD_REACTORS
330
2A
102
}
330
2A
100
AcDbVisualStyle
  2
FlatWithEdges
 70
     1
 71
     2
 72
     1
 73
     1
 90
        2
 40
-0.6
 41
30.0
 62
     5
 63
     7
 74
     1
 91
        4
 64
     7
 65
   257
 75
     1
175
     1
 42
1.0
 92
        0
 66
   257
 43
1.0
 76
     1
 77
     6
 78
     2
 67
     7
 79
     5
170
     0
171
     0
290
     0
174
     0
 93
       13
 44
0.0
173
     0
291
     1
 45
0.0
1001
ACAD
1000
AcDbSavedByObjectVersion
1070
     0
  0
VISUALSTYLE
  5
2D
102
{ACAD_REACTORS
330
2A
102
}
330
2A
100
AcDbVisualStyle
  2
Gouraud
 70
     2
 71
     2
 72
     2
 73
     1
 90
        2
 40
-0.6
 41
30.0
 62
     5
 63
     7
 74
     0
 91
        4
 64
     7
 65
   257
 75
     1
175
     1
 42
1.0
 92
        0
 66
     7
 43
1.0
 76
     1
 77
     6
 78
     2
 67
     7
 79
     5
170
     0
171
     0
290
     0
174
     0
 93
       13
 44
0.0
173
     0
291
     1
 45
0.0
1001
ACAD
1000
AcDbSavedByObjectVersion
1070
     0
  0
VISUALSTYLE
  5
2E
102
{ACAD_REACTORS
330
2A
102
}
330
2A
100
AcDbVisualStyle
  2
GouraudWithEdges
 70
     3
 71
     2
 72
     2
 73
     1
 90
        2
 40
-0.6
 41
30.0
 62
     5
 63
     7
 74
     1
 91
        4
 64
     7
 65
   257
 75
     1
175
     1
 42
1.0
 92
        0
 66
   257
 43
1.0
 76
     1
 77
     6
 78
     2
 67
     7
 79
     5
170
     0
171
     0
290
     0
174
     0
 93
       13
 44
0.0
173
     0
291
     1
 45
0.0
1001
ACAD
1000
AcDbSavedByObjectVersion
1070
     0
  0
VISUALSTYLE
  5
38
102
{ACAD_REACTORS
330
2A
102
}
330
2A
100
AcDbVisualStyle
  2
Linepattern
 70
    14
 71
     2
 72
     2
 73
     0
 90
        0
 40
-0.6
 41
-30.0
 62
     5
 63
     7
 74
     1
 91
        4
 64
     7
 65
   257
 75
     7
175
     7
 42
1.0
 92
        8
 66
     7
 43
1.0
 76
     1
 77
     6
 78
     2
 67
     7
 79
     5
170
     0
171
     0
290
     0
174
     0
 93
        1
 44
0.0
173
     0
291
     1
 45
0.0
1001
ACAD
1000
AcDbSavedByObjectVersion
1070
     0
  0
VISUALSTYLE
  5
33
102
{ACAD_REACTORS
330
2A
102
}
330
2A
100
AcDbVisualStyle
  2
Realistic
 70
     8
 71
     2
 72
     2
 73
     0
 90
        0
 40
-0.6
 41
-30.0
 62
     5
 63
     7
 74
     1
 91
        0
 64
     7
 65
   257
 75
     1
175
     1
 42
1.0
 92
        8
 66
     8
 43
1.0
 76
     1
 77
     6
 78
     2
 67
     7
 79
     5
170
     0
171
     0
290
     0
174
     0
 93
       13
 44
0.0
173
     0
291
     0
 45
0.0
1001
ACAD
1000
AcDbSavedByObjectVersion
1070
     0
  0
VISUALSTYLE
  5
37
102
{ACAD_REACTORS
330
2A
102
}
330
2A
100
AcDbVisualStyle
  2
Thicken
 70
    13
 71
     2
 72
     2
 73
     0
 90
        0
 40
-0.6
 41
-30.0
 62
     5
 63
     7
 74
     1
 91
        4
 64
     7
 65
   257
 75
     1
175
     1
 42
1.0
 92
       12
 66
     7
 43
1.0
 76
     1
 77
     6
 78
     2
 67
     7
 79
     5
170
     0
171
     0
290
     0
174
     0
 93
        1
 44
0.0
173
     0
291
     1
 45
0.0
1001
ACAD
1000
AcDbSavedByObjectVersion
1070
     0
  0
DICTIONARYVAR
  5
15C
102
{ACAD_REACTORS
330
15B
102
}
330
15B
100
DictionaryVariables
280
     0
  1
1:1
  0
DICTIONARYVAR
  5
160
102
{ACAD_REACTORS
330
15B
102
}
330
15B
100
DictionaryVariables
280
     0
  1
80.000000
  0
DICTIONARYVAR
  5
15F
102
{ACAD_REACTORS
330
15B
102
}
330
15B
100
DictionaryVariables
280
     0
  1
5.000000
  0
ENDSEC
  0
EOF
