  0
SECTION
  2
HEADER
  9
$ACADVER
  1
AC1015
  9
$ACADMAINTVER
 70
     6
  9
$DWGCODEPAGE
  3
ANSI_932
  9
$INSBASE
 10
0.0
 20
0.0
 30
0.0
  9
$EXTMIN
 10
0.0
 20
0.0
 30
0.0
  9
$EXTMAX
 10
176.013336
 20
86.769348
 30
0.0
  9
$LIMMIN
 10
0.0
 20
0.0
  9
$LIMMAX
 10
12.0
 20
9.0
  9
$ORTHOMODE
 70
     0
  9
$REGENMODE
 70
     1
  9
$FILLMODE
 70
     1
  9
$QTEXTMODE
 70
     0
  9
$MIRRTEXT
 70
     1
  9
$LTSCALE
 40
1.962387
  9
$ATTMODE
 70
     1
  9
$TEXTSIZE
 40
3.2
  9
$TRACEWID
 40
1.0
  9
$TEXTSTYLE
  7
Standard
  9
$CLAYER
  8
0
  9
$CELTYPE
  6
ByLayer
  9
$CECOLOR
 62
   256
  9
$CELTSCALE
 40
1.0
  9
$DISPSILH
 70
     0
  9
$DIMSCALE
 40
1.0
  9
$DIMASZ
 40
2.5
  9
$DIMEXO
 40
0.625
  9
$DIMDLI
 40
3.75
  9
$DIMRND
 40
0.0
  9
$DIMDLE
 40
0.0
  9
$DIMEXE
 40
1.25
  9
$DIMTP
 40
0.0
  9
$DIMTM
 40
0.0
  9
$DIMTXT
 40
2.5
  9
$DIMCEN
 40
0.09
  9
$DIMTSZ
 40
0.0
  9
$DIMTOL
 70
     0
  9
$DIMLIM
 70
     0
  9
$DIMTIH
 70
     0
  9
$DIMTOH
 70
     0
  9
$DIMSE1
 70
     0
  9
$DIMSE2
 70
     0
  9
$DIMTAD
 70
     0
  9
$DIMZIN
 70
     8
  9
$DIMBLK
  1

  9
$DIMASO
 70
     1
  9
$DIMSHO
 70
     0
  9
$DIMPOST
  1

  9
$DIMAPOST
  1

  9
$DIMALT
 70
     0
  9
$DIMALTD
 70
     3
  9
$DIMALTF
 40
0.03937
  9
$DIMLFAC
 40
1.0
  9
$DIMTOFL
 70
     1
  9
$DIMTVP
 40
0.0
  9
$DIMTIX
 70
     0
  9
$DIMSOXD
 70
     0
  9
$DIMSAH
 70
     0
  9
$DIMBLK1
  1

  9
$DIMBLK2
  1

  9
$DIMSTYLE
  2
ISO-25
  9
$DIMCLRD
 70
     0
  9
$DIMCLRE
 70
     0
  9
$DIMCLRT
 70
     0
  9
$DIMTFAC
 40
1.0
  9
$DIMGAP
 40
0.625
  9
$DIMJUST
 70
     0
  9
$DIMSD1
 70
     0
  9
$DIMSD2
 70
     0
  9
$DIMTOLJ
 70
     0
  9
$DIMTZIN
 70
     8
  9
$DIMALTZ
 70
     0
  9
$DIMALTTZ
 70
     0
  9
$DIMUPT
 70
     0
  9
$DIMDEC
 70
     2
  9
$DIMTDEC
 70
     2
  9
$DIMALTU
 70
     2
  9
$DIMALTTD
 70
     3
  9
$DIMTXSTY
  7
Standard
  9
$DIMAUNIT
 70
     0
  9
$DIMADEC
 70
     0
  9
$DIMALTRND
 40
0.0
  9
$DIMAZIN
 70
     0
  9
$DIMDSEP
 70
    44
  9
$DIMATFIT
 70
     3
  9
$DIMFRAC
 70
     0
  9
$DIMLDRBLK
  1

  9
$DIMLUNIT
 70
     2
  9
$DIMLWD
 70
    -2
  9
$DIMLWE
 70
    -2
  9
$DIMTMOVE
 70
     0
  9
$LUNITS
 70
     2
  9
$LUPREC
 70
     4
  9
$SKETCHINC
 40
1.0
  9
$FILLETRAD
 40
0.0
  9
$AUNITS
 70
     0
  9
$AUPREC
 70
     0
  9
$MENU
  1
.
  9
$ELEVATION
 40
0.0
  9
$PELEVATION
 40
0.0
  9
$THICKNESS
 40
0.0
  9
$LIMCHECK
 70
     0
  9
$CHAMFERA
 40
10.0
  9
$CHAMFERB
 40
10.0
  9
$CHAMFERC
 40
20.0
  9
$CHAMFERD
 40
0.0
  9
$SKPOLY
 70
     0
  9
$TDCREATE
 40
2456204.412868553
  9
$TDUCREATE
 40
2456204.037868553
  9
$TDUPDATE
 40
2456204.412868565
  9
$TDUUPDATE
 40
2456204.037868565
  9
$TDINDWG
 40
0.0000000116
  9
$TDUSRTIMER
 40
0.0000000116
  9
$USRTIMER
 70
     1
  9
$ANGBASE
 50
0.0
  9
$ANGDIR
 70
     0
  9
$PDMODE
 70
     0
  9
$PDSIZE
 40
0.0
  9
$PLINEWID
 40
0.0
  9
$SPLFRAME
 70
     0
  9
$SPLINETYPE
 70
     6
  9
$SPLINESEGS
 70
     8
  9
$HANDSEED
  5
2E3
  9
$SURFTAB1
 70
     6
  9
$SURFTAB2
 70
     6
  9
$SURFTYPE
 70
     6
  9
$SURFU
 70
     6
  9
$SURFV
 70
     6
  9
$UCSBASE
  2

  9
$UCSNAME
  2

  9
$UCSORG
 10
0.0
 20
0.0
 30
0.0
  9
$UCSXDIR
 10
1.0
 20
0.0
 30
0.0
  9
$UCSYDIR
 10
0.0
 20
1.0
 30
0.0
  9
$UCSORTHOREF
  2

  9
$UCSORTHOVIEW
 70
     0
  9
$UCSORGTOP
 10
0.0
 20
0.0
 30
0.0
  9
$UCSORGBOTTOM
 10
0.0
 20
0.0
 30
0.0
  9
$UCSORGLEFT
 10
0.0
 20
0.0
 30
0.0
  9
$UCSORGRIGHT
 10
0.0
 20
0.0
 30
0.0
  9
$UCSORGFRONT
 10
0.0
 20
0.0
 30
0.0
  9
$UCSORGBACK
 10
0.0
 20
0.0
 30
0.0
  9
$PUCSBASE
  2

  9
$PUCSNAME
  2

  9
$PUCSORG
 10
0.0
 20
0.0
 30
0.0
  9
$PUCSXDIR
 10
1.0
 20
0.0
 30
0.0
  9
$PUCSYDIR
 10
0.0
 20
1.0
 30
0.0
  9
$PUCSORTHOREF
  2

  9
$PUCSORTHOVIEW
 70
     0
  9
$PUCSORGTOP
 10
0.0
 20
0.0
 30
0.0
  9
$PUCSORGBOTTOM
 10
0.0
 20
0.0
 30
0.0
  9
$PUCSORGLEFT
 10
0.0
 20
0.0
 30
0.0
  9
$PUCSORGRIGHT
 10
0.0
 20
0.0
 30
0.0
  9
$PUCSORGFRONT
 10
0.0
 20
0.0
 30
0.0
  9
$PUCSORGBACK
 10
0.0
 20
0.0
 30
0.0
  9
$USERI1
 70
     0
  9
$USERI2
 70
     0
  9
$USERI3
 70
     0
  9
$USERI4
 70
     0
  9
$USERI5
 70
     0
  9
$USERR1
 40
0.0
  9
$USERR2
 40
0.0
  9
$USERR3
 40
0.0
  9
$USERR4
 40
0.0
  9
$USERR5
 40
0.0
  9
$WORLDVIEW
 70
     1
  9
$SHADEDGE
 70
     3
  9
$SHADEDIF
 70
    70
  9
$TILEMODE
 70
     1
  9
$MAXACTVP
 70
    64
  9
$PINSBASE
 10
0.0
 20
0.0
 30
0.0
  9
$PLIMCHECK
 70
     0
  9
$PEXTMIN
 10
1.000000E+20
 20
1.000000E+20
 30
0.0
  9
$PEXTMAX
 10
-1.000000E+20
 20
-1.000000E+20
 30
0.0
  9
$PLIMMIN
 10
0.0
 20
0.0
  9
$PLIMMAX
 10
12.0
 20
9.0
  9
$UNITMODE
 70
     0
  9
$VISRETAIN
 70
     1
  9
$PLINEGEN
 70
     0
  9
$PSLTSCALE
 70
     1
  9
$TREEDEPTH
 70
  3020
  9
$CMLSTYLE
  2
Standard
  9
$CMLJUST
 70
     0
  9
$CMLSCALE
 40
20.0
  9
$PROXYGRAPHICS
 70
     1
  9
$MEASUREMENT
 70
     1
  9
$CELWEIGHT
370
    -1
  9
$ENDCAPS
280
     0
  9
$JOINSTYLE
280
     0
  9
$LWDISPLAY
290
     0
  9
$INSUNITS
 70
     4
  9
$HYPERLINKBASE
  1

  9
$STYLESHEET
  1

  9
$XEDIT
290
     1
  9
$CEPSNTYPE
380
     0
  9
$PSTYLEMODE
290
     1
  9
$FINGERPRINTGUID
  2
{F9D63327-B5DE-423B-BFD0-E11C0FDA2B21}
  9
$VERSIONGUID
  2
{FAEB1C32-E019-11D5-929B-00C0DF256EC4}
  9
$EXTNAMES
290
     1
  9
$PSVPSCALE
 40
0.0
  9
$OLESTARTUP
290
     0
  0
ENDSEC
  0
SECTION
  2
CLASSES
  0
CLASS
  1
ACDBDICTIONARYWDFLT
  2
AcDbDictionaryWithDefault
  3
ObjectDBX Classes
 90
        0
280
     0
281
     0
  0
CLASS
  1
VISUALSTYLE
  2
AcDbVisualStyle
  3
ObjectDBX Classes
 90
     4095
280
     0
281
     0
  0
CLASS
  1
SCALE
  2
AcDbScale
  3
ObjectDBX Classes
 90
     1153
280
     0
281
     0
  0
CLASS
  1
DICTIONARYVAR
  2
AcDbDictionaryVar
  3
ObjectDBX Classes
 90
        0
280
     0
281
     0
  0
CLASS
  1
ACDBPLACEHOLDER
  2
AcDbPlaceHolder
  3
ObjectDBX Classes
 90
        0
280
     0
281
     0
  0
CLASS
  1
LAYOUT
  2
AcDbLayout
  3
ObjectDBX Classes
 90
        0
280
     0
281
     0
  0
ENDSEC
  0
SECTION
  2
TABLES
  0
TABLE
  2
VPORT
  5
8
330
0
100
AcDbSymbolTable
 70
     1
  0
VPORT
  5
29
330
8
100
AcDbSymbolTableRecord
100
AcDbViewportTableRecord
  2
*Active
 70
     0
 10
0.0
 20
0.0
 11
1.0
 21
1.0
 12
88.006668
 22
43.384674
 13
0.0
 23
0.0
 14
1.0
 24
1.0
 15
0.0
 25
0.0
 16
0.0
 26
0.0
 36
1.0
 17
0.0
 27
0.0
 37
0.0
 40
105.111294
 41
1.691288
 42
50.0
 43
0.0
 44
0.0
 50
0.0
 51
0.0
 71
     0
 72
   100
 73
     1
 74
     3
 75
     0
 76
     0
 77
     0
 78
     0
281
     0
 65
     1
110
0.0
120
0.0
130
0.0
111
1.0
121
0.0
131
0.0
112
0.0
122
1.0
132
0.0
 79
     0
146
0.0
  0
ENDTAB
  0
TABLE
  2
LTYPE
  5
5
330
0
100
AcDbSymbolTable
 70
     5
  0
LTYPE
  5
14
330
5
100
AcDbSymbolTableRecord
100
AcDbLinetypeTableRecord
  2
ByBlock
 70
     0
  3

 72
    65
 73
     0
 40
0.0
  0
LTYPE
  5
15
330
5
100
AcDbSymbolTableRecord
100
AcDbLinetypeTableRecord
  2
ByLayer
 70
     0
  3

 72
    65
 73
     0
 40
0.0
  0
LTYPE
  5
16
330
5
100
AcDbSymbolTableRecord
100
AcDbLinetypeTableRecord
  2
Continuous
 70
     0
  3
Solid line
 72
    65
 73
     0
 40
0.0
  0
LTYPE
  5
5D
330
5
100
AcDbSymbolTableRecord
100
AcDbLinetypeTableRecord
  2
DASHED
 70
     0
  3
DASHED
 72
    83
 73
     2
 40
0.75
 49
0.5
 74
     0
 49
-0.25
 74
     0
  0
LTYPE
  5
5E
330
5
100
AcDbSymbolTableRecord
100
AcDbLinetypeTableRecord
  2
HIDDEN
 70
     0
  3
HIDDEN
 72
    83
 73
     2
 40
0.375
 49
0.25
 74
     0
 49
-0.125
 74
     0
  0
LTYPE
  5
5F
330
5
100
AcDbSymbolTableRecord
100
AcDbLinetypeTableRecord
  2
CENTER
 70
     0
  3
CENTER
 72
    83
 73
     4
 40
2.0
 49
1.25
 74
     0
 49
-0.25
 74
     0
 49
0.25
 74
     0
 49
-0.25
 74
     0
  0
LTYPE
  5
60
330
5
100
AcDbSymbolTableRecord
100
AcDbLinetypeTableRecord
  2
PHANTOM
 70
     0
  3
PHANTOM
 72
    83
 73
     6
 40
2.5
 49
1.25
 74
     0
 49
-0.25
 74
     0
 49
0.25
 74
     0
 49
-0.25
 74
     0
 49
0.25
 74
     0
 49
-0.25
 74
     0
  0
ENDTAB
  0
TABLE
  2
LAYER
  5
2
330
0
100
AcDbSymbolTable
 70
     2
  0
LAYER
  5
10
330
2
100
AcDbSymbolTableRecord
100
AcDbLayerTableRecord
  2
0
 70
     0
 62
     7
  6
Continuous
370
    -3
390
F
  0
LAYER
  5
61
330
2
100
AcDbSymbolTableRecord
100
AcDbLayerTableRecord
  2
001
 70
     0
 62
     7
  6
Continuous
370
    -3
390
F
  0
ENDTAB
  0
TABLE
  2
STYLE
  5
3
330
0
100
AcDbSymbolTable
 70
     2
  0
STYLE
  5
11
330
3
100
AcDbSymbolTableRecord
100
AcDbTextStyleTableRecord
  2
Standard
 70
     0
 40
0.0
 41
1.0
 50
0.0
 71
     0
 42
0.2
  3
TXT
  4
BIGFONT
  0
STYLE
  5
62
330
3
100
AcDbSymbolTableRecord
100
AcDbTextStyleTableRecord
  2
TATEGAKI
 70
     4
 40
1.0
 41
1.0
 50
0.0
 71
     0
 42
0.2
  3
TXT
  4
BIGFONT
  0
ENDTAB
  0
TABLE
  2
VIEW
  5
6
330
0
100
AcDbSymbolTable
 70
     0
  0
ENDTAB
  0
TABLE
  2
UCS
  5
7
330
0
100
AcDbSymbolTable
 70
     0
  0
ENDTAB
  0
TABLE
  2
APPID
  5
9
330
0
100
AcDbSymbolTable
 70
     1
  0
APPID
  5
12
330
9
100
AcDbSymbolTableRecord
100
AcDbRegAppTableRecord
  2
ACAD
 70
     0
  0
ENDTAB
  0
TABLE
  2
DIMSTYLE
  5
A
330
0
100
AcDbSymbolTable
 70
     2
100
AcDbDimStyleTable
  0
DIMSTYLE
105
27
330
A
100
AcDbSymbolTableRecord
100
AcDbDimStyleTableRecord
  2
ISO-25
 70
     0
 41
2.5
 42
0.625
 43
3.75
 44
1.25
 73
     0
 74
     0
 77
     1
 78
     8
140
2.5
141
2.5
143
0.03937
147
0.625
171
     3
172
     1
271
     2
272
     2
274
     3
278
    44
283
     0
284
     8
340
11
  0
DIMSTYLE
105
63
102
{ACAD_REACTORS
330
DF
330
E0
330
E1
330
E2
330
E3
330
E4
102
}
330
A
100
AcDbSymbolTableRecord
100
AcDbDimStyleTableRecord
  2
Standard
 70
     0
 41
1.5
 42
0.0
 44
2.75
 73
     0
 74
     0
 77
     1
 78
     8
 79
     2
140
4.0
146
0.8
147
1.0
172
     1
179
     1
271
     1
340
11
  0
ENDTAB
  0
TABLE
  2
BLOCK_RECORD
  5
1
330
0
100
AcDbSymbolTable
 70
     7
  0
BLOCK_RECORD
  5
1F
330
1
100
AcDbSymbolTableRecord
100
AcDbBlockTableRecord
  2
*Model_Space
340
22
  0
BLOCK_RECORD
  5
1B
330
1
100
AcDbSymbolTableRecord
100
AcDbBlockTableRecord
  2
*Paper_Space
340
1E
  0
BLOCK_RECORD
  5
23
330
1
100
AcDbSymbolTableRecord
100
AcDbBlockTableRecord
  2
*Paper_Space0
340
26
  0
BLOCK_RECORD
  5
64
330
1
100
AcDbSymbolTableRecord
100
AcDbBlockTableRecord
  2
*D1
340
0
  0
BLOCK_RECORD
  5
78
330
1
100
AcDbSymbolTableRecord
100
AcDbBlockTableRecord
  2
*D2
340
0
  0
BLOCK_RECORD
  5
8C
330
1
100
AcDbSymbolTableRecord
100
AcDbBlockTableRecord
  2
*D3
340
0
  0
BLOCK_RECORD
  5
A0
330
1
100
AcDbSymbolTableRecord
100
AcDbBlockTableRecord
  2
*D4
340
0
  0
BLOCK_RECORD
  5
B6
330
1
100
AcDbSymbolTableRecord
100
AcDbBlockTableRecord
  2
*D5
340
0
  0
BLOCK_RECORD
  5
CB
330
1
100
AcDbSymbolTableRecord
100
AcDbBlockTableRecord
  2
*D6
340
0
  0
ENDTAB
  0
ENDSEC
  0
SECTION
  2
BLOCKS
  0
BLOCK
  5
20
330
1F
100
AcDbEntity
  8
0
100
AcDbBlockBegin
  2
*Model_Space
 70
     0
 10
0.0
 20
0.0
 30
0.0
  3
*Model_Space
  1

  0
ENDBLK
  5
21
330
1F
100
AcDbEntity
  8
0
100
AcDbBlockEnd
  0
BLOCK
  5
1C
330
1B
100
AcDbEntity
 67
     1
  8
0
100
AcDbBlockBegin
  2
*Paper_Space
 70
     0
 10
0.0
 20
0.0
 30
0.0
  3
*Paper_Space
  1

  0
ENDBLK
  5
1D
330
1B
100
AcDbEntity
 67
     1
  8
0
100
AcDbBlockEnd
  0
BLOCK
  5
24
330
23
100
AcDbEntity
  8
0
100
AcDbBlockBegin
  2
*Paper_Space0
 70
     0
 10
0.0
 20
0.0
 30
0.0
  3
*Paper_Space0
  1

  0
ENDBLK
  5
25
330
23
100
AcDbEntity
  8
0
100
AcDbBlockEnd
  0
BLOCK
  5
65
330
64
100
AcDbEntity
  8
0
100
AcDbBlockBegin
  2
*D1
 70
     1
 10
0.0
 20
0.0
 30
0.0
  3
*D1
  1

  0
LINE
  5
67
330
64
100
AcDbEntity
  8
001
370
     9
100
AcDbLine
 10
73.814798
 20
36.04519
 30
0.0
 11
73.814798
 21
7.757288
 31
0.0
  0
LINE
  5
68
330
64
100
AcDbEntity
  8
001
370
     9
100
AcDbLine
 10
43.814798
 20
45.691639
 30
0.0
 11
43.814798
 21
7.757288
 31
0.0
  0
LINE
  5
69
330
64
100
AcDbEntity
  8
001
370
     9
100
AcDbLine
 10
73.814798
 20
10.507288
 30
0.0
 11
43.814798
 21
10.507288
 31
0.0
  0
POLYLINE
  5
6A
330
64
100
AcDbEntity
  8
001
370
     9
100
AcDb2dPolyline
 66
     1
 10
0.0
 20
0.0
 30
0.0
  0
VERTEX
  5
6C
330
6A
100
AcDbEntity
  8
001
370
     9
100
AcDbVertex
100
AcDb2dVertex
 10
72.314798
 20
10.909212
 30
0.0
  0
VERTEX
  5
6D
330
6A
100
AcDbEntity
  8
001
370
     9
100
AcDbVertex
100
AcDb2dVertex
 10
73.814798
 20
10.507288
 30
0.0
  0
VERTEX
  5
6E
330
6A
100
AcDbEntity
  8
001
370
     9
100
AcDbVertex
100
AcDb2dVertex
 10
72.314798
 20
10.105364
 30
0.0
  0
SEQEND
  5
6B
330
6A
100
AcDbEntity
  8
001
370
     9
  0
POLYLINE
  5
6F
330
64
100
AcDbEntity
  8
001
370
     9
100
AcDb2dPolyline
 66
     1
 10
0.0
 20
0.0
 30
0.0
  0
VERTEX
  5
71
330
6F
100
AcDbEntity
  8
001
370
     9
100
AcDbVertex
100
AcDb2dVertex
 10
45.314798
 20
10.105364
 30
0.0
  0
VERTEX
  5
72
330
6F
100
AcDbEntity
  8
001
370
     9
100
AcDbVertex
100
AcDb2dVertex
 10
43.814798
 20
10.507288
 30
0.0
  0
VERTEX
  5
73
330
6F
100
AcDbEntity
  8
001
370
     9
100
AcDbVertex
100
AcDb2dVertex
 10
45.314798
 20
10.909212
 30
0.0
  0
SEQEND
  5
70
330
6F
100
AcDbEntity
  8
001
370
     9
  0
TEXT
  5
74
330
64
100
AcDbEntity
  8
001
370
    30
100
AcDbText
 10
55.614798
 20
11.507288
 30
0.0
 40
3.2
  1
３０
 41
0.833333
100
AcDbText
  0
POINT
  5
75
330
64
100
AcDbEntity
  8
001
370
     9
100
AcDbPoint
 10
73.814798
 20
36.04519
 30
0.0
  0
POINT
  5
76
330
64
100
AcDbEntity
  8
001
370
     9
100
AcDbPoint
 10
43.814798
 20
45.691639
 30
0.0
  0
POINT
  5
77
330
64
100
AcDbEntity
  8
001
370
     9
100
AcDbPoint
 10
43.814798
 20
10.507288
 30
0.0
  0
ENDBLK
  5
66
330
64
100
AcDbEntity
  8
0
100
AcDbBlockEnd
  0
BLOCK
  5
79
330
78
100
AcDbEntity
  8
0
100
AcDbBlockBegin
  2
*D2
 70
     1
 10
0.0
 20
0.0
 30
0.0
  3
*D2
  1

  0
LINE
  5
7B
330
78
100
AcDbEntity
  8
001
370
     9
100
AcDbLine
 10
153.814798
 20
44.04519
 30
0.0
 11
153.814798
 21
7.757288
 31
0.0
  0
LINE
  5
7C
330
78
100
AcDbEntity
  8
001
370
     9
100
AcDbLine
 10
73.814798
 20
36.04519
 30
0.0
 11
73.814798
 21
7.757288
 31
0.0
  0
LINE
  5
7D
330
78
100
AcDbEntity
  8
001
370
     9
100
AcDbLine
 10
153.814798
 20
10.507288
 30
0.0
 11
73.814798
 21
10.507288
 31
0.0
  0
POLYLINE
  5
7E
330
78
100
AcDbEntity
  8
001
370
     9
100
AcDb2dPolyline
 66
     1
 10
0.0
 20
0.0
 30
0.0
  0
VERTEX
  5
80
330
7E
100
AcDbEntity
  8
001
370
     9
100
AcDbVertex
100
AcDb2dVertex
 10
152.314798
 20
10.909212
 30
0.0
  0
VERTEX
  5
81
330
7E
100
AcDbEntity
  8
001
370
     9
100
AcDbVertex
100
AcDb2dVertex
 10
153.814798
 20
10.507288
 30
0.0
  0
VERTEX
  5
82
330
7E
100
AcDbEntity
  8
001
370
     9
100
AcDbVertex
100
AcDb2dVertex
 10
152.314798
 20
10.105364
 30
0.0
  0
SEQEND
  5
7F
330
7E
100
AcDbEntity
  8
001
370
     9
  0
POLYLINE
  5
83
330
78
100
AcDbEntity
  8
001
370
     9
100
AcDb2dPolyline
 66
     1
 10
0.0
 20
0.0
 30
0.0
  0
VERTEX
  5
85
330
83
100
AcDbEntity
  8
001
370
     9
100
AcDbVertex
100
AcDb2dVertex
 10
75.314798
 20
10.105364
 30
0.0
  0
VERTEX
  5
86
330
83
100
AcDbEntity
  8
001
370
     9
100
AcDbVertex
100
AcDb2dVertex
 10
73.814798
 20
10.507288
 30
0.0
  0
VERTEX
  5
87
330
83
100
AcDbEntity
  8
001
370
     9
100
AcDbVertex
100
AcDb2dVertex
 10
75.314798
 20
10.909212
 30
0.0
  0
SEQEND
  5
84
330
83
100
AcDbEntity
  8
001
370
     9
  0
TEXT
  5
88
330
78
100
AcDbEntity
  8
001
370
    30
100
AcDbText
 10
110.614798
 20
11.507288
 30
0.0
 40
3.2
  1
８０
 41
0.833333
100
AcDbText
  0
POINT
  5
89
330
78
100
AcDbEntity
  8
001
370
     9
100
AcDbPoint
 10
153.814798
 20
44.04519
 30
0.0
  0
POINT
  5
8A
330
78
100
AcDbEntity
  8
001
370
     9
100
AcDbPoint
 10
73.814798
 20
36.04519
 30
0.0
  0
POINT
  5
8B
330
78
100
AcDbEntity
  8
001
370
     9
100
AcDbPoint
 10
73.814798
 20
10.507288
 30
0.0
  0
ENDBLK
  5
7A
330
78
100
AcDbEntity
  8
0
100
AcDbBlockEnd
  0
BLOCK
  5
8D
330
8C
100
AcDbEntity
  8
0
100
AcDbBlockBegin
  2
*D3
 70
     1
 10
0.0
 20
0.0
 30
0.0
  3
*D3
  1

  0
LINE
  5
8F
330
8C
100
AcDbEntity
  8
001
370
     9
100
AcDbLine
 10
153.814798
 20
44.04519
 30
0.0
 11
153.814798
 21
0.415969
 31
0.0
  0
LINE
  5
90
330
8C
100
AcDbEntity
  8
001
370
     9
100
AcDbLine
 10
43.814798
 20
45.691639
 30
0.0
 11
43.814798
 21
0.415969
 31
0.0
  0
LINE
  5
91
330
8C
100
AcDbEntity
  8
001
370
     9
100
AcDbLine
 10
153.814798
 20
3.165969
 30
0.0
 11
43.814798
 21
3.165969
 31
0.0
  0
POLYLINE
  5
92
330
8C
100
AcDbEntity
  8
001
370
     9
100
AcDb2dPolyline
 66
     1
 10
0.0
 20
0.0
 30
0.0
  0
VERTEX
  5
94
330
92
100
AcDbEntity
  8
001
370
     9
100
AcDbVertex
100
AcDb2dVertex
 10
152.314798
 20
3.567893
 30
0.0
  0
VERTEX
  5
95
330
92
100
AcDbEntity
  8
001
370
     9
100
AcDbVertex
100
AcDb2dVertex
 10
153.814798
 20
3.165969
 30
0.0
  0
VERTEX
  5
96
330
92
100
AcDbEntity
  8
001
370
     9
100
AcDbVertex
100
AcDb2dVertex
 10
152.314798
 20
2.764045
 30
0.0
  0
SEQEND
  5
93
330
92
100
AcDbEntity
  8
001
370
     9
  0
POLYLINE
  5
97
330
8C
100
AcDbEntity
  8
001
370
     9
100
AcDb2dPolyline
 66
     1
 10
0.0
 20
0.0
 30
0.0
  0
VERTEX
  5
99
330
97
100
AcDbEntity
  8
001
370
     9
100
AcDbVertex
100
AcDb2dVertex
 10
45.314798
 20
2.764045
 30
0.0
  0
VERTEX
  5
9A
330
97
100
AcDbEntity
  8
001
370
     9
100
AcDbVertex
100
AcDb2dVertex
 10
43.814798
 20
3.165969
 30
0.0
  0
VERTEX
  5
9B
330
97
100
AcDbEntity
  8
001
370
     9
100
AcDbVertex
100
AcDb2dVertex
 10
45.314798
 20
3.567893
 30
0.0
  0
SEQEND
  5
98
330
97
100
AcDbEntity
  8
001
370
     9
  0
TEXT
  5
9C
330
8C
100
AcDbEntity
  8
001
370
    30
100
AcDbText
 10
94.014798
 20
4.165969
 30
0.0
 40
3.2
  1
１１０
 41
0.833333
100
AcDbText
  0
POINT
  5
9D
330
8C
100
AcDbEntity
  8
001
370
     9
100
AcDbPoint
 10
153.814798
 20
44.04519
 30
0.0
  0
POINT
  5
9E
330
8C
100
AcDbEntity
  8
001
370
     9
100
AcDbPoint
 10
43.814798
 20
45.691639
 30
0.0
  0
POINT
  5
9F
330
8C
100
AcDbEntity
  8
001
370
     9
100
AcDbPoint
 10
43.814798
 20
3.165969
 30
0.0
  0
ENDBLK
  5
8E
330
8C
100
AcDbEntity
  8
0
100
AcDbBlockEnd
  0
BLOCK
  5
A1
330
A0
100
AcDbEntity
  8
0
100
AcDbBlockBegin
  2
*D4
 70
     1
 10
0.0
 20
0.0
 30
0.0
  3
*D4
  1

  0
LINE
  5
A3
330
A0
100
AcDbEntity
  8
001
370
     9
100
AcDbLine
 10
54.362456
 20
34.98519
 30
0.0
 11
54.362456
 21
23.353632
 31
0.0
  0
LINE
  5
A4
330
A0
100
AcDbEntity
  8
001
370
     9
100
AcDbLine
 10
43.814798
 20
45.54519
 30
0.0
 11
43.814798
 21
23.353632
 31
0.0
  0
LINE
  5
A5
330
A0
100
AcDbEntity
  8
001
370
     9
100
AcDbLine
 10
54.362456
 20
26.103632
 30
0.0
 11
43.814798
 21
26.103632
 31
0.0
  0
POLYLINE
  5
A6
330
A0
100
AcDbEntity
  8
001
370
     9
100
AcDb2dPolyline
 66
     1
 10
0.0
 20
0.0
 30
0.0
  0
VERTEX
  5
A8
330
A6
100
AcDbEntity
  8
001
370
     9
100
AcDbVertex
100
AcDb2dVertex
 10
55.862456
 20
25.701708
 30
0.0
  0
VERTEX
  5
A9
330
A6
100
AcDbEntity
  8
001
370
     9
100
AcDbVertex
100
AcDb2dVertex
 10
54.362456
 20
26.103632
 30
0.0
  0
VERTEX
  5
AA
330
A6
100
AcDbEntity
  8
001
370
     9
100
AcDbVertex
100
AcDb2dVertex
 10
55.862456
 20
26.505556
 30
0.0
  0
SEQEND
  5
A7
330
A6
100
AcDbEntity
  8
001
370
     9
  0
POLYLINE
  5
AB
330
A0
100
AcDbEntity
  8
001
370
     9
100
AcDb2dPolyline
 66
     1
 10
0.0
 20
0.0
 30
0.0
  0
VERTEX
  5
AD
330
AB
100
AcDbEntity
  8
001
370
     9
100
AcDbVertex
100
AcDb2dVertex
 10
42.314798
 20
26.505556
 30
0.0
  0
VERTEX
  5
AE
330
AB
100
AcDbEntity
  8
001
370
     9
100
AcDbVertex
100
AcDb2dVertex
 10
43.814798
 20
26.103632
 30
0.0
  0
VERTEX
  5
AF
330
AB
100
AcDbEntity
  8
001
370
     9
100
AcDbVertex
100
AcDb2dVertex
 10
42.314798
 20
25.701708
 30
0.0
  0
SEQEND
  5
AC
330
AB
100
AcDbEntity
  8
001
370
     9
  0
TEXT
  5
B0
330
A0
100
AcDbEntity
  8
001
370
    30
100
AcDbText
 10
24.314798
 20
27.103632
 30
0.0
 40
4.0
  1
１０．５
 41
0.833333
100
AcDbText
  0
POINT
  5
B1
330
A0
100
AcDbEntity
  8
001
370
     9
100
AcDbPoint
 10
54.362456
 20
34.98519
 30
0.0
  0
POINT
  5
B2
330
A0
100
AcDbEntity
  8
001
370
     9
100
AcDbPoint
 10
43.814798
 20
45.54519
 30
0.0
  0
POINT
  5
B3
330
A0
100
AcDbEntity
  8
001
370
     9
100
AcDbPoint
 10
43.814798
 20
26.103632
 30
0.0
  0
LINE
  5
B4
330
A0
100
AcDbEntity
  8
001
370
     9
100
AcDbLine
 10
54.362456
 20
26.103632
 30
0.0
 11
56.862456
 21
26.103632
 31
0.0
  0
LINE
  5
B5
330
A0
100
AcDbEntity
  8
001
370
     9
100
AcDbLine
 10
43.814798
 20
26.103632
 30
0.0
 11
21.314798
 21
26.103632
 31
0.0
  0
ENDBLK
  5
A2
330
A0
100
AcDbEntity
  8
0
100
AcDbBlockEnd
  0
BLOCK
  5
B7
330
B6
100
AcDbEntity
  8
0
100
AcDbBlockBegin
  2
*D5
 70
     1
 10
0.0
 20
0.0
 30
0.0
  3
*D5
  1

  0
LINE
  5
B9
330
B6
100
AcDbEntity
  8
001
370
     9
100
AcDbLine
 10
54.20376
 20
35.144071
 30
0.0
 11
67.125938
 21
22.206772
 31
0.0
  0
LINE
  5
BA
330
B6
100
AcDbEntity
  8
001
370
     9
100
AcDbLine
 10
43.814798
 20
26.103632
 30
0.0
 11
43.814798
 21
12.558966
 31
0.0
  0
ARC
  5
BB
330
B6
100
AcDbEntity
  8
001
370
     9
100
AcDbCircle
 10
43.814798
 20
45.54519
 30
0.0
 40
30.23622442988956
100
AcDbArc
 50
270.0
 51
314.966496
  0
POLYLINE
  5
BC
330
B6
100
AcDbEntity
  8
001
370
     9
100
AcDb2dPolyline
 66
     1
 10
0.0
 20
0.0
 30
0.0
  0
VERTEX
  5
BE
330
BC
100
AcDbEntity
  8
001
370
     9
100
AcDbVertex
100
AcDb2dVertex
 10
63.818391
 20
23.410387
 30
0.0
  0
VERTEX
  5
BF
330
BC
100
AcDbEntity
  8
001
370
     9
100
AcDbVertex
100
AcDb2dVertex
 10
65.182532
 20
24.152452
 30
0.0
  0
VERTEX
  5
C0
330
BC
100
AcDbEntity
  8
001
370
     9
100
AcDbVertex
100
AcDb2dVertex
 10
64.372183
 20
22.827734
 30
0.0
  0
SEQEND
  5
BD
330
BC
100
AcDbEntity
  8
001
370
     9
  0
POLYLINE
  5
C1
330
B6
100
AcDbEntity
  8
001
370
     9
100
AcDb2dPolyline
 66
     1
 10
0.0
 20
0.0
 30
0.0
  0
VERTEX
  5
C3
330
C1
100
AcDbEntity
  8
001
370
     9
100
AcDbVertex
100
AcDb2dVertex
 10
45.324306
 20
14.944369
 30
0.0
  0
VERTEX
  5
C4
330
C1
100
AcDbEntity
  8
001
370
     9
100
AcDbVertex
100
AcDb2dVertex
 10
43.814798
 20
15.308966
 30
0.0
  0
VERTEX
  5
C5
330
C1
100
AcDbEntity
  8
001
370
     9
100
AcDbVertex
100
AcDb2dVertex
 10
45.304368
 20
15.747969
 30
0.0
  0
SEQEND
  5
C2
330
C1
100
AcDbEntity
  8
001
370
     9
  0
TEXT
  5
C6
330
B6
100
AcDbEntity
  8
001
370
    30
100
AcDbText
 10
49.451171
 20
16.236691
 30
0.0
 40
4.0
  1
４５%%d
 50
22.483248
 41
0.978261
100
AcDbText
  0
POINT
  5
C7
330
B6
100
AcDbEntity
  8
001
370
     9
100
AcDbPoint
 10
54.20376
 20
35.144071
 30
0.0
  0
POINT
  5
C8
330
B6
100
AcDbEntity
  8
001
370
     9
100
AcDbPoint
 10
43.814798
 20
45.54519
 30
0.0
  0
POINT
  5
C9
330
B6
100
AcDbEntity
  8
001
370
     9
100
AcDbPoint
 10
43.814798
 20
45.54519
 30
0.0
  0
POINT
  5
CA
330
B6
100
AcDbEntity
  8
001
370
     9
100
AcDbPoint
 10
43.814798
 20
26.103632
 30
0.0
  0
ENDBLK
  5
B8
330
B6
100
AcDbEntity
  8
0
100
AcDbBlockEnd
  0
BLOCK
  5
CC
330
CB
100
AcDbEntity
  8
0
100
AcDbBlockBegin
  2
*D6
 70
     1
 10
0.0
 20
0.0
 30
0.0
  3
*D6
  1

  0
LINE
  5
CE
330
CB
100
AcDbEntity
  8
001
370
     9
100
AcDbLine
 10
145.814798
 20
68.04519
 30
0.0
 11
176.013329
 21
68.04519
 31
0.0
  0
LINE
  5
CF
330
CB
100
AcDbEntity
  8
001
370
     9
100
AcDbLine
 10
145.814798
 20
36.04519
 30
0.0
 11
176.013329
 21
36.04519
 31
0.0
  0
LINE
  5
D0
330
CB
100
AcDbEntity
  8
001
370
     9
100
AcDbLine
 10
173.263329
 20
68.04519
 30
0.0
 11
173.263329
 21
36.04519
 31
0.0
  0
POLYLINE
  5
D1
330
CB
100
AcDbEntity
  8
001
370
     9
100
AcDb2dPolyline
 66
     1
 10
0.0
 20
0.0
 30
0.0
  0
VERTEX
  5
D3
330
D1
100
AcDbEntity
  8
001
370
     9
100
AcDbVertex
100
AcDb2dVertex
 10
172.861405
 20
66.54519
 30
0.0
  0
VERTEX
  5
D4
330
D1
100
AcDbEntity
  8
001
370
     9
100
AcDbVertex
100
AcDb2dVertex
 10
173.263329
 20
68.04519
 30
0.0
  0
VERTEX
  5
D5
330
D1
100
AcDbEntity
  8
001
370
     9
100
AcDbVertex
100
AcDb2dVertex
 10
173.665253
 20
66.54519
 30
0.0
  0
SEQEND
  5
D2
330
D1
100
AcDbEntity
  8
001
370
     9
  0
POLYLINE
  5
D6
330
CB
100
AcDbEntity
  8
001
370
     9
100
AcDb2dPolyline
 66
     1
 10
0.0
 20
0.0
 30
0.0
  0
VERTEX
  5
D8
330
D6
100
AcDbEntity
  8
001
370
     9
100
AcDbVertex
100
AcDb2dVertex
 10
173.665253
 20
37.54519
 30
0.0
  0
VERTEX
  5
D9
330
D6
100
AcDbEntity
  8
001
370
     9
100
AcDbVertex
100
AcDb2dVertex
 10
173.263329
 20
36.04519
 30
0.0
  0
VERTEX
  5
DA
330
D6
100
AcDbEntity
  8
001
370
     9
100
AcDbVertex
100
AcDb2dVertex
 10
172.861405
 20
37.54519
 30
0.0
  0
SEQEND
  5
D7
330
D6
100
AcDbEntity
  8
001
370
     9
  0
TEXT
  5
DB
330
CB
100
AcDbEntity
  8
001
370
    30
100
AcDbText
 10
172.263329
 20
46.04519
 30
0.0
 40
4.0
  1
%%c３２
 50
90.000003
 41
0.882353
100
AcDbText
  0
POINT
  5
DC
330
CB
100
AcDbEntity
  8
001
370
     9
100
AcDbPoint
 10
145.814798
 20
68.04519
 30
0.0
  0
POINT
  5
DD
330
CB
100
AcDbEntity
  8
001
370
     9
100
AcDbPoint
 10
145.814798
 20
36.04519
 30
0.0
  0
POINT
  5
DE
330
CB
100
AcDbEntity
  8
001
370
     9
100
AcDbPoint
 10
173.263329
 20
36.04519
 30
0.0
  0
ENDBLK
  5
CD
330
CB
100
AcDbEntity
  8
0
100
AcDbBlockEnd
  0
ENDSEC
  0
SECTION
  2
ENTITIES
  0
DIMENSION
  5
DF
330
1F
100
AcDbEntity
  8
001
370
     9
100
AcDbDimension
  2
*D1
 10
43.814798
 20
10.507288
 30
0.0
 11
58.814798
 21
13.107288
 31
0.0
 70
   160
 71
     5
 42
-1.0
  3
Standard
100
AcDbAlignedDimension
 13
73.814798
 23
36.04519
 33
0.0
 14
43.814798
 24
45.691639
 34
0.0
 50
180.0
100
AcDbRotatedDimension
  0
DIMENSION
  5
E0
330
1F
100
AcDbEntity
  8
001
370
     9
100
AcDbDimension
  2
*D2
 10
73.814798
 20
10.507288
 30
0.0
 11
113.814798
 21
13.107288
 31
0.0
 70
   160
 71
     5
 42
-1.0
  3
Standard
100
AcDbAlignedDimension
 13
153.814798
 23
44.04519
 33
0.0
 14
73.814798
 24
36.04519
 34
0.0
 50
180.0
100
AcDbRotatedDimension
  0
DIMENSION
  5
E1
330
1F
100
AcDbEntity
  8
001
370
     9
100
AcDbDimension
  2
*D3
 10
43.814798
 20
3.165969
 30
0.0
 11
98.814798
 21
5.765969
 31
0.0
 70
   160
 71
     5
 42
-1.0
  3
Standard
100
AcDbAlignedDimension
 13
153.814798
 23
44.04519
 33
0.0
 14
43.814798
 24
45.691639
 34
0.0
 50
180.0
100
AcDbRotatedDimension
  0
DIMENSION
  5
E2
330
1F
100
AcDbEntity
  8
001
370
     9
100
AcDbDimension
  2
*D4
 10
43.814798
 20
26.103632
 30
0.0
 11
32.314798
 21
29.103632
 31
0.0
 70
   160
 71
     5
 42
-1.0
  3
Standard
100
AcDbAlignedDimension
 13
54.362456
 23
34.98519
 33
0.0
 14
43.814798
 24
45.54519
 34
0.0
 50
180.0
100
AcDbRotatedDimension
  0
DIMENSION
  5
E3
330
1F
100
AcDbEntity
  8
001
370
     9
100
AcDbDimension
  2
*D5
 10
43.814798
 20
45.54519
 30
0.0
 11
54.230293
 21
20.379153
 31
0.0
 70
    34
 71
     5
 42
-1.0
  3
Standard
100
AcDb2LineAngularDimension
 13
54.20376
 23
35.144071
 33
0.0
 14
43.814798
 24
45.54519
 34
0.0
 15
43.814798
 25
26.103632
 35
0.0
 16
55.377533
 26
17.607179
 36
0.0
  0
DIMENSION
  5
E4
330
1F
100
AcDbEntity
  8
001
370
     9
100
AcDbDimension
  2
*D6
 10
173.263329
 20
36.04519
 30
0.0
 11
170.263329
 21
52.04519
 31
0.0
 70
   160
 71
     5
 42
-1.0
  3
Standard
100
AcDbAlignedDimension
 13
145.814798
 23
68.04519
 33
0.0
 14
145.814798
 24
36.04519
 34
0.0
 50
270.0
100
AcDbRotatedDimension
  0
TEXT
  5
E5
330
1F
100
AcDbEntity
  8
001
370
    30
100
AcDbText
 10
22.761368
 20
40.04519
 30
0.0
 40
4.0
  1
%%c３４．１２
 50
90.000003
 41
0.857143
100
AcDbText
  0
POLYLINE
  5
E6
330
1F
100
AcDbEntity
  8
001
370
     9
100
AcDb2dPolyline
 66
     1
 10
0.0
 20
0.0
 30
0.0
  0
VERTEX
  5
E8
330
E6
100
AcDbEntity
  8
001
370
     9
100
AcDbVertex
100
AcDb2dVertex
 10
24.163292
 20
36.48519
 30
0.0
  0
VERTEX
  5
E9
330
E6
100
AcDbEntity
  8
001
370
     9
100
AcDbVertex
100
AcDb2dVertex
 10
23.761368
 20
34.98519
 30
0.0
  0
VERTEX
  5
EA
330
E6
100
AcDbEntity
  8
001
370
     9
100
AcDbVertex
100
AcDb2dVertex
 10
23.359445
 20
36.48519
 30
0.0
  0
SEQEND
  5
E7
330
E6
100
AcDbEntity
  8
001
370
     9
  0
LINE
  5
EB
330
1F
100
AcDbEntity
  8
001
370
     9
100
AcDbLine
 10
23.761368
 20
34.98519
 30
0.0
 11
23.761368
 21
69.10519
 31
0.0
  0
POLYLINE
  5
EC
330
1F
100
AcDbEntity
  8
001
370
     9
100
AcDb2dPolyline
 66
     1
 10
0.0
 20
0.0
 30
0.0
  0
VERTEX
  5
EE
330
EC
100
AcDbEntity
  8
001
370
     9
100
AcDbVertex
100
AcDb2dVertex
 10
54.362456
 20
34.98519
 30
0.0
  0
VERTEX
  5
EF
330
EC
100
AcDbEntity
  8
001
370
     9
100
AcDbVertex
100
AcDb2dVertex
 10
23.761368
 20
34.98519
 30
0.0
  0
VERTEX
  5
F0
330
EC
100
AcDbEntity
  8
001
370
     9
100
AcDbVertex
100
AcDb2dVertex
 10
21.011368
 20
34.98519
 30
0.0
  0
SEQEND
  5
ED
330
EC
100
AcDbEntity
  8
001
370
     9
  0
TEXT
  5
F1
330
1F
100
AcDbEntity
  8
001
370
    30
100
AcDbText
 10
33.580505
 20
46.04519
 30
0.0
 40
4.0
  1
%%c１３
 50
90.000003
 41
0.882353
100
AcDbText
  0
POLYLINE
  5
F2
330
1F
100
AcDbEntity
  8
001
370
     9
100
AcDb2dPolyline
 66
     1
 10
0.0
 20
0.0
 30
0.0
  0
VERTEX
  5
F4
330
F2
100
AcDbEntity
  8
001
370
     9
100
AcDbVertex
100
AcDb2dVertex
 10
34.982429
 20
47.04519
 30
0.0
  0
VERTEX
  5
F5
330
F2
100
AcDbEntity
  8
001
370
     9
100
AcDbVertex
100
AcDb2dVertex
 10
34.580505
 20
45.54519
 30
0.0
  0
VERTEX
  5
F6
330
F2
100
AcDbEntity
  8
001
370
     9
100
AcDbVertex
100
AcDb2dVertex
 10
34.178582
 20
47.04519
 30
0.0
  0
SEQEND
  5
F3
330
F2
100
AcDbEntity
  8
001
370
     9
  0
LINE
  5
F7
330
1F
100
AcDbEntity
  8
001
370
     9
100
AcDbLine
 10
34.580505
 20
45.54519
 30
0.0
 11
34.580505
 21
58.54519
 31
0.0
  0
POLYLINE
  5
F8
330
1F
100
AcDbEntity
  8
001
370
     9
100
AcDb2dPolyline
 66
     1
 10
0.0
 20
0.0
 30
0.0
  0
VERTEX
  5
FA
330
F8
100
AcDbEntity
  8
001
370
     9
100
AcDbVertex
100
AcDb2dVertex
 10
43.814798
 20
45.54519
 30
0.0
  0
VERTEX
  5
FB
330
F8
100
AcDbEntity
  8
001
370
     9
100
AcDbVertex
100
AcDb2dVertex
 10
34.580505
 20
45.54519
 30
0.0
  0
VERTEX
  5
FC
330
F8
100
AcDbEntity
  8
001
370
     9
100
AcDbVertex
100
AcDb2dVertex
 10
31.830505
 20
45.54519
 30
0.0
  0
SEQEND
  5
F9
330
F8
100
AcDbEntity
  8
001
370
     9
  0
LINE
  5
FD
330
1F
100
AcDbEntity
  8
001
370
    50
100
AcDbLine
 10
58.194905
 20
47.688332
 30
0.0
 11
58.163551
 21
47.520991
 31
0.0
  0
POLYLINE
  5
FE
330
1F
100
AcDbEntity
  8
001
370
    50
100
AcDb2dPolyline
 66
     1
 10
0.0
 20
0.0
 30
0.0
  0
VERTEX
  5
100
330
FE
100
AcDbEntity
  8
001
370
    50
100
AcDbVertex
100
AcDb2dVertex
 10
58.514327
 20
49.847942
 30
0.0
  0
VERTEX
  5
101
330
FE
100
AcDbEntity
  8
001
370
    50
100
AcDbVertex
100
AcDb2dVertex
 10
58.517774
 20
49.863375
 30
0.0
  0
VERTEX
  5
102
330
FE
100
AcDbEntity
  8
001
370
    50
100
AcDbVertex
100
AcDb2dVertex
 10
58.522159
 20
49.886059
 30
0.0
  0
VERTEX
  5
103
330
FE
100
AcDbEntity
  8
001
370
    50
100
AcDbVertex
100
AcDb2dVertex
 10
58.524415
 20
49.900181
 30
0.0
  0
VERTEX
  5
104
330
FE
100
AcDbEntity
  8
001
370
    50
100
AcDbVertex
100
AcDb2dVertex
 10
58.525786
 20
49.909871
 30
0.0
  0
SEQEND
  5
FF
330
FE
100
AcDbEntity
  8
001
370
    50
  0
POLYLINE
  5
105
330
1F
100
AcDbEntity
  8
001
370
    50
100
AcDb2dPolyline
 66
     1
 10
0.0
 20
0.0
 30
0.0
  0
VERTEX
  5
107
330
105
100
AcDbEntity
  8
001
370
    50
100
AcDbVertex
100
AcDb2dVertex
 10
58.19479
 20
47.687857
 30
0.0
  0
VERTEX
  5
108
330
105
100
AcDbEntity
  8
001
370
    50
100
AcDbVertex
100
AcDb2dVertex
 10
58.233102
 20
47.945061
 30
0.0
  0
VERTEX
  5
109
330
105
100
AcDbEntity
  8
001
370
    50
100
AcDbVertex
100
AcDb2dVertex
 10
58.271415
 20
48.202265
 30
0.0
  0
VERTEX
  5
10A
330
105
100
AcDbEntity
  8
001
370
    50
100
AcDbVertex
100
AcDb2dVertex
 10
58.397815
 20
49.050834
 30
0.0
  0
VERTEX
  5
10B
330
105
100
AcDbEntity
  8
001
370
    50
100
AcDbVertex
100
AcDb2dVertex
 10
58.524216
 20
49.899403
 30
0.0
  0
SEQEND
  5
106
330
105
100
AcDbEntity
  8
001
370
    50
  0
POLYLINE
  5
10C
330
1F
100
AcDbEntity
  8
001
370
    50
100
AcDb2dPolyline
 66
     1
 10
0.0
 20
0.0
 30
0.0
  0
VERTEX
  5
10E
330
10C
100
AcDbEntity
  8
001
370
    50
100
AcDbVertex
100
AcDb2dVertex
 10
52.314615
 20
46.973555
 30
0.0
  0
VERTEX
  5
10F
330
10C
100
AcDbEntity
  8
001
370
    50
100
AcDbVertex
100
AcDb2dVertex
 10
52.099444
 20
46.962139
 30
0.0
  0
VERTEX
  5
110
330
10C
100
AcDbEntity
  8
001
370
    50
100
AcDbVertex
100
AcDb2dVertex
 10
51.804922
 20
46.927978
 30
0.0
  0
VERTEX
  5
111
330
10C
100
AcDbEntity
  8
001
370
    50
100
AcDbVertex
100
AcDb2dVertex
 10
51.543763
 20
46.871228
 30
0.0
  0
VERTEX
  5
112
330
10C
100
AcDbEntity
  8
001
370
    50
100
AcDbVertex
100
AcDb2dVertex
 10
51.310716
 20
46.792633
 30
0.0
  0
VERTEX
  5
113
330
10C
100
AcDbEntity
  8
001
370
    50
100
AcDbVertex
100
AcDb2dVertex
 10
51.077401
 20
46.692629
 30
0.0
  0
VERTEX
  5
114
330
10C
100
AcDbEntity
  8
001
370
    50
100
AcDbVertex
100
AcDb2dVertex
 10
50.847013
 20
46.571631
 30
0.0
  0
VERTEX
  5
115
330
10C
100
AcDbEntity
  8
001
370
    50
100
AcDbVertex
100
AcDb2dVertex
 10
50.236363
 20
46.092864
 30
0.0
  0
VERTEX
  5
116
330
10C
100
AcDbEntity
  8
001
370
    50
100
AcDbVertex
100
AcDb2dVertex
 10
49.772655
 20
45.473555
 30
0.0
  0
VERTEX
  5
117
330
10C
100
AcDbEntity
  8
001
370
    50
100
AcDbVertex
100
AcDb2dVertex
 10
49.556136
 20
44.998279
 30
0.0
  0
VERTEX
  5
118
330
10C
100
AcDbEntity
  8
001
370
    50
100
AcDbVertex
100
AcDb2dVertex
 10
49.424004
 20
44.494499
 30
0.0
  0
VERTEX
  5
119
330
10C
100
AcDbEntity
  8
001
370
    50
100
AcDbVertex
100
AcDb2dVertex
 10
49.390557
 20
44.234899
 30
0.0
  0
VERTEX
  5
11A
330
10C
100
AcDbEntity
  8
001
370
    50
100
AcDbVertex
100
AcDb2dVertex
 10
49.379412
 20
43.973555
 30
0.0
  0
VERTEX
  5
11B
330
10C
100
AcDbEntity
  8
001
370
    50
100
AcDbVertex
100
AcDb2dVertex
 10
49.390557
 20
43.71221
 30
0.0
  0
VERTEX
  5
11C
330
10C
100
AcDbEntity
  8
001
370
    50
100
AcDbVertex
100
AcDb2dVertex
 10
49.424004
 20
43.45261
 30
0.0
  0
VERTEX
  5
11D
330
10C
100
AcDbEntity
  8
001
370
    50
100
AcDbVertex
100
AcDb2dVertex
 10
49.556136
 20
42.94883
 30
0.0
  0
VERTEX
  5
11E
330
10C
100
AcDbEntity
  8
001
370
    50
100
AcDbVertex
100
AcDb2dVertex
 10
49.772655
 20
42.473555
 30
0.0
  0
VERTEX
  5
11F
330
10C
100
AcDbEntity
  8
001
370
    50
100
AcDbVertex
100
AcDb2dVertex
 10
50.236363
 20
41.854245
 30
0.0
  0
VERTEX
  5
120
330
10C
100
AcDbEntity
  8
001
370
    50
100
AcDbVertex
100
AcDb2dVertex
 10
50.847013
 20
41.375479
 30
0.0
  0
VERTEX
  5
121
330
10C
100
AcDbEntity
  8
001
370
    50
100
AcDbVertex
100
AcDb2dVertex
 10
51.077401
 20
41.254481
 30
0.0
  0
VERTEX
  5
122
330
10C
100
AcDbEntity
  8
001
370
    50
100
AcDbVertex
100
AcDb2dVertex
 10
51.310716
 20
41.154477
 30
0.0
  0
VERTEX
  5
123
330
10C
100
AcDbEntity
  8
001
370
    50
100
AcDbVertex
100
AcDb2dVertex
 10
51.543763
 20
41.075881
 30
0.0
  0
VERTEX
  5
124
330
10C
100
AcDbEntity
  8
001
370
    50
100
AcDbVertex
100
AcDb2dVertex
 10
51.804922
 20
41.019131
 30
0.0
  0
VERTEX
  5
125
330
10C
100
AcDbEntity
  8
001
370
    50
100
AcDbVertex
100
AcDb2dVertex
 10
52.099444
 20
40.984971
 30
0.0
  0
VERTEX
  5
126
330
10C
100
AcDbEntity
  8
001
370
    50
100
AcDbVertex
100
AcDb2dVertex
 10
52.314615
 20
40.973555
 30
0.0
  0
SEQEND
  5
10D
330
10C
100
AcDbEntity
  8
001
370
    50
  0
LINE
  5
127
330
1F
100
AcDbEntity
  8
001
370
    50
100
AcDbLine
 10
57.795141
 20
45.978689
 30
0.0
 11
58.163551
 21
47.520991
 31
0.0
  0
POLYLINE
  5
128
330
1F
100
AcDbEntity
  8
001
370
    50
100
AcDb2dPolyline
 66
     1
 10
0.0
 20
0.0
 30
0.0
  0
VERTEX
  5
12A
330
128
100
AcDbEntity
  8
001
370
    50
100
AcDbVertex
100
AcDb2dVertex
 10
52.314615
 20
40.973555
 30
0.0
  0
VERTEX
  5
12B
330
128
100
AcDbEntity
  8
001
370
    50
100
AcDbVertex
100
AcDb2dVertex
 10
52.529785
 20
40.984971
 30
0.0
  0
VERTEX
  5
12C
330
128
100
AcDbEntity
  8
001
370
    50
100
AcDbVertex
100
AcDb2dVertex
 10
52.824307
 20
41.019131
 30
0.0
  0
VERTEX
  5
12D
330
128
100
AcDbEntity
  8
001
370
    50
100
AcDbVertex
100
AcDb2dVertex
 10
53.085466
 20
41.075881
 30
0.0
  0
VERTEX
  5
12E
330
128
100
AcDbEntity
  8
001
370
    50
100
AcDbVertex
100
AcDb2dVertex
 10
53.318513
 20
41.154477
 30
0.0
  0
VERTEX
  5
12F
330
128
100
AcDbEntity
  8
001
370
    50
100
AcDbVertex
100
AcDb2dVertex
 10
53.551828
 20
41.254481
 30
0.0
  0
VERTEX
  5
130
330
128
100
AcDbEntity
  8
001
370
    50
100
AcDbVertex
100
AcDb2dVertex
 10
53.782216
 20
41.375479
 30
0.0
  0
VERTEX
  5
131
330
128
100
AcDbEntity
  8
001
370
    50
100
AcDbVertex
100
AcDb2dVertex
 10
54.392866
 20
41.854245
 30
0.0
  0
VERTEX
  5
132
330
128
100
AcDbEntity
  8
001
370
    50
100
AcDbVertex
100
AcDb2dVertex
 10
54.856575
 20
42.473555
 30
0.0
  0
VERTEX
  5
133
330
128
100
AcDbEntity
  8
001
370
    50
100
AcDbVertex
100
AcDb2dVertex
 10
55.073093
 20
42.94883
 30
0.0
  0
VERTEX
  5
134
330
128
100
AcDbEntity
  8
001
370
    50
100
AcDbVertex
100
AcDb2dVertex
 10
55.205225
 20
43.45261
 30
0.0
  0
VERTEX
  5
135
330
128
100
AcDbEntity
  8
001
370
    50
100
AcDbVertex
100
AcDb2dVertex
 10
55.238673
 20
43.71221
 30
0.0
  0
VERTEX
  5
136
330
128
100
AcDbEntity
  8
001
370
    50
100
AcDbVertex
100
AcDb2dVertex
 10
55.249817
 20
43.973555
 30
0.0
  0
VERTEX
  5
137
330
128
100
AcDbEntity
  8
001
370
    50
100
AcDbVertex
100
AcDb2dVertex
 10
55.238673
 20
44.234899
 30
0.0
  0
VERTEX
  5
138
330
128
100
AcDbEntity
  8
001
370
    50
100
AcDbVertex
100
AcDb2dVertex
 10
55.205225
 20
44.494499
 30
0.0
  0
VERTEX
  5
139
330
128
100
AcDbEntity
  8
001
370
    50
100
AcDbVertex
100
AcDb2dVertex
 10
55.073093
 20
44.998279
 30
0.0
  0
VERTEX
  5
13A
330
128
100
AcDbEntity
  8
001
370
    50
100
AcDbVertex
100
AcDb2dVertex
 10
54.856575
 20
45.473555
 30
0.0
  0
VERTEX
  5
13B
330
128
100
AcDbEntity
  8
001
370
    50
100
AcDbVertex
100
AcDb2dVertex
 10
54.392866
 20
46.092864
 30
0.0
  0
VERTEX
  5
13C
330
128
100
AcDbEntity
  8
001
370
    50
100
AcDbVertex
100
AcDb2dVertex
 10
53.782216
 20
46.571631
 30
0.0
  0
VERTEX
  5
13D
330
128
100
AcDbEntity
  8
001
370
    50
100
AcDbVertex
100
AcDb2dVertex
 10
53.551828
 20
46.692629
 30
0.0
  0
VERTEX
  5
13E
330
128
100
AcDbEntity
  8
001
370
    50
100
AcDbVertex
100
AcDb2dVertex
 10
53.318513
 20
46.792633
 30
0.0
  0
VERTEX
  5
13F
330
128
100
AcDbEntity
  8
001
370
    50
100
AcDbVertex
100
AcDb2dVertex
 10
53.085466
 20
46.871228
 30
0.0
  0
VERTEX
  5
140
330
128
100
AcDbEntity
  8
001
370
    50
100
AcDbVertex
100
AcDb2dVertex
 10
52.824307
 20
46.927978
 30
0.0
  0
VERTEX
  5
141
330
128
100
AcDbEntity
  8
001
370
    50
100
AcDbVertex
100
AcDb2dVertex
 10
52.529785
 20
46.962139
 30
0.0
  0
VERTEX
  5
142
330
128
100
AcDbEntity
  8
001
370
    50
100
AcDbVertex
100
AcDb2dVertex
 10
52.314615
 20
46.973555
 30
0.0
  0
SEQEND
  5
129
330
128
100
AcDbEntity
  8
001
370
    50
  0
POLYLINE
  5
143
330
1F
100
AcDbEntity
  8
001
370
    50
100
AcDb2dPolyline
 66
     1
 10
0.0
 20
0.0
 30
0.0
  0
VERTEX
  5
145
330
143
100
AcDbEntity
  8
001
370
    50
100
AcDbVertex
100
AcDb2dVertex
 10
46.457582
 20
60.063489
 30
0.0
  0
VERTEX
  5
146
330
143
100
AcDbEntity
  8
001
370
    50
100
AcDbVertex
100
AcDb2dVertex
 10
46.405416
 20
60.007957
 30
0.0
  0
VERTEX
  5
147
330
143
100
AcDbEntity
  8
001
370
    50
100
AcDbVertex
100
AcDb2dVertex
 10
46.356081
 20
59.950076
 30
0.0
  0
VERTEX
  5
148
330
143
100
AcDbEntity
  8
001
370
    50
100
AcDbVertex
100
AcDb2dVertex
 10
46.313429
 20
59.889969
 30
0.0
  0
VERTEX
  5
149
330
143
100
AcDbEntity
  8
001
370
    50
100
AcDbVertex
100
AcDb2dVertex
 10
46.277143
 20
59.825641
 30
0.0
  0
VERTEX
  5
14A
330
143
100
AcDbEntity
  8
001
370
    50
100
AcDbVertex
100
AcDb2dVertex
 10
46.243102
 20
59.741489
 30
0.0
  0
VERTEX
  5
14B
330
143
100
AcDbEntity
  8
001
370
    50
100
AcDbVertex
100
AcDb2dVertex
 10
46.223475
 20
59.653055
 30
0.0
  0
VERTEX
  5
14C
330
143
100
AcDbEntity
  8
001
370
    50
100
AcDbVertex
100
AcDb2dVertex
 10
46.220411
 20
59.569098
 30
0.0
  0
VERTEX
  5
14D
330
143
100
AcDbEntity
  8
001
370
    50
100
AcDbVertex
100
AcDb2dVertex
 10
46.23169
 20
59.485815
 30
0.0
  0
VERTEX
  5
14E
330
143
100
AcDbEntity
  8
001
370
    50
100
AcDbVertex
100
AcDb2dVertex
 10
46.249292
 20
59.424308
 30
0.0
  0
VERTEX
  5
14F
330
143
100
AcDbEntity
  8
001
370
    50
100
AcDbVertex
100
AcDb2dVertex
 10
46.273532
 20
59.365112
 30
0.0
  0
VERTEX
  5
150
330
143
100
AcDbEntity
  8
001
370
    50
100
AcDbVertex
100
AcDb2dVertex
 10
46.303006
 20
59.308926
 30
0.0
  0
VERTEX
  5
151
330
143
100
AcDbEntity
  8
001
370
    50
100
AcDbVertex
100
AcDb2dVertex
 10
46.33711
 20
59.255466
 30
0.0
  0
VERTEX
  5
152
330
143
100
AcDbEntity
  8
001
370
    50
100
AcDbVertex
100
AcDb2dVertex
 10
46.346452
 20
59.242265
 30
0.0
  0
VERTEX
  5
153
330
143
100
AcDbEntity
  8
001
370
    50
100
AcDbVertex
100
AcDb2dVertex
 10
46.355922
 20
59.229158
 30
0.0
  0
SEQEND
  5
144
330
143
100
AcDbEntity
  8
001
370
    50
  0
LINE
  5
154
330
1F
100
AcDbEntity
  8
001
370
    50
100
AcDbLine
 10
46.457582
 20
60.063489
 30
0.0
 11
53.161535
 21
66.61593
 31
0.0
  0
POLYLINE
  5
155
330
1F
100
AcDbEntity
  8
001
370
    50
100
AcDb2dPolyline
 66
     1
 10
0.0
 20
0.0
 30
0.0
  0
VERTEX
  5
157
330
155
100
AcDbEntity
  8
001
370
    50
100
AcDbVertex
100
AcDb2dVertex
 10
54.110176
 20
66.765979
 30
0.0
  0
VERTEX
  5
158
330
155
100
AcDbEntity
  8
001
370
    50
100
AcDbVertex
100
AcDb2dVertex
 10
54.034898
 20
66.80059
 30
0.0
  0
VERTEX
  5
159
330
155
100
AcDbEntity
  8
001
370
    50
100
AcDbVertex
100
AcDb2dVertex
 10
53.958002
 20
66.830857
 30
0.0
  0
VERTEX
  5
15A
330
155
100
AcDbEntity
  8
001
370
    50
100
AcDbVertex
100
AcDb2dVertex
 10
53.896019
 20
66.849026
 30
0.0
  0
VERTEX
  5
15B
330
155
100
AcDbEntity
  8
001
370
    50
100
AcDbVertex
100
AcDb2dVertex
 10
53.832638
 20
66.861965
 30
0.0
  0
VERTEX
  5
15C
330
155
100
AcDbEntity
  8
001
370
    50
100
AcDbVertex
100
AcDb2dVertex
 10
53.765956
 20
66.869799
 30
0.0
  0
VERTEX
  5
15D
330
155
100
AcDbEntity
  8
001
370
    50
100
AcDbVertex
100
AcDb2dVertex
 10
53.698883
 20
66.871334
 30
0.0
  0
VERTEX
  5
15E
330
155
100
AcDbEntity
  8
001
370
    50
100
AcDbVertex
100
AcDb2dVertex
 10
53.602065
 20
66.861416
 30
0.0
  0
VERTEX
  5
15F
330
155
100
AcDbEntity
  8
001
370
    50
100
AcDbVertex
100
AcDb2dVertex
 10
53.507465
 20
66.837726
 30
0.0
  0
VERTEX
  5
160
330
155
100
AcDbEntity
  8
001
370
    50
100
AcDbVertex
100
AcDb2dVertex
 10
53.413474
 20
66.799612
 30
0.0
  0
VERTEX
  5
161
330
155
100
AcDbEntity
  8
001
370
    50
100
AcDbVertex
100
AcDb2dVertex
 10
53.325741
 20
66.749166
 30
0.0
  0
VERTEX
  5
162
330
155
100
AcDbEntity
  8
001
370
    50
100
AcDbVertex
100
AcDb2dVertex
 10
53.241462
 20
66.685517
 30
0.0
  0
VERTEX
  5
163
330
155
100
AcDbEntity
  8
001
370
    50
100
AcDbVertex
100
AcDb2dVertex
 10
53.161535
 20
66.61593
 30
0.0
  0
SEQEND
  5
156
330
155
100
AcDbEntity
  8
001
370
    50
  0
ARC
  5
164
330
1F
100
AcDbEntity
  8
001
370
    50
100
AcDbCircle
 10
145.814798
 20
60.04519
 30
0.0
 40
8.0
100
AcDbArc
 50
0.0
 51
90.0
  0
ARC
  5
165
330
1F
100
AcDbEntity
  8
001
370
    50
100
AcDbCircle
 10
145.814798
 20
44.04519
 30
0.0
 40
8.0
100
AcDbArc
 50
270.0
 51
0.0
  0
LINE
  5
166
330
1F
100
AcDbEntity
  8
001
370
    50
100
AcDbLine
 10
153.814798
 20
60.04519
 30
0.0
 11
153.814798
 21
44.04519
 31
0.0
  0
LINE
  5
167
330
1F
100
AcDbEntity
  8
001
370
    50
100
AcDbLine
 10
66.904704
 20
61.337972
 30
0.0
 11
66.904704
 21
42.752408
 31
0.0
  0
POLYLINE
  5
168
330
1F
100
AcDbEntity
  8
001
370
    50
100
AcDb2dPolyline
 66
     1
 10
0.0
 20
0.0
 30
0.0
  0
VERTEX
  5
16A
330
168
100
AcDbEntity
  8
001
370
    50
100
AcDbVertex
100
AcDb2dVertex
 10
66.904704
 20
42.752408
 30
0.0
  0
VERTEX
  5
16B
330
168
100
AcDbEntity
  8
001
370
    50
100
AcDbVertex
100
AcDb2dVertex
 10
67.135756
 20
43.281965
 30
0.0
  0
VERTEX
  5
16C
330
168
100
AcDbEntity
  8
001
370
    50
100
AcDbVertex
100
AcDb2dVertex
 10
67.446231
 20
44.04519
 30
0.0
  0
VERTEX
  5
16D
330
168
100
AcDbEntity
  8
001
370
    50
100
AcDbVertex
100
AcDb2dVertex
 10
68.291501
 20
46.764928
 30
0.0
  0
VERTEX
  5
16E
330
168
100
AcDbEntity
  8
001
370
    50
100
AcDbVertex
100
AcDb2dVertex
 10
68.683745
 20
49.266819
 30
0.0
  0
VERTEX
  5
16F
330
168
100
AcDbEntity
  8
001
370
    50
100
AcDbVertex
100
AcDb2dVertex
 10
68.797544
 20
50.634895
 30
0.0
  0
VERTEX
  5
170
330
168
100
AcDbEntity
  8
001
370
    50
100
AcDbVertex
100
AcDb2dVertex
 10
68.842023
 20
52.04519
 30
0.0
  0
VERTEX
  5
171
330
168
100
AcDbEntity
  8
001
370
    50
100
AcDbVertex
100
AcDb2dVertex
 10
68.797544
 20
53.455485
 30
0.0
  0
VERTEX
  5
172
330
168
100
AcDbEntity
  8
001
370
    50
100
AcDbVertex
100
AcDb2dVertex
 10
68.683745
 20
54.823561
 30
0.0
  0
VERTEX
  5
173
330
168
100
AcDbEntity
  8
001
370
    50
100
AcDbVertex
100
AcDb2dVertex
 10
68.291501
 20
57.325452
 30
0.0
  0
VERTEX
  5
174
330
168
100
AcDbEntity
  8
001
370
    50
100
AcDbVertex
100
AcDb2dVertex
 10
67.446231
 20
60.04519
 30
0.0
  0
VERTEX
  5
175
330
168
100
AcDbEntity
  8
001
370
    50
100
AcDbVertex
100
AcDb2dVertex
 10
67.135756
 20
60.808415
 30
0.0
  0
VERTEX
  5
176
330
168
100
AcDbEntity
  8
001
370
    50
100
AcDbVertex
100
AcDb2dVertex
 10
66.904704
 20
61.337972
 30
0.0
  0
SEQEND
  5
169
330
168
100
AcDbEntity
  8
001
370
    50
  0
POLYLINE
  5
177
330
1F
100
AcDbEntity
  8
001
370
    50
100
AcDb2dPolyline
 66
     1
 10
0.0
 20
0.0
 30
0.0
  0
VERTEX
  5
179
330
177
100
AcDbEntity
  8
001
370
    50
100
AcDbVertex
100
AcDb2dVertex
 10
55.466117
 20
36.067015
 30
0.0
  0
VERTEX
  5
17A
330
177
100
AcDbEntity
  8
001
370
    50
100
AcDbVertex
100
AcDb2dVertex
 10
55.481338
 20
36.057534
 30
0.0
  0
VERTEX
  5
17B
330
177
100
AcDbEntity
  8
001
370
    50
100
AcDbVertex
100
AcDb2dVertex
 10
55.505344
 20
36.048105
 30
0.0
  0
VERTEX
  5
17C
330
177
100
AcDbEntity
  8
001
370
    50
100
AcDbVertex
100
AcDb2dVertex
 10
55.519801
 20
36.045738
 30
0.0
  0
VERTEX
  5
17D
330
177
100
AcDbEntity
  8
001
370
    50
100
AcDbVertex
100
AcDb2dVertex
 10
55.529886
 20
36.04519
 30
0.0
  0
SEQEND
  5
178
330
177
100
AcDbEntity
  8
001
370
    50
  0
POLYLINE
  5
17E
330
1F
100
AcDbEntity
  8
001
370
    50
100
AcDb2dPolyline
 66
     1
 10
0.0
 20
0.0
 30
0.0
  0
VERTEX
  5
180
330
17E
100
AcDbEntity
  8
001
370
    50
100
AcDbVertex
100
AcDb2dVertex
 10
55.529886
 20
68.04519
 30
0.0
  0
VERTEX
  5
181
330
17E
100
AcDbEntity
  8
001
370
    50
100
AcDbVertex
100
AcDb2dVertex
 10
55.526338
 20
68.045125
 30
0.0
  0
VERTEX
  5
182
330
17E
100
AcDbEntity
  8
001
370
    50
100
AcDbVertex
100
AcDb2dVertex
 10
55.521162
 20
68.044835
 30
0.0
  0
VERTEX
  5
183
330
17E
100
AcDbEntity
  8
001
370
    50
100
AcDbVertex
100
AcDb2dVertex
 10
55.516076
 20
68.044281
 30
0.0
  0
VERTEX
  5
184
330
17E
100
AcDbEntity
  8
001
370
    50
100
AcDbVertex
100
AcDb2dVertex
 10
55.512611
 20
68.043771
 30
0.0
  0
SEQEND
  5
17F
330
17E
100
AcDbEntity
  8
001
370
    50
  0
LINE
  5
185
330
1F
100
AcDbEntity
  8
001
370
    50
100
AcDbLine
 10
73.814798
 20
68.04519
 30
0.0
 11
55.529886
 21
68.04519
 31
0.0
  0
LINE
  5
186
330
1F
100
AcDbEntity
  8
001
370
    50
100
AcDbLine
 10
55.529886
 20
36.04519
 30
0.0
 11
73.814798
 21
36.04519
 31
0.0
  0
LINE
  5
187
330
1F
100
AcDbEntity
  8
001
370
    50
100
AcDbLine
 10
55.466117
 20
36.462239
 30
0.0
 11
55.466117
 21
36.067015
 31
0.0
  0
POLYLINE
  5
188
330
1F
100
AcDbEntity
  8
001
370
    50
100
AcDb2dPolyline
 66
     1
 10
0.0
 20
0.0
 30
0.0
  0
VERTEX
  5
18A
330
188
100
AcDbEntity
  8
001
370
    50
100
AcDbVertex
100
AcDb2dVertex
 10
55.466117
 20
36.462239
 30
0.0
  0
VERTEX
  5
18B
330
188
100
AcDbEntity
  8
001
370
    50
100
AcDbVertex
100
AcDb2dVertex
 10
56.893744
 20
36.535967
 30
0.0
  0
VERTEX
  5
18C
330
188
100
AcDbEntity
  8
001
370
    50
100
AcDbVertex
100
AcDb2dVertex
 10
58.979694
 20
36.653994
 30
0.0
  0
VERTEX
  5
18D
330
188
100
AcDbEntity
  8
001
370
    50
100
AcDbVertex
100
AcDb2dVertex
 10
61.037934
 20
36.784678
 30
0.0
  0
VERTEX
  5
18E
330
188
100
AcDbEntity
  8
001
370
    50
100
AcDbVertex
100
AcDb2dVertex
 10
62.445758
 20
36.881092
 30
0.0
  0
SEQEND
  5
189
330
188
100
AcDbEntity
  8
001
370
    50
  0
POLYLINE
  5
18F
330
1F
100
AcDbEntity
  8
001
370
    50
100
AcDb2dPolyline
 66
     1
 10
0.0
 20
0.0
 30
0.0
  0
VERTEX
  5
191
330
18F
100
AcDbEntity
  8
001
370
    50
100
AcDbVertex
100
AcDb2dVertex
 10
62.445758
 20
36.881092
 30
0.0
  0
VERTEX
  5
192
330
18F
100
AcDbEntity
  8
001
370
    50
100
AcDbVertex
100
AcDb2dVertex
 10
62.507194
 20
36.88641
 30
0.0
  0
VERTEX
  5
193
330
18F
100
AcDbEntity
  8
001
370
    50
100
AcDbVertex
100
AcDb2dVertex
 10
62.568531
 20
36.89266
 30
0.0
  0
VERTEX
  5
194
330
18F
100
AcDbEntity
  8
001
370
    50
100
AcDbVertex
100
AcDb2dVertex
 10
62.641408
 20
36.902349
 30
0.0
  0
VERTEX
  5
195
330
18F
100
AcDbEntity
  8
001
370
    50
100
AcDbVertex
100
AcDb2dVertex
 10
62.713918
 20
36.914584
 30
0.0
  0
VERTEX
  5
196
330
18F
100
AcDbEntity
  8
001
370
    50
100
AcDbVertex
100
AcDb2dVertex
 10
62.780454
 20
36.928146
 30
0.0
  0
VERTEX
  5
197
330
18F
100
AcDbEntity
  8
001
370
    50
100
AcDbVertex
100
AcDb2dVertex
 10
62.846409
 20
36.944264
 30
0.0
  0
VERTEX
  5
198
330
18F
100
AcDbEntity
  8
001
370
    50
100
AcDbVertex
100
AcDb2dVertex
 10
62.906449
 20
36.961785
 30
0.0
  0
VERTEX
  5
199
330
18F
100
AcDbEntity
  8
001
370
    50
100
AcDbVertex
100
AcDb2dVertex
 10
62.965535
 20
36.982295
 30
0.0
  0
VERTEX
  5
19A
330
18F
100
AcDbEntity
  8
001
370
    50
100
AcDbVertex
100
AcDb2dVertex
 10
63.016066
 20
37.003048
 30
0.0
  0
VERTEX
  5
19B
330
18F
100
AcDbEntity
  8
001
370
    50
100
AcDbVertex
100
AcDb2dVertex
 10
63.065124
 20
37.0271
 30
0.0
  0
VERTEX
  5
19C
330
18F
100
AcDbEntity
  8
001
370
    50
100
AcDbVertex
100
AcDb2dVertex
 10
63.107012
 20
37.05188
 30
0.0
  0
VERTEX
  5
19D
330
18F
100
AcDbEntity
  8
001
370
    50
100
AcDbVertex
100
AcDb2dVertex
 10
63.146312
 20
37.080507
 30
0.0
  0
VERTEX
  5
19E
330
18F
100
AcDbEntity
  8
001
370
    50
100
AcDbVertex
100
AcDb2dVertex
 10
63.176357
 20
37.107951
 30
0.0
  0
VERTEX
  5
19F
330
18F
100
AcDbEntity
  8
001
370
    50
100
AcDbVertex
100
AcDb2dVertex
 10
63.202585
 20
37.139207
 30
0.0
  0
VERTEX
  5
1A0
330
18F
100
AcDbEntity
  8
001
370
    50
100
AcDbVertex
100
AcDb2dVertex
 10
63.221725
 20
37.171201
 30
0.0
  0
VERTEX
  5
1A1
330
18F
100
AcDbEntity
  8
001
370
    50
100
AcDbVertex
100
AcDb2dVertex
 10
63.234031
 20
37.206002
 30
0.0
  0
VERTEX
  5
1A2
330
18F
100
AcDbEntity
  8
001
370
    50
100
AcDbVertex
100
AcDb2dVertex
 10
63.237256
 20
37.226067
 30
0.0
  0
VERTEX
  5
1A3
330
18F
100
AcDbEntity
  8
001
370
    50
100
AcDbVertex
100
AcDb2dVertex
 10
63.239042
 20
37.246428
 30
0.0
  0
SEQEND
  5
190
330
18F
100
AcDbEntity
  8
001
370
    50
  0
POLYLINE
  5
1A4
330
1F
100
AcDbEntity
  8
001
370
    50
100
AcDb2dPolyline
 66
     1
 10
0.0
 20
0.0
 30
0.0
  0
VERTEX
  5
1A6
330
1A4
100
AcDbEntity
  8
001
370
    50
100
AcDbVertex
100
AcDb2dVertex
 10
62.012699
 20
41.452182
 30
0.0
  0
VERTEX
  5
1A7
330
1A4
100
AcDbEntity
  8
001
370
    50
100
AcDbVertex
100
AcDb2dVertex
 10
62.286791
 20
40.105595
 30
0.0
  0
VERTEX
  5
1A8
330
1A4
100
AcDbEntity
  8
001
370
    50
100
AcDbVertex
100
AcDb2dVertex
 10
62.855954
 20
38.188784
 30
0.0
  0
VERTEX
  5
1A9
330
1A4
100
AcDbEntity
  8
001
370
    50
100
AcDbVertex
100
AcDb2dVertex
 10
63.062287
 20
37.677298
 30
0.0
  0
VERTEX
  5
1AA
330
1A4
100
AcDbEntity
  8
001
370
    50
100
AcDbVertex
100
AcDb2dVertex
 10
63.217443
 20
37.333024
 30
0.0
  0
SEQEND
  5
1A5
330
1A4
100
AcDbEntity
  8
001
370
    50
  0
POLYLINE
  5
1AB
330
1F
100
AcDbEntity
  8
001
370
    50
100
AcDb2dPolyline
 66
     1
 10
0.0
 20
0.0
 30
0.0
  0
VERTEX
  5
1AD
330
1AB
100
AcDbEntity
  8
001
370
    50
100
AcDbVertex
100
AcDb2dVertex
 10
62.012699
 20
41.452182
 30
0.0
  0
VERTEX
  5
1AE
330
1AB
100
AcDbEntity
  8
001
370
    50
100
AcDbVertex
100
AcDb2dVertex
 10
63.040698
 20
41.70367
 30
0.0
  0
VERTEX
  5
1AF
330
1AB
100
AcDbEntity
  8
001
370
    50
100
AcDbVertex
100
AcDb2dVertex
 10
64.538613
 20
42.088874
 30
0.0
  0
VERTEX
  5
1B0
330
1AB
100
AcDbEntity
  8
001
370
    50
100
AcDbVertex
100
AcDb2dVertex
 10
65.945416
 20
42.475828
 30
0.0
  0
VERTEX
  5
1B1
330
1AB
100
AcDbEntity
  8
001
370
    50
100
AcDbVertex
100
AcDb2dVertex
 10
66.904704
 20
42.752408
 30
0.0
  0
SEQEND
  5
1AC
330
1AB
100
AcDbEntity
  8
001
370
    50
  0
POLYLINE
  5
1B2
330
1F
100
AcDbEntity
  8
001
370
    50
100
AcDb2dPolyline
 66
     1
 10
0.0
 20
0.0
 30
0.0
  0
VERTEX
  5
1B4
330
1B2
100
AcDbEntity
  8
001
370
    50
100
AcDbVertex
100
AcDb2dVertex
 10
66.904704
 20
61.337972
 30
0.0
  0
VERTEX
  5
1B5
330
1B2
100
AcDbEntity
  8
001
370
    50
100
AcDbVertex
100
AcDb2dVertex
 10
64.735444
 20
61.9425
 30
0.0
  0
VERTEX
  5
1B6
330
1B2
100
AcDbEntity
  8
001
370
    50
100
AcDbVertex
100
AcDb2dVertex
 10
61.545242
 20
62.748958
 30
0.0
  0
VERTEX
  5
1B7
330
1B2
100
AcDbEntity
  8
001
370
    50
100
AcDbVertex
100
AcDb2dVertex
 10
59.076091
 20
63.301727
 30
0.0
  0
VERTEX
  5
1B8
330
1B2
100
AcDbEntity
  8
001
370
    50
100
AcDbVertex
100
AcDb2dVertex
 10
56.934826
 20
63.740514
 30
0.0
  0
VERTEX
  5
1B9
330
1B2
100
AcDbEntity
  8
001
370
    50
100
AcDbVertex
100
AcDb2dVertex
 10
55.466117
 20
64.023092
 30
0.0
  0
SEQEND
  5
1B3
330
1B2
100
AcDbEntity
  8
001
370
    50
  0
LINE
  5
1BA
330
1F
100
AcDbEntity
  8
001
370
    50
100
AcDbLine
 10
55.466117
 20
68.043637
 30
0.0
 11
55.466117
 21
64.023092
 31
0.0
  0
POLYLINE
  5
1BB
330
1F
100
AcDbEntity
  8
001
370
    50
100
AcDb2dPolyline
 66
     1
 10
0.0
 20
0.0
 30
0.0
  0
VERTEX
  5
1BD
330
1BB
100
AcDbEntity
  8
001
370
    50
100
AcDbVertex
100
AcDb2dVertex
 10
55.547223
 20
68.043866
 30
0.0
  0
VERTEX
  5
1BE
330
1BB
100
AcDbEntity
  8
001
370
    50
100
AcDbVertex
100
AcDb2dVertex
 10
55.530748
 20
68.043821
 30
0.0
  0
VERTEX
  5
1BF
330
1BB
100
AcDbEntity
  8
001
370
    50
100
AcDbVertex
100
AcDb2dVertex
 10
55.50667
 20
68.043754
 30
0.0
  0
VERTEX
  5
1C0
330
1BB
100
AcDbEntity
  8
001
370
    50
100
AcDbVertex
100
AcDb2dVertex
 10
55.482591
 20
68.043685
 30
0.0
  0
VERTEX
  5
1C1
330
1BB
100
AcDbEntity
  8
001
370
    50
100
AcDbVertex
100
AcDb2dVertex
 10
55.466117
 20
68.043637
 30
0.0
  0
SEQEND
  5
1BC
330
1BB
100
AcDbEntity
  8
001
370
    50
  0
POLYLINE
  5
1C2
330
1F
100
AcDbEntity
  8
001
370
    50
100
AcDb2dPolyline
 66
     1
 10
0.0
 20
0.0
 30
0.0
  0
VERTEX
  5
1C4
330
1C2
100
AcDbEntity
  8
001
370
    50
100
AcDbVertex
100
AcDb2dVertex
 10
55.547223
 20
68.043866
 30
0.0
  0
VERTEX
  5
1C5
330
1C2
100
AcDbEntity
  8
001
370
    50
100
AcDbVertex
100
AcDb2dVertex
 10
55.543676
 20
68.04434
 30
0.0
  0
VERTEX
  5
1C6
330
1C2
100
AcDbEntity
  8
001
370
    50
100
AcDbVertex
100
AcDb2dVertex
 10
55.538474
 20
68.044859
 30
0.0
  0
VERTEX
  5
1C7
330
1C2
100
AcDbEntity
  8
001
370
    50
100
AcDbVertex
100
AcDb2dVertex
 10
55.533379
 20
68.045126
 30
0.0
  0
VERTEX
  5
1C8
330
1C2
100
AcDbEntity
  8
001
370
    50
100
AcDbVertex
100
AcDb2dVertex
 10
55.529886
 20
68.04519
 30
0.0
  0
SEQEND
  5
1C3
330
1C2
100
AcDbEntity
  8
001
370
    50
  0
POLYLINE
  5
1C9
330
1F
100
AcDbEntity
  8
001
370
    50
100
AcDb2dPolyline
 66
     1
 10
0.0
 20
0.0
 30
0.0
  0
VERTEX
  5
1CB
330
1C9
100
AcDbEntity
  8
001
370
    50
100
AcDbVertex
100
AcDb2dVertex
 10
55.466117
 20
36.046743
 30
0.0
  0
VERTEX
  5
1CC
330
1C9
100
AcDbEntity
  8
001
370
    50
100
AcDbVertex
100
AcDb2dVertex
 10
55.475561
 20
36.046715
 30
0.0
  0
VERTEX
  5
1CD
330
1C9
100
AcDbEntity
  8
001
370
    50
100
AcDbVertex
100
AcDb2dVertex
 10
55.489364
 20
36.046675
 30
0.0
  0
VERTEX
  5
1CE
330
1C9
100
AcDbEntity
  8
001
370
    50
100
AcDbVertex
100
AcDb2dVertex
 10
55.503167
 20
36.046636
 30
0.0
  0
VERTEX
  5
1CF
330
1C9
100
AcDbEntity
  8
001
370
    50
100
AcDbVertex
100
AcDb2dVertex
 10
55.512611
 20
36.046609
 30
0.0
  0
SEQEND
  5
1CA
330
1C9
100
AcDbEntity
  8
001
370
    50
  0
LINE
  5
1D0
330
1F
100
AcDbEntity
  8
001
370
    50
100
AcDbLine
 10
73.814798
 20
68.04519
 30
0.0
 11
73.814798
 21
36.04519
 31
0.0
  0
LINE
  5
1D1
330
1F
100
AcDbEntity
  8
001
370
    50
100
AcDbLine
 10
145.814798
 20
68.04519
 30
0.0
 11
75.814798
 21
68.04519
 31
0.0
  0
LINE
  5
1D2
330
1F
100
AcDbEntity
  8
001
370
    50
100
AcDbLine
 10
75.814798
 20
36.04519
 30
0.0
 11
145.814798
 21
36.04519
 31
0.0
  0
LINE
  5
1D3
330
1F
100
AcDbEntity
  8
001
370
    50
100
AcDbLine
 10
75.814798
 20
68.04519
 30
0.0
 11
75.814798
 21
36.04519
 31
0.0
  0
LINE
  5
1D4
330
1F
100
AcDbEntity
  8
001
370
    50
100
AcDbLine
 10
75.814798
 20
67.54519
 30
0.0
 11
73.814798
 21
67.54519
 31
0.0
  0
LINE
  5
1D5
330
1F
100
AcDbEntity
  8
001
370
    50
100
AcDbLine
 10
73.814798
 20
36.54519
 30
0.0
 11
75.814798
 21
36.54519
 31
0.0
  0
POLYLINE
  5
1D6
330
1F
100
AcDbEntity
  8
001
370
    50
100
AcDb2dPolyline
 66
     1
 10
0.0
 20
0.0
 30
0.0
  0
VERTEX
  5
1D8
330
1D6
100
AcDbEntity
  8
001
370
    50
100
AcDbVertex
100
AcDb2dVertex
 10
55.213918
 20
58.466825
 30
0.0
  0
VERTEX
  5
1D9
330
1D6
100
AcDbEntity
  8
001
370
    50
100
AcDbVertex
100
AcDb2dVertex
 10
55.341663
 20
58.47309
 30
0.0
  0
VERTEX
  5
1DA
330
1D6
100
AcDbEntity
  8
001
370
    50
100
AcDbVertex
100
AcDb2dVertex
 10
55.520446
 20
58.491892
 30
0.0
  0
VERTEX
  5
1DB
330
1D6
100
AcDbEntity
  8
001
370
    50
100
AcDbVertex
100
AcDb2dVertex
 10
55.833581
 20
58.565885
 30
0.0
  0
VERTEX
  5
1DC
330
1D6
100
AcDbEntity
  8
001
370
    50
100
AcDbVertex
100
AcDb2dVertex
 10
56.09653
 20
58.687883
 30
0.0
  0
VERTEX
  5
1DD
330
1D6
100
AcDbEntity
  8
001
370
    50
100
AcDbVertex
100
AcDb2dVertex
 10
56.452495
 20
58.946874
 30
0.0
  0
VERTEX
  5
1DE
330
1D6
100
AcDbEntity
  8
001
370
    50
100
AcDbVertex
100
AcDb2dVertex
 10
56.742646
 20
59.291825
 30
0.0
  0
VERTEX
  5
1DF
330
1D6
100
AcDbEntity
  8
001
370
    50
100
AcDbVertex
100
AcDb2dVertex
 10
56.814059
 20
59.421139
 30
0.0
  0
VERTEX
  5
1E0
330
1D6
100
AcDbEntity
  8
001
370
    50
100
AcDbVertex
100
AcDb2dVertex
 10
56.872685
 20
59.552492
 30
0.0
  0
VERTEX
  5
1E1
330
1D6
100
AcDbEntity
  8
001
370
    50
100
AcDbVertex
100
AcDb2dVertex
 10
56.918804
 20
59.683317
 30
0.0
  0
VERTEX
  5
1E2
330
1D6
100
AcDbEntity
  8
001
370
    50
100
AcDbVertex
100
AcDb2dVertex
 10
56.952324
 20
59.830306
 30
0.0
  0
VERTEX
  5
1E3
330
1D6
100
AcDbEntity
  8
001
370
    50
100
AcDbVertex
100
AcDb2dVertex
 10
56.972434
 20
59.995836
 30
0.0
  0
VERTEX
  5
1E4
330
1D6
100
AcDbEntity
  8
001
370
    50
100
AcDbVertex
100
AcDb2dVertex
 10
56.979141
 20
60.116825
 30
0.0
  0
SEQEND
  5
1D7
330
1D6
100
AcDbEntity
  8
001
370
    50
  0
LINE
  5
1E5
330
1F
100
AcDbEntity
  8
001
370
    50
100
AcDbLine
 10
62.012699
 20
41.452182
 30
0.0
 11
62.012699
 21
47.425838
 31
0.0
  0
POLYLINE
  5
1E6
330
1F
100
AcDbEntity
  8
001
370
    50
100
AcDb2dPolyline
 66
     1
 10
0.0
 20
0.0
 30
0.0
  0
VERTEX
  5
1E8
330
1E6
100
AcDbEntity
  8
001
370
    50
100
AcDbVertex
100
AcDb2dVertex
 10
62.012699
 20
47.425838
 30
0.0
  0
VERTEX
  5
1E9
330
1E6
100
AcDbEntity
  8
001
370
    50
100
AcDbVertex
100
AcDb2dVertex
 10
61.99041
 20
47.860111
 30
0.0
  0
VERTEX
  5
1EA
330
1E6
100
AcDbEntity
  8
001
370
    50
100
AcDbVertex
100
AcDb2dVertex
 10
61.923514
 20
48.467727
 30
0.0
  0
VERTEX
  5
1EB
330
1E6
100
AcDbEntity
  8
001
370
    50
100
AcDbVertex
100
AcDb2dVertex
 10
61.659251
 20
49.534915
 30
0.0
  0
VERTEX
  5
1EC
330
1E6
100
AcDbEntity
  8
001
370
    50
100
AcDbVertex
100
AcDb2dVertex
 10
61.226214
 20
50.425838
 30
0.0
  0
VERTEX
  5
1ED
330
1E6
100
AcDbEntity
  8
001
370
    50
100
AcDbVertex
100
AcDb2dVertex
 10
60.298797
 20
51.64088
 30
0.0
  0
VERTEX
  5
1EE
330
1E6
100
AcDbEntity
  8
001
370
    50
100
AcDbVertex
100
AcDb2dVertex
 10
59.077496
 20
52.62199
 30
0.0
  0
VERTEX
  5
1EF
330
1E6
100
AcDbEntity
  8
001
370
    50
100
AcDbVertex
100
AcDb2dVertex
 10
58.616721
 20
52.865206
 30
0.0
  0
VERTEX
  5
1F0
330
1E6
100
AcDbEntity
  8
001
370
    50
100
AcDbVertex
100
AcDb2dVertex
 10
58.150091
 20
53.063993
 30
0.0
  0
VERTEX
  5
1F1
330
1E6
100
AcDbEntity
  8
001
370
    50
100
AcDbVertex
100
AcDb2dVertex
 10
57.683996
 20
53.220865
 30
0.0
  0
VERTEX
  5
1F2
330
1E6
100
AcDbEntity
  8
001
370
    50
100
AcDbVertex
100
AcDb2dVertex
 10
57.161679
 20
53.334684
 30
0.0
  0
VERTEX
  5
1F3
330
1E6
100
AcDbEntity
  8
001
370
    50
100
AcDbVertex
100
AcDb2dVertex
 10
56.572635
 20
53.40307
 30
0.0
  0
VERTEX
  5
1F4
330
1E6
100
AcDbEntity
  8
001
370
    50
100
AcDbVertex
100
AcDb2dVertex
 10
56.142294
 20
53.425838
 30
0.0
  0
SEQEND
  5
1E7
330
1E6
100
AcDbEntity
  8
001
370
    50
  0
LINE
  5
1F5
330
1F
100
AcDbEntity
  8
001
370
    50
100
AcDbLine
 10
54.622921
 20
53.221393
 30
0.0
 11
48.020669
 21
51.413271
 31
0.0
  0
POLYLINE
  5
1F6
330
1F
100
AcDbEntity
  8
001
370
    50
100
AcDb2dPolyline
 66
     1
 10
0.0
 20
0.0
 30
0.0
  0
VERTEX
  5
1F8
330
1F6
100
AcDbEntity
  8
001
370
    50
100
AcDbVertex
100
AcDb2dVertex
 10
55.466117
 20
64.023092
 30
0.0
  0
VERTEX
  5
1F9
330
1F6
100
AcDbEntity
  8
001
370
    50
100
AcDbVertex
100
AcDb2dVertex
 10
54.774791
 20
63.284204
 30
0.0
  0
VERTEX
  5
1FA
330
1F6
100
AcDbEntity
  8
001
370
    50
100
AcDbVertex
100
AcDb2dVertex
 10
54.088506
 20
62.540673
 30
0.0
  0
VERTEX
  5
1FB
330
1F6
100
AcDbEntity
  8
001
370
    50
100
AcDbVertex
100
AcDb2dVertex
 10
53.411309
 20
61.788049
 30
0.0
  0
VERTEX
  5
1FC
330
1F6
100
AcDbEntity
  8
001
370
    50
100
AcDbVertex
100
AcDb2dVertex
 10
52.745571
 20
61.025229
 30
0.0
  0
VERTEX
  5
1FD
330
1F6
100
AcDbEntity
  8
001
370
    50
100
AcDbVertex
100
AcDb2dVertex
 10
52.09268
 20
60.250927
 30
0.0
  0
VERTEX
  5
1FE
330
1F6
100
AcDbEntity
  8
001
370
    50
100
AcDbVertex
100
AcDb2dVertex
 10
51.455367
 20
59.463806
 30
0.0
  0
VERTEX
  5
1FF
330
1F6
100
AcDbEntity
  8
001
370
    50
100
AcDbVertex
100
AcDb2dVertex
 10
51.142939
 20
59.064079
 30
0.0
  0
VERTEX
  5
200
330
1F6
100
AcDbEntity
  8
001
370
    50
100
AcDbVertex
100
AcDb2dVertex
 10
50.836099
 20
58.660054
 30
0.0
  0
VERTEX
  5
201
330
1F6
100
AcDbEntity
  8
001
370
    50
100
AcDbVertex
100
AcDb2dVertex
 10
50.535594
 20
58.250746
 30
0.0
  0
VERTEX
  5
202
330
1F6
100
AcDbEntity
  8
001
370
    50
100
AcDbVertex
100
AcDb2dVertex
 10
50.242722
 20
57.83594
 30
0.0
  0
VERTEX
  5
203
330
1F6
100
AcDbEntity
  8
001
370
    50
100
AcDbVertex
100
AcDb2dVertex
 10
49.958456
 20
57.414996
 30
0.0
  0
VERTEX
  5
204
330
1F6
100
AcDbEntity
  8
001
370
    50
100
AcDbVertex
100
AcDb2dVertex
 10
49.683987
 20
56.98761
 30
0.0
  0
VERTEX
  5
205
330
1F6
100
AcDbEntity
  8
001
370
    50
100
AcDbVertex
100
AcDb2dVertex
 10
49.479899
 20
56.653479
 30
0.0
  0
VERTEX
  5
206
330
1F6
100
AcDbEntity
  8
001
370
    50
100
AcDbVertex
100
AcDb2dVertex
 10
49.283348
 20
56.314863
 30
0.0
  0
VERTEX
  5
207
330
1F6
100
AcDbEntity
  8
001
370
    50
100
AcDbVertex
100
AcDb2dVertex
 10
49.094894
 20
55.970361
 30
0.0
  0
VERTEX
  5
208
330
1F6
100
AcDbEntity
  8
001
370
    50
100
AcDbVertex
100
AcDb2dVertex
 10
48.91637
 20
55.620615
 30
0.0
  0
VERTEX
  5
209
330
1F6
100
AcDbEntity
  8
001
370
    50
100
AcDbVertex
100
AcDb2dVertex
 10
48.749136
 20
55.265518
 30
0.0
  0
VERTEX
  5
20A
330
1F6
100
AcDbEntity
  8
001
370
    50
100
AcDbVertex
100
AcDb2dVertex
 10
48.594357
 20
54.9048
 30
0.0
  0
VERTEX
  5
20B
330
1F6
100
AcDbEntity
  8
001
370
    50
100
AcDbVertex
100
AcDb2dVertex
 10
48.453599
 20
54.538899
 30
0.0
  0
VERTEX
  5
20C
330
1F6
100
AcDbEntity
  8
001
370
    50
100
AcDbVertex
100
AcDb2dVertex
 10
48.328614
 20
54.167352
 30
0.0
  0
VERTEX
  5
20D
330
1F6
100
AcDbEntity
  8
001
370
    50
100
AcDbVertex
100
AcDb2dVertex
 10
48.238363
 20
53.855004
 30
0.0
  0
VERTEX
  5
20E
330
1F6
100
AcDbEntity
  8
001
370
    50
100
AcDbVertex
100
AcDb2dVertex
 10
48.161189
 20
53.53917
 30
0.0
  0
VERTEX
  5
20F
330
1F6
100
AcDbEntity
  8
001
370
    50
100
AcDbVertex
100
AcDb2dVertex
 10
48.097518
 20
53.21861
 30
0.0
  0
VERTEX
  5
210
330
1F6
100
AcDbEntity
  8
001
370
    50
100
AcDbVertex
100
AcDb2dVertex
 10
48.048271
 20
52.895527
 30
0.0
  0
VERTEX
  5
211
330
1F6
100
AcDbEntity
  8
001
370
    50
100
AcDbVertex
100
AcDb2dVertex
 10
48.013893
 20
52.570713
 30
0.0
  0
VERTEX
  5
212
330
1F6
100
AcDbEntity
  8
001
370
    50
100
AcDbVertex
100
AcDb2dVertex
 10
47.994782
 20
52.2446
 30
0.0
  0
VERTEX
  5
213
330
1F6
100
AcDbEntity
  8
001
370
    50
100
AcDbVertex
100
AcDb2dVertex
 10
47.991567
 20
51.919376
 30
0.0
  0
VERTEX
  5
214
330
1F6
100
AcDbEntity
  8
001
370
    50
100
AcDbVertex
100
AcDb2dVertex
 10
48.005643
 20
51.594567
 30
0.0
  0
VERTEX
  5
215
330
1F6
100
AcDbEntity
  8
001
370
    50
100
AcDbVertex
100
AcDb2dVertex
 10
48.012783
 20
51.503889
 30
0.0
  0
VERTEX
  5
216
330
1F6
100
AcDbEntity
  8
001
370
    50
100
AcDbVertex
100
AcDb2dVertex
 10
48.020669
 20
51.413271
 30
0.0
  0
SEQEND
  5
1F7
330
1F6
100
AcDbEntity
  8
001
370
    50
  0
POLYLINE
  5
217
330
1F
100
AcDbEntity
  8
001
370
    50
100
AcDb2dPolyline
 66
     1
 10
0.0
 20
0.0
 30
0.0
  0
VERTEX
  5
219
330
217
100
AcDbEntity
  8
001
370
    50
100
AcDbVertex
100
AcDb2dVertex
 10
45.814798
 20
50.715199
 30
0.0
  0
VERTEX
  5
21A
330
217
100
AcDbEntity
  8
001
370
    50
100
AcDbVertex
100
AcDb2dVertex
 10
46.362595
 20
50.889115
 30
0.0
  0
VERTEX
  5
21B
330
217
100
AcDbEntity
  8
001
370
    50
100
AcDbVertex
100
AcDb2dVertex
 10
46.910479
 20
51.062756
 30
0.0
  0
VERTEX
  5
21C
330
217
100
AcDbEntity
  8
001
370
    50
100
AcDbVertex
100
AcDb2dVertex
 10
47.465529
 20
51.238154
 30
0.0
  0
VERTEX
  5
21D
330
217
100
AcDbEntity
  8
001
370
    50
100
AcDbVertex
100
AcDb2dVertex
 10
48.020669
 20
51.413271
 30
0.0
  0
SEQEND
  5
218
330
217
100
AcDbEntity
  8
001
370
    50
  0
POLYLINE
  5
21E
330
1F
100
AcDbEntity
  8
001
370
    50
100
AcDb2dPolyline
 66
     1
 10
0.0
 20
0.0
 30
0.0
  0
VERTEX
  5
220
330
21E
100
AcDbEntity
  8
001
370
    50
100
AcDbVertex
100
AcDb2dVertex
 10
45.814798
 20
58.669621
 30
0.0
  0
VERTEX
  5
221
330
21E
100
AcDbEntity
  8
001
370
    50
100
AcDbVertex
100
AcDb2dVertex
 10
46.528871
 20
59.41133
 30
0.0
  0
VERTEX
  5
222
330
21E
100
AcDbEntity
  8
001
370
    50
100
AcDbVertex
100
AcDb2dVertex
 10
47.247591
 20
60.148469
 30
0.0
  0
VERTEX
  5
223
330
21E
100
AcDbEntity
  8
001
370
    50
100
AcDbVertex
100
AcDb2dVertex
 10
47.974061
 20
60.877479
 30
0.0
  0
VERTEX
  5
224
330
21E
100
AcDbEntity
  8
001
370
    50
100
AcDbVertex
100
AcDb2dVertex
 10
48.706708
 20
61.600343
 30
0.0
  0
VERTEX
  5
225
330
21E
100
AcDbEntity
  8
001
370
    50
100
AcDbVertex
100
AcDb2dVertex
 10
50.182519
 20
63.036483
 30
0.0
  0
VERTEX
  5
226
330
21E
100
AcDbEntity
  8
001
370
    50
100
AcDbVertex
100
AcDb2dVertex
 10
51.668727
 20
64.461811
 30
0.0
  0
VERTEX
  5
227
330
21E
100
AcDbEntity
  8
001
370
    50
100
AcDbVertex
100
AcDb2dVertex
 10
53.563998
 20
66.256329
 30
0.0
  0
VERTEX
  5
228
330
21E
100
AcDbEntity
  8
001
370
    50
100
AcDbVertex
100
AcDb2dVertex
 10
55.466117
 20
68.043637
 30
0.0
  0
SEQEND
  5
21F
330
21E
100
AcDbEntity
  8
001
370
    50
  0
POLYLINE
  5
229
330
1F
100
AcDbEntity
  8
001
370
    50
100
AcDb2dPolyline
 66
     1
 10
0.0
 20
0.0
 30
0.0
  0
VERTEX
  5
22B
330
229
100
AcDbEntity
  8
001
370
    50
100
AcDbVertex
100
AcDb2dVertex
 10
56.744666
 20
53.394167
 30
0.0
  0
VERTEX
  5
22C
330
229
100
AcDbEntity
  8
001
370
    50
100
AcDbVertex
100
AcDb2dVertex
 10
56.732727
 20
53.392894
 30
0.0
  0
VERTEX
  5
22D
330
229
100
AcDbEntity
  8
001
370
    50
100
AcDbVertex
100
AcDb2dVertex
 10
56.715282
 20
53.390992
 30
0.0
  0
VERTEX
  5
22E
330
229
100
AcDbEntity
  8
001
370
    50
100
AcDbVertex
100
AcDb2dVertex
 10
56.697844
 20
53.389034
 30
0.0
  0
VERTEX
  5
22F
330
229
100
AcDbEntity
  8
001
370
    50
100
AcDbVertex
100
AcDb2dVertex
 10
56.685915
 20
53.387667
 30
0.0
  0
SEQEND
  5
22A
330
229
100
AcDbEntity
  8
001
370
    50
  0
POLYLINE
  5
230
330
1F
100
AcDbEntity
  8
001
370
    50
100
AcDb2dPolyline
 66
     1
 10
0.0
 20
0.0
 30
0.0
  0
VERTEX
  5
232
330
230
100
AcDbEntity
  8
001
370
    50
100
AcDbVertex
100
AcDb2dVertex
 10
56.142294
 20
53.425838
 30
0.0
  0
VERTEX
  5
233
330
230
100
AcDbEntity
  8
001
370
    50
100
AcDbVertex
100
AcDb2dVertex
 10
55.725891
 20
53.408591
 30
0.0
  0
VERTEX
  5
234
330
230
100
AcDbEntity
  8
001
370
    50
100
AcDbVertex
100
AcDb2dVertex
 10
55.122909
 20
53.334684
 30
0.0
  0
VERTEX
  5
235
330
230
100
AcDbEntity
  8
001
370
    50
100
AcDbVertex
100
AcDb2dVertex
 10
54.825047
 20
53.272311
 30
0.0
  0
VERTEX
  5
236
330
230
100
AcDbEntity
  8
001
370
    50
100
AcDbVertex
100
AcDb2dVertex
 10
54.622921
 20
53.221393
 30
0.0
  0
SEQEND
  5
231
330
230
100
AcDbEntity
  8
001
370
    50
  0
POLYLINE
  5
237
330
1F
100
AcDbEntity
  8
001
370
    50
100
AcDb2dPolyline
 66
     1
 10
0.0
 20
0.0
 30
0.0
  0
VERTEX
  5
239
330
237
100
AcDbEntity
  8
001
370
    50
100
AcDbVertex
100
AcDb2dVertex
 10
56.979141
 20
60.116825
 30
0.0
  0
VERTEX
  5
23A
330
237
100
AcDbEntity
  8
001
370
    50
100
AcDbVertex
100
AcDb2dVertex
 10
56.972434
 20
60.237815
 30
0.0
  0
VERTEX
  5
23B
330
237
100
AcDbEntity
  8
001
370
    50
100
AcDbVertex
100
AcDb2dVertex
 10
56.952324
 20
60.403345
 30
0.0
  0
VERTEX
  5
23C
330
237
100
AcDbEntity
  8
001
370
    50
100
AcDbVertex
100
AcDb2dVertex
 10
56.918804
 20
60.550333
 30
0.0
  0
VERTEX
  5
23D
330
237
100
AcDbEntity
  8
001
370
    50
100
AcDbVertex
100
AcDb2dVertex
 10
56.872685
 20
60.681158
 30
0.0
  0
VERTEX
  5
23E
330
237
100
AcDbEntity
  8
001
370
    50
100
AcDbVertex
100
AcDb2dVertex
 10
56.814059
 20
60.812512
 30
0.0
  0
VERTEX
  5
23F
330
237
100
AcDbEntity
  8
001
370
    50
100
AcDbVertex
100
AcDb2dVertex
 10
56.742646
 20
60.941825
 30
0.0
  0
VERTEX
  5
240
330
237
100
AcDbEntity
  8
001
370
    50
100
AcDbVertex
100
AcDb2dVertex
 10
56.452495
 20
61.286776
 30
0.0
  0
VERTEX
  5
241
330
237
100
AcDbEntity
  8
001
370
    50
100
AcDbVertex
100
AcDb2dVertex
 10
56.09653
 20
61.545767
 30
0.0
  0
VERTEX
  5
242
330
237
100
AcDbEntity
  8
001
370
    50
100
AcDbVertex
100
AcDb2dVertex
 10
55.833581
 20
61.667765
 30
0.0
  0
VERTEX
  5
243
330
237
100
AcDbEntity
  8
001
370
    50
100
AcDbVertex
100
AcDb2dVertex
 10
55.520446
 20
61.741758
 30
0.0
  0
VERTEX
  5
244
330
237
100
AcDbEntity
  8
001
370
    50
100
AcDbVertex
100
AcDb2dVertex
 10
55.341663
 20
61.760561
 30
0.0
  0
VERTEX
  5
245
330
237
100
AcDbEntity
  8
001
370
    50
100
AcDbVertex
100
AcDb2dVertex
 10
55.213918
 20
61.766825
 30
0.0
  0
SEQEND
  5
238
330
237
100
AcDbEntity
  8
001
370
    50
  0
POLYLINE
  5
246
330
1F
100
AcDbEntity
  8
001
370
    50
100
AcDb2dPolyline
 66
     1
 10
0.0
 20
0.0
 30
0.0
  0
VERTEX
  5
248
330
246
100
AcDbEntity
  8
001
370
    50
100
AcDbVertex
100
AcDb2dVertex
 10
55.213918
 20
61.766825
 30
0.0
  0
VERTEX
  5
249
330
246
100
AcDbEntity
  8
001
370
    50
100
AcDbVertex
100
AcDb2dVertex
 10
55.086173
 20
61.760541
 30
0.0
  0
VERTEX
  5
24A
330
246
100
AcDbEntity
  8
001
370
    50
100
AcDbVertex
100
AcDb2dVertex
 10
54.90739
 20
61.741758
 30
0.0
  0
VERTEX
  5
24B
330
246
100
AcDbEntity
  8
001
370
    50
100
AcDbVertex
100
AcDb2dVertex
 10
54.594255
 20
61.668041
 30
0.0
  0
VERTEX
  5
24C
330
246
100
AcDbEntity
  8
001
370
    50
100
AcDbVertex
100
AcDb2dVertex
 10
54.331306
 20
61.545767
 30
0.0
  0
VERTEX
  5
24D
330
246
100
AcDbEntity
  8
001
370
    50
100
AcDbVertex
100
AcDb2dVertex
 10
53.975341
 20
61.284832
 30
0.0
  0
VERTEX
  5
24E
330
246
100
AcDbEntity
  8
001
370
    50
100
AcDbVertex
100
AcDb2dVertex
 10
53.685189
 20
60.941825
 30
0.0
  0
VERTEX
  5
24F
330
246
100
AcDbEntity
  8
001
370
    50
100
AcDbVertex
100
AcDb2dVertex
 10
53.613777
 20
60.814404
 30
0.0
  0
VERTEX
  5
250
330
246
100
AcDbEntity
  8
001
370
    50
100
AcDbVertex
100
AcDb2dVertex
 10
53.55515
 20
60.681158
 30
0.0
  0
VERTEX
  5
251
330
246
100
AcDbEntity
  8
001
370
    50
100
AcDbVertex
100
AcDb2dVertex
 10
53.509032
 20
60.544103
 30
0.0
  0
VERTEX
  5
252
330
246
100
AcDbEntity
  8
001
370
    50
100
AcDbVertex
100
AcDb2dVertex
 10
53.475512
 20
60.403345
 30
0.0
  0
VERTEX
  5
253
330
246
100
AcDbEntity
  8
001
370
    50
100
AcDbVertex
100
AcDb2dVertex
 10
53.455402
 20
60.260706
 30
0.0
  0
VERTEX
  5
254
330
246
100
AcDbEntity
  8
001
370
    50
100
AcDbVertex
100
AcDb2dVertex
 10
53.448694
 20
60.116825
 30
0.0
  0
VERTEX
  5
255
330
246
100
AcDbEntity
  8
001
370
    50
100
AcDbVertex
100
AcDb2dVertex
 10
53.455402
 20
59.972945
 30
0.0
  0
VERTEX
  5
256
330
246
100
AcDbEntity
  8
001
370
    50
100
AcDbVertex
100
AcDb2dVertex
 10
53.475512
 20
59.830306
 30
0.0
  0
VERTEX
  5
257
330
246
100
AcDbEntity
  8
001
370
    50
100
AcDbVertex
100
AcDb2dVertex
 10
53.509032
 20
59.689547
 30
0.0
  0
VERTEX
  5
258
330
246
100
AcDbEntity
  8
001
370
    50
100
AcDbVertex
100
AcDb2dVertex
 10
53.55515
 20
59.552492
 30
0.0
  0
VERTEX
  5
259
330
246
100
AcDbEntity
  8
001
370
    50
100
AcDbVertex
100
AcDb2dVertex
 10
53.613777
 20
59.419247
 30
0.0
  0
VERTEX
  5
25A
330
246
100
AcDbEntity
  8
001
370
    50
100
AcDbVertex
100
AcDb2dVertex
 10
53.685189
 20
59.291825
 30
0.0
  0
VERTEX
  5
25B
330
246
100
AcDbEntity
  8
001
370
    50
100
AcDbVertex
100
AcDb2dVertex
 10
53.975341
 20
58.948819
 30
0.0
  0
VERTEX
  5
25C
330
246
100
AcDbEntity
  8
001
370
    50
100
AcDbVertex
100
AcDb2dVertex
 10
54.331306
 20
58.687883
 30
0.0
  0
VERTEX
  5
25D
330
246
100
AcDbEntity
  8
001
370
    50
100
AcDbVertex
100
AcDb2dVertex
 10
54.594255
 20
58.565609
 30
0.0
  0
VERTEX
  5
25E
330
246
100
AcDbEntity
  8
001
370
    50
100
AcDbVertex
100
AcDb2dVertex
 10
54.90739
 20
58.491892
 30
0.0
  0
VERTEX
  5
25F
330
246
100
AcDbEntity
  8
001
370
    50
100
AcDbVertex
100
AcDb2dVertex
 10
55.086173
 20
58.47311
 30
0.0
  0
VERTEX
  5
260
330
246
100
AcDbEntity
  8
001
370
    50
100
AcDbVertex
100
AcDb2dVertex
 10
55.213918
 20
58.466825
 30
0.0
  0
SEQEND
  5
247
330
246
100
AcDbEntity
  8
001
370
    50
  0
POLYLINE
  5
261
330
1F
100
AcDbEntity
  8
001
370
    50
100
AcDb2dPolyline
 66
     1
 10
0.0
 20
0.0
 30
0.0
  0
VERTEX
  5
263
330
261
100
AcDbEntity
  8
001
370
    50
100
AcDbVertex
100
AcDb2dVertex
 10
63.239042
 20
37.246428
 30
0.0
  0
VERTEX
  5
264
330
261
100
AcDbEntity
  8
001
370
    50
100
AcDbVertex
100
AcDb2dVertex
 10
63.238198
 20
37.26116
 30
0.0
  0
VERTEX
  5
265
330
261
100
AcDbEntity
  8
001
370
    50
100
AcDbVertex
100
AcDb2dVertex
 10
63.236523
 20
37.275721
 30
0.0
  0
VERTEX
  5
266
330
261
100
AcDbEntity
  8
001
370
    50
100
AcDbVertex
100
AcDb2dVertex
 10
63.228736
 20
37.304734
 30
0.0
  0
VERTEX
  5
267
330
261
100
AcDbEntity
  8
001
370
    50
100
AcDbVertex
100
AcDb2dVertex
 10
63.217443
 20
37.333024
 30
0.0
  0
SEQEND
  5
262
330
261
100
AcDbEntity
  8
001
370
    50
  0
POLYLINE
  5
268
330
1F
100
AcDbEntity
  8
001
370
    50
100
AcDb2dPolyline
 66
     1
 10
0.0
 20
0.0
 30
0.0
  0
VERTEX
  5
26A
330
268
100
AcDbEntity
  8
001
370
    50
100
AcDbVertex
100
AcDb2dVertex
 10
56.907506
 20
51.838223
 30
0.0
  0
VERTEX
  5
26B
330
268
100
AcDbEntity
  8
001
370
    50
100
AcDbVertex
100
AcDb2dVertex
 10
56.692317
 20
51.826715
 30
0.0
  0
VERTEX
  5
26C
330
268
100
AcDbEntity
  8
001
370
    50
100
AcDbVertex
100
AcDb2dVertex
 10
56.397814
 20
51.792646
 30
0.0
  0
VERTEX
  5
26D
330
268
100
AcDbEntity
  8
001
370
    50
100
AcDbVertex
100
AcDb2dVertex
 10
56.136749
 20
51.736358
 30
0.0
  0
VERTEX
  5
26E
330
268
100
AcDbEntity
  8
001
370
    50
100
AcDbVertex
100
AcDb2dVertex
 10
55.903608
 20
51.657301
 30
0.0
  0
VERTEX
  5
26F
330
268
100
AcDbEntity
  8
001
370
    50
100
AcDbVertex
100
AcDb2dVertex
 10
55.669935
 20
51.555539
 30
0.0
  0
VERTEX
  5
270
330
268
100
AcDbEntity
  8
001
370
    50
100
AcDbVertex
100
AcDb2dVertex
 10
55.439905
 20
51.436299
 30
0.0
  0
VERTEX
  5
271
330
268
100
AcDbEntity
  8
001
370
    50
100
AcDbVertex
100
AcDb2dVertex
 10
54.836171
 20
50.991509
 30
0.0
  0
VERTEX
  5
272
330
268
100
AcDbEntity
  8
001
370
    50
100
AcDbVertex
100
AcDb2dVertex
 10
54.365546
 20
50.338223
 30
0.0
  0
VERTEX
  5
273
330
268
100
AcDbEntity
  8
001
370
    50
100
AcDbVertex
100
AcDb2dVertex
 10
54.148804
 20
49.828664
 30
0.0
  0
VERTEX
  5
274
330
268
100
AcDbEntity
  8
001
370
    50
100
AcDbVertex
100
AcDb2dVertex
 10
54.033594
 20
49.448088
 30
0.0
  0
SEQEND
  5
269
330
268
100
AcDbEntity
  8
001
370
    50
  0
POLYLINE
  5
275
330
1F
100
AcDbEntity
  8
001
370
    50
100
AcDb2dPolyline
 66
     1
 10
0.0
 20
0.0
 30
0.0
  0
VERTEX
  5
277
330
275
100
AcDbEntity
  8
001
370
    50
100
AcDbVertex
100
AcDb2dVertex
 10
57.592949
 20
45.92117
 30
0.0
  0
VERTEX
  5
278
330
275
100
AcDbEntity
  8
001
370
    50
100
AcDbVertex
100
AcDb2dVertex
 10
57.726702
 20
45.95898
 30
0.0
  0
VERTEX
  5
279
330
275
100
AcDbEntity
  8
001
370
    50
100
AcDbVertex
100
AcDb2dVertex
 10
57.911405
 20
46.019145
 30
0.0
  0
VERTEX
  5
27A
330
275
100
AcDbEntity
  8
001
370
    50
100
AcDbVertex
100
AcDb2dVertex
 10
58.162189
 20
46.12264
 30
0.0
  0
VERTEX
  5
27B
330
275
100
AcDbEntity
  8
001
370
    50
100
AcDbVertex
100
AcDb2dVertex
 10
58.375108
 20
46.240147
 30
0.0
  0
VERTEX
  5
27C
330
275
100
AcDbEntity
  8
001
370
    50
100
AcDbVertex
100
AcDb2dVertex
 10
58.968134
 20
46.715391
 30
0.0
  0
VERTEX
  5
27D
330
275
100
AcDbEntity
  8
001
370
    50
100
AcDbVertex
100
AcDb2dVertex
 10
59.449466
 20
47.338223
 30
0.0
  0
VERTEX
  5
27E
330
275
100
AcDbEntity
  8
001
370
    50
100
AcDbVertex
100
AcDb2dVertex
 10
59.668468
 20
47.813995
 30
0.0
  0
VERTEX
  5
27F
330
275
100
AcDbEntity
  8
001
370
    50
100
AcDbVertex
100
AcDb2dVertex
 10
59.798117
 20
48.317278
 30
0.0
  0
VERTEX
  5
280
330
275
100
AcDbEntity
  8
001
370
    50
100
AcDbVertex
100
AcDb2dVertex
 10
59.831317
 20
48.576829
 30
0.0
  0
VERTEX
  5
281
330
275
100
AcDbEntity
  8
001
370
    50
100
AcDbVertex
100
AcDb2dVertex
 10
59.842709
 20
48.838223
 30
0.0
  0
VERTEX
  5
282
330
275
100
AcDbEntity
  8
001
370
    50
100
AcDbVertex
100
AcDb2dVertex
 10
59.831636
 20
49.099582
 30
0.0
  0
VERTEX
  5
283
330
275
100
AcDbEntity
  8
001
370
    50
100
AcDbVertex
100
AcDb2dVertex
 10
59.798117
 20
49.359168
 30
0.0
  0
VERTEX
  5
284
330
275
100
AcDbEntity
  8
001
370
    50
100
AcDbVertex
100
AcDb2dVertex
 10
59.665936
 20
49.862938
 30
0.0
  0
VERTEX
  5
285
330
275
100
AcDbEntity
  8
001
370
    50
100
AcDbVertex
100
AcDb2dVertex
 10
59.449466
 20
50.338223
 30
0.0
  0
VERTEX
  5
286
330
275
100
AcDbEntity
  8
001
370
    50
100
AcDbVertex
100
AcDb2dVertex
 10
58.985777
 20
50.957536
 30
0.0
  0
VERTEX
  5
287
330
275
100
AcDbEntity
  8
001
370
    50
100
AcDbVertex
100
AcDb2dVertex
 10
58.375108
 20
51.436299
 30
0.0
  0
VERTEX
  5
288
330
275
100
AcDbEntity
  8
001
370
    50
100
AcDbVertex
100
AcDb2dVertex
 10
58.144719
 20
51.557297
 30
0.0
  0
VERTEX
  5
289
330
275
100
AcDbEntity
  8
001
370
    50
100
AcDbVertex
100
AcDb2dVertex
 10
57.911405
 20
51.657301
 30
0.0
  0
VERTEX
  5
28A
330
275
100
AcDbEntity
  8
001
370
    50
100
AcDbVertex
100
AcDb2dVertex
 10
57.678358
 20
51.735897
 30
0.0
  0
VERTEX
  5
28B
330
275
100
AcDbEntity
  8
001
370
    50
100
AcDbVertex
100
AcDb2dVertex
 10
57.417199
 20
51.792646
 30
0.0
  0
VERTEX
  5
28C
330
275
100
AcDbEntity
  8
001
370
    50
100
AcDbVertex
100
AcDb2dVertex
 10
57.122677
 20
51.826807
 30
0.0
  0
VERTEX
  5
28D
330
275
100
AcDbEntity
  8
001
370
    50
100
AcDbVertex
100
AcDb2dVertex
 10
56.907506
 20
51.838223
 30
0.0
  0
SEQEND
  5
276
330
275
100
AcDbEntity
  8
001
370
    50
  0
POLYLINE
  5
28E
330
1F
100
AcDbEntity
  8
001
370
    50
100
AcDb2dPolyline
 66
     1
 10
0.0
 20
0.0
 30
0.0
  0
VERTEX
  5
290
330
28E
100
AcDbEntity
  8
001
370
    50
100
AcDbVertex
100
AcDb2dVertex
 10
57.297063
 20
51.811684
 30
0.0
  0
VERTEX
  5
291
330
28E
100
AcDbEntity
  8
001
370
    50
100
AcDbVertex
100
AcDb2dVertex
 10
57.247556
 20
51.804253
 30
0.0
  0
VERTEX
  5
292
330
28E
100
AcDbEntity
  8
001
370
    50
100
AcDbVertex
100
AcDb2dVertex
 10
57.176928
 20
51.792646
 30
0.0
  0
VERTEX
  5
293
330
28E
100
AcDbEntity
  8
001
370
    50
100
AcDbVertex
100
AcDb2dVertex
 10
56.910179
 20
51.734031
 30
0.0
  0
VERTEX
  5
294
330
28E
100
AcDbEntity
  8
001
370
    50
100
AcDbVertex
100
AcDb2dVertex
 10
56.682722
 20
51.657301
 30
0.0
  0
VERTEX
  5
295
330
28E
100
AcDbEntity
  8
001
370
    50
100
AcDbVertex
100
AcDb2dVertex
 10
56.450577
 20
51.556121
 30
0.0
  0
VERTEX
  5
296
330
28E
100
AcDbEntity
  8
001
370
    50
100
AcDbVertex
100
AcDb2dVertex
 10
56.219019
 20
51.436299
 30
0.0
  0
VERTEX
  5
297
330
28E
100
AcDbEntity
  8
001
370
    50
100
AcDbVertex
100
AcDb2dVertex
 10
55.617411
 20
50.993285
 30
0.0
  0
VERTEX
  5
298
330
28E
100
AcDbEntity
  8
001
370
    50
100
AcDbVertex
100
AcDb2dVertex
 10
55.144661
 20
50.338223
 30
0.0
  0
VERTEX
  5
299
330
28E
100
AcDbEntity
  8
001
370
    50
100
AcDbVertex
100
AcDb2dVertex
 10
54.974882
 20
49.969815
 30
0.0
  0
VERTEX
  5
29A
330
28E
100
AcDbEntity
  8
001
370
    50
100
AcDbVertex
100
AcDb2dVertex
 10
54.874896
 20
49.699207
 30
0.0
  0
SEQEND
  5
28F
330
28E
100
AcDbEntity
  8
001
370
    50
  0
LINE
  5
29B
330
1F
100
AcDbEntity
  8
001
  6
CENTER
370
     9
100
AcDbLine
 10
42.795859
 20
52.04519
 30
0.0
 11
156.216454
 21
52.04519
 31
0.0
  0
LINE
  5
29C
330
1F
100
AcDbEntity
  8
001
370
    50
100
AcDbLine
 10
153.814798
 20
52.04519
 30
0.0
 11
156.412875
 21
53.54519
 31
0.0
  0
LINE
  5
29D
330
1F
100
AcDbEntity
  8
001
370
    50
100
AcDbLine
 10
153.814798
 20
52.04519
 30
0.0
 11
156.412875
 21
50.54519
 31
0.0
  0
LINE
  5
29E
330
1F
100
AcDbEntity
  8
001
370
    50
100
AcDbLine
 10
45.814798
 20
52.04519
 30
0.0
 11
43.216722
 21
53.54519
 31
0.0
  0
LINE
  5
29F
330
1F
100
AcDbEntity
  8
001
370
    50
100
AcDbLine
 10
45.814798
 20
52.04519
 30
0.0
 11
43.216722
 21
50.54519
 31
0.0
  0
LINE
  5
2A0
330
1F
100
AcDbEntity
  8
001
  6
PHANTOM
370
     9
100
AcDbLine
 10
43.814798
 20
45.54519
 30
0.0
 11
43.814798
 21
45.801607
 31
0.0
  0
LINE
  5
2A1
330
1F
100
AcDbEntity
  8
001
  6
PHANTOM
370
     9
100
AcDbLine
 10
54.362456
 20
34.98519
 30
0.0
 11
54.597969
 21
34.98519
 31
0.0
  0
ARC
  5
2A2
330
1F
100
AcDbEntity
  8
001
370
    50
100
AcDbCircle
 10
52.314615
 20
45.313555
 30
0.0
 40
0.3350000000000001
100
AcDbArc
 50
12.404463
 51
167.595537
  0
ARC
  5
2A3
330
1F
100
AcDbEntity
  8
001
370
    50
100
AcDbCircle
 10
51.428433
 20
45.508467
 30
0.0
 40
0.5723638195136747
100
AcDbArc
 50
252.404463
 51
347.595537
  0
ARC
  5
2A4
330
1F
100
AcDbEntity
  8
001
370
    50
100
AcDbCircle
 10
51.154141
 20
44.643555
 30
0.0
 40
0.3350000000000001
100
AcDbArc
 50
72.404463
 51
227.595537
  0
ARC
  5
2A5
330
1F
100
AcDbEntity
  8
001
370
    50
100
AcDbCircle
 10
50.542251
 20
43.973555
 30
0.0
 40
0.5723638195136747
100
AcDbArc
 50
312.404463
 51
47.595537
  0
ARC
  5
2A6
330
1F
100
AcDbEntity
  8
001
370
    50
100
AcDbCircle
 10
51.154141
 20
43.303555
 30
0.0
 40
0.3350000000000001
100
AcDbArc
 50
132.404463
 51
287.595537
  0
ARC
  5
2A7
330
1F
100
AcDbEntity
  8
001
370
    50
100
AcDbCircle
 10
51.428433
 20
42.438643
 30
0.0
 40
0.5723638195136747
100
AcDbArc
 50
12.404463
 51
107.595537
  0
ARC
  5
2A8
330
1F
100
AcDbEntity
  8
001
370
    50
100
AcDbCircle
 10
52.314615
 20
42.633555
 30
0.0
 40
0.3350000000000001
100
AcDbArc
 50
192.404463
 51
347.595537
  0
ARC
  5
2A9
330
1F
100
AcDbEntity
  8
001
370
    50
100
AcDbCircle
 10
53.200797
 20
42.438643
 30
0.0
 40
0.5723638195136747
100
AcDbArc
 50
72.404463
 51
167.595537
  0
ARC
  5
2AA
330
1F
100
AcDbEntity
  8
001
370
    50
100
AcDbCircle
 10
53.475089
 20
43.303555
 30
0.0
 40
0.3350000000000001
100
AcDbArc
 50
252.404463
 51
47.595537
  0
ARC
  5
2AB
330
1F
100
AcDbEntity
  8
001
370
    50
100
AcDbCircle
 10
54.086979
 20
43.973555
 30
0.0
 40
0.5723638195136747
100
AcDbArc
 50
132.404463
 51
227.595537
  0
ARC
  5
2AC
330
1F
100
AcDbEntity
  8
001
370
    50
100
AcDbCircle
 10
53.475089
 20
44.643555
 30
0.0
 40
0.3350000000000001
100
AcDbArc
 50
312.404463
 51
107.595537
  0
ARC
  5
2AD
330
1F
100
AcDbEntity
  8
001
370
    50
100
AcDbCircle
 10
53.200797
 20
45.508467
 30
0.0
 40
0.5723638195136747
100
AcDbArc
 50
192.404463
 51
287.595537
  0
CIRCLE
  5
2AE
330
1F
100
AcDbEntity
  8
001
370
    50
100
AcDbCircle
 10
52.314615
 20
43.973555
 30
0.0
 40
2.45
  0
TEXT
  5
2AF
330
1F
100
AcDbEntity
  8
001
370
    30
100
AcDbText
 10
37.010804
 20
78.769349
 30
0.0
 40
8.0
  1
エコメン２　ＮＫＬ４５３４Ｔ
 41
0.833333
100
AcDbText
  0
LINE
  5
2B0
330
1F
100
AcDbEntity
  8
001
370
    50
100
AcDbLine
 10
44.243468
 20
46.377765
 30
0.0
 11
57.880804
 21
50.587253
 31
0.0
  0
POLYLINE
  5
2B1
330
1F
100
AcDbEntity
  8
001
370
    50
100
AcDb2dPolyline
 66
     1
 10
0.0
 20
0.0
 30
0.0
  0
VERTEX
  5
2B3
330
2B1
100
AcDbEntity
  8
001
370
    50
100
AcDbVertex
100
AcDb2dVertex
 10
58.525786
 20
49.909871
 30
0.0
  0
VERTEX
  5
2B4
330
2B1
100
AcDbEntity
  8
001
370
    50
100
AcDbVertex
100
AcDb2dVertex
 10
58.52889
 20
49.943446
 30
0.0
  0
VERTEX
  5
2B5
330
2B1
100
AcDbEntity
  8
001
370
    50
100
AcDbVertex
100
AcDb2dVertex
 10
58.531077
 20
49.990248
 30
0.0
  0
VERTEX
  5
2B6
330
2B1
100
AcDbEntity
  8
001
370
    50
100
AcDbVertex
100
AcDb2dVertex
 10
58.529196
 20
50.045196
 30
0.0
  0
VERTEX
  5
2B7
330
2B1
100
AcDbEntity
  8
001
370
    50
100
AcDbVertex
100
AcDb2dVertex
 10
58.522159
 20
50.094437
 30
0.0
  0
VERTEX
  5
2B8
330
2B1
100
AcDbEntity
  8
001
370
    50
100
AcDbVertex
100
AcDb2dVertex
 10
58.495579
 20
50.193384
 30
0.0
  0
VERTEX
  5
2B9
330
2B1
100
AcDbEntity
  8
001
370
    50
100
AcDbVertex
100
AcDb2dVertex
 10
58.452429
 20
50.290248
 30
0.0
  0
VERTEX
  5
2BA
330
2B1
100
AcDbEntity
  8
001
370
    50
100
AcDbVertex
100
AcDb2dVertex
 10
58.359168
 20
50.414841
 30
0.0
  0
VERTEX
  5
2BB
330
2B1
100
AcDbEntity
  8
001
370
    50
100
AcDbVertex
100
AcDb2dVertex
 10
58.237557
 20
50.509863
 30
0.0
  0
VERTEX
  5
2BC
330
2B1
100
AcDbEntity
  8
001
370
    50
100
AcDbVertex
100
AcDb2dVertex
 10
58.192083
 20
50.53401
 30
0.0
  0
VERTEX
  5
2BD
330
2B1
100
AcDbEntity
  8
001
370
    50
100
AcDbVertex
100
AcDb2dVertex
 10
58.144816
 20
50.554064
 30
0.0
  0
VERTEX
  5
2BE
330
2B1
100
AcDbEntity
  8
001
370
    50
100
AcDbVertex
100
AcDb2dVertex
 10
58.096187
 20
50.569847
 30
0.0
  0
VERTEX
  5
2BF
330
2B1
100
AcDbEntity
  8
001
370
    50
100
AcDbVertex
100
AcDb2dVertex
 10
58.045975
 20
50.581133
 30
0.0
  0
VERTEX
  5
2C0
330
2B1
100
AcDbEntity
  8
001
370
    50
100
AcDbVertex
100
AcDb2dVertex
 10
57.994534
 20
50.587762
 30
0.0
  0
VERTEX
  5
2C1
330
2B1
100
AcDbEntity
  8
001
370
    50
100
AcDbVertex
100
AcDb2dVertex
 10
57.944037
 20
50.590248
 30
0.0
  0
VERTEX
  5
2C2
330
2B1
100
AcDbEntity
  8
001
370
    50
100
AcDbVertex
100
AcDb2dVertex
 10
57.912768
 20
50.589817
 30
0.0
  0
VERTEX
  5
2C3
330
2B1
100
AcDbEntity
  8
001
370
    50
100
AcDbVertex
100
AcDb2dVertex
 10
57.880804
 20
50.587253
 30
0.0
  0
SEQEND
  5
2B2
330
2B1
100
AcDbEntity
  8
001
370
    50
  0
ARC
  5
2C4
330
1F
100
AcDbEntity
  8
001
370
    50
100
AcDbCircle
 10
44.42279
 20
45.79682
 30
0.0
 40
0.607991739307447
100
AcDbArc
 50
107.154084
 51
224.966496
  0
LINE
  5
2C5
330
1F
100
AcDbEntity
  8
001
  6
PHANTOM
370
     9
100
AcDbLine
 10
43.992624
 20
45.367157
 30
0.0
 11
43.814798
 21
45.54519
 31
0.0
  0
LINE
  5
2C6
330
1F
100
AcDbEntity
  8
001
370
    50
100
AcDbLine
 10
55.114432
 20
35.403345
 30
0.0
 11
58.531077
 21
49.990248
 31
0.0
  0
ARC
  5
2C7
330
1F
100
AcDbEntity
  8
001
370
    50
100
AcDbCircle
 10
54.587017
 20
35.52688
 30
0.0
 40
0.5416900884898945
100
AcDbArc
 50
224.966496
 51
346.817434
  0
LINE
  5
2C8
330
1F
100
AcDbEntity
  8
001
  6
PHANTOM
370
     9
100
AcDbLine
 10
54.20376
 20
35.144071
 30
0.0
 11
54.362456
 21
34.98519
 31
0.0
  0
LINE
  5
2C9
330
1F
100
AcDbEntity
  8
001
370
    50
100
AcDbLine
 10
54.20376
 20
35.144071
 30
0.0
 11
43.992624
 21
45.367157
 31
0.0
  0
LINE
  5
2CA
330
1F
100
AcDbEntity
  8
001
  6
PHANTOM
370
     9
100
AcDbLine
 10
43.814798
 20
58.54519
 30
0.0
 11
43.814798
 21
58.288773
 31
0.0
  0
LINE
  5
2CB
330
1F
100
AcDbEntity
  8
001
  6
PHANTOM
370
     9
100
AcDbLine
 10
54.362456
 20
69.10519
 30
0.0
 11
54.597969
 21
69.10519
 31
0.0
  0
ARC
  5
2CC
330
1F
100
AcDbEntity
  8
001
370
    50
100
AcDbCircle
 10
44.42279
 20
58.29356
 30
0.0
 40
0.607991739307447
100
AcDbArc
 50
135.033504
 51
252.845916
  0
LINE
  5
2CD
330
1F
100
AcDbEntity
  8
001
  6
PHANTOM
370
     9
100
AcDbLine
 10
43.992624
 20
58.723223
 30
0.0
 11
43.814798
 21
58.54519
 31
0.0
  0
ARC
  5
2CE
330
1F
100
AcDbEntity
  8
001
370
    50
100
AcDbCircle
 10
54.587017
 20
68.5635
 30
0.0
 40
0.5416900884898945
100
AcDbArc
 50
13.182566
 51
135.033504
  0
LINE
  5
2CF
330
1F
100
AcDbEntity
  8
001
  6
PHANTOM
370
     9
100
AcDbLine
 10
54.20376
 20
68.946309
 30
0.0
 11
54.362456
 21
69.10519
 31
0.0
  0
LINE
  5
2D0
330
1F
100
AcDbEntity
  8
001
370
    50
100
AcDbLine
 10
54.20376
 20
68.946309
 30
0.0
 11
43.992624
 21
58.723223
 31
0.0
  0
LINE
  5
2D1
330
1F
100
AcDbEntity
  8
001
370
    50
100
AcDbLine
 10
55.114432
 20
68.687035
 30
0.0
 11
55.301351
 21
67.889011
 31
0.0
  0
LINE
  5
2D2
330
1F
100
AcDbEntity
  8
001
370
    50
100
AcDbLine
 10
44.243468
 20
57.712615
 30
0.0
 11
45.814798
 21
57.227586
 31
0.0
  0
LINE
  5
2D3
330
1F
100
AcDbEntity
  8
001
370
    50
100
AcDbLine
 10
45.814798
 20
58.669621
 30
0.0
 11
45.814798
 21
46.862794
 31
0.0
  0
LINE
  5
2D4
330
1F
100
AcDbEntity
  8
001
370
    50
100
AcDbLine
 10
55.466117
 20
36.462239
 30
0.0
 11
55.380638
 21
36.539876
 31
0.0
  0
POLYLINE
  5
2D5
330
1F
100
AcDbEntity
  8
001
370
    50
100
AcDb2dPolyline
 66
     1
 10
0.0
 20
0.0
 30
0.0
  0
VERTEX
  5
2D7
330
2D5
100
AcDbEntity
  8
001
370
    50
100
AcDbVertex
100
AcDb2dVertex
 10
55.365476
 20
36.475012
 30
0.0
  0
VERTEX
  5
2D8
330
2D5
100
AcDbEntity
  8
001
370
    50
100
AcDbVertex
100
AcDb2dVertex
 10
55.371731
 20
36.422184
 30
0.0
  0
VERTEX
  5
2D9
330
2D5
100
AcDbEntity
  8
001
370
    50
100
AcDbVertex
100
AcDb2dVertex
 10
55.383311
 20
36.345319
 30
0.0
  0
VERTEX
  5
2DA
330
2D5
100
AcDbEntity
  8
001
370
    50
100
AcDbVertex
100
AcDb2dVertex
 10
55.423993
 20
36.177439
 30
0.0
  0
VERTEX
  5
2DB
330
2D5
100
AcDbEntity
  8
001
370
    50
100
AcDbVertex
100
AcDb2dVertex
 10
55.466117
 20
36.067015
 30
0.0
  0
SEQEND
  5
2D6
330
2D5
100
AcDbEntity
  8
001
370
    50
  0
LINE
  5
2DC
330
1F
100
AcDbEntity
  8
001
370
    50
100
AcDbLine
 10
55.301268
 20
36.201014
 30
0.0
 11
55.466117
 21
36.046743
 31
0.0
  0
ENDSEC
  0
SECTION
  2
OBJECTS
  0
DICTIONARY
  5
C
330
0
100
AcDbDictionary
281
     1
  3
ACAD_GROUP
350
D
  3
ACAD_LAYOUT
350
1A
  3
ACAD_MLEADERSTYLE
350
2E0
  3
ACAD_MLINESTYLE
350
17
  3
ACAD_PLOTSETTINGS
350
19
  3
ACAD_PLOTSTYLENAME
350
E
  3
ACAD_SCALELIST
350
3B
  3
ACAD_TABLESTYLE
350
2DF
  3
ACAD_VISUALSTYLE
350
2A
  3
AcDbVariableDictionary
350
2DD
  0
DICTIONARY
  5
D
102
{ACAD_REACTORS
330
C
102
}
330
C
100
AcDbDictionary
281
     1
  0
DICTIONARY
  5
1A
102
{ACAD_REACTORS
330
C
102
}
330
C
100
AcDbDictionary
281
     1
  3
Layout1
350
1E
  3
Layout2
350
26
  3
Model
350
22
  0
DICTIONARY
  5
2E0
102
{ACAD_REACTORS
330
C
102
}
330
C
100
AcDbDictionary
281
     1
  0
DICTIONARY
  5
17
102
{ACAD_REACTORS
330
C
102
}
330
C
100
AcDbDictionary
281
     1
  3
Standard
350
18
  0
DICTIONARY
  5
19
102
{ACAD_REACTORS
330
C
102
}
330
C
100
AcDbDictionary
281
     1
  0
ACDBDICTIONARYWDFLT
  5
E
102
{ACAD_REACTORS
330
C
102
}
330
C
100
AcDbDictionary
281
     1
  3
Normal
350
F
100
AcDbDictionaryWithDefault
340
F
  0
DICTIONARY
  5
3B
102
{ACAD_REACTORS
330
C
102
}
330
C
100
AcDbDictionary
281
     1
  3
A0
350
3C
  3
A1
350
3D
  3
A2
350
3E
  3
A3
350
3F
  3
A4
350
40
  3
A5
350
41
  3
A6
350
42
  3
A7
350
43
  3
A8
350
44
  3
A9
350
45
  3
B0
350
46
  3
B1
350
47
  3
B2
350
48
  3
B3
350
49
  3
B4
350
4A
  3
B5
350
4B
  3
B6
350
4C
  3
B7
350
4D
  3
B8
350
4E
  3
B9
350
4F
  3
C0
350
50
  3
C1
350
51
  3
C2
350
52
  3
C3
350
53
  3
C4
350
54
  3
C5
350
55
  3
C6
350
56
  3
C7
350
57
  3
C8
350
58
  3
C9
350
59
  3
D0
350
5A
  3
D1
350
5B
  3
D2
350
5C
  0
DICTIONARY
  5
2DF
102
{ACAD_REACTORS
330
C
102
}
330
C
100
AcDbDictionary
281
     1
  0
DICTIONARY
  5
2A
102
{ACAD_REACTORS
330
C
102
}
330
C
100
AcDbDictionary
281
     1
  3
2dWireframe
350
2F
  3
3D Hidden
350
31
  3
3dWireframe
350
30
  3
Basic
350
32
  3
Brighten
350
36
  3
ColorChange
350
3A
  3
Conceptual
350
34
  3
Dim
350
35
  3
Facepattern
350
39
  3
Flat
350
2B
  3
FlatWithEdges
350
2C
  3
Gouraud
350
2D
  3
GouraudWithEdges
350
2E
  3
Linepattern
350
38
  3
Realistic
350
33
  3
Thicken
350
37
  0
DICTIONARY
  5
2DD
102
{ACAD_REACTORS
330
C
102
}
330
C
100
AcDbDictionary
281
     1
  3
CANNOSCALE
350
2DE
  3
PSOLHEIGHT
350
2E2
  3
PSOLWIDTH
350
2E1
  0
LAYOUT
  5
1E
102
{ACAD_REACTORS
330
1A
102
}
330
1A
100
AcDbPlotSettings
  1

  2
none_device
  4

  6

 40
0.0
 41
0.0
 42
0.0
 43
0.0
 44
0.0
 45
0.0
 46
0.0
 47
0.0
 48
0.0
 49
0.0
140
0.0
141
0.0
142
1.0
143
1.0
 70
   688
 72
     0
 73
     0
 74
     5
  7

 75
    16
147
1.0
148
0.0
149
0.0
100
AcDbLayout
  1
Layout1
 70
     1
 71
     1
 10
0.0
 20
0.0
 11
12.0
 21
9.0
 12
0.0
 22
0.0
 32
0.0
 14
1.000000E+20
 24
1.000000E+20
 34
0.0
 15
-1.000000E+20
 25
-1.000000E+20
 35
0.0
146
0.0
 13
0.0
 23
0.0
 33
0.0
 16
1.0
 26
0.0
 36
0.0
 17
0.0
 27
1.0
 37
0.0
 76
     0
330
1B
  0
LAYOUT
  5
26
102
{ACAD_REACTORS
330
1A
102
}
330
1A
100
AcDbPlotSettings
  1

  2
none_device
  4

  6

 40
0.0
 41
0.0
 42
0.0
 43
0.0
 44
0.0
 45
0.0
 46
0.0
 47
0.0
 48
0.0
 49
0.0
140
0.0
141
0.0
142
1.0
143
1.0
 70
   688
 72
     0
 73
     0
 74
     5
  7

 75
    16
147
1.0
148
0.0
149
0.0
100
AcDbLayout
  1
Layout2
 70
     1
 71
     2
 10
0.0
 20
0.0
 11
0.0
 21
0.0
 12
0.0
 22
0.0
 32
0.0
 14
0.0
 24
0.0
 34
0.0
 15
0.0
 25
0.0
 35
0.0
146
0.0
 13
0.0
 23
0.0
 33
0.0
 16
1.0
 26
0.0
 36
0.0
 17
0.0
 27
1.0
 37
0.0
 76
     0
330
23
  0
LAYOUT
  5
22
102
{ACAD_REACTORS
330
1A
102
}
330
1A
100
AcDbPlotSettings
  1

  2
none_device
  4

  6

 40
0.0
 41
0.0
 42
0.0
 43
0.0
 44
0.0
 45
0.0
 46
0.0
 47
0.0
 48
0.0
 49
0.0
140
0.0
141
0.0
142
1.0
143
1.0
 70
  1712
 72
     0
 73
     0
 74
     0
  7

 75
     0
147
1.0
148
0.0
149
0.0
100
AcDbLayout
  1
Model
 70
     1
 71
     0
 10
0.0
 20
0.0
 11
12.0
 21
9.0
 12
0.0
 22
0.0
 32
0.0
 14
0.0
 24
0.0
 34
0.0
 15
176.013336
 25
86.769348
 35
0.0
146
0.0
 13
0.0
 23
0.0
 33
0.0
 16
1.0
 26
0.0
 36
0.0
 17
0.0
 27
1.0
 37
0.0
 76
     0
330
1F
331
29
  0
MLINESTYLE
  5
18
102
{ACAD_REACTORS
330
17
102
}
330
17
100
AcDbMlineStyle
  2
Standard
 70
     0
  3

 62
   256
 51
90.0
 52
90.0
 71
     2
 49
0.5
 62
   256
  6
BYLAYER
 49
-0.5
 62
   256
  6
BYLAYER
  0
ACDBPLACEHOLDER
  5
F
102
{ACAD_REACTORS
330
E
102
}
330
E
  0
SCALE
  5
3C
102
{ACAD_REACTORS
330
3B
102
}
330
3B
100
AcDbScale
 70
     0
300
1:1
140
1.0
141
1.0
290
     1
  0
SCALE
  5
3D
102
{ACAD_REACTORS
330
3B
102
}
330
3B
100
AcDbScale
 70
     0
300
1:2
140
1.0
141
2.0
290
     0
  0
SCALE
  5
3E
102
{ACAD_REACTORS
330
3B
102
}
330
3B
100
AcDbScale
 70
     0
300
1:4
140
1.0
141
4.0
290
     0
  0
SCALE
  5
3F
102
{ACAD_REACTORS
330
3B
102
}
330
3B
100
AcDbScale
 70
     0
300
1:5
140
1.0
141
5.0
290
     0
  0
SCALE
  5
40
102
{ACAD_REACTORS
330
3B
102
}
330
3B
100
AcDbScale
 70
     0
300
1:8
140
1.0
141
8.0
290
     0
  0
SCALE
  5
41
102
{ACAD_REACTORS
330
3B
102
}
330
3B
100
AcDbScale
 70
     0
300
1:10
140
1.0
141
10.0
290
     0
  0
SCALE
  5
42
102
{ACAD_REACTORS
330
3B
102
}
330
3B
100
AcDbScale
 70
     0
300
1:16
140
1.0
141
16.0
290
     0
  0
SCALE
  5
43
102
{ACAD_REACTORS
330
3B
102
}
330
3B
100
AcDbScale
 70
     0
300
1:20
140
1.0
141
20.0
290
     0
  0
SCALE
  5
44
102
{ACAD_REACTORS
330
3B
102
}
330
3B
100
AcDbScale
 70
     0
300
1:30
140
1.0
141
30.0
290
     0
  0
SCALE
  5
45
102
{ACAD_REACTORS
330
3B
102
}
330
3B
100
AcDbScale
 70
     0
300
1:40
140
1.0
141
40.0
290
     0
  0
SCALE
  5
46
102
{ACAD_REACTORS
330
3B
102
}
330
3B
100
AcDbScale
 70
     0
300
1:50
140
1.0
141
50.0
290
     0
  0
SCALE
  5
47
102
{ACAD_REACTORS
330
3B
102
}
330
3B
100
AcDbScale
 70
     0
300
1:100
140
1.0
141
100.0
290
     0
  0
SCALE
  5
48
102
{ACAD_REACTORS
330
3B
102
}
330
3B
100
AcDbScale
 70
     0
300
2:1
140
2.0
141
1.0
290
     0
  0
SCALE
  5
49
102
{ACAD_REACTORS
330
3B
102
}
330
3B
100
AcDbScale
 70
     0
300
4:1
140
4.0
141
1.0
290
     0
  0
SCALE
  5
4A
102
{ACAD_REACTORS
330
3B
102
}
330
3B
100
AcDbScale
 70
     0
300
8:1
140
8.0
141
1.0
290
     0
  0
SCALE
  5
4B
102
{ACAD_REACTORS
330
3B
102
}
330
3B
100
AcDbScale
 70
     0
300
10:1
140
10.0
141
1.0
290
     0
  0
SCALE
  5
4C
102
{ACAD_REACTORS
330
3B
102
}
330
3B
100
AcDbScale
 70
     0
300
100:1
140
100.0
141
1.0
290
     0
  0
SCALE
  5
4D
102
{ACAD_REACTORS
330
3B
102
}
330
3B
100
AcDbScale
 70
     0
300
1/128" = 1'-0"
140
0.007812
141
12.0
290
     0
  0
SCALE
  5
4E
102
{ACAD_REACTORS
330
3B
102
}
330
3B
100
AcDbScale
 70
     0
300
1/64" = 1'-0"
140
0.015625
141
12.0
290
     0
  0
SCALE
  5
4F
102
{ACAD_REACTORS
330
3B
102
}
330
3B
100
AcDbScale
 70
     0
300
1/32" = 1'-0"
140
0.03125
141
12.0
290
     0
  0
SCALE
  5
50
102
{ACAD_REACTORS
330
3B
102
}
330
3B
100
AcDbScale
 70
     0
300
1/16" = 1'-0"
140
0.0625
141
12.0
290
     0
  0
SCALE
  5
51
102
{ACAD_REACTORS
330
3B
102
}
330
3B
100
AcDbScale
 70
     0
300
3/32" = 1'-0"
140
0.09375
141
12.0
290
     0
  0
SCALE
  5
52
102
{ACAD_REACTORS
330
3B
102
}
330
3B
100
AcDbScale
 70
     0
300
1/8" = 1'-0"
140
0.125
141
12.0
290
     0
  0
SCALE
  5
53
102
{ACAD_REACTORS
330
3B
102
}
330
3B
100
AcDbScale
 70
     0
300
3/16" = 1'-0"
140
0.1875
141
12.0
290
     0
  0
SCALE
  5
54
102
{ACAD_REACTORS
330
3B
102
}
330
3B
100
AcDbScale
 70
     0
300
1/4" = 1'-0"
140
0.25
141
12.0
290
     0
  0
SCALE
  5
55
102
{ACAD_REACTORS
330
3B
102
}
330
3B
100
AcDbScale
 70
     0
300
3/8" = 1'-0"
140
0.375
141
12.0
290
     0
  0
SCALE
  5
56
102
{ACAD_REACTORS
330
3B
102
}
330
3B
100
AcDbScale
 70
     0
300
1/2" = 1'-0"
140
0.5
141
12.0
290
     0
  0
SCALE
  5
57
102
{ACAD_REACTORS
330
3B
102
}
330
3B
100
AcDbScale
 70
     0
300
3/4" = 1'-0"
140
0.75
141
12.0
290
     0
  0
SCALE
  5
58
102
{ACAD_REACTORS
330
3B
102
}
330
3B
100
AcDbScale
 70
     0
300
1" = 1'-0"
140
1.0
141
12.0
290
     0
  0
SCALE
  5
59
102
{ACAD_REACTORS
330
3B
102
}
330
3B
100
AcDbScale
 70
     0
300
1-1/2" = 1'-0"
140
1.5
141
12.0
290
     0
  0
SCALE
  5
5A
102
{ACAD_REACTORS
330
3B
102
}
330
3B
100
AcDbScale
 70
     0
300
3" = 1'-0"
140
3.0
141
12.0
290
     0
  0
SCALE
  5
5B
102
{ACAD_REACTORS
330
3B
102
}
330
3B
100
AcDbScale
 70
     0
300
6" = 1'-0"
140
6.0
141
12.0
290
     0
  0
SCALE
  5
5C
102
{ACAD_REACTORS
330
3B
102
}
330
3B
100
AcDbScale
 70
     0
300
1'-0" = 1'-0"
140
12.0
141
12.0
290
     0
  0
VISUALSTYLE
  5
2F
102
{ACAD_REACTORS
330
2A
102
}
330
2A
100
AcDbVisualStyle
  2
2dWireframe
 70
     4
 71
     0
 72
     2
 73
     0
 90
        0
 40
-0.6
 41
-30.0
 62
     5
 63
     7
 74
     1
 91
        4
 64
     7
 65
   257
 75
     1
175
     1
 42
1.0
 92
        0
 66
   257
 43
1.0
 76
     1
 77
     6
 78
     2
 67
     7
 79
     5
170
     0
171
     0
290
     0
174
     0
 93
        1
 44
0.0
173
     0
291
     0
 45
0.0
1001
ACAD
1000
AcDbSavedByObjectVersion
1070
     0
  0
VISUALSTYLE
  5
31
102
{ACAD_REACTORS
330
2A
102
}
330
2A
100
AcDbVisualStyle
  2
3D Hidden
 70
     6
 71
     1
 72
     2
 73
     2
 90
        0
 40
-0.6
 41
-30.0
 62
     5
 63
     7
 74
     2
 91
        2
 64
     7
 65
   257
 75
     2
175
     1
 42
40.0
 92
        0
 66
   257
 43
1.0
 76
     1
 77
     6
 78
     2
 67
     7
 79
     3
170
     0
171
     0
290
     0
174
     0
 93
        1
 44
0.0
173
     0
291
     0
 45
0.0
1001
ACAD
1000
AcDbSavedByObjectVersion
1070
     0
  0
VISUALSTYLE
  5
30
102
{ACAD_REACTORS
330
2A
102
}
330
2A
100
AcDbVisualStyle
  2
3dWireframe
 70
     5
 71
     0
 72
     2
 73
     0
 90
        0
 40
-0.6
 41
-30.0
 62
     5
 63
     7
 74
     1
 91
        4
 64
     7
 65
   257
 75
     1
175
     1
 42
1.0
 92
        0
 66
   257
 43
1.0
 76
     1
 77
     6
 78
     2
 67
     7
 79
     5
170
     0
171
     0
290
     0
174
     0
 93
        1
 44
0.0
173
     0
291
     0
 45
0.0
1001
ACAD
1000
AcDbSavedByObjectVersion
1070
     0
  0
VISUALSTYLE
  5
32
102
{ACAD_REACTORS
330
2A
102
}
330
2A
100
AcDbVisualStyle
  2
Basic
 70
     7
 71
     1
 72
     0
 73
     1
 90
        0
 40
-0.6
 41
-30.0
 62
     5
 63
     7
 74
     0
 91
        4
 64
     7
 65
   257
 75
     1
175
     1
 42
1.0
 92
        8
 66
     7
 43
1.0
 76
     1
 77
     6
 78
     2
 67
     7
 79
     5
170
     0
171
     0
290
     0
174
     0
 93
        1
 44
0.0
173
     0
291
     1
 45
0.0
1001
ACAD
1000
AcDbSavedByObjectVersion
1070
     0
  0
VISUALSTYLE
  5
36
102
{ACAD_REACTORS
330
2A
102
}
330
2A
100
AcDbVisualStyle
  2
Brighten
 70
    12
 71
     2
 72
     2
 73
     0
 90
        0
 40
-0.6
 41
-30.0
 62
     5
 63
     7
 74
     1
 91
        4
 64
     7
 65
   257
 75
     1
175
     1
 42
1.0
 92
        8
 66
     7
 43
1.0
 76
     1
 77
     6
 78
     2
 67
     7
 79
     5
170
     0
171
     0
290
     0
174
     0
 93
        1
 44
50.0
173
     0
291
     1
 45
0.0
1001
ACAD
1000
AcDbSavedByObjectVersion
1070
     0
  0
VISUALSTYLE
  5
3A
102
{ACAD_REACTORS
330
2A
102
}
330
2A
100
AcDbVisualStyle
  2
ColorChange
 70
    16
 71
     2
 72
     2
 73
     3
 90
        0
 40
-0.6
 41
-30.0
 62
     5
 63
     8
 74
     1
 91
        4
 64
     7
 65
   257
 75
     1
175
     1
 42
1.0
 92
        8
 66
     8
 43
1.0
 76
     1
 77
     6
 78
     2
 67
     7
 79
     5
170
     0
171
     0
290
     0
174
     0
 93
        1
 44
0.0
173
     0
291
     1
 45
0.0
1001
ACAD
1000
AcDbSavedByObjectVersion
1070
     0
  0
VISUALSTYLE
  5
34
102
{ACAD_REACTORS
330
2A
102
}
330
2A
100
AcDbVisualStyle
  2
Conceptual
 70
     9
 71
     3
 72
     2
 73
     0
 90
        0
 40
-0.6
 41
-30.0
 62
     5
 63
     7
 74
     2
 91
        2
 64
     7
 65
   257
 75
     1
175
     1
 42
40.0
 92
        8
 66
     7
 43
1.0
 76
     1
 77
     6
 78
     2
 67
     7
 79
     3
170
     0
171
     0
290
     0
174
     0
 93
        1
 44
0.0
173
     0
291
     0
 45
0.0
1001
ACAD
1000
AcDbSavedByObjectVersion
1070
     0
  0
VISUALSTYLE
  5
35
102
{ACAD_REACTORS
330
2A
102
}
330
2A
100
AcDbVisualStyle
  2
Dim
 70
    11
 71
     2
 72
     2
 73
     0
 90
        0
 40
-0.6
 41
-30.0
 62
     5
 63
     7
 74
     1
 91
        4
 64
     7
 65
   257
 75
     1
175
     1
 42
1.0
 92
        8
 66
     7
 43
1.0
 76
     1
 77
     6
 78
     2
 67
     7
 79
     5
170
     0
171
     0
290
     0
174
     0
 93
        1
 44
-50.0
173
     0
291
     1
 45
0.0
1001
ACAD
1000
AcDbSavedByObjectVersion
1070
     0
  0
VISUALSTYLE
  5
39
102
{ACAD_REACTORS
330
2A
102
}
330
2A
100
AcDbVisualStyle
  2
Facepattern
 70
    15
 71
     2
 72
     2
 73
     0
 90
        0
 40
-0.6
 41
-30.0
 62
     5
 63
     7
 74
     1
 91
        4
 64
     7
 65
   257
 75
     1
175
     1
 42
1.0
 92
        8
 66
     7
 43
1.0
 76
     1
 77
     6
 78
     2
 67
     7
 79
     5
170
     0
171
     0
290
     0
174
     0
 93
        1
 44
0.0
173
     0
291
     1
 45
0.0
1001
ACAD
1000
AcDbSavedByObjectVersion
1070
     0
  0
VISUALSTYLE
  5
2B
102
{ACAD_REACTORS
330
2A
102
}
330
2A
100
AcDbVisualStyle
  2
Flat
 70
     0
 71
     2
 72
     1
 73
     1
 90
        2
 40
-0.6
 41
30.0
 62
     5
 63
     7
 74
     0
 91
        4
 64
     7
 65
   257
 75
     1
175
     1
 42
1.0
 92
        8
 66
     7
 43
1.0
 76
     1
 77
     6
 78
     2
 67
     7
 79
     5
170
     0
171
     0
290
     0
174
     0
 93
       13
 44
0.0
173
     0
291
     1
 45
0.0
1001
ACAD
1000
AcDbSavedByObjectVersion
1070
     0
  0
VISUALSTYLE
  5
2C
102
{ACAD_REACTORS
330
2A
102
}
330
2A
100
AcDbVisualStyle
  2
FlatWithEdges
 70
     1
 71
     2
 72
     1
 73
     1
 90
        2
 40
-0.6
 41
30.0
 62
     5
 63
     7
 74
     1
 91
        4
 64
     7
 65
   257
 75
     1
175
     1
 42
1.0
 92
        0
 66
   257
 43
1.0
 76
     1
 77
     6
 78
     2
 67
     7
 79
     5
170
     0
171
     0
290
     0
174
     0
 93
       13
 44
0.0
173
     0
291
     1
 45
0.0
1001
ACAD
1000
AcDbSavedByObjectVersion
1070
     0
  0
VISUALSTYLE
  5
2D
102
{ACAD_REACTORS
330
2A
102
}
330
2A
100
AcDbVisualStyle
  2
Gouraud
 70
     2
 71
     2
 72
     2
 73
     1
 90
        2
 40
-0.6
 41
30.0
 62
     5
 63
     7
 74
     0
 91
        4
 64
     7
 65
   257
 75
     1
175
     1
 42
1.0
 92
        0
 66
     7
 43
1.0
 76
     1
 77
     6
 78
     2
 67
     7
 79
     5
170
     0
171
     0
290
     0
174
     0
 93
       13
 44
0.0
173
     0
291
     1
 45
0.0
1001
ACAD
1000
AcDbSavedByObjectVersion
1070
     0
  0
VISUALSTYLE
  5
2E
102
{ACAD_REACTORS
330
2A
102
}
330
2A
100
AcDbVisualStyle
  2
GouraudWithEdges
 70
     3
 71
     2
 72
     2
 73
     1
 90
        2
 40
-0.6
 41
30.0
 62
     5
 63
     7
 74
     1
 91
        4
 64
     7
 65
   257
 75
     1
175
     1
 42
1.0
 92
        0
 66
   257
 43
1.0
 76
     1
 77
     6
 78
     2
 67
     7
 79
     5
170
     0
171
     0
290
     0
174
     0
 93
       13
 44
0.0
173
     0
291
     1
 45
0.0
1001
ACAD
1000
AcDbSavedByObjectVersion
1070
     0
  0
VISUALSTYLE
  5
38
102
{ACAD_REACTORS
330
2A
102
}
330
2A
100
AcDbVisualStyle
  2
Linepattern
 70
    14
 71
     2
 72
     2
 73
     0
 90
        0
 40
-0.6
 41
-30.0
 62
     5
 63
     7
 74
     1
 91
        4
 64
     7
 65
   257
 75
     7
175
     7
 42
1.0
 92
        8
 66
     7
 43
1.0
 76
     1
 77
     6
 78
     2
 67
     7
 79
     5
170
     0
171
     0
290
     0
174
     0
 93
        1
 44
0.0
173
     0
291
     1
 45
0.0
1001
ACAD
1000
AcDbSavedByObjectVersion
1070
     0
  0
VISUALSTYLE
  5
33
102
{ACAD_REACTORS
330
2A
102
}
330
2A
100
AcDbVisualStyle
  2
Realistic
 70
     8
 71
     2
 72
     2
 73
     0
 90
        0
 40
-0.6
 41
-30.0
 62
     5
 63
     7
 74
     1
 91
        0
 64
     7
 65
   257
 75
     1
175
     1
 42
1.0
 92
        8
 66
     8
 43
1.0
 76
     1
 77
     6
 78
     2
 67
     7
 79
     5
170
     0
171
     0
290
     0
174
     0
 93
       13
 44
0.0
173
     0
291
     0
 45
0.0
1001
ACAD
1000
AcDbSavedByObjectVersion
1070
     0
  0
VISUALSTYLE
  5
37
102
{ACAD_REACTORS
330
2A
102
}
330
2A
100
AcDbVisualStyle
  2
Thicken
 70
    13
 71
     2
 72
     2
 73
     0
 90
        0
 40
-0.6
 41
-30.0
 62
     5
 63
     7
 74
     1
 91
        4
 64
     7
 65
   257
 75
     1
175
     1
 42
1.0
 92
       12
 66
     7
 43
1.0
 76
     1
 77
     6
 78
     2
 67
     7
 79
     5
170
     0
171
     0
290
     0
174
     0
 93
        1
 44
0.0
173
     0
291
     1
 45
0.0
1001
ACAD
1000
AcDbSavedByObjectVersion
1070
     0
  0
DICTIONARYVAR
  5
2DE
102
{ACAD_REACTORS
330
2DD
102
}
330
2DD
100
DictionaryVariables
280
     0
  1
1:1
  0
DICTIONARYVAR
  5
2E2
102
{ACAD_REACTORS
330
2DD
102
}
330
2DD
100
DictionaryVariables
280
     0
  1
80.000000
  0
DICTIONARYVAR
  5
2E1
102
{ACAD_REACTORS
330
2DD
102
}
330
2DD
100
DictionaryVariables
280
     0
  1
5.000000
  0
ENDSEC
  0
EOF
