  0
SECTION
  2
HEADER
  9
$ACADVER
  1
AC1015
  9
$ACADMAINTVER
 70
     6
  9
$DWGCODEPAGE
  3
ANSI_932
  9
$INSBASE
 10
0.0
 20
0.0
 30
0.0
  9
$EXTMIN
 10
20.370438
 20
16.926956
 30
0.0
  9
$EXTMAX
 10
177.539078
 20
103.447182
 30
0.0
  9
$LIMMIN
 10
0.0
 20
0.0
  9
$LIMMAX
 10
12.0
 20
9.0
  9
$ORTHOMODE
 70
     0
  9
$REGENMODE
 70
     1
  9
$FILLMODE
 70
     1
  9
$QTEXTMODE
 70
     0
  9
$MIRRTEXT
 70
     1
  9
$LTSCALE
 40
1.794094
  9
$ATTMODE
 70
     1
  9
$TEXTSIZE
 40
3.2
  9
$TRACEWID
 40
1.0
  9
$TEXTSTYLE
  7
Standard
  9
$CLAYER
  8
0
  9
$CELTYPE
  6
ByLayer
  9
$CECOLOR
 62
   256
  9
$CELTSCALE
 40
1.0
  9
$DISPSILH
 70
     0
  9
$DIMSCALE
 40
1.0
  9
$DIMASZ
 40
2.5
  9
$DIMEXO
 40
0.625
  9
$DIMDLI
 40
3.75
  9
$DIMRND
 40
0.0
  9
$DIMDLE
 40
0.0
  9
$DIMEXE
 40
1.25
  9
$DIMTP
 40
0.0
  9
$DIMTM
 40
0.0
  9
$DIMTXT
 40
2.5
  9
$DIMCEN
 40
0.09
  9
$DIMTSZ
 40
0.0
  9
$DIMTOL
 70
     0
  9
$DIMLIM
 70
     0
  9
$DIMTIH
 70
     0
  9
$DIMTOH
 70
     0
  9
$DIMSE1
 70
     0
  9
$DIMSE2
 70
     0
  9
$DIMTAD
 70
     0
  9
$DIMZIN
 70
     8
  9
$DIMBLK
  1

  9
$DIMASO
 70
     1
  9
$DIMSHO
 70
     0
  9
$DIMPOST
  1

  9
$DIMAPOST
  1

  9
$DIMALT
 70
     0
  9
$DIMALTD
 70
     3
  9
$DIMALTF
 40
0.03937
  9
$DIMLFAC
 40
1.0
  9
$DIMTOFL
 70
     1
  9
$DIMTVP
 40
0.0
  9
$DIMTIX
 70
     0
  9
$DIMSOXD
 70
     0
  9
$DIMSAH
 70
     0
  9
$DIMBLK1
  1

  9
$DIMBLK2
  1

  9
$DIMSTYLE
  2
ISO-25
  9
$DIMCLRD
 70
     0
  9
$DIMCLRE
 70
     0
  9
$DIMCLRT
 70
     0
  9
$DIMTFAC
 40
1.0
  9
$DIMGAP
 40
0.625
  9
$DIMJUST
 70
     0
  9
$DIMSD1
 70
     0
  9
$DIMSD2
 70
     0
  9
$DIMTOLJ
 70
     0
  9
$DIMTZIN
 70
     8
  9
$DIMALTZ
 70
     0
  9
$DIMALTTZ
 70
     0
  9
$DIMUPT
 70
     0
  9
$DIMDEC
 70
     2
  9
$DIMTDEC
 70
     2
  9
$DIMALTU
 70
     2
  9
$DIMALTTD
 70
     3
  9
$DIMTXSTY
  7
Standard
  9
$DIMAUNIT
 70
     0
  9
$DIMADEC
 70
     0
  9
$DIMALTRND
 40
0.0
  9
$DIMAZIN
 70
     0
  9
$DIMDSEP
 70
    44
  9
$DIMATFIT
 70
     3
  9
$DIMFRAC
 70
     0
  9
$DIMLDRBLK
  1

  9
$DIMLUNIT
 70
     2
  9
$DIMLWD
 70
    -2
  9
$DIMLWE
 70
    -2
  9
$DIMTMOVE
 70
     0
  9
$LUNITS
 70
     2
  9
$LUPREC
 70
     4
  9
$SKETCHINC
 40
1.0
  9
$FILLETRAD
 40
0.0
  9
$AUNITS
 70
     0
  9
$AUPREC
 70
     0
  9
$MENU
  1
.
  9
$ELEVATION
 40
0.0
  9
$PELEVATION
 40
0.0
  9
$THICKNESS
 40
0.0
  9
$LIMCHECK
 70
     0
  9
$CHAMFERA
 40
10.0
  9
$CHAMFERB
 40
10.0
  9
$CHAMFERC
 40
20.0
  9
$CHAMFERD
 40
0.0
  9
$SKPOLY
 70
     0
  9
$TDCREATE
 40
2456204.412684097
  9
$TDUCREATE
 40
2456204.037684097
  9
$TDUPDATE
 40
2456204.412684109
  9
$TDUUPDATE
 40
2456204.037684109
  9
$TDINDWG
 40
0.0000000116
  9
$TDUSRTIMER
 40
0.0000000116
  9
$USRTIMER
 70
     1
  9
$ANGBASE
 50
0.0
  9
$ANGDIR
 70
     0
  9
$PDMODE
 70
     0
  9
$PDSIZE
 40
0.0
  9
$PLINEWID
 40
0.0
  9
$SPLFRAME
 70
     0
  9
$SPLINETYPE
 70
     6
  9
$SPLINESEGS
 70
     8
  9
$HANDSEED
  5
2A1
  9
$SURFTAB1
 70
     6
  9
$SURFTAB2
 70
     6
  9
$SURFTYPE
 70
     6
  9
$SURFU
 70
     6
  9
$SURFV
 70
     6
  9
$UCSBASE
  2

  9
$UCSNAME
  2

  9
$UCSORG
 10
0.0
 20
0.0
 30
0.0
  9
$UCSXDIR
 10
1.0
 20
0.0
 30
0.0
  9
$UCSYDIR
 10
0.0
 20
1.0
 30
0.0
  9
$UCSORTHOREF
  2

  9
$UCSORTHOVIEW
 70
     0
  9
$UCSORGTOP
 10
0.0
 20
0.0
 30
0.0
  9
$UCSORGBOTTOM
 10
0.0
 20
0.0
 30
0.0
  9
$UCSORGLEFT
 10
0.0
 20
0.0
 30
0.0
  9
$UCSORGRIGHT
 10
0.0
 20
0.0
 30
0.0
  9
$UCSORGFRONT
 10
0.0
 20
0.0
 30
0.0
  9
$UCSORGBACK
 10
0.0
 20
0.0
 30
0.0
  9
$PUCSBASE
  2

  9
$PUCSNAME
  2

  9
$PUCSORG
 10
0.0
 20
0.0
 30
0.0
  9
$PUCSXDIR
 10
1.0
 20
0.0
 30
0.0
  9
$PUCSYDIR
 10
0.0
 20
1.0
 30
0.0
  9
$PUCSORTHOREF
  2

  9
$PUCSORTHOVIEW
 70
     0
  9
$PUCSORGTOP
 10
0.0
 20
0.0
 30
0.0
  9
$PUCSORGBOTTOM
 10
0.0
 20
0.0
 30
0.0
  9
$PUCSORGLEFT
 10
0.0
 20
0.0
 30
0.0
  9
$PUCSORGRIGHT
 10
0.0
 20
0.0
 30
0.0
  9
$PUCSORGFRONT
 10
0.0
 20
0.0
 30
0.0
  9
$PUCSORGBACK
 10
0.0
 20
0.0
 30
0.0
  9
$USERI1
 70
     0
  9
$USERI2
 70
     0
  9
$USERI3
 70
     0
  9
$USERI4
 70
     0
  9
$USERI5
 70
     0
  9
$USERR1
 40
0.0
  9
$USERR2
 40
0.0
  9
$USERR3
 40
0.0
  9
$USERR4
 40
0.0
  9
$USERR5
 40
0.0
  9
$WORLDVIEW
 70
     1
  9
$SHADEDGE
 70
     3
  9
$SHADEDIF
 70
    70
  9
$TILEMODE
 70
     1
  9
$MAXACTVP
 70
    64
  9
$PINSBASE
 10
0.0
 20
0.0
 30
0.0
  9
$PLIMCHECK
 70
     0
  9
$PEXTMIN
 10
1.000000E+20
 20
1.000000E+20
 30
0.0
  9
$PEXTMAX
 10
-1.000000E+20
 20
-1.000000E+20
 30
0.0
  9
$PLIMMIN
 10
0.0
 20
0.0
  9
$PLIMMAX
 10
12.0
 20
9.0
  9
$UNITMODE
 70
     0
  9
$VISRETAIN
 70
     1
  9
$PLINEGEN
 70
     0
  9
$PSLTSCALE
 70
     1
  9
$TREEDEPTH
 70
  3020
  9
$CMLSTYLE
  2
Standard
  9
$CMLJUST
 70
     0
  9
$CMLSCALE
 40
20.0
  9
$PROXYGRAPHICS
 70
     1
  9
$MEASUREMENT
 70
     1
  9
$CELWEIGHT
370
    -1
  9
$ENDCAPS
280
     0
  9
$JOINSTYLE
280
     0
  9
$LWDISPLAY
290
     0
  9
$INSUNITS
 70
     4
  9
$HYPERLINKBASE
  1

  9
$STYLESHEET
  1

  9
$XEDIT
290
     1
  9
$CEPSNTYPE
380
     0
  9
$PSTYLEMODE
290
     1
  9
$FINGERPRINTGUID
  2
{5574BAB2-C2B3-461B-850A-E8A342122E05}
  9
$VERSIONGUID
  2
{FAEB1C32-E019-11D5-929B-00C0DF256EC4}
  9
$EXTNAMES
290
     1
  9
$PSVPSCALE
 40
0.0
  9
$OLESTARTUP
290
     0
  0
ENDSEC
  0
SECTION
  2
CLASSES
  0
CLASS
  1
ACDBDICTIONARYWDFLT
  2
AcDbDictionaryWithDefault
  3
ObjectDBX Classes
 90
        0
280
     0
281
     0
  0
CLASS
  1
VISUALSTYLE
  2
AcDbVisualStyle
  3
ObjectDBX Classes
 90
     4095
280
     0
281
     0
  0
CLASS
  1
SCALE
  2
AcDbScale
  3
ObjectDBX Classes
 90
     1153
280
     0
281
     0
  0
CLASS
  1
DICTIONARYVAR
  2
AcDbDictionaryVar
  3
ObjectDBX Classes
 90
        0
280
     0
281
     0
  0
CLASS
  1
ACDBPLACEHOLDER
  2
AcDbPlaceHolder
  3
ObjectDBX Classes
 90
        0
280
     0
281
     0
  0
CLASS
  1
LAYOUT
  2
AcDbLayout
  3
ObjectDBX Classes
 90
        0
280
     0
281
     0
  0
ENDSEC
  0
SECTION
  2
TABLES
  0
TABLE
  2
VPORT
  5
8
330
0
100
AcDbSymbolTable
 70
     1
  0
VPORT
  5
29
330
8
100
AcDbSymbolTableRecord
100
AcDbViewportTableRecord
  2
*Active
 70
     0
 10
0.0
 20
0.0
 11
1.0
 21
1.0
 12
98.954758
 22
60.187069
 13
0.0
 23
0.0
 14
1.0
 24
1.0
 15
0.0
 25
0.0
 16
0.0
 26
0.0
 36
1.0
 17
0.0
 27
0.0
 37
0.0
 40
93.857656
 41
1.691288
 42
50.0
 43
0.0
 44
0.0
 50
0.0
 51
0.0
 71
     0
 72
   100
 73
     1
 74
     3
 75
     0
 76
     0
 77
     0
 78
     0
281
     0
 65
     1
110
0.0
120
0.0
130
0.0
111
1.0
121
0.0
131
0.0
112
0.0
122
1.0
132
0.0
 79
     0
146
0.0
  0
ENDTAB
  0
TABLE
  2
LTYPE
  5
5
330
0
100
AcDbSymbolTable
 70
     5
  0
LTYPE
  5
14
330
5
100
AcDbSymbolTableRecord
100
AcDbLinetypeTableRecord
  2
ByBlock
 70
     0
  3

 72
    65
 73
     0
 40
0.0
  0
LTYPE
  5
15
330
5
100
AcDbSymbolTableRecord
100
AcDbLinetypeTableRecord
  2
ByLayer
 70
     0
  3

 72
    65
 73
     0
 40
0.0
  0
LTYPE
  5
16
330
5
100
AcDbSymbolTableRecord
100
AcDbLinetypeTableRecord
  2
Continuous
 70
     0
  3
Solid line
 72
    65
 73
     0
 40
0.0
  0
LTYPE
  5
5D
330
5
100
AcDbSymbolTableRecord
100
AcDbLinetypeTableRecord
  2
DASHED
 70
     0
  3
DASHED
 72
    83
 73
     2
 40
0.75
 49
0.5
 74
     0
 49
-0.25
 74
     0
  0
LTYPE
  5
5E
330
5
100
AcDbSymbolTableRecord
100
AcDbLinetypeTableRecord
  2
HIDDEN
 70
     0
  3
HIDDEN
 72
    83
 73
     2
 40
0.375
 49
0.25
 74
     0
 49
-0.125
 74
     0
  0
LTYPE
  5
5F
330
5
100
AcDbSymbolTableRecord
100
AcDbLinetypeTableRecord
  2
CENTER
 70
     0
  3
CENTER
 72
    83
 73
     4
 40
2.0
 49
1.25
 74
     0
 49
-0.25
 74
     0
 49
0.25
 74
     0
 49
-0.25
 74
     0
  0
LTYPE
  5
60
330
5
100
AcDbSymbolTableRecord
100
AcDbLinetypeTableRecord
  2
PHANTOM
 70
     0
  3
PHANTOM
 72
    83
 73
     6
 40
2.5
 49
1.25
 74
     0
 49
-0.25
 74
     0
 49
0.25
 74
     0
 49
-0.25
 74
     0
 49
0.25
 74
     0
 49
-0.25
 74
     0
  0
ENDTAB
  0
TABLE
  2
LAYER
  5
2
330
0
100
AcDbSymbolTable
 70
     2
  0
LAYER
  5
10
330
2
100
AcDbSymbolTableRecord
100
AcDbLayerTableRecord
  2
0
 70
     0
 62
     7
  6
Continuous
370
    -3
390
F
  0
LAYER
  5
61
330
2
100
AcDbSymbolTableRecord
100
AcDbLayerTableRecord
  2
001
 70
     0
 62
     7
  6
Continuous
370
    -3
390
F
  0
ENDTAB
  0
TABLE
  2
STYLE
  5
3
330
0
100
AcDbSymbolTable
 70
     2
  0
STYLE
  5
11
330
3
100
AcDbSymbolTableRecord
100
AcDbTextStyleTableRecord
  2
Standard
 70
     0
 40
0.0
 41
1.0
 50
0.0
 71
     0
 42
0.2
  3
TXT
  4
BIGFONT
  0
STYLE
  5
62
330
3
100
AcDbSymbolTableRecord
100
AcDbTextStyleTableRecord
  2
TATEGAKI
 70
     4
 40
1.0
 41
1.0
 50
0.0
 71
     0
 42
0.2
  3
TXT
  4
BIGFONT
  0
ENDTAB
  0
TABLE
  2
VIEW
  5
6
330
0
100
AcDbSymbolTable
 70
     0
  0
ENDTAB
  0
TABLE
  2
UCS
  5
7
330
0
100
AcDbSymbolTable
 70
     0
  0
ENDTAB
  0
TABLE
  2
APPID
  5
9
330
0
100
AcDbSymbolTable
 70
     1
  0
APPID
  5
12
330
9
100
AcDbSymbolTableRecord
100
AcDbRegAppTableRecord
  2
ACAD
 70
     0
  0
ENDTAB
  0
TABLE
  2
DIMSTYLE
  5
A
330
0
100
AcDbSymbolTable
 70
     2
100
AcDbDimStyleTable
  0
DIMSTYLE
105
27
330
A
100
AcDbSymbolTableRecord
100
AcDbDimStyleTableRecord
  2
ISO-25
 70
     0
 41
2.5
 42
0.625
 43
3.75
 44
1.25
 73
     0
 74
     0
 77
     1
 78
     8
140
2.5
141
2.5
143
0.03937
147
0.625
171
     3
172
     1
271
     2
272
     2
274
     3
278
    44
283
     0
284
     8
340
11
  0
DIMSTYLE
105
63
102
{ACAD_REACTORS
330
DF
330
E0
330
E1
330
E2
330
E3
330
E4
102
}
330
A
100
AcDbSymbolTableRecord
100
AcDbDimStyleTableRecord
  2
Standard
 70
     0
 41
1.5
 42
0.0
 44
2.75
 73
     0
 74
     0
 77
     1
 78
     8
 79
     2
140
4.0
146
0.8
147
1.0
172
     1
179
     1
271
     1
340
11
  0
ENDTAB
  0
TABLE
  2
BLOCK_RECORD
  5
1
330
0
100
AcDbSymbolTable
 70
     7
  0
BLOCK_RECORD
  5
1F
330
1
100
AcDbSymbolTableRecord
100
AcDbBlockTableRecord
  2
*Model_Space
340
22
  0
BLOCK_RECORD
  5
1B
330
1
100
AcDbSymbolTableRecord
100
AcDbBlockTableRecord
  2
*Paper_Space
340
1E
  0
BLOCK_RECORD
  5
23
330
1
100
AcDbSymbolTableRecord
100
AcDbBlockTableRecord
  2
*Paper_Space0
340
26
  0
BLOCK_RECORD
  5
64
330
1
100
AcDbSymbolTableRecord
100
AcDbBlockTableRecord
  2
*D1
340
0
  0
BLOCK_RECORD
  5
78
330
1
100
AcDbSymbolTableRecord
100
AcDbBlockTableRecord
  2
*D2
340
0
  0
BLOCK_RECORD
  5
8C
330
1
100
AcDbSymbolTableRecord
100
AcDbBlockTableRecord
  2
*D3
340
0
  0
BLOCK_RECORD
  5
A0
330
1
100
AcDbSymbolTableRecord
100
AcDbBlockTableRecord
  2
*D4
340
0
  0
BLOCK_RECORD
  5
B4
330
1
100
AcDbSymbolTableRecord
100
AcDbBlockTableRecord
  2
*D5
340
0
  0
BLOCK_RECORD
  5
CA
330
1
100
AcDbSymbolTableRecord
100
AcDbBlockTableRecord
  2
*D6
340
0
  0
ENDTAB
  0
ENDSEC
  0
SECTION
  2
BLOCKS
  0
BLOCK
  5
20
330
1F
100
AcDbEntity
  8
0
100
AcDbBlockBegin
  2
*Model_Space
 70
     0
 10
0.0
 20
0.0
 30
0.0
  3
*Model_Space
  1

  0
ENDBLK
  5
21
330
1F
100
AcDbEntity
  8
0
100
AcDbBlockEnd
  0
BLOCK
  5
1C
330
1B
100
AcDbEntity
 67
     1
  8
0
100
AcDbBlockBegin
  2
*Paper_Space
 70
     0
 10
0.0
 20
0.0
 30
0.0
  3
*Paper_Space
  1

  0
ENDBLK
  5
1D
330
1B
100
AcDbEntity
 67
     1
  8
0
100
AcDbBlockEnd
  0
BLOCK
  5
24
330
23
100
AcDbEntity
  8
0
100
AcDbBlockBegin
  2
*Paper_Space0
 70
     0
 10
0.0
 20
0.0
 30
0.0
  3
*Paper_Space0
  1

  0
ENDBLK
  5
25
330
23
100
AcDbEntity
  8
0
100
AcDbBlockEnd
  0
BLOCK
  5
65
330
64
100
AcDbEntity
  8
0
100
AcDbBlockBegin
  2
*D1
 70
     1
 10
0.0
 20
0.0
 30
0.0
  3
*D1
  1

  0
LINE
  5
67
330
64
100
AcDbEntity
  8
001
370
     9
100
AcDbLine
 10
75.379054
 20
51.32395
 30
0.0
 11
75.379054
 21
23.997276
 31
0.0
  0
LINE
  5
68
330
64
100
AcDbEntity
  8
001
370
     9
100
AcDbLine
 10
45.379054
 20
62.334284
 30
0.0
 11
45.379054
 21
23.997276
 31
0.0
  0
LINE
  5
69
330
64
100
AcDbEntity
  8
001
370
     9
100
AcDbLine
 10
75.379054
 20
26.747276
 30
0.0
 11
45.379054
 21
26.747276
 31
0.0
  0
POLYLINE
  5
6A
330
64
100
AcDbEntity
  8
001
370
     9
100
AcDb2dPolyline
 66
     1
 10
0.0
 20
0.0
 30
0.0
  0
VERTEX
  5
6C
330
6A
100
AcDbEntity
  8
001
370
     9
100
AcDbVertex
100
AcDb2dVertex
 10
73.879054
 20
27.1492
 30
0.0
  0
VERTEX
  5
6D
330
6A
100
AcDbEntity
  8
001
370
     9
100
AcDbVertex
100
AcDb2dVertex
 10
75.379054
 20
26.747276
 30
0.0
  0
VERTEX
  5
6E
330
6A
100
AcDbEntity
  8
001
370
     9
100
AcDbVertex
100
AcDb2dVertex
 10
73.879054
 20
26.345352
 30
0.0
  0
SEQEND
  5
6B
330
6A
100
AcDbEntity
  8
001
370
     9
  0
POLYLINE
  5
6F
330
64
100
AcDbEntity
  8
001
370
     9
100
AcDb2dPolyline
 66
     1
 10
0.0
 20
0.0
 30
0.0
  0
VERTEX
  5
71
330
6F
100
AcDbEntity
  8
001
370
     9
100
AcDbVertex
100
AcDb2dVertex
 10
46.879054
 20
26.345352
 30
0.0
  0
VERTEX
  5
72
330
6F
100
AcDbEntity
  8
001
370
     9
100
AcDbVertex
100
AcDb2dVertex
 10
45.379054
 20
26.747276
 30
0.0
  0
VERTEX
  5
73
330
6F
100
AcDbEntity
  8
001
370
     9
100
AcDbVertex
100
AcDb2dVertex
 10
46.879054
 20
27.1492
 30
0.0
  0
SEQEND
  5
70
330
6F
100
AcDbEntity
  8
001
370
     9
  0
TEXT
  5
74
330
64
100
AcDbEntity
  8
001
370
    30
100
AcDbText
 10
57.179054
 20
27.747276
 30
0.0
 40
3.2
  1
３０
 41
0.833333
100
AcDbText
  0
POINT
  5
75
330
64
100
AcDbEntity
  8
001
370
     9
100
AcDbPoint
 10
75.379054
 20
51.32395
 30
0.0
  0
POINT
  5
76
330
64
100
AcDbEntity
  8
001
370
     9
100
AcDbPoint
 10
45.379054
 20
62.334284
 30
0.0
  0
POINT
  5
77
330
64
100
AcDbEntity
  8
001
370
     9
100
AcDbPoint
 10
45.379054
 20
26.747276
 30
0.0
  0
ENDBLK
  5
66
330
64
100
AcDbEntity
  8
0
100
AcDbBlockEnd
  0
BLOCK
  5
79
330
78
100
AcDbEntity
  8
0
100
AcDbBlockBegin
  2
*D2
 70
     1
 10
0.0
 20
0.0
 30
0.0
  3
*D2
  1

  0
LINE
  5
7B
330
78
100
AcDbEntity
  8
001
370
     9
100
AcDbLine
 10
155.379054
 20
59.82395
 30
0.0
 11
155.379054
 21
23.997276
 31
0.0
  0
LINE
  5
7C
330
78
100
AcDbEntity
  8
001
370
     9
100
AcDbLine
 10
75.379054
 20
51.32395
 30
0.0
 11
75.379054
 21
23.997276
 31
0.0
  0
LINE
  5
7D
330
78
100
AcDbEntity
  8
001
370
     9
100
AcDbLine
 10
155.379054
 20
26.747276
 30
0.0
 11
75.379054
 21
26.747276
 31
0.0
  0
POLYLINE
  5
7E
330
78
100
AcDbEntity
  8
001
370
     9
100
AcDb2dPolyline
 66
     1
 10
0.0
 20
0.0
 30
0.0
  0
VERTEX
  5
80
330
7E
100
AcDbEntity
  8
001
370
     9
100
AcDbVertex
100
AcDb2dVertex
 10
153.879054
 20
27.1492
 30
0.0
  0
VERTEX
  5
81
330
7E
100
AcDbEntity
  8
001
370
     9
100
AcDbVertex
100
AcDb2dVertex
 10
155.379054
 20
26.747276
 30
0.0
  0
VERTEX
  5
82
330
7E
100
AcDbEntity
  8
001
370
     9
100
AcDbVertex
100
AcDb2dVertex
 10
153.879054
 20
26.345352
 30
0.0
  0
SEQEND
  5
7F
330
7E
100
AcDbEntity
  8
001
370
     9
  0
POLYLINE
  5
83
330
78
100
AcDbEntity
  8
001
370
     9
100
AcDb2dPolyline
 66
     1
 10
0.0
 20
0.0
 30
0.0
  0
VERTEX
  5
85
330
83
100
AcDbEntity
  8
001
370
     9
100
AcDbVertex
100
AcDb2dVertex
 10
76.879054
 20
26.345352
 30
0.0
  0
VERTEX
  5
86
330
83
100
AcDbEntity
  8
001
370
     9
100
AcDbVertex
100
AcDb2dVertex
 10
75.379054
 20
26.747276
 30
0.0
  0
VERTEX
  5
87
330
83
100
AcDbEntity
  8
001
370
     9
100
AcDbVertex
100
AcDb2dVertex
 10
76.879054
 20
27.1492
 30
0.0
  0
SEQEND
  5
84
330
83
100
AcDbEntity
  8
001
370
     9
  0
TEXT
  5
88
330
78
100
AcDbEntity
  8
001
370
    30
100
AcDbText
 10
112.179054
 20
27.747276
 30
0.0
 40
3.2
  1
８０
 41
0.833333
100
AcDbText
  0
POINT
  5
89
330
78
100
AcDbEntity
  8
001
370
     9
100
AcDbPoint
 10
155.379054
 20
59.82395
 30
0.0
  0
POINT
  5
8A
330
78
100
AcDbEntity
  8
001
370
     9
100
AcDbPoint
 10
75.379054
 20
51.32395
 30
0.0
  0
POINT
  5
8B
330
78
100
AcDbEntity
  8
001
370
     9
100
AcDbPoint
 10
75.379054
 20
26.747276
 30
0.0
  0
ENDBLK
  5
7A
330
78
100
AcDbEntity
  8
0
100
AcDbBlockEnd
  0
BLOCK
  5
8D
330
8C
100
AcDbEntity
  8
0
100
AcDbBlockBegin
  2
*D3
 70
     1
 10
0.0
 20
0.0
 30
0.0
  3
*D3
  1

  0
LINE
  5
8F
330
8C
100
AcDbEntity
  8
001
370
     9
100
AcDbLine
 10
155.379054
 20
59.82395
 30
0.0
 11
155.379054
 21
16.926956
 31
0.0
  0
LINE
  5
90
330
8C
100
AcDbEntity
  8
001
370
     9
100
AcDbLine
 10
45.379054
 20
62.334284
 30
0.0
 11
45.379054
 21
16.926956
 31
0.0
  0
LINE
  5
91
330
8C
100
AcDbEntity
  8
001
370
     9
100
AcDbLine
 10
155.379054
 20
19.676956
 30
0.0
 11
45.379054
 21
19.676956
 31
0.0
  0
POLYLINE
  5
92
330
8C
100
AcDbEntity
  8
001
370
     9
100
AcDb2dPolyline
 66
     1
 10
0.0
 20
0.0
 30
0.0
  0
VERTEX
  5
94
330
92
100
AcDbEntity
  8
001
370
     9
100
AcDbVertex
100
AcDb2dVertex
 10
153.879054
 20
20.078879
 30
0.0
  0
VERTEX
  5
95
330
92
100
AcDbEntity
  8
001
370
     9
100
AcDbVertex
100
AcDb2dVertex
 10
155.379054
 20
19.676956
 30
0.0
  0
VERTEX
  5
96
330
92
100
AcDbEntity
  8
001
370
     9
100
AcDbVertex
100
AcDb2dVertex
 10
153.879054
 20
19.275032
 30
0.0
  0
SEQEND
  5
93
330
92
100
AcDbEntity
  8
001
370
     9
  0
POLYLINE
  5
97
330
8C
100
AcDbEntity
  8
001
370
     9
100
AcDb2dPolyline
 66
     1
 10
0.0
 20
0.0
 30
0.0
  0
VERTEX
  5
99
330
97
100
AcDbEntity
  8
001
370
     9
100
AcDbVertex
100
AcDb2dVertex
 10
46.879054
 20
19.275032
 30
0.0
  0
VERTEX
  5
9A
330
97
100
AcDbEntity
  8
001
370
     9
100
AcDbVertex
100
AcDb2dVertex
 10
45.379054
 20
19.676956
 30
0.0
  0
VERTEX
  5
9B
330
97
100
AcDbEntity
  8
001
370
     9
100
AcDbVertex
100
AcDb2dVertex
 10
46.879054
 20
20.078879
 30
0.0
  0
SEQEND
  5
98
330
97
100
AcDbEntity
  8
001
370
     9
  0
TEXT
  5
9C
330
8C
100
AcDbEntity
  8
001
370
    30
100
AcDbText
 10
95.579054
 20
20.676956
 30
0.0
 40
3.2
  1
１１０
 41
0.833333
100
AcDbText
  0
POINT
  5
9D
330
8C
100
AcDbEntity
  8
001
370
     9
100
AcDbPoint
 10
155.379054
 20
59.82395
 30
0.0
  0
POINT
  5
9E
330
8C
100
AcDbEntity
  8
001
370
     9
100
AcDbPoint
 10
45.379054
 20
62.334284
 30
0.0
  0
POINT
  5
9F
330
8C
100
AcDbEntity
  8
001
370
     9
100
AcDbPoint
 10
45.379054
 20
19.676956
 30
0.0
  0
ENDBLK
  5
8E
330
8C
100
AcDbEntity
  8
0
100
AcDbBlockEnd
  0
BLOCK
  5
A1
330
A0
100
AcDbEntity
  8
0
100
AcDbBlockBegin
  2
*D4
 70
     1
 10
0.0
 20
0.0
 30
0.0
  3
*D4
  1

  0
LINE
  5
A3
330
A0
100
AcDbEntity
  8
001
370
     9
100
AcDbLine
 10
147.379054
 20
83.82395
 30
0.0
 11
177.539074
 21
83.82395
 31
0.0
  0
LINE
  5
A4
330
A0
100
AcDbEntity
  8
001
370
     9
100
AcDbLine
 10
147.379054
 20
51.82395
 30
0.0
 11
177.539074
 21
51.82395
 31
0.0
  0
LINE
  5
A5
330
A0
100
AcDbEntity
  8
001
370
     9
100
AcDbLine
 10
174.789074
 20
83.82395
 30
0.0
 11
174.789074
 21
51.82395
 31
0.0
  0
POLYLINE
  5
A6
330
A0
100
AcDbEntity
  8
001
370
     9
100
AcDb2dPolyline
 66
     1
 10
0.0
 20
0.0
 30
0.0
  0
VERTEX
  5
A8
330
A6
100
AcDbEntity
  8
001
370
     9
100
AcDbVertex
100
AcDb2dVertex
 10
174.38715
 20
82.32395
 30
0.0
  0
VERTEX
  5
A9
330
A6
100
AcDbEntity
  8
001
370
     9
100
AcDbVertex
100
AcDb2dVertex
 10
174.789074
 20
83.82395
 30
0.0
  0
VERTEX
  5
AA
330
A6
100
AcDbEntity
  8
001
370
     9
100
AcDbVertex
100
AcDb2dVertex
 10
175.190997
 20
82.32395
 30
0.0
  0
SEQEND
  5
A7
330
A6
100
AcDbEntity
  8
001
370
     9
  0
POLYLINE
  5
AB
330
A0
100
AcDbEntity
  8
001
370
     9
100
AcDb2dPolyline
 66
     1
 10
0.0
 20
0.0
 30
0.0
  0
VERTEX
  5
AD
330
AB
100
AcDbEntity
  8
001
370
     9
100
AcDbVertex
100
AcDb2dVertex
 10
175.190997
 20
53.32395
 30
0.0
  0
VERTEX
  5
AE
330
AB
100
AcDbEntity
  8
001
370
     9
100
AcDbVertex
100
AcDb2dVertex
 10
174.789074
 20
51.82395
 30
0.0
  0
VERTEX
  5
AF
330
AB
100
AcDbEntity
  8
001
370
     9
100
AcDbVertex
100
AcDb2dVertex
 10
174.38715
 20
53.32395
 30
0.0
  0
SEQEND
  5
AC
330
AB
100
AcDbEntity
  8
001
370
     9
  0
TEXT
  5
B0
330
A0
100
AcDbEntity
  8
001
370
    30
100
AcDbText
 10
173.789074
 20
61.82395
 30
0.0
 40
4.0
  1
%%c３２
 50
90.000003
 41
0.882353
100
AcDbText
  0
POINT
  5
B1
330
A0
100
AcDbEntity
  8
001
370
     9
100
AcDbPoint
 10
147.379054
 20
83.82395
 30
0.0
  0
POINT
  5
B2
330
A0
100
AcDbEntity
  8
001
370
     9
100
AcDbPoint
 10
147.379054
 20
51.82395
 30
0.0
  0
POINT
  5
B3
330
A0
100
AcDbEntity
  8
001
370
     9
100
AcDbPoint
 10
174.789074
 20
51.82395
 30
0.0
  0
ENDBLK
  5
A2
330
A0
100
AcDbEntity
  8
0
100
AcDbBlockEnd
  0
BLOCK
  5
B5
330
B4
100
AcDbEntity
  8
0
100
AcDbBlockBegin
  2
*D5
 70
     1
 10
0.0
 20
0.0
 30
0.0
  3
*D5
  1

  0
LINE
  5
B7
330
B4
100
AcDbEntity
  8
001
370
     9
100
AcDbLine
 10
52.671007
 20
49.690717
 30
0.0
 11
62.423315
 21
32.794945
 31
0.0
  0
ARC
  5
B8
330
B4
100
AcDbEntity
  8
001
370
     9
100
AcDbCircle
 10
45.379054
 20
62.32395
 30
0.0
 40
31.34499854450153
100
AcDbArc
 50
270.0
 51
299.993715
  0
POLYLINE
  5
B9
330
B4
100
AcDbEntity
  8
001
370
     9
100
AcDb2dPolyline
 66
     1
 10
0.0
 20
0.0
 30
0.0
  0
VERTEX
  5
BB
330
B9
100
AcDbEntity
  8
001
370
     9
100
AcDbVertex
100
AcDb2dVertex
 10
62.538578
 20
35.614199
 30
0.0
  0
VERTEX
  5
BC
330
B9
100
AcDbEntity
  8
001
370
     9
100
AcDbVertex
100
AcDb2dVertex
 10
61.048576
 20
35.176666
 30
0.0
  0
VERTEX
  5
BD
330
B9
100
AcDbEntity
  8
001
370
     9
100
AcDbVertex
100
AcDb2dVertex
 10
62.12019
 20
36.300582
 30
0.0
  0
SEQEND
  5
BA
330
B9
100
AcDbEntity
  8
001
370
     9
  0
POLYLINE
  5
BE
330
B4
100
AcDbEntity
  8
001
370
     9
100
AcDb2dPolyline
 66
     1
 10
0.0
 20
0.0
 30
0.0
  0
VERTEX
  5
C0
330
BE
100
AcDbEntity
  8
001
370
     9
100
AcDbVertex
100
AcDb2dVertex
 10
43.8891
 20
31.416648
 30
0.0
  0
VERTEX
  5
C1
330
BE
100
AcDbEntity
  8
001
370
     9
100
AcDbVertex
100
AcDb2dVertex
 10
45.379054
 20
30.978951
 30
0.0
  0
VERTEX
  5
C2
330
BE
100
AcDbEntity
  8
001
370
     9
100
AcDbVertex
100
AcDb2dVertex
 10
43.869868
 20
30.61303
 30
0.0
  0
SEQEND
  5
BF
330
BE
100
AcDbEntity
  8
001
370
     9
  0
TEXT
  5
C3
330
B4
100
AcDbEntity
  8
001
370
    30
100
AcDbText
 10
47.43567
 20
31.459905
 30
0.0
 40
4.0
  1
３０%%d
 50
14.996857
 41
0.978261
100
AcDbText
  0
POINT
  5
C4
330
B4
100
AcDbEntity
  8
001
370
     9
100
AcDbPoint
 10
52.671007
 20
49.690717
 30
0.0
  0
POINT
  5
C5
330
B4
100
AcDbEntity
  8
001
370
     9
100
AcDbPoint
 10
45.379054
 20
62.32395
 30
0.0
  0
POINT
  5
C6
330
B4
100
AcDbEntity
  8
001
370
     9
100
AcDbPoint
 10
45.379054
 20
62.32395
 30
0.0
  0
POINT
  5
C7
330
B4
100
AcDbEntity
  8
001
370
     9
100
AcDbPoint
 10
45.379054
 20
33.728951
 30
0.0
  0
ARC
  5
C8
330
B4
100
AcDbEntity
  8
001
370
     9
100
AcDbCircle
 10
45.379054
 20
62.32395
 30
0.0
 40
31.34499854450153
100
AcDbArc
 50
265.43023
 51
270.0
  0
ARC
  5
C9
330
B4
100
AcDbEntity
  8
001
370
     9
100
AcDbCircle
 10
45.379054
 20
62.32395
 30
0.0
 40
31.34499854450153
100
AcDbArc
 50
299.993715
 51
304.563486
  0
ENDBLK
  5
B6
330
B4
100
AcDbEntity
  8
0
100
AcDbBlockEnd
  0
BLOCK
  5
CB
330
CA
100
AcDbEntity
  8
0
100
AcDbBlockBegin
  2
*D6
 70
     1
 10
0.0
 20
0.0
 30
0.0
  3
*D6
  1

  0
LINE
  5
CD
330
CA
100
AcDbEntity
  8
001
370
     9
100
AcDbLine
 10
52.842302
 20
49.39395
 30
0.0
 11
52.842302
 21
37.15851
 31
0.0
  0
LINE
  5
CE
330
CA
100
AcDbEntity
  8
001
370
     9
100
AcDbLine
 10
52.842302
 20
39.90851
 30
0.0
 11
45.379054
 21
39.90851
 31
0.0
  0
POLYLINE
  5
CF
330
CA
100
AcDbEntity
  8
001
370
     9
100
AcDb2dPolyline
 66
     1
 10
0.0
 20
0.0
 30
0.0
  0
VERTEX
  5
D1
330
CF
100
AcDbEntity
  8
001
370
     9
100
AcDbVertex
100
AcDb2dVertex
 10
54.342302
 20
39.506587
 30
0.0
  0
VERTEX
  5
D2
330
CF
100
AcDbEntity
  8
001
370
     9
100
AcDbVertex
100
AcDb2dVertex
 10
52.842302
 20
39.90851
 30
0.0
  0
VERTEX
  5
D3
330
CF
100
AcDbEntity
  8
001
370
     9
100
AcDbVertex
100
AcDb2dVertex
 10
54.342302
 20
40.310434
 30
0.0
  0
SEQEND
  5
D0
330
CF
100
AcDbEntity
  8
001
370
     9
  0
POLYLINE
  5
D4
330
CA
100
AcDbEntity
  8
001
370
     9
100
AcDb2dPolyline
 66
     1
 10
0.0
 20
0.0
 30
0.0
  0
VERTEX
  5
D6
330
D4
100
AcDbEntity
  8
001
370
     9
100
AcDbVertex
100
AcDb2dVertex
 10
43.879054
 20
40.310434
 30
0.0
  0
VERTEX
  5
D7
330
D4
100
AcDbEntity
  8
001
370
     9
100
AcDbVertex
100
AcDb2dVertex
 10
45.379054
 20
39.90851
 30
0.0
  0
VERTEX
  5
D8
330
D4
100
AcDbEntity
  8
001
370
     9
100
AcDbVertex
100
AcDb2dVertex
 10
43.879054
 20
39.506587
 30
0.0
  0
SEQEND
  5
D5
330
D4
100
AcDbEntity
  8
001
370
     9
  0
TEXT
  5
D9
330
CA
100
AcDbEntity
  8
001
370
    30
100
AcDbText
 10
29.879054
 20
40.90851
 30
0.0
 40
4.0
  1
７．５
 41
0.833333
100
AcDbText
  0
POINT
  5
DA
330
CA
100
AcDbEntity
  8
001
370
     9
100
AcDbPoint
 10
52.842302
 20
49.39395
 30
0.0
  0
POINT
  5
DB
330
CA
100
AcDbEntity
  8
001
370
     9
100
AcDbPoint
 10
45.379054
 20
42.65851
 30
0.0
  0
POINT
  5
DC
330
CA
100
AcDbEntity
  8
001
370
     9
100
AcDbPoint
 10
45.379054
 20
39.90851
 30
0.0
  0
LINE
  5
DD
330
CA
100
AcDbEntity
  8
001
370
     9
100
AcDbLine
 10
52.842302
 20
39.90851
 30
0.0
 11
55.342302
 21
39.90851
 31
0.0
  0
LINE
  5
DE
330
CA
100
AcDbEntity
  8
001
370
     9
100
AcDbLine
 10
45.379054
 20
39.90851
 30
0.0
 11
26.879054
 21
39.90851
 31
0.0
  0
ENDBLK
  5
CC
330
CA
100
AcDbEntity
  8
0
100
AcDbBlockEnd
  0
ENDSEC
  0
SECTION
  2
ENTITIES
  0
DIMENSION
  5
DF
330
1F
100
AcDbEntity
  8
001
370
     9
100
AcDbDimension
  2
*D1
 10
45.379054
 20
26.747276
 30
0.0
 11
60.379054
 21
29.347276
 31
0.0
 70
   160
 71
     5
 42
-1.0
  3
Standard
100
AcDbAlignedDimension
 13
75.379054
 23
51.32395
 33
0.0
 14
45.379054
 24
62.334284
 34
0.0
 50
180.0
100
AcDbRotatedDimension
  0
DIMENSION
  5
E0
330
1F
100
AcDbEntity
  8
001
370
     9
100
AcDbDimension
  2
*D2
 10
75.379054
 20
26.747276
 30
0.0
 11
115.379054
 21
29.347276
 31
0.0
 70
   160
 71
     5
 42
-1.0
  3
Standard
100
AcDbAlignedDimension
 13
155.379054
 23
59.82395
 33
0.0
 14
75.379054
 24
51.32395
 34
0.0
 50
180.0
100
AcDbRotatedDimension
  0
DIMENSION
  5
E1
330
1F
100
AcDbEntity
  8
001
370
     9
100
AcDbDimension
  2
*D3
 10
45.379054
 20
19.676956
 30
0.0
 11
100.379054
 21
22.276956
 31
0.0
 70
   160
 71
     5
 42
-1.0
  3
Standard
100
AcDbAlignedDimension
 13
155.379054
 23
59.82395
 33
0.0
 14
45.379054
 24
62.334284
 34
0.0
 50
180.0
100
AcDbRotatedDimension
  0
DIMENSION
  5
E2
330
1F
100
AcDbEntity
  8
001
370
     9
100
AcDbDimension
  2
*D4
 10
174.789074
 20
51.82395
 30
0.0
 11
171.789073
 21
67.82395
 31
0.0
 70
   160
 71
     5
 42
-1.0
  3
Standard
100
AcDbAlignedDimension
 13
147.379054
 23
83.82395
 33
0.0
 14
147.379054
 24
51.82395
 34
0.0
 50
270.0
100
AcDbRotatedDimension
  0
DIMENSION
  5
E3
330
1F
100
AcDbEntity
  8
001
370
     9
100
AcDbDimension
  2
*D5
 10
45.379054
 20
62.32395
 30
0.0
 11
52.713778
 21
34.944381
 31
0.0
 70
    34
 71
     5
 42
-1.0
  3
Standard
100
AcDb2LineAngularDimension
 13
52.671007
 23
49.690717
 33
0.0
 14
45.379054
 24
62.32395
 34
0.0
 15
45.379054
 25
33.728951
 35
0.0
 16
53.490076
 26
32.046561
 36
0.0
  0
DIMENSION
  5
E4
330
1F
100
AcDbEntity
  8
001
370
     9
100
AcDbDimension
  2
*D6
 10
45.379054
 20
39.90851
 30
0.0
 11
35.879054
 21
42.90851
 31
0.0
 70
   160
 71
     5
 42
-1.0
  3
Standard
100
AcDbAlignedDimension
 13
52.842302
 23
49.39395
 33
0.0
 14
45.379054
 24
42.65851
 34
0.0
 50
180.0
100
AcDbRotatedDimension
  0
TEXT
  5
E5
330
1F
100
AcDbEntity
  8
001
370
    30
100
AcDbText
 10
24.370432
 20
55.82395
 30
0.0
 40
4.0
  1
%%c３６．８６
 50
90.000003
 41
0.857143
100
AcDbText
  0
POLYLINE
  5
E6
330
1F
100
AcDbEntity
  8
001
370
     9
100
AcDb2dPolyline
 66
     1
 10
0.0
 20
0.0
 30
0.0
  0
VERTEX
  5
E8
330
E6
100
AcDbEntity
  8
001
370
     9
100
AcDbVertex
100
AcDb2dVertex
 10
25.772356
 20
50.89395
 30
0.0
  0
VERTEX
  5
E9
330
E6
100
AcDbEntity
  8
001
370
     9
100
AcDbVertex
100
AcDb2dVertex
 10
25.370432
 20
49.39395
 30
0.0
  0
VERTEX
  5
EA
330
E6
100
AcDbEntity
  8
001
370
     9
100
AcDbVertex
100
AcDb2dVertex
 10
24.968508
 20
50.89395
 30
0.0
  0
SEQEND
  5
E7
330
E6
100
AcDbEntity
  8
001
370
     9
  0
LINE
  5
EB
330
1F
100
AcDbEntity
  8
001
370
     9
100
AcDbLine
 10
25.370432
 20
86.25395
 30
0.0
 11
25.370432
 21
49.39395
 31
0.0
  0
POLYLINE
  5
EC
330
1F
100
AcDbEntity
  8
001
370
     9
100
AcDb2dPolyline
 66
     1
 10
0.0
 20
0.0
 30
0.0
  0
VERTEX
  5
EE
330
EC
100
AcDbEntity
  8
001
370
     9
100
AcDbVertex
100
AcDb2dVertex
 10
52.842302
 20
49.39395
 30
0.0
  0
VERTEX
  5
EF
330
EC
100
AcDbEntity
  8
001
370
     9
100
AcDbVertex
100
AcDb2dVertex
 10
25.370432
 20
49.39395
 30
0.0
  0
VERTEX
  5
F0
330
EC
100
AcDbEntity
  8
001
370
     9
100
AcDbVertex
100
AcDb2dVertex
 10
22.620432
 20
49.39395
 30
0.0
  0
SEQEND
  5
ED
330
EC
100
AcDbEntity
  8
001
370
     9
  0
TEXT
  5
F1
330
1F
100
AcDbEntity
  8
001
370
    30
100
AcDbText
 10
33.960692
 20
61.82395
 30
0.0
 40
4.0
  1
%%c１１
 50
90.000003
 41
0.882353
100
AcDbText
  0
POLYLINE
  5
F2
330
1F
100
AcDbEntity
  8
001
370
     9
100
AcDb2dPolyline
 66
     1
 10
0.0
 20
0.0
 30
0.0
  0
VERTEX
  5
F4
330
F2
100
AcDbEntity
  8
001
370
     9
100
AcDbVertex
100
AcDb2dVertex
 10
35.362615
 20
63.82395
 30
0.0
  0
VERTEX
  5
F5
330
F2
100
AcDbEntity
  8
001
370
     9
100
AcDbVertex
100
AcDb2dVertex
 10
34.960692
 20
62.32395
 30
0.0
  0
VERTEX
  5
F6
330
F2
100
AcDbEntity
  8
001
370
     9
100
AcDbVertex
100
AcDb2dVertex
 10
34.558768
 20
63.82395
 30
0.0
  0
SEQEND
  5
F3
330
F2
100
AcDbEntity
  8
001
370
     9
  0
LINE
  5
F7
330
1F
100
AcDbEntity
  8
001
370
     9
100
AcDbLine
 10
34.960692
 20
62.32395
 30
0.0
 11
34.960692
 21
73.32395
 31
0.0
  0
POLYLINE
  5
F8
330
1F
100
AcDbEntity
  8
001
370
     9
100
AcDb2dPolyline
 66
     1
 10
0.0
 20
0.0
 30
0.0
  0
VERTEX
  5
FA
330
F8
100
AcDbEntity
  8
001
370
     9
100
AcDbVertex
100
AcDb2dVertex
 10
45.379054
 20
62.32395
 30
0.0
  0
VERTEX
  5
FB
330
F8
100
AcDbEntity
  8
001
370
     9
100
AcDbVertex
100
AcDb2dVertex
 10
34.960692
 20
62.32395
 30
0.0
  0
VERTEX
  5
FC
330
F8
100
AcDbEntity
  8
001
370
     9
100
AcDbVertex
100
AcDb2dVertex
 10
32.210692
 20
62.32395
 30
0.0
  0
SEQEND
  5
F9
330
F8
100
AcDbEntity
  8
001
370
     9
  0
POLYLINE
  5
FD
330
1F
100
AcDbEntity
  8
001
370
    50
100
AcDb2dPolyline
 66
     1
 10
0.0
 20
0.0
 30
0.0
  0
VERTEX
  5
FF
330
FD
100
AcDbEntity
  8
001
370
    50
100
AcDbVertex
100
AcDb2dVertex
 10
47.215449
 20
75.435525
 30
0.0
  0
VERTEX
  5
100
330
FD
100
AcDbEntity
  8
001
370
    50
100
AcDbVertex
100
AcDb2dVertex
 10
47.1795
 20
75.367119
 30
0.0
  0
VERTEX
  5
101
330
FD
100
AcDbEntity
  8
001
370
    50
100
AcDbVertex
100
AcDb2dVertex
 10
47.146728
 20
75.297274
 30
0.0
  0
VERTEX
  5
102
330
FD
100
AcDbEntity
  8
001
370
    50
100
AcDbVertex
100
AcDb2dVertex
 10
47.120476
 20
75.226599
 30
0.0
  0
VERTEX
  5
103
330
FD
100
AcDbEntity
  8
001
370
    50
100
AcDbVertex
100
AcDb2dVertex
 10
47.101068
 20
75.153603
 30
0.0
  0
VERTEX
  5
104
330
FD
100
AcDbEntity
  8
001
370
    50
100
AcDbVertex
100
AcDb2dVertex
 10
47.087913
 20
75.061261
 30
0.0
  0
VERTEX
  5
105
330
FD
100
AcDbEntity
  8
001
370
    50
100
AcDbVertex
100
AcDb2dVertex
 10
47.088926
 20
74.968138
 30
0.0
  0
VERTEX
  5
106
330
FD
100
AcDbEntity
  8
001
370
    50
100
AcDbVertex
100
AcDb2dVertex
 10
47.104038
 20
74.883967
 30
0.0
  0
VERTEX
  5
107
330
FD
100
AcDbEntity
  8
001
370
    50
100
AcDbVertex
100
AcDb2dVertex
 10
47.132388
 20
74.803307
 30
0.0
  0
VERTEX
  5
108
330
FD
100
AcDbEntity
  8
001
370
    50
100
AcDbVertex
100
AcDb2dVertex
 10
47.161619
 20
74.746562
 30
0.0
  0
VERTEX
  5
109
330
FD
100
AcDbEntity
  8
001
370
    50
100
AcDbVertex
100
AcDb2dVertex
 10
47.196692
 20
74.69322
 30
0.0
  0
VERTEX
  5
10A
330
FD
100
AcDbEntity
  8
001
370
    50
100
AcDbVertex
100
AcDb2dVertex
 10
47.235595
 20
74.644571
 30
0.0
  0
VERTEX
  5
10B
330
FD
100
AcDbEntity
  8
001
370
    50
100
AcDbVertex
100
AcDb2dVertex
 10
47.278554
 20
74.59954
 30
0.0
  0
VERTEX
  5
10C
330
FD
100
AcDbEntity
  8
001
370
    50
100
AcDbVertex
100
AcDb2dVertex
 10
47.31338
 20
74.567802
 30
0.0
  0
VERTEX
  5
10D
330
FD
100
AcDbEntity
  8
001
370
    50
100
AcDbVertex
100
AcDb2dVertex
 10
47.349237
 20
74.537186
 30
0.0
  0
SEQEND
  5
FE
330
FD
100
AcDbEntity
  8
001
370
    50
  0
LINE
  5
10E
330
1F
100
AcDbEntity
  8
001
370
    50
100
AcDbLine
 10
47.349237
 20
74.537186
 30
0.0
 11
47.373717
 21
74.518143
 31
0.0
  0
LINE
  5
10F
330
1F
100
AcDbEntity
  8
001
370
    50
100
AcDbLine
 10
47.215449
 20
75.435525
 30
0.0
 11
51.955878
 21
83.630621
 31
0.0
  0
POLYLINE
  5
110
330
1F
100
AcDbEntity
  8
001
370
    50
100
AcDb2dPolyline
 66
     1
 10
0.0
 20
0.0
 30
0.0
  0
VERTEX
  5
112
330
110
100
AcDbEntity
  8
001
370
    50
100
AcDbVertex
100
AcDb2dVertex
 10
52.825361
 20
84.005992
 30
0.0
  0
VERTEX
  5
113
330
110
100
AcDbEntity
  8
001
370
    50
100
AcDbVertex
100
AcDb2dVertex
 10
52.733202
 20
84.027447
 30
0.0
  0
VERTEX
  5
114
330
110
100
AcDbEntity
  8
001
370
    50
100
AcDbVertex
100
AcDb2dVertex
 10
52.640134
 20
84.041975
 30
0.0
  0
VERTEX
  5
115
330
110
100
AcDbEntity
  8
001
370
    50
100
AcDbVertex
100
AcDb2dVertex
 10
52.579369
 20
84.044775
 30
0.0
  0
VERTEX
  5
116
330
110
100
AcDbEntity
  8
001
370
    50
100
AcDbVertex
100
AcDb2dVertex
 10
52.518481
 20
84.042019
 30
0.0
  0
VERTEX
  5
117
330
110
100
AcDbEntity
  8
001
370
    50
100
AcDbVertex
100
AcDb2dVertex
 10
52.455509
 20
84.033321
 30
0.0
  0
VERTEX
  5
118
330
110
100
AcDbEntity
  8
001
370
    50
100
AcDbVertex
100
AcDb2dVertex
 10
52.393804
 20
84.018298
 30
0.0
  0
VERTEX
  5
119
330
110
100
AcDbEntity
  8
001
370
    50
100
AcDbVertex
100
AcDb2dVertex
 10
52.306699
 20
83.984249
 30
0.0
  0
VERTEX
  5
11A
330
110
100
AcDbEntity
  8
001
370
    50
100
AcDbVertex
100
AcDb2dVertex
 10
52.225477
 20
83.937441
 30
0.0
  0
VERTEX
  5
11B
330
110
100
AcDbEntity
  8
001
370
    50
100
AcDbVertex
100
AcDb2dVertex
 10
52.147036
 20
83.875779
 30
0.0
  0
VERTEX
  5
11C
330
110
100
AcDbEntity
  8
001
370
    50
100
AcDbVertex
100
AcDb2dVertex
 10
52.077846
 20
83.804153
 30
0.0
  0
VERTEX
  5
11D
330
110
100
AcDbEntity
  8
001
370
    50
100
AcDbVertex
100
AcDb2dVertex
 10
52.014014
 20
83.719586
 30
0.0
  0
VERTEX
  5
11E
330
110
100
AcDbEntity
  8
001
370
    50
100
AcDbVertex
100
AcDb2dVertex
 10
51.955878
 20
83.630621
 30
0.0
  0
SEQEND
  5
111
330
110
100
AcDbEntity
  8
001
370
    50
  0
POLYLINE
  5
11F
330
1F
100
AcDbEntity
  8
001
370
    50
100
AcDb2dPolyline
 66
     1
 10
0.0
 20
0.0
 30
0.0
  0
VERTEX
  5
121
330
11F
100
AcDbEntity
  8
001
370
    50
100
AcDbVertex
100
AcDb2dVertex
 10
53.158618
 20
61.357025
 30
0.0
  0
VERTEX
  5
122
330
11F
100
AcDbEntity
  8
001
370
    50
100
AcDbVertex
100
AcDb2dVertex
 10
52.939942
 20
61.345613
 30
0.0
  0
VERTEX
  5
123
330
11F
100
AcDbEntity
  8
001
370
    50
100
AcDbVertex
100
AcDb2dVertex
 10
52.640575
 20
61.311448
 30
0.0
  0
VERTEX
  5
124
330
11F
100
AcDbEntity
  8
001
370
    50
100
AcDbVertex
100
AcDb2dVertex
 10
52.375247
 20
61.254721
 30
0.0
  0
VERTEX
  5
125
330
11F
100
AcDbEntity
  8
001
370
    50
100
AcDbVertex
100
AcDb2dVertex
 10
52.138272
 20
61.176102
 30
0.0
  0
VERTEX
  5
126
330
11F
100
AcDbEntity
  8
001
370
    50
100
AcDbVertex
100
AcDb2dVertex
 10
51.901259
 20
61.076169
 30
0.0
  0
VERTEX
  5
127
330
11F
100
AcDbEntity
  8
001
370
    50
100
AcDbVertex
100
AcDb2dVertex
 10
51.666973
 20
60.955101
 30
0.0
  0
VERTEX
  5
128
330
11F
100
AcDbEntity
  8
001
370
    50
100
AcDbVertex
100
AcDb2dVertex
 10
51.047385
 20
60.477391
 30
0.0
  0
VERTEX
  5
129
330
11F
100
AcDbEntity
  8
001
370
    50
100
AcDbVertex
100
AcDb2dVertex
 10
50.575012
 20
59.857025
 30
0.0
  0
VERTEX
  5
12A
330
11F
100
AcDbEntity
  8
001
370
    50
100
AcDbVertex
100
AcDb2dVertex
 10
50.355139
 20
59.38218
 30
0.0
  0
VERTEX
  5
12B
330
11F
100
AcDbEntity
  8
001
370
    50
100
AcDbVertex
100
AcDb2dVertex
 10
50.22065
 20
58.877969
 30
0.0
  0
VERTEX
  5
12C
330
11F
100
AcDbEntity
  8
001
370
    50
100
AcDbVertex
100
AcDb2dVertex
 10
50.186654
 20
58.618397
 30
0.0
  0
VERTEX
  5
12D
330
11F
100
AcDbEntity
  8
001
370
    50
100
AcDbVertex
100
AcDb2dVertex
 10
50.175327
 20
58.357025
 30
0.0
  0
VERTEX
  5
12E
330
11F
100
AcDbEntity
  8
001
370
    50
100
AcDbVertex
100
AcDb2dVertex
 10
50.186654
 20
58.095652
 30
0.0
  0
VERTEX
  5
12F
330
11F
100
AcDbEntity
  8
001
370
    50
100
AcDbVertex
100
AcDb2dVertex
 10
50.22065
 20
57.83608
 30
0.0
  0
VERTEX
  5
130
330
11F
100
AcDbEntity
  8
001
370
    50
100
AcDbVertex
100
AcDb2dVertex
 10
50.355139
 20
57.331869
 30
0.0
  0
VERTEX
  5
131
330
11F
100
AcDbEntity
  8
001
370
    50
100
AcDbVertex
100
AcDb2dVertex
 10
50.575012
 20
56.857025
 30
0.0
  0
VERTEX
  5
132
330
11F
100
AcDbEntity
  8
001
370
    50
100
AcDbVertex
100
AcDb2dVertex
 10
51.047385
 20
56.236658
 30
0.0
  0
VERTEX
  5
133
330
11F
100
AcDbEntity
  8
001
370
    50
100
AcDbVertex
100
AcDb2dVertex
 10
51.666973
 20
55.758948
 30
0.0
  0
VERTEX
  5
134
330
11F
100
AcDbEntity
  8
001
370
    50
100
AcDbVertex
100
AcDb2dVertex
 10
51.901259
 20
55.63788
 30
0.0
  0
VERTEX
  5
135
330
11F
100
AcDbEntity
  8
001
370
    50
100
AcDbVertex
100
AcDb2dVertex
 10
52.138272
 20
55.537947
 30
0.0
  0
VERTEX
  5
136
330
11F
100
AcDbEntity
  8
001
370
    50
100
AcDbVertex
100
AcDb2dVertex
 10
52.375247
 20
55.459328
 30
0.0
  0
VERTEX
  5
137
330
11F
100
AcDbEntity
  8
001
370
    50
100
AcDbVertex
100
AcDb2dVertex
 10
52.640575
 20
55.402601
 30
0.0
  0
VERTEX
  5
138
330
11F
100
AcDbEntity
  8
001
370
    50
100
AcDbVertex
100
AcDb2dVertex
 10
52.939942
 20
55.368436
 30
0.0
  0
VERTEX
  5
139
330
11F
100
AcDbEntity
  8
001
370
    50
100
AcDbVertex
100
AcDb2dVertex
 10
53.158618
 20
55.357025
 30
0.0
  0
SEQEND
  5
120
330
11F
100
AcDbEntity
  8
001
370
    50
  0
POLYLINE
  5
13A
330
1F
100
AcDbEntity
  8
001
370
    50
100
AcDb2dPolyline
 66
     1
 10
0.0
 20
0.0
 30
0.0
  0
VERTEX
  5
13C
330
13A
100
AcDbEntity
  8
001
370
    50
100
AcDbVertex
100
AcDb2dVertex
 10
53.158618
 20
55.357025
 30
0.0
  0
VERTEX
  5
13D
330
13A
100
AcDbEntity
  8
001
370
    50
100
AcDbVertex
100
AcDb2dVertex
 10
53.377294
 20
55.368436
 30
0.0
  0
VERTEX
  5
13E
330
13A
100
AcDbEntity
  8
001
370
    50
100
AcDbVertex
100
AcDb2dVertex
 10
53.676661
 20
55.402601
 30
0.0
  0
VERTEX
  5
13F
330
13A
100
AcDbEntity
  8
001
370
    50
100
AcDbVertex
100
AcDb2dVertex
 10
53.941989
 20
55.459328
 30
0.0
  0
VERTEX
  5
140
330
13A
100
AcDbEntity
  8
001
370
    50
100
AcDbVertex
100
AcDb2dVertex
 10
54.178964
 20
55.537947
 30
0.0
  0
VERTEX
  5
141
330
13A
100
AcDbEntity
  8
001
370
    50
100
AcDbVertex
100
AcDb2dVertex
 10
54.415977
 20
55.63788
 30
0.0
  0
VERTEX
  5
142
330
13A
100
AcDbEntity
  8
001
370
    50
100
AcDbVertex
100
AcDb2dVertex
 10
54.650263
 20
55.758948
 30
0.0
  0
VERTEX
  5
143
330
13A
100
AcDbEntity
  8
001
370
    50
100
AcDbVertex
100
AcDb2dVertex
 10
55.269851
 20
56.236658
 30
0.0
  0
VERTEX
  5
144
330
13A
100
AcDbEntity
  8
001
370
    50
100
AcDbVertex
100
AcDb2dVertex
 10
55.742224
 20
56.857025
 30
0.0
  0
VERTEX
  5
145
330
13A
100
AcDbEntity
  8
001
370
    50
100
AcDbVertex
100
AcDb2dVertex
 10
55.962097
 20
57.331869
 30
0.0
  0
VERTEX
  5
146
330
13A
100
AcDbEntity
  8
001
370
    50
100
AcDbVertex
100
AcDb2dVertex
 10
56.096586
 20
57.83608
 30
0.0
  0
VERTEX
  5
147
330
13A
100
AcDbEntity
  8
001
370
    50
100
AcDbVertex
100
AcDb2dVertex
 10
56.130582
 20
58.095652
 30
0.0
  0
VERTEX
  5
148
330
13A
100
AcDbEntity
  8
001
370
    50
100
AcDbVertex
100
AcDb2dVertex
 10
56.141909
 20
58.357025
 30
0.0
  0
VERTEX
  5
149
330
13A
100
AcDbEntity
  8
001
370
    50
100
AcDbVertex
100
AcDb2dVertex
 10
56.130582
 20
58.618397
 30
0.0
  0
VERTEX
  5
14A
330
13A
100
AcDbEntity
  8
001
370
    50
100
AcDbVertex
100
AcDb2dVertex
 10
56.096586
 20
58.877969
 30
0.0
  0
VERTEX
  5
14B
330
13A
100
AcDbEntity
  8
001
370
    50
100
AcDbVertex
100
AcDb2dVertex
 10
55.962097
 20
59.38218
 30
0.0
  0
VERTEX
  5
14C
330
13A
100
AcDbEntity
  8
001
370
    50
100
AcDbVertex
100
AcDb2dVertex
 10
55.742224
 20
59.857025
 30
0.0
  0
VERTEX
  5
14D
330
13A
100
AcDbEntity
  8
001
370
    50
100
AcDbVertex
100
AcDb2dVertex
 10
55.269851
 20
60.477391
 30
0.0
  0
VERTEX
  5
14E
330
13A
100
AcDbEntity
  8
001
370
    50
100
AcDbVertex
100
AcDb2dVertex
 10
54.650263
 20
60.955101
 30
0.0
  0
VERTEX
  5
14F
330
13A
100
AcDbEntity
  8
001
370
    50
100
AcDbVertex
100
AcDb2dVertex
 10
54.415977
 20
61.076169
 30
0.0
  0
VERTEX
  5
150
330
13A
100
AcDbEntity
  8
001
370
    50
100
AcDbVertex
100
AcDb2dVertex
 10
54.178964
 20
61.176102
 30
0.0
  0
VERTEX
  5
151
330
13A
100
AcDbEntity
  8
001
370
    50
100
AcDbVertex
100
AcDb2dVertex
 10
53.941989
 20
61.254721
 30
0.0
  0
VERTEX
  5
152
330
13A
100
AcDbEntity
  8
001
370
    50
100
AcDbVertex
100
AcDb2dVertex
 10
53.676661
 20
61.311448
 30
0.0
  0
VERTEX
  5
153
330
13A
100
AcDbEntity
  8
001
370
    50
100
AcDbVertex
100
AcDb2dVertex
 10
53.377294
 20
61.345613
 30
0.0
  0
VERTEX
  5
154
330
13A
100
AcDbEntity
  8
001
370
    50
100
AcDbVertex
100
AcDb2dVertex
 10
53.158618
 20
61.357025
 30
0.0
  0
SEQEND
  5
13B
330
13A
100
AcDbEntity
  8
001
370
    50
  0
ARC
  5
155
330
1F
100
AcDbEntity
  8
001
370
    50
100
AcDbCircle
 10
74.379054
 20
84.32395
 30
0.0
 40
1.0
100
AcDbArc
 50
0.0
 51
90.0
  0
ARC
  5
156
330
1F
100
AcDbEntity
  8
001
370
    50
100
AcDbCircle
 10
74.379054
 20
51.32395
 30
0.0
 40
1.0
100
AcDbArc
 50
270.0
 51
0.0
  0
LINE
  5
157
330
1F
100
AcDbEntity
  8
001
370
    50
100
AcDbLine
 10
75.379054
 20
84.32395
 30
0.0
 11
75.379054
 21
51.32395
 31
0.0
  0
LINE
  5
158
330
1F
100
AcDbEntity
  8
001
370
    50
100
AcDbLine
 10
67.232507
 20
80.202391
 30
0.0
 11
67.232507
 21
55.445509
 31
0.0
  0
POLYLINE
  5
159
330
1F
100
AcDbEntity
  8
001
370
    50
100
AcDb2dPolyline
 66
     1
 10
0.0
 20
0.0
 30
0.0
  0
VERTEX
  5
15B
330
159
100
AcDbEntity
  8
001
370
    50
100
AcDbVertex
100
AcDb2dVertex
 10
67.232507
 20
55.445509
 30
0.0
  0
VERTEX
  5
15C
330
159
100
AcDbEntity
  8
001
370
    50
100
AcDbVertex
100
AcDb2dVertex
 10
68.248664
 20
56.918575
 30
0.0
  0
VERTEX
  5
15D
330
159
100
AcDbEntity
  8
001
370
    50
100
AcDbVertex
100
AcDb2dVertex
 10
69.483855
 20
59.07395
 30
0.0
  0
VERTEX
  5
15E
330
159
100
AcDbEntity
  8
001
370
    50
100
AcDbVertex
100
AcDb2dVertex
 10
70.617388
 20
61.974001
 30
0.0
  0
VERTEX
  5
15F
330
159
100
AcDbEntity
  8
001
370
    50
100
AcDbVertex
100
AcDb2dVertex
 10
71.164144
 20
64.785107
 30
0.0
  0
VERTEX
  5
160
330
159
100
AcDbEntity
  8
001
370
    50
100
AcDbVertex
100
AcDb2dVertex
 10
71.319338
 20
66.287746
 30
0.0
  0
VERTEX
  5
161
330
159
100
AcDbEntity
  8
001
370
    50
100
AcDbVertex
100
AcDb2dVertex
 10
71.379053
 20
67.82395
 30
0.0
  0
VERTEX
  5
162
330
159
100
AcDbEntity
  8
001
370
    50
100
AcDbVertex
100
AcDb2dVertex
 10
71.319338
 20
69.360154
 30
0.0
  0
VERTEX
  5
163
330
159
100
AcDbEntity
  8
001
370
    50
100
AcDbVertex
100
AcDb2dVertex
 10
71.164144
 20
70.862793
 30
0.0
  0
VERTEX
  5
164
330
159
100
AcDbEntity
  8
001
370
    50
100
AcDbVertex
100
AcDb2dVertex
 10
70.617388
 20
73.673899
 30
0.0
  0
VERTEX
  5
165
330
159
100
AcDbEntity
  8
001
370
    50
100
AcDbVertex
100
AcDb2dVertex
 10
69.483855
 20
76.57395
 30
0.0
  0
VERTEX
  5
166
330
159
100
AcDbEntity
  8
001
370
    50
100
AcDbVertex
100
AcDb2dVertex
 10
68.248664
 20
78.729325
 30
0.0
  0
VERTEX
  5
167
330
159
100
AcDbEntity
  8
001
370
    50
100
AcDbVertex
100
AcDb2dVertex
 10
67.232507
 20
80.202391
 30
0.0
  0
SEQEND
  5
15A
330
159
100
AcDbEntity
  8
001
370
    50
  0
POLYLINE
  5
168
330
1F
100
AcDbEntity
  8
001
370
    50
100
AcDb2dPolyline
 66
     1
 10
0.0
 20
0.0
 30
0.0
  0
VERTEX
  5
16A
330
168
100
AcDbEntity
  8
001
370
    50
100
AcDbVertex
100
AcDb2dVertex
 10
53.995569
 20
85.32395
 30
0.0
  0
VERTEX
  5
16B
330
168
100
AcDbEntity
  8
001
370
    50
100
AcDbVertex
100
AcDb2dVertex
 10
53.992208
 20
85.323366
 30
0.0
  0
VERTEX
  5
16C
330
168
100
AcDbEntity
  8
001
370
    50
100
AcDbVertex
100
AcDb2dVertex
 10
53.987481
 20
85.321971
 30
0.0
  0
VERTEX
  5
16D
330
168
100
AcDbEntity
  8
001
370
    50
100
AcDbVertex
100
AcDb2dVertex
 10
53.969083
 20
85.217433
 30
0.0
  0
VERTEX
  5
16E
330
168
100
AcDbEntity
  8
001
370
    50
100
AcDbVertex
100
AcDb2dVertex
 10
54.022094
 20
85.108404
 30
0.0
  0
SEQEND
  5
169
330
168
100
AcDbEntity
  8
001
370
    50
  0
LINE
  5
16F
330
1F
100
AcDbEntity
  8
001
370
    50
100
AcDbLine
 10
74.379054
 20
85.32395
 30
0.0
 11
53.995569
 21
85.32395
 31
0.0
  0
LINE
  5
170
330
1F
100
AcDbEntity
  8
001
370
    50
100
AcDbLine
 10
54.039494
 20
50.32395
 30
0.0
 11
74.379054
 21
50.32395
 31
0.0
  0
POLYLINE
  5
171
330
1F
100
AcDbEntity
  8
001
370
    50
100
AcDb2dPolyline
 66
     1
 10
0.0
 20
0.0
 30
0.0
  0
VERTEX
  5
173
330
171
100
AcDbEntity
  8
001
370
    50
100
AcDbVertex
100
AcDb2dVertex
 10
54.050564
 20
50.355776
 30
0.0
  0
VERTEX
  5
174
330
171
100
AcDbEntity
  8
001
370
    50
100
AcDbVertex
100
AcDb2dVertex
 10
56.134315
 20
50.370704
 30
0.0
  0
VERTEX
  5
175
330
171
100
AcDbEntity
  8
001
370
    50
100
AcDbVertex
100
AcDb2dVertex
 10
59.179756
 20
50.397115
 30
0.0
  0
VERTEX
  5
176
330
171
100
AcDbEntity
  8
001
370
    50
100
AcDbVertex
100
AcDb2dVertex
 10
62.216542
 20
50.429838
 30
0.0
  0
VERTEX
  5
177
330
171
100
AcDbEntity
  8
001
370
    50
100
AcDbVertex
100
AcDb2dVertex
 10
64.294309
 20
50.455368
 30
0.0
  0
SEQEND
  5
172
330
171
100
AcDbEntity
  8
001
370
    50
  0
POLYLINE
  5
178
330
1F
100
AcDbEntity
  8
001
370
    50
100
AcDb2dPolyline
 66
     1
 10
0.0
 20
0.0
 30
0.0
  0
VERTEX
  5
17A
330
178
100
AcDbEntity
  8
001
370
    50
100
AcDbVertex
100
AcDb2dVertex
 10
64.294309
 20
50.455368
 30
0.0
  0
VERTEX
  5
17B
330
178
100
AcDbEntity
  8
001
370
    50
100
AcDbVertex
100
AcDb2dVertex
 10
64.353097
 20
50.456506
 30
0.0
  0
VERTEX
  5
17C
330
178
100
AcDbEntity
  8
001
370
    50
100
AcDbVertex
100
AcDb2dVertex
 10
64.411969
 20
50.457798
 30
0.0
  0
VERTEX
  5
17D
330
178
100
AcDbEntity
  8
001
370
    50
100
AcDbVertex
100
AcDb2dVertex
 10
64.566423
 20
50.463146
 30
0.0
  0
VERTEX
  5
17E
330
178
100
AcDbEntity
  8
001
370
    50
100
AcDbVertex
100
AcDb2dVertex
 10
64.719595
 20
50.474099
 30
0.0
  0
VERTEX
  5
17F
330
178
100
AcDbEntity
  8
001
370
    50
100
AcDbVertex
100
AcDb2dVertex
 10
64.842566
 20
50.488523
 30
0.0
  0
VERTEX
  5
180
330
178
100
AcDbEntity
  8
001
370
    50
100
AcDbVertex
100
AcDb2dVertex
 10
64.968173
 20
50.504653
 30
0.0
  0
VERTEX
  5
181
330
178
100
AcDbEntity
  8
001
370
    50
100
AcDbVertex
100
AcDb2dVertex
 10
65.05427
 20
50.517772
 30
0.0
  0
VERTEX
  5
182
330
178
100
AcDbEntity
  8
001
370
    50
100
AcDbVertex
100
AcDb2dVertex
 10
65.13069
 20
50.549214
 30
0.0
  0
VERTEX
  5
183
330
178
100
AcDbEntity
  8
001
370
    50
100
AcDbVertex
100
AcDb2dVertex
 10
65.161157
 20
50.575893
 30
0.0
  0
VERTEX
  5
184
330
178
100
AcDbEntity
  8
001
370
    50
100
AcDbVertex
100
AcDb2dVertex
 10
65.188913
 20
50.607057
 30
0.0
  0
SEQEND
  5
179
330
178
100
AcDbEntity
  8
001
370
    50
  0
POLYLINE
  5
185
330
1F
100
AcDbEntity
  8
001
370
    50
100
AcDb2dPolyline
 66
     1
 10
0.0
 20
0.0
 30
0.0
  0
VERTEX
  5
187
330
185
100
AcDbEntity
  8
001
370
    50
100
AcDbVertex
100
AcDb2dVertex
 10
64.249216
 20
55.137401
 30
0.0
  0
VERTEX
  5
188
330
185
100
AcDbEntity
  8
001
370
    50
100
AcDbVertex
100
AcDb2dVertex
 10
64.390211
 20
54.068227
 30
0.0
  0
VERTEX
  5
189
330
185
100
AcDbEntity
  8
001
370
    50
100
AcDbVertex
100
AcDb2dVertex
 10
64.599407
 20
52.668505
 30
0.0
  0
VERTEX
  5
18A
330
185
100
AcDbEntity
  8
001
370
    50
100
AcDbVertex
100
AcDb2dVertex
 10
64.714579
 20
52.034842
 30
0.0
  0
VERTEX
  5
18B
330
185
100
AcDbEntity
  8
001
370
    50
100
AcDbVertex
100
AcDb2dVertex
 10
64.892422
 20
51.379329
 30
0.0
  0
VERTEX
  5
18C
330
185
100
AcDbEntity
  8
001
370
    50
100
AcDbVertex
100
AcDb2dVertex
 10
65.048911
 20
50.936635
 30
0.0
  0
VERTEX
  5
18D
330
185
100
AcDbEntity
  8
001
370
    50
100
AcDbVertex
100
AcDb2dVertex
 10
65.183343
 20
50.626585
 30
0.0
  0
SEQEND
  5
186
330
185
100
AcDbEntity
  8
001
370
    50
  0
POLYLINE
  5
18E
330
1F
100
AcDbEntity
  8
001
370
    50
100
AcDb2dPolyline
 66
     1
 10
0.0
 20
0.0
 30
0.0
  0
VERTEX
  5
190
330
18E
100
AcDbEntity
  8
001
370
    50
100
AcDbVertex
100
AcDb2dVertex
 10
64.249216
 20
55.137401
 30
0.0
  0
VERTEX
  5
191
330
18E
100
AcDbEntity
  8
001
370
    50
100
AcDbVertex
100
AcDb2dVertex
 10
64.858964
 20
55.199159
 30
0.0
  0
VERTEX
  5
192
330
18E
100
AcDbEntity
  8
001
370
    50
100
AcDbVertex
100
AcDb2dVertex
 10
65.750029
 20
55.290458
 30
0.0
  0
VERTEX
  5
193
330
18E
100
AcDbEntity
  8
001
370
    50
100
AcDbVertex
100
AcDb2dVertex
 10
66.630294
 20
55.382099
 30
0.0
  0
VERTEX
  5
194
330
18E
100
AcDbEntity
  8
001
370
    50
100
AcDbVertex
100
AcDb2dVertex
 10
67.232507
 20
55.445509
 30
0.0
  0
SEQEND
  5
18F
330
18E
100
AcDbEntity
  8
001
370
    50
  0
POLYLINE
  5
195
330
1F
100
AcDbEntity
  8
001
370
    50
100
AcDb2dPolyline
 66
     1
 10
0.0
 20
0.0
 30
0.0
  0
VERTEX
  5
197
330
195
100
AcDbEntity
  8
001
370
    50
100
AcDbVertex
100
AcDb2dVertex
 10
67.232507
 20
80.202391
 30
0.0
  0
VERTEX
  5
198
330
195
100
AcDbEntity
  8
001
370
    50
100
AcDbVertex
100
AcDb2dVertex
 10
65.61864
 20
80.370188
 30
0.0
  0
VERTEX
  5
199
330
195
100
AcDbEntity
  8
001
370
    50
100
AcDbVertex
100
AcDb2dVertex
 10
63.259194
 20
80.608369
 30
0.0
  0
VERTEX
  5
19A
330
195
100
AcDbEntity
  8
001
370
    50
100
AcDbVertex
100
AcDb2dVertex
 10
60.526232
 20
80.874069
 30
0.0
  0
VERTEX
  5
19B
330
195
100
AcDbEntity
  8
001
370
    50
100
AcDbVertex
100
AcDb2dVertex
 10
57.654845
 20
81.139325
 30
0.0
  0
VERTEX
  5
19C
330
195
100
AcDbEntity
  8
001
370
    50
100
AcDbVertex
100
AcDb2dVertex
 10
55.174145
 20
81.359139
 30
0.0
  0
VERTEX
  5
19D
330
195
100
AcDbEntity
  8
001
370
    50
100
AcDbVertex
100
AcDb2dVertex
 10
53.476422
 20
81.504994
 30
0.0
  0
SEQEND
  5
196
330
195
100
AcDbEntity
  8
001
370
    50
  0
LINE
  5
19E
330
1F
100
AcDbEntity
  8
001
370
    50
100
AcDbLine
 10
53.476422
 20
85.099143
 30
0.0
 11
53.476422
 21
81.504994
 31
0.0
  0
POLYLINE
  5
19F
330
1F
100
AcDbEntity
  8
001
370
    50
100
AcDb2dPolyline
 66
     1
 10
0.0
 20
0.0
 30
0.0
  0
VERTEX
  5
1A1
330
19F
100
AcDbEntity
  8
001
370
    50
100
AcDbVertex
100
AcDb2dVertex
 10
54.022094
 20
85.108404
 30
0.0
  0
VERTEX
  5
1A2
330
19F
100
AcDbEntity
  8
001
370
    50
100
AcDbVertex
100
AcDb2dVertex
 10
53.91124
 20
85.106538
 30
0.0
  0
VERTEX
  5
1A3
330
19F
100
AcDbEntity
  8
001
370
    50
100
AcDbVertex
100
AcDb2dVertex
 10
53.749222
 20
85.103798
 30
0.0
  0
VERTEX
  5
1A4
330
19F
100
AcDbEntity
  8
001
370
    50
100
AcDbVertex
100
AcDb2dVertex
 10
53.587247
 20
85.101039
 30
0.0
  0
VERTEX
  5
1A5
330
19F
100
AcDbEntity
  8
001
370
    50
100
AcDbVertex
100
AcDb2dVertex
 10
53.476422
 20
85.099143
 30
0.0
  0
SEQEND
  5
1A0
330
19F
100
AcDbEntity
  8
001
370
    50
  0
LINE
  5
1A6
330
1F
100
AcDbEntity
  8
001
370
    50
100
AcDbLine
 10
147.379054
 20
83.82395
 30
0.0
 11
77.379054
 21
83.82395
 31
0.0
  0
LINE
  5
1A7
330
1F
100
AcDbEntity
  8
001
370
    50
100
AcDbLine
 10
77.379054
 20
51.82395
 30
0.0
 11
147.379054
 21
51.82395
 31
0.0
  0
LINE
  5
1A8
330
1F
100
AcDbEntity
  8
001
370
    50
100
AcDbLine
 10
77.379054
 20
83.82395
 30
0.0
 11
77.379054
 21
51.82395
 31
0.0
  0
ARC
  5
1A9
330
1F
100
AcDbEntity
  8
001
370
    50
100
AcDbCircle
 10
147.379054
 20
75.82395
 30
0.0
 40
8.0
100
AcDbArc
 50
0.0
 51
90.0
  0
ARC
  5
1AA
330
1F
100
AcDbEntity
  8
001
370
    50
100
AcDbCircle
 10
147.379054
 20
59.82395
 30
0.0
 40
8.0
100
AcDbArc
 50
270.0
 51
0.0
  0
LINE
  5
1AB
330
1F
100
AcDbEntity
  8
001
370
    50
100
AcDbLine
 10
155.379054
 20
75.82395
 30
0.0
 11
155.379054
 21
59.82395
 31
0.0
  0
LINE
  5
1AC
330
1F
100
AcDbEntity
  8
001
370
    50
100
AcDbLine
 10
77.379054
 20
83.32395
 30
0.0
 11
75.379054
 21
83.32395
 31
0.0
  0
LINE
  5
1AD
330
1F
100
AcDbEntity
  8
001
370
    50
100
AcDbLine
 10
75.379054
 20
52.32395
 30
0.0
 11
77.379054
 21
52.32395
 31
0.0
  0
POLYLINE
  5
1AE
330
1F
100
AcDbEntity
  8
001
370
    50
100
AcDb2dPolyline
 66
     1
 10
0.0
 20
0.0
 30
0.0
  0
VERTEX
  5
1B0
330
1AE
100
AcDbEntity
  8
001
370
    50
100
AcDbVertex
100
AcDb2dVertex
 10
54.449214
 20
75.640875
 30
0.0
  0
VERTEX
  5
1B1
330
1AE
100
AcDbEntity
  8
001
370
    50
100
AcDbVertex
100
AcDb2dVertex
 10
54.570674
 20
75.64714
 30
0.0
  0
VERTEX
  5
1B2
330
1AE
100
AcDbEntity
  8
001
370
    50
100
AcDbVertex
100
AcDb2dVertex
 10
54.740611
 20
75.665942
 30
0.0
  0
VERTEX
  5
1B3
330
1AE
100
AcDbEntity
  8
001
370
    50
100
AcDbVertex
100
AcDb2dVertex
 10
55.039173
 20
75.740251
 30
0.0
  0
VERTEX
  5
1B4
330
1AE
100
AcDbEntity
  8
001
370
    50
100
AcDbVertex
100
AcDb2dVertex
 10
55.288259
 20
75.861933
 30
0.0
  0
VERTEX
  5
1B5
330
1AE
100
AcDbEntity
  8
001
370
    50
100
AcDbVertex
100
AcDb2dVertex
 10
55.628241
 20
76.122784
 30
0.0
  0
VERTEX
  5
1B6
330
1AE
100
AcDbEntity
  8
001
370
    50
100
AcDbVertex
100
AcDb2dVertex
 10
55.902484
 20
76.465875
 30
0.0
  0
VERTEX
  5
1B7
330
1AE
100
AcDbEntity
  8
001
370
    50
100
AcDbVertex
100
AcDb2dVertex
 10
55.970521
 20
76.595407
 30
0.0
  0
VERTEX
  5
1B8
330
1AE
100
AcDbEntity
  8
001
370
    50
100
AcDbVertex
100
AcDb2dVertex
 10
56.026104
 20
76.726542
 30
0.0
  0
VERTEX
  5
1B9
330
1AE
100
AcDbEntity
  8
001
370
    50
100
AcDbVertex
100
AcDb2dVertex
 10
56.069981
 20
76.857566
 30
0.0
  0
VERTEX
  5
1BA
330
1AE
100
AcDbEntity
  8
001
370
    50
100
AcDbVertex
100
AcDb2dVertex
 10
56.101811
 20
77.004356
 30
0.0
  0
VERTEX
  5
1BB
330
1AE
100
AcDbEntity
  8
001
370
    50
100
AcDbVertex
100
AcDb2dVertex
 10
56.120938
 20
77.169922
 30
0.0
  0
VERTEX
  5
1BC
330
1AE
100
AcDbEntity
  8
001
370
    50
100
AcDbVertex
100
AcDb2dVertex
 10
56.127305
 20
77.290875
 30
0.0
  0
SEQEND
  5
1AF
330
1AE
100
AcDbEntity
  8
001
370
    50
  0
LINE
  5
1BD
330
1F
100
AcDbEntity
  8
001
370
    50
100
AcDbLine
 10
64.249216
 20
55.137401
 30
0.0
 11
64.249216
 21
60.22395
 31
0.0
  0
POLYLINE
  5
1BE
330
1F
100
AcDbEntity
  8
001
370
    50
100
AcDb2dPolyline
 66
     1
 10
0.0
 20
0.0
 30
0.0
  0
VERTEX
  5
1C0
330
1BE
100
AcDbEntity
  8
001
370
    50
100
AcDbVertex
100
AcDb2dVertex
 10
64.249216
 20
60.22395
 30
0.0
  0
VERTEX
  5
1C1
330
1BE
100
AcDbEntity
  8
001
370
    50
100
AcDbVertex
100
AcDb2dVertex
 10
64.226561
 20
60.65825
 30
0.0
  0
VERTEX
  5
1C2
330
1BE
100
AcDbEntity
  8
001
370
    50
100
AcDbVertex
100
AcDb2dVertex
 10
64.15857
 20
61.265839
 30
0.0
  0
VERTEX
  5
1C3
330
1BE
100
AcDbEntity
  8
001
370
    50
100
AcDbVertex
100
AcDb2dVertex
 10
63.889592
 20
62.334076
 30
0.0
  0
VERTEX
  5
1C4
330
1BE
100
AcDbEntity
  8
001
370
    50
100
AcDbVertex
100
AcDb2dVertex
 10
63.449845
 20
63.22395
 30
0.0
  0
VERTEX
  5
1C5
330
1BE
100
AcDbEntity
  8
001
370
    50
100
AcDbVertex
100
AcDb2dVertex
 10
62.505101
 20
64.44083
 30
0.0
  0
VERTEX
  5
1C6
330
1BE
100
AcDbEntity
  8
001
370
    50
100
AcDbVertex
100
AcDb2dVertex
 10
61.265925
 20
65.420102
 30
0.0
  0
VERTEX
  5
1C7
330
1BE
100
AcDbEntity
  8
001
370
    50
100
AcDbVertex
100
AcDb2dVertex
 10
60.797353
 20
65.663485
 30
0.0
  0
VERTEX
  5
1C8
330
1BE
100
AcDbEntity
  8
001
370
    50
100
AcDbVertex
100
AcDb2dVertex
 10
60.323325
 20
65.862106
 30
0.0
  0
VERTEX
  5
1C9
330
1BE
100
AcDbEntity
  8
001
370
    50
100
AcDbVertex
100
AcDb2dVertex
 10
59.849376
 20
66.019015
 30
0.0
  0
VERTEX
  5
1CA
330
1BE
100
AcDbEntity
  8
001
370
    50
100
AcDbVertex
100
AcDb2dVertex
 10
59.31872
 20
66.132796
 30
0.0
  0
VERTEX
  5
1CB
330
1BE
100
AcDbEntity
  8
001
370
    50
100
AcDbVertex
100
AcDb2dVertex
 10
58.719986
 20
66.201193
 30
0.0
  0
VERTEX
  5
1CC
330
1BE
100
AcDbEntity
  8
001
370
    50
100
AcDbVertex
100
AcDb2dVertex
 10
58.282634
 20
66.22395
 30
0.0
  0
SEQEND
  5
1BF
330
1BE
100
AcDbEntity
  8
001
370
    50
  0
POLYLINE
  5
1CD
330
1F
100
AcDbEntity
  8
001
370
    50
100
AcDb2dPolyline
 66
     1
 10
0.0
 20
0.0
 30
0.0
  0
VERTEX
  5
1CF
330
1CD
100
AcDbEntity
  8
001
370
    50
100
AcDbVertex
100
AcDb2dVertex
 10
53.476422
 20
81.504994
 30
0.0
  0
VERTEX
  5
1D0
330
1CD
100
AcDbEntity
  8
001
370
    50
100
AcDbVertex
100
AcDb2dVertex
 10
52.959756
 20
80.451691
 30
0.0
  0
VERTEX
  5
1D1
330
1CD
100
AcDbEntity
  8
001
370
    50
100
AcDbVertex
100
AcDb2dVertex
 10
52.452509
 20
79.393885
 30
0.0
  0
VERTEX
  5
1D2
330
1CD
100
AcDbEntity
  8
001
370
    50
100
AcDbVertex
100
AcDb2dVertex
 10
51.962706
 20
78.327807
 30
0.0
  0
VERTEX
  5
1D3
330
1CD
100
AcDbEntity
  8
001
370
    50
100
AcDbVertex
100
AcDb2dVertex
 10
51.492872
 20
77.252744
 30
0.0
  0
VERTEX
  5
1D4
330
1CD
100
AcDbEntity
  8
001
370
    50
100
AcDbVertex
100
AcDb2dVertex
 10
51.189397
 20
76.525507
 30
0.0
  0
VERTEX
  5
1D5
330
1CD
100
AcDbEntity
  8
001
370
    50
100
AcDbVertex
100
AcDb2dVertex
 10
50.897689
 20
75.793495
 30
0.0
  0
VERTEX
  5
1D6
330
1CD
100
AcDbEntity
  8
001
370
    50
100
AcDbVertex
100
AcDb2dVertex
 10
50.619875
 20
75.055766
 30
0.0
  0
VERTEX
  5
1D7
330
1CD
100
AcDbEntity
  8
001
370
    50
100
AcDbVertex
100
AcDb2dVertex
 10
50.358201
 20
74.312139
 30
0.0
  0
VERTEX
  5
1D8
330
1CD
100
AcDbEntity
  8
001
370
    50
100
AcDbVertex
100
AcDb2dVertex
 10
50.115005
 20
73.562751
 30
0.0
  0
VERTEX
  5
1D9
330
1CD
100
AcDbEntity
  8
001
370
    50
100
AcDbVertex
100
AcDb2dVertex
 10
49.892628
 20
72.806962
 30
0.0
  0
VERTEX
  5
1DA
330
1CD
100
AcDbEntity
  8
001
370
    50
100
AcDbVertex
100
AcDb2dVertex
 10
49.761386
 20
72.315623
 30
0.0
  0
VERTEX
  5
1DB
330
1CD
100
AcDbEntity
  8
001
370
    50
100
AcDbVertex
100
AcDb2dVertex
 10
49.64083
 20
71.821562
 30
0.0
  0
VERTEX
  5
1DC
330
1CD
100
AcDbEntity
  8
001
370
    50
100
AcDbVertex
100
AcDb2dVertex
 10
49.531805
 20
71.32452
 30
0.0
  0
VERTEX
  5
1DD
330
1CD
100
AcDbEntity
  8
001
370
    50
100
AcDbVertex
100
AcDb2dVertex
 10
49.435181
 20
70.824915
 30
0.0
  0
VERTEX
  5
1DE
330
1CD
100
AcDbEntity
  8
001
370
    50
100
AcDbVertex
100
AcDb2dVertex
 10
49.351825
 20
70.323286
 30
0.0
  0
VERTEX
  5
1DF
330
1CD
100
AcDbEntity
  8
001
370
    50
100
AcDbVertex
100
AcDb2dVertex
 10
49.282637
 20
69.819509
 30
0.0
  0
VERTEX
  5
1E0
330
1CD
100
AcDbEntity
  8
001
370
    50
100
AcDbVertex
100
AcDb2dVertex
 10
49.227166
 20
69.299019
 30
0.0
  0
VERTEX
  5
1E1
330
1CD
100
AcDbEntity
  8
001
370
    50
100
AcDbVertex
100
AcDb2dVertex
 10
49.188143
 20
68.777046
 30
0.0
  0
VERTEX
  5
1E2
330
1CD
100
AcDbEntity
  8
001
370
    50
100
AcDbVertex
100
AcDb2dVertex
 10
49.165808
 20
68.253562
 30
0.0
  0
VERTEX
  5
1E3
330
1CD
100
AcDbEntity
  8
001
370
    50
100
AcDbVertex
100
AcDb2dVertex
 10
49.160026
 20
67.729593
 30
0.0
  0
VERTEX
  5
1E4
330
1CD
100
AcDbEntity
  8
001
370
    50
100
AcDbVertex
100
AcDb2dVertex
 10
49.17084
 20
67.206239
 30
0.0
  0
VERTEX
  5
1E5
330
1CD
100
AcDbEntity
  8
001
370
    50
100
AcDbVertex
100
AcDb2dVertex
 10
49.199707
 20
66.683665
 30
0.0
  0
VERTEX
  5
1E6
330
1CD
100
AcDbEntity
  8
001
370
    50
100
AcDbVertex
100
AcDb2dVertex
 10
49.218288
 20
66.453731
 30
0.0
  0
VERTEX
  5
1E7
330
1CD
100
AcDbEntity
  8
001
370
    50
100
AcDbVertex
100
AcDb2dVertex
 10
49.2388
 20
66.22395
 30
0.0
  0
SEQEND
  5
1CE
330
1CD
100
AcDbEntity
  8
001
370
    50
  0
POLYLINE
  5
1E8
330
1F
100
AcDbEntity
  8
001
370
    50
100
AcDb2dPolyline
 66
     1
 10
0.0
 20
0.0
 30
0.0
  0
VERTEX
  5
1EA
330
1E8
100
AcDbEntity
  8
001
370
    50
100
AcDbVertex
100
AcDb2dVertex
 10
47.379054
 20
74.543576
 30
0.0
  0
VERTEX
  5
1EB
330
1E8
100
AcDbEntity
  8
001
370
    50
100
AcDbVertex
100
AcDb2dVertex
 10
47.863014
 20
75.43878
 30
0.0
  0
VERTEX
  5
1EC
330
1E8
100
AcDbEntity
  8
001
370
    50
100
AcDbVertex
100
AcDb2dVertex
 10
48.35217
 20
76.331109
 30
0.0
  0
VERTEX
  5
1ED
330
1E8
100
AcDbEntity
  8
001
370
    50
100
AcDbVertex
100
AcDb2dVertex
 10
48.850233
 20
77.218469
 30
0.0
  0
VERTEX
  5
1EE
330
1E8
100
AcDbEntity
  8
001
370
    50
100
AcDbVertex
100
AcDb2dVertex
 10
49.355048
 20
78.102048
 30
0.0
  0
VERTEX
  5
1EF
330
1E8
100
AcDbEntity
  8
001
370
    50
100
AcDbVertex
100
AcDb2dVertex
 10
50.375429
 20
79.864203
 30
0.0
  0
VERTEX
  5
1F0
330
1E8
100
AcDbEntity
  8
001
370
    50
100
AcDbVertex
100
AcDb2dVertex
 10
51.406338
 20
81.620187
 30
0.0
  0
VERTEX
  5
1F1
330
1E8
100
AcDbEntity
  8
001
370
    50
100
AcDbVertex
100
AcDb2dVertex
 10
52.439254
 20
83.360922
 30
0.0
  0
VERTEX
  5
1F2
330
1E8
100
AcDbEntity
  8
001
370
    50
100
AcDbVertex
100
AcDb2dVertex
 10
53.476422
 20
85.099143
 30
0.0
  0
SEQEND
  5
1E9
330
1E8
100
AcDbEntity
  8
001
370
    50
  0
POLYLINE
  5
1F3
330
1F
100
AcDbEntity
  8
001
370
    50
100
AcDb2dPolyline
 66
     1
 10
0.0
 20
0.0
 30
0.0
  0
VERTEX
  5
1F5
330
1F3
100
AcDbEntity
  8
001
370
    50
100
AcDbVertex
100
AcDb2dVertex
 10
56.127305
 20
77.290875
 30
0.0
  0
VERTEX
  5
1F6
330
1F3
100
AcDbEntity
  8
001
370
    50
100
AcDbVertex
100
AcDb2dVertex
 10
56.120938
 20
77.411828
 30
0.0
  0
VERTEX
  5
1F7
330
1F3
100
AcDbEntity
  8
001
370
    50
100
AcDbVertex
100
AcDb2dVertex
 10
56.101811
 20
77.577395
 30
0.0
  0
VERTEX
  5
1F8
330
1F3
100
AcDbEntity
  8
001
370
    50
100
AcDbVertex
100
AcDb2dVertex
 10
56.069981
 20
77.724184
 30
0.0
  0
VERTEX
  5
1F9
330
1F3
100
AcDbEntity
  8
001
370
    50
100
AcDbVertex
100
AcDb2dVertex
 10
56.026104
 20
77.855209
 30
0.0
  0
VERTEX
  5
1FA
330
1F3
100
AcDbEntity
  8
001
370
    50
100
AcDbVertex
100
AcDb2dVertex
 10
55.970521
 20
77.986344
 30
0.0
  0
VERTEX
  5
1FB
330
1F3
100
AcDbEntity
  8
001
370
    50
100
AcDbVertex
100
AcDb2dVertex
 10
55.902484
 20
78.115875
 30
0.0
  0
VERTEX
  5
1FC
330
1F3
100
AcDbEntity
  8
001
370
    50
100
AcDbVertex
100
AcDb2dVertex
 10
55.628241
 20
78.458967
 30
0.0
  0
VERTEX
  5
1FD
330
1F3
100
AcDbEntity
  8
001
370
    50
100
AcDbVertex
100
AcDb2dVertex
 10
55.288259
 20
78.719817
 30
0.0
  0
VERTEX
  5
1FE
330
1F3
100
AcDbEntity
  8
001
370
    50
100
AcDbVertex
100
AcDb2dVertex
 10
55.039173
 20
78.841499
 30
0.0
  0
VERTEX
  5
1FF
330
1F3
100
AcDbEntity
  8
001
370
    50
100
AcDbVertex
100
AcDb2dVertex
 10
54.740611
 20
78.915808
 30
0.0
  0
VERTEX
  5
200
330
1F3
100
AcDbEntity
  8
001
370
    50
100
AcDbVertex
100
AcDb2dVertex
 10
54.570674
 20
78.93461
 30
0.0
  0
VERTEX
  5
201
330
1F3
100
AcDbEntity
  8
001
370
    50
100
AcDbVertex
100
AcDb2dVertex
 10
54.449214
 20
78.940875
 30
0.0
  0
SEQEND
  5
1F4
330
1F3
100
AcDbEntity
  8
001
370
    50
  0
POLYLINE
  5
202
330
1F
100
AcDbEntity
  8
001
370
    50
100
AcDb2dPolyline
 66
     1
 10
0.0
 20
0.0
 30
0.0
  0
VERTEX
  5
204
330
202
100
AcDbEntity
  8
001
370
    50
100
AcDbVertex
100
AcDb2dVertex
 10
54.449214
 20
78.940875
 30
0.0
  0
VERTEX
  5
205
330
202
100
AcDbEntity
  8
001
370
    50
100
AcDbVertex
100
AcDb2dVertex
 10
54.327753
 20
78.934592
 30
0.0
  0
VERTEX
  5
206
330
202
100
AcDbEntity
  8
001
370
    50
100
AcDbVertex
100
AcDb2dVertex
 10
54.157816
 20
78.915808
 30
0.0
  0
VERTEX
  5
207
330
202
100
AcDbEntity
  8
001
370
    50
100
AcDbVertex
100
AcDb2dVertex
 10
53.859254
 20
78.841757
 30
0.0
  0
VERTEX
  5
208
330
202
100
AcDbEntity
  8
001
370
    50
100
AcDbVertex
100
AcDb2dVertex
 10
53.610168
 20
78.719817
 30
0.0
  0
VERTEX
  5
209
330
202
100
AcDbEntity
  8
001
370
    50
100
AcDbVertex
100
AcDb2dVertex
 10
53.270186
 20
78.457094
 30
0.0
  0
VERTEX
  5
20A
330
202
100
AcDbEntity
  8
001
370
    50
100
AcDbVertex
100
AcDb2dVertex
 10
52.995943
 20
78.115875
 30
0.0
  0
VERTEX
  5
20B
330
202
100
AcDbEntity
  8
001
370
    50
100
AcDbVertex
100
AcDb2dVertex
 10
52.927906
 20
77.988206
 30
0.0
  0
VERTEX
  5
20C
330
202
100
AcDbEntity
  8
001
370
    50
100
AcDbVertex
100
AcDb2dVertex
 10
52.872323
 20
77.855209
 30
0.0
  0
VERTEX
  5
20D
330
202
100
AcDbEntity
  8
001
370
    50
100
AcDbVertex
100
AcDb2dVertex
 10
52.828446
 20
77.717994
 30
0.0
  0
VERTEX
  5
20E
330
202
100
AcDbEntity
  8
001
370
    50
100
AcDbVertex
100
AcDb2dVertex
 10
52.796616
 20
77.577395
 30
0.0
  0
VERTEX
  5
20F
330
202
100
AcDbEntity
  8
001
370
    50
100
AcDbVertex
100
AcDb2dVertex
 10
52.777489
 20
77.434695
 30
0.0
  0
VERTEX
  5
210
330
202
100
AcDbEntity
  8
001
370
    50
100
AcDbVertex
100
AcDb2dVertex
 10
52.771122
 20
77.290875
 30
0.0
  0
VERTEX
  5
211
330
202
100
AcDbEntity
  8
001
370
    50
100
AcDbVertex
100
AcDb2dVertex
 10
52.777489
 20
77.147056
 30
0.0
  0
VERTEX
  5
212
330
202
100
AcDbEntity
  8
001
370
    50
100
AcDbVertex
100
AcDb2dVertex
 10
52.796616
 20
77.004356
 30
0.0
  0
VERTEX
  5
213
330
202
100
AcDbEntity
  8
001
370
    50
100
AcDbVertex
100
AcDb2dVertex
 10
52.828446
 20
76.863756
 30
0.0
  0
VERTEX
  5
214
330
202
100
AcDbEntity
  8
001
370
    50
100
AcDbVertex
100
AcDb2dVertex
 10
52.872323
 20
76.726542
 30
0.0
  0
VERTEX
  5
215
330
202
100
AcDbEntity
  8
001
370
    50
100
AcDbVertex
100
AcDb2dVertex
 10
52.927906
 20
76.593545
 30
0.0
  0
VERTEX
  5
216
330
202
100
AcDbEntity
  8
001
370
    50
100
AcDbVertex
100
AcDb2dVertex
 10
52.995943
 20
76.465875
 30
0.0
  0
VERTEX
  5
217
330
202
100
AcDbEntity
  8
001
370
    50
100
AcDbVertex
100
AcDb2dVertex
 10
53.270186
 20
76.124656
 30
0.0
  0
VERTEX
  5
218
330
202
100
AcDbEntity
  8
001
370
    50
100
AcDbVertex
100
AcDb2dVertex
 10
53.610168
 20
75.861933
 30
0.0
  0
VERTEX
  5
219
330
202
100
AcDbEntity
  8
001
370
    50
100
AcDbVertex
100
AcDb2dVertex
 10
53.859254
 20
75.739993
 30
0.0
  0
VERTEX
  5
21A
330
202
100
AcDbEntity
  8
001
370
    50
100
AcDbVertex
100
AcDb2dVertex
 10
54.157816
 20
75.665942
 30
0.0
  0
VERTEX
  5
21B
330
202
100
AcDbEntity
  8
001
370
    50
100
AcDbVertex
100
AcDb2dVertex
 10
54.327753
 20
75.647159
 30
0.0
  0
VERTEX
  5
21C
330
202
100
AcDbEntity
  8
001
370
    50
100
AcDbVertex
100
AcDb2dVertex
 10
54.449214
 20
75.640875
 30
0.0
  0
SEQEND
  5
203
330
202
100
AcDbEntity
  8
001
370
    50
  0
LINE
  5
21D
330
1F
100
AcDbEntity
  8
001
370
    50
100
AcDbLine
 10
65.188913
 20
50.607057
 30
0.0
 11
65.183343
 21
50.626585
 31
0.0
  0
POLYLINE
  5
21E
330
1F
100
AcDbEntity
  8
001
370
    50
100
AcDb2dPolyline
 66
     1
 10
0.0
 20
0.0
 30
0.0
  0
VERTEX
  5
220
330
21E
100
AcDbEntity
  8
001
370
    50
100
AcDbVertex
100
AcDb2dVertex
 10
58.965552
 20
64.74143
 30
0.0
  0
VERTEX
  5
221
330
21E
100
AcDbEntity
  8
001
370
    50
100
AcDbVertex
100
AcDb2dVertex
 10
58.746813
 20
64.729898
 30
0.0
  0
VERTEX
  5
222
330
21E
100
AcDbEntity
  8
001
370
    50
100
AcDbVertex
100
AcDb2dVertex
 10
58.447509
 20
64.695854
 30
0.0
  0
VERTEX
  5
223
330
21E
100
AcDbEntity
  8
001
370
    50
100
AcDbVertex
100
AcDb2dVertex
 10
58.182496
 20
64.639732
 30
0.0
  0
VERTEX
  5
224
330
21E
100
AcDbEntity
  8
001
370
    50
100
AcDbVertex
100
AcDb2dVertex
 10
57.945207
 20
64.560508
 30
0.0
  0
VERTEX
  5
225
330
21E
100
AcDbEntity
  8
001
370
    50
100
AcDbVertex
100
AcDb2dVertex
 10
57.706994
 20
64.458275
 30
0.0
  0
VERTEX
  5
226
330
21E
100
AcDbEntity
  8
001
370
    50
100
AcDbVertex
100
AcDb2dVertex
 10
57.473907
 20
64.339506
 30
0.0
  0
VERTEX
  5
227
330
21E
100
AcDbEntity
  8
001
370
    50
100
AcDbVertex
100
AcDb2dVertex
 10
56.877283
 20
63.905871
 30
0.0
  0
VERTEX
  5
228
330
21E
100
AcDbEntity
  8
001
370
    50
100
AcDbVertex
100
AcDb2dVertex
 10
56.381946
 20
63.24143
 30
0.0
  0
VERTEX
  5
229
330
21E
100
AcDbEntity
  8
001
370
    50
100
AcDbVertex
100
AcDb2dVertex
 10
56.345512
 20
63.175637
 30
0.0
  0
VERTEX
  5
22A
330
21E
100
AcDbEntity
  8
001
370
    50
100
AcDbVertex
100
AcDb2dVertex
 10
56.320998
 20
63.129873
 30
0.0
  0
SEQEND
  5
21F
330
21E
100
AcDbEntity
  8
001
370
    50
  0
POLYLINE
  5
22B
330
1F
100
AcDbEntity
  8
001
370
    50
100
AcDb2dPolyline
 66
     1
 10
0.0
 20
0.0
 30
0.0
  0
VERTEX
  5
22D
330
22B
100
AcDbEntity
  8
001
370
    50
100
AcDbVertex
100
AcDb2dVertex
 10
58.830777
 20
58.744493
 30
0.0
  0
VERTEX
  5
22E
330
22B
100
AcDbEntity
  8
001
370
    50
100
AcDbVertex
100
AcDb2dVertex
 10
58.858141
 20
58.743393
 30
0.0
  0
VERTEX
  5
22F
330
22B
100
AcDbEntity
  8
001
370
    50
100
AcDbVertex
100
AcDb2dVertex
 10
58.898147
 20
58.742196
 30
0.0
  0
VERTEX
  5
230
330
22B
100
AcDbEntity
  8
001
370
    50
100
AcDbVertex
100
AcDb2dVertex
 10
58.938166
 20
58.741574
 30
0.0
  0
VERTEX
  5
231
330
22B
100
AcDbEntity
  8
001
370
    50
100
AcDbVertex
100
AcDb2dVertex
 10
58.965552
 20
58.74143
 30
0.0
  0
SEQEND
  5
22C
330
22B
100
AcDbEntity
  8
001
370
    50
  0
POLYLINE
  5
232
330
1F
100
AcDbEntity
  8
001
370
    50
100
AcDb2dPolyline
 66
     1
 10
0.0
 20
0.0
 30
0.0
  0
VERTEX
  5
234
330
232
100
AcDbEntity
  8
001
370
    50
100
AcDbVertex
100
AcDb2dVertex
 10
58.965552
 20
58.74143
 30
0.0
  0
VERTEX
  5
235
330
232
100
AcDbEntity
  8
001
370
    50
100
AcDbVertex
100
AcDb2dVertex
 10
59.184228
 20
58.752842
 30
0.0
  0
VERTEX
  5
236
330
232
100
AcDbEntity
  8
001
370
    50
100
AcDbVertex
100
AcDb2dVertex
 10
59.483595
 20
58.787007
 30
0.0
  0
VERTEX
  5
237
330
232
100
AcDbEntity
  8
001
370
    50
100
AcDbVertex
100
AcDb2dVertex
 10
59.748923
 20
58.843734
 30
0.0
  0
VERTEX
  5
238
330
232
100
AcDbEntity
  8
001
370
    50
100
AcDbVertex
100
AcDb2dVertex
 10
59.985898
 20
58.922352
 30
0.0
  0
VERTEX
  5
239
330
232
100
AcDbEntity
  8
001
370
    50
100
AcDbVertex
100
AcDb2dVertex
 10
60.222912
 20
59.022285
 30
0.0
  0
VERTEX
  5
23A
330
232
100
AcDbEntity
  8
001
370
    50
100
AcDbVertex
100
AcDb2dVertex
 10
60.457198
 20
59.143354
 30
0.0
  0
VERTEX
  5
23B
330
232
100
AcDbEntity
  8
001
370
    50
100
AcDbVertex
100
AcDb2dVertex
 10
61.076785
 20
59.621064
 30
0.0
  0
VERTEX
  5
23C
330
232
100
AcDbEntity
  8
001
370
    50
100
AcDbVertex
100
AcDb2dVertex
 10
61.549158
 20
60.24143
 30
0.0
  0
VERTEX
  5
23D
330
232
100
AcDbEntity
  8
001
370
    50
100
AcDbVertex
100
AcDb2dVertex
 10
61.769031
 20
60.716275
 30
0.0
  0
VERTEX
  5
23E
330
232
100
AcDbEntity
  8
001
370
    50
100
AcDbVertex
100
AcDb2dVertex
 10
61.90352
 20
61.220486
 30
0.0
  0
VERTEX
  5
23F
330
232
100
AcDbEntity
  8
001
370
    50
100
AcDbVertex
100
AcDb2dVertex
 10
61.937516
 20
61.480058
 30
0.0
  0
VERTEX
  5
240
330
232
100
AcDbEntity
  8
001
370
    50
100
AcDbVertex
100
AcDb2dVertex
 10
61.948843
 20
61.74143
 30
0.0
  0
VERTEX
  5
241
330
232
100
AcDbEntity
  8
001
370
    50
100
AcDbVertex
100
AcDb2dVertex
 10
61.937516
 20
62.002803
 30
0.0
  0
VERTEX
  5
242
330
232
100
AcDbEntity
  8
001
370
    50
100
AcDbVertex
100
AcDb2dVertex
 10
61.90352
 20
62.262375
 30
0.0
  0
VERTEX
  5
243
330
232
100
AcDbEntity
  8
001
370
    50
100
AcDbVertex
100
AcDb2dVertex
 10
61.769031
 20
62.766586
 30
0.0
  0
VERTEX
  5
244
330
232
100
AcDbEntity
  8
001
370
    50
100
AcDbVertex
100
AcDb2dVertex
 10
61.549158
 20
63.24143
 30
0.0
  0
VERTEX
  5
245
330
232
100
AcDbEntity
  8
001
370
    50
100
AcDbVertex
100
AcDb2dVertex
 10
61.076785
 20
63.861797
 30
0.0
  0
VERTEX
  5
246
330
232
100
AcDbEntity
  8
001
370
    50
100
AcDbVertex
100
AcDb2dVertex
 10
60.457198
 20
64.339506
 30
0.0
  0
VERTEX
  5
247
330
232
100
AcDbEntity
  8
001
370
    50
100
AcDbVertex
100
AcDb2dVertex
 10
60.222912
 20
64.460575
 30
0.0
  0
VERTEX
  5
248
330
232
100
AcDbEntity
  8
001
370
    50
100
AcDbVertex
100
AcDb2dVertex
 10
59.985898
 20
64.560508
 30
0.0
  0
VERTEX
  5
249
330
232
100
AcDbEntity
  8
001
370
    50
100
AcDbVertex
100
AcDb2dVertex
 10
59.748923
 20
64.639127
 30
0.0
  0
VERTEX
  5
24A
330
232
100
AcDbEntity
  8
001
370
    50
100
AcDbVertex
100
AcDb2dVertex
 10
59.483595
 20
64.695854
 30
0.0
  0
VERTEX
  5
24B
330
232
100
AcDbEntity
  8
001
370
    50
100
AcDbVertex
100
AcDb2dVertex
 10
59.184228
 20
64.730019
 30
0.0
  0
VERTEX
  5
24C
330
232
100
AcDbEntity
  8
001
370
    50
100
AcDbVertex
100
AcDb2dVertex
 10
58.965552
 20
64.74143
 30
0.0
  0
SEQEND
  5
233
330
232
100
AcDbEntity
  8
001
370
    50
  0
POLYLINE
  5
24D
330
1F
100
AcDbEntity
  8
001
370
    50
100
AcDb2dPolyline
 66
     1
 10
0.0
 20
0.0
 30
0.0
  0
VERTEX
  5
24F
330
24D
100
AcDbEntity
  8
001
370
    50
100
AcDbVertex
100
AcDb2dVertex
 10
59.164171
 20
64.734774
 30
0.0
  0
VERTEX
  5
250
330
24D
100
AcDbEntity
  8
001
370
    50
100
AcDbVertex
100
AcDb2dVertex
 10
59.030553
 20
64.721387
 30
0.0
  0
VERTEX
  5
251
330
24D
100
AcDbEntity
  8
001
370
    50
100
AcDbVertex
100
AcDb2dVertex
 10
58.844748
 20
64.695854
 30
0.0
  0
VERTEX
  5
252
330
24D
100
AcDbEntity
  8
001
370
    50
100
AcDbVertex
100
AcDb2dVertex
 10
58.577419
 20
64.638794
 30
0.0
  0
VERTEX
  5
253
330
24D
100
AcDbEntity
  8
001
370
    50
100
AcDbVertex
100
AcDb2dVertex
 10
58.342445
 20
64.560508
 30
0.0
  0
VERTEX
  5
254
330
24D
100
AcDbEntity
  8
001
370
    50
100
AcDbVertex
100
AcDb2dVertex
 10
58.104921
 20
64.458553
 30
0.0
  0
VERTEX
  5
255
330
24D
100
AcDbEntity
  8
001
370
    50
100
AcDbVertex
100
AcDb2dVertex
 10
57.871145
 20
64.339506
 30
0.0
  0
VERTEX
  5
256
330
24D
100
AcDbEntity
  8
001
370
    50
100
AcDbVertex
100
AcDb2dVertex
 10
57.27398
 20
63.905659
 30
0.0
  0
VERTEX
  5
257
330
24D
100
AcDbEntity
  8
001
370
    50
100
AcDbVertex
100
AcDb2dVertex
 10
56.779185
 20
63.24143
 30
0.0
  0
VERTEX
  5
258
330
24D
100
AcDbEntity
  8
001
370
    50
100
AcDbVertex
100
AcDb2dVertex
 10
56.743159
 20
63.176399
 30
0.0
  0
VERTEX
  5
259
330
24D
100
AcDbEntity
  8
001
370
    50
100
AcDbVertex
100
AcDb2dVertex
 10
56.718912
 20
63.131172
 30
0.0
  0
SEQEND
  5
24E
330
24D
100
AcDbEntity
  8
001
370
    50
  0
POLYLINE
  5
25A
330
1F
100
AcDbEntity
  8
001
370
    50
100
AcDb2dPolyline
 66
     1
 10
0.0
 20
0.0
 30
0.0
  0
VERTEX
  5
25C
330
25A
100
AcDbEntity
  8
001
370
    50
100
AcDbVertex
100
AcDb2dVertex
 10
58.860502
 20
58.784257
 30
0.0
  0
VERTEX
  5
25D
330
25A
100
AcDbEntity
  8
001
370
    50
100
AcDbVertex
100
AcDb2dVertex
 10
58.921881
 20
58.774465
 30
0.0
  0
VERTEX
  5
25E
330
25A
100
AcDbEntity
  8
001
370
    50
100
AcDbVertex
100
AcDb2dVertex
 10
59.011876
 20
58.762257
 30
0.0
  0
VERTEX
  5
25F
330
25A
100
AcDbEntity
  8
001
370
    50
100
AcDbVertex
100
AcDb2dVertex
 10
59.102213
 20
58.752985
 30
0.0
  0
VERTEX
  5
260
330
25A
100
AcDbEntity
  8
001
370
    50
100
AcDbVertex
100
AcDb2dVertex
 10
59.164171
 20
58.748086
 30
0.0
  0
SEQEND
  5
25B
330
25A
100
AcDbEntity
  8
001
370
    50
  0
LINE
  5
261
330
1F
100
AcDbEntity
  8
001
  6
CENTER
370
     9
100
AcDbLine
 10
44.504086
 20
67.82395
 30
0.0
 11
157.834048
 21
67.82395
 31
0.0
  0
LINE
  5
262
330
1F
100
AcDbEntity
  8
001
370
    50
100
AcDbLine
 10
155.379054
 20
67.82395
 30
0.0
 11
157.97713
 21
69.32395
 31
0.0
  0
LINE
  5
263
330
1F
100
AcDbEntity
  8
001
370
    50
100
AcDbLine
 10
155.379054
 20
67.82395
 30
0.0
 11
157.97713
 21
66.32395
 31
0.0
  0
LINE
  5
264
330
1F
100
AcDbEntity
  8
001
370
    50
100
AcDbLine
 10
47.379054
 20
67.82395
 30
0.0
 11
44.780978
 21
69.32395
 31
0.0
  0
LINE
  5
265
330
1F
100
AcDbEntity
  8
001
370
    50
100
AcDbLine
 10
47.379054
 20
67.82395
 30
0.0
 11
44.780978
 21
66.32395
 31
0.0
  0
LINE
  5
266
330
1F
100
AcDbEntity
  8
001
370
    50
100
AcDbLine
 10
58.282634
 20
66.22395
 30
0.0
 11
47.379054
 21
66.22395
 31
0.0
  0
LINE
  5
267
330
1F
100
AcDbEntity
  8
001
370
    50
100
AcDbLine
 10
47.379054
 20
74.543576
 30
0.0
 11
47.379054
 21
63.100682
 31
0.0
  0
LINE
  5
268
330
1F
100
AcDbEntity
  8
001
  6
PHANTOM
370
     9
100
AcDbLine
 10
52.842302
 20
49.39395
 30
0.0
 11
53.185493
 21
49.39395
 31
0.0
  0
ARC
  5
269
330
1F
100
AcDbEntity
  8
001
370
    50
100
AcDbCircle
 10
53.158618
 20
59.697025
 30
0.0
 40
0.3350000000000001
100
AcDbArc
 50
12.404463
 51
167.595537
  0
ARC
  5
26A
330
1F
100
AcDbEntity
  8
001
370
    50
100
AcDbCircle
 10
52.272436
 20
59.891937
 30
0.0
 40
0.5723638195136747
100
AcDbArc
 50
252.404463
 51
347.595537
  0
ARC
  5
26B
330
1F
100
AcDbEntity
  8
001
370
    50
100
AcDbCircle
 10
51.998144
 20
59.027025
 30
0.0
 40
0.3350000000000001
100
AcDbArc
 50
72.404463
 51
227.595537
  0
ARC
  5
26C
330
1F
100
AcDbEntity
  8
001
370
    50
100
AcDbCircle
 10
51.386254
 20
58.357025
 30
0.0
 40
0.5723638195136747
100
AcDbArc
 50
312.404463
 51
47.595537
  0
ARC
  5
26D
330
1F
100
AcDbEntity
  8
001
370
    50
100
AcDbCircle
 10
51.998144
 20
57.687025
 30
0.0
 40
0.3350000000000001
100
AcDbArc
 50
132.404463
 51
287.595537
  0
ARC
  5
26E
330
1F
100
AcDbEntity
  8
001
370
    50
100
AcDbCircle
 10
52.272436
 20
56.822112
 30
0.0
 40
0.5723638195136747
100
AcDbArc
 50
12.404463
 51
107.595537
  0
ARC
  5
26F
330
1F
100
AcDbEntity
  8
001
370
    50
100
AcDbCircle
 10
53.158618
 20
57.017025
 30
0.0
 40
0.3350000000000001
100
AcDbArc
 50
192.404463
 51
347.595537
  0
ARC
  5
270
330
1F
100
AcDbEntity
  8
001
370
    50
100
AcDbCircle
 10
54.0448
 20
56.822112
 30
0.0
 40
0.5723638195136747
100
AcDbArc
 50
72.404463
 51
167.595537
  0
ARC
  5
271
330
1F
100
AcDbEntity
  8
001
370
    50
100
AcDbCircle
 10
54.319092
 20
57.687025
 30
0.0
 40
0.3350000000000001
100
AcDbArc
 50
252.404463
 51
47.595537
  0
ARC
  5
272
330
1F
100
AcDbEntity
  8
001
370
    50
100
AcDbCircle
 10
54.930982
 20
58.357025
 30
0.0
 40
0.5723638195136747
100
AcDbArc
 50
132.404463
 51
227.595537
  0
ARC
  5
273
330
1F
100
AcDbEntity
  8
001
370
    50
100
AcDbCircle
 10
54.319092
 20
59.027025
 30
0.0
 40
0.3350000000000001
100
AcDbArc
 50
312.404463
 51
107.595537
  0
ARC
  5
274
330
1F
100
AcDbEntity
  8
001
370
    50
100
AcDbCircle
 10
54.0448
 20
59.891937
 30
0.0
 40
0.5723638195136747
100
AcDbArc
 50
192.404463
 51
287.595537
  0
CIRCLE
  5
275
330
1F
100
AcDbEntity
  8
001
370
    50
100
AcDbCircle
 10
53.158618
 20
58.357025
 30
0.0
 40
2.45
  0
TEXT
  5
276
330
1F
100
AcDbEntity
  8
001
370
    30
100
AcDbText
 10
37.735219
 20
95.447182
 30
0.0
 40
8.0
  1
エコメン２　ＮＫＬ３０３６Ｔ
 41
0.833333
100
AcDbText
  0
LINE
  5
277
330
1F
100
AcDbEntity
  8
001
370
    50
100
AcDbLine
 10
45.972604
 20
63.079392
 30
0.0
 11
60.412514
 21
63.134658
 31
0.0
  0
ARC
  5
278
330
1F
100
AcDbEntity
  8
001
370
    50
100
AcDbCircle
 10
45.974884
 20
62.483567
 30
0.0
 40
0.5958297931332344
100
AcDbArc
 50
90.219285
 51
209.993715
  0
LINE
  5
279
330
1F
100
AcDbEntity
  8
001
370
    50
100
AcDbLine
 10
53.700967
 20
49.694313
 30
0.0
 11
60.852086
 21
62.285811
 31
0.0
  0
POLYLINE
  5
27A
330
1F
100
AcDbEntity
  8
001
370
    50
100
AcDb2dPolyline
 66
     1
 10
0.0
 20
0.0
 30
0.0
  0
VERTEX
  5
27C
330
27A
100
AcDbEntity
  8
001
370
    50
100
AcDbVertex
100
AcDb2dVertex
 10
60.852086
 20
62.285811
 30
0.0
  0
VERTEX
  5
27D
330
27A
100
AcDbEntity
  8
001
370
    50
100
AcDbVertex
100
AcDb2dVertex
 10
60.879906
 20
62.358555
 30
0.0
  0
VERTEX
  5
27E
330
27A
100
AcDbEntity
  8
001
370
    50
100
AcDbVertex
100
AcDb2dVertex
 10
60.902242
 20
62.438719
 30
0.0
  0
VERTEX
  5
27F
330
27A
100
AcDbEntity
  8
001
370
    50
100
AcDbVertex
100
AcDb2dVertex
 10
60.909814
 20
62.491992
 30
0.0
  0
VERTEX
  5
280
330
27A
100
AcDbEntity
  8
001
370
    50
100
AcDbVertex
100
AcDb2dVertex
 10
60.911307
 20
62.542907
 30
0.0
  0
VERTEX
  5
281
330
27A
100
AcDbEntity
  8
001
370
    50
100
AcDbVertex
100
AcDb2dVertex
 10
60.908817
 20
62.594787
 30
0.0
  0
VERTEX
  5
282
330
27A
100
AcDbEntity
  8
001
370
    50
100
AcDbVertex
100
AcDb2dVertex
 10
60.902242
 20
62.647096
 30
0.0
  0
VERTEX
  5
283
330
27A
100
AcDbEntity
  8
001
370
    50
100
AcDbVertex
100
AcDb2dVertex
 10
60.875496
 20
62.748206
 30
0.0
  0
VERTEX
  5
284
330
27A
100
AcDbEntity
  8
001
370
    50
100
AcDbVertex
100
AcDb2dVertex
 10
60.83137
 20
62.842907
 30
0.0
  0
VERTEX
  5
285
330
27A
100
AcDbEntity
  8
001
370
    50
100
AcDbVertex
100
AcDb2dVertex
 10
60.736835
 20
62.966874
 30
0.0
  0
VERTEX
  5
286
330
27A
100
AcDbEntity
  8
001
370
    50
100
AcDbVertex
100
AcDb2dVertex
 10
60.612978
 20
63.062523
 30
0.0
  0
VERTEX
  5
287
330
27A
100
AcDbEntity
  8
001
370
    50
100
AcDbVertex
100
AcDb2dVertex
 10
60.566124
 20
63.086742
 30
0.0
  0
VERTEX
  5
288
330
27A
100
AcDbEntity
  8
001
370
    50
100
AcDbVertex
100
AcDb2dVertex
 10
60.518718
 20
63.106723
 30
0.0
  0
VERTEX
  5
289
330
27A
100
AcDbEntity
  8
001
370
    50
100
AcDbVertex
100
AcDb2dVertex
 10
60.471322
 20
63.122445
 30
0.0
  0
VERTEX
  5
28A
330
27A
100
AcDbEntity
  8
001
370
    50
100
AcDbVertex
100
AcDb2dVertex
 10
60.418257
 20
63.133792
 30
0.0
  0
VERTEX
  5
28B
330
27A
100
AcDbEntity
  8
001
370
    50
100
AcDbVertex
100
AcDb2dVertex
 10
60.358384
 20
63.140625
 30
0.0
  0
VERTEX
  5
28C
330
27A
100
AcDbEntity
  8
001
370
    50
100
AcDbVertex
100
AcDb2dVertex
 10
60.314649
 20
63.142907
 30
0.0
  0
SEQEND
  5
27B
330
27A
100
AcDbEntity
  8
001
370
    50
  0
ARC
  5
28D
330
1F
100
AcDbEntity
  8
001
370
    50
100
AcDbCircle
 10
53.184958
 20
49.987371
 30
0.0
 40
0.5934212559965124
100
AcDbArc
 50
209.993715
 51
330.406355
  0
LINE
  5
28E
330
1F
100
AcDbEntity
  8
001
  6
PHANTOM
370
     9
100
AcDbLine
 10
52.671007
 20
49.690717
 30
0.0
 11
52.842302
 21
49.39395
 31
0.0
  0
LINE
  5
28F
330
1F
100
AcDbEntity
  8
001
  6
PHANTOM
370
     9
100
AcDbLine
 10
45.379054
 20
62.32395
 30
0.0
 11
45.379054
 21
62.496098
 31
0.0
  0
LINE
  5
290
330
1F
100
AcDbEntity
  8
001
370
    50
100
AcDbLine
 10
52.671007
 20
49.690717
 30
0.0
 11
45.458848
 21
62.185709
 31
0.0
  0
LINE
  5
291
330
1F
100
AcDbEntity
  8
001
  6
PHANTOM
370
     9
100
AcDbLine
 10
45.452054
 20
62.197478
 30
0.0
 11
45.379054
 21
62.32395
 31
0.0
  0
LINE
  5
292
330
1F
100
AcDbEntity
  8
001
  6
PHANTOM
370
     9
100
AcDbLine
 10
52.842302
 20
86.25395
 30
0.0
 11
53.185493
 21
86.25395
 31
0.0
  0
ARC
  5
293
330
1F
100
AcDbEntity
  8
001
370
    50
100
AcDbCircle
 10
45.974884
 20
73.164333
 30
0.0
 40
0.5958297931332344
100
AcDbArc
 50
150.006285
 51
269.780715
  0
ARC
  5
294
330
1F
100
AcDbEntity
  8
001
370
    50
100
AcDbCircle
 10
53.184958
 20
85.660529
 30
0.0
 40
0.5934212559965124
100
AcDbArc
 50
29.593645
 51
150.006285
  0
LINE
  5
295
330
1F
100
AcDbEntity
  8
001
  6
PHANTOM
370
     9
100
AcDbLine
 10
52.671007
 20
85.957183
 30
0.0
 11
52.842302
 21
86.25395
 31
0.0
  0
LINE
  5
296
330
1F
100
AcDbEntity
  8
001
  6
PHANTOM
370
     9
100
AcDbLine
 10
45.379054
 20
73.32395
 30
0.0
 11
45.379054
 21
73.151802
 31
0.0
  0
LINE
  5
297
330
1F
100
AcDbEntity
  8
001
370
    50
100
AcDbLine
 10
52.671007
 20
85.957183
 30
0.0
 11
45.458848
 21
73.462191
 31
0.0
  0
LINE
  5
298
330
1F
100
AcDbEntity
  8
001
  6
PHANTOM
370
     9
100
AcDbLine
 10
45.452054
 20
73.450421
 30
0.0
 11
45.379054
 21
73.32395
 31
0.0
  0
LINE
  5
299
330
1F
100
AcDbEntity
  8
001
370
    50
100
AcDbLine
 10
53.700967
 20
85.953587
 30
0.0
 11
54.058558
 21
85.32395
 31
0.0
  0
LINE
  5
29A
330
1F
100
AcDbEntity
  8
001
370
    50
100
AcDbLine
 10
45.972604
 20
72.568507
 30
0.0
 11
47.379054
 21
72.563125
 31
0.0
  0
ENDSEC
  0
SECTION
  2
OBJECTS
  0
DICTIONARY
  5
C
330
0
100
AcDbDictionary
281
     1
  3
ACAD_GROUP
350
D
  3
ACAD_LAYOUT
350
1A
  3
ACAD_MLEADERSTYLE
350
29E
  3
ACAD_MLINESTYLE
350
17
  3
ACAD_PLOTSETTINGS
350
19
  3
ACAD_PLOTSTYLENAME
350
E
  3
ACAD_SCALELIST
350
3B
  3
ACAD_TABLESTYLE
350
29D
  3
ACAD_VISUALSTYLE
350
2A
  3
AcDbVariableDictionary
350
29B
  0
DICTIONARY
  5
D
102
{ACAD_REACTORS
330
C
102
}
330
C
100
AcDbDictionary
281
     1
  0
DICTIONARY
  5
1A
102
{ACAD_REACTORS
330
C
102
}
330
C
100
AcDbDictionary
281
     1
  3
Layout1
350
1E
  3
Layout2
350
26
  3
Model
350
22
  0
DICTIONARY
  5
29E
102
{ACAD_REACTORS
330
C
102
}
330
C
100
AcDbDictionary
281
     1
  0
DICTIONARY
  5
17
102
{ACAD_REACTORS
330
C
102
}
330
C
100
AcDbDictionary
281
     1
  3
Standard
350
18
  0
DICTIONARY
  5
19
102
{ACAD_REACTORS
330
C
102
}
330
C
100
AcDbDictionary
281
     1
  0
ACDBDICTIONARYWDFLT
  5
E
102
{ACAD_REACTORS
330
C
102
}
330
C
100
AcDbDictionary
281
     1
  3
Normal
350
F
100
AcDbDictionaryWithDefault
340
F
  0
DICTIONARY
  5
3B
102
{ACAD_REACTORS
330
C
102
}
330
C
100
AcDbDictionary
281
     1
  3
A0
350
3C
  3
A1
350
3D
  3
A2
350
3E
  3
A3
350
3F
  3
A4
350
40
  3
A5
350
41
  3
A6
350
42
  3
A7
350
43
  3
A8
350
44
  3
A9
350
45
  3
B0
350
46
  3
B1
350
47
  3
B2
350
48
  3
B3
350
49
  3
B4
350
4A
  3
B5
350
4B
  3
B6
350
4C
  3
B7
350
4D
  3
B8
350
4E
  3
B9
350
4F
  3
C0
350
50
  3
C1
350
51
  3
C2
350
52
  3
C3
350
53
  3
C4
350
54
  3
C5
350
55
  3
C6
350
56
  3
C7
350
57
  3
C8
350
58
  3
C9
350
59
  3
D0
350
5A
  3
D1
350
5B
  3
D2
350
5C
  0
DICTIONARY
  5
29D
102
{ACAD_REACTORS
330
C
102
}
330
C
100
AcDbDictionary
281
     1
  0
DICTIONARY
  5
2A
102
{ACAD_REACTORS
330
C
102
}
330
C
100
AcDbDictionary
281
     1
  3
2dWireframe
350
2F
  3
3D Hidden
350
31
  3
3dWireframe
350
30
  3
Basic
350
32
  3
Brighten
350
36
  3
ColorChange
350
3A
  3
Conceptual
350
34
  3
Dim
350
35
  3
Facepattern
350
39
  3
Flat
350
2B
  3
FlatWithEdges
350
2C
  3
Gouraud
350
2D
  3
GouraudWithEdges
350
2E
  3
Linepattern
350
38
  3
Realistic
350
33
  3
Thicken
350
37
  0
DICTIONARY
  5
29B
102
{ACAD_REACTORS
330
C
102
}
330
C
100
AcDbDictionary
281
     1
  3
CANNOSCALE
350
29C
  3
PSOLHEIGHT
350
2A0
  3
PSOLWIDTH
350
29F
  0
LAYOUT
  5
1E
102
{ACAD_REACTORS
330
1A
102
}
330
1A
100
AcDbPlotSettings
  1

  2
none_device
  4

  6

 40
0.0
 41
0.0
 42
0.0
 43
0.0
 44
0.0
 45
0.0
 46
0.0
 47
0.0
 48
0.0
 49
0.0
140
0.0
141
0.0
142
1.0
143
1.0
 70
   688
 72
     0
 73
     0
 74
     5
  7

 75
    16
147
1.0
148
0.0
149
0.0
100
AcDbLayout
  1
Layout1
 70
     1
 71
     1
 10
0.0
 20
0.0
 11
12.0
 21
9.0
 12
0.0
 22
0.0
 32
0.0
 14
1.000000E+20
 24
1.000000E+20
 34
0.0
 15
-1.000000E+20
 25
-1.000000E+20
 35
0.0
146
0.0
 13
0.0
 23
0.0
 33
0.0
 16
1.0
 26
0.0
 36
0.0
 17
0.0
 27
1.0
 37
0.0
 76
     0
330
1B
  0
LAYOUT
  5
26
102
{ACAD_REACTORS
330
1A
102
}
330
1A
100
AcDbPlotSettings
  1

  2
none_device
  4

  6

 40
0.0
 41
0.0
 42
0.0
 43
0.0
 44
0.0
 45
0.0
 46
0.0
 47
0.0
 48
0.0
 49
0.0
140
0.0
141
0.0
142
1.0
143
1.0
 70
   688
 72
     0
 73
     0
 74
     5
  7

 75
    16
147
1.0
148
0.0
149
0.0
100
AcDbLayout
  1
Layout2
 70
     1
 71
     2
 10
0.0
 20
0.0
 11
0.0
 21
0.0
 12
0.0
 22
0.0
 32
0.0
 14
0.0
 24
0.0
 34
0.0
 15
0.0
 25
0.0
 35
0.0
146
0.0
 13
0.0
 23
0.0
 33
0.0
 16
1.0
 26
0.0
 36
0.0
 17
0.0
 27
1.0
 37
0.0
 76
     0
330
23
  0
LAYOUT
  5
22
102
{ACAD_REACTORS
330
1A
102
}
330
1A
100
AcDbPlotSettings
  1

  2
none_device
  4

  6

 40
0.0
 41
0.0
 42
0.0
 43
0.0
 44
0.0
 45
0.0
 46
0.0
 47
0.0
 48
0.0
 49
0.0
140
0.0
141
0.0
142
1.0
143
1.0
 70
  1712
 72
     0
 73
     0
 74
     0
  7

 75
     0
147
1.0
148
0.0
149
0.0
100
AcDbLayout
  1
Model
 70
     1
 71
     0
 10
0.0
 20
0.0
 11
12.0
 21
9.0
 12
0.0
 22
0.0
 32
0.0
 14
20.370438
 24
16.926956
 34
0.0
 15
177.539078
 25
103.447182
 35
0.0
146
0.0
 13
0.0
 23
0.0
 33
0.0
 16
1.0
 26
0.0
 36
0.0
 17
0.0
 27
1.0
 37
0.0
 76
     0
330
1F
331
29
  0
MLINESTYLE
  5
18
102
{ACAD_REACTORS
330
17
102
}
330
17
100
AcDbMlineStyle
  2
Standard
 70
     0
  3

 62
   256
 51
90.0
 52
90.0
 71
     2
 49
0.5
 62
   256
  6
BYLAYER
 49
-0.5
 62
   256
  6
BYLAYER
  0
ACDBPLACEHOLDER
  5
F
102
{ACAD_REACTORS
330
E
102
}
330
E
  0
SCALE
  5
3C
102
{ACAD_REACTORS
330
3B
102
}
330
3B
100
AcDbScale
 70
     0
300
1:1
140
1.0
141
1.0
290
     1
  0
SCALE
  5
3D
102
{ACAD_REACTORS
330
3B
102
}
330
3B
100
AcDbScale
 70
     0
300
1:2
140
1.0
141
2.0
290
     0
  0
SCALE
  5
3E
102
{ACAD_REACTORS
330
3B
102
}
330
3B
100
AcDbScale
 70
     0
300
1:4
140
1.0
141
4.0
290
     0
  0
SCALE
  5
3F
102
{ACAD_REACTORS
330
3B
102
}
330
3B
100
AcDbScale
 70
     0
300
1:5
140
1.0
141
5.0
290
     0
  0
SCALE
  5
40
102
{ACAD_REACTORS
330
3B
102
}
330
3B
100
AcDbScale
 70
     0
300
1:8
140
1.0
141
8.0
290
     0
  0
SCALE
  5
41
102
{ACAD_REACTORS
330
3B
102
}
330
3B
100
AcDbScale
 70
     0
300
1:10
140
1.0
141
10.0
290
     0
  0
SCALE
  5
42
102
{ACAD_REACTORS
330
3B
102
}
330
3B
100
AcDbScale
 70
     0
300
1:16
140
1.0
141
16.0
290
     0
  0
SCALE
  5
43
102
{ACAD_REACTORS
330
3B
102
}
330
3B
100
AcDbScale
 70
     0
300
1:20
140
1.0
141
20.0
290
     0
  0
SCALE
  5
44
102
{ACAD_REACTORS
330
3B
102
}
330
3B
100
AcDbScale
 70
     0
300
1:30
140
1.0
141
30.0
290
     0
  0
SCALE
  5
45
102
{ACAD_REACTORS
330
3B
102
}
330
3B
100
AcDbScale
 70
     0
300
1:40
140
1.0
141
40.0
290
     0
  0
SCALE
  5
46
102
{ACAD_REACTORS
330
3B
102
}
330
3B
100
AcDbScale
 70
     0
300
1:50
140
1.0
141
50.0
290
     0
  0
SCALE
  5
47
102
{ACAD_REACTORS
330
3B
102
}
330
3B
100
AcDbScale
 70
     0
300
1:100
140
1.0
141
100.0
290
     0
  0
SCALE
  5
48
102
{ACAD_REACTORS
330
3B
102
}
330
3B
100
AcDbScale
 70
     0
300
2:1
140
2.0
141
1.0
290
     0
  0
SCALE
  5
49
102
{ACAD_REACTORS
330
3B
102
}
330
3B
100
AcDbScale
 70
     0
300
4:1
140
4.0
141
1.0
290
     0
  0
SCALE
  5
4A
102
{ACAD_REACTORS
330
3B
102
}
330
3B
100
AcDbScale
 70
     0
300
8:1
140
8.0
141
1.0
290
     0
  0
SCALE
  5
4B
102
{ACAD_REACTORS
330
3B
102
}
330
3B
100
AcDbScale
 70
     0
300
10:1
140
10.0
141
1.0
290
     0
  0
SCALE
  5
4C
102
{ACAD_REACTORS
330
3B
102
}
330
3B
100
AcDbScale
 70
     0
300
100:1
140
100.0
141
1.0
290
     0
  0
SCALE
  5
4D
102
{ACAD_REACTORS
330
3B
102
}
330
3B
100
AcDbScale
 70
     0
300
1/128" = 1'-0"
140
0.007812
141
12.0
290
     0
  0
SCALE
  5
4E
102
{ACAD_REACTORS
330
3B
102
}
330
3B
100
AcDbScale
 70
     0
300
1/64" = 1'-0"
140
0.015625
141
12.0
290
     0
  0
SCALE
  5
4F
102
{ACAD_REACTORS
330
3B
102
}
330
3B
100
AcDbScale
 70
     0
300
1/32" = 1'-0"
140
0.03125
141
12.0
290
     0
  0
SCALE
  5
50
102
{ACAD_REACTORS
330
3B
102
}
330
3B
100
AcDbScale
 70
     0
300
1/16" = 1'-0"
140
0.0625
141
12.0
290
     0
  0
SCALE
  5
51
102
{ACAD_REACTORS
330
3B
102
}
330
3B
100
AcDbScale
 70
     0
300
3/32" = 1'-0"
140
0.09375
141
12.0
290
     0
  0
SCALE
  5
52
102
{ACAD_REACTORS
330
3B
102
}
330
3B
100
AcDbScale
 70
     0
300
1/8" = 1'-0"
140
0.125
141
12.0
290
     0
  0
SCALE
  5
53
102
{ACAD_REACTORS
330
3B
102
}
330
3B
100
AcDbScale
 70
     0
300
3/16" = 1'-0"
140
0.1875
141
12.0
290
     0
  0
SCALE
  5
54
102
{ACAD_REACTORS
330
3B
102
}
330
3B
100
AcDbScale
 70
     0
300
1/4" = 1'-0"
140
0.25
141
12.0
290
     0
  0
SCALE
  5
55
102
{ACAD_REACTORS
330
3B
102
}
330
3B
100
AcDbScale
 70
     0
300
3/8" = 1'-0"
140
0.375
141
12.0
290
     0
  0
SCALE
  5
56
102
{ACAD_REACTORS
330
3B
102
}
330
3B
100
AcDbScale
 70
     0
300
1/2" = 1'-0"
140
0.5
141
12.0
290
     0
  0
SCALE
  5
57
102
{ACAD_REACTORS
330
3B
102
}
330
3B
100
AcDbScale
 70
     0
300
3/4" = 1'-0"
140
0.75
141
12.0
290
     0
  0
SCALE
  5
58
102
{ACAD_REACTORS
330
3B
102
}
330
3B
100
AcDbScale
 70
     0
300
1" = 1'-0"
140
1.0
141
12.0
290
     0
  0
SCALE
  5
59
102
{ACAD_REACTORS
330
3B
102
}
330
3B
100
AcDbScale
 70
     0
300
1-1/2" = 1'-0"
140
1.5
141
12.0
290
     0
  0
SCALE
  5
5A
102
{ACAD_REACTORS
330
3B
102
}
330
3B
100
AcDbScale
 70
     0
300
3" = 1'-0"
140
3.0
141
12.0
290
     0
  0
SCALE
  5
5B
102
{ACAD_REACTORS
330
3B
102
}
330
3B
100
AcDbScale
 70
     0
300
6" = 1'-0"
140
6.0
141
12.0
290
     0
  0
SCALE
  5
5C
102
{ACAD_REACTORS
330
3B
102
}
330
3B
100
AcDbScale
 70
     0
300
1'-0" = 1'-0"
140
12.0
141
12.0
290
     0
  0
VISUALSTYLE
  5
2F
102
{ACAD_REACTORS
330
2A
102
}
330
2A
100
AcDbVisualStyle
  2
2dWireframe
 70
     4
 71
     0
 72
     2
 73
     0
 90
        0
 40
-0.6
 41
-30.0
 62
     5
 63
     7
 74
     1
 91
        4
 64
     7
 65
   257
 75
     1
175
     1
 42
1.0
 92
        0
 66
   257
 43
1.0
 76
     1
 77
     6
 78
     2
 67
     7
 79
     5
170
     0
171
     0
290
     0
174
     0
 93
        1
 44
0.0
173
     0
291
     0
 45
0.0
1001
ACAD
1000
AcDbSavedByObjectVersion
1070
     0
  0
VISUALSTYLE
  5
31
102
{ACAD_REACTORS
330
2A
102
}
330
2A
100
AcDbVisualStyle
  2
3D Hidden
 70
     6
 71
     1
 72
     2
 73
     2
 90
        0
 40
-0.6
 41
-30.0
 62
     5
 63
     7
 74
     2
 91
        2
 64
     7
 65
   257
 75
     2
175
     1
 42
40.0
 92
        0
 66
   257
 43
1.0
 76
     1
 77
     6
 78
     2
 67
     7
 79
     3
170
     0
171
     0
290
     0
174
     0
 93
        1
 44
0.0
173
     0
291
     0
 45
0.0
1001
ACAD
1000
AcDbSavedByObjectVersion
1070
     0
  0
VISUALSTYLE
  5
30
102
{ACAD_REACTORS
330
2A
102
}
330
2A
100
AcDbVisualStyle
  2
3dWireframe
 70
     5
 71
     0
 72
     2
 73
     0
 90
        0
 40
-0.6
 41
-30.0
 62
     5
 63
     7
 74
     1
 91
        4
 64
     7
 65
   257
 75
     1
175
     1
 42
1.0
 92
        0
 66
   257
 43
1.0
 76
     1
 77
     6
 78
     2
 67
     7
 79
     5
170
     0
171
     0
290
     0
174
     0
 93
        1
 44
0.0
173
     0
291
     0
 45
0.0
1001
ACAD
1000
AcDbSavedByObjectVersion
1070
     0
  0
VISUALSTYLE
  5
32
102
{ACAD_REACTORS
330
2A
102
}
330
2A
100
AcDbVisualStyle
  2
Basic
 70
     7
 71
     1
 72
     0
 73
     1
 90
        0
 40
-0.6
 41
-30.0
 62
     5
 63
     7
 74
     0
 91
        4
 64
     7
 65
   257
 75
     1
175
     1
 42
1.0
 92
        8
 66
     7
 43
1.0
 76
     1
 77
     6
 78
     2
 67
     7
 79
     5
170
     0
171
     0
290
     0
174
     0
 93
        1
 44
0.0
173
     0
291
     1
 45
0.0
1001
ACAD
1000
AcDbSavedByObjectVersion
1070
     0
  0
VISUALSTYLE
  5
36
102
{ACAD_REACTORS
330
2A
102
}
330
2A
100
AcDbVisualStyle
  2
Brighten
 70
    12
 71
     2
 72
     2
 73
     0
 90
        0
 40
-0.6
 41
-30.0
 62
     5
 63
     7
 74
     1
 91
        4
 64
     7
 65
   257
 75
     1
175
     1
 42
1.0
 92
        8
 66
     7
 43
1.0
 76
     1
 77
     6
 78
     2
 67
     7
 79
     5
170
     0
171
     0
290
     0
174
     0
 93
        1
 44
50.0
173
     0
291
     1
 45
0.0
1001
ACAD
1000
AcDbSavedByObjectVersion
1070
     0
  0
VISUALSTYLE
  5
3A
102
{ACAD_REACTORS
330
2A
102
}
330
2A
100
AcDbVisualStyle
  2
ColorChange
 70
    16
 71
     2
 72
     2
 73
     3
 90
        0
 40
-0.6
 41
-30.0
 62
     5
 63
     8
 74
     1
 91
        4
 64
     7
 65
   257
 75
     1
175
     1
 42
1.0
 92
        8
 66
     8
 43
1.0
 76
     1
 77
     6
 78
     2
 67
     7
 79
     5
170
     0
171
     0
290
     0
174
     0
 93
        1
 44
0.0
173
     0
291
     1
 45
0.0
1001
ACAD
1000
AcDbSavedByObjectVersion
1070
     0
  0
VISUALSTYLE
  5
34
102
{ACAD_REACTORS
330
2A
102
}
330
2A
100
AcDbVisualStyle
  2
Conceptual
 70
     9
 71
     3
 72
     2
 73
     0
 90
        0
 40
-0.6
 41
-30.0
 62
     5
 63
     7
 74
     2
 91
        2
 64
     7
 65
   257
 75
     1
175
     1
 42
40.0
 92
        8
 66
     7
 43
1.0
 76
     1
 77
     6
 78
     2
 67
     7
 79
     3
170
     0
171
     0
290
     0
174
     0
 93
        1
 44
0.0
173
     0
291
     0
 45
0.0
1001
ACAD
1000
AcDbSavedByObjectVersion
1070
     0
  0
VISUALSTYLE
  5
35
102
{ACAD_REACTORS
330
2A
102
}
330
2A
100
AcDbVisualStyle
  2
Dim
 70
    11
 71
     2
 72
     2
 73
     0
 90
        0
 40
-0.6
 41
-30.0
 62
     5
 63
     7
 74
     1
 91
        4
 64
     7
 65
   257
 75
     1
175
     1
 42
1.0
 92
        8
 66
     7
 43
1.0
 76
     1
 77
     6
 78
     2
 67
     7
 79
     5
170
     0
171
     0
290
     0
174
     0
 93
        1
 44
-50.0
173
     0
291
     1
 45
0.0
1001
ACAD
1000
AcDbSavedByObjectVersion
1070
     0
  0
VISUALSTYLE
  5
39
102
{ACAD_REACTORS
330
2A
102
}
330
2A
100
AcDbVisualStyle
  2
Facepattern
 70
    15
 71
     2
 72
     2
 73
     0
 90
        0
 40
-0.6
 41
-30.0
 62
     5
 63
     7
 74
     1
 91
        4
 64
     7
 65
   257
 75
     1
175
     1
 42
1.0
 92
        8
 66
     7
 43
1.0
 76
     1
 77
     6
 78
     2
 67
     7
 79
     5
170
     0
171
     0
290
     0
174
     0
 93
        1
 44
0.0
173
     0
291
     1
 45
0.0
1001
ACAD
1000
AcDbSavedByObjectVersion
1070
     0
  0
VISUALSTYLE
  5
2B
102
{ACAD_REACTORS
330
2A
102
}
330
2A
100
AcDbVisualStyle
  2
Flat
 70
     0
 71
     2
 72
     1
 73
     1
 90
        2
 40
-0.6
 41
30.0
 62
     5
 63
     7
 74
     0
 91
        4
 64
     7
 65
   257
 75
     1
175
     1
 42
1.0
 92
        8
 66
     7
 43
1.0
 76
     1
 77
     6
 78
     2
 67
     7
 79
     5
170
     0
171
     0
290
     0
174
     0
 93
       13
 44
0.0
173
     0
291
     1
 45
0.0
1001
ACAD
1000
AcDbSavedByObjectVersion
1070
     0
  0
VISUALSTYLE
  5
2C
102
{ACAD_REACTORS
330
2A
102
}
330
2A
100
AcDbVisualStyle
  2
FlatWithEdges
 70
     1
 71
     2
 72
     1
 73
     1
 90
        2
 40
-0.6
 41
30.0
 62
     5
 63
     7
 74
     1
 91
        4
 64
     7
 65
   257
 75
     1
175
     1
 42
1.0
 92
        0
 66
   257
 43
1.0
 76
     1
 77
     6
 78
     2
 67
     7
 79
     5
170
     0
171
     0
290
     0
174
     0
 93
       13
 44
0.0
173
     0
291
     1
 45
0.0
1001
ACAD
1000
AcDbSavedByObjectVersion
1070
     0
  0
VISUALSTYLE
  5
2D
102
{ACAD_REACTORS
330
2A
102
}
330
2A
100
AcDbVisualStyle
  2
Gouraud
 70
     2
 71
     2
 72
     2
 73
     1
 90
        2
 40
-0.6
 41
30.0
 62
     5
 63
     7
 74
     0
 91
        4
 64
     7
 65
   257
 75
     1
175
     1
 42
1.0
 92
        0
 66
     7
 43
1.0
 76
     1
 77
     6
 78
     2
 67
     7
 79
     5
170
     0
171
     0
290
     0
174
     0
 93
       13
 44
0.0
173
     0
291
     1
 45
0.0
1001
ACAD
1000
AcDbSavedByObjectVersion
1070
     0
  0
VISUALSTYLE
  5
2E
102
{ACAD_REACTORS
330
2A
102
}
330
2A
100
AcDbVisualStyle
  2
GouraudWithEdges
 70
     3
 71
     2
 72
     2
 73
     1
 90
        2
 40
-0.6
 41
30.0
 62
     5
 63
     7
 74
     1
 91
        4
 64
     7
 65
   257
 75
     1
175
     1
 42
1.0
 92
        0
 66
   257
 43
1.0
 76
     1
 77
     6
 78
     2
 67
     7
 79
     5
170
     0
171
     0
290
     0
174
     0
 93
       13
 44
0.0
173
     0
291
     1
 45
0.0
1001
ACAD
1000
AcDbSavedByObjectVersion
1070
     0
  0
VISUALSTYLE
  5
38
102
{ACAD_REACTORS
330
2A
102
}
330
2A
100
AcDbVisualStyle
  2
Linepattern
 70
    14
 71
     2
 72
     2
 73
     0
 90
        0
 40
-0.6
 41
-30.0
 62
     5
 63
     7
 74
     1
 91
        4
 64
     7
 65
   257
 75
     7
175
     7
 42
1.0
 92
        8
 66
     7
 43
1.0
 76
     1
 77
     6
 78
     2
 67
     7
 79
     5
170
     0
171
     0
290
     0
174
     0
 93
        1
 44
0.0
173
     0
291
     1
 45
0.0
1001
ACAD
1000
AcDbSavedByObjectVersion
1070
     0
  0
VISUALSTYLE
  5
33
102
{ACAD_REACTORS
330
2A
102
}
330
2A
100
AcDbVisualStyle
  2
Realistic
 70
     8
 71
     2
 72
     2
 73
     0
 90
        0
 40
-0.6
 41
-30.0
 62
     5
 63
     7
 74
     1
 91
        0
 64
     7
 65
   257
 75
     1
175
     1
 42
1.0
 92
        8
 66
     8
 43
1.0
 76
     1
 77
     6
 78
     2
 67
     7
 79
     5
170
     0
171
     0
290
     0
174
     0
 93
       13
 44
0.0
173
     0
291
     0
 45
0.0
1001
ACAD
1000
AcDbSavedByObjectVersion
1070
     0
  0
VISUALSTYLE
  5
37
102
{ACAD_REACTORS
330
2A
102
}
330
2A
100
AcDbVisualStyle
  2
Thicken
 70
    13
 71
     2
 72
     2
 73
     0
 90
        0
 40
-0.6
 41
-30.0
 62
     5
 63
     7
 74
     1
 91
        4
 64
     7
 65
   257
 75
     1
175
     1
 42
1.0
 92
       12
 66
     7
 43
1.0
 76
     1
 77
     6
 78
     2
 67
     7
 79
     5
170
     0
171
     0
290
     0
174
     0
 93
        1
 44
0.0
173
     0
291
     1
 45
0.0
1001
ACAD
1000
AcDbSavedByObjectVersion
1070
     0
  0
DICTIONARYVAR
  5
29C
102
{ACAD_REACTORS
330
29B
102
}
330
29B
100
DictionaryVariables
280
     0
  1
1:1
  0
DICTIONARYVAR
  5
2A0
102
{ACAD_REACTORS
330
29B
102
}
330
29B
100
DictionaryVariables
280
     0
  1
80.000000
  0
DICTIONARYVAR
  5
29F
102
{ACAD_REACTORS
330
29B
102
}
330
29B
100
DictionaryVariables
280
     0
  1
5.000000
  0
ENDSEC
  0
EOF
