  0
SECTION
  2
HEADER
  9
$ACADVER
  1
AC1015
  9
$ACADMAINTVER
 70
     6
  9
$DWGCODEPAGE
  3
ANSI_932
  9
$INSBASE
 10
0.0
 20
0.0
 30
0.0
  9
$EXTMIN
 10
-2.425934
 20
-80.57254
 30
0.0
  9
$EXTMAX
 10
207.574066
 20
159.063629
 30
0.0
  9
$LIMMIN
 10
0.0
 20
0.0
  9
$LIMMAX
 10
12.0
 20
9.0
  9
$ORTHOMODE
 70
     0
  9
$REGENMODE
 70
     1
  9
$FILLMODE
 70
     1
  9
$QTEXTMODE
 70
     0
  9
$MIRRTEXT
 70
     1
  9
$LTSCALE
 40
3.186307
  9
$ATTMODE
 70
     1
  9
$TEXTSIZE
 40
3.2
  9
$TRACEWID
 40
1.0
  9
$TEXTSTYLE
  7
Standard
  9
$CLAYER
  8
0
  9
$CELTYPE
  6
ByLayer
  9
$CECOLOR
 62
   256
  9
$CELTSCALE
 40
1.0
  9
$DISPSILH
 70
     0
  9
$DIMSCALE
 40
1.0
  9
$DIMASZ
 40
2.5
  9
$DIMEXO
 40
0.625
  9
$DIMDLI
 40
3.75
  9
$DIMRND
 40
0.0
  9
$DIMDLE
 40
0.0
  9
$DIMEXE
 40
1.25
  9
$DIMTP
 40
0.0
  9
$DIMTM
 40
0.0
  9
$DIMTXT
 40
2.5
  9
$DIMCEN
 40
0.09
  9
$DIMTSZ
 40
0.0
  9
$DIMTOL
 70
     0
  9
$DIMLIM
 70
     0
  9
$DIMTIH
 70
     0
  9
$DIMTOH
 70
     0
  9
$DIMSE1
 70
     0
  9
$DIMSE2
 70
     0
  9
$DIMTAD
 70
     0
  9
$DIMZIN
 70
     8
  9
$DIMBLK
  1

  9
$DIMASO
 70
     1
  9
$DIMSHO
 70
     0
  9
$DIMPOST
  1

  9
$DIMAPOST
  1

  9
$DIMALT
 70
     0
  9
$DIMALTD
 70
     3
  9
$DIMALTF
 40
0.03937
  9
$DIMLFAC
 40
1.0
  9
$DIMTOFL
 70
     1
  9
$DIMTVP
 40
0.0
  9
$DIMTIX
 70
     0
  9
$DIMSOXD
 70
     0
  9
$DIMSAH
 70
     0
  9
$DIMBLK1
  1

  9
$DIMBLK2
  1

  9
$DIMSTYLE
  2
ISO-25
  9
$DIMCLRD
 70
     0
  9
$DIMCLRE
 70
     0
  9
$DIMCLRT
 70
     0
  9
$DIMTFAC
 40
1.0
  9
$DIMGAP
 40
0.625
  9
$DIMJUST
 70
     0
  9
$DIMSD1
 70
     0
  9
$DIMSD2
 70
     0
  9
$DIMTOLJ
 70
     0
  9
$DIMTZIN
 70
     8
  9
$DIMALTZ
 70
     0
  9
$DIMALTTZ
 70
     0
  9
$DIMUPT
 70
     0
  9
$DIMDEC
 70
     2
  9
$DIMTDEC
 70
     2
  9
$DIMALTU
 70
     2
  9
$DIMALTTD
 70
     3
  9
$DIMTXSTY
  7
Standard
  9
$DIMAUNIT
 70
     0
  9
$DIMADEC
 70
     0
  9
$DIMALTRND
 40
0.0
  9
$DIMAZIN
 70
     0
  9
$DIMDSEP
 70
    44
  9
$DIMATFIT
 70
     3
  9
$DIMFRAC
 70
     0
  9
$DIMLDRBLK
  1

  9
$DIMLUNIT
 70
     2
  9
$DIMLWD
 70
    -2
  9
$DIMLWE
 70
    -2
  9
$DIMTMOVE
 70
     0
  9
$LUNITS
 70
     2
  9
$LUPREC
 70
     4
  9
$SKETCHINC
 40
1.0
  9
$FILLETRAD
 40
0.0
  9
$AUNITS
 70
     0
  9
$AUPREC
 70
     0
  9
$MENU
  1
.
  9
$ELEVATION
 40
0.0
  9
$PELEVATION
 40
0.0
  9
$THICKNESS
 40
0.0
  9
$LIMCHECK
 70
     0
  9
$CHAMFERA
 40
10.0
  9
$CHAMFERB
 40
10.0
  9
$CHAMFERC
 40
20.0
  9
$CHAMFERD
 40
0.0
  9
$SKPOLY
 70
     0
  9
$TDCREATE
 40
2454818.809613264
  9
$TDUCREATE
 40
2454818.434613264
  9
$TDUPDATE
 40
2454818.809613275
  9
$TDUUPDATE
 40
2454818.434613275
  9
$TDINDWG
 40
0.0000000116
  9
$TDUSRTIMER
 40
0.0000000116
  9
$USRTIMER
 70
     1
  9
$ANGBASE
 50
0.0
  9
$ANGDIR
 70
     0
  9
$PDMODE
 70
     0
  9
$PDSIZE
 40
0.0
  9
$PLINEWID
 40
0.0
  9
$SPLFRAME
 70
     0
  9
$SPLINETYPE
 70
     6
  9
$SPLINESEGS
 70
     8
  9
$HANDSEED
  5
61F
  9
$SURFTAB1
 70
     6
  9
$SURFTAB2
 70
     6
  9
$SURFTYPE
 70
     6
  9
$SURFU
 70
     6
  9
$SURFV
 70
     6
  9
$UCSBASE
  2

  9
$UCSNAME
  2

  9
$UCSORG
 10
0.0
 20
0.0
 30
0.0
  9
$UCSXDIR
 10
1.0
 20
0.0
 30
0.0
  9
$UCSYDIR
 10
0.0
 20
1.0
 30
0.0
  9
$UCSORTHOREF
  2

  9
$UCSORTHOVIEW
 70
     0
  9
$UCSORGTOP
 10
0.0
 20
0.0
 30
0.0
  9
$UCSORGBOTTOM
 10
0.0
 20
0.0
 30
0.0
  9
$UCSORGLEFT
 10
0.0
 20
0.0
 30
0.0
  9
$UCSORGRIGHT
 10
0.0
 20
0.0
 30
0.0
  9
$UCSORGFRONT
 10
0.0
 20
0.0
 30
0.0
  9
$UCSORGBACK
 10
0.0
 20
0.0
 30
0.0
  9
$PUCSBASE
  2

  9
$PUCSNAME
  2

  9
$PUCSORG
 10
0.0
 20
0.0
 30
0.0
  9
$PUCSXDIR
 10
1.0
 20
0.0
 30
0.0
  9
$PUCSYDIR
 10
0.0
 20
1.0
 30
0.0
  9
$PUCSORTHOREF
  2

  9
$PUCSORTHOVIEW
 70
     0
  9
$PUCSORGTOP
 10
0.0
 20
0.0
 30
0.0
  9
$PUCSORGBOTTOM
 10
0.0
 20
0.0
 30
0.0
  9
$PUCSORGLEFT
 10
0.0
 20
0.0
 30
0.0
  9
$PUCSORGRIGHT
 10
0.0
 20
0.0
 30
0.0
  9
$PUCSORGFRONT
 10
0.0
 20
0.0
 30
0.0
  9
$PUCSORGBACK
 10
0.0
 20
0.0
 30
0.0
  9
$USERI1
 70
     0
  9
$USERI2
 70
     0
  9
$USERI3
 70
     0
  9
$USERI4
 70
     0
  9
$USERI5
 70
     0
  9
$USERR1
 40
0.0
  9
$USERR2
 40
0.0
  9
$USERR3
 40
0.0
  9
$USERR4
 40
0.0
  9
$USERR5
 40
0.0
  9
$WORLDVIEW
 70
     1
  9
$SHADEDGE
 70
     3
  9
$SHADEDIF
 70
    70
  9
$TILEMODE
 70
     1
  9
$MAXACTVP
 70
    64
  9
$PINSBASE
 10
0.0
 20
0.0
 30
0.0
  9
$PLIMCHECK
 70
     0
  9
$PEXTMIN
 10
1.000000E+20
 20
1.000000E+20
 30
0.0
  9
$PEXTMAX
 10
-1.000000E+20
 20
-1.000000E+20
 30
0.0
  9
$PLIMMIN
 10
0.0
 20
0.0
  9
$PLIMMAX
 10
12.0
 20
9.0
  9
$UNITMODE
 70
     0
  9
$VISRETAIN
 70
     1
  9
$PLINEGEN
 70
     0
  9
$PSLTSCALE
 70
     1
  9
$TREEDEPTH
 70
  3020
  9
$CMLSTYLE
  2
Standard
  9
$CMLJUST
 70
     0
  9
$CMLSCALE
 40
20.0
  9
$PROXYGRAPHICS
 70
     1
  9
$MEASUREMENT
 70
     1
  9
$CELWEIGHT
370
    -1
  9
$ENDCAPS
280
     0
  9
$JOINSTYLE
280
     0
  9
$LWDISPLAY
290
     0
  9
$INSUNITS
 70
     4
  9
$HYPERLINKBASE
  1

  9
$STYLESHEET
  1

  9
$XEDIT
290
     1
  9
$CEPSNTYPE
380
     0
  9
$PSTYLEMODE
290
     1
  9
$FINGERPRINTGUID
  2
{409D4AA7-7813-4778-8039-918016AAD05B}
  9
$VERSIONGUID
  2
{FAEB1C32-E019-11D5-929B-00C0DF256EC4}
  9
$EXTNAMES
290
     1
  9
$PSVPSCALE
 40
0.0
  9
$OLESTARTUP
290
     0
  0
ENDSEC
  0
SECTION
  2
CLASSES
  0
CLASS
  1
ACDBDICTIONARYWDFLT
  2
AcDbDictionaryWithDefault
  3
ObjectDBX Classes
 90
        0
280
     0
281
     0
  0
CLASS
  1
VISUALSTYLE
  2
AcDbVisualStyle
  3
ObjectDBX Classes
 90
     4095
280
     0
281
     0
  0
CLASS
  1
SCALE
  2
AcDbScale
  3
ObjectDBX Classes
 90
     1153
280
     0
281
     0
  0
CLASS
  1
DICTIONARYVAR
  2
AcDbDictionaryVar
  3
ObjectDBX Classes
 90
        0
280
     0
281
     0
  0
CLASS
  1
ACDBPLACEHOLDER
  2
AcDbPlaceHolder
  3
ObjectDBX Classes
 90
        0
280
     0
281
     0
  0
CLASS
  1
LAYOUT
  2
AcDbLayout
  3
ObjectDBX Classes
 90
        0
280
     0
281
     0
  0
ENDSEC
  0
SECTION
  2
TABLES
  0
TABLE
  2
VPORT
  5
8
330
0
100
AcDbSymbolTable
 70
     1
  0
VPORT
  5
29
330
8
100
AcDbSymbolTableRecord
100
AcDbViewportTableRecord
  2
*Active
 70
     0
 10
0.0
 20
0.0
 11
1.0
 21
1.0
 12
102.574066
 22
39.245544
 13
0.0
 23
0.0
 14
1.0
 24
1.0
 15
0.0
 25
0.0
 16
0.0
 26
0.0
 36
1.0
 17
0.0
 27
0.0
 37
0.0
 40
242.032531
 41
1.691288
 42
50.0
 43
0.0
 44
0.0
 50
0.0
 51
0.0
 71
     0
 72
   100
 73
     1
 74
     3
 75
     0
 76
     0
 77
     0
 78
     0
281
     0
 65
     1
110
0.0
120
0.0
130
0.0
111
1.0
121
0.0
131
0.0
112
0.0
122
1.0
132
0.0
 79
     0
146
0.0
  0
ENDTAB
  0
TABLE
  2
LTYPE
  5
5
330
0
100
AcDbSymbolTable
 70
     5
  0
LTYPE
  5
14
330
5
100
AcDbSymbolTableRecord
100
AcDbLinetypeTableRecord
  2
ByBlock
 70
     0
  3

 72
    65
 73
     0
 40
0.0
  0
LTYPE
  5
15
330
5
100
AcDbSymbolTableRecord
100
AcDbLinetypeTableRecord
  2
ByLayer
 70
     0
  3

 72
    65
 73
     0
 40
0.0
  0
LTYPE
  5
16
330
5
100
AcDbSymbolTableRecord
100
AcDbLinetypeTableRecord
  2
Continuous
 70
     0
  3
Solid line
 72
    65
 73
     0
 40
0.0
  0
LTYPE
  5
5D
330
5
100
AcDbSymbolTableRecord
100
AcDbLinetypeTableRecord
  2
DASHED
 70
     0
  3
DASHED
 72
    83
 73
     2
 40
0.75
 49
0.5
 74
     0
 49
-0.25
 74
     0
  0
LTYPE
  5
5E
330
5
100
AcDbSymbolTableRecord
100
AcDbLinetypeTableRecord
  2
HIDDEN
 70
     0
  3
HIDDEN
 72
    83
 73
     2
 40
0.375
 49
0.25
 74
     0
 49
-0.125
 74
     0
  0
LTYPE
  5
5F
330
5
100
AcDbSymbolTableRecord
100
AcDbLinetypeTableRecord
  2
CENTER
 70
     0
  3
CENTER
 72
    83
 73
     4
 40
2.0
 49
1.25
 74
     0
 49
-0.25
 74
     0
 49
0.25
 74
     0
 49
-0.25
 74
     0
  0
LTYPE
  5
60
330
5
100
AcDbSymbolTableRecord
100
AcDbLinetypeTableRecord
  2
PHANTOM
 70
     0
  3
PHANTOM
 72
    83
 73
     6
 40
2.5
 49
1.25
 74
     0
 49
-0.25
 74
     0
 49
0.25
 74
     0
 49
-0.25
 74
     0
 49
0.25
 74
     0
 49
-0.25
 74
     0
  0
ENDTAB
  0
TABLE
  2
LAYER
  5
2
330
0
100
AcDbSymbolTable
 70
     2
  0
LAYER
  5
10
330
2
100
AcDbSymbolTableRecord
100
AcDbLayerTableRecord
  2
0
 70
     0
 62
     7
  6
Continuous
370
    -3
390
F
  0
LAYER
  5
61
330
2
100
AcDbSymbolTableRecord
100
AcDbLayerTableRecord
  2
001
 70
     0
 62
     7
  6
Continuous
370
    -3
390
F
  0
ENDTAB
  0
TABLE
  2
STYLE
  5
3
330
0
100
AcDbSymbolTable
 70
     2
  0
STYLE
  5
11
330
3
100
AcDbSymbolTableRecord
100
AcDbTextStyleTableRecord
  2
Standard
 70
     0
 40
0.0
 41
1.0
 50
0.0
 71
     0
 42
0.2
  3
TXT
  4
BIGFONT
  0
STYLE
  5
62
330
3
100
AcDbSymbolTableRecord
100
AcDbTextStyleTableRecord
  2
TATEGAKI
 70
     4
 40
1.0
 41
1.0
 50
0.0
 71
     0
 42
0.2
  3
TXT
  4
BIGFONT
  0
ENDTAB
  0
TABLE
  2
VIEW
  5
6
330
0
100
AcDbSymbolTable
 70
     0
  0
ENDTAB
  0
TABLE
  2
UCS
  5
7
330
0
100
AcDbSymbolTable
 70
     0
  0
ENDTAB
  0
TABLE
  2
APPID
  5
9
330
0
100
AcDbSymbolTable
 70
     1
  0
APPID
  5
12
330
9
100
AcDbSymbolTableRecord
100
AcDbRegAppTableRecord
  2
ACAD
 70
     0
  0
ENDTAB
  0
TABLE
  2
DIMSTYLE
  5
A
330
0
100
AcDbSymbolTable
 70
     2
100
AcDbDimStyleTable
  0
DIMSTYLE
105
27
330
A
100
AcDbSymbolTableRecord
100
AcDbDimStyleTableRecord
  2
ISO-25
 70
     0
 41
2.5
 42
0.625
 43
3.75
 44
1.25
 73
     0
 74
     0
 77
     1
 78
     8
140
2.5
141
2.5
143
0.03937
147
0.625
171
     3
172
     1
271
     2
272
     2
274
     3
278
    44
283
     0
284
     8
340
11
  0
DIMSTYLE
105
63
102
{ACAD_REACTORS
330
F3
330
F4
330
F5
330
102
330
103
330
104
330
105
102
}
330
A
100
AcDbSymbolTableRecord
100
AcDbDimStyleTableRecord
  2
Standard
 70
     0
 41
1.5
 42
0.0
 44
2.75
 73
     0
 74
     0
 77
     1
 78
     8
 79
     2
140
4.0
146
0.8
147
1.0
172
     1
179
     1
271
     1
340
11
  0
ENDTAB
  0
TABLE
  2
BLOCK_RECORD
  5
1
330
0
100
AcDbSymbolTable
 70
     8
  0
BLOCK_RECORD
  5
1F
330
1
100
AcDbSymbolTableRecord
100
AcDbBlockTableRecord
  2
*Model_Space
340
22
  0
BLOCK_RECORD
  5
1B
330
1
100
AcDbSymbolTableRecord
100
AcDbBlockTableRecord
  2
*Paper_Space
340
1E
  0
BLOCK_RECORD
  5
23
330
1
100
AcDbSymbolTableRecord
100
AcDbBlockTableRecord
  2
*Paper_Space0
340
26
  0
BLOCK_RECORD
  5
64
330
1
100
AcDbSymbolTableRecord
100
AcDbBlockTableRecord
  2
*D1
340
0
  0
BLOCK_RECORD
  5
78
330
1
100
AcDbSymbolTableRecord
100
AcDbBlockTableRecord
  2
*D2
340
0
  0
BLOCK_RECORD
  5
8C
330
1
100
AcDbSymbolTableRecord
100
AcDbBlockTableRecord
  2
*D3
340
0
  0
BLOCK_RECORD
  5
A0
330
1
100
AcDbSymbolTableRecord
100
AcDbBlockTableRecord
  2
*D4
340
0
  0
BLOCK_RECORD
  5
B4
330
1
100
AcDbSymbolTableRecord
100
AcDbBlockTableRecord
  2
*D5
340
0
  0
BLOCK_RECORD
  5
C9
330
1
100
AcDbSymbolTableRecord
100
AcDbBlockTableRecord
  2
*D6
340
0
  0
BLOCK_RECORD
  5
DF
330
1
100
AcDbSymbolTableRecord
100
AcDbBlockTableRecord
  2
*D7
340
0
  0
ENDTAB
  0
ENDSEC
  0
SECTION
  2
BLOCKS
  0
BLOCK
  5
20
330
1F
100
AcDbEntity
  8
0
100
AcDbBlockBegin
  2
*Model_Space
 70
     0
 10
0.0
 20
0.0
 30
0.0
  3
*Model_Space
  1

  0
ENDBLK
  5
21
330
1F
100
AcDbEntity
  8
0
100
AcDbBlockEnd
  0
BLOCK
  5
1C
330
1B
100
AcDbEntity
 67
     1
  8
0
100
AcDbBlockBegin
  2
*Paper_Space
 70
     0
 10
0.0
 20
0.0
 30
0.0
  3
*Paper_Space
  1

  0
ENDBLK
  5
1D
330
1B
100
AcDbEntity
 67
     1
  8
0
100
AcDbBlockEnd
  0
BLOCK
  5
24
330
23
100
AcDbEntity
  8
0
100
AcDbBlockBegin
  2
*Paper_Space0
 70
     0
 10
0.0
 20
0.0
 30
0.0
  3
*Paper_Space0
  1

  0
ENDBLK
  5
25
330
23
100
AcDbEntity
  8
0
100
AcDbBlockEnd
  0
BLOCK
  5
65
330
64
100
AcDbEntity
  8
0
100
AcDbBlockBegin
  2
*D1
 70
     1
 10
0.0
 20
0.0
 30
0.0
  3
*D1
  1

  0
LINE
  5
67
330
64
100
AcDbEntity
  8
001
370
     9
100
AcDbLine
 10
75.669876
 20
58.692091
 30
0.0
 11
75.669876
 21
19.004119
 31
0.0
  0
LINE
  5
68
330
64
100
AcDbEntity
  8
001
370
     9
100
AcDbLine
 10
40.669876
 20
44.875723
 30
0.0
 11
40.669876
 21
19.004119
 31
0.0
  0
LINE
  5
69
330
64
100
AcDbEntity
  8
001
370
     9
100
AcDbLine
 10
75.669876
 20
21.754119
 30
0.0
 11
40.669876
 21
21.754119
 31
0.0
  0
POLYLINE
  5
6A
330
64
100
AcDbEntity
  8
001
370
     9
100
AcDb2dPolyline
 66
     1
 10
0.0
 20
0.0
 30
0.0
  0
VERTEX
  5
6C
330
6A
100
AcDbEntity
  8
001
370
     9
100
AcDbVertex
100
AcDb2dVertex
 10
74.169876
 20
22.156043
 30
0.0
  0
VERTEX
  5
6D
330
6A
100
AcDbEntity
  8
001
370
     9
100
AcDbVertex
100
AcDb2dVertex
 10
75.669876
 20
21.754119
 30
0.0
  0
VERTEX
  5
6E
330
6A
100
AcDbEntity
  8
001
370
     9
100
AcDbVertex
100
AcDb2dVertex
 10
74.169876
 20
21.352195
 30
0.0
  0
SEQEND
  5
6B
330
6A
100
AcDbEntity
  8
001
370
     9
  0
POLYLINE
  5
6F
330
64
100
AcDbEntity
  8
001
370
     9
100
AcDb2dPolyline
 66
     1
 10
0.0
 20
0.0
 30
0.0
  0
VERTEX
  5
71
330
6F
100
AcDbEntity
  8
001
370
     9
100
AcDbVertex
100
AcDb2dVertex
 10
42.169876
 20
21.352195
 30
0.0
  0
VERTEX
  5
72
330
6F
100
AcDbEntity
  8
001
370
     9
100
AcDbVertex
100
AcDb2dVertex
 10
40.669876
 20
21.754119
 30
0.0
  0
VERTEX
  5
73
330
6F
100
AcDbEntity
  8
001
370
     9
100
AcDbVertex
100
AcDb2dVertex
 10
42.169876
 20
22.156043
 30
0.0
  0
SEQEND
  5
70
330
6F
100
AcDbEntity
  8
001
370
     9
  0
TEXT
  5
74
330
64
100
AcDbEntity
  8
001
370
    30
100
AcDbText
 10
54.169876
 20
22.754119
 30
0.0
 40
4.0
  1
３５
 41
0.833333
100
AcDbText
  0
POINT
  5
75
330
64
100
AcDbEntity
  8
001
370
     9
100
AcDbPoint
 10
75.669876
 20
58.692091
 30
0.0
  0
POINT
  5
76
330
64
100
AcDbEntity
  8
001
370
     9
100
AcDbPoint
 10
40.669876
 20
44.875723
 30
0.0
  0
POINT
  5
77
330
64
100
AcDbEntity
  8
001
370
     9
100
AcDbPoint
 10
40.669876
 20
21.754119
 30
0.0
  0
ENDBLK
  5
66
330
64
100
AcDbEntity
  8
0
100
AcDbBlockEnd
  0
BLOCK
  5
79
330
78
100
AcDbEntity
  8
0
100
AcDbBlockBegin
  2
*D2
 70
     1
 10
0.0
 20
0.0
 30
0.0
  3
*D2
  1

  0
LINE
  5
7B
330
78
100
AcDbEntity
  8
001
370
     9
100
AcDbLine
 10
160.669876
 20
82.916446
 30
0.0
 11
160.669876
 21
19.004119
 31
0.0
  0
LINE
  5
7C
330
78
100
AcDbEntity
  8
001
370
     9
100
AcDbLine
 10
75.669876
 20
58.692091
 30
0.0
 11
75.669876
 21
19.004119
 31
0.0
  0
LINE
  5
7D
330
78
100
AcDbEntity
  8
001
370
     9
100
AcDbLine
 10
160.669876
 20
21.754119
 30
0.0
 11
75.669876
 21
21.754119
 31
0.0
  0
POLYLINE
  5
7E
330
78
100
AcDbEntity
  8
001
370
     9
100
AcDb2dPolyline
 66
     1
 10
0.0
 20
0.0
 30
0.0
  0
VERTEX
  5
80
330
7E
100
AcDbEntity
  8
001
370
     9
100
AcDbVertex
100
AcDb2dVertex
 10
159.169876
 20
22.156043
 30
0.0
  0
VERTEX
  5
81
330
7E
100
AcDbEntity
  8
001
370
     9
100
AcDbVertex
100
AcDb2dVertex
 10
160.669876
 20
21.754119
 30
0.0
  0
VERTEX
  5
82
330
7E
100
AcDbEntity
  8
001
370
     9
100
AcDbVertex
100
AcDb2dVertex
 10
159.169876
 20
21.352195
 30
0.0
  0
SEQEND
  5
7F
330
7E
100
AcDbEntity
  8
001
370
     9
  0
POLYLINE
  5
83
330
78
100
AcDbEntity
  8
001
370
     9
100
AcDb2dPolyline
 66
     1
 10
0.0
 20
0.0
 30
0.0
  0
VERTEX
  5
85
330
83
100
AcDbEntity
  8
001
370
     9
100
AcDbVertex
100
AcDb2dVertex
 10
77.169876
 20
21.352195
 30
0.0
  0
VERTEX
  5
86
330
83
100
AcDbEntity
  8
001
370
     9
100
AcDbVertex
100
AcDb2dVertex
 10
75.669876
 20
21.754119
 30
0.0
  0
VERTEX
  5
87
330
83
100
AcDbEntity
  8
001
370
     9
100
AcDbVertex
100
AcDb2dVertex
 10
77.169876
 20
22.156043
 30
0.0
  0
SEQEND
  5
84
330
83
100
AcDbEntity
  8
001
370
     9
  0
TEXT
  5
88
330
78
100
AcDbEntity
  8
001
370
    30
100
AcDbText
 10
114.169876
 20
22.754119
 30
0.0
 40
4.0
  1
８５
 41
0.833333
100
AcDbText
  0
POINT
  5
89
330
78
100
AcDbEntity
  8
001
370
     9
100
AcDbPoint
 10
160.669876
 20
82.916446
 30
0.0
  0
POINT
  5
8A
330
78
100
AcDbEntity
  8
001
370
     9
100
AcDbPoint
 10
75.669876
 20
58.692091
 30
0.0
  0
POINT
  5
8B
330
78
100
AcDbEntity
  8
001
370
     9
100
AcDbPoint
 10
75.669876
 20
21.754119
 30
0.0
  0
ENDBLK
  5
7A
330
78
100
AcDbEntity
  8
0
100
AcDbBlockEnd
  0
BLOCK
  5
8D
330
8C
100
AcDbEntity
  8
0
100
AcDbBlockBegin
  2
*D3
 70
     1
 10
0.0
 20
0.0
 30
0.0
  3
*D3
  1

  0
LINE
  5
8F
330
8C
100
AcDbEntity
  8
001
370
     9
100
AcDbLine
 10
40.669876
 20
44.875723
 30
0.0
 11
40.669876
 21
7.859403
 31
0.0
  0
LINE
  5
90
330
8C
100
AcDbEntity
  8
001
370
     9
100
AcDbLine
 10
160.669876
 20
82.916446
 30
0.0
 11
160.669876
 21
7.859403
 31
0.0
  0
LINE
  5
91
330
8C
100
AcDbEntity
  8
001
370
     9
100
AcDbLine
 10
40.669876
 20
10.609403
 30
0.0
 11
160.669876
 21
10.609403
 31
0.0
  0
POLYLINE
  5
92
330
8C
100
AcDbEntity
  8
001
370
     9
100
AcDb2dPolyline
 66
     1
 10
0.0
 20
0.0
 30
0.0
  0
VERTEX
  5
94
330
92
100
AcDbEntity
  8
001
370
     9
100
AcDbVertex
100
AcDb2dVertex
 10
42.169876
 20
10.207479
 30
0.0
  0
VERTEX
  5
95
330
92
100
AcDbEntity
  8
001
370
     9
100
AcDbVertex
100
AcDb2dVertex
 10
40.669876
 20
10.609403
 30
0.0
  0
VERTEX
  5
96
330
92
100
AcDbEntity
  8
001
370
     9
100
AcDbVertex
100
AcDb2dVertex
 10
42.169876
 20
11.011327
 30
0.0
  0
SEQEND
  5
93
330
92
100
AcDbEntity
  8
001
370
     9
  0
POLYLINE
  5
97
330
8C
100
AcDbEntity
  8
001
370
     9
100
AcDb2dPolyline
 66
     1
 10
0.0
 20
0.0
 30
0.0
  0
VERTEX
  5
99
330
97
100
AcDbEntity
  8
001
370
     9
100
AcDbVertex
100
AcDb2dVertex
 10
159.169876
 20
11.011327
 30
0.0
  0
VERTEX
  5
9A
330
97
100
AcDbEntity
  8
001
370
     9
100
AcDbVertex
100
AcDb2dVertex
 10
160.669876
 20
10.609403
 30
0.0
  0
VERTEX
  5
9B
330
97
100
AcDbEntity
  8
001
370
     9
100
AcDbVertex
100
AcDb2dVertex
 10
159.169876
 20
10.207479
 30
0.0
  0
SEQEND
  5
98
330
97
100
AcDbEntity
  8
001
370
     9
  0
TEXT
  5
9C
330
8C
100
AcDbEntity
  8
001
370
    30
100
AcDbText
 10
94.669876
 20
11.609403
 30
0.0
 40
4.0
  1
１２０
 41
0.833333
100
AcDbText
  0
POINT
  5
9D
330
8C
100
AcDbEntity
  8
001
370
     9
100
AcDbPoint
 10
40.669876
 20
44.875723
 30
0.0
  0
POINT
  5
9E
330
8C
100
AcDbEntity
  8
001
370
     9
100
AcDbPoint
 10
160.669876
 20
82.916446
 30
0.0
  0
POINT
  5
9F
330
8C
100
AcDbEntity
  8
001
370
     9
100
AcDbPoint
 10
160.669876
 20
10.609403
 30
0.0
  0
ENDBLK
  5
8E
330
8C
100
AcDbEntity
  8
0
100
AcDbBlockEnd
  0
BLOCK
  5
A1
330
A0
100
AcDbEntity
  8
0
100
AcDbBlockBegin
  2
*D4
 70
     1
 10
0.0
 20
0.0
 30
0.0
  3
*D4
  1

  0
LINE
  5
A3
330
A0
100
AcDbEntity
  8
001
370
     9
100
AcDbLine
 10
152.669876
 20
106.916446
 30
0.0
 11
193.244265
 21
106.916446
 31
0.0
  0
LINE
  5
A4
330
A0
100
AcDbEntity
  8
001
370
     9
100
AcDbLine
 10
152.669876
 20
74.916446
 30
0.0
 11
193.244265
 21
74.916446
 31
0.0
  0
LINE
  5
A5
330
A0
100
AcDbEntity
  8
001
370
     9
100
AcDbLine
 10
190.494265
 20
106.916446
 30
0.0
 11
190.494265
 21
74.916446
 31
0.0
  0
POLYLINE
  5
A6
330
A0
100
AcDbEntity
  8
001
370
     9
100
AcDb2dPolyline
 66
     1
 10
0.0
 20
0.0
 30
0.0
  0
VERTEX
  5
A8
330
A6
100
AcDbEntity
  8
001
370
     9
100
AcDbVertex
100
AcDb2dVertex
 10
190.092342
 20
105.416446
 30
0.0
  0
VERTEX
  5
A9
330
A6
100
AcDbEntity
  8
001
370
     9
100
AcDbVertex
100
AcDb2dVertex
 10
190.494265
 20
106.916446
 30
0.0
  0
VERTEX
  5
AA
330
A6
100
AcDbEntity
  8
001
370
     9
100
AcDbVertex
100
AcDb2dVertex
 10
190.896189
 20
105.416446
 30
0.0
  0
SEQEND
  5
A7
330
A6
100
AcDbEntity
  8
001
370
     9
  0
POLYLINE
  5
AB
330
A0
100
AcDbEntity
  8
001
370
     9
100
AcDb2dPolyline
 66
     1
 10
0.0
 20
0.0
 30
0.0
  0
VERTEX
  5
AD
330
AB
100
AcDbEntity
  8
001
370
     9
100
AcDbVertex
100
AcDb2dVertex
 10
190.896189
 20
76.416446
 30
0.0
  0
VERTEX
  5
AE
330
AB
100
AcDbEntity
  8
001
370
     9
100
AcDbVertex
100
AcDb2dVertex
 10
190.494265
 20
74.916446
 30
0.0
  0
VERTEX
  5
AF
330
AB
100
AcDbEntity
  8
001
370
     9
100
AcDbVertex
100
AcDb2dVertex
 10
190.092342
 20
76.416446
 30
0.0
  0
SEQEND
  5
AC
330
AB
100
AcDbEntity
  8
001
370
     9
  0
TEXT
  5
B0
330
A0
100
AcDbEntity
  8
001
370
    30
100
AcDbText
 10
189.494265
 20
84.916446
 30
0.0
 40
4.0
  1
%%c３２
 50
90.000003
 41
0.882353
100
AcDbText
  0
POINT
  5
B1
330
A0
100
AcDbEntity
  8
001
370
     9
100
AcDbPoint
 10
152.669876
 20
106.916446
 30
0.0
  0
POINT
  5
B2
330
A0
100
AcDbEntity
  8
001
370
     9
100
AcDbPoint
 10
152.669876
 20
74.916446
 30
0.0
  0
POINT
  5
B3
330
A0
100
AcDbEntity
  8
001
370
     9
100
AcDbPoint
 10
190.494265
 20
74.916446
 30
0.0
  0
ENDBLK
  5
A2
330
A0
100
AcDbEntity
  8
0
100
AcDbBlockEnd
  0
BLOCK
  5
B5
330
B4
100
AcDbEntity
  8
0
100
AcDbBlockBegin
  2
*D5
 70
     1
 10
0.0
 20
0.0
 30
0.0
  3
*D5
  1

  0
LINE
  5
B7
330
B4
100
AcDbEntity
  8
001
370
     9
100
AcDbLine
 10
40.669876
 20
48.05116
 30
0.0
 11
40.669876
 21
37.78618
 31
0.0
  0
LINE
  5
B8
330
B4
100
AcDbEntity
  8
001
370
     9
100
AcDbLine
 10
33.001779
 20
55.916446
 30
0.0
 11
22.539609
 21
55.916446
 31
0.0
  0
ARC
  5
B9
330
B4
100
AcDbEntity
  8
001
370
     9
100
AcDbCircle
 10
40.669876
 20
55.916446
 30
0.0
 40
15.38026673650091
100
AcDbArc
 50
180.0
 51
270.0
  0
POLYLINE
  5
BA
330
B4
100
AcDbEntity
  8
001
370
     9
100
AcDb2dPolyline
 66
     1
 10
0.0
 20
0.0
 30
0.0
  0
VERTEX
  5
BC
330
BA
100
AcDbEntity
  8
001
370
     9
100
AcDbVertex
100
AcDb2dVertex
 10
39.19125
 20
41.010742
 30
0.0
  0
VERTEX
  5
BD
330
BA
100
AcDbEntity
  8
001
370
     9
100
AcDbVertex
100
AcDb2dVertex
 10
40.669876
 20
40.53618
 30
0.0
  0
VERTEX
  5
BE
330
BA
100
AcDbEntity
  8
001
370
     9
100
AcDbVertex
100
AcDb2dVertex
 10
39.152067
 20
40.20785
 30
0.0
  0
SEQEND
  5
BB
330
BA
100
AcDbEntity
  8
001
370
     9
  0
POLYLINE
  5
BF
330
B4
100
AcDbEntity
  8
001
370
     9
100
AcDb2dPolyline
 66
     1
 10
0.0
 20
0.0
 30
0.0
  0
VERTEX
  5
C1
330
BF
100
AcDbEntity
  8
001
370
     9
100
AcDbVertex
100
AcDb2dVertex
 10
24.96128
 20
54.398638
 30
0.0
  0
VERTEX
  5
C2
330
BF
100
AcDbEntity
  8
001
370
     9
100
AcDbVertex
100
AcDb2dVertex
 10
25.289609
 20
55.916446
 30
0.0
  0
VERTEX
  5
C3
330
BF
100
AcDbEntity
  8
001
370
     9
100
AcDbVertex
100
AcDb2dVertex
 10
25.764172
 20
54.437821
 30
0.0
  0
SEQEND
  5
C0
330
BF
100
AcDbEntity
  8
001
370
     9
  0
TEXT
  5
C4
330
B4
100
AcDbEntity
  8
001
370
    30
100
AcDbText
 10
26.258851
 20
49.990703
 30
0.0
 40
4.0
  1
９０%%d
 50
314.999992
 41
0.978261
100
AcDbText
  0
POINT
  5
C5
330
B4
100
AcDbEntity
  8
001
370
     9
100
AcDbPoint
 10
40.669876
 20
48.05116
 30
0.0
  0
POINT
  5
C6
330
B4
100
AcDbEntity
  8
001
370
     9
100
AcDbPoint
 10
40.669876
 20
55.916446
 30
0.0
  0
POINT
  5
C7
330
B4
100
AcDbEntity
  8
001
370
     9
100
AcDbPoint
 10
40.669876
 20
55.916446
 30
0.0
  0
POINT
  5
C8
330
B4
100
AcDbEntity
  8
001
370
     9
100
AcDbPoint
 10
33.001779
 20
55.916446
 30
0.0
  0
ENDBLK
  5
B6
330
B4
100
AcDbEntity
  8
0
100
AcDbBlockEnd
  0
BLOCK
  5
CA
330
C9
100
AcDbEntity
  8
0
100
AcDbBlockBegin
  2
*D6
 70
     1
 10
0.0
 20
0.0
 30
0.0
  3
*D6
  1

  0
LINE
  5
CC
330
C9
100
AcDbEntity
  8
001
370
     9
100
AcDbLine
 10
55.198426
 20
55.952385
 30
0.0
 11
55.198426
 21
36.703356
 31
0.0
  0
LINE
  5
CD
330
C9
100
AcDbEntity
  8
001
370
     9
100
AcDbLine
 10
40.669876
 20
48.05116
 30
0.0
 11
40.669876
 21
36.703356
 31
0.0
  0
LINE
  5
CE
330
C9
100
AcDbEntity
  8
001
370
     9
100
AcDbLine
 10
55.198426
 20
39.453356
 30
0.0
 11
40.669876
 21
39.453356
 31
0.0
  0
POLYLINE
  5
CF
330
C9
100
AcDbEntity
  8
001
370
     9
100
AcDb2dPolyline
 66
     1
 10
0.0
 20
0.0
 30
0.0
  0
VERTEX
  5
D1
330
CF
100
AcDbEntity
  8
001
370
     9
100
AcDbVertex
100
AcDb2dVertex
 10
56.698426
 20
39.051432
 30
0.0
  0
VERTEX
  5
D2
330
CF
100
AcDbEntity
  8
001
370
     9
100
AcDbVertex
100
AcDb2dVertex
 10
55.198426
 20
39.453356
 30
0.0
  0
VERTEX
  5
D3
330
CF
100
AcDbEntity
  8
001
370
     9
100
AcDbVertex
100
AcDb2dVertex
 10
56.698426
 20
39.855279
 30
0.0
  0
SEQEND
  5
D0
330
CF
100
AcDbEntity
  8
001
370
     9
  0
POLYLINE
  5
D4
330
C9
100
AcDbEntity
  8
001
370
     9
100
AcDb2dPolyline
 66
     1
 10
0.0
 20
0.0
 30
0.0
  0
VERTEX
  5
D6
330
D4
100
AcDbEntity
  8
001
370
     9
100
AcDbVertex
100
AcDb2dVertex
 10
39.169876
 20
39.855279
 30
0.0
  0
VERTEX
  5
D7
330
D4
100
AcDbEntity
  8
001
370
     9
100
AcDbVertex
100
AcDb2dVertex
 10
40.669876
 20
39.453356
 30
0.0
  0
VERTEX
  5
D8
330
D4
100
AcDbEntity
  8
001
370
     9
100
AcDbVertex
100
AcDb2dVertex
 10
39.169876
 20
39.051432
 30
0.0
  0
SEQEND
  5
D5
330
D4
100
AcDbEntity
  8
001
370
     9
  0
TEXT
  5
D9
330
C9
100
AcDbEntity
  8
001
370
    30
100
AcDbText
 10
60.565741
 20
40.453356
 30
0.0
 40
4.0
  1
（１４．５）
 41
0.833333
100
AcDbText
  0
POINT
  5
DA
330
C9
100
AcDbEntity
  8
001
370
     9
100
AcDbPoint
 10
55.198426
 20
55.952385
 30
0.0
  0
POINT
  5
DB
330
C9
100
AcDbEntity
  8
001
370
     9
100
AcDbPoint
 10
40.669876
 20
48.05116
 30
0.0
  0
POINT
  5
DC
330
C9
100
AcDbEntity
  8
001
370
     9
100
AcDbPoint
 10
40.669876
 20
39.453356
 30
0.0
  0
LINE
  5
DD
330
C9
100
AcDbEntity
  8
001
370
     9
100
AcDbLine
 10
55.198426
 20
39.453356
 30
0.0
 11
87.565741
 21
39.453356
 31
0.0
  0
LINE
  5
DE
330
C9
100
AcDbEntity
  8
001
370
     9
100
AcDbLine
 10
40.669876
 20
39.453356
 30
0.0
 11
38.169876
 21
39.453356
 31
0.0
  0
ENDBLK
  5
CB
330
C9
100
AcDbEntity
  8
0
100
AcDbBlockEnd
  0
BLOCK
  5
E0
330
DF
100
AcDbEntity
  8
0
100
AcDbBlockBegin
  2
*D7
 70
     1
 10
0.0
 20
0.0
 30
0.0
  3
*D7
  1

  0
LINE
  5
E2
330
DF
100
AcDbEntity
  8
001
370
     9
100
AcDbLine
 10
152.669876
 20
-24.572537
 30
0.0
 11
186.217347
 21
-24.572537
 31
0.0
  0
LINE
  5
E3
330
DF
100
AcDbEntity
  8
001
370
     9
100
AcDbLine
 10
152.669876
 20
-66.572537
 30
0.0
 11
186.217347
 21
-66.572537
 31
0.0
  0
LINE
  5
E4
330
DF
100
AcDbEntity
  8
001
370
     9
100
AcDbLine
 10
183.467347
 20
-24.572537
 30
0.0
 11
183.467347
 21
-66.572537
 31
0.0
  0
POLYLINE
  5
E5
330
DF
100
AcDbEntity
  8
001
370
     9
100
AcDb2dPolyline
 66
     1
 10
0.0
 20
0.0
 30
0.0
  0
VERTEX
  5
E7
330
E5
100
AcDbEntity
  8
001
370
     9
100
AcDbVertex
100
AcDb2dVertex
 10
183.065423
 20
-26.072537
 30
0.0
  0
VERTEX
  5
E8
330
E5
100
AcDbEntity
  8
001
370
     9
100
AcDbVertex
100
AcDb2dVertex
 10
183.467347
 20
-24.572537
 30
0.0
  0
VERTEX
  5
E9
330
E5
100
AcDbEntity
  8
001
370
     9
100
AcDbVertex
100
AcDb2dVertex
 10
183.86927
 20
-26.072537
 30
0.0
  0
SEQEND
  5
E6
330
E5
100
AcDbEntity
  8
001
370
     9
  0
POLYLINE
  5
EA
330
DF
100
AcDbEntity
  8
001
370
     9
100
AcDb2dPolyline
 66
     1
 10
0.0
 20
0.0
 30
0.0
  0
VERTEX
  5
EC
330
EA
100
AcDbEntity
  8
001
370
     9
100
AcDbVertex
100
AcDb2dVertex
 10
183.86927
 20
-65.072537
 30
0.0
  0
VERTEX
  5
ED
330
EA
100
AcDbEntity
  8
001
370
     9
100
AcDbVertex
100
AcDb2dVertex
 10
183.467347
 20
-66.572537
 30
0.0
  0
VERTEX
  5
EE
330
EA
100
AcDbEntity
  8
001
370
     9
100
AcDbVertex
100
AcDb2dVertex
 10
183.065423
 20
-65.072537
 30
0.0
  0
SEQEND
  5
EB
330
EA
100
AcDbEntity
  8
001
370
     9
  0
TEXT
  5
EF
330
DF
100
AcDbEntity
  8
001
370
    30
100
AcDbText
 10
182.467347
 20
-51.572537
 30
0.0
 40
4.0
  1
%%c４２
 50
90.000003
 41
0.882353
100
AcDbText
  0
POINT
  5
F0
330
DF
100
AcDbEntity
  8
001
370
     9
100
AcDbPoint
 10
152.669876
 20
-24.572537
 30
0.0
  0
POINT
  5
F1
330
DF
100
AcDbEntity
  8
001
370
     9
100
AcDbPoint
 10
152.669876
 20
-66.572537
 30
0.0
  0
POINT
  5
F2
330
DF
100
AcDbEntity
  8
001
370
     9
100
AcDbPoint
 10
183.467347
 20
-66.572537
 30
0.0
  0
ENDBLK
  5
E1
330
DF
100
AcDbEntity
  8
0
100
AcDbBlockEnd
  0
ENDSEC
  0
SECTION
  2
ENTITIES
  0
DIMENSION
  5
F3
330
1F
100
AcDbEntity
  8
001
370
     9
100
AcDbDimension
  2
*D1
 10
40.669876
 20
21.754119
 30
0.0
 11
58.169876
 21
24.754119
 31
0.0
 70
   160
 71
     5
 42
-1.0
  3
Standard
100
AcDbAlignedDimension
 13
75.669876
 23
58.692091
 33
0.0
 14
40.669876
 24
44.875723
 34
0.0
 50
180.0
100
AcDbRotatedDimension
  0
DIMENSION
  5
F4
330
1F
100
AcDbEntity
  8
001
370
     9
100
AcDbDimension
  2
*D2
 10
75.669876
 20
21.754119
 30
0.0
 11
118.169876
 21
24.754119
 31
0.0
 70
   160
 71
     5
 42
-1.0
  3
Standard
100
AcDbAlignedDimension
 13
160.669876
 23
82.916446
 33
0.0
 14
75.669876
 24
58.692091
 34
0.0
 50
180.0
100
AcDbRotatedDimension
  0
DIMENSION
  5
F5
330
1F
100
AcDbEntity
  8
001
370
     9
100
AcDbDimension
  2
*D3
 10
160.669876
 20
10.609403
 30
0.0
 11
100.669876
 21
13.609403
 31
0.0
 70
   160
 71
     5
 42
-1.0
  3
Standard
100
AcDbAlignedDimension
 13
40.669876
 23
44.875723
 33
0.0
 14
160.669876
 24
82.916446
 34
0.0
100
AcDbRotatedDimension
  0
TEXT
  5
F6
330
1F
100
AcDbEntity
  8
001
370
    30
100
AcDbText
 10
7.664008
 20
84.916446
 30
0.0
 40
4.0
  1
%%c７０
 50
90.000003
 41
0.882353
100
AcDbText
  0
POLYLINE
  5
F7
330
1F
100
AcDbEntity
  8
001
370
     9
100
AcDb2dPolyline
 66
     1
 10
0.0
 20
0.0
 30
0.0
  0
VERTEX
  5
F9
330
F7
100
AcDbEntity
  8
001
370
     9
100
AcDbVertex
100
AcDb2dVertex
 10
9.065932
 20
57.416446
 30
0.0
  0
VERTEX
  5
FA
330
F7
100
AcDbEntity
  8
001
370
     9
100
AcDbVertex
100
AcDb2dVertex
 10
8.664008
 20
55.916446
 30
0.0
  0
VERTEX
  5
FB
330
F7
100
AcDbEntity
  8
001
370
     9
100
AcDbVertex
100
AcDb2dVertex
 10
8.262084
 20
57.416446
 30
0.0
  0
SEQEND
  5
F8
330
F7
100
AcDbEntity
  8
001
370
     9
  0
LINE
  5
FC
330
1F
100
AcDbEntity
  8
001
370
     9
100
AcDbLine
 10
8.664008
 20
125.916446
 30
0.0
 11
8.664008
 21
55.916446
 31
0.0
  0
POLYLINE
  5
FD
330
1F
100
AcDbEntity
  8
001
370
     9
100
AcDb2dPolyline
 66
     1
 10
0.0
 20
0.0
 30
0.0
  0
VERTEX
  5
FF
330
FD
100
AcDbEntity
  8
001
370
     9
100
AcDbVertex
100
AcDb2dVertex
 10
30.28716
 20
55.916446
 30
0.0
  0
VERTEX
  5
100
330
FD
100
AcDbEntity
  8
001
370
     9
100
AcDbVertex
100
AcDb2dVertex
 10
8.664008
 20
55.916446
 30
0.0
  0
VERTEX
  5
101
330
FD
100
AcDbEntity
  8
001
370
     9
100
AcDbVertex
100
AcDb2dVertex
 10
5.914008
 20
55.916446
 30
0.0
  0
SEQEND
  5
FE
330
FD
100
AcDbEntity
  8
001
370
     9
  0
DIMENSION
  5
102
330
1F
100
AcDbEntity
  8
001
370
     9
100
AcDbDimension
  2
*D4
 10
190.494265
 20
74.916446
 30
0.0
 11
187.494265
 21
90.916446
 31
0.0
 70
   160
 71
     5
 42
-1.0
  3
Standard
100
AcDbAlignedDimension
 13
152.669876
 23
106.916446
 33
0.0
 14
152.669876
 24
74.916446
 34
0.0
 50
270.0
100
AcDbRotatedDimension
  0
DIMENSION
  5
103
330
1F
100
AcDbEntity
  8
001
370
     9
100
AcDbDimension
  2
*D5
 10
40.669876
 20
55.916446
 30
0.0
 11
31.915705
 21
47.162275
 31
0.0
 70
    34
 71
     5
 42
-1.0
  3
Standard
100
AcDb2LineAngularDimension
 13
40.669876
 23
48.05116
 33
0.0
 14
40.669876
 24
55.916446
 34
0.0
 15
33.001779
 25
55.916446
 35
0.0
 16
29.794385
 26
45.040956
 36
0.0
  0
DIMENSION
  5
104
330
1F
100
AcDbEntity
  8
001
370
     9
100
AcDbDimension
  2
*D6
 10
40.669876
 20
39.453356
 30
0.0
 11
72.565741
 21
42.453356
 31
0.0
 70
   160
 71
     5
 42
-1.0
  3
Standard
100
AcDbAlignedDimension
 13
55.198426
 23
55.952385
 33
0.0
 14
40.669876
 24
48.05116
 34
0.0
 50
180.0
100
AcDbRotatedDimension
  0
DIMENSION
  5
105
330
1F
100
AcDbEntity
  8
001
370
     9
100
AcDbDimension
  2
*D7
 10
183.467347
 20
-66.572537
 30
0.0
 11
180.467346
 21
-45.572537
 31
0.0
 70
   160
 71
     5
 42
-1.0
  3
Standard
100
AcDbAlignedDimension
 13
152.669876
 23
-24.572537
 33
0.0
 14
152.669876
 24
-66.572537
 34
0.0
 50
270.0
100
AcDbRotatedDimension
  0
TEXT
  5
106
330
1F
100
AcDbEntity
  8
001
370
    30
100
AcDbText
 10
-2.42594
 20
149.063627
 30
0.0
 40
10.0
  1
スカットカット　ＮＫ９０７０Ｔ　（３枚刃）
 41
0.833333
100
AcDbText
  0
LINE
  5
107
330
1F
100
AcDbEntity
  8
001
370
    50
100
AcDbLine
 10
52.311848
 20
114.106856
 30
0.0
 11
51.520631
 21
113.376991
 31
0.0
  0
LINE
  5
108
330
1F
100
AcDbEntity
  8
001
370
    50
100
AcDbLine
 10
52.388289
 20
113.44362
 30
0.0
 11
52.311848
 21
114.106856
 31
0.0
  0
LINE
  5
109
330
1F
100
AcDbEntity
  8
001
370
    50
100
AcDbLine
 10
59.46009
 20
113.416953
 30
0.0
 11
59.451173
 21
113.494314
 31
0.0
  0
LINE
  5
10A
330
1F
100
AcDbEntity
  8
001
370
    50
100
AcDbLine
 10
53.074272
 20
114.793089
 30
0.0
 11
52.311848
 21
114.106856
 31
0.0
  0
LINE
  5
10B
330
1F
100
AcDbEntity
  8
001
370
    50
100
AcDbLine
 10
53.074272
 20
114.793089
 30
0.0
 11
59.451173
 21
113.494314
 31
0.0
  0
LINE
  5
10C
330
1F
100
AcDbEntity
  8
001
370
    50
100
AcDbLine
 10
59.451173
 20
113.494314
 30
0.0
 11
59.493012
 21
113.419471
 31
0.0
  0
ARC
  5
10D
330
1F
100
AcDbEntity
  8
001
370
    50
100
AcDbCircle
 10
55.249861
 20
109.395672
 30
0.0
 40
5.3
100
AcDbArc
 50
54.832291
 51
102.143895
  0
POLYLINE
  5
10E
330
1F
100
AcDbEntity
  8
001
370
    50
100
AcDb2dPolyline
 66
     1
 10
0.0
 20
0.0
 30
0.0
  0
VERTEX
  5
110
330
10E
100
AcDbEntity
  8
001
370
    50
100
AcDbVertex
100
AcDb2dVertex
 10
41.947879
 20
108.503671
 30
0.0
  0
VERTEX
  5
111
330
10E
100
AcDbEntity
  8
001
370
    50
100
AcDbVertex
100
AcDb2dVertex
 10
41.922823
 20
108.501455
 30
0.0
  0
VERTEX
  5
112
330
10E
100
AcDbEntity
  8
001
370
    50
100
AcDbVertex
100
AcDb2dVertex
 10
41.887482
 20
108.497872
 30
0.0
  0
VERTEX
  5
113
330
10E
100
AcDbEntity
  8
001
370
    50
100
AcDbVertex
100
AcDb2dVertex
 10
41.814843
 20
108.488173
 30
0.0
  0
VERTEX
  5
114
330
10E
100
AcDbEntity
  8
001
370
    50
100
AcDbVertex
100
AcDb2dVertex
 10
41.751199
 20
108.476124
 30
0.0
  0
VERTEX
  5
115
330
10E
100
AcDbEntity
  8
001
370
    50
100
AcDbVertex
100
AcDb2dVertex
 10
41.626389
 20
108.444106
 30
0.0
  0
VERTEX
  5
116
330
10E
100
AcDbEntity
  8
001
370
    50
100
AcDbVertex
100
AcDb2dVertex
 10
41.499152
 20
108.39984
 30
0.0
  0
VERTEX
  5
117
330
10E
100
AcDbEntity
  8
001
370
    50
100
AcDbVertex
100
AcDb2dVertex
 10
41.351678
 20
108.326503
 30
0.0
  0
VERTEX
  5
118
330
10E
100
AcDbEntity
  8
001
370
    50
100
AcDbVertex
100
AcDb2dVertex
 10
41.226995
 20
108.222922
 30
0.0
  0
VERTEX
  5
119
330
10E
100
AcDbEntity
  8
001
370
    50
100
AcDbVertex
100
AcDb2dVertex
 10
41.199693
 20
108.18938
 30
0.0
  0
VERTEX
  5
11A
330
10E
100
AcDbEntity
  8
001
370
    50
100
AcDbVertex
100
AcDb2dVertex
 10
41.176033
 20
108.154227
 30
0.0
  0
VERTEX
  5
11B
330
10E
100
AcDbEntity
  8
001
370
    50
100
AcDbVertex
100
AcDb2dVertex
 10
41.15927
 20
108.121862
 30
0.0
  0
VERTEX
  5
11C
330
10E
100
AcDbEntity
  8
001
370
    50
100
AcDbVertex
100
AcDb2dVertex
 10
41.148063
 20
108.08405
 30
0.0
  0
VERTEX
  5
11D
330
10E
100
AcDbEntity
  8
001
370
    50
100
AcDbVertex
100
AcDb2dVertex
 10
41.143695
 20
108.043868
 30
0.0
  0
VERTEX
  5
11E
330
10E
100
AcDbEntity
  8
001
370
    50
100
AcDbVertex
100
AcDb2dVertex
 10
41.143934
 20
108.014523
 30
0.0
  0
SEQEND
  5
10F
330
10E
100
AcDbEntity
  8
001
370
    50
  0
POLYLINE
  5
11F
330
1F
100
AcDbEntity
  8
001
370
    50
100
AcDb2dPolyline
 66
     1
 10
0.0
 20
0.0
 30
0.0
  0
VERTEX
  5
121
330
11F
100
AcDbEntity
  8
001
370
    50
100
AcDbVertex
100
AcDb2dVertex
 10
41.475117
 20
112.605569
 30
0.0
  0
VERTEX
  5
122
330
11F
100
AcDbEntity
  8
001
370
    50
100
AcDbVertex
100
AcDb2dVertex
 10
41.450061
 20
112.603354
 30
0.0
  0
VERTEX
  5
123
330
11F
100
AcDbEntity
  8
001
370
    50
100
AcDbVertex
100
AcDb2dVertex
 10
41.41472
 20
112.599771
 30
0.0
  0
VERTEX
  5
124
330
11F
100
AcDbEntity
  8
001
370
    50
100
AcDbVertex
100
AcDb2dVertex
 10
41.342081
 20
112.590072
 30
0.0
  0
VERTEX
  5
125
330
11F
100
AcDbEntity
  8
001
370
    50
100
AcDbVertex
100
AcDb2dVertex
 10
41.278437
 20
112.578022
 30
0.0
  0
VERTEX
  5
126
330
11F
100
AcDbEntity
  8
001
370
    50
100
AcDbVertex
100
AcDb2dVertex
 10
41.153627
 20
112.546005
 30
0.0
  0
VERTEX
  5
127
330
11F
100
AcDbEntity
  8
001
370
    50
100
AcDbVertex
100
AcDb2dVertex
 10
41.02639
 20
112.501739
 30
0.0
  0
VERTEX
  5
128
330
11F
100
AcDbEntity
  8
001
370
    50
100
AcDbVertex
100
AcDb2dVertex
 10
40.878916
 20
112.428402
 30
0.0
  0
VERTEX
  5
129
330
11F
100
AcDbEntity
  8
001
370
    50
100
AcDbVertex
100
AcDb2dVertex
 10
40.754233
 20
112.32482
 30
0.0
  0
VERTEX
  5
12A
330
11F
100
AcDbEntity
  8
001
370
    50
100
AcDbVertex
100
AcDb2dVertex
 10
40.726931
 20
112.291279
 30
0.0
  0
VERTEX
  5
12B
330
11F
100
AcDbEntity
  8
001
370
    50
100
AcDbVertex
100
AcDb2dVertex
 10
40.703271
 20
112.256126
 30
0.0
  0
VERTEX
  5
12C
330
11F
100
AcDbEntity
  8
001
370
    50
100
AcDbVertex
100
AcDb2dVertex
 10
40.686508
 20
112.22376
 30
0.0
  0
VERTEX
  5
12D
330
11F
100
AcDbEntity
  8
001
370
    50
100
AcDbVertex
100
AcDb2dVertex
 10
40.675301
 20
112.185949
 30
0.0
  0
VERTEX
  5
12E
330
11F
100
AcDbEntity
  8
001
370
    50
100
AcDbVertex
100
AcDb2dVertex
 10
40.670933
 20
112.145767
 30
0.0
  0
VERTEX
  5
12F
330
11F
100
AcDbEntity
  8
001
370
    50
100
AcDbVertex
100
AcDb2dVertex
 10
40.671172
 20
112.116421
 30
0.0
  0
SEQEND
  5
120
330
11F
100
AcDbEntity
  8
001
370
    50
  0
LINE
  5
130
330
1F
100
AcDbEntity
  8
001
370
    50
100
AcDbLine
 10
40.671172
 20
112.116421
 30
0.0
 11
41.143934
 21
108.014523
 31
0.0
  0
POLYLINE
  5
131
330
1F
100
AcDbEntity
  8
001
370
    50
100
AcDb2dPolyline
 66
     1
 10
0.0
 20
0.0
 30
0.0
  0
VERTEX
  5
133
330
131
100
AcDbEntity
  8
001
370
    50
100
AcDbVertex
100
AcDb2dVertex
 10
41.143934
 20
108.014523
 30
0.0
  0
VERTEX
  5
134
330
131
100
AcDbEntity
  8
001
370
    50
100
AcDbVertex
100
AcDb2dVertex
 10
41.150638
 20
107.985646
 30
0.0
  0
VERTEX
  5
135
330
131
100
AcDbEntity
  8
001
370
    50
100
AcDbVertex
100
AcDb2dVertex
 10
41.163771
 20
107.947757
 30
0.0
  0
VERTEX
  5
136
330
131
100
AcDbEntity
  8
001
370
    50
100
AcDbVertex
100
AcDb2dVertex
 10
41.18182
 20
107.914869
 30
0.0
  0
VERTEX
  5
137
330
131
100
AcDbEntity
  8
001
370
    50
100
AcDbVertex
100
AcDb2dVertex
 10
41.206972
 20
107.885783
 30
0.0
  0
VERTEX
  5
138
330
131
100
AcDbEntity
  8
001
370
    50
100
AcDbVertex
100
AcDb2dVertex
 10
41.226435
 20
107.86689
 30
0.0
  0
VERTEX
  5
139
330
131
100
AcDbEntity
  8
001
370
    50
100
AcDbVertex
100
AcDb2dVertex
 10
41.24103
 20
107.85378
 30
0.0
  0
SEQEND
  5
132
330
131
100
AcDbEntity
  8
001
370
    50
  0
LINE
  5
13A
330
1F
100
AcDbEntity
  8
001
370
    50
100
AcDbLine
 10
41.947879
 20
108.503671
 30
0.0
 11
55.624673
 21
109.553948
 31
0.0
  0
POLYLINE
  5
13B
330
1F
100
AcDbEntity
  8
001
370
    50
100
AcDb2dPolyline
 66
     1
 10
0.0
 20
0.0
 30
0.0
  0
VERTEX
  5
13D
330
13B
100
AcDbEntity
  8
001
370
    50
100
AcDbVertex
100
AcDb2dVertex
 10
56.154756
 20
109.490146
 30
0.0
  0
VERTEX
  5
13E
330
13B
100
AcDbEntity
  8
001
370
    50
100
AcDbVertex
100
AcDb2dVertex
 10
56.074941
 20
109.514636
 30
0.0
  0
VERTEX
  5
13F
330
13B
100
AcDbEntity
  8
001
370
    50
100
AcDbVertex
100
AcDb2dVertex
 10
55.964724
 20
109.541027
 30
0.0
  0
VERTEX
  5
140
330
13B
100
AcDbEntity
  8
001
370
    50
100
AcDbVertex
100
AcDb2dVertex
 10
55.836571
 20
109.558395
 30
0.0
  0
VERTEX
  5
141
330
13B
100
AcDbEntity
  8
001
370
    50
100
AcDbVertex
100
AcDb2dVertex
 10
55.701933
 20
109.557973
 30
0.0
  0
VERTEX
  5
142
330
13B
100
AcDbEntity
  8
001
370
    50
100
AcDbVertex
100
AcDb2dVertex
 10
55.656693
 20
109.555859
 30
0.0
  0
VERTEX
  5
143
330
13B
100
AcDbEntity
  8
001
370
    50
100
AcDbVertex
100
AcDb2dVertex
 10
55.624673
 20
109.553948
 30
0.0
  0
SEQEND
  5
13C
330
13B
100
AcDbEntity
  8
001
370
    50
  0
LINE
  5
144
330
1F
100
AcDbEntity
  8
001
370
    50
100
AcDbLine
 10
41.869876
 20
107.335732
 30
0.0
 11
41.24103
 21
107.85378
 31
0.0
  0
LINE
  5
145
330
1F
100
AcDbEntity
  8
001
370
    50
100
AcDbLine
 10
41.475117
 20
112.605569
 30
0.0
 11
55.151911
 21
113.655846
 31
0.0
  0
LINE
  5
146
330
1F
100
AcDbEntity
  8
001
370
    50
100
AcDbLine
 10
56.368346
 20
109.506375
 30
0.0
 11
55.925522
 21
113.348519
 31
0.0
  0
POLYLINE
  5
147
330
1F
100
AcDbEntity
  8
001
370
    50
100
AcDb2dPolyline
 66
     1
 10
0.0
 20
0.0
 30
0.0
  0
VERTEX
  5
149
330
147
100
AcDbEntity
  8
001
370
    50
100
AcDbVertex
100
AcDb2dVertex
 10
55.925522
 20
113.348519
 30
0.0
  0
VERTEX
  5
14A
330
147
100
AcDbEntity
  8
001
370
    50
100
AcDbVertex
100
AcDb2dVertex
 10
55.919083
 20
113.377149
 30
0.0
  0
VERTEX
  5
14B
330
147
100
AcDbEntity
  8
001
370
    50
100
AcDbVertex
100
AcDb2dVertex
 10
55.905685
 20
113.415284
 30
0.0
  0
VERTEX
  5
14C
330
147
100
AcDbEntity
  8
001
370
    50
100
AcDbVertex
100
AcDb2dVertex
 10
55.886145
 20
113.449552
 30
0.0
  0
VERTEX
  5
14D
330
147
100
AcDbEntity
  8
001
370
    50
100
AcDbVertex
100
AcDb2dVertex
 10
55.862483
 20
113.477258
 30
0.0
  0
VERTEX
  5
14E
330
147
100
AcDbEntity
  8
001
370
    50
100
AcDbVertex
100
AcDb2dVertex
 10
55.831562
 20
113.506118
 30
0.0
  0
VERTEX
  5
14F
330
147
100
AcDbEntity
  8
001
370
    50
100
AcDbVertex
100
AcDb2dVertex
 10
55.797231
 20
113.532558
 30
0.0
  0
VERTEX
  5
150
330
147
100
AcDbEntity
  8
001
370
    50
100
AcDbVertex
100
AcDb2dVertex
 10
55.648895
 20
113.604737
 30
0.0
  0
VERTEX
  5
151
330
147
100
AcDbEntity
  8
001
370
    50
100
AcDbVertex
100
AcDb2dVertex
 10
55.491962
 20
113.642926
 30
0.0
  0
VERTEX
  5
152
330
147
100
AcDbEntity
  8
001
370
    50
100
AcDbVertex
100
AcDb2dVertex
 10
55.36905
 20
113.658152
 30
0.0
  0
VERTEX
  5
153
330
147
100
AcDbEntity
  8
001
370
    50
100
AcDbVertex
100
AcDb2dVertex
 10
55.229171
 20
113.659872
 30
0.0
  0
VERTEX
  5
154
330
147
100
AcDbEntity
  8
001
370
    50
100
AcDbVertex
100
AcDb2dVertex
 10
55.183774
 20
113.657822
 30
0.0
  0
VERTEX
  5
155
330
147
100
AcDbEntity
  8
001
370
    50
100
AcDbVertex
100
AcDb2dVertex
 10
55.151911
 20
113.655846
 30
0.0
  0
SEQEND
  5
148
330
147
100
AcDbEntity
  8
001
370
    50
  0
LINE
  5
156
330
1F
100
AcDbEntity
  8
001
370
    50
100
AcDbLine
 10
57.691966
 20
69.952057
 30
0.0
 11
54.973423
 21
70.684108
 31
0.0
  0
LINE
  5
157
330
1F
100
AcDbEntity
  8
001
370
    50
100
AcDbLine
 10
60.179605
 20
65.62193
 30
0.0
 11
57.691966
 21
69.952057
 31
0.0
  0
LINE
  5
158
330
1F
100
AcDbEntity
  8
001
370
    50
100
AcDbLine
 10
59.451173
 20
62.889879
 30
0.0
 11
60.179605
 21
65.62193
 31
0.0
  0
LINE
  5
159
330
1F
100
AcDbEntity
  8
001
370
    50
100
AcDbLine
 10
53.074272
 20
59.189879
 30
0.0
 11
57.21064
 21
61.589879
 31
0.0
  0
LINE
  5
15A
330
1F
100
AcDbEntity
  8
001
370
    50
100
AcDbLine
 10
57.21064
 20
61.589879
 30
0.0
 11
59.451173
 21
62.889879
 31
0.0
  0
LINE
  5
15B
330
1F
100
AcDbEntity
  8
001
370
    50
100
AcDbLine
 10
48.596522
 20
66.984108
 30
0.0
 11
53.074272
 21
59.189879
 31
0.0
  0
LINE
  5
15C
330
1F
100
AcDbEntity
  8
001
370
    50
100
AcDbLine
 10
54.973423
 20
70.684108
 30
0.0
 11
52.73289
 21
69.384108
 31
0.0
  0
LINE
  5
15D
330
1F
100
AcDbEntity
  8
001
370
    50
100
AcDbLine
 10
52.73289
 20
69.384108
 30
0.0
 11
48.596522
 21
66.984108
 31
0.0
  0
LINE
  5
15E
330
1F
100
AcDbEntity
  8
001
370
    50
100
AcDbLine
 10
60.477564
 20
65.62193
 30
0.0
 11
60.179605
 21
65.62193
 31
0.0
  0
LINE
  5
15F
330
1F
100
AcDbEntity
  8
001
370
    50
100
AcDbLine
 10
59.749133
 20
62.889879
 30
0.0
 11
60.477564
 21
65.62193
 31
0.0
  0
LINE
  5
160
330
1F
100
AcDbEntity
  8
001
370
    50
100
AcDbLine
 10
59.749133
 20
62.889879
 30
0.0
 11
59.699473
 21
62.889879
 31
0.0
  0
LINE
  5
161
330
1F
100
AcDbEntity
  8
001
370
    50
100
AcDbLine
 10
59.699473
 20
62.889879
 30
0.0
 11
59.451173
 21
62.889879
 31
0.0
  0
LINE
  5
162
330
1F
100
AcDbEntity
  8
001
370
    50
100
AcDbLine
 10
57.989925
 20
69.952057
 30
0.0
 11
57.691966
 21
69.952057
 31
0.0
  0
LINE
  5
163
330
1F
100
AcDbEntity
  8
001
370
    50
100
AcDbLine
 10
60.477564
 20
65.62193
 30
0.0
 11
57.989925
 21
69.952057
 31
0.0
  0
LINE
  5
164
330
1F
100
AcDbEntity
  8
001
370
    50
100
AcDbLine
 10
53.581095
 20
59.339879
 30
0.0
 11
59.699473
 21
62.889879
 31
0.0
  0
LINE
  5
165
330
1F
100
AcDbEntity
  8
001
370
    50
100
AcDbLine
 10
53.630754
 20
59.339879
 30
0.0
 11
53.581095
 21
59.339879
 31
0.0
  0
LINE
  5
166
330
1F
100
AcDbEntity
  8
001
370
    50
100
AcDbLine
 10
52.510488
 20
58.689879
 30
0.0
 11
53.630754
 21
59.339879
 31
0.0
  0
LINE
  5
167
330
1F
100
AcDbEntity
  8
001
370
    50
100
AcDbLine
 10
52.510488
 20
58.689879
 30
0.0
 11
52.311848
 21
58.689879
 31
0.0
  0
LINE
  5
168
330
1F
100
AcDbEntity
  8
001
370
    50
100
AcDbLine
 10
53.074272
 20
59.189879
 30
0.0
 11
52.311848
 21
58.689879
 31
0.0
  0
LINE
  5
169
330
1F
100
AcDbEntity
  8
001
370
    50
100
AcDbLine
 10
55.221723
 20
70.684108
 30
0.0
 11
54.973423
 21
70.684108
 31
0.0
  0
LINE
  5
16A
330
1F
100
AcDbEntity
  8
001
370
    50
100
AcDbLine
 10
55.271382
 20
70.684108
 30
0.0
 11
55.221723
 21
70.684108
 31
0.0
  0
LINE
  5
16B
330
1F
100
AcDbEntity
  8
001
370
    50
100
AcDbLine
 10
57.989925
 20
69.952057
 30
0.0
 11
55.271382
 21
70.684108
 31
0.0
  0
LINE
  5
16C
330
1F
100
AcDbEntity
  8
001
370
    50
100
AcDbLine
 10
52.311848
 20
58.689879
 30
0.0
 11
51.051897
 21
59.055905
 31
0.0
  0
LINE
  5
16D
330
1F
100
AcDbEntity
  8
001
370
    50
100
AcDbLine
 10
51.051897
 20
59.055905
 30
0.0
 11
47.569203
 21
65.118083
 31
0.0
  0
LINE
  5
16E
330
1F
100
AcDbEntity
  8
001
370
    50
100
AcDbLine
 10
47.569203
 20
65.118083
 30
0.0
 11
47.834098
 21
66.484108
 31
0.0
  0
LINE
  5
16F
330
1F
100
AcDbEntity
  8
001
370
    50
100
AcDbLine
 10
47.834098
 20
66.484108
 30
0.0
 11
48.596522
 21
66.984108
 31
0.0
  0
LINE
  5
170
330
1F
100
AcDbEntity
  8
001
370
    50
100
AcDbLine
 10
53.630754
 20
59.339879
 30
0.0
 11
53.618339
 21
59.36149
 31
0.0
  0
POLYLINE
  5
171
330
1F
100
AcDbEntity
  8
001
370
    50
100
AcDb2dPolyline
 66
     1
 10
0.0
 20
0.0
 30
0.0
  0
VERTEX
  5
173
330
171
100
AcDbEntity
  8
001
370
    50
100
AcDbVertex
100
AcDb2dVertex
 10
52.73289
 20
69.384108
 30
0.0
  0
VERTEX
  5
174
330
171
100
AcDbEntity
  8
001
370
    50
100
AcDbVertex
100
AcDb2dVertex
 10
51.961257
 20
68.75728
 30
0.0
  0
VERTEX
  5
175
330
171
100
AcDbEntity
  8
001
370
    50
100
AcDbVertex
100
AcDb2dVertex
 10
51.09392
 20
67.736994
 30
0.0
  0
VERTEX
  5
176
330
171
100
AcDbEntity
  8
001
370
    50
100
AcDbVertex
100
AcDb2dVertex
 10
50.741823
 20
67.012235
 30
0.0
  0
VERTEX
  5
177
330
171
100
AcDbEntity
  8
001
370
    50
100
AcDbVertex
100
AcDb2dVertex
 10
50.562042
 20
66.268411
 30
0.0
  0
VERTEX
  5
178
330
171
100
AcDbEntity
  8
001
370
    50
100
AcDbVertex
100
AcDb2dVertex
 10
50.513213
 20
65.880299
 30
0.0
  0
VERTEX
  5
179
330
171
100
AcDbEntity
  8
001
370
    50
100
AcDbVertex
100
AcDb2dVertex
 10
50.494015
 20
65.486994
 30
0.0
  0
VERTEX
  5
17A
330
171
100
AcDbEntity
  8
001
370
    50
100
AcDbVertex
100
AcDb2dVertex
 10
50.510379
 20
65.094571
 30
0.0
  0
VERTEX
  5
17B
330
171
100
AcDbEntity
  8
001
370
    50
100
AcDbVertex
100
AcDb2dVertex
 10
50.562042
 20
64.705577
 30
0.0
  0
VERTEX
  5
17C
330
171
100
AcDbEntity
  8
001
370
    50
100
AcDbVertex
100
AcDb2dVertex
 10
50.764345
 20
63.94948
 30
0.0
  0
VERTEX
  5
17D
330
171
100
AcDbEntity
  8
001
370
    50
100
AcDbVertex
100
AcDb2dVertex
 10
51.09392
 20
63.236994
 30
0.0
  0
VERTEX
  5
17E
330
171
100
AcDbEntity
  8
001
370
    50
100
AcDbVertex
100
AcDb2dVertex
 10
51.802814
 20
62.306284
 30
0.0
  0
VERTEX
  5
17F
330
171
100
AcDbEntity
  8
001
370
    50
100
AcDbVertex
100
AcDb2dVertex
 10
52.73289
 20
61.589879
 30
0.0
  0
VERTEX
  5
180
330
171
100
AcDbEntity
  8
001
370
    50
100
AcDbVertex
100
AcDb2dVertex
 10
53.084556
 20
61.408277
 30
0.0
  0
VERTEX
  5
181
330
171
100
AcDbEntity
  8
001
370
    50
100
AcDbVertex
100
AcDb2dVertex
 10
53.440285
 20
61.258377
 30
0.0
  0
VERTEX
  5
182
330
171
100
AcDbEntity
  8
001
370
    50
100
AcDbVertex
100
AcDb2dVertex
 10
53.795974
 20
61.140447
 30
0.0
  0
VERTEX
  5
183
330
171
100
AcDbEntity
  8
001
370
    50
100
AcDbVertex
100
AcDb2dVertex
 10
54.194212
 20
61.055359
 30
0.0
  0
VERTEX
  5
184
330
171
100
AcDbEntity
  8
001
370
    50
100
AcDbVertex
100
AcDb2dVertex
 10
54.643547
 20
61.004111
 30
0.0
  0
VERTEX
  5
185
330
171
100
AcDbEntity
  8
001
370
    50
100
AcDbVertex
100
AcDb2dVertex
 10
54.971765
 20
60.986994
 30
0.0
  0
SEQEND
  5
172
330
171
100
AcDbEntity
  8
001
370
    50
  0
POLYLINE
  5
186
330
1F
100
AcDbEntity
  8
001
370
    50
100
AcDb2dPolyline
 66
     1
 10
0.0
 20
0.0
 30
0.0
  0
VERTEX
  5
188
330
186
100
AcDbEntity
  8
001
370
    50
100
AcDbVertex
100
AcDb2dVertex
 10
54.971765
 20
60.986994
 30
0.0
  0
VERTEX
  5
189
330
186
100
AcDbEntity
  8
001
370
    50
100
AcDbVertex
100
AcDb2dVertex
 10
55.299985
 20
61.004111
 30
0.0
  0
VERTEX
  5
18A
330
186
100
AcDbEntity
  8
001
370
    50
100
AcDbVertex
100
AcDb2dVertex
 10
55.749319
 20
61.055359
 30
0.0
  0
VERTEX
  5
18B
330
186
100
AcDbEntity
  8
001
370
    50
100
AcDbVertex
100
AcDb2dVertex
 10
56.147554
 20
61.140448
 30
0.0
  0
VERTEX
  5
18C
330
186
100
AcDbEntity
  8
001
370
    50
100
AcDbVertex
100
AcDb2dVertex
 10
56.503246
 20
61.258377
 30
0.0
  0
VERTEX
  5
18D
330
186
100
AcDbEntity
  8
001
370
    50
100
AcDbVertex
100
AcDb2dVertex
 10
56.858983
 20
61.408272
 30
0.0
  0
VERTEX
  5
18E
330
186
100
AcDbEntity
  8
001
370
    50
100
AcDbVertex
100
AcDb2dVertex
 10
57.21064
 20
61.589879
 30
0.0
  0
VERTEX
  5
18F
330
186
100
AcDbEntity
  8
001
370
    50
100
AcDbVertex
100
AcDb2dVertex
 10
58.140551
 20
62.306382
 30
0.0
  0
VERTEX
  5
190
330
186
100
AcDbEntity
  8
001
370
    50
100
AcDbVertex
100
AcDb2dVertex
 10
58.849611
 20
63.236994
 30
0.0
  0
VERTEX
  5
191
330
186
100
AcDbEntity
  8
001
370
    50
100
AcDbVertex
100
AcDb2dVertex
 10
59.179603
 20
63.949235
 30
0.0
  0
VERTEX
  5
192
330
186
100
AcDbEntity
  8
001
370
    50
100
AcDbVertex
100
AcDb2dVertex
 10
59.381488
 20
64.705577
 30
0.0
  0
VERTEX
  5
193
330
186
100
AcDbEntity
  8
001
370
    50
100
AcDbVertex
100
AcDb2dVertex
 10
59.432534
 20
65.094933
 30
0.0
  0
VERTEX
  5
194
330
186
100
AcDbEntity
  8
001
370
    50
100
AcDbVertex
100
AcDb2dVertex
 10
59.449515
 20
65.486994
 30
0.0
  0
VERTEX
  5
195
330
186
100
AcDbEntity
  8
001
370
    50
100
AcDbVertex
100
AcDb2dVertex
 10
59.432443
 20
65.879054
 30
0.0
  0
VERTEX
  5
196
330
186
100
AcDbEntity
  8
001
370
    50
100
AcDbVertex
100
AcDb2dVertex
 10
59.381488
 20
66.268411
 30
0.0
  0
VERTEX
  5
197
330
186
100
AcDbEntity
  8
001
370
    50
100
AcDbVertex
100
AcDb2dVertex
 10
59.180333
 20
67.024759
 30
0.0
  0
VERTEX
  5
198
330
186
100
AcDbEntity
  8
001
370
    50
100
AcDbVertex
100
AcDb2dVertex
 10
58.849611
 20
67.736994
 30
0.0
  0
VERTEX
  5
199
330
186
100
AcDbEntity
  8
001
370
    50
100
AcDbVertex
100
AcDb2dVertex
 10
58.135417
 20
68.667556
 30
0.0
  0
VERTEX
  5
19A
330
186
100
AcDbEntity
  8
001
370
    50
100
AcDbVertex
100
AcDb2dVertex
 10
57.21064
 20
69.384108
 30
0.0
  0
VERTEX
  5
19B
330
186
100
AcDbEntity
  8
001
370
    50
100
AcDbVertex
100
AcDb2dVertex
 10
56.864103
 20
69.565764
 30
0.0
  0
VERTEX
  5
19C
330
186
100
AcDbEntity
  8
001
370
    50
100
AcDbVertex
100
AcDb2dVertex
 10
56.503246
 20
69.715611
 30
0.0
  0
VERTEX
  5
19D
330
186
100
AcDbEntity
  8
001
370
    50
100
AcDbVertex
100
AcDb2dVertex
 10
56.130499
 20
69.833376
 30
0.0
  0
VERTEX
  5
19E
330
186
100
AcDbEntity
  8
001
370
    50
100
AcDbVertex
100
AcDb2dVertex
 10
55.749319
 20
69.918629
 30
0.0
  0
VERTEX
  5
19F
330
186
100
AcDbEntity
  8
001
370
    50
100
AcDbVertex
100
AcDb2dVertex
 10
55.36306
 20
69.970483
 30
0.0
  0
VERTEX
  5
1A0
330
186
100
AcDbEntity
  8
001
370
    50
100
AcDbVertex
100
AcDb2dVertex
 10
54.971765
 20
69.986994
 30
0.0
  0
VERTEX
  5
1A1
330
186
100
AcDbEntity
  8
001
370
    50
100
AcDbVertex
100
AcDb2dVertex
 10
54.577644
 20
69.967616
 30
0.0
  0
VERTEX
  5
1A2
330
186
100
AcDbEntity
  8
001
370
    50
100
AcDbVertex
100
AcDb2dVertex
 10
54.194212
 20
69.918629
 30
0.0
  0
VERTEX
  5
1A3
330
186
100
AcDbEntity
  8
001
370
    50
100
AcDbVertex
100
AcDb2dVertex
 10
53.827172
 20
69.841979
 30
0.0
  0
VERTEX
  5
1A4
330
186
100
AcDbEntity
  8
001
370
    50
100
AcDbVertex
100
AcDb2dVertex
 10
53.440285
 20
69.715611
 30
0.0
  0
VERTEX
  5
1A5
330
186
100
AcDbEntity
  8
001
370
    50
100
AcDbVertex
100
AcDb2dVertex
 10
53.025652
 20
69.534194
 30
0.0
  0
VERTEX
  5
1A6
330
186
100
AcDbEntity
  8
001
370
    50
100
AcDbVertex
100
AcDb2dVertex
 10
52.73289
 20
69.384108
 30
0.0
  0
SEQEND
  5
187
330
186
100
AcDbEntity
  8
001
370
    50
  0
POLYLINE
  5
1A7
330
1F
100
AcDbEntity
  8
001
370
    50
100
AcDb2dPolyline
 66
     1
 10
0.0
 20
0.0
 30
0.0
  0
VERTEX
  5
1A9
330
1A7
100
AcDbEntity
  8
001
370
    50
100
AcDbVertex
100
AcDb2dVertex
 10
41.143934
 20
107.603297
 30
0.0
  0
VERTEX
  5
1AA
330
1A7
100
AcDbEntity
  8
001
370
    50
100
AcDbVertex
100
AcDb2dVertex
 10
41.143615
 20
107.574019
 30
0.0
  0
VERTEX
  5
1AB
330
1A7
100
AcDbEntity
  8
001
370
    50
100
AcDbVertex
100
AcDb2dVertex
 10
41.148063
 20
107.533769
 30
0.0
  0
VERTEX
  5
1AC
330
1A7
100
AcDbEntity
  8
001
370
    50
100
AcDbVertex
100
AcDb2dVertex
 10
41.159718
 20
107.495576
 30
0.0
  0
VERTEX
  5
1AD
330
1A7
100
AcDbEntity
  8
001
370
    50
100
AcDbVertex
100
AcDb2dVertex
 10
41.176033
 20
107.463592
 30
0.0
  0
VERTEX
  5
1AE
330
1A7
100
AcDbEntity
  8
001
370
    50
100
AcDbVertex
100
AcDb2dVertex
 10
41.19765
 20
107.430179
 30
0.0
  0
VERTEX
  5
1AF
330
1A7
100
AcDbEntity
  8
001
370
    50
100
AcDbVertex
100
AcDb2dVertex
 10
41.226995
 20
107.394898
 30
0.0
  0
VERTEX
  5
1B0
330
1A7
100
AcDbEntity
  8
001
370
    50
100
AcDbVertex
100
AcDb2dVertex
 10
41.235203
 20
107.386258
 30
0.0
  0
VERTEX
  5
1B1
330
1A7
100
AcDbEntity
  8
001
370
    50
100
AcDbVertex
100
AcDb2dVertex
 10
41.24103
 20
107.380313
 30
0.0
  0
SEQEND
  5
1A8
330
1A7
100
AcDbEntity
  8
001
370
    50
  0
LINE
  5
1B2
330
1F
100
AcDbEntity
  8
001
370
    50
100
AcDbLine
 10
41.869876
 20
106.753549
 30
0.0
 11
41.24103
 21
107.380313
 31
0.0
  0
LINE
  5
1B3
330
1F
100
AcDbEntity
  8
001
370
    50
100
AcDbLine
 10
41.869876
 20
102.180453
 30
0.0
 11
40.768268
 21
103.278414
 31
0.0
  0
POLYLINE
  5
1B4
330
1F
100
AcDbEntity
  8
001
370
    50
100
AcDb2dPolyline
 66
     1
 10
0.0
 20
0.0
 30
0.0
  0
VERTEX
  5
1B6
330
1B4
100
AcDbEntity
  8
001
370
    50
100
AcDbVertex
100
AcDb2dVertex
 10
41.300255
 20
107.80499
 30
0.0
  0
VERTEX
  5
1B7
330
1B4
100
AcDbEntity
  8
001
370
    50
100
AcDbVertex
100
AcDb2dVertex
 10
41.288552
 20
107.797859
 30
0.0
  0
VERTEX
  5
1B8
330
1B4
100
AcDbEntity
  8
001
370
    50
100
AcDbVertex
100
AcDb2dVertex
 10
41.272225
 20
107.787337
 30
0.0
  0
VERTEX
  5
1B9
330
1B4
100
AcDbEntity
  8
001
370
    50
100
AcDbVertex
100
AcDb2dVertex
 10
41.235816
 20
107.759828
 30
0.0
  0
VERTEX
  5
1BA
330
1B4
100
AcDbEntity
  8
001
370
    50
100
AcDbVertex
100
AcDb2dVertex
 10
41.206972
 20
107.732036
 30
0.0
  0
VERTEX
  5
1BB
330
1B4
100
AcDbEntity
  8
001
370
    50
100
AcDbVertex
100
AcDb2dVertex
 10
41.183767
 20
107.704565
 30
0.0
  0
VERTEX
  5
1BC
330
1B4
100
AcDbEntity
  8
001
370
    50
100
AcDbVertex
100
AcDb2dVertex
 10
41.163771
 20
107.670062
 30
0.0
  0
VERTEX
  5
1BD
330
1B4
100
AcDbEntity
  8
001
370
    50
100
AcDbVertex
100
AcDb2dVertex
 10
41.150291
 20
107.631886
 30
0.0
  0
VERTEX
  5
1BE
330
1B4
100
AcDbEntity
  8
001
370
    50
100
AcDbVertex
100
AcDb2dVertex
 10
41.143934
 20
107.603297
 30
0.0
  0
SEQEND
  5
1B5
330
1B4
100
AcDbEntity
  8
001
370
    50
  0
LINE
  5
1BF
330
1F
100
AcDbEntity
  8
001
370
    50
100
AcDbLine
 10
41.143934
 20
107.603297
 30
0.0
 11
40.671172
 21
103.501398
 31
0.0
  0
POLYLINE
  5
1C0
330
1F
100
AcDbEntity
  8
001
370
    50
100
AcDb2dPolyline
 66
     1
 10
0.0
 20
0.0
 30
0.0
  0
VERTEX
  5
1C2
330
1C0
100
AcDbEntity
  8
001
370
    50
100
AcDbVertex
100
AcDb2dVertex
 10
40.671172
 20
103.501398
 30
0.0
  0
VERTEX
  5
1C3
330
1C0
100
AcDbEntity
  8
001
370
    50
100
AcDbVertex
100
AcDb2dVertex
 10
40.670853
 20
103.472121
 30
0.0
  0
VERTEX
  5
1C4
330
1C0
100
AcDbEntity
  8
001
370
    50
100
AcDbVertex
100
AcDb2dVertex
 10
40.675301
 20
103.431871
 30
0.0
  0
VERTEX
  5
1C5
330
1C0
100
AcDbEntity
  8
001
370
    50
100
AcDbVertex
100
AcDb2dVertex
 10
40.686956
 20
103.393677
 30
0.0
  0
VERTEX
  5
1C6
330
1C0
100
AcDbEntity
  8
001
370
    50
100
AcDbVertex
100
AcDb2dVertex
 10
40.703271
 20
103.361694
 30
0.0
  0
VERTEX
  5
1C7
330
1C0
100
AcDbEntity
  8
001
370
    50
100
AcDbVertex
100
AcDb2dVertex
 10
40.724888
 20
103.32828
 30
0.0
  0
VERTEX
  5
1C8
330
1C0
100
AcDbEntity
  8
001
370
    50
100
AcDbVertex
100
AcDb2dVertex
 10
40.754233
 20
103.292999
 30
0.0
  0
VERTEX
  5
1C9
330
1C0
100
AcDbEntity
  8
001
370
    50
100
AcDbVertex
100
AcDb2dVertex
 10
40.762441
 20
103.284359
 30
0.0
  0
VERTEX
  5
1CA
330
1C0
100
AcDbEntity
  8
001
370
    50
100
AcDbVertex
100
AcDb2dVertex
 10
40.768268
 20
103.278414
 30
0.0
  0
SEQEND
  5
1C1
330
1C0
100
AcDbEntity
  8
001
370
    50
  0
LINE
  5
1CB
330
1F
100
AcDbEntity
  8
001
370
    50
100
AcDbLine
 10
68.669876
 20
56.816446
 30
0.0
 11
75.669876
 21
58.692091
 31
0.0
  0
LINE
  5
1CC
330
1F
100
AcDbEntity
  8
001
370
    50
100
AcDbLine
 10
75.669876
 20
123.140802
 30
0.0
 11
68.669876
 21
125.016446
 31
0.0
  0
LINE
  5
1CD
330
1F
100
AcDbEntity
  8
001
370
    50
100
AcDbLine
 10
75.669876
 20
123.140802
 30
0.0
 11
75.669876
 21
58.692091
 31
0.0
  0
LINE
  5
1CE
330
1F
100
AcDbEntity
  8
001
370
    50
100
AcDbLine
 10
68.669876
 20
125.016446
 30
0.0
 11
68.669876
 21
56.816446
 31
0.0
  0
LINE
  5
1CF
330
1F
100
AcDbEntity
  8
001
370
    50
100
AcDbLine
 10
68.669876
 20
125.016446
 30
0.0
 11
63.345535
 21
125.016446
 31
0.0
  0
LINE
  5
1D0
330
1F
100
AcDbEntity
  8
001
370
    50
100
AcDbLine
 10
58.772216
 20
56.816446
 30
0.0
 11
68.669876
 21
56.816446
 31
0.0
  0
LINE
  5
1D1
330
1F
100
AcDbEntity
  8
001
370
    50
100
AcDbLine
 10
58.772216
 20
57.462409
 30
0.0
 11
58.772216
 21
56.816446
 31
0.0
  0
POLYLINE
  5
1D2
330
1F
100
AcDbEntity
  8
001
370
    50
100
AcDb2dPolyline
 66
     1
 10
0.0
 20
0.0
 30
0.0
  0
VERTEX
  5
1D4
330
1D2
100
AcDbEntity
  8
001
370
    50
100
AcDbVertex
100
AcDb2dVertex
 10
58.772216
 20
57.462409
 30
0.0
  0
VERTEX
  5
1D5
330
1D2
100
AcDbEntity
  8
001
370
    50
100
AcDbVertex
100
AcDb2dVertex
 10
60.153696
 20
57.489972
 30
0.0
  0
VERTEX
  5
1D6
330
1D2
100
AcDbEntity
  8
001
370
    50
100
AcDbVertex
100
AcDb2dVertex
 10
62.172761
 20
57.531224
 30
0.0
  0
VERTEX
  5
1D7
330
1D2
100
AcDbEntity
  8
001
370
    50
100
AcDbVertex
100
AcDb2dVertex
 10
64.187582
 20
57.573735
 30
0.0
  0
VERTEX
  5
1D8
330
1D2
100
AcDbEntity
  8
001
370
    50
100
AcDbVertex
100
AcDb2dVertex
 10
65.566129
 20
57.603482
 30
0.0
  0
SEQEND
  5
1D3
330
1D2
100
AcDbEntity
  8
001
370
    50
  0
POLYLINE
  5
1D9
330
1F
100
AcDbEntity
  8
001
370
    50
100
AcDb2dPolyline
 66
     1
 10
0.0
 20
0.0
 30
0.0
  0
VERTEX
  5
1DB
330
1D9
100
AcDbEntity
  8
001
370
    50
100
AcDbVertex
100
AcDb2dVertex
 10
63.345535
 20
73.866446
 30
0.0
  0
VERTEX
  5
1DC
330
1D9
100
AcDbEntity
  8
001
370
    50
100
AcDbVertex
100
AcDb2dVertex
 10
63.463396
 20
72.153808
 30
0.0
  0
VERTEX
  5
1DD
330
1D9
100
AcDbEntity
  8
001
370
    50
100
AcDbVertex
100
AcDb2dVertex
 10
63.662352
 20
69.731999
 30
0.0
  0
VERTEX
  5
1DE
330
1D9
100
AcDbEntity
  8
001
370
    50
100
AcDbVertex
100
AcDb2dVertex
 10
63.92696
 20
66.918362
 30
0.0
  0
VERTEX
  5
1DF
330
1D9
100
AcDbEntity
  8
001
370
    50
100
AcDbVertex
100
AcDb2dVertex
 10
64.241774
 20
64.030241
 30
0.0
  0
VERTEX
  5
1E0
330
1D9
100
AcDbEntity
  8
001
370
    50
100
AcDbVertex
100
AcDb2dVertex
 10
64.591351
 20
61.38498
 30
0.0
  0
VERTEX
  5
1E1
330
1D9
100
AcDbEntity
  8
001
370
    50
100
AcDbVertex
100
AcDb2dVertex
 10
64.798768
 20
60.17914
 30
0.0
  0
VERTEX
  5
1E2
330
1D9
100
AcDbEntity
  8
001
370
    50
100
AcDbVertex
100
AcDb2dVertex
 10
65.129056
 20
58.872928
 30
0.0
  0
VERTEX
  5
1E3
330
1D9
100
AcDbEntity
  8
001
370
    50
100
AcDbVertex
100
AcDb2dVertex
 10
65.369058
 20
58.126553
 30
0.0
  0
VERTEX
  5
1E4
330
1D9
100
AcDbEntity
  8
001
370
    50
100
AcDbVertex
100
AcDb2dVertex
 10
65.566129
 20
57.603482
 30
0.0
  0
SEQEND
  5
1DA
330
1D9
100
AcDbEntity
  8
001
370
    50
  0
POLYLINE
  5
1E5
330
1F
100
AcDbEntity
  8
001
370
    50
100
AcDb2dPolyline
 66
     1
 10
0.0
 20
0.0
 30
0.0
  0
VERTEX
  5
1E7
330
1E5
100
AcDbEntity
  8
001
370
    50
100
AcDbVertex
100
AcDb2dVertex
 10
65.049666
 20
95.998636
 30
0.0
  0
VERTEX
  5
1E8
330
1E5
100
AcDbEntity
  8
001
370
    50
100
AcDbVertex
100
AcDb2dVertex
 10
63.776969
 20
96.133411
 30
0.0
  0
VERTEX
  5
1E9
330
1E5
100
AcDbEntity
  8
001
370
    50
100
AcDbVertex
100
AcDb2dVertex
 10
61.916823
 20
96.32992
 30
0.0
  0
VERTEX
  5
1EA
330
1E5
100
AcDbEntity
  8
001
370
    50
100
AcDbVertex
100
AcDb2dVertex
 10
60.049733
 20
96.5265
 30
0.0
  0
VERTEX
  5
1EB
330
1E5
100
AcDbEntity
  8
001
370
    50
100
AcDbVertex
100
AcDb2dVertex
 10
58.772216
 20
96.66068
 30
0.0
  0
SEQEND
  5
1E6
330
1E5
100
AcDbEntity
  8
001
370
    50
  0
LINE
  5
1EC
330
1F
100
AcDbEntity
  8
001
370
    50
100
AcDbLine
 10
58.772216
 20
113.364308
 30
0.0
 11
58.772216
 21
96.66068
 31
0.0
  0
POLYLINE
  5
1ED
330
1F
100
AcDbEntity
  8
001
370
    50
100
AcDb2dPolyline
 66
     1
 10
0.0
 20
0.0
 30
0.0
  0
VERTEX
  5
1EF
330
1ED
100
AcDbEntity
  8
001
370
    50
100
AcDbVertex
100
AcDb2dVertex
 10
65.566129
 20
113.881043
 30
0.0
  0
VERTEX
  5
1F0
330
1ED
100
AcDbEntity
  8
001
370
    50
100
AcDbVertex
100
AcDb2dVertex
 10
64.187559
 20
113.776752
 30
0.0
  0
VERTEX
  5
1F1
330
1ED
100
AcDbEntity
  8
001
370
    50
100
AcDbVertex
100
AcDb2dVertex
 10
62.172761
 20
113.623846
 30
0.0
  0
VERTEX
  5
1F2
330
1ED
100
AcDbEntity
  8
001
370
    50
100
AcDbVertex
100
AcDb2dVertex
 10
60.153673
 20
113.469941
 30
0.0
  0
VERTEX
  5
1F3
330
1ED
100
AcDbEntity
  8
001
370
    50
100
AcDbVertex
100
AcDb2dVertex
 10
58.772216
 20
113.364308
 30
0.0
  0
SEQEND
  5
1EE
330
1ED
100
AcDbEntity
  8
001
370
    50
  0
POLYLINE
  5
1F4
330
1F
100
AcDbEntity
  8
001
370
    50
100
AcDb2dPolyline
 66
     1
 10
0.0
 20
0.0
 30
0.0
  0
VERTEX
  5
1F6
330
1F4
100
AcDbEntity
  8
001
370
    50
100
AcDbVertex
100
AcDb2dVertex
 10
65.566129
 20
113.881043
 30
0.0
  0
VERTEX
  5
1F7
330
1F4
100
AcDbEntity
  8
001
370
    50
100
AcDbVertex
100
AcDb2dVertex
 10
65.345478
 20
115.555123
 30
0.0
  0
VERTEX
  5
1F8
330
1F4
100
AcDbEntity
  8
001
370
    50
100
AcDbVertex
100
AcDb2dVertex
 10
65.002941
 20
117.96525
 30
0.0
  0
VERTEX
  5
1F9
330
1F4
100
AcDbEntity
  8
001
370
    50
100
AcDbVertex
100
AcDb2dVertex
 10
64.578714
 20
120.520827
 30
0.0
  0
VERTEX
  5
1FA
330
1F4
100
AcDbEntity
  8
001
370
    50
100
AcDbVertex
100
AcDb2dVertex
 10
64.322881
 20
121.829446
 30
0.0
  0
VERTEX
  5
1FB
330
1F4
100
AcDbEntity
  8
001
370
    50
100
AcDbVertex
100
AcDb2dVertex
 10
64.094183
 20
123.009732
 30
0.0
  0
VERTEX
  5
1FC
330
1F4
100
AcDbEntity
  8
001
370
    50
100
AcDbVertex
100
AcDb2dVertex
 10
63.954788
 20
123.70872
 30
0.0
  0
VERTEX
  5
1FD
330
1F4
100
AcDbEntity
  8
001
370
    50
100
AcDbVertex
100
AcDb2dVertex
 10
63.676466
 20
124.523499
 30
0.0
  0
VERTEX
  5
1FE
330
1F4
100
AcDbEntity
  8
001
370
    50
100
AcDbVertex
100
AcDb2dVertex
 10
63.510041
 20
124.857483
 30
0.0
  0
VERTEX
  5
1FF
330
1F4
100
AcDbEntity
  8
001
370
    50
100
AcDbVertex
100
AcDb2dVertex
 10
63.345535
 20
125.016446
 30
0.0
  0
SEQEND
  5
1F5
330
1F4
100
AcDbEntity
  8
001
370
    50
  0
POLYLINE
  5
200
330
1F
100
AcDbEntity
  8
001
370
    50
100
AcDb2dPolyline
 66
     1
 10
0.0
 20
0.0
 30
0.0
  0
VERTEX
  5
202
330
200
100
AcDbEntity
  8
001
370
    50
100
AcDbVertex
100
AcDb2dVertex
 10
63.891714
 20
117.499461
 30
0.0
  0
VERTEX
  5
203
330
200
100
AcDbEntity
  8
001
370
    50
100
AcDbVertex
100
AcDb2dVertex
 10
62.853387
 20
117.429717
 30
0.0
  0
VERTEX
  5
204
330
200
100
AcDbEntity
  8
001
370
    50
100
AcDbVertex
100
AcDb2dVertex
 10
61.335853
 20
117.32747
 30
0.0
  0
VERTEX
  5
205
330
200
100
AcDbEntity
  8
001
370
    50
100
AcDbVertex
100
AcDb2dVertex
 10
59.813685
 20
117.224471
 30
0.0
  0
VERTEX
  5
206
330
200
100
AcDbEntity
  8
001
370
    50
100
AcDbVertex
100
AcDb2dVertex
 10
58.772216
 20
117.153784
 30
0.0
  0
SEQEND
  5
201
330
200
100
AcDbEntity
  8
001
370
    50
  0
POLYLINE
  5
207
330
1F
100
AcDbEntity
  8
001
370
    50
100
AcDb2dPolyline
 66
     1
 10
0.0
 20
0.0
 30
0.0
  0
VERTEX
  5
209
330
207
100
AcDbEntity
  8
001
370
    50
100
AcDbVertex
100
AcDb2dVertex
 10
65.049666
 20
95.998636
 30
0.0
  0
VERTEX
  5
20A
330
207
100
AcDbEntity
  8
001
370
    50
100
AcDbVertex
100
AcDb2dVertex
 10
64.86025
 20
93.936872
 30
0.0
  0
VERTEX
  5
20B
330
207
100
AcDbEntity
  8
001
370
    50
100
AcDbVertex
100
AcDb2dVertex
 10
64.604019
 20
91.06282
 30
0.0
  0
VERTEX
  5
20C
330
207
100
AcDbEntity
  8
001
370
    50
100
AcDbVertex
100
AcDb2dVertex
 10
64.337874
 20
87.914807
 30
0.0
  0
VERTEX
  5
20D
330
207
100
AcDbEntity
  8
001
370
    50
100
AcDbVertex
100
AcDb2dVertex
 10
64.116566
 20
85.139248
 30
0.0
  0
VERTEX
  5
20E
330
207
100
AcDbEntity
  8
001
370
    50
100
AcDbVertex
100
AcDb2dVertex
 10
63.962053
 20
83.134431
 30
0.0
  0
VERTEX
  5
20F
330
207
100
AcDbEntity
  8
001
370
    50
100
AcDbVertex
100
AcDb2dVertex
 10
63.811582
 20
81.099522
 30
0.0
  0
VERTEX
  5
210
330
207
100
AcDbEntity
  8
001
370
    50
100
AcDbVertex
100
AcDb2dVertex
 10
63.661997
 20
78.952434
 30
0.0
  0
VERTEX
  5
211
330
207
100
AcDbEntity
  8
001
370
    50
100
AcDbVertex
100
AcDb2dVertex
 10
63.510144
 20
76.611078
 30
0.0
  0
VERTEX
  5
212
330
207
100
AcDbEntity
  8
001
370
    50
100
AcDbVertex
100
AcDb2dVertex
 10
63.352867
 20
73.993366
 30
0.0
  0
VERTEX
  5
213
330
207
100
AcDbEntity
  8
001
370
    50
100
AcDbVertex
100
AcDb2dVertex
 10
63.348513
 20
73.918044
 30
0.0
  0
VERTEX
  5
214
330
207
100
AcDbEntity
  8
001
370
    50
100
AcDbVertex
100
AcDb2dVertex
 10
63.345535
 20
73.866446
 30
0.0
  0
SEQEND
  5
208
330
207
100
AcDbEntity
  8
001
370
    50
  0
POLYLINE
  5
215
330
1F
100
AcDbEntity
  8
001
370
    50
100
AcDb2dPolyline
 66
     1
 10
0.0
 20
0.0
 30
0.0
  0
VERTEX
  5
217
330
215
100
AcDbEntity
  8
001
370
    50
100
AcDbVertex
100
AcDb2dVertex
 10
60.69205
 20
82.368505
 30
0.0
  0
VERTEX
  5
218
330
215
100
AcDbEntity
  8
001
370
    50
100
AcDbVertex
100
AcDb2dVertex
 10
61.855535
 20
82.728778
 30
0.0
  0
VERTEX
  5
219
330
215
100
AcDbEntity
  8
001
370
    50
100
AcDbVertex
100
AcDb2dVertex
 10
63.417586
 20
83.524553
 30
0.0
  0
VERTEX
  5
21A
330
215
100
AcDbEntity
  8
001
370
    50
100
AcDbVertex
100
AcDb2dVertex
 10
63.787879
 20
83.803577
 30
0.0
  0
VERTEX
  5
21B
330
215
100
AcDbEntity
  8
001
370
    50
100
AcDbVertex
100
AcDb2dVertex
 10
64.029643
 20
84.010273
 30
0.0
  0
SEQEND
  5
216
330
215
100
AcDbEntity
  8
001
370
    50
  0
POLYLINE
  5
21C
330
1F
100
AcDbEntity
  8
001
370
    50
100
AcDb2dPolyline
 66
     1
 10
0.0
 20
0.0
 30
0.0
  0
VERTEX
  5
21E
330
21C
100
AcDbEntity
  8
001
370
    50
100
AcDbVertex
100
AcDb2dVertex
 10
60.69205
 20
82.368505
 30
0.0
  0
VERTEX
  5
21F
330
21C
100
AcDbEntity
  8
001
370
    50
100
AcDbVertex
100
AcDb2dVertex
 10
59.868985
 20
82.799855
 30
0.0
  0
VERTEX
  5
220
330
21C
100
AcDbEntity
  8
001
370
    50
100
AcDbVertex
100
AcDb2dVertex
 10
58.620825
 20
83.318601
 30
0.0
  0
VERTEX
  5
221
330
21C
100
AcDbEntity
  8
001
370
    50
100
AcDbVertex
100
AcDb2dVertex
 10
56.594471
 20
83.794648
 30
0.0
  0
VERTEX
  5
222
330
21C
100
AcDbEntity
  8
001
370
    50
100
AcDbVertex
100
AcDb2dVertex
 10
55.16363
 20
83.916446
 30
0.0
  0
SEQEND
  5
21D
330
21C
100
AcDbEntity
  8
001
370
    50
  0
LINE
  5
223
330
1F
100
AcDbEntity
  8
001
370
    50
100
AcDbLine
 10
55.16363
 20
83.916446
 30
0.0
 11
46.768786
 21
83.916446
 31
0.0
  0
POLYLINE
  5
224
330
1F
100
AcDbEntity
  8
001
370
    50
100
AcDb2dPolyline
 66
     1
 10
0.0
 20
0.0
 30
0.0
  0
VERTEX
  5
226
330
224
100
AcDbEntity
  8
001
370
    50
100
AcDbVertex
100
AcDb2dVertex
 10
41.869876
 20
90.749048
 30
0.0
  0
VERTEX
  5
227
330
224
100
AcDbEntity
  8
001
370
    50
100
AcDbVertex
100
AcDb2dVertex
 10
42.59956
 20
89.916796
 30
0.0
  0
VERTEX
  5
228
330
224
100
AcDbEntity
  8
001
370
    50
100
AcDbVertex
100
AcDb2dVertex
 10
43.319775
 20
89.076404
 30
0.0
  0
VERTEX
  5
229
330
224
100
AcDbEntity
  8
001
370
    50
100
AcDbVertex
100
AcDb2dVertex
 10
44.005423
 20
88.241133
 30
0.0
  0
VERTEX
  5
22A
330
224
100
AcDbEntity
  8
001
370
    50
100
AcDbVertex
100
AcDb2dVertex
 10
44.668462
 20
87.3878
 30
0.0
  0
VERTEX
  5
22B
330
224
100
AcDbEntity
  8
001
370
    50
100
AcDbVertex
100
AcDb2dVertex
 10
44.983232
 20
86.962518
 30
0.0
  0
VERTEX
  5
22C
330
224
100
AcDbEntity
  8
001
370
    50
100
AcDbVertex
100
AcDb2dVertex
 10
45.28957
 20
86.531206
 30
0.0
  0
VERTEX
  5
22D
330
224
100
AcDbEntity
  8
001
370
    50
100
AcDbVertex
100
AcDb2dVertex
 10
45.578844
 20
86.103374
 30
0.0
  0
VERTEX
  5
22E
330
224
100
AcDbEntity
  8
001
370
    50
100
AcDbVertex
100
AcDb2dVertex
 10
45.857532
 20
85.668388
 30
0.0
  0
VERTEX
  5
22F
330
224
100
AcDbEntity
  8
001
370
    50
100
AcDbVertex
100
AcDb2dVertex
 10
46.116878
 20
85.2372
 30
0.0
  0
VERTEX
  5
230
330
224
100
AcDbEntity
  8
001
370
    50
100
AcDbVertex
100
AcDb2dVertex
 10
46.35796
 20
84.795947
 30
0.0
  0
VERTEX
  5
231
330
224
100
AcDbEntity
  8
001
370
    50
100
AcDbVertex
100
AcDb2dVertex
 10
46.569383
 20
84.359224
 30
0.0
  0
VERTEX
  5
232
330
224
100
AcDbEntity
  8
001
370
    50
100
AcDbVertex
100
AcDb2dVertex
 10
46.768786
 20
83.916446
 30
0.0
  0
SEQEND
  5
225
330
224
100
AcDbEntity
  8
001
370
    50
  0
LINE
  5
233
330
1F
100
AcDbEntity
  8
001
370
    50
100
AcDbLine
 10
41.869876
 20
98.251793
 30
0.0
 11
42.858031
 21
98.439113
 31
0.0
  0
POLYLINE
  5
234
330
1F
100
AcDbEntity
  8
001
370
    50
100
AcDb2dPolyline
 66
     1
 10
0.0
 20
0.0
 30
0.0
  0
VERTEX
  5
236
330
234
100
AcDbEntity
  8
001
370
    50
100
AcDbVertex
100
AcDb2dVertex
 10
58.772216
 20
96.66068
 30
0.0
  0
VERTEX
  5
237
330
234
100
AcDbEntity
  8
001
370
    50
100
AcDbVertex
100
AcDb2dVertex
 10
56.868642
 20
96.875854
 30
0.0
  0
VERTEX
  5
238
330
234
100
AcDbEntity
  8
001
370
    50
100
AcDbVertex
100
AcDb2dVertex
 10
54.086369
 20
97.189215
 30
0.0
  0
VERTEX
  5
239
330
234
100
AcDbEntity
  8
001
370
    50
100
AcDbVertex
100
AcDb2dVertex
 10
50.864601
 20
97.550368
 30
0.0
  0
VERTEX
  5
23A
330
234
100
AcDbEntity
  8
001
370
    50
100
AcDbVertex
100
AcDb2dVertex
 10
48.393956
 20
97.825816
 30
0.0
  0
VERTEX
  5
23B
330
234
100
AcDbEntity
  8
001
370
    50
100
AcDbVertex
100
AcDb2dVertex
 10
46.110845
 20
98.07936
 30
0.0
  0
VERTEX
  5
23C
330
234
100
AcDbEntity
  8
001
370
    50
100
AcDbVertex
100
AcDb2dVertex
 10
44.202969
 20
98.290594
 30
0.0
  0
VERTEX
  5
23D
330
234
100
AcDbEntity
  8
001
370
    50
100
AcDbVertex
100
AcDb2dVertex
 10
42.858031
 20
98.439113
 30
0.0
  0
SEQEND
  5
235
330
234
100
AcDbEntity
  8
001
370
    50
  0
POLYLINE
  5
23E
330
1F
100
AcDbEntity
  8
001
370
    50
100
AcDb2dPolyline
 66
     1
 10
0.0
 20
0.0
 30
0.0
  0
VERTEX
  5
240
330
23E
100
AcDbEntity
  8
001
370
    50
100
AcDbVertex
100
AcDb2dVertex
 10
52.427018
 20
96.06098
 30
0.0
  0
VERTEX
  5
241
330
23E
100
AcDbEntity
  8
001
370
    50
100
AcDbVertex
100
AcDb2dVertex
 10
52.42682
 20
96.075567
 30
0.0
  0
VERTEX
  5
242
330
23E
100
AcDbEntity
  8
001
370
    50
100
AcDbVertex
100
AcDb2dVertex
 10
52.425977
 20
96.096864
 30
0.0
  0
VERTEX
  5
243
330
23E
100
AcDbEntity
  8
001
370
    50
100
AcDbVertex
100
AcDb2dVertex
 10
52.424349
 20
96.118278
 30
0.0
  0
VERTEX
  5
244
330
23E
100
AcDbEntity
  8
001
370
    50
100
AcDbVertex
100
AcDb2dVertex
 10
52.422856
 20
96.1329
 30
0.0
  0
SEQEND
  5
23F
330
23E
100
AcDbEntity
  8
001
370
    50
  0
POLYLINE
  5
245
330
1F
100
AcDbEntity
  8
001
370
    50
100
AcDb2dPolyline
 66
     1
 10
0.0
 20
0.0
 30
0.0
  0
VERTEX
  5
247
330
245
100
AcDbEntity
  8
001
370
    50
100
AcDbVertex
100
AcDb2dVertex
 10
58.772216
 20
113.364308
 30
0.0
  0
VERTEX
  5
248
330
245
100
AcDbEntity
  8
001
370
    50
100
AcDbVertex
100
AcDb2dVertex
 10
58.228947
 20
113.327023
 30
0.0
  0
VERTEX
  5
249
330
245
100
AcDbEntity
  8
001
370
    50
100
AcDbVertex
100
AcDb2dVertex
 10
57.434944
 20
113.272451
 30
0.0
  0
VERTEX
  5
24A
330
245
100
AcDbEntity
  8
001
370
    50
100
AcDbVertex
100
AcDb2dVertex
 10
56.639816
 20
113.217692
 30
0.0
  0
VERTEX
  5
24B
330
245
100
AcDbEntity
  8
001
370
    50
100
AcDbVertex
100
AcDb2dVertex
 10
56.095785
 20
113.180171
 30
0.0
  0
SEQEND
  5
246
330
245
100
AcDbEntity
  8
001
370
    50
  0
LINE
  5
24C
330
1F
100
AcDbEntity
  8
001
370
    50
100
AcDbLine
 10
42.858031
 20
108.466579
 30
0.0
 11
42.858031
 21
98.439113
 31
0.0
  0
POLYLINE
  5
24D
330
1F
100
AcDbEntity
  8
001
370
    50
100
AcDb2dPolyline
 66
     1
 10
0.0
 20
0.0
 30
0.0
  0
VERTEX
  5
24F
330
24D
100
AcDbEntity
  8
001
370
    50
100
AcDbVertex
100
AcDb2dVertex
 10
56.868125
 20
109.544322
 30
0.0
  0
VERTEX
  5
250
330
24D
100
AcDbEntity
  8
001
370
    50
100
AcDbVertex
100
AcDb2dVertex
 10
55.184963
 20
109.416315
 30
0.0
  0
VERTEX
  5
251
330
24D
100
AcDbEntity
  8
001
370
    50
100
AcDbVertex
100
AcDb2dVertex
 10
52.72501
 20
109.228551
 30
0.0
  0
VERTEX
  5
252
330
24D
100
AcDbEntity
  8
001
370
    50
100
AcDbVertex
100
AcDb2dVertex
 10
49.876722
 20
109.010114
 30
0.0
  0
VERTEX
  5
253
330
24D
100
AcDbEntity
  8
001
370
    50
100
AcDbVertex
100
AcDb2dVertex
 10
47.017194
 20
108.789473
 30
0.0
  0
VERTEX
  5
254
330
24D
100
AcDbEntity
  8
001
370
    50
100
AcDbVertex
100
AcDb2dVertex
 10
44.54767
 20
108.598028
 30
0.0
  0
VERTEX
  5
255
330
24D
100
AcDbEntity
  8
001
370
    50
100
AcDbVertex
100
AcDb2dVertex
 10
42.858031
 20
108.466579
 30
0.0
  0
SEQEND
  5
24E
330
24D
100
AcDbEntity
  8
001
370
    50
  0
POLYLINE
  5
256
330
1F
100
AcDbEntity
  8
001
370
    50
100
AcDb2dPolyline
 66
     1
 10
0.0
 20
0.0
 30
0.0
  0
VERTEX
  5
258
330
256
100
AcDbEntity
  8
001
370
    50
100
AcDbVertex
100
AcDb2dVertex
 10
56.868125
 20
109.544322
 30
0.0
  0
VERTEX
  5
259
330
256
100
AcDbEntity
  8
001
370
    50
100
AcDbVertex
100
AcDb2dVertex
 10
56.740507
 20
110.303227
 30
0.0
  0
VERTEX
  5
25A
330
256
100
AcDbEntity
  8
001
370
    50
100
AcDbVertex
100
AcDb2dVertex
 10
56.526091
 20
111.406963
 30
0.0
  0
VERTEX
  5
25B
330
256
100
AcDbEntity
  8
001
370
    50
100
AcDbVertex
100
AcDb2dVertex
 10
56.281724
 20
112.462396
 30
0.0
  0
VERTEX
  5
25C
330
256
100
AcDbEntity
  8
001
370
    50
100
AcDbVertex
100
AcDb2dVertex
 10
56.095785
 20
113.180171
 30
0.0
  0
SEQEND
  5
257
330
256
100
AcDbEntity
  8
001
370
    50
  0
LINE
  5
25D
330
1F
100
AcDbEntity
  8
001
370
    50
100
AcDbLine
 10
42.858031
 20
108.466579
 30
0.0
 11
41.869876
 21
108.106702
 31
0.0
  0
POLYLINE
  5
25E
330
1F
100
AcDbEntity
  8
001
370
    50
100
AcDb2dPolyline
 66
     1
 10
0.0
 20
0.0
 30
0.0
  0
VERTEX
  5
260
330
25E
100
AcDbEntity
  8
001
370
    50
100
AcDbVertex
100
AcDb2dVertex
 10
47.35577
 20
96.427782
 30
0.0
  0
VERTEX
  5
261
330
25E
100
AcDbEntity
  8
001
370
    50
100
AcDbVertex
100
AcDb2dVertex
 10
47.360723
 20
96.395362
 30
0.0
  0
VERTEX
  5
262
330
25E
100
AcDbEntity
  8
001
370
    50
100
AcDbVertex
100
AcDb2dVertex
 10
47.369583
 20
96.349635
 30
0.0
  0
VERTEX
  5
263
330
25E
100
AcDbEntity
  8
001
370
    50
100
AcDbVertex
100
AcDb2dVertex
 10
47.407588
 20
96.228421
 30
0.0
  0
VERTEX
  5
264
330
25E
100
AcDbEntity
  8
001
370
    50
100
AcDbVertex
100
AcDb2dVertex
 10
47.460219
 20
96.128534
 30
0.0
  0
VERTEX
  5
265
330
25E
100
AcDbEntity
  8
001
370
    50
100
AcDbVertex
100
AcDb2dVertex
 10
47.536062
 20
96.018371
 30
0.0
  0
VERTEX
  5
266
330
25E
100
AcDbEntity
  8
001
370
    50
100
AcDbVertex
100
AcDb2dVertex
 10
47.624662
 20
95.912045
 30
0.0
  0
VERTEX
  5
267
330
25E
100
AcDbEntity
  8
001
370
    50
100
AcDbVertex
100
AcDb2dVertex
 10
48.030243
 20
95.583679
 30
0.0
  0
VERTEX
  5
268
330
25E
100
AcDbEntity
  8
001
370
    50
100
AcDbVertex
100
AcDb2dVertex
 10
48.500629
 20
95.354144
 30
0.0
  0
VERTEX
  5
269
330
25E
100
AcDbEntity
  8
001
370
    50
100
AcDbVertex
100
AcDb2dVertex
 10
48.901178
 20
95.215247
 30
0.0
  0
VERTEX
  5
26A
330
25E
100
AcDbEntity
  8
001
370
    50
100
AcDbVertex
100
AcDb2dVertex
 10
49.310838
 20
95.113254
 30
0.0
  0
VERTEX
  5
26B
330
25E
100
AcDbEntity
  8
001
370
    50
100
AcDbVertex
100
AcDb2dVertex
 10
49.528929
 20
95.074078
 30
0.0
  0
VERTEX
  5
26C
330
25E
100
AcDbEntity
  8
001
370
    50
100
AcDbVertex
100
AcDb2dVertex
 10
49.748692
 20
95.044417
 30
0.0
  0
VERTEX
  5
26D
330
25E
100
AcDbEntity
  8
001
370
    50
100
AcDbVertex
100
AcDb2dVertex
 10
49.969525
 20
95.024066
 30
0.0
  0
VERTEX
  5
26E
330
25E
100
AcDbEntity
  8
001
370
    50
100
AcDbVertex
100
AcDb2dVertex
 10
50.19082
 20
95.013132
 30
0.0
  0
VERTEX
  5
26F
330
25E
100
AcDbEntity
  8
001
370
    50
100
AcDbVertex
100
AcDb2dVertex
 10
50.612689
 20
95.01964
 30
0.0
  0
VERTEX
  5
270
330
25E
100
AcDbEntity
  8
001
370
    50
100
AcDbVertex
100
AcDb2dVertex
 10
51.034435
 20
95.065854
 30
0.0
  0
VERTEX
  5
271
330
25E
100
AcDbEntity
  8
001
370
    50
100
AcDbVertex
100
AcDb2dVertex
 10
51.545616
 20
95.188352
 30
0.0
  0
VERTEX
  5
272
330
25E
100
AcDbEntity
  8
001
370
    50
100
AcDbVertex
100
AcDb2dVertex
 10
52.013343
 20
95.412713
 30
0.0
  0
VERTEX
  5
273
330
25E
100
AcDbEntity
  8
001
370
    50
100
AcDbVertex
100
AcDb2dVertex
 10
52.122646
 20
95.493123
 30
0.0
  0
VERTEX
  5
274
330
25E
100
AcDbEntity
  8
001
370
    50
100
AcDbVertex
100
AcDb2dVertex
 10
52.222216
 20
95.586726
 30
0.0
  0
VERTEX
  5
275
330
25E
100
AcDbEntity
  8
001
370
    50
100
AcDbVertex
100
AcDb2dVertex
 10
52.29847
 20
95.681298
 30
0.0
  0
VERTEX
  5
276
330
25E
100
AcDbEntity
  8
001
370
    50
100
AcDbVertex
100
AcDb2dVertex
 10
52.360206
 20
95.781815
 30
0.0
  0
VERTEX
  5
277
330
25E
100
AcDbEntity
  8
001
370
    50
100
AcDbVertex
100
AcDb2dVertex
 10
52.400724
 20
95.877452
 30
0.0
  0
VERTEX
  5
278
330
25E
100
AcDbEntity
  8
001
370
    50
100
AcDbVertex
100
AcDb2dVertex
 10
52.423118
 20
95.992051
 30
0.0
  0
VERTEX
  5
279
330
25E
100
AcDbEntity
  8
001
370
    50
100
AcDbVertex
100
AcDb2dVertex
 10
52.426053
 20
96.032485
 30
0.0
  0
VERTEX
  5
27A
330
25E
100
AcDbEntity
  8
001
370
    50
100
AcDbVertex
100
AcDb2dVertex
 10
52.427018
 20
96.06098
 30
0.0
  0
SEQEND
  5
25F
330
25E
100
AcDbEntity
  8
001
370
    50
  0
POLYLINE
  5
27B
330
1F
100
AcDbEntity
  8
001
370
    50
100
AcDb2dPolyline
 66
     1
 10
0.0
 20
0.0
 30
0.0
  0
VERTEX
  5
27D
330
27B
100
AcDbEntity
  8
001
370
    50
100
AcDbVertex
100
AcDb2dVertex
 10
52.422856
 20
96.1329
 30
0.0
  0
VERTEX
  5
27E
330
27B
100
AcDbEntity
  8
001
370
    50
100
AcDbVertex
100
AcDb2dVertex
 10
52.417902
 20
96.16532
 30
0.0
  0
VERTEX
  5
27F
330
27B
100
AcDbEntity
  8
001
370
    50
100
AcDbVertex
100
AcDb2dVertex
 10
52.409043
 20
96.211047
 30
0.0
  0
VERTEX
  5
280
330
27B
100
AcDbEntity
  8
001
370
    50
100
AcDbVertex
100
AcDb2dVertex
 10
52.371038
 20
96.332261
 30
0.0
  0
VERTEX
  5
281
330
27B
100
AcDbEntity
  8
001
370
    50
100
AcDbVertex
100
AcDb2dVertex
 10
52.318406
 20
96.432148
 30
0.0
  0
VERTEX
  5
282
330
27B
100
AcDbEntity
  8
001
370
    50
100
AcDbVertex
100
AcDb2dVertex
 10
52.242564
 20
96.542311
 30
0.0
  0
VERTEX
  5
283
330
27B
100
AcDbEntity
  8
001
370
    50
100
AcDbVertex
100
AcDb2dVertex
 10
52.153963
 20
96.648637
 30
0.0
  0
VERTEX
  5
284
330
27B
100
AcDbEntity
  8
001
370
    50
100
AcDbVertex
100
AcDb2dVertex
 10
51.748382
 20
96.977003
 30
0.0
  0
VERTEX
  5
285
330
27B
100
AcDbEntity
  8
001
370
    50
100
AcDbVertex
100
AcDb2dVertex
 10
51.277996
 20
97.206538
 30
0.0
  0
VERTEX
  5
286
330
27B
100
AcDbEntity
  8
001
370
    50
100
AcDbVertex
100
AcDb2dVertex
 10
50.877447
 20
97.345436
 30
0.0
  0
VERTEX
  5
287
330
27B
100
AcDbEntity
  8
001
370
    50
100
AcDbVertex
100
AcDb2dVertex
 10
50.467787
 20
97.447428
 30
0.0
  0
VERTEX
  5
288
330
27B
100
AcDbEntity
  8
001
370
    50
100
AcDbVertex
100
AcDb2dVertex
 10
50.249695
 20
97.486603
 30
0.0
  0
VERTEX
  5
289
330
27B
100
AcDbEntity
  8
001
370
    50
100
AcDbVertex
100
AcDb2dVertex
 10
50.029933
 20
97.516265
 30
0.0
  0
VERTEX
  5
28A
330
27B
100
AcDbEntity
  8
001
370
    50
100
AcDbVertex
100
AcDb2dVertex
 10
49.809102
 20
97.53662
 30
0.0
  0
VERTEX
  5
28B
330
27B
100
AcDbEntity
  8
001
370
    50
100
AcDbVertex
100
AcDb2dVertex
 10
49.587806
 20
97.54755
 30
0.0
  0
VERTEX
  5
28C
330
27B
100
AcDbEntity
  8
001
370
    50
100
AcDbVertex
100
AcDb2dVertex
 10
49.165918
 20
97.541007
 30
0.0
  0
VERTEX
  5
28D
330
27B
100
AcDbEntity
  8
001
370
    50
100
AcDbVertex
100
AcDb2dVertex
 10
48.74419
 20
97.494828
 30
0.0
  0
VERTEX
  5
28E
330
27B
100
AcDbEntity
  8
001
370
    50
100
AcDbVertex
100
AcDb2dVertex
 10
48.233107
 20
97.372517
 30
0.0
  0
VERTEX
  5
28F
330
27B
100
AcDbEntity
  8
001
370
    50
100
AcDbVertex
100
AcDb2dVertex
 10
47.765283
 20
97.147969
 30
0.0
  0
VERTEX
  5
290
330
27B
100
AcDbEntity
  8
001
370
    50
100
AcDbVertex
100
AcDb2dVertex
 10
47.655908
 20
97.067422
 30
0.0
  0
VERTEX
  5
291
330
27B
100
AcDbEntity
  8
001
370
    50
100
AcDbVertex
100
AcDb2dVertex
 10
47.556409
 20
96.973956
 30
0.0
  0
VERTEX
  5
292
330
27B
100
AcDbEntity
  8
001
370
    50
100
AcDbVertex
100
AcDb2dVertex
 10
47.480353
 20
96.879761
 30
0.0
  0
VERTEX
  5
293
330
27B
100
AcDbEntity
  8
001
370
    50
100
AcDbVertex
100
AcDb2dVertex
 10
47.418419
 20
96.778867
 30
0.0
  0
VERTEX
  5
294
330
27B
100
AcDbEntity
  8
001
370
    50
100
AcDbVertex
100
AcDb2dVertex
 10
47.377262
 20
96.682006
 30
0.0
  0
VERTEX
  5
295
330
27B
100
AcDbEntity
  8
001
370
    50
100
AcDbVertex
100
AcDb2dVertex
 10
47.355507
 20
96.568631
 30
0.0
  0
VERTEX
  5
296
330
27B
100
AcDbEntity
  8
001
370
    50
100
AcDbVertex
100
AcDb2dVertex
 10
47.352941
 20
96.486584
 30
0.0
  0
VERTEX
  5
297
330
27B
100
AcDbEntity
  8
001
370
    50
100
AcDbVertex
100
AcDb2dVertex
 10
47.35577
 20
96.427782
 30
0.0
  0
SEQEND
  5
27C
330
27B
100
AcDbEntity
  8
001
370
    50
  0
LINE
  5
298
330
1F
100
AcDbEntity
  8
001
370
    50
100
AcDbLine
 10
55.959379
 20
113.054758
 30
0.0
 11
56.095785
 21
113.180171
 31
0.0
  0
LINE
  5
299
330
1F
100
AcDbEntity
  8
001
370
    50
100
AcDbLine
 10
63.345535
 20
125.016446
 30
0.0
 11
63.354179
 21
124.916446
 31
0.0
  0
POLYLINE
  5
29A
330
1F
100
AcDbEntity
  8
001
370
    50
100
AcDb2dPolyline
 66
     1
 10
0.0
 20
0.0
 30
0.0
  0
VERTEX
  5
29C
330
29A
100
AcDbEntity
  8
001
370
    50
100
AcDbVertex
100
AcDb2dVertex
 10
63.628443
 20
78.223961
 30
0.0
  0
VERTEX
  5
29D
330
29A
100
AcDbEntity
  8
001
370
    50
100
AcDbVertex
100
AcDb2dVertex
 10
63.589472
 20
78.35566
 30
0.0
  0
VERTEX
  5
29E
330
29A
100
AcDbEntity
  8
001
370
    50
100
AcDbVertex
100
AcDb2dVertex
 10
63.549116
 20
78.486934
 30
0.0
  0
VERTEX
  5
29F
330
29A
100
AcDbEntity
  8
001
370
    50
100
AcDbVertex
100
AcDb2dVertex
 10
63.390859
 20
78.931286
 30
0.0
  0
VERTEX
  5
2A0
330
29A
100
AcDbEntity
  8
001
370
    50
100
AcDbVertex
100
AcDb2dVertex
 10
63.203574
 20
79.364535
 30
0.0
  0
VERTEX
  5
2A1
330
29A
100
AcDbEntity
  8
001
370
    50
100
AcDbVertex
100
AcDb2dVertex
 10
62.976492
 20
79.810714
 30
0.0
  0
VERTEX
  5
2A2
330
29A
100
AcDbEntity
  8
001
370
    50
100
AcDbVertex
100
AcDb2dVertex
 10
62.72098
 20
80.241106
 30
0.0
  0
VERTEX
  5
2A3
330
29A
100
AcDbEntity
  8
001
370
    50
100
AcDbVertex
100
AcDb2dVertex
 10
62.417448
 20
80.6808
 30
0.0
  0
VERTEX
  5
2A4
330
29A
100
AcDbEntity
  8
001
370
    50
100
AcDbVertex
100
AcDb2dVertex
 10
62.084005
 20
81.098307
 30
0.0
  0
VERTEX
  5
2A5
330
29A
100
AcDbEntity
  8
001
370
    50
100
AcDbVertex
100
AcDb2dVertex
 10
61.789375
 20
81.423211
 30
0.0
  0
VERTEX
  5
2A6
330
29A
100
AcDbEntity
  8
001
370
    50
100
AcDbVertex
100
AcDb2dVertex
 10
61.47675
 20
81.730827
 30
0.0
  0
VERTEX
  5
2A7
330
29A
100
AcDbEntity
  8
001
370
    50
100
AcDbVertex
100
AcDb2dVertex
 10
61.119476
 20
82.042618
 30
0.0
  0
VERTEX
  5
2A8
330
29A
100
AcDbEntity
  8
001
370
    50
100
AcDbVertex
100
AcDb2dVertex
 10
60.743657
 20
82.331541
 30
0.0
  0
VERTEX
  5
2A9
330
29A
100
AcDbEntity
  8
001
370
    50
100
AcDbVertex
100
AcDb2dVertex
 10
60.717872
 20
82.35005
 30
0.0
  0
VERTEX
  5
2AA
330
29A
100
AcDbEntity
  8
001
370
    50
100
AcDbVertex
100
AcDb2dVertex
 10
60.69205
 20
82.368505
 30
0.0
  0
SEQEND
  5
29B
330
29A
100
AcDbEntity
  8
001
370
    50
  0
POLYLINE
  5
2AB
330
1F
100
AcDbEntity
  8
001
370
    50
100
AcDb2dPolyline
 66
     1
 10
0.0
 20
0.0
 30
0.0
  0
VERTEX
  5
2AD
330
2AB
100
AcDbEntity
  8
001
370
    50
100
AcDbVertex
100
AcDb2dVertex
 10
48.25702
 20
83.916446
 30
0.0
  0
VERTEX
  5
2AE
330
2AB
100
AcDbEntity
  8
001
370
    50
100
AcDbVertex
100
AcDb2dVertex
 10
47.761288
 20
82.827369
 30
0.0
  0
VERTEX
  5
2AF
330
2AB
100
AcDbEntity
  8
001
370
    50
100
AcDbVertex
100
AcDb2dVertex
 10
47.25476
 20
81.743422
 30
0.0
  0
VERTEX
  5
2B0
330
2AB
100
AcDbEntity
  8
001
370
    50
100
AcDbVertex
100
AcDb2dVertex
 10
46.729156
 20
80.667368
 30
0.0
  0
VERTEX
  5
2B1
330
2AB
100
AcDbEntity
  8
001
370
    50
100
AcDbVertex
100
AcDb2dVertex
 10
46.189133
 20
79.598337
 30
0.0
  0
VERTEX
  5
2B2
330
2AB
100
AcDbEntity
  8
001
370
    50
100
AcDbVertex
100
AcDb2dVertex
 10
45.084472
 20
77.469415
 30
0.0
  0
VERTEX
  5
2B3
330
2AB
100
AcDbEntity
  8
001
370
    50
100
AcDbVertex
100
AcDb2dVertex
 10
43.956287
 20
75.352961
 30
0.0
  0
VERTEX
  5
2B4
330
2AB
100
AcDbEntity
  8
001
370
    50
100
AcDbVertex
100
AcDb2dVertex
 10
42.916819
 20
73.439828
 30
0.0
  0
VERTEX
  5
2B5
330
2AB
100
AcDbEntity
  8
001
370
    50
100
AcDbVertex
100
AcDb2dVertex
 10
41.869876
 20
71.530741
 30
0.0
  0
SEQEND
  5
2AC
330
2AB
100
AcDbEntity
  8
001
370
    50
  0
POLYLINE
  5
2B6
330
1F
100
AcDbEntity
  8
001
370
    50
100
AcDb2dPolyline
 66
     1
 10
0.0
 20
0.0
 30
0.0
  0
VERTEX
  5
2B8
330
2B6
100
AcDbEntity
  8
001
370
    50
100
AcDbVertex
100
AcDb2dVertex
 10
41.869876
 20
73.680244
 30
0.0
  0
VERTEX
  5
2B9
330
2B6
100
AcDbEntity
  8
001
370
    50
100
AcDbVertex
100
AcDb2dVertex
 10
42.601961
 20
75.224232
 30
0.0
  0
VERTEX
  5
2BA
330
2B6
100
AcDbEntity
  8
001
370
    50
100
AcDbVertex
100
AcDb2dVertex
 10
43.319775
 20
76.774872
 30
0.0
  0
VERTEX
  5
2BB
330
2B6
100
AcDbEntity
  8
001
370
    50
100
AcDbVertex
100
AcDb2dVertex
 10
44.011219
 20
78.3396
 30
0.0
  0
VERTEX
  5
2BC
330
2B6
100
AcDbEntity
  8
001
370
    50
100
AcDbVertex
100
AcDb2dVertex
 10
44.668462
 20
79.918917
 30
0.0
  0
VERTEX
  5
2BD
330
2B6
100
AcDbEntity
  8
001
370
    50
100
AcDbVertex
100
AcDb2dVertex
 10
44.984499
 20
80.719675
 30
0.0
  0
VERTEX
  5
2BE
330
2B6
100
AcDbEntity
  8
001
370
    50
100
AcDbVertex
100
AcDb2dVertex
 10
45.28957
 20
81.524727
 30
0.0
  0
VERTEX
  5
2BF
330
2B6
100
AcDbEntity
  8
001
370
    50
100
AcDbVertex
100
AcDb2dVertex
 10
45.582321
 20
82.335462
 30
0.0
  0
VERTEX
  5
2C0
330
2B6
100
AcDbEntity
  8
001
370
    50
100
AcDbVertex
100
AcDb2dVertex
 10
45.857532
 20
83.152171
 30
0.0
  0
VERTEX
  5
2C1
330
2B6
100
AcDbEntity
  8
001
370
    50
100
AcDbVertex
100
AcDb2dVertex
 10
46.112214
 20
83.974702
 30
0.0
  0
VERTEX
  5
2C2
330
2B6
100
AcDbEntity
  8
001
370
    50
100
AcDbVertex
100
AcDb2dVertex
 10
46.355315
 20
84.800911
 30
0.0
  0
SEQEND
  5
2B7
330
2B6
100
AcDbEntity
  8
001
370
    50
  0
LINE
  5
2C3
330
1F
100
AcDbEntity
  8
001
370
    50
100
AcDbLine
 10
77.669876
 20
106.916446
 30
0.0
 11
152.669876
 21
106.916446
 31
0.0
  0
LINE
  5
2C4
330
1F
100
AcDbEntity
  8
001
370
    50
100
AcDbLine
 10
77.669876
 20
74.916446
 30
0.0
 11
152.669876
 21
74.916446
 31
0.0
  0
ARC
  5
2C5
330
1F
100
AcDbEntity
  8
001
370
    50
100
AcDbCircle
 10
152.669876
 20
98.916446
 30
0.0
 40
8.0
100
AcDbArc
 50
0.0
 51
90.0
  0
ARC
  5
2C6
330
1F
100
AcDbEntity
  8
001
370
    50
100
AcDbCircle
 10
152.669876
 20
82.916446
 30
0.0
 40
8.0
100
AcDbArc
 50
270.0
 51
0.0
  0
LINE
  5
2C7
330
1F
100
AcDbEntity
  8
001
370
    50
100
AcDbLine
 10
160.669876
 20
98.916446
 30
0.0
 11
160.669876
 21
82.916446
 31
0.0
  0
POLYLINE
  5
2C8
330
1F
100
AcDbEntity
  8
001
370
    50
100
AcDb2dPolyline
 66
     1
 10
0.0
 20
0.0
 30
0.0
  0
VERTEX
  5
2CA
330
2C8
100
AcDbEntity
  8
001
370
    50
100
AcDbVertex
100
AcDb2dVertex
 10
63.859271
 20
118.034043
 30
0.0
  0
VERTEX
  5
2CB
330
2C8
100
AcDbEntity
  8
001
370
    50
100
AcDbVertex
100
AcDb2dVertex
 10
63.876664
 20
117.733925
 30
0.0
  0
VERTEX
  5
2CC
330
2C8
100
AcDbEntity
  8
001
370
    50
100
AcDbVertex
100
AcDb2dVertex
 10
63.891653
 20
117.433697
 30
0.0
  0
VERTEX
  5
2CD
330
2C8
100
AcDbEntity
  8
001
370
    50
100
AcDbVertex
100
AcDb2dVertex
 10
63.902587
 20
117.126636
 30
0.0
  0
VERTEX
  5
2CE
330
2C8
100
AcDbEntity
  8
001
370
    50
100
AcDbVertex
100
AcDb2dVertex
 10
63.909555
 20
116.81944
 30
0.0
  0
VERTEX
  5
2CF
330
2C8
100
AcDbEntity
  8
001
370
    50
100
AcDbVertex
100
AcDb2dVertex
 10
63.914453
 20
116.186549
 30
0.0
  0
VERTEX
  5
2D0
330
2C8
100
AcDbEntity
  8
001
370
    50
100
AcDbVertex
100
AcDb2dVertex
 10
63.907422
 20
115.553668
 30
0.0
  0
VERTEX
  5
2D1
330
2C8
100
AcDbEntity
  8
001
370
    50
100
AcDbVertex
100
AcDb2dVertex
 10
63.88796
 20
114.903911
 30
0.0
  0
VERTEX
  5
2D2
330
2C8
100
AcDbEntity
  8
001
370
    50
100
AcDbVertex
100
AcDb2dVertex
 10
63.855289
 20
114.25472
 30
0.0
  0
VERTEX
  5
2D3
330
2C8
100
AcDbEntity
  8
001
370
    50
100
AcDbVertex
100
AcDb2dVertex
 10
63.83889
 20
114.001147
 30
0.0
  0
VERTEX
  5
2D4
330
2C8
100
AcDbEntity
  8
001
370
    50
100
AcDbVertex
100
AcDb2dVertex
 10
63.821403
 20
113.747645
 30
0.0
  0
SEQEND
  5
2C9
330
2C8
100
AcDbEntity
  8
001
370
    50
  0
POLYLINE
  5
2D5
330
1F
100
AcDbEntity
  8
001
370
    50
100
AcDb2dPolyline
 66
     1
 10
0.0
 20
0.0
 30
0.0
  0
VERTEX
  5
2D7
330
2D5
100
AcDbEntity
  8
001
370
    50
100
AcDbVertex
100
AcDb2dVertex
 10
63.859271
 20
118.034043
 30
0.0
  0
VERTEX
  5
2D8
330
2D5
100
AcDbEntity
  8
001
370
    50
100
AcDbVertex
100
AcDb2dVertex
 10
63.709899
 20
120.213823
 30
0.0
  0
VERTEX
  5
2D9
330
2D5
100
AcDbEntity
  8
001
370
    50
100
AcDbVertex
100
AcDb2dVertex
 10
63.476299
 20
123.398527
 30
0.0
  0
VERTEX
  5
2DA
330
2D5
100
AcDbEntity
  8
001
370
    50
100
AcDbVertex
100
AcDb2dVertex
 10
63.405015
 20
124.299891
 30
0.0
  0
VERTEX
  5
2DB
330
2D5
100
AcDbEntity
  8
001
370
    50
100
AcDbVertex
100
AcDb2dVertex
 10
63.354179
 20
124.916446
 30
0.0
  0
SEQEND
  5
2D6
330
2D5
100
AcDbEntity
  8
001
370
    50
  0
POLYLINE
  5
2DC
330
1F
100
AcDbEntity
  8
001
370
    50
100
AcDb2dPolyline
 66
     1
 10
0.0
 20
0.0
 30
0.0
  0
VERTEX
  5
2DE
330
2DC
100
AcDbEntity
  8
001
370
    50
100
AcDbVertex
100
AcDb2dVertex
 10
56.095785
 20
57.367976
 30
0.0
  0
VERTEX
  5
2DF
330
2DC
100
AcDbEntity
  8
001
370
    50
100
AcDbVertex
100
AcDb2dVertex
 10
56.63982
 20
57.386988
 30
0.0
  0
VERTEX
  5
2E0
330
2DC
100
AcDbEntity
  8
001
370
    50
100
AcDbVertex
100
AcDb2dVertex
 10
57.434944
 20
57.414933
 30
0.0
  0
VERTEX
  5
2E1
330
2DC
100
AcDbEntity
  8
001
370
    50
100
AcDbVertex
100
AcDb2dVertex
 10
58.228951
 20
57.443058
 30
0.0
  0
VERTEX
  5
2E2
330
2DC
100
AcDbEntity
  8
001
370
    50
100
AcDbVertex
100
AcDb2dVertex
 10
58.772216
 20
57.462409
 30
0.0
  0
SEQEND
  5
2DD
330
2DC
100
AcDbEntity
  8
001
370
    50
  0
LINE
  5
2E3
330
1F
100
AcDbEntity
  8
001
370
    50
100
AcDbLine
 10
54.568311
 20
59.912681
 30
0.0
 11
56.095785
 21
57.367976
 31
0.0
  0
POLYLINE
  5
2E4
330
1F
100
AcDbEntity
  8
001
370
    50
100
AcDb2dPolyline
 66
     1
 10
0.0
 20
0.0
 30
0.0
  0
VERTEX
  5
2E6
330
2E4
100
AcDbEntity
  8
001
370
    50
100
AcDbVertex
100
AcDb2dVertex
 10
51.083796
 20
68.427272
 30
0.0
  0
VERTEX
  5
2E7
330
2E4
100
AcDbEntity
  8
001
370
    50
100
AcDbVertex
100
AcDb2dVertex
 10
51.071609
 20
68.53482
 30
0.0
  0
VERTEX
  5
2E8
330
2E4
100
AcDbEntity
  8
001
370
    50
100
AcDbVertex
100
AcDb2dVertex
 10
51.049704
 20
68.687911
 30
0.0
  0
VERTEX
  5
2E9
330
2E4
100
AcDbEntity
  8
001
370
    50
100
AcDbVertex
100
AcDb2dVertex
 10
50.912138
 20
69.226887
 30
0.0
  0
VERTEX
  5
2EA
330
2E4
100
AcDbEntity
  8
001
370
    50
100
AcDbVertex
100
AcDb2dVertex
 10
50.695118
 20
69.666967
 30
0.0
  0
VERTEX
  5
2EB
330
2E4
100
AcDbEntity
  8
001
370
    50
100
AcDbVertex
100
AcDb2dVertex
 10
50.223599
 20
70.273513
 30
0.0
  0
VERTEX
  5
2EC
330
2E4
100
AcDbEntity
  8
001
370
    50
100
AcDbVertex
100
AcDb2dVertex
 10
49.602472
 20
70.765043
 30
0.0
  0
VERTEX
  5
2ED
330
2E4
100
AcDbEntity
  8
001
370
    50
100
AcDbVertex
100
AcDb2dVertex
 10
49.367971
 20
70.886838
 30
0.0
  0
VERTEX
  5
2EE
330
2E4
100
AcDbEntity
  8
001
370
    50
100
AcDbVertex
100
AcDb2dVertex
 10
49.130875
 20
70.986045
 30
0.0
  0
VERTEX
  5
2EF
330
2E4
100
AcDbEntity
  8
001
370
    50
100
AcDbVertex
100
AcDb2dVertex
 10
48.893764
 20
71.064474
 30
0.0
  0
VERTEX
  5
2F0
330
2E4
100
AcDbEntity
  8
001
370
    50
100
AcDbVertex
100
AcDb2dVertex
 10
48.628257
 20
71.12139
 30
0.0
  0
VERTEX
  5
2F1
330
2E4
100
AcDbEntity
  8
001
370
    50
100
AcDbVertex
100
AcDb2dVertex
 10
48.328698
 20
71.155594
 30
0.0
  0
VERTEX
  5
2F2
330
2E4
100
AcDbEntity
  8
001
370
    50
100
AcDbVertex
100
AcDb2dVertex
 10
48.109888
 20
71.166967
 30
0.0
  0
SEQEND
  5
2E5
330
2E4
100
AcDbEntity
  8
001
370
    50
  0
POLYLINE
  5
2F3
330
1F
100
AcDbEntity
  8
001
370
    50
100
AcDb2dPolyline
 66
     1
 10
0.0
 20
0.0
 30
0.0
  0
VERTEX
  5
2F5
330
2F3
100
AcDbEntity
  8
001
370
    50
100
AcDbVertex
100
AcDb2dVertex
 10
56.095785
 20
57.367976
 30
0.0
  0
VERTEX
  5
2F6
330
2F3
100
AcDbEntity
  8
001
370
    50
100
AcDbVertex
100
AcDb2dVertex
 10
56.23679
 20
57.247034
 30
0.0
  0
VERTEX
  5
2F7
330
2F3
100
AcDbEntity
  8
001
370
    50
100
AcDbVertex
100
AcDb2dVertex
 10
56.451103
 20
57.080893
 30
0.0
  0
VERTEX
  5
2F8
330
2F3
100
AcDbEntity
  8
001
370
    50
100
AcDbVertex
100
AcDb2dVertex
 10
56.693066
 20
56.925611
 30
0.0
  0
VERTEX
  5
2F9
330
2F3
100
AcDbEntity
  8
001
370
    50
100
AcDbVertex
100
AcDb2dVertex
 10
56.868125
 20
56.8358
 30
0.0
  0
SEQEND
  5
2F4
330
2F3
100
AcDbEntity
  8
001
370
    50
  0
LINE
  5
2FA
330
1F
100
AcDbEntity
  8
001
370
    50
100
AcDbLine
 10
41.869876
 20
112.635884
 30
0.0
 11
41.869876
 21
115.822792
 31
0.0
  0
LINE
  5
2FB
330
1F
100
AcDbEntity
  8
001
370
    50
100
AcDbLine
 10
41.869876
 20
115.822792
 30
0.0
 11
42.858031
 21
116.180946
 31
0.0
  0
POLYLINE
  5
2FC
330
1F
100
AcDbEntity
  8
001
370
    50
100
AcDb2dPolyline
 66
     1
 10
0.0
 20
0.0
 30
0.0
  0
VERTEX
  5
2FE
330
2FC
100
AcDbEntity
  8
001
370
    50
100
AcDbVertex
100
AcDb2dVertex
 10
58.772216
 20
117.153784
 30
0.0
  0
VERTEX
  5
2FF
330
2FC
100
AcDbEntity
  8
001
370
    50
100
AcDbVertex
100
AcDb2dVertex
 10
56.868471
 20
117.039854
 30
0.0
  0
VERTEX
  5
300
330
2FC
100
AcDbEntity
  8
001
370
    50
100
AcDbVertex
100
AcDb2dVertex
 10
54.086142
 20
116.872207
 30
0.0
  0
VERTEX
  5
301
330
2FC
100
AcDbEntity
  8
001
370
    50
100
AcDbVertex
100
AcDb2dVertex
 10
50.864601
 20
116.67639
 30
0.0
  0
VERTEX
  5
302
330
2FC
100
AcDbEntity
  8
001
370
    50
100
AcDbVertex
100
AcDb2dVertex
 10
48.39375
 20
116.524696
 30
0.0
  0
VERTEX
  5
303
330
2FC
100
AcDbEntity
  8
001
370
    50
100
AcDbVertex
100
AcDb2dVertex
 10
46.110619
 20
116.383531
 30
0.0
  0
VERTEX
  5
304
330
2FC
100
AcDbEntity
  8
001
370
    50
100
AcDbVertex
100
AcDb2dVertex
 10
44.202837
 20
116.264933
 30
0.0
  0
VERTEX
  5
305
330
2FC
100
AcDbEntity
  8
001
370
    50
100
AcDbVertex
100
AcDb2dVertex
 10
42.858031
 20
116.180946
 30
0.0
  0
SEQEND
  5
2FD
330
2FC
100
AcDbEntity
  8
001
370
    50
  0
POLYLINE
  5
306
330
1F
100
AcDbEntity
  8
001
370
    50
100
AcDb2dPolyline
 66
     1
 10
0.0
 20
0.0
 30
0.0
  0
VERTEX
  5
308
330
306
100
AcDbEntity
  8
001
370
    50
100
AcDbVertex
100
AcDb2dVertex
 10
52.427018
 20
115.457115
 30
0.0
  0
VERTEX
  5
309
330
306
100
AcDbEntity
  8
001
370
    50
100
AcDbVertex
100
AcDb2dVertex
 10
52.426053
 20
115.48561
 30
0.0
  0
VERTEX
  5
30A
330
306
100
AcDbEntity
  8
001
370
    50
100
AcDbVertex
100
AcDb2dVertex
 10
52.423118
 20
115.526043
 30
0.0
  0
VERTEX
  5
30B
330
306
100
AcDbEntity
  8
001
370
    50
100
AcDbVertex
100
AcDb2dVertex
 10
52.400724
 20
115.640643
 30
0.0
  0
VERTEX
  5
30C
330
306
100
AcDbEntity
  8
001
370
    50
100
AcDbVertex
100
AcDb2dVertex
 10
52.360206
 20
115.736279
 30
0.0
  0
VERTEX
  5
30D
330
306
100
AcDbEntity
  8
001
370
    50
100
AcDbVertex
100
AcDb2dVertex
 10
52.29847
 20
115.836796
 30
0.0
  0
VERTEX
  5
30E
330
306
100
AcDbEntity
  8
001
370
    50
100
AcDbVertex
100
AcDb2dVertex
 10
52.222216
 20
115.931368
 30
0.0
  0
VERTEX
  5
30F
330
306
100
AcDbEntity
  8
001
370
    50
100
AcDbVertex
100
AcDb2dVertex
 10
52.122646
 20
116.024971
 30
0.0
  0
VERTEX
  5
310
330
306
100
AcDbEntity
  8
001
370
    50
100
AcDbVertex
100
AcDb2dVertex
 10
52.013343
 20
116.105382
 30
0.0
  0
VERTEX
  5
311
330
306
100
AcDbEntity
  8
001
370
    50
100
AcDbVertex
100
AcDb2dVertex
 10
51.545616
 20
116.329742
 30
0.0
  0
VERTEX
  5
312
330
306
100
AcDbEntity
  8
001
370
    50
100
AcDbVertex
100
AcDb2dVertex
 10
51.034435
 20
116.45224
 30
0.0
  0
VERTEX
  5
313
330
306
100
AcDbEntity
  8
001
370
    50
100
AcDbVertex
100
AcDb2dVertex
 10
50.612689
 20
116.498454
 30
0.0
  0
VERTEX
  5
314
330
306
100
AcDbEntity
  8
001
370
    50
100
AcDbVertex
100
AcDb2dVertex
 10
50.19082
 20
116.504962
 30
0.0
  0
VERTEX
  5
315
330
306
100
AcDbEntity
  8
001
370
    50
100
AcDbVertex
100
AcDb2dVertex
 10
49.969525
 20
116.494029
 30
0.0
  0
VERTEX
  5
316
330
306
100
AcDbEntity
  8
001
370
    50
100
AcDbVertex
100
AcDb2dVertex
 10
49.748692
 20
116.473677
 30
0.0
  0
VERTEX
  5
317
330
306
100
AcDbEntity
  8
001
370
    50
100
AcDbVertex
100
AcDb2dVertex
 10
49.528929
 20
116.444016
 30
0.0
  0
VERTEX
  5
318
330
306
100
AcDbEntity
  8
001
370
    50
100
AcDbVertex
100
AcDb2dVertex
 10
49.310838
 20
116.40484
 30
0.0
  0
VERTEX
  5
319
330
306
100
AcDbEntity
  8
001
370
    50
100
AcDbVertex
100
AcDb2dVertex
 10
48.901178
 20
116.302848
 30
0.0
  0
VERTEX
  5
31A
330
306
100
AcDbEntity
  8
001
370
    50
100
AcDbVertex
100
AcDb2dVertex
 10
48.500629
 20
116.16395
 30
0.0
  0
VERTEX
  5
31B
330
306
100
AcDbEntity
  8
001
370
    50
100
AcDbVertex
100
AcDb2dVertex
 10
48.030243
 20
115.934416
 30
0.0
  0
VERTEX
  5
31C
330
306
100
AcDbEntity
  8
001
370
    50
100
AcDbVertex
100
AcDb2dVertex
 10
47.624662
 20
115.606049
 30
0.0
  0
VERTEX
  5
31D
330
306
100
AcDbEntity
  8
001
370
    50
100
AcDbVertex
100
AcDb2dVertex
 10
47.536062
 20
115.499723
 30
0.0
  0
VERTEX
  5
31E
330
306
100
AcDbEntity
  8
001
370
    50
100
AcDbVertex
100
AcDb2dVertex
 10
47.460219
 20
115.389561
 30
0.0
  0
VERTEX
  5
31F
330
306
100
AcDbEntity
  8
001
370
    50
100
AcDbVertex
100
AcDb2dVertex
 10
47.407588
 20
115.289673
 30
0.0
  0
VERTEX
  5
320
330
306
100
AcDbEntity
  8
001
370
    50
100
AcDbVertex
100
AcDb2dVertex
 10
47.369583
 20
115.168459
 30
0.0
  0
VERTEX
  5
321
330
306
100
AcDbEntity
  8
001
370
    50
100
AcDbVertex
100
AcDb2dVertex
 10
47.360723
 20
115.122733
 30
0.0
  0
VERTEX
  5
322
330
306
100
AcDbEntity
  8
001
370
    50
100
AcDbVertex
100
AcDb2dVertex
 10
47.35577
 20
115.090312
 30
0.0
  0
SEQEND
  5
307
330
306
100
AcDbEntity
  8
001
370
    50
  0
POLYLINE
  5
323
330
1F
100
AcDbEntity
  8
001
370
    50
100
AcDb2dPolyline
 66
     1
 10
0.0
 20
0.0
 30
0.0
  0
VERTEX
  5
325
330
323
100
AcDbEntity
  8
001
370
    50
100
AcDbVertex
100
AcDb2dVertex
 10
52.422856
 20
115.385195
 30
0.0
  0
VERTEX
  5
326
330
323
100
AcDbEntity
  8
001
370
    50
100
AcDbVertex
100
AcDb2dVertex
 10
52.424349
 20
115.399817
 30
0.0
  0
VERTEX
  5
327
330
323
100
AcDbEntity
  8
001
370
    50
100
AcDbVertex
100
AcDb2dVertex
 10
52.425977
 20
115.42123
 30
0.0
  0
VERTEX
  5
328
330
323
100
AcDbEntity
  8
001
370
    50
100
AcDbVertex
100
AcDb2dVertex
 10
52.42682
 20
115.442528
 30
0.0
  0
VERTEX
  5
329
330
323
100
AcDbEntity
  8
001
370
    50
100
AcDbVertex
100
AcDb2dVertex
 10
52.427018
 20
115.457115
 30
0.0
  0
SEQEND
  5
324
330
323
100
AcDbEntity
  8
001
370
    50
  0
POLYLINE
  5
32A
330
1F
100
AcDbEntity
  8
001
370
    50
100
AcDb2dPolyline
 66
     1
 10
0.0
 20
0.0
 30
0.0
  0
VERTEX
  5
32C
330
32A
100
AcDbEntity
  8
001
370
    50
100
AcDbVertex
100
AcDb2dVertex
 10
47.35577
 20
115.090312
 30
0.0
  0
VERTEX
  5
32D
330
32A
100
AcDbEntity
  8
001
370
    50
100
AcDbVertex
100
AcDb2dVertex
 10
47.352941
 20
115.03151
 30
0.0
  0
VERTEX
  5
32E
330
32A
100
AcDbEntity
  8
001
370
    50
100
AcDbVertex
100
AcDb2dVertex
 10
47.355507
 20
114.949464
 30
0.0
  0
VERTEX
  5
32F
330
32A
100
AcDbEntity
  8
001
370
    50
100
AcDbVertex
100
AcDb2dVertex
 10
47.377262
 20
114.836089
 30
0.0
  0
VERTEX
  5
330
330
32A
100
AcDbEntity
  8
001
370
    50
100
AcDbVertex
100
AcDb2dVertex
 10
47.418419
 20
114.739227
 30
0.0
  0
VERTEX
  5
331
330
32A
100
AcDbEntity
  8
001
370
    50
100
AcDbVertex
100
AcDb2dVertex
 10
47.480353
 20
114.638333
 30
0.0
  0
VERTEX
  5
332
330
32A
100
AcDbEntity
  8
001
370
    50
100
AcDbVertex
100
AcDb2dVertex
 10
47.556409
 20
114.544139
 30
0.0
  0
VERTEX
  5
333
330
32A
100
AcDbEntity
  8
001
370
    50
100
AcDbVertex
100
AcDb2dVertex
 10
47.655908
 20
114.450673
 30
0.0
  0
VERTEX
  5
334
330
32A
100
AcDbEntity
  8
001
370
    50
100
AcDbVertex
100
AcDb2dVertex
 10
47.765283
 20
114.370125
 30
0.0
  0
VERTEX
  5
335
330
32A
100
AcDbEntity
  8
001
370
    50
100
AcDbVertex
100
AcDb2dVertex
 10
48.233107
 20
114.145577
 30
0.0
  0
VERTEX
  5
336
330
32A
100
AcDbEntity
  8
001
370
    50
100
AcDbVertex
100
AcDb2dVertex
 10
48.74419
 20
114.023267
 30
0.0
  0
VERTEX
  5
337
330
32A
100
AcDbEntity
  8
001
370
    50
100
AcDbVertex
100
AcDb2dVertex
 10
49.165918
 20
113.977087
 30
0.0
  0
VERTEX
  5
338
330
32A
100
AcDbEntity
  8
001
370
    50
100
AcDbVertex
100
AcDb2dVertex
 10
49.587806
 20
113.970545
 30
0.0
  0
VERTEX
  5
339
330
32A
100
AcDbEntity
  8
001
370
    50
100
AcDbVertex
100
AcDb2dVertex
 10
49.809102
 20
113.981474
 30
0.0
  0
VERTEX
  5
33A
330
32A
100
AcDbEntity
  8
001
370
    50
100
AcDbVertex
100
AcDb2dVertex
 10
50.029933
 20
114.001829
 30
0.0
  0
VERTEX
  5
33B
330
32A
100
AcDbEntity
  8
001
370
    50
100
AcDbVertex
100
AcDb2dVertex
 10
50.249695
 20
114.031491
 30
0.0
  0
VERTEX
  5
33C
330
32A
100
AcDbEntity
  8
001
370
    50
100
AcDbVertex
100
AcDb2dVertex
 10
50.467787
 20
114.070667
 30
0.0
  0
VERTEX
  5
33D
330
32A
100
AcDbEntity
  8
001
370
    50
100
AcDbVertex
100
AcDb2dVertex
 10
50.877447
 20
114.172658
 30
0.0
  0
VERTEX
  5
33E
330
32A
100
AcDbEntity
  8
001
370
    50
100
AcDbVertex
100
AcDb2dVertex
 10
51.277996
 20
114.311557
 30
0.0
  0
VERTEX
  5
33F
330
32A
100
AcDbEntity
  8
001
370
    50
100
AcDbVertex
100
AcDb2dVertex
 10
51.748382
 20
114.541091
 30
0.0
  0
VERTEX
  5
340
330
32A
100
AcDbEntity
  8
001
370
    50
100
AcDbVertex
100
AcDb2dVertex
 10
52.153963
 20
114.869457
 30
0.0
  0
VERTEX
  5
341
330
32A
100
AcDbEntity
  8
001
370
    50
100
AcDbVertex
100
AcDb2dVertex
 10
52.242564
 20
114.975783
 30
0.0
  0
VERTEX
  5
342
330
32A
100
AcDbEntity
  8
001
370
    50
100
AcDbVertex
100
AcDb2dVertex
 10
52.318406
 20
115.085946
 30
0.0
  0
VERTEX
  5
343
330
32A
100
AcDbEntity
  8
001
370
    50
100
AcDbVertex
100
AcDb2dVertex
 10
52.371038
 20
115.185834
 30
0.0
  0
VERTEX
  5
344
330
32A
100
AcDbEntity
  8
001
370
    50
100
AcDbVertex
100
AcDb2dVertex
 10
52.409043
 20
115.307047
 30
0.0
  0
VERTEX
  5
345
330
32A
100
AcDbEntity
  8
001
370
    50
100
AcDbVertex
100
AcDb2dVertex
 10
52.417902
 20
115.352774
 30
0.0
  0
VERTEX
  5
346
330
32A
100
AcDbEntity
  8
001
370
    50
100
AcDbVertex
100
AcDb2dVertex
 10
52.422856
 20
115.385195
 30
0.0
  0
SEQEND
  5
32B
330
32A
100
AcDbEntity
  8
001
370
    50
  0
LINE
  5
347
330
1F
100
AcDbEntity
  8
001
370
    50
100
AcDbLine
 10
41.869876
 20
108.106702
 30
0.0
 11
41.869876
 21
90.749048
 31
0.0
  0
LINE
  5
348
330
1F
100
AcDbEntity
  8
001
370
    50
100
AcDbLine
 10
77.669876
 20
74.916446
 30
0.0
 11
77.669876
 21
106.916446
 31
0.0
  0
LINE
  5
349
330
1F
100
AcDbEntity
  8
001
370
    50
100
AcDbLine
 10
77.669876
 20
106.416446
 30
0.0
 11
75.669876
 21
106.416446
 31
0.0
  0
LINE
  5
34A
330
1F
100
AcDbEntity
  8
001
370
    50
100
AcDbLine
 10
75.669876
 20
75.416446
 30
0.0
 11
77.669876
 21
75.416446
 31
0.0
  0
LINE
  5
34B
330
1F
100
AcDbEntity
  8
001
  6
CENTER
370
     9
100
AcDbLine
 10
39.318095
 20
90.916446
 30
0.0
 11
163.083367
 21
90.916446
 31
0.0
  0
LINE
  5
34C
330
1F
100
AcDbEntity
  8
001
370
    50
100
AcDbLine
 10
160.669876
 20
90.916446
 30
0.0
 11
163.267952
 21
89.416446
 31
0.0
  0
LINE
  5
34D
330
1F
100
AcDbEntity
  8
001
370
    50
100
AcDbLine
 10
160.669876
 20
90.916446
 30
0.0
 11
163.267952
 21
92.416446
 31
0.0
  0
LINE
  5
34E
330
1F
100
AcDbEntity
  8
001
370
    50
100
AcDbLine
 10
56.471765
 20
66.353019
 30
0.0
 11
56.471765
 21
64.620968
 31
0.0
  0
LINE
  5
34F
330
1F
100
AcDbEntity
  8
001
370
    50
100
AcDbLine
 10
53.471765
 20
64.620968
 30
0.0
 11
53.471765
 21
66.353019
 31
0.0
  0
LINE
  5
350
330
1F
100
AcDbEntity
  8
001
370
    50
100
AcDbLine
 10
53.471765
 20
66.353019
 30
0.0
 11
54.971765
 21
67.219045
 31
0.0
  0
LINE
  5
351
330
1F
100
AcDbEntity
  8
001
370
    50
100
AcDbLine
 10
56.471765
 20
64.620968
 30
0.0
 11
54.971765
 21
63.754943
 31
0.0
  0
LINE
  5
352
330
1F
100
AcDbEntity
  8
001
370
    50
100
AcDbLine
 10
54.971765
 20
63.754943
 30
0.0
 11
53.471765
 21
64.620968
 31
0.0
  0
LINE
  5
353
330
1F
100
AcDbEntity
  8
001
370
    50
100
AcDbLine
 10
56.471765
 20
66.353019
 30
0.0
 11
54.971765
 21
67.219045
 31
0.0
  0
LINE
  5
354
330
1F
100
AcDbEntity
  8
001
370
    50
100
AcDbLine
 10
47.608117
 20
69.020059
 30
0.0
 11
40.776011
 21
57.114631
 31
0.0
  0
LINE
  5
355
330
1F
100
AcDbEntity
  8
001
370
    50
100
AcDbLine
 10
55.198426
 20
55.952385
 30
0.0
 11
41.47197
 21
55.916449
 31
0.0
  0
ARC
  5
356
330
1F
100
AcDbEntity
  8
001
370
    50
100
AcDbCircle
 10
41.469876
 20
56.716446
 30
0.0
 40
0.8
100
AcDbArc
 50
150.15
 51
270.15
  0
ARC
  5
357
330
1F
100
AcDbEntity
  8
001
370
    50
100
AcDbCircle
 10
55.196331
 20
56.752382
 30
0.0
 40
0.8
100
AcDbArc
 50
270.15
 51
30.15
  0
ARC
  5
358
330
1F
100
AcDbEntity
  8
001
370
    50
100
AcDbCircle
 10
48.301982
 20
68.621874
 30
0.0
 40
0.8
100
AcDbArc
 50
30.15
 51
150.15
  0
LINE
  5
359
330
1F
100
AcDbEntity
  8
001
370
    50
100
AcDbLine
 10
41.869876
 20
59.020768
 30
0.0
 11
41.869876
 21
73.680244
 31
0.0
  0
POLYLINE
  5
35A
330
1F
100
AcDbEntity
  8
001
370
    50
100
AcDb2dPolyline
 66
     1
 10
0.0
 20
0.0
 30
0.0
  0
VERTEX
  5
35C
330
35A
100
AcDbEntity
  8
001
370
    50
100
AcDbVertex
100
AcDb2dVertex
 10
48.109888
 20
71.166967
 30
0.0
  0
VERTEX
  5
35D
330
35A
100
AcDbEntity
  8
001
370
    50
100
AcDbVertex
100
AcDb2dVertex
 10
47.891076
 20
71.155555
 30
0.0
  0
VERTEX
  5
35E
330
35A
100
AcDbEntity
  8
001
370
    50
100
AcDbVertex
100
AcDb2dVertex
 10
47.59152
 20
71.12139
 30
0.0
  0
VERTEX
  5
35F
330
35A
100
AcDbEntity
  8
001
370
    50
100
AcDbVertex
100
AcDb2dVertex
 10
47.326027
 20
71.064666
 30
0.0
  0
VERTEX
  5
360
330
35A
100
AcDbEntity
  8
001
370
    50
100
AcDbVertex
100
AcDb2dVertex
 10
47.088901
 20
70.986045
 30
0.0
  0
VERTEX
  5
361
330
35A
100
AcDbEntity
  8
001
370
    50
100
AcDbVertex
100
AcDb2dVertex
 10
46.85175
 20
70.886107
 30
0.0
  0
VERTEX
  5
362
330
35A
100
AcDbEntity
  8
001
370
    50
100
AcDbVertex
100
AcDb2dVertex
 10
46.617305
 20
70.765043
 30
0.0
  0
VERTEX
  5
363
330
35A
100
AcDbEntity
  8
001
370
    50
100
AcDbVertex
100
AcDb2dVertex
 10
45.997243
 20
70.287507
 30
0.0
  0
VERTEX
  5
364
330
35A
100
AcDbEntity
  8
001
370
    50
100
AcDbVertex
100
AcDb2dVertex
 10
45.524658
 20
69.666967
 30
0.0
  0
VERTEX
  5
365
330
35A
100
AcDbEntity
  8
001
370
    50
100
AcDbVertex
100
AcDb2dVertex
 10
45.304969
 20
69.191806
 30
0.0
  0
VERTEX
  5
366
330
35A
100
AcDbEntity
  8
001
370
    50
100
AcDbVertex
100
AcDb2dVertex
 10
45.170073
 20
68.687911
 30
0.0
  0
VERTEX
  5
367
330
35A
100
AcDbEntity
  8
001
370
    50
100
AcDbVertex
100
AcDb2dVertex
 10
45.13559
 20
68.428833
 30
0.0
  0
VERTEX
  5
368
330
35A
100
AcDbEntity
  8
001
370
    50
100
AcDbVertex
100
AcDb2dVertex
 10
45.124722
 20
68.166967
 30
0.0
  0
VERTEX
  5
369
330
35A
100
AcDbEntity
  8
001
370
    50
100
AcDbVertex
100
AcDb2dVertex
 10
45.137661
 20
67.903899
 30
0.0
  0
VERTEX
  5
36A
330
35A
100
AcDbEntity
  8
001
370
    50
100
AcDbVertex
100
AcDb2dVertex
 10
45.170073
 20
67.646022
 30
0.0
  0
VERTEX
  5
36B
330
35A
100
AcDbEntity
  8
001
370
    50
100
AcDbVertex
100
AcDb2dVertex
 10
45.288507
 20
67.158838
 30
0.0
  0
VERTEX
  5
36C
330
35A
100
AcDbEntity
  8
001
370
    50
100
AcDbVertex
100
AcDb2dVertex
 10
45.524658
 20
66.666967
 30
0.0
  0
VERTEX
  5
36D
330
35A
100
AcDbEntity
  8
001
370
    50
100
AcDbVertex
100
AcDb2dVertex
 10
45.7541
 20
66.334287
 30
0.0
  0
VERTEX
  5
36E
330
35A
100
AcDbEntity
  8
001
370
    50
100
AcDbVertex
100
AcDb2dVertex
 10
45.93767
 20
66.109187
 30
0.0
  0
SEQEND
  5
35B
330
35A
100
AcDbEntity
  8
001
370
    50
  0
POLYLINE
  5
36F
330
1F
100
AcDbEntity
  8
001
370
    50
100
AcDb2dPolyline
 66
     1
 10
0.0
 20
0.0
 30
0.0
  0
VERTEX
  5
371
330
36F
100
AcDbEntity
  8
001
370
    50
100
AcDbVertex
100
AcDb2dVertex
 10
48.336337
 20
71.158323
 30
0.0
  0
VERTEX
  5
372
330
36F
100
AcDbEntity
  8
001
370
    50
100
AcDbVertex
100
AcDb2dVertex
 10
48.214455
 20
71.145355
 30
0.0
  0
VERTEX
  5
373
330
36F
100
AcDbEntity
  8
001
370
    50
100
AcDbVertex
100
AcDb2dVertex
 10
48.044418
 20
71.12139
 30
0.0
  0
VERTEX
  5
374
330
36F
100
AcDbEntity
  8
001
370
    50
100
AcDbVertex
100
AcDb2dVertex
 10
47.776226
 20
71.06361
 30
0.0
  0
VERTEX
  5
375
330
36F
100
AcDbEntity
  8
001
370
    50
100
AcDbVertex
100
AcDb2dVertex
 10
47.541799
 20
70.986045
 30
0.0
  0
VERTEX
  5
376
330
36F
100
AcDbEntity
  8
001
370
    50
100
AcDbVertex
100
AcDb2dVertex
 10
47.305458
 20
70.886422
 30
0.0
  0
VERTEX
  5
377
330
36F
100
AcDbEntity
  8
001
370
    50
100
AcDbVertex
100
AcDb2dVertex
 10
47.070203
 20
70.765043
 30
0.0
  0
VERTEX
  5
378
330
36F
100
AcDbEntity
  8
001
370
    50
100
AcDbVertex
100
AcDb2dVertex
 10
46.449319
 20
70.287248
 30
0.0
  0
VERTEX
  5
379
330
36F
100
AcDbEntity
  8
001
370
    50
100
AcDbVertex
100
AcDb2dVertex
 10
45.977556
 20
69.666967
 30
0.0
  0
VERTEX
  5
37A
330
36F
100
AcDbEntity
  8
001
370
    50
100
AcDbVertex
100
AcDb2dVertex
 10
45.758005
 20
69.191703
 30
0.0
  0
VERTEX
  5
37B
330
36F
100
AcDbEntity
  8
001
370
    50
100
AcDbVertex
100
AcDb2dVertex
 10
45.622971
 20
68.687911
 30
0.0
  0
VERTEX
  5
37C
330
36F
100
AcDbEntity
  8
001
370
    50
100
AcDbVertex
100
AcDb2dVertex
 10
45.58844
 20
68.429047
 30
0.0
  0
VERTEX
  5
37D
330
36F
100
AcDbEntity
  8
001
370
    50
100
AcDbVertex
100
AcDb2dVertex
 10
45.57762
 20
68.166967
 30
0.0
  0
VERTEX
  5
37E
330
36F
100
AcDbEntity
  8
001
370
    50
100
AcDbVertex
100
AcDb2dVertex
 10
45.590687
 20
67.903149
 30
0.0
  0
VERTEX
  5
37F
330
36F
100
AcDbEntity
  8
001
370
    50
100
AcDbVertex
100
AcDb2dVertex
 10
45.622971
 20
67.646022
 30
0.0
  0
VERTEX
  5
380
330
36F
100
AcDbEntity
  8
001
370
    50
100
AcDbVertex
100
AcDb2dVertex
 10
45.740148
 20
67.166391
 30
0.0
  0
VERTEX
  5
381
330
36F
100
AcDbEntity
  8
001
370
    50
100
AcDbVertex
100
AcDb2dVertex
 10
45.977556
 20
66.666967
 30
0.0
  0
VERTEX
  5
382
330
36F
100
AcDbEntity
  8
001
370
    50
100
AcDbVertex
100
AcDb2dVertex
 10
46.062472
 20
66.529834
 30
0.0
  0
VERTEX
  5
383
330
36F
100
AcDbEntity
  8
001
370
    50
100
AcDbVertex
100
AcDb2dVertex
 10
46.12496
 20
66.435553
 30
0.0
  0
SEQEND
  5
370
330
36F
100
AcDbEntity
  8
001
370
    50
  0
LINE
  5
384
330
1F
100
AcDbEntity
  8
001
370
    50
100
AcDbLine
 10
48.993753
 20
69.023686
 30
0.0
 11
49.779686
 21
67.670603
 31
0.0
  0
LINE
  5
385
330
1F
100
AcDbEntity
  8
001
370
    50
100
AcDbLine
 10
54.357046
 20
59.790101
 30
0.0
 11
55.888102
 21
57.154195
 31
0.0
  0
LINE
  5
386
330
1F
100
AcDbEntity
  8
001
370
    50
100
AcDbLine
 10
56.000898
 20
56.772911
 30
0.0
 11
58.772216
 21
56.816446
 31
0.0
  0
POLYLINE
  5
387
330
1F
100
AcDbEntity
  8
001
370
    50
100
AcDb2dPolyline
 66
     1
 10
0.0
 20
0.0
 30
0.0
  0
VERTEX
  5
389
330
387
100
AcDbEntity
  8
001
370
    50
100
AcDbVertex
100
AcDb2dVertex
 10
55.99368
 20
56.817463
 30
0.0
  0
VERTEX
  5
38A
330
387
100
AcDbEntity
  8
001
370
    50
100
AcDbVertex
100
AcDb2dVertex
 10
56.171325
 20
56.82117
 30
0.0
  0
VERTEX
  5
38B
330
387
100
AcDbEntity
  8
001
370
    50
100
AcDbVertex
100
AcDb2dVertex
 10
56.430961
 20
56.826604
 30
0.0
  0
VERTEX
  5
38C
330
387
100
AcDbEntity
  8
001
370
    50
100
AcDbVertex
100
AcDb2dVertex
 10
56.690527
 20
56.832058
 30
0.0
  0
VERTEX
  5
38D
330
387
100
AcDbEntity
  8
001
370
    50
100
AcDbVertex
100
AcDb2dVertex
 10
56.868125
 20
56.8358
 30
0.0
  0
SEQEND
  5
388
330
387
100
AcDbEntity
  8
001
370
    50
  0
ARC
  5
38E
330
1F
100
AcDbEntity
  8
001
370
    50
100
AcDbCircle
 10
48.32273
 20
60.696901
 30
0.0
 40
1.9
100
AcDbArc
 50
65.263883
 51
354.490473
  0
LINE
  5
38F
330
1F
100
AcDbEntity
  8
001
370
     9
100
AcDbLine
 10
41.469876
 20
55.916446
 30
0.0
 11
30.28716
 21
55.916446
 31
0.0
  0
LINE
  5
390
330
1F
100
AcDbEntity
  8
001
370
     9
100
AcDbLine
 10
40.669876
 20
56.716446
 30
0.0
 11
40.669876
 21
44.875723
 31
0.0
  0
LINE
  5
391
330
1F
100
AcDbEntity
  8
001
370
    50
100
AcDbLine
 10
52.311848
 20
-22.382127
 30
0.0
 11
51.520631
 21
-23.111992
 31
0.0
  0
LINE
  5
392
330
1F
100
AcDbEntity
  8
001
370
    50
100
AcDbLine
 10
52.388289
 20
-23.045363
 30
0.0
 11
52.311848
 21
-22.382127
 31
0.0
  0
LINE
  5
393
330
1F
100
AcDbEntity
  8
001
370
    50
100
AcDbLine
 10
59.46009
 20
-23.07203
 30
0.0
 11
59.451173
 21
-22.994669
 31
0.0
  0
LINE
  5
394
330
1F
100
AcDbEntity
  8
001
370
    50
100
AcDbLine
 10
53.074272
 20
-21.695894
 30
0.0
 11
52.311848
 21
-22.382127
 31
0.0
  0
LINE
  5
395
330
1F
100
AcDbEntity
  8
001
370
    50
100
AcDbLine
 10
53.074272
 20
-21.695894
 30
0.0
 11
59.451173
 21
-22.994669
 31
0.0
  0
LINE
  5
396
330
1F
100
AcDbEntity
  8
001
370
    50
100
AcDbLine
 10
59.451173
 20
-22.994669
 30
0.0
 11
59.493012
 21
-23.069512
 31
0.0
  0
ARC
  5
397
330
1F
100
AcDbEntity
  8
001
370
    50
100
AcDbCircle
 10
55.249861
 20
-27.093311
 30
0.0
 40
5.3
100
AcDbArc
 50
54.832291
 51
102.143895
  0
POLYLINE
  5
398
330
1F
100
AcDbEntity
  8
001
370
    50
100
AcDb2dPolyline
 66
     1
 10
0.0
 20
0.0
 30
0.0
  0
VERTEX
  5
39A
330
398
100
AcDbEntity
  8
001
370
    50
100
AcDbVertex
100
AcDb2dVertex
 10
41.947879
 20
-27.985312
 30
0.0
  0
VERTEX
  5
39B
330
398
100
AcDbEntity
  8
001
370
    50
100
AcDbVertex
100
AcDb2dVertex
 10
41.922823
 20
-27.987528
 30
0.0
  0
VERTEX
  5
39C
330
398
100
AcDbEntity
  8
001
370
    50
100
AcDbVertex
100
AcDb2dVertex
 10
41.887482
 20
-27.991111
 30
0.0
  0
VERTEX
  5
39D
330
398
100
AcDbEntity
  8
001
370
    50
100
AcDbVertex
100
AcDb2dVertex
 10
41.814843
 20
-28.00081
 30
0.0
  0
VERTEX
  5
39E
330
398
100
AcDbEntity
  8
001
370
    50
100
AcDbVertex
100
AcDb2dVertex
 10
41.751199
 20
-28.012859
 30
0.0
  0
VERTEX
  5
39F
330
398
100
AcDbEntity
  8
001
370
    50
100
AcDbVertex
100
AcDb2dVertex
 10
41.626389
 20
-28.044877
 30
0.0
  0
VERTEX
  5
3A0
330
398
100
AcDbEntity
  8
001
370
    50
100
AcDbVertex
100
AcDb2dVertex
 10
41.499152
 20
-28.089143
 30
0.0
  0
VERTEX
  5
3A1
330
398
100
AcDbEntity
  8
001
370
    50
100
AcDbVertex
100
AcDb2dVertex
 10
41.351678
 20
-28.16248
 30
0.0
  0
VERTEX
  5
3A2
330
398
100
AcDbEntity
  8
001
370
    50
100
AcDbVertex
100
AcDb2dVertex
 10
41.226995
 20
-28.266061
 30
0.0
  0
VERTEX
  5
3A3
330
398
100
AcDbEntity
  8
001
370
    50
100
AcDbVertex
100
AcDb2dVertex
 10
41.199693
 20
-28.299603
 30
0.0
  0
VERTEX
  5
3A4
330
398
100
AcDbEntity
  8
001
370
    50
100
AcDbVertex
100
AcDb2dVertex
 10
41.176033
 20
-28.334756
 30
0.0
  0
VERTEX
  5
3A5
330
398
100
AcDbEntity
  8
001
370
    50
100
AcDbVertex
100
AcDb2dVertex
 10
41.15927
 20
-28.367121
 30
0.0
  0
VERTEX
  5
3A6
330
398
100
AcDbEntity
  8
001
370
    50
100
AcDbVertex
100
AcDb2dVertex
 10
41.148063
 20
-28.404933
 30
0.0
  0
VERTEX
  5
3A7
330
398
100
AcDbEntity
  8
001
370
    50
100
AcDbVertex
100
AcDb2dVertex
 10
41.143695
 20
-28.445115
 30
0.0
  0
VERTEX
  5
3A8
330
398
100
AcDbEntity
  8
001
370
    50
100
AcDbVertex
100
AcDb2dVertex
 10
41.143934
 20
-28.47446
 30
0.0
  0
SEQEND
  5
399
330
398
100
AcDbEntity
  8
001
370
    50
  0
POLYLINE
  5
3A9
330
1F
100
AcDbEntity
  8
001
370
    50
100
AcDb2dPolyline
 66
     1
 10
0.0
 20
0.0
 30
0.0
  0
VERTEX
  5
3AB
330
3A9
100
AcDbEntity
  8
001
370
    50
100
AcDbVertex
100
AcDb2dVertex
 10
41.475117
 20
-23.883414
 30
0.0
  0
VERTEX
  5
3AC
330
3A9
100
AcDbEntity
  8
001
370
    50
100
AcDbVertex
100
AcDb2dVertex
 10
41.450061
 20
-23.885629
 30
0.0
  0
VERTEX
  5
3AD
330
3A9
100
AcDbEntity
  8
001
370
    50
100
AcDbVertex
100
AcDb2dVertex
 10
41.41472
 20
-23.889212
 30
0.0
  0
VERTEX
  5
3AE
330
3A9
100
AcDbEntity
  8
001
370
    50
100
AcDbVertex
100
AcDb2dVertex
 10
41.342081
 20
-23.898911
 30
0.0
  0
VERTEX
  5
3AF
330
3A9
100
AcDbEntity
  8
001
370
    50
100
AcDbVertex
100
AcDb2dVertex
 10
41.278437
 20
-23.910961
 30
0.0
  0
VERTEX
  5
3B0
330
3A9
100
AcDbEntity
  8
001
370
    50
100
AcDbVertex
100
AcDb2dVertex
 10
41.153627
 20
-23.942978
 30
0.0
  0
VERTEX
  5
3B1
330
3A9
100
AcDbEntity
  8
001
370
    50
100
AcDbVertex
100
AcDb2dVertex
 10
41.02639
 20
-23.987244
 30
0.0
  0
VERTEX
  5
3B2
330
3A9
100
AcDbEntity
  8
001
370
    50
100
AcDbVertex
100
AcDb2dVertex
 10
40.878916
 20
-24.060581
 30
0.0
  0
VERTEX
  5
3B3
330
3A9
100
AcDbEntity
  8
001
370
    50
100
AcDbVertex
100
AcDb2dVertex
 10
40.754233
 20
-24.164163
 30
0.0
  0
VERTEX
  5
3B4
330
3A9
100
AcDbEntity
  8
001
370
    50
100
AcDbVertex
100
AcDb2dVertex
 10
40.726931
 20
-24.197704
 30
0.0
  0
VERTEX
  5
3B5
330
3A9
100
AcDbEntity
  8
001
370
    50
100
AcDbVertex
100
AcDb2dVertex
 10
40.703271
 20
-24.232857
 30
0.0
  0
VERTEX
  5
3B6
330
3A9
100
AcDbEntity
  8
001
370
    50
100
AcDbVertex
100
AcDb2dVertex
 10
40.686508
 20
-24.265223
 30
0.0
  0
VERTEX
  5
3B7
330
3A9
100
AcDbEntity
  8
001
370
    50
100
AcDbVertex
100
AcDb2dVertex
 10
40.675301
 20
-24.303034
 30
0.0
  0
VERTEX
  5
3B8
330
3A9
100
AcDbEntity
  8
001
370
    50
100
AcDbVertex
100
AcDb2dVertex
 10
40.670933
 20
-24.343216
 30
0.0
  0
VERTEX
  5
3B9
330
3A9
100
AcDbEntity
  8
001
370
    50
100
AcDbVertex
100
AcDb2dVertex
 10
40.671172
 20
-24.372562
 30
0.0
  0
SEQEND
  5
3AA
330
3A9
100
AcDbEntity
  8
001
370
    50
  0
LINE
  5
3BA
330
1F
100
AcDbEntity
  8
001
370
    50
100
AcDbLine
 10
40.671172
 20
-24.372562
 30
0.0
 11
41.143934
 21
-28.47446
 31
0.0
  0
POLYLINE
  5
3BB
330
1F
100
AcDbEntity
  8
001
370
    50
100
AcDb2dPolyline
 66
     1
 10
0.0
 20
0.0
 30
0.0
  0
VERTEX
  5
3BD
330
3BB
100
AcDbEntity
  8
001
370
    50
100
AcDbVertex
100
AcDb2dVertex
 10
41.143934
 20
-28.47446
 30
0.0
  0
VERTEX
  5
3BE
330
3BB
100
AcDbEntity
  8
001
370
    50
100
AcDbVertex
100
AcDb2dVertex
 10
41.150638
 20
-28.503337
 30
0.0
  0
VERTEX
  5
3BF
330
3BB
100
AcDbEntity
  8
001
370
    50
100
AcDbVertex
100
AcDb2dVertex
 10
41.163771
 20
-28.541226
 30
0.0
  0
VERTEX
  5
3C0
330
3BB
100
AcDbEntity
  8
001
370
    50
100
AcDbVertex
100
AcDb2dVertex
 10
41.18182
 20
-28.574114
 30
0.0
  0
VERTEX
  5
3C1
330
3BB
100
AcDbEntity
  8
001
370
    50
100
AcDbVertex
100
AcDb2dVertex
 10
41.206972
 20
-28.6032
 30
0.0
  0
VERTEX
  5
3C2
330
3BB
100
AcDbEntity
  8
001
370
    50
100
AcDbVertex
100
AcDb2dVertex
 10
41.226435
 20
-28.622093
 30
0.0
  0
VERTEX
  5
3C3
330
3BB
100
AcDbEntity
  8
001
370
    50
100
AcDbVertex
100
AcDb2dVertex
 10
41.24103
 20
-28.635203
 30
0.0
  0
SEQEND
  5
3BC
330
3BB
100
AcDbEntity
  8
001
370
    50
  0
LINE
  5
3C4
330
1F
100
AcDbEntity
  8
001
370
    50
100
AcDbLine
 10
41.947879
 20
-27.985312
 30
0.0
 11
55.624673
 21
-26.935035
 31
0.0
  0
POLYLINE
  5
3C5
330
1F
100
AcDbEntity
  8
001
370
    50
100
AcDb2dPolyline
 66
     1
 10
0.0
 20
0.0
 30
0.0
  0
VERTEX
  5
3C7
330
3C5
100
AcDbEntity
  8
001
370
    50
100
AcDbVertex
100
AcDb2dVertex
 10
56.154756
 20
-26.998837
 30
0.0
  0
VERTEX
  5
3C8
330
3C5
100
AcDbEntity
  8
001
370
    50
100
AcDbVertex
100
AcDb2dVertex
 10
56.074941
 20
-26.974347
 30
0.0
  0
VERTEX
  5
3C9
330
3C5
100
AcDbEntity
  8
001
370
    50
100
AcDbVertex
100
AcDb2dVertex
 10
55.964724
 20
-26.947956
 30
0.0
  0
VERTEX
  5
3CA
330
3C5
100
AcDbEntity
  8
001
370
    50
100
AcDbVertex
100
AcDb2dVertex
 10
55.836571
 20
-26.930588
 30
0.0
  0
VERTEX
  5
3CB
330
3C5
100
AcDbEntity
  8
001
370
    50
100
AcDbVertex
100
AcDb2dVertex
 10
55.701933
 20
-26.93101
 30
0.0
  0
VERTEX
  5
3CC
330
3C5
100
AcDbEntity
  8
001
370
    50
100
AcDbVertex
100
AcDb2dVertex
 10
55.656693
 20
-26.933124
 30
0.0
  0
VERTEX
  5
3CD
330
3C5
100
AcDbEntity
  8
001
370
    50
100
AcDbVertex
100
AcDb2dVertex
 10
55.624673
 20
-26.935035
 30
0.0
  0
SEQEND
  5
3C6
330
3C5
100
AcDbEntity
  8
001
370
    50
  0
LINE
  5
3CE
330
1F
100
AcDbEntity
  8
001
370
    50
100
AcDbLine
 10
41.869876
 20
-29.153251
 30
0.0
 11
41.24103
 21
-28.635203
 31
0.0
  0
LINE
  5
3CF
330
1F
100
AcDbEntity
  8
001
370
    50
100
AcDbLine
 10
41.475117
 20
-23.883414
 30
0.0
 11
55.151911
 21
-22.833137
 31
0.0
  0
LINE
  5
3D0
330
1F
100
AcDbEntity
  8
001
370
    50
100
AcDbLine
 10
56.368346
 20
-26.982608
 30
0.0
 11
55.925522
 21
-23.140464
 31
0.0
  0
POLYLINE
  5
3D1
330
1F
100
AcDbEntity
  8
001
370
    50
100
AcDb2dPolyline
 66
     1
 10
0.0
 20
0.0
 30
0.0
  0
VERTEX
  5
3D3
330
3D1
100
AcDbEntity
  8
001
370
    50
100
AcDbVertex
100
AcDb2dVertex
 10
55.925522
 20
-23.140464
 30
0.0
  0
VERTEX
  5
3D4
330
3D1
100
AcDbEntity
  8
001
370
    50
100
AcDbVertex
100
AcDb2dVertex
 10
55.919083
 20
-23.111834
 30
0.0
  0
VERTEX
  5
3D5
330
3D1
100
AcDbEntity
  8
001
370
    50
100
AcDbVertex
100
AcDb2dVertex
 10
55.905685
 20
-23.073699
 30
0.0
  0
VERTEX
  5
3D6
330
3D1
100
AcDbEntity
  8
001
370
    50
100
AcDbVertex
100
AcDb2dVertex
 10
55.886145
 20
-23.039431
 30
0.0
  0
VERTEX
  5
3D7
330
3D1
100
AcDbEntity
  8
001
370
    50
100
AcDbVertex
100
AcDb2dVertex
 10
55.862483
 20
-23.011725
 30
0.0
  0
VERTEX
  5
3D8
330
3D1
100
AcDbEntity
  8
001
370
    50
100
AcDbVertex
100
AcDb2dVertex
 10
55.831562
 20
-22.982865
 30
0.0
  0
VERTEX
  5
3D9
330
3D1
100
AcDbEntity
  8
001
370
    50
100
AcDbVertex
100
AcDb2dVertex
 10
55.797231
 20
-22.956425
 30
0.0
  0
VERTEX
  5
3DA
330
3D1
100
AcDbEntity
  8
001
370
    50
100
AcDbVertex
100
AcDb2dVertex
 10
55.648895
 20
-22.884246
 30
0.0
  0
VERTEX
  5
3DB
330
3D1
100
AcDbEntity
  8
001
370
    50
100
AcDbVertex
100
AcDb2dVertex
 10
55.491962
 20
-22.846057
 30
0.0
  0
VERTEX
  5
3DC
330
3D1
100
AcDbEntity
  8
001
370
    50
100
AcDbVertex
100
AcDb2dVertex
 10
55.36905
 20
-22.830831
 30
0.0
  0
VERTEX
  5
3DD
330
3D1
100
AcDbEntity
  8
001
370
    50
100
AcDbVertex
100
AcDb2dVertex
 10
55.229171
 20
-22.829111
 30
0.0
  0
VERTEX
  5
3DE
330
3D1
100
AcDbEntity
  8
001
370
    50
100
AcDbVertex
100
AcDb2dVertex
 10
55.183774
 20
-22.831161
 30
0.0
  0
VERTEX
  5
3DF
330
3D1
100
AcDbEntity
  8
001
370
    50
100
AcDbVertex
100
AcDb2dVertex
 10
55.151911
 20
-22.833137
 30
0.0
  0
SEQEND
  5
3D2
330
3D1
100
AcDbEntity
  8
001
370
    50
  0
LINE
  5
3E0
330
1F
100
AcDbEntity
  8
001
370
    50
100
AcDbLine
 10
57.691966
 20
-66.536926
 30
0.0
 11
54.973423
 21
-65.804875
 31
0.0
  0
LINE
  5
3E1
330
1F
100
AcDbEntity
  8
001
370
    50
100
AcDbLine
 10
60.179605
 20
-70.867053
 30
0.0
 11
57.691966
 21
-66.536926
 31
0.0
  0
LINE
  5
3E2
330
1F
100
AcDbEntity
  8
001
370
    50
100
AcDbLine
 10
59.451173
 20
-73.599104
 30
0.0
 11
60.179605
 21
-70.867053
 31
0.0
  0
LINE
  5
3E3
330
1F
100
AcDbEntity
  8
001
370
    50
100
AcDbLine
 10
53.074272
 20
-77.299104
 30
0.0
 11
57.21064
 21
-74.899104
 31
0.0
  0
LINE
  5
3E4
330
1F
100
AcDbEntity
  8
001
370
    50
100
AcDbLine
 10
57.21064
 20
-74.899104
 30
0.0
 11
59.451173
 21
-73.599104
 31
0.0
  0
LINE
  5
3E5
330
1F
100
AcDbEntity
  8
001
370
    50
100
AcDbLine
 10
48.596522
 20
-69.504875
 30
0.0
 11
53.074272
 21
-77.299104
 31
0.0
  0
LINE
  5
3E6
330
1F
100
AcDbEntity
  8
001
370
    50
100
AcDbLine
 10
54.973423
 20
-65.804875
 30
0.0
 11
52.73289
 21
-67.104875
 31
0.0
  0
LINE
  5
3E7
330
1F
100
AcDbEntity
  8
001
370
    50
100
AcDbLine
 10
52.73289
 20
-67.104875
 30
0.0
 11
48.596522
 21
-69.504875
 31
0.0
  0
LINE
  5
3E8
330
1F
100
AcDbEntity
  8
001
370
    50
100
AcDbLine
 10
60.477564
 20
-70.867053
 30
0.0
 11
60.179605
 21
-70.867053
 31
0.0
  0
LINE
  5
3E9
330
1F
100
AcDbEntity
  8
001
370
    50
100
AcDbLine
 10
59.749133
 20
-73.599104
 30
0.0
 11
60.477564
 21
-70.867053
 31
0.0
  0
LINE
  5
3EA
330
1F
100
AcDbEntity
  8
001
370
    50
100
AcDbLine
 10
59.749133
 20
-73.599104
 30
0.0
 11
59.699473
 21
-73.599104
 31
0.0
  0
LINE
  5
3EB
330
1F
100
AcDbEntity
  8
001
370
    50
100
AcDbLine
 10
59.699473
 20
-73.599104
 30
0.0
 11
59.451173
 21
-73.599104
 31
0.0
  0
LINE
  5
3EC
330
1F
100
AcDbEntity
  8
001
370
    50
100
AcDbLine
 10
57.989925
 20
-66.536926
 30
0.0
 11
57.691966
 21
-66.536926
 31
0.0
  0
LINE
  5
3ED
330
1F
100
AcDbEntity
  8
001
370
    50
100
AcDbLine
 10
60.477564
 20
-70.867053
 30
0.0
 11
57.989925
 21
-66.536926
 31
0.0
  0
LINE
  5
3EE
330
1F
100
AcDbEntity
  8
001
370
    50
100
AcDbLine
 10
53.581095
 20
-77.149104
 30
0.0
 11
59.699473
 21
-73.599104
 31
0.0
  0
LINE
  5
3EF
330
1F
100
AcDbEntity
  8
001
370
    50
100
AcDbLine
 10
53.630754
 20
-77.149104
 30
0.0
 11
53.581095
 21
-77.149104
 31
0.0
  0
LINE
  5
3F0
330
1F
100
AcDbEntity
  8
001
370
    50
100
AcDbLine
 10
52.510488
 20
-77.799104
 30
0.0
 11
53.630754
 21
-77.149104
 31
0.0
  0
LINE
  5
3F1
330
1F
100
AcDbEntity
  8
001
370
    50
100
AcDbLine
 10
52.510488
 20
-77.799104
 30
0.0
 11
52.311848
 21
-77.799104
 31
0.0
  0
LINE
  5
3F2
330
1F
100
AcDbEntity
  8
001
370
    50
100
AcDbLine
 10
53.074272
 20
-77.299104
 30
0.0
 11
52.311848
 21
-77.799104
 31
0.0
  0
LINE
  5
3F3
330
1F
100
AcDbEntity
  8
001
370
    50
100
AcDbLine
 10
55.221723
 20
-65.804875
 30
0.0
 11
54.973423
 21
-65.804875
 31
0.0
  0
LINE
  5
3F4
330
1F
100
AcDbEntity
  8
001
370
    50
100
AcDbLine
 10
55.271382
 20
-65.804875
 30
0.0
 11
55.221723
 21
-65.804875
 31
0.0
  0
LINE
  5
3F5
330
1F
100
AcDbEntity
  8
001
370
    50
100
AcDbLine
 10
57.989925
 20
-66.536926
 30
0.0
 11
55.271382
 21
-65.804875
 31
0.0
  0
LINE
  5
3F6
330
1F
100
AcDbEntity
  8
001
370
    50
100
AcDbLine
 10
52.311848
 20
-77.799104
 30
0.0
 11
51.051897
 21
-77.433078
 31
0.0
  0
LINE
  5
3F7
330
1F
100
AcDbEntity
  8
001
370
    50
100
AcDbLine
 10
51.051897
 20
-77.433078
 30
0.0
 11
47.569203
 21
-71.3709
 31
0.0
  0
LINE
  5
3F8
330
1F
100
AcDbEntity
  8
001
370
    50
100
AcDbLine
 10
47.569203
 20
-71.3709
 30
0.0
 11
47.834098
 21
-70.004875
 31
0.0
  0
LINE
  5
3F9
330
1F
100
AcDbEntity
  8
001
370
    50
100
AcDbLine
 10
47.834098
 20
-70.004875
 30
0.0
 11
48.596522
 21
-69.504875
 31
0.0
  0
LINE
  5
3FA
330
1F
100
AcDbEntity
  8
001
370
    50
100
AcDbLine
 10
53.630754
 20
-77.149104
 30
0.0
 11
53.618339
 21
-77.127493
 31
0.0
  0
POLYLINE
  5
3FB
330
1F
100
AcDbEntity
  8
001
370
    50
100
AcDb2dPolyline
 66
     1
 10
0.0
 20
0.0
 30
0.0
  0
VERTEX
  5
3FD
330
3FB
100
AcDbEntity
  8
001
370
    50
100
AcDbVertex
100
AcDb2dVertex
 10
52.73289
 20
-67.104875
 30
0.0
  0
VERTEX
  5
3FE
330
3FB
100
AcDbEntity
  8
001
370
    50
100
AcDbVertex
100
AcDb2dVertex
 10
51.961257
 20
-67.731703
 30
0.0
  0
VERTEX
  5
3FF
330
3FB
100
AcDbEntity
  8
001
370
    50
100
AcDbVertex
100
AcDb2dVertex
 10
51.09392
 20
-68.751989
 30
0.0
  0
VERTEX
  5
400
330
3FB
100
AcDbEntity
  8
001
370
    50
100
AcDbVertex
100
AcDb2dVertex
 10
50.741823
 20
-69.476748
 30
0.0
  0
VERTEX
  5
401
330
3FB
100
AcDbEntity
  8
001
370
    50
100
AcDbVertex
100
AcDb2dVertex
 10
50.562042
 20
-70.220572
 30
0.0
  0
VERTEX
  5
402
330
3FB
100
AcDbEntity
  8
001
370
    50
100
AcDbVertex
100
AcDb2dVertex
 10
50.513213
 20
-70.608684
 30
0.0
  0
VERTEX
  5
403
330
3FB
100
AcDbEntity
  8
001
370
    50
100
AcDbVertex
100
AcDb2dVertex
 10
50.494015
 20
-71.001989
 30
0.0
  0
VERTEX
  5
404
330
3FB
100
AcDbEntity
  8
001
370
    50
100
AcDbVertex
100
AcDb2dVertex
 10
50.510379
 20
-71.394412
 30
0.0
  0
VERTEX
  5
405
330
3FB
100
AcDbEntity
  8
001
370
    50
100
AcDbVertex
100
AcDb2dVertex
 10
50.562042
 20
-71.783406
 30
0.0
  0
VERTEX
  5
406
330
3FB
100
AcDbEntity
  8
001
370
    50
100
AcDbVertex
100
AcDb2dVertex
 10
50.764345
 20
-72.539503
 30
0.0
  0
VERTEX
  5
407
330
3FB
100
AcDbEntity
  8
001
370
    50
100
AcDbVertex
100
AcDb2dVertex
 10
51.09392
 20
-73.251989
 30
0.0
  0
VERTEX
  5
408
330
3FB
100
AcDbEntity
  8
001
370
    50
100
AcDbVertex
100
AcDb2dVertex
 10
51.802814
 20
-74.182699
 30
0.0
  0
VERTEX
  5
409
330
3FB
100
AcDbEntity
  8
001
370
    50
100
AcDbVertex
100
AcDb2dVertex
 10
52.73289
 20
-74.899104
 30
0.0
  0
VERTEX
  5
40A
330
3FB
100
AcDbEntity
  8
001
370
    50
100
AcDbVertex
100
AcDb2dVertex
 10
53.084556
 20
-75.080706
 30
0.0
  0
VERTEX
  5
40B
330
3FB
100
AcDbEntity
  8
001
370
    50
100
AcDbVertex
100
AcDb2dVertex
 10
53.440285
 20
-75.230606
 30
0.0
  0
VERTEX
  5
40C
330
3FB
100
AcDbEntity
  8
001
370
    50
100
AcDbVertex
100
AcDb2dVertex
 10
53.795974
 20
-75.348536
 30
0.0
  0
VERTEX
  5
40D
330
3FB
100
AcDbEntity
  8
001
370
    50
100
AcDbVertex
100
AcDb2dVertex
 10
54.194212
 20
-75.433624
 30
0.0
  0
VERTEX
  5
40E
330
3FB
100
AcDbEntity
  8
001
370
    50
100
AcDbVertex
100
AcDb2dVertex
 10
54.643547
 20
-75.484872
 30
0.0
  0
VERTEX
  5
40F
330
3FB
100
AcDbEntity
  8
001
370
    50
100
AcDbVertex
100
AcDb2dVertex
 10
54.971765
 20
-75.501989
 30
0.0
  0
SEQEND
  5
3FC
330
3FB
100
AcDbEntity
  8
001
370
    50
  0
POLYLINE
  5
410
330
1F
100
AcDbEntity
  8
001
370
    50
100
AcDb2dPolyline
 66
     1
 10
0.0
 20
0.0
 30
0.0
  0
VERTEX
  5
412
330
410
100
AcDbEntity
  8
001
370
    50
100
AcDbVertex
100
AcDb2dVertex
 10
54.971765
 20
-75.501989
 30
0.0
  0
VERTEX
  5
413
330
410
100
AcDbEntity
  8
001
370
    50
100
AcDbVertex
100
AcDb2dVertex
 10
55.299985
 20
-75.484872
 30
0.0
  0
VERTEX
  5
414
330
410
100
AcDbEntity
  8
001
370
    50
100
AcDbVertex
100
AcDb2dVertex
 10
55.749319
 20
-75.433624
 30
0.0
  0
VERTEX
  5
415
330
410
100
AcDbEntity
  8
001
370
    50
100
AcDbVertex
100
AcDb2dVertex
 10
56.147554
 20
-75.348535
 30
0.0
  0
VERTEX
  5
416
330
410
100
AcDbEntity
  8
001
370
    50
100
AcDbVertex
100
AcDb2dVertex
 10
56.503246
 20
-75.230606
 30
0.0
  0
VERTEX
  5
417
330
410
100
AcDbEntity
  8
001
370
    50
100
AcDbVertex
100
AcDb2dVertex
 10
56.858983
 20
-75.080711
 30
0.0
  0
VERTEX
  5
418
330
410
100
AcDbEntity
  8
001
370
    50
100
AcDbVertex
100
AcDb2dVertex
 10
57.21064
 20
-74.899104
 30
0.0
  0
VERTEX
  5
419
330
410
100
AcDbEntity
  8
001
370
    50
100
AcDbVertex
100
AcDb2dVertex
 10
58.140551
 20
-74.182601
 30
0.0
  0
VERTEX
  5
41A
330
410
100
AcDbEntity
  8
001
370
    50
100
AcDbVertex
100
AcDb2dVertex
 10
58.849611
 20
-73.251989
 30
0.0
  0
VERTEX
  5
41B
330
410
100
AcDbEntity
  8
001
370
    50
100
AcDbVertex
100
AcDb2dVertex
 10
59.179603
 20
-72.539748
 30
0.0
  0
VERTEX
  5
41C
330
410
100
AcDbEntity
  8
001
370
    50
100
AcDbVertex
100
AcDb2dVertex
 10
59.381488
 20
-71.783406
 30
0.0
  0
VERTEX
  5
41D
330
410
100
AcDbEntity
  8
001
370
    50
100
AcDbVertex
100
AcDb2dVertex
 10
59.432534
 20
-71.39405
 30
0.0
  0
VERTEX
  5
41E
330
410
100
AcDbEntity
  8
001
370
    50
100
AcDbVertex
100
AcDb2dVertex
 10
59.449515
 20
-71.001989
 30
0.0
  0
VERTEX
  5
41F
330
410
100
AcDbEntity
  8
001
370
    50
100
AcDbVertex
100
AcDb2dVertex
 10
59.432443
 20
-70.609929
 30
0.0
  0
VERTEX
  5
420
330
410
100
AcDbEntity
  8
001
370
    50
100
AcDbVertex
100
AcDb2dVertex
 10
59.381488
 20
-70.220572
 30
0.0
  0
VERTEX
  5
421
330
410
100
AcDbEntity
  8
001
370
    50
100
AcDbVertex
100
AcDb2dVertex
 10
59.180333
 20
-69.464224
 30
0.0
  0
VERTEX
  5
422
330
410
100
AcDbEntity
  8
001
370
    50
100
AcDbVertex
100
AcDb2dVertex
 10
58.849611
 20
-68.751989
 30
0.0
  0
VERTEX
  5
423
330
410
100
AcDbEntity
  8
001
370
    50
100
AcDbVertex
100
AcDb2dVertex
 10
58.135417
 20
-67.821427
 30
0.0
  0
VERTEX
  5
424
330
410
100
AcDbEntity
  8
001
370
    50
100
AcDbVertex
100
AcDb2dVertex
 10
57.21064
 20
-67.104875
 30
0.0
  0
VERTEX
  5
425
330
410
100
AcDbEntity
  8
001
370
    50
100
AcDbVertex
100
AcDb2dVertex
 10
56.864103
 20
-66.923219
 30
0.0
  0
VERTEX
  5
426
330
410
100
AcDbEntity
  8
001
370
    50
100
AcDbVertex
100
AcDb2dVertex
 10
56.503246
 20
-66.773372
 30
0.0
  0
VERTEX
  5
427
330
410
100
AcDbEntity
  8
001
370
    50
100
AcDbVertex
100
AcDb2dVertex
 10
56.130499
 20
-66.655607
 30
0.0
  0
VERTEX
  5
428
330
410
100
AcDbEntity
  8
001
370
    50
100
AcDbVertex
100
AcDb2dVertex
 10
55.749319
 20
-66.570354
 30
0.0
  0
VERTEX
  5
429
330
410
100
AcDbEntity
  8
001
370
    50
100
AcDbVertex
100
AcDb2dVertex
 10
55.36306
 20
-66.5185
 30
0.0
  0
VERTEX
  5
42A
330
410
100
AcDbEntity
  8
001
370
    50
100
AcDbVertex
100
AcDb2dVertex
 10
54.971765
 20
-66.501989
 30
0.0
  0
VERTEX
  5
42B
330
410
100
AcDbEntity
  8
001
370
    50
100
AcDbVertex
100
AcDb2dVertex
 10
54.577644
 20
-66.521367
 30
0.0
  0
VERTEX
  5
42C
330
410
100
AcDbEntity
  8
001
370
    50
100
AcDbVertex
100
AcDb2dVertex
 10
54.194212
 20
-66.570354
 30
0.0
  0
VERTEX
  5
42D
330
410
100
AcDbEntity
  8
001
370
    50
100
AcDbVertex
100
AcDb2dVertex
 10
53.827172
 20
-66.647004
 30
0.0
  0
VERTEX
  5
42E
330
410
100
AcDbEntity
  8
001
370
    50
100
AcDbVertex
100
AcDb2dVertex
 10
53.440285
 20
-66.773372
 30
0.0
  0
VERTEX
  5
42F
330
410
100
AcDbEntity
  8
001
370
    50
100
AcDbVertex
100
AcDb2dVertex
 10
53.025652
 20
-66.954789
 30
0.0
  0
VERTEX
  5
430
330
410
100
AcDbEntity
  8
001
370
    50
100
AcDbVertex
100
AcDb2dVertex
 10
52.73289
 20
-67.104875
 30
0.0
  0
SEQEND
  5
411
330
410
100
AcDbEntity
  8
001
370
    50
  0
POLYLINE
  5
431
330
1F
100
AcDbEntity
  8
001
370
    50
100
AcDb2dPolyline
 66
     1
 10
0.0
 20
0.0
 30
0.0
  0
VERTEX
  5
433
330
431
100
AcDbEntity
  8
001
370
    50
100
AcDbVertex
100
AcDb2dVertex
 10
41.143934
 20
-28.885686
 30
0.0
  0
VERTEX
  5
434
330
431
100
AcDbEntity
  8
001
370
    50
100
AcDbVertex
100
AcDb2dVertex
 10
41.143615
 20
-28.914964
 30
0.0
  0
VERTEX
  5
435
330
431
100
AcDbEntity
  8
001
370
    50
100
AcDbVertex
100
AcDb2dVertex
 10
41.148063
 20
-28.955214
 30
0.0
  0
VERTEX
  5
436
330
431
100
AcDbEntity
  8
001
370
    50
100
AcDbVertex
100
AcDb2dVertex
 10
41.159718
 20
-28.993407
 30
0.0
  0
VERTEX
  5
437
330
431
100
AcDbEntity
  8
001
370
    50
100
AcDbVertex
100
AcDb2dVertex
 10
41.176033
 20
-29.025391
 30
0.0
  0
VERTEX
  5
438
330
431
100
AcDbEntity
  8
001
370
    50
100
AcDbVertex
100
AcDb2dVertex
 10
41.19765
 20
-29.058804
 30
0.0
  0
VERTEX
  5
439
330
431
100
AcDbEntity
  8
001
370
    50
100
AcDbVertex
100
AcDb2dVertex
 10
41.226995
 20
-29.094085
 30
0.0
  0
VERTEX
  5
43A
330
431
100
AcDbEntity
  8
001
370
    50
100
AcDbVertex
100
AcDb2dVertex
 10
41.235203
 20
-29.102725
 30
0.0
  0
VERTEX
  5
43B
330
431
100
AcDbEntity
  8
001
370
    50
100
AcDbVertex
100
AcDb2dVertex
 10
41.24103
 20
-29.10867
 30
0.0
  0
SEQEND
  5
432
330
431
100
AcDbEntity
  8
001
370
    50
  0
LINE
  5
43C
330
1F
100
AcDbEntity
  8
001
370
    50
100
AcDbLine
 10
41.869876
 20
-29.735434
 30
0.0
 11
41.24103
 21
-29.10867
 31
0.0
  0
LINE
  5
43D
330
1F
100
AcDbEntity
  8
001
370
    50
100
AcDbLine
 10
41.869876
 20
-34.30853
 30
0.0
 11
40.768268
 21
-33.210569
 31
0.0
  0
POLYLINE
  5
43E
330
1F
100
AcDbEntity
  8
001
370
    50
100
AcDb2dPolyline
 66
     1
 10
0.0
 20
0.0
 30
0.0
  0
VERTEX
  5
440
330
43E
100
AcDbEntity
  8
001
370
    50
100
AcDbVertex
100
AcDb2dVertex
 10
41.300255
 20
-28.683993
 30
0.0
  0
VERTEX
  5
441
330
43E
100
AcDbEntity
  8
001
370
    50
100
AcDbVertex
100
AcDb2dVertex
 10
41.288552
 20
-28.691124
 30
0.0
  0
VERTEX
  5
442
330
43E
100
AcDbEntity
  8
001
370
    50
100
AcDbVertex
100
AcDb2dVertex
 10
41.272225
 20
-28.701646
 30
0.0
  0
VERTEX
  5
443
330
43E
100
AcDbEntity
  8
001
370
    50
100
AcDbVertex
100
AcDb2dVertex
 10
41.235816
 20
-28.729155
 30
0.0
  0
VERTEX
  5
444
330
43E
100
AcDbEntity
  8
001
370
    50
100
AcDbVertex
100
AcDb2dVertex
 10
41.206972
 20
-28.756947
 30
0.0
  0
VERTEX
  5
445
330
43E
100
AcDbEntity
  8
001
370
    50
100
AcDbVertex
100
AcDb2dVertex
 10
41.183767
 20
-28.784418
 30
0.0
  0
VERTEX
  5
446
330
43E
100
AcDbEntity
  8
001
370
    50
100
AcDbVertex
100
AcDb2dVertex
 10
41.163771
 20
-28.818921
 30
0.0
  0
VERTEX
  5
447
330
43E
100
AcDbEntity
  8
001
370
    50
100
AcDbVertex
100
AcDb2dVertex
 10
41.150291
 20
-28.857097
 30
0.0
  0
VERTEX
  5
448
330
43E
100
AcDbEntity
  8
001
370
    50
100
AcDbVertex
100
AcDb2dVertex
 10
41.143934
 20
-28.885686
 30
0.0
  0
SEQEND
  5
43F
330
43E
100
AcDbEntity
  8
001
370
    50
  0
LINE
  5
449
330
1F
100
AcDbEntity
  8
001
370
    50
100
AcDbLine
 10
41.143934
 20
-28.885686
 30
0.0
 11
40.671172
 21
-32.987585
 31
0.0
  0
POLYLINE
  5
44A
330
1F
100
AcDbEntity
  8
001
370
    50
100
AcDb2dPolyline
 66
     1
 10
0.0
 20
0.0
 30
0.0
  0
VERTEX
  5
44C
330
44A
100
AcDbEntity
  8
001
370
    50
100
AcDbVertex
100
AcDb2dVertex
 10
40.671172
 20
-32.987585
 30
0.0
  0
VERTEX
  5
44D
330
44A
100
AcDbEntity
  8
001
370
    50
100
AcDbVertex
100
AcDb2dVertex
 10
40.670853
 20
-33.016862
 30
0.0
  0
VERTEX
  5
44E
330
44A
100
AcDbEntity
  8
001
370
    50
100
AcDbVertex
100
AcDb2dVertex
 10
40.675301
 20
-33.057112
 30
0.0
  0
VERTEX
  5
44F
330
44A
100
AcDbEntity
  8
001
370
    50
100
AcDbVertex
100
AcDb2dVertex
 10
40.686956
 20
-33.095306
 30
0.0
  0
VERTEX
  5
450
330
44A
100
AcDbEntity
  8
001
370
    50
100
AcDbVertex
100
AcDb2dVertex
 10
40.703271
 20
-33.127289
 30
0.0
  0
VERTEX
  5
451
330
44A
100
AcDbEntity
  8
001
370
    50
100
AcDbVertex
100
AcDb2dVertex
 10
40.724888
 20
-33.160703
 30
0.0
  0
VERTEX
  5
452
330
44A
100
AcDbEntity
  8
001
370
    50
100
AcDbVertex
100
AcDb2dVertex
 10
40.754233
 20
-33.195984
 30
0.0
  0
VERTEX
  5
453
330
44A
100
AcDbEntity
  8
001
370
    50
100
AcDbVertex
100
AcDb2dVertex
 10
40.762441
 20
-33.204624
 30
0.0
  0
VERTEX
  5
454
330
44A
100
AcDbEntity
  8
001
370
    50
100
AcDbVertex
100
AcDb2dVertex
 10
40.768268
 20
-33.210569
 30
0.0
  0
SEQEND
  5
44B
330
44A
100
AcDbEntity
  8
001
370
    50
  0
LINE
  5
455
330
1F
100
AcDbEntity
  8
001
370
    50
100
AcDbLine
 10
68.669876
 20
-79.672537
 30
0.0
 11
75.669876
 21
-77.796892
 31
0.0
  0
LINE
  5
456
330
1F
100
AcDbEntity
  8
001
370
    50
100
AcDbLine
 10
75.669876
 20
-13.348181
 30
0.0
 11
68.669876
 21
-11.472537
 31
0.0
  0
LINE
  5
457
330
1F
100
AcDbEntity
  8
001
370
    50
100
AcDbLine
 10
75.669876
 20
-13.348181
 30
0.0
 11
75.669876
 21
-77.796892
 31
0.0
  0
LINE
  5
458
330
1F
100
AcDbEntity
  8
001
370
    50
100
AcDbLine
 10
68.669876
 20
-11.472537
 30
0.0
 11
68.669876
 21
-79.672537
 31
0.0
  0
LINE
  5
459
330
1F
100
AcDbEntity
  8
001
370
    50
100
AcDbLine
 10
68.669876
 20
-11.472537
 30
0.0
 11
63.345535
 21
-11.472537
 31
0.0
  0
LINE
  5
45A
330
1F
100
AcDbEntity
  8
001
370
    50
100
AcDbLine
 10
58.772216
 20
-79.672537
 30
0.0
 11
68.669876
 21
-79.672537
 31
0.0
  0
LINE
  5
45B
330
1F
100
AcDbEntity
  8
001
370
    50
100
AcDbLine
 10
58.772216
 20
-79.026574
 30
0.0
 11
58.772216
 21
-79.672537
 31
0.0
  0
POLYLINE
  5
45C
330
1F
100
AcDbEntity
  8
001
370
    50
100
AcDb2dPolyline
 66
     1
 10
0.0
 20
0.0
 30
0.0
  0
VERTEX
  5
45E
330
45C
100
AcDbEntity
  8
001
370
    50
100
AcDbVertex
100
AcDb2dVertex
 10
58.772216
 20
-79.026574
 30
0.0
  0
VERTEX
  5
45F
330
45C
100
AcDbEntity
  8
001
370
    50
100
AcDbVertex
100
AcDb2dVertex
 10
60.153696
 20
-78.999011
 30
0.0
  0
VERTEX
  5
460
330
45C
100
AcDbEntity
  8
001
370
    50
100
AcDbVertex
100
AcDb2dVertex
 10
62.172761
 20
-78.957759
 30
0.0
  0
VERTEX
  5
461
330
45C
100
AcDbEntity
  8
001
370
    50
100
AcDbVertex
100
AcDb2dVertex
 10
64.187582
 20
-78.915249
 30
0.0
  0
VERTEX
  5
462
330
45C
100
AcDbEntity
  8
001
370
    50
100
AcDbVertex
100
AcDb2dVertex
 10
65.566129
 20
-78.885501
 30
0.0
  0
SEQEND
  5
45D
330
45C
100
AcDbEntity
  8
001
370
    50
  0
POLYLINE
  5
463
330
1F
100
AcDbEntity
  8
001
370
    50
100
AcDb2dPolyline
 66
     1
 10
0.0
 20
0.0
 30
0.0
  0
VERTEX
  5
465
330
463
100
AcDbEntity
  8
001
370
    50
100
AcDbVertex
100
AcDb2dVertex
 10
63.345535
 20
-62.622537
 30
0.0
  0
VERTEX
  5
466
330
463
100
AcDbEntity
  8
001
370
    50
100
AcDbVertex
100
AcDb2dVertex
 10
63.463396
 20
-64.335175
 30
0.0
  0
VERTEX
  5
467
330
463
100
AcDbEntity
  8
001
370
    50
100
AcDbVertex
100
AcDb2dVertex
 10
63.662352
 20
-66.756984
 30
0.0
  0
VERTEX
  5
468
330
463
100
AcDbEntity
  8
001
370
    50
100
AcDbVertex
100
AcDb2dVertex
 10
63.92696
 20
-69.570621
 30
0.0
  0
VERTEX
  5
469
330
463
100
AcDbEntity
  8
001
370
    50
100
AcDbVertex
100
AcDb2dVertex
 10
64.241774
 20
-72.458742
 30
0.0
  0
VERTEX
  5
46A
330
463
100
AcDbEntity
  8
001
370
    50
100
AcDbVertex
100
AcDb2dVertex
 10
64.591351
 20
-75.104003
 30
0.0
  0
VERTEX
  5
46B
330
463
100
AcDbEntity
  8
001
370
    50
100
AcDbVertex
100
AcDb2dVertex
 10
64.798768
 20
-76.309843
 30
0.0
  0
VERTEX
  5
46C
330
463
100
AcDbEntity
  8
001
370
    50
100
AcDbVertex
100
AcDb2dVertex
 10
65.129056
 20
-77.616055
 30
0.0
  0
VERTEX
  5
46D
330
463
100
AcDbEntity
  8
001
370
    50
100
AcDbVertex
100
AcDb2dVertex
 10
65.369058
 20
-78.36243
 30
0.0
  0
VERTEX
  5
46E
330
463
100
AcDbEntity
  8
001
370
    50
100
AcDbVertex
100
AcDb2dVertex
 10
65.566129
 20
-78.885501
 30
0.0
  0
SEQEND
  5
464
330
463
100
AcDbEntity
  8
001
370
    50
  0
POLYLINE
  5
46F
330
1F
100
AcDbEntity
  8
001
370
    50
100
AcDb2dPolyline
 66
     1
 10
0.0
 20
0.0
 30
0.0
  0
VERTEX
  5
471
330
46F
100
AcDbEntity
  8
001
370
    50
100
AcDbVertex
100
AcDb2dVertex
 10
65.049666
 20
-40.490347
 30
0.0
  0
VERTEX
  5
472
330
46F
100
AcDbEntity
  8
001
370
    50
100
AcDbVertex
100
AcDb2dVertex
 10
63.776969
 20
-40.355572
 30
0.0
  0
VERTEX
  5
473
330
46F
100
AcDbEntity
  8
001
370
    50
100
AcDbVertex
100
AcDb2dVertex
 10
61.916823
 20
-40.159063
 30
0.0
  0
VERTEX
  5
474
330
46F
100
AcDbEntity
  8
001
370
    50
100
AcDbVertex
100
AcDb2dVertex
 10
60.049733
 20
-39.962483
 30
0.0
  0
VERTEX
  5
475
330
46F
100
AcDbEntity
  8
001
370
    50
100
AcDbVertex
100
AcDb2dVertex
 10
58.772216
 20
-39.828303
 30
0.0
  0
SEQEND
  5
470
330
46F
100
AcDbEntity
  8
001
370
    50
  0
LINE
  5
476
330
1F
100
AcDbEntity
  8
001
370
    50
100
AcDbLine
 10
58.772216
 20
-23.124675
 30
0.0
 11
58.772216
 21
-39.828303
 31
0.0
  0
POLYLINE
  5
477
330
1F
100
AcDbEntity
  8
001
370
    50
100
AcDb2dPolyline
 66
     1
 10
0.0
 20
0.0
 30
0.0
  0
VERTEX
  5
479
330
477
100
AcDbEntity
  8
001
370
    50
100
AcDbVertex
100
AcDb2dVertex
 10
65.566129
 20
-22.60794
 30
0.0
  0
VERTEX
  5
47A
330
477
100
AcDbEntity
  8
001
370
    50
100
AcDbVertex
100
AcDb2dVertex
 10
64.187559
 20
-22.712231
 30
0.0
  0
VERTEX
  5
47B
330
477
100
AcDbEntity
  8
001
370
    50
100
AcDbVertex
100
AcDb2dVertex
 10
62.172761
 20
-22.865137
 30
0.0
  0
VERTEX
  5
47C
330
477
100
AcDbEntity
  8
001
370
    50
100
AcDbVertex
100
AcDb2dVertex
 10
60.153673
 20
-23.019042
 30
0.0
  0
VERTEX
  5
47D
330
477
100
AcDbEntity
  8
001
370
    50
100
AcDbVertex
100
AcDb2dVertex
 10
58.772216
 20
-23.124675
 30
0.0
  0
SEQEND
  5
478
330
477
100
AcDbEntity
  8
001
370
    50
  0
POLYLINE
  5
47E
330
1F
100
AcDbEntity
  8
001
370
    50
100
AcDb2dPolyline
 66
     1
 10
0.0
 20
0.0
 30
0.0
  0
VERTEX
  5
480
330
47E
100
AcDbEntity
  8
001
370
    50
100
AcDbVertex
100
AcDb2dVertex
 10
65.566129
 20
-22.60794
 30
0.0
  0
VERTEX
  5
481
330
47E
100
AcDbEntity
  8
001
370
    50
100
AcDbVertex
100
AcDb2dVertex
 10
65.345478
 20
-20.93386
 30
0.0
  0
VERTEX
  5
482
330
47E
100
AcDbEntity
  8
001
370
    50
100
AcDbVertex
100
AcDb2dVertex
 10
65.002941
 20
-18.523733
 30
0.0
  0
VERTEX
  5
483
330
47E
100
AcDbEntity
  8
001
370
    50
100
AcDbVertex
100
AcDb2dVertex
 10
64.578714
 20
-15.968156
 30
0.0
  0
VERTEX
  5
484
330
47E
100
AcDbEntity
  8
001
370
    50
100
AcDbVertex
100
AcDb2dVertex
 10
64.322881
 20
-14.659537
 30
0.0
  0
VERTEX
  5
485
330
47E
100
AcDbEntity
  8
001
370
    50
100
AcDbVertex
100
AcDb2dVertex
 10
64.094183
 20
-13.479251
 30
0.0
  0
VERTEX
  5
486
330
47E
100
AcDbEntity
  8
001
370
    50
100
AcDbVertex
100
AcDb2dVertex
 10
63.954788
 20
-12.780263
 30
0.0
  0
VERTEX
  5
487
330
47E
100
AcDbEntity
  8
001
370
    50
100
AcDbVertex
100
AcDb2dVertex
 10
63.676466
 20
-11.965484
 30
0.0
  0
VERTEX
  5
488
330
47E
100
AcDbEntity
  8
001
370
    50
100
AcDbVertex
100
AcDb2dVertex
 10
63.510041
 20
-11.6315
 30
0.0
  0
VERTEX
  5
489
330
47E
100
AcDbEntity
  8
001
370
    50
100
AcDbVertex
100
AcDb2dVertex
 10
63.345535
 20
-11.472537
 30
0.0
  0
SEQEND
  5
47F
330
47E
100
AcDbEntity
  8
001
370
    50
  0
POLYLINE
  5
48A
330
1F
100
AcDbEntity
  8
001
370
    50
100
AcDb2dPolyline
 66
     1
 10
0.0
 20
0.0
 30
0.0
  0
VERTEX
  5
48C
330
48A
100
AcDbEntity
  8
001
370
    50
100
AcDbVertex
100
AcDb2dVertex
 10
63.891714
 20
-18.989522
 30
0.0
  0
VERTEX
  5
48D
330
48A
100
AcDbEntity
  8
001
370
    50
100
AcDbVertex
100
AcDb2dVertex
 10
62.853387
 20
-19.059266
 30
0.0
  0
VERTEX
  5
48E
330
48A
100
AcDbEntity
  8
001
370
    50
100
AcDbVertex
100
AcDb2dVertex
 10
61.335853
 20
-19.161513
 30
0.0
  0
VERTEX
  5
48F
330
48A
100
AcDbEntity
  8
001
370
    50
100
AcDbVertex
100
AcDb2dVertex
 10
59.813685
 20
-19.264512
 30
0.0
  0
VERTEX
  5
490
330
48A
100
AcDbEntity
  8
001
370
    50
100
AcDbVertex
100
AcDb2dVertex
 10
58.772216
 20
-19.335199
 30
0.0
  0
SEQEND
  5
48B
330
48A
100
AcDbEntity
  8
001
370
    50
  0
POLYLINE
  5
491
330
1F
100
AcDbEntity
  8
001
370
    50
100
AcDb2dPolyline
 66
     1
 10
0.0
 20
0.0
 30
0.0
  0
VERTEX
  5
493
330
491
100
AcDbEntity
  8
001
370
    50
100
AcDbVertex
100
AcDb2dVertex
 10
65.049666
 20
-40.490347
 30
0.0
  0
VERTEX
  5
494
330
491
100
AcDbEntity
  8
001
370
    50
100
AcDbVertex
100
AcDb2dVertex
 10
64.86025
 20
-42.552111
 30
0.0
  0
VERTEX
  5
495
330
491
100
AcDbEntity
  8
001
370
    50
100
AcDbVertex
100
AcDb2dVertex
 10
64.604019
 20
-45.426163
 30
0.0
  0
VERTEX
  5
496
330
491
100
AcDbEntity
  8
001
370
    50
100
AcDbVertex
100
AcDb2dVertex
 10
64.337874
 20
-48.574176
 30
0.0
  0
VERTEX
  5
497
330
491
100
AcDbEntity
  8
001
370
    50
100
AcDbVertex
100
AcDb2dVertex
 10
64.116566
 20
-51.349735
 30
0.0
  0
VERTEX
  5
498
330
491
100
AcDbEntity
  8
001
370
    50
100
AcDbVertex
100
AcDb2dVertex
 10
63.962053
 20
-53.354552
 30
0.0
  0
VERTEX
  5
499
330
491
100
AcDbEntity
  8
001
370
    50
100
AcDbVertex
100
AcDb2dVertex
 10
63.811582
 20
-55.389461
 30
0.0
  0
VERTEX
  5
49A
330
491
100
AcDbEntity
  8
001
370
    50
100
AcDbVertex
100
AcDb2dVertex
 10
63.661997
 20
-57.536549
 30
0.0
  0
VERTEX
  5
49B
330
491
100
AcDbEntity
  8
001
370
    50
100
AcDbVertex
100
AcDb2dVertex
 10
63.510144
 20
-59.877905
 30
0.0
  0
VERTEX
  5
49C
330
491
100
AcDbEntity
  8
001
370
    50
100
AcDbVertex
100
AcDb2dVertex
 10
63.352867
 20
-62.495617
 30
0.0
  0
VERTEX
  5
49D
330
491
100
AcDbEntity
  8
001
370
    50
100
AcDbVertex
100
AcDb2dVertex
 10
63.348513
 20
-62.570939
 30
0.0
  0
VERTEX
  5
49E
330
491
100
AcDbEntity
  8
001
370
    50
100
AcDbVertex
100
AcDb2dVertex
 10
63.345535
 20
-62.622537
 30
0.0
  0
SEQEND
  5
492
330
491
100
AcDbEntity
  8
001
370
    50
  0
POLYLINE
  5
49F
330
1F
100
AcDbEntity
  8
001
370
    50
100
AcDb2dPolyline
 66
     1
 10
0.0
 20
0.0
 30
0.0
  0
VERTEX
  5
4A1
330
49F
100
AcDbEntity
  8
001
370
    50
100
AcDbVertex
100
AcDb2dVertex
 10
60.69205
 20
-54.120478
 30
0.0
  0
VERTEX
  5
4A2
330
49F
100
AcDbEntity
  8
001
370
    50
100
AcDbVertex
100
AcDb2dVertex
 10
61.855535
 20
-53.760205
 30
0.0
  0
VERTEX
  5
4A3
330
49F
100
AcDbEntity
  8
001
370
    50
100
AcDbVertex
100
AcDb2dVertex
 10
63.417586
 20
-52.96443
 30
0.0
  0
VERTEX
  5
4A4
330
49F
100
AcDbEntity
  8
001
370
    50
100
AcDbVertex
100
AcDb2dVertex
 10
63.787879
 20
-52.685406
 30
0.0
  0
VERTEX
  5
4A5
330
49F
100
AcDbEntity
  8
001
370
    50
100
AcDbVertex
100
AcDb2dVertex
 10
64.029643
 20
-52.47871
 30
0.0
  0
SEQEND
  5
4A0
330
49F
100
AcDbEntity
  8
001
370
    50
  0
POLYLINE
  5
4A6
330
1F
100
AcDbEntity
  8
001
370
    50
100
AcDb2dPolyline
 66
     1
 10
0.0
 20
0.0
 30
0.0
  0
VERTEX
  5
4A8
330
4A6
100
AcDbEntity
  8
001
370
    50
100
AcDbVertex
100
AcDb2dVertex
 10
60.69205
 20
-54.120478
 30
0.0
  0
VERTEX
  5
4A9
330
4A6
100
AcDbEntity
  8
001
370
    50
100
AcDbVertex
100
AcDb2dVertex
 10
59.868985
 20
-53.689128
 30
0.0
  0
VERTEX
  5
4AA
330
4A6
100
AcDbEntity
  8
001
370
    50
100
AcDbVertex
100
AcDb2dVertex
 10
58.620825
 20
-53.170382
 30
0.0
  0
VERTEX
  5
4AB
330
4A6
100
AcDbEntity
  8
001
370
    50
100
AcDbVertex
100
AcDb2dVertex
 10
56.594471
 20
-52.694335
 30
0.0
  0
VERTEX
  5
4AC
330
4A6
100
AcDbEntity
  8
001
370
    50
100
AcDbVertex
100
AcDb2dVertex
 10
55.16363
 20
-52.572537
 30
0.0
  0
SEQEND
  5
4A7
330
4A6
100
AcDbEntity
  8
001
370
    50
  0
LINE
  5
4AD
330
1F
100
AcDbEntity
  8
001
370
    50
100
AcDbLine
 10
55.16363
 20
-52.572537
 30
0.0
 11
46.768786
 21
-52.572537
 31
0.0
  0
POLYLINE
  5
4AE
330
1F
100
AcDbEntity
  8
001
370
    50
100
AcDb2dPolyline
 66
     1
 10
0.0
 20
0.0
 30
0.0
  0
VERTEX
  5
4B0
330
4AE
100
AcDbEntity
  8
001
370
    50
100
AcDbVertex
100
AcDb2dVertex
 10
41.869876
 20
-45.739935
 30
0.0
  0
VERTEX
  5
4B1
330
4AE
100
AcDbEntity
  8
001
370
    50
100
AcDbVertex
100
AcDb2dVertex
 10
42.59956
 20
-46.572187
 30
0.0
  0
VERTEX
  5
4B2
330
4AE
100
AcDbEntity
  8
001
370
    50
100
AcDbVertex
100
AcDb2dVertex
 10
43.319775
 20
-47.412579
 30
0.0
  0
VERTEX
  5
4B3
330
4AE
100
AcDbEntity
  8
001
370
    50
100
AcDbVertex
100
AcDb2dVertex
 10
44.005423
 20
-48.24785
 30
0.0
  0
VERTEX
  5
4B4
330
4AE
100
AcDbEntity
  8
001
370
    50
100
AcDbVertex
100
AcDb2dVertex
 10
44.668462
 20
-49.101183
 30
0.0
  0
VERTEX
  5
4B5
330
4AE
100
AcDbEntity
  8
001
370
    50
100
AcDbVertex
100
AcDb2dVertex
 10
44.983232
 20
-49.526465
 30
0.0
  0
VERTEX
  5
4B6
330
4AE
100
AcDbEntity
  8
001
370
    50
100
AcDbVertex
100
AcDb2dVertex
 10
45.28957
 20
-49.957777
 30
0.0
  0
VERTEX
  5
4B7
330
4AE
100
AcDbEntity
  8
001
370
    50
100
AcDbVertex
100
AcDb2dVertex
 10
45.578844
 20
-50.385609
 30
0.0
  0
VERTEX
  5
4B8
330
4AE
100
AcDbEntity
  8
001
370
    50
100
AcDbVertex
100
AcDb2dVertex
 10
45.857532
 20
-50.820595
 30
0.0
  0
VERTEX
  5
4B9
330
4AE
100
AcDbEntity
  8
001
370
    50
100
AcDbVertex
100
AcDb2dVertex
 10
46.116878
 20
-51.251783
 30
0.0
  0
VERTEX
  5
4BA
330
4AE
100
AcDbEntity
  8
001
370
    50
100
AcDbVertex
100
AcDb2dVertex
 10
46.35796
 20
-51.693036
 30
0.0
  0
VERTEX
  5
4BB
330
4AE
100
AcDbEntity
  8
001
370
    50
100
AcDbVertex
100
AcDb2dVertex
 10
46.569383
 20
-52.129759
 30
0.0
  0
VERTEX
  5
4BC
330
4AE
100
AcDbEntity
  8
001
370
    50
100
AcDbVertex
100
AcDb2dVertex
 10
46.768786
 20
-52.572537
 30
0.0
  0
SEQEND
  5
4AF
330
4AE
100
AcDbEntity
  8
001
370
    50
  0
LINE
  5
4BD
330
1F
100
AcDbEntity
  8
001
370
    50
100
AcDbLine
 10
41.869876
 20
-38.23719
 30
0.0
 11
42.858031
 21
-38.04987
 31
0.0
  0
POLYLINE
  5
4BE
330
1F
100
AcDbEntity
  8
001
370
    50
100
AcDb2dPolyline
 66
     1
 10
0.0
 20
0.0
 30
0.0
  0
VERTEX
  5
4C0
330
4BE
100
AcDbEntity
  8
001
370
    50
100
AcDbVertex
100
AcDb2dVertex
 10
58.772216
 20
-39.828303
 30
0.0
  0
VERTEX
  5
4C1
330
4BE
100
AcDbEntity
  8
001
370
    50
100
AcDbVertex
100
AcDb2dVertex
 10
56.868642
 20
-39.613129
 30
0.0
  0
VERTEX
  5
4C2
330
4BE
100
AcDbEntity
  8
001
370
    50
100
AcDbVertex
100
AcDb2dVertex
 10
54.086369
 20
-39.299768
 30
0.0
  0
VERTEX
  5
4C3
330
4BE
100
AcDbEntity
  8
001
370
    50
100
AcDbVertex
100
AcDb2dVertex
 10
50.864601
 20
-38.938615
 30
0.0
  0
VERTEX
  5
4C4
330
4BE
100
AcDbEntity
  8
001
370
    50
100
AcDbVertex
100
AcDb2dVertex
 10
48.393956
 20
-38.663167
 30
0.0
  0
VERTEX
  5
4C5
330
4BE
100
AcDbEntity
  8
001
370
    50
100
AcDbVertex
100
AcDb2dVertex
 10
46.110845
 20
-38.409623
 30
0.0
  0
VERTEX
  5
4C6
330
4BE
100
AcDbEntity
  8
001
370
    50
100
AcDbVertex
100
AcDb2dVertex
 10
44.202969
 20
-38.198389
 30
0.0
  0
VERTEX
  5
4C7
330
4BE
100
AcDbEntity
  8
001
370
    50
100
AcDbVertex
100
AcDb2dVertex
 10
42.858031
 20
-38.04987
 30
0.0
  0
SEQEND
  5
4BF
330
4BE
100
AcDbEntity
  8
001
370
    50
  0
POLYLINE
  5
4C8
330
1F
100
AcDbEntity
  8
001
370
    50
100
AcDb2dPolyline
 66
     1
 10
0.0
 20
0.0
 30
0.0
  0
VERTEX
  5
4CA
330
4C8
100
AcDbEntity
  8
001
370
    50
100
AcDbVertex
100
AcDb2dVertex
 10
52.427018
 20
-40.428003
 30
0.0
  0
VERTEX
  5
4CB
330
4C8
100
AcDbEntity
  8
001
370
    50
100
AcDbVertex
100
AcDb2dVertex
 10
52.42682
 20
-40.413416
 30
0.0
  0
VERTEX
  5
4CC
330
4C8
100
AcDbEntity
  8
001
370
    50
100
AcDbVertex
100
AcDb2dVertex
 10
52.425977
 20
-40.392119
 30
0.0
  0
VERTEX
  5
4CD
330
4C8
100
AcDbEntity
  8
001
370
    50
100
AcDbVertex
100
AcDb2dVertex
 10
52.424349
 20
-40.370705
 30
0.0
  0
VERTEX
  5
4CE
330
4C8
100
AcDbEntity
  8
001
370
    50
100
AcDbVertex
100
AcDb2dVertex
 10
52.422856
 20
-40.356083
 30
0.0
  0
SEQEND
  5
4C9
330
4C8
100
AcDbEntity
  8
001
370
    50
  0
POLYLINE
  5
4CF
330
1F
100
AcDbEntity
  8
001
370
    50
100
AcDb2dPolyline
 66
     1
 10
0.0
 20
0.0
 30
0.0
  0
VERTEX
  5
4D1
330
4CF
100
AcDbEntity
  8
001
370
    50
100
AcDbVertex
100
AcDb2dVertex
 10
58.772216
 20
-23.124675
 30
0.0
  0
VERTEX
  5
4D2
330
4CF
100
AcDbEntity
  8
001
370
    50
100
AcDbVertex
100
AcDb2dVertex
 10
58.228947
 20
-23.16196
 30
0.0
  0
VERTEX
  5
4D3
330
4CF
100
AcDbEntity
  8
001
370
    50
100
AcDbVertex
100
AcDb2dVertex
 10
57.434944
 20
-23.216532
 30
0.0
  0
VERTEX
  5
4D4
330
4CF
100
AcDbEntity
  8
001
370
    50
100
AcDbVertex
100
AcDb2dVertex
 10
56.639816
 20
-23.271291
 30
0.0
  0
VERTEX
  5
4D5
330
4CF
100
AcDbEntity
  8
001
370
    50
100
AcDbVertex
100
AcDb2dVertex
 10
56.095785
 20
-23.308812
 30
0.0
  0
SEQEND
  5
4D0
330
4CF
100
AcDbEntity
  8
001
370
    50
  0
LINE
  5
4D6
330
1F
100
AcDbEntity
  8
001
370
    50
100
AcDbLine
 10
42.858031
 20
-28.022404
 30
0.0
 11
42.858031
 21
-38.04987
 31
0.0
  0
POLYLINE
  5
4D7
330
1F
100
AcDbEntity
  8
001
370
    50
100
AcDb2dPolyline
 66
     1
 10
0.0
 20
0.0
 30
0.0
  0
VERTEX
  5
4D9
330
4D7
100
AcDbEntity
  8
001
370
    50
100
AcDbVertex
100
AcDb2dVertex
 10
56.868125
 20
-26.944661
 30
0.0
  0
VERTEX
  5
4DA
330
4D7
100
AcDbEntity
  8
001
370
    50
100
AcDbVertex
100
AcDb2dVertex
 10
55.184963
 20
-27.072668
 30
0.0
  0
VERTEX
  5
4DB
330
4D7
100
AcDbEntity
  8
001
370
    50
100
AcDbVertex
100
AcDb2dVertex
 10
52.72501
 20
-27.260432
 30
0.0
  0
VERTEX
  5
4DC
330
4D7
100
AcDbEntity
  8
001
370
    50
100
AcDbVertex
100
AcDb2dVertex
 10
49.876722
 20
-27.478869
 30
0.0
  0
VERTEX
  5
4DD
330
4D7
100
AcDbEntity
  8
001
370
    50
100
AcDbVertex
100
AcDb2dVertex
 10
47.017194
 20
-27.69951
 30
0.0
  0
VERTEX
  5
4DE
330
4D7
100
AcDbEntity
  8
001
370
    50
100
AcDbVertex
100
AcDb2dVertex
 10
44.54767
 20
-27.890955
 30
0.0
  0
VERTEX
  5
4DF
330
4D7
100
AcDbEntity
  8
001
370
    50
100
AcDbVertex
100
AcDb2dVertex
 10
42.858031
 20
-28.022404
 30
0.0
  0
SEQEND
  5
4D8
330
4D7
100
AcDbEntity
  8
001
370
    50
  0
POLYLINE
  5
4E0
330
1F
100
AcDbEntity
  8
001
370
    50
100
AcDb2dPolyline
 66
     1
 10
0.0
 20
0.0
 30
0.0
  0
VERTEX
  5
4E2
330
4E0
100
AcDbEntity
  8
001
370
    50
100
AcDbVertex
100
AcDb2dVertex
 10
56.868125
 20
-26.944661
 30
0.0
  0
VERTEX
  5
4E3
330
4E0
100
AcDbEntity
  8
001
370
    50
100
AcDbVertex
100
AcDb2dVertex
 10
56.740507
 20
-26.185756
 30
0.0
  0
VERTEX
  5
4E4
330
4E0
100
AcDbEntity
  8
001
370
    50
100
AcDbVertex
100
AcDb2dVertex
 10
56.526091
 20
-25.08202
 30
0.0
  0
VERTEX
  5
4E5
330
4E0
100
AcDbEntity
  8
001
370
    50
100
AcDbVertex
100
AcDb2dVertex
 10
56.281724
 20
-24.026587
 30
0.0
  0
VERTEX
  5
4E6
330
4E0
100
AcDbEntity
  8
001
370
    50
100
AcDbVertex
100
AcDb2dVertex
 10
56.095785
 20
-23.308812
 30
0.0
  0
SEQEND
  5
4E1
330
4E0
100
AcDbEntity
  8
001
370
    50
  0
LINE
  5
4E7
330
1F
100
AcDbEntity
  8
001
370
    50
100
AcDbLine
 10
42.858031
 20
-28.022404
 30
0.0
 11
41.869876
 21
-28.382281
 31
0.0
  0
POLYLINE
  5
4E8
330
1F
100
AcDbEntity
  8
001
370
    50
100
AcDb2dPolyline
 66
     1
 10
0.0
 20
0.0
 30
0.0
  0
VERTEX
  5
4EA
330
4E8
100
AcDbEntity
  8
001
370
    50
100
AcDbVertex
100
AcDb2dVertex
 10
47.35577
 20
-40.061201
 30
0.0
  0
VERTEX
  5
4EB
330
4E8
100
AcDbEntity
  8
001
370
    50
100
AcDbVertex
100
AcDb2dVertex
 10
47.360723
 20
-40.093621
 30
0.0
  0
VERTEX
  5
4EC
330
4E8
100
AcDbEntity
  8
001
370
    50
100
AcDbVertex
100
AcDb2dVertex
 10
47.369583
 20
-40.139348
 30
0.0
  0
VERTEX
  5
4ED
330
4E8
100
AcDbEntity
  8
001
370
    50
100
AcDbVertex
100
AcDb2dVertex
 10
47.407588
 20
-40.260562
 30
0.0
  0
VERTEX
  5
4EE
330
4E8
100
AcDbEntity
  8
001
370
    50
100
AcDbVertex
100
AcDb2dVertex
 10
47.460219
 20
-40.360449
 30
0.0
  0
VERTEX
  5
4EF
330
4E8
100
AcDbEntity
  8
001
370
    50
100
AcDbVertex
100
AcDb2dVertex
 10
47.536062
 20
-40.470612
 30
0.0
  0
VERTEX
  5
4F0
330
4E8
100
AcDbEntity
  8
001
370
    50
100
AcDbVertex
100
AcDb2dVertex
 10
47.624662
 20
-40.576938
 30
0.0
  0
VERTEX
  5
4F1
330
4E8
100
AcDbEntity
  8
001
370
    50
100
AcDbVertex
100
AcDb2dVertex
 10
48.030243
 20
-40.905304
 30
0.0
  0
VERTEX
  5
4F2
330
4E8
100
AcDbEntity
  8
001
370
    50
100
AcDbVertex
100
AcDb2dVertex
 10
48.500629
 20
-41.134839
 30
0.0
  0
VERTEX
  5
4F3
330
4E8
100
AcDbEntity
  8
001
370
    50
100
AcDbVertex
100
AcDb2dVertex
 10
48.901178
 20
-41.273737
 30
0.0
  0
VERTEX
  5
4F4
330
4E8
100
AcDbEntity
  8
001
370
    50
100
AcDbVertex
100
AcDb2dVertex
 10
49.310838
 20
-41.375729
 30
0.0
  0
VERTEX
  5
4F5
330
4E8
100
AcDbEntity
  8
001
370
    50
100
AcDbVertex
100
AcDb2dVertex
 10
49.528929
 20
-41.414905
 30
0.0
  0
VERTEX
  5
4F6
330
4E8
100
AcDbEntity
  8
001
370
    50
100
AcDbVertex
100
AcDb2dVertex
 10
49.748692
 20
-41.444566
 30
0.0
  0
VERTEX
  5
4F7
330
4E8
100
AcDbEntity
  8
001
370
    50
100
AcDbVertex
100
AcDb2dVertex
 10
49.969525
 20
-41.464917
 30
0.0
  0
VERTEX
  5
4F8
330
4E8
100
AcDbEntity
  8
001
370
    50
100
AcDbVertex
100
AcDb2dVertex
 10
50.19082
 20
-41.475851
 30
0.0
  0
VERTEX
  5
4F9
330
4E8
100
AcDbEntity
  8
001
370
    50
100
AcDbVertex
100
AcDb2dVertex
 10
50.612689
 20
-41.469343
 30
0.0
  0
VERTEX
  5
4FA
330
4E8
100
AcDbEntity
  8
001
370
    50
100
AcDbVertex
100
AcDb2dVertex
 10
51.034435
 20
-41.423129
 30
0.0
  0
VERTEX
  5
4FB
330
4E8
100
AcDbEntity
  8
001
370
    50
100
AcDbVertex
100
AcDb2dVertex
 10
51.545616
 20
-41.300631
 30
0.0
  0
VERTEX
  5
4FC
330
4E8
100
AcDbEntity
  8
001
370
    50
100
AcDbVertex
100
AcDb2dVertex
 10
52.013343
 20
-41.07627
 30
0.0
  0
VERTEX
  5
4FD
330
4E8
100
AcDbEntity
  8
001
370
    50
100
AcDbVertex
100
AcDb2dVertex
 10
52.122646
 20
-40.99586
 30
0.0
  0
VERTEX
  5
4FE
330
4E8
100
AcDbEntity
  8
001
370
    50
100
AcDbVertex
100
AcDb2dVertex
 10
52.222216
 20
-40.902257
 30
0.0
  0
VERTEX
  5
4FF
330
4E8
100
AcDbEntity
  8
001
370
    50
100
AcDbVertex
100
AcDb2dVertex
 10
52.29847
 20
-40.807685
 30
0.0
  0
VERTEX
  5
500
330
4E8
100
AcDbEntity
  8
001
370
    50
100
AcDbVertex
100
AcDb2dVertex
 10
52.360206
 20
-40.707168
 30
0.0
  0
VERTEX
  5
501
330
4E8
100
AcDbEntity
  8
001
370
    50
100
AcDbVertex
100
AcDb2dVertex
 10
52.400724
 20
-40.611531
 30
0.0
  0
VERTEX
  5
502
330
4E8
100
AcDbEntity
  8
001
370
    50
100
AcDbVertex
100
AcDb2dVertex
 10
52.423118
 20
-40.496932
 30
0.0
  0
VERTEX
  5
503
330
4E8
100
AcDbEntity
  8
001
370
    50
100
AcDbVertex
100
AcDb2dVertex
 10
52.426053
 20
-40.456498
 30
0.0
  0
VERTEX
  5
504
330
4E8
100
AcDbEntity
  8
001
370
    50
100
AcDbVertex
100
AcDb2dVertex
 10
52.427018
 20
-40.428003
 30
0.0
  0
SEQEND
  5
4E9
330
4E8
100
AcDbEntity
  8
001
370
    50
  0
POLYLINE
  5
505
330
1F
100
AcDbEntity
  8
001
370
    50
100
AcDb2dPolyline
 66
     1
 10
0.0
 20
0.0
 30
0.0
  0
VERTEX
  5
507
330
505
100
AcDbEntity
  8
001
370
    50
100
AcDbVertex
100
AcDb2dVertex
 10
52.422856
 20
-40.356083
 30
0.0
  0
VERTEX
  5
508
330
505
100
AcDbEntity
  8
001
370
    50
100
AcDbVertex
100
AcDb2dVertex
 10
52.417902
 20
-40.323663
 30
0.0
  0
VERTEX
  5
509
330
505
100
AcDbEntity
  8
001
370
    50
100
AcDbVertex
100
AcDb2dVertex
 10
52.409043
 20
-40.277936
 30
0.0
  0
VERTEX
  5
50A
330
505
100
AcDbEntity
  8
001
370
    50
100
AcDbVertex
100
AcDb2dVertex
 10
52.371038
 20
-40.156722
 30
0.0
  0
VERTEX
  5
50B
330
505
100
AcDbEntity
  8
001
370
    50
100
AcDbVertex
100
AcDb2dVertex
 10
52.318406
 20
-40.056835
 30
0.0
  0
VERTEX
  5
50C
330
505
100
AcDbEntity
  8
001
370
    50
100
AcDbVertex
100
AcDb2dVertex
 10
52.242564
 20
-39.946672
 30
0.0
  0
VERTEX
  5
50D
330
505
100
AcDbEntity
  8
001
370
    50
100
AcDbVertex
100
AcDb2dVertex
 10
52.153963
 20
-39.840346
 30
0.0
  0
VERTEX
  5
50E
330
505
100
AcDbEntity
  8
001
370
    50
100
AcDbVertex
100
AcDb2dVertex
 10
51.748382
 20
-39.51198
 30
0.0
  0
VERTEX
  5
50F
330
505
100
AcDbEntity
  8
001
370
    50
100
AcDbVertex
100
AcDb2dVertex
 10
51.277996
 20
-39.282445
 30
0.0
  0
VERTEX
  5
510
330
505
100
AcDbEntity
  8
001
370
    50
100
AcDbVertex
100
AcDb2dVertex
 10
50.877447
 20
-39.143547
 30
0.0
  0
VERTEX
  5
511
330
505
100
AcDbEntity
  8
001
370
    50
100
AcDbVertex
100
AcDb2dVertex
 10
50.467787
 20
-39.041555
 30
0.0
  0
VERTEX
  5
512
330
505
100
AcDbEntity
  8
001
370
    50
100
AcDbVertex
100
AcDb2dVertex
 10
50.249695
 20
-39.00238
 30
0.0
  0
VERTEX
  5
513
330
505
100
AcDbEntity
  8
001
370
    50
100
AcDbVertex
100
AcDb2dVertex
 10
50.029933
 20
-38.972718
 30
0.0
  0
VERTEX
  5
514
330
505
100
AcDbEntity
  8
001
370
    50
100
AcDbVertex
100
AcDb2dVertex
 10
49.809102
 20
-38.952363
 30
0.0
  0
VERTEX
  5
515
330
505
100
AcDbEntity
  8
001
370
    50
100
AcDbVertex
100
AcDb2dVertex
 10
49.587806
 20
-38.941433
 30
0.0
  0
VERTEX
  5
516
330
505
100
AcDbEntity
  8
001
370
    50
100
AcDbVertex
100
AcDb2dVertex
 10
49.165918
 20
-38.947976
 30
0.0
  0
VERTEX
  5
517
330
505
100
AcDbEntity
  8
001
370
    50
100
AcDbVertex
100
AcDb2dVertex
 10
48.74419
 20
-38.994155
 30
0.0
  0
VERTEX
  5
518
330
505
100
AcDbEntity
  8
001
370
    50
100
AcDbVertex
100
AcDb2dVertex
 10
48.233107
 20
-39.116466
 30
0.0
  0
VERTEX
  5
519
330
505
100
AcDbEntity
  8
001
370
    50
100
AcDbVertex
100
AcDb2dVertex
 10
47.765283
 20
-39.341014
 30
0.0
  0
VERTEX
  5
51A
330
505
100
AcDbEntity
  8
001
370
    50
100
AcDbVertex
100
AcDb2dVertex
 10
47.655908
 20
-39.421561
 30
0.0
  0
VERTEX
  5
51B
330
505
100
AcDbEntity
  8
001
370
    50
100
AcDbVertex
100
AcDb2dVertex
 10
47.556409
 20
-39.515027
 30
0.0
  0
VERTEX
  5
51C
330
505
100
AcDbEntity
  8
001
370
    50
100
AcDbVertex
100
AcDb2dVertex
 10
47.480353
 20
-39.609222
 30
0.0
  0
VERTEX
  5
51D
330
505
100
AcDbEntity
  8
001
370
    50
100
AcDbVertex
100
AcDb2dVertex
 10
47.418419
 20
-39.710116
 30
0.0
  0
VERTEX
  5
51E
330
505
100
AcDbEntity
  8
001
370
    50
100
AcDbVertex
100
AcDb2dVertex
 10
47.377262
 20
-39.806977
 30
0.0
  0
VERTEX
  5
51F
330
505
100
AcDbEntity
  8
001
370
    50
100
AcDbVertex
100
AcDb2dVertex
 10
47.355507
 20
-39.920352
 30
0.0
  0
VERTEX
  5
520
330
505
100
AcDbEntity
  8
001
370
    50
100
AcDbVertex
100
AcDb2dVertex
 10
47.352941
 20
-40.002399
 30
0.0
  0
VERTEX
  5
521
330
505
100
AcDbEntity
  8
001
370
    50
100
AcDbVertex
100
AcDb2dVertex
 10
47.35577
 20
-40.061201
 30
0.0
  0
SEQEND
  5
506
330
505
100
AcDbEntity
  8
001
370
    50
  0
LINE
  5
522
330
1F
100
AcDbEntity
  8
001
370
    50
100
AcDbLine
 10
55.959379
 20
-23.434225
 30
0.0
 11
56.095785
 21
-23.308812
 31
0.0
  0
LINE
  5
523
330
1F
100
AcDbEntity
  8
001
370
    50
100
AcDbLine
 10
63.345535
 20
-11.472537
 30
0.0
 11
63.354179
 21
-11.572537
 31
0.0
  0
POLYLINE
  5
524
330
1F
100
AcDbEntity
  8
001
370
    50
100
AcDb2dPolyline
 66
     1
 10
0.0
 20
0.0
 30
0.0
  0
VERTEX
  5
526
330
524
100
AcDbEntity
  8
001
370
    50
100
AcDbVertex
100
AcDb2dVertex
 10
63.628443
 20
-58.265022
 30
0.0
  0
VERTEX
  5
527
330
524
100
AcDbEntity
  8
001
370
    50
100
AcDbVertex
100
AcDb2dVertex
 10
63.589472
 20
-58.133323
 30
0.0
  0
VERTEX
  5
528
330
524
100
AcDbEntity
  8
001
370
    50
100
AcDbVertex
100
AcDb2dVertex
 10
63.549116
 20
-58.002049
 30
0.0
  0
VERTEX
  5
529
330
524
100
AcDbEntity
  8
001
370
    50
100
AcDbVertex
100
AcDb2dVertex
 10
63.390859
 20
-57.557697
 30
0.0
  0
VERTEX
  5
52A
330
524
100
AcDbEntity
  8
001
370
    50
100
AcDbVertex
100
AcDb2dVertex
 10
63.203574
 20
-57.124448
 30
0.0
  0
VERTEX
  5
52B
330
524
100
AcDbEntity
  8
001
370
    50
100
AcDbVertex
100
AcDb2dVertex
 10
62.976492
 20
-56.678269
 30
0.0
  0
VERTEX
  5
52C
330
524
100
AcDbEntity
  8
001
370
    50
100
AcDbVertex
100
AcDb2dVertex
 10
62.72098
 20
-56.247877
 30
0.0
  0
VERTEX
  5
52D
330
524
100
AcDbEntity
  8
001
370
    50
100
AcDbVertex
100
AcDb2dVertex
 10
62.417448
 20
-55.808183
 30
0.0
  0
VERTEX
  5
52E
330
524
100
AcDbEntity
  8
001
370
    50
100
AcDbVertex
100
AcDb2dVertex
 10
62.084005
 20
-55.390676
 30
0.0
  0
VERTEX
  5
52F
330
524
100
AcDbEntity
  8
001
370
    50
100
AcDbVertex
100
AcDb2dVertex
 10
61.789375
 20
-55.065772
 30
0.0
  0
VERTEX
  5
530
330
524
100
AcDbEntity
  8
001
370
    50
100
AcDbVertex
100
AcDb2dVertex
 10
61.47675
 20
-54.758156
 30
0.0
  0
VERTEX
  5
531
330
524
100
AcDbEntity
  8
001
370
    50
100
AcDbVertex
100
AcDb2dVertex
 10
61.119476
 20
-54.446365
 30
0.0
  0
VERTEX
  5
532
330
524
100
AcDbEntity
  8
001
370
    50
100
AcDbVertex
100
AcDb2dVertex
 10
60.743657
 20
-54.157442
 30
0.0
  0
VERTEX
  5
533
330
524
100
AcDbEntity
  8
001
370
    50
100
AcDbVertex
100
AcDb2dVertex
 10
60.717872
 20
-54.138933
 30
0.0
  0
VERTEX
  5
534
330
524
100
AcDbEntity
  8
001
370
    50
100
AcDbVertex
100
AcDb2dVertex
 10
60.69205
 20
-54.120478
 30
0.0
  0
SEQEND
  5
525
330
524
100
AcDbEntity
  8
001
370
    50
  0
POLYLINE
  5
535
330
1F
100
AcDbEntity
  8
001
370
    50
100
AcDb2dPolyline
 66
     1
 10
0.0
 20
0.0
 30
0.0
  0
VERTEX
  5
537
330
535
100
AcDbEntity
  8
001
370
    50
100
AcDbVertex
100
AcDb2dVertex
 10
48.25702
 20
-52.572537
 30
0.0
  0
VERTEX
  5
538
330
535
100
AcDbEntity
  8
001
370
    50
100
AcDbVertex
100
AcDb2dVertex
 10
47.761288
 20
-53.661614
 30
0.0
  0
VERTEX
  5
539
330
535
100
AcDbEntity
  8
001
370
    50
100
AcDbVertex
100
AcDb2dVertex
 10
47.25476
 20
-54.745561
 30
0.0
  0
VERTEX
  5
53A
330
535
100
AcDbEntity
  8
001
370
    50
100
AcDbVertex
100
AcDb2dVertex
 10
46.729156
 20
-55.821615
 30
0.0
  0
VERTEX
  5
53B
330
535
100
AcDbEntity
  8
001
370
    50
100
AcDbVertex
100
AcDb2dVertex
 10
46.189133
 20
-56.890646
 30
0.0
  0
VERTEX
  5
53C
330
535
100
AcDbEntity
  8
001
370
    50
100
AcDbVertex
100
AcDb2dVertex
 10
45.084472
 20
-59.019568
 30
0.0
  0
VERTEX
  5
53D
330
535
100
AcDbEntity
  8
001
370
    50
100
AcDbVertex
100
AcDb2dVertex
 10
43.956287
 20
-61.136022
 30
0.0
  0
VERTEX
  5
53E
330
535
100
AcDbEntity
  8
001
370
    50
100
AcDbVertex
100
AcDb2dVertex
 10
42.916819
 20
-63.049155
 30
0.0
  0
VERTEX
  5
53F
330
535
100
AcDbEntity
  8
001
370
    50
100
AcDbVertex
100
AcDb2dVertex
 10
41.869876
 20
-64.958242
 30
0.0
  0
SEQEND
  5
536
330
535
100
AcDbEntity
  8
001
370
    50
  0
POLYLINE
  5
540
330
1F
100
AcDbEntity
  8
001
370
    50
100
AcDb2dPolyline
 66
     1
 10
0.0
 20
0.0
 30
0.0
  0
VERTEX
  5
542
330
540
100
AcDbEntity
  8
001
370
    50
100
AcDbVertex
100
AcDb2dVertex
 10
41.869876
 20
-62.808739
 30
0.0
  0
VERTEX
  5
543
330
540
100
AcDbEntity
  8
001
370
    50
100
AcDbVertex
100
AcDb2dVertex
 10
42.601961
 20
-61.264751
 30
0.0
  0
VERTEX
  5
544
330
540
100
AcDbEntity
  8
001
370
    50
100
AcDbVertex
100
AcDb2dVertex
 10
43.319775
 20
-59.714111
 30
0.0
  0
VERTEX
  5
545
330
540
100
AcDbEntity
  8
001
370
    50
100
AcDbVertex
100
AcDb2dVertex
 10
44.011219
 20
-58.149383
 30
0.0
  0
VERTEX
  5
546
330
540
100
AcDbEntity
  8
001
370
    50
100
AcDbVertex
100
AcDb2dVertex
 10
44.668462
 20
-56.570066
 30
0.0
  0
VERTEX
  5
547
330
540
100
AcDbEntity
  8
001
370
    50
100
AcDbVertex
100
AcDb2dVertex
 10
44.984499
 20
-55.769308
 30
0.0
  0
VERTEX
  5
548
330
540
100
AcDbEntity
  8
001
370
    50
100
AcDbVertex
100
AcDb2dVertex
 10
45.28957
 20
-54.964256
 30
0.0
  0
VERTEX
  5
549
330
540
100
AcDbEntity
  8
001
370
    50
100
AcDbVertex
100
AcDb2dVertex
 10
45.582321
 20
-54.153521
 30
0.0
  0
VERTEX
  5
54A
330
540
100
AcDbEntity
  8
001
370
    50
100
AcDbVertex
100
AcDb2dVertex
 10
45.857532
 20
-53.336812
 30
0.0
  0
VERTEX
  5
54B
330
540
100
AcDbEntity
  8
001
370
    50
100
AcDbVertex
100
AcDb2dVertex
 10
46.112214
 20
-52.514281
 30
0.0
  0
VERTEX
  5
54C
330
540
100
AcDbEntity
  8
001
370
    50
100
AcDbVertex
100
AcDb2dVertex
 10
46.355315
 20
-51.688072
 30
0.0
  0
SEQEND
  5
541
330
540
100
AcDbEntity
  8
001
370
    50
  0
POLYLINE
  5
54D
330
1F
100
AcDbEntity
  8
001
370
    50
100
AcDb2dPolyline
 66
     1
 10
0.0
 20
0.0
 30
0.0
  0
VERTEX
  5
54F
330
54D
100
AcDbEntity
  8
001
370
    50
100
AcDbVertex
100
AcDb2dVertex
 10
63.859271
 20
-18.45494
 30
0.0
  0
VERTEX
  5
550
330
54D
100
AcDbEntity
  8
001
370
    50
100
AcDbVertex
100
AcDb2dVertex
 10
63.876664
 20
-18.755058
 30
0.0
  0
VERTEX
  5
551
330
54D
100
AcDbEntity
  8
001
370
    50
100
AcDbVertex
100
AcDb2dVertex
 10
63.891653
 20
-19.055286
 30
0.0
  0
VERTEX
  5
552
330
54D
100
AcDbEntity
  8
001
370
    50
100
AcDbVertex
100
AcDb2dVertex
 10
63.902587
 20
-19.362347
 30
0.0
  0
VERTEX
  5
553
330
54D
100
AcDbEntity
  8
001
370
    50
100
AcDbVertex
100
AcDb2dVertex
 10
63.909555
 20
-19.669543
 30
0.0
  0
VERTEX
  5
554
330
54D
100
AcDbEntity
  8
001
370
    50
100
AcDbVertex
100
AcDb2dVertex
 10
63.914453
 20
-20.302434
 30
0.0
  0
VERTEX
  5
555
330
54D
100
AcDbEntity
  8
001
370
    50
100
AcDbVertex
100
AcDb2dVertex
 10
63.907422
 20
-20.935315
 30
0.0
  0
VERTEX
  5
556
330
54D
100
AcDbEntity
  8
001
370
    50
100
AcDbVertex
100
AcDb2dVertex
 10
63.88796
 20
-21.585072
 30
0.0
  0
VERTEX
  5
557
330
54D
100
AcDbEntity
  8
001
370
    50
100
AcDbVertex
100
AcDb2dVertex
 10
63.855289
 20
-22.234263
 30
0.0
  0
VERTEX
  5
558
330
54D
100
AcDbEntity
  8
001
370
    50
100
AcDbVertex
100
AcDb2dVertex
 10
63.83889
 20
-22.487836
 30
0.0
  0
VERTEX
  5
559
330
54D
100
AcDbEntity
  8
001
370
    50
100
AcDbVertex
100
AcDb2dVertex
 10
63.821403
 20
-22.741338
 30
0.0
  0
SEQEND
  5
54E
330
54D
100
AcDbEntity
  8
001
370
    50
  0
POLYLINE
  5
55A
330
1F
100
AcDbEntity
  8
001
370
    50
100
AcDb2dPolyline
 66
     1
 10
0.0
 20
0.0
 30
0.0
  0
VERTEX
  5
55C
330
55A
100
AcDbEntity
  8
001
370
    50
100
AcDbVertex
100
AcDb2dVertex
 10
63.859271
 20
-18.45494
 30
0.0
  0
VERTEX
  5
55D
330
55A
100
AcDbEntity
  8
001
370
    50
100
AcDbVertex
100
AcDb2dVertex
 10
63.709899
 20
-16.27516
 30
0.0
  0
VERTEX
  5
55E
330
55A
100
AcDbEntity
  8
001
370
    50
100
AcDbVertex
100
AcDb2dVertex
 10
63.476299
 20
-13.090456
 30
0.0
  0
VERTEX
  5
55F
330
55A
100
AcDbEntity
  8
001
370
    50
100
AcDbVertex
100
AcDb2dVertex
 10
63.405015
 20
-12.189092
 30
0.0
  0
VERTEX
  5
560
330
55A
100
AcDbEntity
  8
001
370
    50
100
AcDbVertex
100
AcDb2dVertex
 10
63.354179
 20
-11.572537
 30
0.0
  0
SEQEND
  5
55B
330
55A
100
AcDbEntity
  8
001
370
    50
  0
POLYLINE
  5
561
330
1F
100
AcDbEntity
  8
001
370
    50
100
AcDb2dPolyline
 66
     1
 10
0.0
 20
0.0
 30
0.0
  0
VERTEX
  5
563
330
561
100
AcDbEntity
  8
001
370
    50
100
AcDbVertex
100
AcDb2dVertex
 10
56.095785
 20
-79.121007
 30
0.0
  0
VERTEX
  5
564
330
561
100
AcDbEntity
  8
001
370
    50
100
AcDbVertex
100
AcDb2dVertex
 10
56.63982
 20
-79.101995
 30
0.0
  0
VERTEX
  5
565
330
561
100
AcDbEntity
  8
001
370
    50
100
AcDbVertex
100
AcDb2dVertex
 10
57.434944
 20
-79.07405
 30
0.0
  0
VERTEX
  5
566
330
561
100
AcDbEntity
  8
001
370
    50
100
AcDbVertex
100
AcDb2dVertex
 10
58.228951
 20
-79.045925
 30
0.0
  0
VERTEX
  5
567
330
561
100
AcDbEntity
  8
001
370
    50
100
AcDbVertex
100
AcDb2dVertex
 10
58.772216
 20
-79.026574
 30
0.0
  0
SEQEND
  5
562
330
561
100
AcDbEntity
  8
001
370
    50
  0
LINE
  5
568
330
1F
100
AcDbEntity
  8
001
370
    50
100
AcDbLine
 10
54.568311
 20
-76.576302
 30
0.0
 11
56.095785
 21
-79.121007
 31
0.0
  0
POLYLINE
  5
569
330
1F
100
AcDbEntity
  8
001
370
    50
100
AcDb2dPolyline
 66
     1
 10
0.0
 20
0.0
 30
0.0
  0
VERTEX
  5
56B
330
569
100
AcDbEntity
  8
001
370
    50
100
AcDbVertex
100
AcDb2dVertex
 10
51.083796
 20
-68.061711
 30
0.0
  0
VERTEX
  5
56C
330
569
100
AcDbEntity
  8
001
370
    50
100
AcDbVertex
100
AcDb2dVertex
 10
51.071609
 20
-67.954163
 30
0.0
  0
VERTEX
  5
56D
330
569
100
AcDbEntity
  8
001
370
    50
100
AcDbVertex
100
AcDb2dVertex
 10
51.049704
 20
-67.801072
 30
0.0
  0
VERTEX
  5
56E
330
569
100
AcDbEntity
  8
001
370
    50
100
AcDbVertex
100
AcDb2dVertex
 10
50.912138
 20
-67.262096
 30
0.0
  0
VERTEX
  5
56F
330
569
100
AcDbEntity
  8
001
370
    50
100
AcDbVertex
100
AcDb2dVertex
 10
50.695118
 20
-66.822016
 30
0.0
  0
VERTEX
  5
570
330
569
100
AcDbEntity
  8
001
370
    50
100
AcDbVertex
100
AcDb2dVertex
 10
50.223599
 20
-66.21547
 30
0.0
  0
VERTEX
  5
571
330
569
100
AcDbEntity
  8
001
370
    50
100
AcDbVertex
100
AcDb2dVertex
 10
49.602472
 20
-65.72394
 30
0.0
  0
VERTEX
  5
572
330
569
100
AcDbEntity
  8
001
370
    50
100
AcDbVertex
100
AcDb2dVertex
 10
49.367971
 20
-65.602145
 30
0.0
  0
VERTEX
  5
573
330
569
100
AcDbEntity
  8
001
370
    50
100
AcDbVertex
100
AcDb2dVertex
 10
49.130875
 20
-65.502938
 30
0.0
  0
VERTEX
  5
574
330
569
100
AcDbEntity
  8
001
370
    50
100
AcDbVertex
100
AcDb2dVertex
 10
48.893764
 20
-65.424509
 30
0.0
  0
VERTEX
  5
575
330
569
100
AcDbEntity
  8
001
370
    50
100
AcDbVertex
100
AcDb2dVertex
 10
48.628257
 20
-65.367593
 30
0.0
  0
VERTEX
  5
576
330
569
100
AcDbEntity
  8
001
370
    50
100
AcDbVertex
100
AcDb2dVertex
 10
48.328698
 20
-65.333389
 30
0.0
  0
VERTEX
  5
577
330
569
100
AcDbEntity
  8
001
370
    50
100
AcDbVertex
100
AcDb2dVertex
 10
48.109888
 20
-65.322016
 30
0.0
  0
SEQEND
  5
56A
330
569
100
AcDbEntity
  8
001
370
    50
  0
POLYLINE
  5
578
330
1F
100
AcDbEntity
  8
001
370
    50
100
AcDb2dPolyline
 66
     1
 10
0.0
 20
0.0
 30
0.0
  0
VERTEX
  5
57A
330
578
100
AcDbEntity
  8
001
370
    50
100
AcDbVertex
100
AcDb2dVertex
 10
56.095785
 20
-79.121007
 30
0.0
  0
VERTEX
  5
57B
330
578
100
AcDbEntity
  8
001
370
    50
100
AcDbVertex
100
AcDb2dVertex
 10
56.23679
 20
-79.241949
 30
0.0
  0
VERTEX
  5
57C
330
578
100
AcDbEntity
  8
001
370
    50
100
AcDbVertex
100
AcDb2dVertex
 10
56.451103
 20
-79.40809
 30
0.0
  0
VERTEX
  5
57D
330
578
100
AcDbEntity
  8
001
370
    50
100
AcDbVertex
100
AcDb2dVertex
 10
56.693066
 20
-79.563372
 30
0.0
  0
VERTEX
  5
57E
330
578
100
AcDbEntity
  8
001
370
    50
100
AcDbVertex
100
AcDb2dVertex
 10
56.868125
 20
-79.653183
 30
0.0
  0
SEQEND
  5
579
330
578
100
AcDbEntity
  8
001
370
    50
  0
LINE
  5
57F
330
1F
100
AcDbEntity
  8
001
370
    50
100
AcDbLine
 10
41.869876
 20
-23.853099
 30
0.0
 11
41.869876
 21
-20.666191
 31
0.0
  0
LINE
  5
580
330
1F
100
AcDbEntity
  8
001
370
    50
100
AcDbLine
 10
41.869876
 20
-20.666191
 30
0.0
 11
42.858031
 21
-20.308037
 31
0.0
  0
POLYLINE
  5
581
330
1F
100
AcDbEntity
  8
001
370
    50
100
AcDb2dPolyline
 66
     1
 10
0.0
 20
0.0
 30
0.0
  0
VERTEX
  5
583
330
581
100
AcDbEntity
  8
001
370
    50
100
AcDbVertex
100
AcDb2dVertex
 10
58.772216
 20
-19.335199
 30
0.0
  0
VERTEX
  5
584
330
581
100
AcDbEntity
  8
001
370
    50
100
AcDbVertex
100
AcDb2dVertex
 10
56.868471
 20
-19.449129
 30
0.0
  0
VERTEX
  5
585
330
581
100
AcDbEntity
  8
001
370
    50
100
AcDbVertex
100
AcDb2dVertex
 10
54.086142
 20
-19.616776
 30
0.0
  0
VERTEX
  5
586
330
581
100
AcDbEntity
  8
001
370
    50
100
AcDbVertex
100
AcDb2dVertex
 10
50.864601
 20
-19.812593
 30
0.0
  0
VERTEX
  5
587
330
581
100
AcDbEntity
  8
001
370
    50
100
AcDbVertex
100
AcDb2dVertex
 10
48.39375
 20
-19.964287
 30
0.0
  0
VERTEX
  5
588
330
581
100
AcDbEntity
  8
001
370
    50
100
AcDbVertex
100
AcDb2dVertex
 10
46.110619
 20
-20.105452
 30
0.0
  0
VERTEX
  5
589
330
581
100
AcDbEntity
  8
001
370
    50
100
AcDbVertex
100
AcDb2dVertex
 10
44.202837
 20
-20.22405
 30
0.0
  0
VERTEX
  5
58A
330
581
100
AcDbEntity
  8
001
370
    50
100
AcDbVertex
100
AcDb2dVertex
 10
42.858031
 20
-20.308037
 30
0.0
  0
SEQEND
  5
582
330
581
100
AcDbEntity
  8
001
370
    50
  0
POLYLINE
  5
58B
330
1F
100
AcDbEntity
  8
001
370
    50
100
AcDb2dPolyline
 66
     1
 10
0.0
 20
0.0
 30
0.0
  0
VERTEX
  5
58D
330
58B
100
AcDbEntity
  8
001
370
    50
100
AcDbVertex
100
AcDb2dVertex
 10
52.427018
 20
-21.031868
 30
0.0
  0
VERTEX
  5
58E
330
58B
100
AcDbEntity
  8
001
370
    50
100
AcDbVertex
100
AcDb2dVertex
 10
52.426053
 20
-21.003373
 30
0.0
  0
VERTEX
  5
58F
330
58B
100
AcDbEntity
  8
001
370
    50
100
AcDbVertex
100
AcDb2dVertex
 10
52.423118
 20
-20.96294
 30
0.0
  0
VERTEX
  5
590
330
58B
100
AcDbEntity
  8
001
370
    50
100
AcDbVertex
100
AcDb2dVertex
 10
52.400724
 20
-20.84834
 30
0.0
  0
VERTEX
  5
591
330
58B
100
AcDbEntity
  8
001
370
    50
100
AcDbVertex
100
AcDb2dVertex
 10
52.360206
 20
-20.752704
 30
0.0
  0
VERTEX
  5
592
330
58B
100
AcDbEntity
  8
001
370
    50
100
AcDbVertex
100
AcDb2dVertex
 10
52.29847
 20
-20.652187
 30
0.0
  0
VERTEX
  5
593
330
58B
100
AcDbEntity
  8
001
370
    50
100
AcDbVertex
100
AcDb2dVertex
 10
52.222216
 20
-20.557615
 30
0.0
  0
VERTEX
  5
594
330
58B
100
AcDbEntity
  8
001
370
    50
100
AcDbVertex
100
AcDb2dVertex
 10
52.122646
 20
-20.464012
 30
0.0
  0
VERTEX
  5
595
330
58B
100
AcDbEntity
  8
001
370
    50
100
AcDbVertex
100
AcDb2dVertex
 10
52.013343
 20
-20.383601
 30
0.0
  0
VERTEX
  5
596
330
58B
100
AcDbEntity
  8
001
370
    50
100
AcDbVertex
100
AcDb2dVertex
 10
51.545616
 20
-20.159241
 30
0.0
  0
VERTEX
  5
597
330
58B
100
AcDbEntity
  8
001
370
    50
100
AcDbVertex
100
AcDb2dVertex
 10
51.034435
 20
-20.036743
 30
0.0
  0
VERTEX
  5
598
330
58B
100
AcDbEntity
  8
001
370
    50
100
AcDbVertex
100
AcDb2dVertex
 10
50.612689
 20
-19.990529
 30
0.0
  0
VERTEX
  5
599
330
58B
100
AcDbEntity
  8
001
370
    50
100
AcDbVertex
100
AcDb2dVertex
 10
50.19082
 20
-19.984021
 30
0.0
  0
VERTEX
  5
59A
330
58B
100
AcDbEntity
  8
001
370
    50
100
AcDbVertex
100
AcDb2dVertex
 10
49.969525
 20
-19.994954
 30
0.0
  0
VERTEX
  5
59B
330
58B
100
AcDbEntity
  8
001
370
    50
100
AcDbVertex
100
AcDb2dVertex
 10
49.748692
 20
-20.015306
 30
0.0
  0
VERTEX
  5
59C
330
58B
100
AcDbEntity
  8
001
370
    50
100
AcDbVertex
100
AcDb2dVertex
 10
49.528929
 20
-20.044967
 30
0.0
  0
VERTEX
  5
59D
330
58B
100
AcDbEntity
  8
001
370
    50
100
AcDbVertex
100
AcDb2dVertex
 10
49.310838
 20
-20.084143
 30
0.0
  0
VERTEX
  5
59E
330
58B
100
AcDbEntity
  8
001
370
    50
100
AcDbVertex
100
AcDb2dVertex
 10
48.901178
 20
-20.186135
 30
0.0
  0
VERTEX
  5
59F
330
58B
100
AcDbEntity
  8
001
370
    50
100
AcDbVertex
100
AcDb2dVertex
 10
48.500629
 20
-20.325033
 30
0.0
  0
VERTEX
  5
5A0
330
58B
100
AcDbEntity
  8
001
370
    50
100
AcDbVertex
100
AcDb2dVertex
 10
48.030243
 20
-20.554567
 30
0.0
  0
VERTEX
  5
5A1
330
58B
100
AcDbEntity
  8
001
370
    50
100
AcDbVertex
100
AcDb2dVertex
 10
47.624662
 20
-20.882934
 30
0.0
  0
VERTEX
  5
5A2
330
58B
100
AcDbEntity
  8
001
370
    50
100
AcDbVertex
100
AcDb2dVertex
 10
47.536062
 20
-20.98926
 30
0.0
  0
VERTEX
  5
5A3
330
58B
100
AcDbEntity
  8
001
370
    50
100
AcDbVertex
100
AcDb2dVertex
 10
47.460219
 20
-21.099422
 30
0.0
  0
VERTEX
  5
5A4
330
58B
100
AcDbEntity
  8
001
370
    50
100
AcDbVertex
100
AcDb2dVertex
 10
47.407588
 20
-21.19931
 30
0.0
  0
VERTEX
  5
5A5
330
58B
100
AcDbEntity
  8
001
370
    50
100
AcDbVertex
100
AcDb2dVertex
 10
47.369583
 20
-21.320524
 30
0.0
  0
VERTEX
  5
5A6
330
58B
100
AcDbEntity
  8
001
370
    50
100
AcDbVertex
100
AcDb2dVertex
 10
47.360723
 20
-21.36625
 30
0.0
  0
VERTEX
  5
5A7
330
58B
100
AcDbEntity
  8
001
370
    50
100
AcDbVertex
100
AcDb2dVertex
 10
47.35577
 20
-21.398671
 30
0.0
  0
SEQEND
  5
58C
330
58B
100
AcDbEntity
  8
001
370
    50
  0
POLYLINE
  5
5A8
330
1F
100
AcDbEntity
  8
001
370
    50
100
AcDb2dPolyline
 66
     1
 10
0.0
 20
0.0
 30
0.0
  0
VERTEX
  5
5AA
330
5A8
100
AcDbEntity
  8
001
370
    50
100
AcDbVertex
100
AcDb2dVertex
 10
52.422856
 20
-21.103788
 30
0.0
  0
VERTEX
  5
5AB
330
5A8
100
AcDbEntity
  8
001
370
    50
100
AcDbVertex
100
AcDb2dVertex
 10
52.424349
 20
-21.089166
 30
0.0
  0
VERTEX
  5
5AC
330
5A8
100
AcDbEntity
  8
001
370
    50
100
AcDbVertex
100
AcDb2dVertex
 10
52.425977
 20
-21.067753
 30
0.0
  0
VERTEX
  5
5AD
330
5A8
100
AcDbEntity
  8
001
370
    50
100
AcDbVertex
100
AcDb2dVertex
 10
52.42682
 20
-21.046455
 30
0.0
  0
VERTEX
  5
5AE
330
5A8
100
AcDbEntity
  8
001
370
    50
100
AcDbVertex
100
AcDb2dVertex
 10
52.427018
 20
-21.031868
 30
0.0
  0
SEQEND
  5
5A9
330
5A8
100
AcDbEntity
  8
001
370
    50
  0
POLYLINE
  5
5AF
330
1F
100
AcDbEntity
  8
001
370
    50
100
AcDb2dPolyline
 66
     1
 10
0.0
 20
0.0
 30
0.0
  0
VERTEX
  5
5B1
330
5AF
100
AcDbEntity
  8
001
370
    50
100
AcDbVertex
100
AcDb2dVertex
 10
47.35577
 20
-21.398671
 30
0.0
  0
VERTEX
  5
5B2
330
5AF
100
AcDbEntity
  8
001
370
    50
100
AcDbVertex
100
AcDb2dVertex
 10
47.352941
 20
-21.457473
 30
0.0
  0
VERTEX
  5
5B3
330
5AF
100
AcDbEntity
  8
001
370
    50
100
AcDbVertex
100
AcDb2dVertex
 10
47.355507
 20
-21.539519
 30
0.0
  0
VERTEX
  5
5B4
330
5AF
100
AcDbEntity
  8
001
370
    50
100
AcDbVertex
100
AcDb2dVertex
 10
47.377262
 20
-21.652894
 30
0.0
  0
VERTEX
  5
5B5
330
5AF
100
AcDbEntity
  8
001
370
    50
100
AcDbVertex
100
AcDb2dVertex
 10
47.418419
 20
-21.749756
 30
0.0
  0
VERTEX
  5
5B6
330
5AF
100
AcDbEntity
  8
001
370
    50
100
AcDbVertex
100
AcDb2dVertex
 10
47.480353
 20
-21.85065
 30
0.0
  0
VERTEX
  5
5B7
330
5AF
100
AcDbEntity
  8
001
370
    50
100
AcDbVertex
100
AcDb2dVertex
 10
47.556409
 20
-21.944844
 30
0.0
  0
VERTEX
  5
5B8
330
5AF
100
AcDbEntity
  8
001
370
    50
100
AcDbVertex
100
AcDb2dVertex
 10
47.655908
 20
-22.03831
 30
0.0
  0
VERTEX
  5
5B9
330
5AF
100
AcDbEntity
  8
001
370
    50
100
AcDbVertex
100
AcDb2dVertex
 10
47.765283
 20
-22.118858
 30
0.0
  0
VERTEX
  5
5BA
330
5AF
100
AcDbEntity
  8
001
370
    50
100
AcDbVertex
100
AcDb2dVertex
 10
48.233107
 20
-22.343406
 30
0.0
  0
VERTEX
  5
5BB
330
5AF
100
AcDbEntity
  8
001
370
    50
100
AcDbVertex
100
AcDb2dVertex
 10
48.74419
 20
-22.465716
 30
0.0
  0
VERTEX
  5
5BC
330
5AF
100
AcDbEntity
  8
001
370
    50
100
AcDbVertex
100
AcDb2dVertex
 10
49.165918
 20
-22.511896
 30
0.0
  0
VERTEX
  5
5BD
330
5AF
100
AcDbEntity
  8
001
370
    50
100
AcDbVertex
100
AcDb2dVertex
 10
49.587806
 20
-22.518438
 30
0.0
  0
VERTEX
  5
5BE
330
5AF
100
AcDbEntity
  8
001
370
    50
100
AcDbVertex
100
AcDb2dVertex
 10
49.809102
 20
-22.507509
 30
0.0
  0
VERTEX
  5
5BF
330
5AF
100
AcDbEntity
  8
001
370
    50
100
AcDbVertex
100
AcDb2dVertex
 10
50.029933
 20
-22.487154
 30
0.0
  0
VERTEX
  5
5C0
330
5AF
100
AcDbEntity
  8
001
370
    50
100
AcDbVertex
100
AcDb2dVertex
 10
50.249695
 20
-22.457492
 30
0.0
  0
VERTEX
  5
5C1
330
5AF
100
AcDbEntity
  8
001
370
    50
100
AcDbVertex
100
AcDb2dVertex
 10
50.467787
 20
-22.418316
 30
0.0
  0
VERTEX
  5
5C2
330
5AF
100
AcDbEntity
  8
001
370
    50
100
AcDbVertex
100
AcDb2dVertex
 10
50.877447
 20
-22.316325
 30
0.0
  0
VERTEX
  5
5C3
330
5AF
100
AcDbEntity
  8
001
370
    50
100
AcDbVertex
100
AcDb2dVertex
 10
51.277996
 20
-22.177427
 30
0.0
  0
VERTEX
  5
5C4
330
5AF
100
AcDbEntity
  8
001
370
    50
100
AcDbVertex
100
AcDb2dVertex
 10
51.748382
 20
-21.947892
 30
0.0
  0
VERTEX
  5
5C5
330
5AF
100
AcDbEntity
  8
001
370
    50
100
AcDbVertex
100
AcDb2dVertex
 10
52.153963
 20
-21.619526
 30
0.0
  0
VERTEX
  5
5C6
330
5AF
100
AcDbEntity
  8
001
370
    50
100
AcDbVertex
100
AcDb2dVertex
 10
52.242564
 20
-21.5132
 30
0.0
  0
VERTEX
  5
5C7
330
5AF
100
AcDbEntity
  8
001
370
    50
100
AcDbVertex
100
AcDb2dVertex
 10
52.318406
 20
-21.403037
 30
0.0
  0
VERTEX
  5
5C8
330
5AF
100
AcDbEntity
  8
001
370
    50
100
AcDbVertex
100
AcDb2dVertex
 10
52.371038
 20
-21.303149
 30
0.0
  0
VERTEX
  5
5C9
330
5AF
100
AcDbEntity
  8
001
370
    50
100
AcDbVertex
100
AcDb2dVertex
 10
52.409043
 20
-21.181936
 30
0.0
  0
VERTEX
  5
5CA
330
5AF
100
AcDbEntity
  8
001
370
    50
100
AcDbVertex
100
AcDb2dVertex
 10
52.417902
 20
-21.136209
 30
0.0
  0
VERTEX
  5
5CB
330
5AF
100
AcDbEntity
  8
001
370
    50
100
AcDbVertex
100
AcDb2dVertex
 10
52.422856
 20
-21.103788
 30
0.0
  0
SEQEND
  5
5B0
330
5AF
100
AcDbEntity
  8
001
370
    50
  0
LINE
  5
5CC
330
1F
100
AcDbEntity
  8
001
370
    50
100
AcDbLine
 10
41.869876
 20
-28.382281
 30
0.0
 11
41.869876
 21
-45.739935
 31
0.0
  0
LINE
  5
5CD
330
1F
100
AcDbEntity
  8
001
  6
CENTER
370
     9
100
AcDbLine
 10
39.318095
 20
-45.572537
 30
0.0
 11
163.083367
 21
-45.572537
 31
0.0
  0
LINE
  5
5CE
330
1F
100
AcDbEntity
  8
001
370
    50
100
AcDbLine
 10
56.471765
 20
-70.135964
 30
0.0
 11
56.471765
 21
-71.868015
 31
0.0
  0
LINE
  5
5CF
330
1F
100
AcDbEntity
  8
001
370
    50
100
AcDbLine
 10
53.471765
 20
-71.868015
 30
0.0
 11
53.471765
 21
-70.135964
 31
0.0
  0
LINE
  5
5D0
330
1F
100
AcDbEntity
  8
001
370
    50
100
AcDbLine
 10
53.471765
 20
-70.135964
 30
0.0
 11
54.971765
 21
-69.269938
 31
0.0
  0
LINE
  5
5D1
330
1F
100
AcDbEntity
  8
001
370
    50
100
AcDbLine
 10
56.471765
 20
-71.868015
 30
0.0
 11
54.971765
 21
-72.73404
 31
0.0
  0
LINE
  5
5D2
330
1F
100
AcDbEntity
  8
001
370
    50
100
AcDbLine
 10
54.971765
 20
-72.73404
 30
0.0
 11
53.471765
 21
-71.868015
 31
0.0
  0
LINE
  5
5D3
330
1F
100
AcDbEntity
  8
001
370
    50
100
AcDbLine
 10
56.471765
 20
-70.135964
 30
0.0
 11
54.971765
 21
-69.269938
 31
0.0
  0
LINE
  5
5D4
330
1F
100
AcDbEntity
  8
001
370
    50
100
AcDbLine
 10
47.608117
 20
-67.468924
 30
0.0
 11
40.776011
 21
-79.374352
 31
0.0
  0
LINE
  5
5D5
330
1F
100
AcDbEntity
  8
001
370
    50
100
AcDbLine
 10
55.198426
 20
-80.536598
 30
0.0
 11
41.47197
 21
-80.572534
 31
0.0
  0
ARC
  5
5D6
330
1F
100
AcDbEntity
  8
001
370
    50
100
AcDbCircle
 10
41.469876
 20
-79.772537
 30
0.0
 40
0.8
100
AcDbArc
 50
150.15
 51
270.15
  0
ARC
  5
5D7
330
1F
100
AcDbEntity
  8
001
370
    50
100
AcDbCircle
 10
55.196331
 20
-79.736601
 30
0.0
 40
0.8
100
AcDbArc
 50
270.15
 51
30.15
  0
ARC
  5
5D8
330
1F
100
AcDbEntity
  8
001
370
    50
100
AcDbCircle
 10
48.301982
 20
-67.867109
 30
0.0
 40
0.8
100
AcDbArc
 50
30.15
 51
150.15
  0
LINE
  5
5D9
330
1F
100
AcDbEntity
  8
001
370
    50
100
AcDbLine
 10
41.869876
 20
-77.468215
 30
0.0
 11
41.869876
 21
-62.808739
 31
0.0
  0
POLYLINE
  5
5DA
330
1F
100
AcDbEntity
  8
001
370
    50
100
AcDb2dPolyline
 66
     1
 10
0.0
 20
0.0
 30
0.0
  0
VERTEX
  5
5DC
330
5DA
100
AcDbEntity
  8
001
370
    50
100
AcDbVertex
100
AcDb2dVertex
 10
48.109888
 20
-65.322016
 30
0.0
  0
VERTEX
  5
5DD
330
5DA
100
AcDbEntity
  8
001
370
    50
100
AcDbVertex
100
AcDb2dVertex
 10
47.891076
 20
-65.333428
 30
0.0
  0
VERTEX
  5
5DE
330
5DA
100
AcDbEntity
  8
001
370
    50
100
AcDbVertex
100
AcDb2dVertex
 10
47.59152
 20
-65.367593
 30
0.0
  0
VERTEX
  5
5DF
330
5DA
100
AcDbEntity
  8
001
370
    50
100
AcDbVertex
100
AcDb2dVertex
 10
47.326027
 20
-65.424317
 30
0.0
  0
VERTEX
  5
5E0
330
5DA
100
AcDbEntity
  8
001
370
    50
100
AcDbVertex
100
AcDb2dVertex
 10
47.088901
 20
-65.502938
 30
0.0
  0
VERTEX
  5
5E1
330
5DA
100
AcDbEntity
  8
001
370
    50
100
AcDbVertex
100
AcDb2dVertex
 10
46.85175
 20
-65.602876
 30
0.0
  0
VERTEX
  5
5E2
330
5DA
100
AcDbEntity
  8
001
370
    50
100
AcDbVertex
100
AcDb2dVertex
 10
46.617305
 20
-65.72394
 30
0.0
  0
VERTEX
  5
5E3
330
5DA
100
AcDbEntity
  8
001
370
    50
100
AcDbVertex
100
AcDb2dVertex
 10
45.997243
 20
-66.201476
 30
0.0
  0
VERTEX
  5
5E4
330
5DA
100
AcDbEntity
  8
001
370
    50
100
AcDbVertex
100
AcDb2dVertex
 10
45.524658
 20
-66.822016
 30
0.0
  0
VERTEX
  5
5E5
330
5DA
100
AcDbEntity
  8
001
370
    50
100
AcDbVertex
100
AcDb2dVertex
 10
45.304969
 20
-67.297177
 30
0.0
  0
VERTEX
  5
5E6
330
5DA
100
AcDbEntity
  8
001
370
    50
100
AcDbVertex
100
AcDb2dVertex
 10
45.170073
 20
-67.801072
 30
0.0
  0
VERTEX
  5
5E7
330
5DA
100
AcDbEntity
  8
001
370
    50
100
AcDbVertex
100
AcDb2dVertex
 10
45.13559
 20
-68.06015
 30
0.0
  0
VERTEX
  5
5E8
330
5DA
100
AcDbEntity
  8
001
370
    50
100
AcDbVertex
100
AcDb2dVertex
 10
45.124722
 20
-68.322016
 30
0.0
  0
VERTEX
  5
5E9
330
5DA
100
AcDbEntity
  8
001
370
    50
100
AcDbVertex
100
AcDb2dVertex
 10
45.137661
 20
-68.585084
 30
0.0
  0
VERTEX
  5
5EA
330
5DA
100
AcDbEntity
  8
001
370
    50
100
AcDbVertex
100
AcDb2dVertex
 10
45.170073
 20
-68.842961
 30
0.0
  0
VERTEX
  5
5EB
330
5DA
100
AcDbEntity
  8
001
370
    50
100
AcDbVertex
100
AcDb2dVertex
 10
45.288507
 20
-69.330145
 30
0.0
  0
VERTEX
  5
5EC
330
5DA
100
AcDbEntity
  8
001
370
    50
100
AcDbVertex
100
AcDb2dVertex
 10
45.524658
 20
-69.822016
 30
0.0
  0
VERTEX
  5
5ED
330
5DA
100
AcDbEntity
  8
001
370
    50
100
AcDbVertex
100
AcDb2dVertex
 10
45.7541
 20
-70.154696
 30
0.0
  0
VERTEX
  5
5EE
330
5DA
100
AcDbEntity
  8
001
370
    50
100
AcDbVertex
100
AcDb2dVertex
 10
45.93767
 20
-70.379796
 30
0.0
  0
SEQEND
  5
5DB
330
5DA
100
AcDbEntity
  8
001
370
    50
  0
POLYLINE
  5
5EF
330
1F
100
AcDbEntity
  8
001
370
    50
100
AcDb2dPolyline
 66
     1
 10
0.0
 20
0.0
 30
0.0
  0
VERTEX
  5
5F1
330
5EF
100
AcDbEntity
  8
001
370
    50
100
AcDbVertex
100
AcDb2dVertex
 10
48.336337
 20
-65.33066
 30
0.0
  0
VERTEX
  5
5F2
330
5EF
100
AcDbEntity
  8
001
370
    50
100
AcDbVertex
100
AcDb2dVertex
 10
48.214455
 20
-65.343628
 30
0.0
  0
VERTEX
  5
5F3
330
5EF
100
AcDbEntity
  8
001
370
    50
100
AcDbVertex
100
AcDb2dVertex
 10
48.044418
 20
-65.367593
 30
0.0
  0
VERTEX
  5
5F4
330
5EF
100
AcDbEntity
  8
001
370
    50
100
AcDbVertex
100
AcDb2dVertex
 10
47.776226
 20
-65.425373
 30
0.0
  0
VERTEX
  5
5F5
330
5EF
100
AcDbEntity
  8
001
370
    50
100
AcDbVertex
100
AcDb2dVertex
 10
47.541799
 20
-65.502938
 30
0.0
  0
VERTEX
  5
5F6
330
5EF
100
AcDbEntity
  8
001
370
    50
100
AcDbVertex
100
AcDb2dVertex
 10
47.305458
 20
-65.602561
 30
0.0
  0
VERTEX
  5
5F7
330
5EF
100
AcDbEntity
  8
001
370
    50
100
AcDbVertex
100
AcDb2dVertex
 10
47.070203
 20
-65.72394
 30
0.0
  0
VERTEX
  5
5F8
330
5EF
100
AcDbEntity
  8
001
370
    50
100
AcDbVertex
100
AcDb2dVertex
 10
46.449319
 20
-66.201735
 30
0.0
  0
VERTEX
  5
5F9
330
5EF
100
AcDbEntity
  8
001
370
    50
100
AcDbVertex
100
AcDb2dVertex
 10
45.977556
 20
-66.822016
 30
0.0
  0
VERTEX
  5
5FA
330
5EF
100
AcDbEntity
  8
001
370
    50
100
AcDbVertex
100
AcDb2dVertex
 10
45.758005
 20
-67.29728
 30
0.0
  0
VERTEX
  5
5FB
330
5EF
100
AcDbEntity
  8
001
370
    50
100
AcDbVertex
100
AcDb2dVertex
 10
45.622971
 20
-67.801072
 30
0.0
  0
VERTEX
  5
5FC
330
5EF
100
AcDbEntity
  8
001
370
    50
100
AcDbVertex
100
AcDb2dVertex
 10
45.58844
 20
-68.059936
 30
0.0
  0
VERTEX
  5
5FD
330
5EF
100
AcDbEntity
  8
001
370
    50
100
AcDbVertex
100
AcDb2dVertex
 10
45.57762
 20
-68.322016
 30
0.0
  0
VERTEX
  5
5FE
330
5EF
100
AcDbEntity
  8
001
370
    50
100
AcDbVertex
100
AcDb2dVertex
 10
45.590687
 20
-68.585834
 30
0.0
  0
VERTEX
  5
5FF
330
5EF
100
AcDbEntity
  8
001
370
    50
100
AcDbVertex
100
AcDb2dVertex
 10
45.622971
 20
-68.842961
 30
0.0
  0
VERTEX
  5
600
330
5EF
100
AcDbEntity
  8
001
370
    50
100
AcDbVertex
100
AcDb2dVertex
 10
45.740148
 20
-69.322592
 30
0.0
  0
VERTEX
  5
601
330
5EF
100
AcDbEntity
  8
001
370
    50
100
AcDbVertex
100
AcDb2dVertex
 10
45.977556
 20
-69.822016
 30
0.0
  0
VERTEX
  5
602
330
5EF
100
AcDbEntity
  8
001
370
    50
100
AcDbVertex
100
AcDb2dVertex
 10
46.062472
 20
-69.959149
 30
0.0
  0
VERTEX
  5
603
330
5EF
100
AcDbEntity
  8
001
370
    50
100
AcDbVertex
100
AcDb2dVertex
 10
46.12496
 20
-70.05343
 30
0.0
  0
SEQEND
  5
5F0
330
5EF
100
AcDbEntity
  8
001
370
    50
  0
LINE
  5
604
330
1F
100
AcDbEntity
  8
001
370
    50
100
AcDbLine
 10
48.993753
 20
-67.465297
 30
0.0
 11
49.779686
 21
-68.81838
 31
0.0
  0
LINE
  5
605
330
1F
100
AcDbEntity
  8
001
370
    50
100
AcDbLine
 10
54.357046
 20
-76.698882
 30
0.0
 11
55.888102
 21
-79.334788
 31
0.0
  0
LINE
  5
606
330
1F
100
AcDbEntity
  8
001
370
    50
100
AcDbLine
 10
56.000898
 20
-79.716072
 30
0.0
 11
58.772216
 21
-79.672537
 31
0.0
  0
POLYLINE
  5
607
330
1F
100
AcDbEntity
  8
001
370
    50
100
AcDb2dPolyline
 66
     1
 10
0.0
 20
0.0
 30
0.0
  0
VERTEX
  5
609
330
607
100
AcDbEntity
  8
001
370
    50
100
AcDbVertex
100
AcDb2dVertex
 10
55.99368
 20
-79.67152
 30
0.0
  0
VERTEX
  5
60A
330
607
100
AcDbEntity
  8
001
370
    50
100
AcDbVertex
100
AcDb2dVertex
 10
56.171325
 20
-79.667813
 30
0.0
  0
VERTEX
  5
60B
330
607
100
AcDbEntity
  8
001
370
    50
100
AcDbVertex
100
AcDb2dVertex
 10
56.430961
 20
-79.662379
 30
0.0
  0
VERTEX
  5
60C
330
607
100
AcDbEntity
  8
001
370
    50
100
AcDbVertex
100
AcDb2dVertex
 10
56.690527
 20
-79.656925
 30
0.0
  0
VERTEX
  5
60D
330
607
100
AcDbEntity
  8
001
370
    50
100
AcDbVertex
100
AcDb2dVertex
 10
56.868125
 20
-79.653183
 30
0.0
  0
SEQEND
  5
608
330
607
100
AcDbEntity
  8
001
370
    50
  0
ARC
  5
60E
330
1F
100
AcDbEntity
  8
001
370
    50
100
AcDbCircle
 10
48.32273
 20
-75.792082
 30
0.0
 40
1.9
100
AcDbArc
 50
65.263883
 51
354.490473
  0
LINE
  5
60F
330
1F
100
AcDbEntity
  8
001
370
    50
100
AcDbLine
 10
77.669876
 20
-24.572537
 30
0.0
 11
152.669876
 21
-24.572537
 31
0.0
  0
ARC
  5
610
330
1F
100
AcDbEntity
  8
001
370
    50
100
AcDbCircle
 10
152.669876
 20
-32.572537
 30
0.0
 40
8.0
100
AcDbArc
 50
0.0
 51
90.0
  0
LINE
  5
611
330
1F
100
AcDbEntity
  8
001
370
    50
100
AcDbLine
 10
160.669876
 20
-58.572537
 30
0.0
 11
160.669876
 21
-32.572537
 31
0.0
  0
LINE
  5
612
330
1F
100
AcDbEntity
  8
001
370
    50
100
AcDbLine
 10
160.669876
 20
-45.572537
 30
0.0
 11
163.267952
 21
-47.072537
 31
0.0
  0
LINE
  5
613
330
1F
100
AcDbEntity
  8
001
370
    50
100
AcDbLine
 10
160.669876
 20
-45.572537
 30
0.0
 11
163.267952
 21
-44.072537
 31
0.0
  0
LINE
  5
614
330
1F
100
AcDbEntity
  8
001
370
    50
100
AcDbLine
 10
77.669876
 20
-66.572537
 30
0.0
 11
77.669876
 21
-24.572537
 31
0.0
  0
LINE
  5
615
330
1F
100
AcDbEntity
  8
001
370
    50
100
AcDbLine
 10
77.669876
 20
-25.072537
 30
0.0
 11
75.669876
 21
-25.072537
 31
0.0
  0
LINE
  5
616
330
1F
100
AcDbEntity
  8
001
370
    50
100
AcDbLine
 10
77.669876
 20
-66.572537
 30
0.0
 11
152.669876
 21
-66.572537
 31
0.0
  0
ARC
  5
617
330
1F
100
AcDbEntity
  8
001
370
    50
100
AcDbCircle
 10
152.669876
 20
-58.572537
 30
0.0
 40
8.0
100
AcDbArc
 50
270.0
 51
0.0
  0
LINE
  5
618
330
1F
100
AcDbEntity
  8
001
370
    50
100
AcDbLine
 10
77.669876
 20
-66.072537
 30
0.0
 11
75.669876
 21
-66.072537
 31
0.0
  0
ENDSEC
  0
SECTION
  2
OBJECTS
  0
DICTIONARY
  5
C
330
0
100
AcDbDictionary
281
     1
  3
ACAD_GROUP
350
D
  3
ACAD_LAYOUT
350
1A
  3
ACAD_MLEADERSTYLE
350
61C
  3
ACAD_MLINESTYLE
350
17
  3
ACAD_PLOTSETTINGS
350
19
  3
ACAD_PLOTSTYLENAME
350
E
  3
ACAD_SCALELIST
350
3B
  3
ACAD_TABLESTYLE
350
61B
  3
ACAD_VISUALSTYLE
350
2A
  3
AcDbVariableDictionary
350
619
  0
DICTIONARY
  5
D
102
{ACAD_REACTORS
330
C
102
}
330
C
100
AcDbDictionary
281
     1
  0
DICTIONARY
  5
1A
102
{ACAD_REACTORS
330
C
102
}
330
C
100
AcDbDictionary
281
     1
  3
Layout1
350
1E
  3
Layout2
350
26
  3
Model
350
22
  0
DICTIONARY
  5
61C
102
{ACAD_REACTORS
330
C
102
}
330
C
100
AcDbDictionary
281
     1
  0
DICTIONARY
  5
17
102
{ACAD_REACTORS
330
C
102
}
330
C
100
AcDbDictionary
281
     1
  3
Standard
350
18
  0
DICTIONARY
  5
19
102
{ACAD_REACTORS
330
C
102
}
330
C
100
AcDbDictionary
281
     1
  0
ACDBDICTIONARYWDFLT
  5
E
102
{ACAD_REACTORS
330
C
102
}
330
C
100
AcDbDictionary
281
     1
  3
Normal
350
F
100
AcDbDictionaryWithDefault
340
F
  0
DICTIONARY
  5
3B
102
{ACAD_REACTORS
330
C
102
}
330
C
100
AcDbDictionary
281
     1
  3
A0
350
3C
  3
A1
350
3D
  3
A2
350
3E
  3
A3
350
3F
  3
A4
350
40
  3
A5
350
41
  3
A6
350
42
  3
A7
350
43
  3
A8
350
44
  3
A9
350
45
  3
B0
350
46
  3
B1
350
47
  3
B2
350
48
  3
B3
350
49
  3
B4
350
4A
  3
B5
350
4B
  3
B6
350
4C
  3
B7
350
4D
  3
B8
350
4E
  3
B9
350
4F
  3
C0
350
50
  3
C1
350
51
  3
C2
350
52
  3
C3
350
53
  3
C4
350
54
  3
C5
350
55
  3
C6
350
56
  3
C7
350
57
  3
C8
350
58
  3
C9
350
59
  3
D0
350
5A
  3
D1
350
5B
  3
D2
350
5C
  0
DICTIONARY
  5
61B
102
{ACAD_REACTORS
330
C
102
}
330
C
100
AcDbDictionary
281
     1
  0
DICTIONARY
  5
2A
102
{ACAD_REACTORS
330
C
102
}
330
C
100
AcDbDictionary
281
     1
  3
2dWireframe
350
2F
  3
3D Hidden
350
31
  3
3dWireframe
350
30
  3
Basic
350
32
  3
Brighten
350
36
  3
ColorChange
350
3A
  3
Conceptual
350
34
  3
Dim
350
35
  3
Facepattern
350
39
  3
Flat
350
2B
  3
FlatWithEdges
350
2C
  3
Gouraud
350
2D
  3
GouraudWithEdges
350
2E
  3
Linepattern
350
38
  3
Realistic
350
33
  3
Thicken
350
37
  0
DICTIONARY
  5
619
102
{ACAD_REACTORS
330
C
102
}
330
C
100
AcDbDictionary
281
     1
  3
CANNOSCALE
350
61A
  3
PSOLHEIGHT
350
61E
  3
PSOLWIDTH
350
61D
  0
LAYOUT
  5
1E
102
{ACAD_REACTORS
330
1A
102
}
330
1A
100
AcDbPlotSettings
  1

  2
none_device
  4

  6

 40
0.0
 41
0.0
 42
0.0
 43
0.0
 44
0.0
 45
0.0
 46
0.0
 47
0.0
 48
0.0
 49
0.0
140
0.0
141
0.0
142
1.0
143
1.0
 70
   688
 72
     0
 73
     0
 74
     5
  7

 75
    16
147
1.0
148
0.0
149
0.0
100
AcDbLayout
  1
Layout1
 70
     1
 71
     1
 10
0.0
 20
0.0
 11
12.0
 21
9.0
 12
0.0
 22
0.0
 32
0.0
 14
1.000000E+20
 24
1.000000E+20
 34
0.0
 15
-1.000000E+20
 25
-1.000000E+20
 35
0.0
146
0.0
 13
0.0
 23
0.0
 33
0.0
 16
1.0
 26
0.0
 36
0.0
 17
0.0
 27
1.0
 37
0.0
 76
     0
330
1B
  0
LAYOUT
  5
26
102
{ACAD_REACTORS
330
1A
102
}
330
1A
100
AcDbPlotSettings
  1

  2
none_device
  4

  6

 40
0.0
 41
0.0
 42
0.0
 43
0.0
 44
0.0
 45
0.0
 46
0.0
 47
0.0
 48
0.0
 49
0.0
140
0.0
141
0.0
142
1.0
143
1.0
 70
   688
 72
     0
 73
     0
 74
     5
  7

 75
    16
147
1.0
148
0.0
149
0.0
100
AcDbLayout
  1
Layout2
 70
     1
 71
     2
 10
0.0
 20
0.0
 11
0.0
 21
0.0
 12
0.0
 22
0.0
 32
0.0
 14
0.0
 24
0.0
 34
0.0
 15
0.0
 25
0.0
 35
0.0
146
0.0
 13
0.0
 23
0.0
 33
0.0
 16
1.0
 26
0.0
 36
0.0
 17
0.0
 27
1.0
 37
0.0
 76
     0
330
23
  0
LAYOUT
  5
22
102
{ACAD_REACTORS
330
1A
102
}
330
1A
100
AcDbPlotSettings
  1

  2
none_device
  4

  6

 40
0.0
 41
0.0
 42
0.0
 43
0.0
 44
0.0
 45
0.0
 46
0.0
 47
0.0
 48
0.0
 49
0.0
140
0.0
141
0.0
142
1.0
143
1.0
 70
  1712
 72
     0
 73
     0
 74
     0
  7

 75
     0
147
1.0
148
0.0
149
0.0
100
AcDbLayout
  1
Model
 70
     1
 71
     0
 10
0.0
 20
0.0
 11
12.0
 21
9.0
 12
0.0
 22
0.0
 32
0.0
 14
-2.425934
 24
-80.57254
 34
0.0
 15
207.574066
 25
159.063629
 35
0.0
146
0.0
 13
0.0
 23
0.0
 33
0.0
 16
1.0
 26
0.0
 36
0.0
 17
0.0
 27
1.0
 37
0.0
 76
     0
330
1F
331
29
  0
MLINESTYLE
  5
18
102
{ACAD_REACTORS
330
17
102
}
330
17
100
AcDbMlineStyle
  2
Standard
 70
     0
  3

 62
   256
 51
90.0
 52
90.0
 71
     2
 49
0.5
 62
   256
  6
BYLAYER
 49
-0.5
 62
   256
  6
BYLAYER
  0
ACDBPLACEHOLDER
  5
F
102
{ACAD_REACTORS
330
E
102
}
330
E
  0
SCALE
  5
3C
102
{ACAD_REACTORS
330
3B
102
}
330
3B
100
AcDbScale
 70
     0
300
1:1
140
1.0
141
1.0
290
     1
  0
SCALE
  5
3D
102
{ACAD_REACTORS
330
3B
102
}
330
3B
100
AcDbScale
 70
     0
300
1:2
140
1.0
141
2.0
290
     0
  0
SCALE
  5
3E
102
{ACAD_REACTORS
330
3B
102
}
330
3B
100
AcDbScale
 70
     0
300
1:4
140
1.0
141
4.0
290
     0
  0
SCALE
  5
3F
102
{ACAD_REACTORS
330
3B
102
}
330
3B
100
AcDbScale
 70
     0
300
1:5
140
1.0
141
5.0
290
     0
  0
SCALE
  5
40
102
{ACAD_REACTORS
330
3B
102
}
330
3B
100
AcDbScale
 70
     0
300
1:8
140
1.0
141
8.0
290
     0
  0
SCALE
  5
41
102
{ACAD_REACTORS
330
3B
102
}
330
3B
100
AcDbScale
 70
     0
300
1:10
140
1.0
141
10.0
290
     0
  0
SCALE
  5
42
102
{ACAD_REACTORS
330
3B
102
}
330
3B
100
AcDbScale
 70
     0
300
1:16
140
1.0
141
16.0
290
     0
  0
SCALE
  5
43
102
{ACAD_REACTORS
330
3B
102
}
330
3B
100
AcDbScale
 70
     0
300
1:20
140
1.0
141
20.0
290
     0
  0
SCALE
  5
44
102
{ACAD_REACTORS
330
3B
102
}
330
3B
100
AcDbScale
 70
     0
300
1:30
140
1.0
141
30.0
290
     0
  0
SCALE
  5
45
102
{ACAD_REACTORS
330
3B
102
}
330
3B
100
AcDbScale
 70
     0
300
1:40
140
1.0
141
40.0
290
     0
  0
SCALE
  5
46
102
{ACAD_REACTORS
330
3B
102
}
330
3B
100
AcDbScale
 70
     0
300
1:50
140
1.0
141
50.0
290
     0
  0
SCALE
  5
47
102
{ACAD_REACTORS
330
3B
102
}
330
3B
100
AcDbScale
 70
     0
300
1:100
140
1.0
141
100.0
290
     0
  0
SCALE
  5
48
102
{ACAD_REACTORS
330
3B
102
}
330
3B
100
AcDbScale
 70
     0
300
2:1
140
2.0
141
1.0
290
     0
  0
SCALE
  5
49
102
{ACAD_REACTORS
330
3B
102
}
330
3B
100
AcDbScale
 70
     0
300
4:1
140
4.0
141
1.0
290
     0
  0
SCALE
  5
4A
102
{ACAD_REACTORS
330
3B
102
}
330
3B
100
AcDbScale
 70
     0
300
8:1
140
8.0
141
1.0
290
     0
  0
SCALE
  5
4B
102
{ACAD_REACTORS
330
3B
102
}
330
3B
100
AcDbScale
 70
     0
300
10:1
140
10.0
141
1.0
290
     0
  0
SCALE
  5
4C
102
{ACAD_REACTORS
330
3B
102
}
330
3B
100
AcDbScale
 70
     0
300
100:1
140
100.0
141
1.0
290
     0
  0
SCALE
  5
4D
102
{ACAD_REACTORS
330
3B
102
}
330
3B
100
AcDbScale
 70
     0
300
1/128" = 1'-0"
140
0.007812
141
12.0
290
     0
  0
SCALE
  5
4E
102
{ACAD_REACTORS
330
3B
102
}
330
3B
100
AcDbScale
 70
     0
300
1/64" = 1'-0"
140
0.015625
141
12.0
290
     0
  0
SCALE
  5
4F
102
{ACAD_REACTORS
330
3B
102
}
330
3B
100
AcDbScale
 70
     0
300
1/32" = 1'-0"
140
0.03125
141
12.0
290
     0
  0
SCALE
  5
50
102
{ACAD_REACTORS
330
3B
102
}
330
3B
100
AcDbScale
 70
     0
300
1/16" = 1'-0"
140
0.0625
141
12.0
290
     0
  0
SCALE
  5
51
102
{ACAD_REACTORS
330
3B
102
}
330
3B
100
AcDbScale
 70
     0
300
3/32" = 1'-0"
140
0.09375
141
12.0
290
     0
  0
SCALE
  5
52
102
{ACAD_REACTORS
330
3B
102
}
330
3B
100
AcDbScale
 70
     0
300
1/8" = 1'-0"
140
0.125
141
12.0
290
     0
  0
SCALE
  5
53
102
{ACAD_REACTORS
330
3B
102
}
330
3B
100
AcDbScale
 70
     0
300
3/16" = 1'-0"
140
0.1875
141
12.0
290
     0
  0
SCALE
  5
54
102
{ACAD_REACTORS
330
3B
102
}
330
3B
100
AcDbScale
 70
     0
300
1/4" = 1'-0"
140
0.25
141
12.0
290
     0
  0
SCALE
  5
55
102
{ACAD_REACTORS
330
3B
102
}
330
3B
100
AcDbScale
 70
     0
300
3/8" = 1'-0"
140
0.375
141
12.0
290
     0
  0
SCALE
  5
56
102
{ACAD_REACTORS
330
3B
102
}
330
3B
100
AcDbScale
 70
     0
300
1/2" = 1'-0"
140
0.5
141
12.0
290
     0
  0
SCALE
  5
57
102
{ACAD_REACTORS
330
3B
102
}
330
3B
100
AcDbScale
 70
     0
300
3/4" = 1'-0"
140
0.75
141
12.0
290
     0
  0
SCALE
  5
58
102
{ACAD_REACTORS
330
3B
102
}
330
3B
100
AcDbScale
 70
     0
300
1" = 1'-0"
140
1.0
141
12.0
290
     0
  0
SCALE
  5
59
102
{ACAD_REACTORS
330
3B
102
}
330
3B
100
AcDbScale
 70
     0
300
1-1/2" = 1'-0"
140
1.5
141
12.0
290
     0
  0
SCALE
  5
5A
102
{ACAD_REACTORS
330
3B
102
}
330
3B
100
AcDbScale
 70
     0
300
3" = 1'-0"
140
3.0
141
12.0
290
     0
  0
SCALE
  5
5B
102
{ACAD_REACTORS
330
3B
102
}
330
3B
100
AcDbScale
 70
     0
300
6" = 1'-0"
140
6.0
141
12.0
290
     0
  0
SCALE
  5
5C
102
{ACAD_REACTORS
330
3B
102
}
330
3B
100
AcDbScale
 70
     0
300
1'-0" = 1'-0"
140
12.0
141
12.0
290
     0
  0
VISUALSTYLE
  5
2F
102
{ACAD_REACTORS
330
2A
102
}
330
2A
100
AcDbVisualStyle
  2
2dWireframe
 70
     4
 71
     0
 72
     2
 73
     0
 90
        0
 40
-0.6
 41
-30.0
 62
     5
 63
     7
 74
     1
 91
        4
 64
     7
 65
   257
 75
     1
175
     1
 42
1.0
 92
        0
 66
   257
 43
1.0
 76
     1
 77
     6
 78
     2
 67
     7
 79
     5
170
     0
171
     0
290
     0
174
     0
 93
        1
 44
0.0
173
     0
291
     0
 45
0.0
1001
ACAD
1000
AcDbSavedByObjectVersion
1070
     0
  0
VISUALSTYLE
  5
31
102
{ACAD_REACTORS
330
2A
102
}
330
2A
100
AcDbVisualStyle
  2
3D Hidden
 70
     6
 71
     1
 72
     2
 73
     2
 90
        0
 40
-0.6
 41
-30.0
 62
     5
 63
     7
 74
     2
 91
        2
 64
     7
 65
   257
 75
     2
175
     1
 42
40.0
 92
        0
 66
   257
 43
1.0
 76
     1
 77
     6
 78
     2
 67
     7
 79
     3
170
     0
171
     0
290
     0
174
     0
 93
        1
 44
0.0
173
     0
291
     0
 45
0.0
1001
ACAD
1000
AcDbSavedByObjectVersion
1070
     0
  0
VISUALSTYLE
  5
30
102
{ACAD_REACTORS
330
2A
102
}
330
2A
100
AcDbVisualStyle
  2
3dWireframe
 70
     5
 71
     0
 72
     2
 73
     0
 90
        0
 40
-0.6
 41
-30.0
 62
     5
 63
     7
 74
     1
 91
        4
 64
     7
 65
   257
 75
     1
175
     1
 42
1.0
 92
        0
 66
   257
 43
1.0
 76
     1
 77
     6
 78
     2
 67
     7
 79
     5
170
     0
171
     0
290
     0
174
     0
 93
        1
 44
0.0
173
     0
291
     0
 45
0.0
1001
ACAD
1000
AcDbSavedByObjectVersion
1070
     0
  0
VISUALSTYLE
  5
32
102
{ACAD_REACTORS
330
2A
102
}
330
2A
100
AcDbVisualStyle
  2
Basic
 70
     7
 71
     1
 72
     0
 73
     1
 90
        0
 40
-0.6
 41
-30.0
 62
     5
 63
     7
 74
     0
 91
        4
 64
     7
 65
   257
 75
     1
175
     1
 42
1.0
 92
        8
 66
     7
 43
1.0
 76
     1
 77
     6
 78
     2
 67
     7
 79
     5
170
     0
171
     0
290
     0
174
     0
 93
        1
 44
0.0
173
     0
291
     1
 45
0.0
1001
ACAD
1000
AcDbSavedByObjectVersion
1070
     0
  0
VISUALSTYLE
  5
36
102
{ACAD_REACTORS
330
2A
102
}
330
2A
100
AcDbVisualStyle
  2
Brighten
 70
    12
 71
     2
 72
     2
 73
     0
 90
        0
 40
-0.6
 41
-30.0
 62
     5
 63
     7
 74
     1
 91
        4
 64
     7
 65
   257
 75
     1
175
     1
 42
1.0
 92
        8
 66
     7
 43
1.0
 76
     1
 77
     6
 78
     2
 67
     7
 79
     5
170
     0
171
     0
290
     0
174
     0
 93
        1
 44
50.0
173
     0
291
     1
 45
0.0
1001
ACAD
1000
AcDbSavedByObjectVersion
1070
     0
  0
VISUALSTYLE
  5
3A
102
{ACAD_REACTORS
330
2A
102
}
330
2A
100
AcDbVisualStyle
  2
ColorChange
 70
    16
 71
     2
 72
     2
 73
     3
 90
        0
 40
-0.6
 41
-30.0
 62
     5
 63
     8
 74
     1
 91
        4
 64
     7
 65
   257
 75
     1
175
     1
 42
1.0
 92
        8
 66
     8
 43
1.0
 76
     1
 77
     6
 78
     2
 67
     7
 79
     5
170
     0
171
     0
290
     0
174
     0
 93
        1
 44
0.0
173
     0
291
     1
 45
0.0
1001
ACAD
1000
AcDbSavedByObjectVersion
1070
     0
  0
VISUALSTYLE
  5
34
102
{ACAD_REACTORS
330
2A
102
}
330
2A
100
AcDbVisualStyle
  2
Conceptual
 70
     9
 71
     3
 72
     2
 73
     0
 90
        0
 40
-0.6
 41
-30.0
 62
     5
 63
     7
 74
     2
 91
        2
 64
     7
 65
   257
 75
     1
175
     1
 42
40.0
 92
        8
 66
     7
 43
1.0
 76
     1
 77
     6
 78
     2
 67
     7
 79
     3
170
     0
171
     0
290
     0
174
     0
 93
        1
 44
0.0
173
     0
291
     0
 45
0.0
1001
ACAD
1000
AcDbSavedByObjectVersion
1070
     0
  0
VISUALSTYLE
  5
35
102
{ACAD_REACTORS
330
2A
102
}
330
2A
100
AcDbVisualStyle
  2
Dim
 70
    11
 71
     2
 72
     2
 73
     0
 90
        0
 40
-0.6
 41
-30.0
 62
     5
 63
     7
 74
     1
 91
        4
 64
     7
 65
   257
 75
     1
175
     1
 42
1.0
 92
        8
 66
     7
 43
1.0
 76
     1
 77
     6
 78
     2
 67
     7
 79
     5
170
     0
171
     0
290
     0
174
     0
 93
        1
 44
-50.0
173
     0
291
     1
 45
0.0
1001
ACAD
1000
AcDbSavedByObjectVersion
1070
     0
  0
VISUALSTYLE
  5
39
102
{ACAD_REACTORS
330
2A
102
}
330
2A
100
AcDbVisualStyle
  2
Facepattern
 70
    15
 71
     2
 72
     2
 73
     0
 90
        0
 40
-0.6
 41
-30.0
 62
     5
 63
     7
 74
     1
 91
        4
 64
     7
 65
   257
 75
     1
175
     1
 42
1.0
 92
        8
 66
     7
 43
1.0
 76
     1
 77
     6
 78
     2
 67
     7
 79
     5
170
     0
171
     0
290
     0
174
     0
 93
        1
 44
0.0
173
     0
291
     1
 45
0.0
1001
ACAD
1000
AcDbSavedByObjectVersion
1070
     0
  0
VISUALSTYLE
  5
2B
102
{ACAD_REACTORS
330
2A
102
}
330
2A
100
AcDbVisualStyle
  2
Flat
 70
     0
 71
     2
 72
     1
 73
     1
 90
        2
 40
-0.6
 41
30.0
 62
     5
 63
     7
 74
     0
 91
        4
 64
     7
 65
   257
 75
     1
175
     1
 42
1.0
 92
        8
 66
     7
 43
1.0
 76
     1
 77
     6
 78
     2
 67
     7
 79
     5
170
     0
171
     0
290
     0
174
     0
 93
       13
 44
0.0
173
     0
291
     1
 45
0.0
1001
ACAD
1000
AcDbSavedByObjectVersion
1070
     0
  0
VISUALSTYLE
  5
2C
102
{ACAD_REACTORS
330
2A
102
}
330
2A
100
AcDbVisualStyle
  2
FlatWithEdges
 70
     1
 71
     2
 72
     1
 73
     1
 90
        2
 40
-0.6
 41
30.0
 62
     5
 63
     7
 74
     1
 91
        4
 64
     7
 65
   257
 75
     1
175
     1
 42
1.0
 92
        0
 66
   257
 43
1.0
 76
     1
 77
     6
 78
     2
 67
     7
 79
     5
170
     0
171
     0
290
     0
174
     0
 93
       13
 44
0.0
173
     0
291
     1
 45
0.0
1001
ACAD
1000
AcDbSavedByObjectVersion
1070
     0
  0
VISUALSTYLE
  5
2D
102
{ACAD_REACTORS
330
2A
102
}
330
2A
100
AcDbVisualStyle
  2
Gouraud
 70
     2
 71
     2
 72
     2
 73
     1
 90
        2
 40
-0.6
 41
30.0
 62
     5
 63
     7
 74
     0
 91
        4
 64
     7
 65
   257
 75
     1
175
     1
 42
1.0
 92
        0
 66
     7
 43
1.0
 76
     1
 77
     6
 78
     2
 67
     7
 79
     5
170
     0
171
     0
290
     0
174
     0
 93
       13
 44
0.0
173
     0
291
     1
 45
0.0
1001
ACAD
1000
AcDbSavedByObjectVersion
1070
     0
  0
VISUALSTYLE
  5
2E
102
{ACAD_REACTORS
330
2A
102
}
330
2A
100
AcDbVisualStyle
  2
GouraudWithEdges
 70
     3
 71
     2
 72
     2
 73
     1
 90
        2
 40
-0.6
 41
30.0
 62
     5
 63
     7
 74
     1
 91
        4
 64
     7
 65
   257
 75
     1
175
     1
 42
1.0
 92
        0
 66
   257
 43
1.0
 76
     1
 77
     6
 78
     2
 67
     7
 79
     5
170
     0
171
     0
290
     0
174
     0
 93
       13
 44
0.0
173
     0
291
     1
 45
0.0
1001
ACAD
1000
AcDbSavedByObjectVersion
1070
     0
  0
VISUALSTYLE
  5
38
102
{ACAD_REACTORS
330
2A
102
}
330
2A
100
AcDbVisualStyle
  2
Linepattern
 70
    14
 71
     2
 72
     2
 73
     0
 90
        0
 40
-0.6
 41
-30.0
 62
     5
 63
     7
 74
     1
 91
        4
 64
     7
 65
   257
 75
     7
175
     7
 42
1.0
 92
        8
 66
     7
 43
1.0
 76
     1
 77
     6
 78
     2
 67
     7
 79
     5
170
     0
171
     0
290
     0
174
     0
 93
        1
 44
0.0
173
     0
291
     1
 45
0.0
1001
ACAD
1000
AcDbSavedByObjectVersion
1070
     0
  0
VISUALSTYLE
  5
33
102
{ACAD_REACTORS
330
2A
102
}
330
2A
100
AcDbVisualStyle
  2
Realistic
 70
     8
 71
     2
 72
     2
 73
     0
 90
        0
 40
-0.6
 41
-30.0
 62
     5
 63
     7
 74
     1
 91
        0
 64
     7
 65
   257
 75
     1
175
     1
 42
1.0
 92
        8
 66
     8
 43
1.0
 76
     1
 77
     6
 78
     2
 67
     7
 79
     5
170
     0
171
     0
290
     0
174
     0
 93
       13
 44
0.0
173
     0
291
     0
 45
0.0
1001
ACAD
1000
AcDbSavedByObjectVersion
1070
     0
  0
VISUALSTYLE
  5
37
102
{ACAD_REACTORS
330
2A
102
}
330
2A
100
AcDbVisualStyle
  2
Thicken
 70
    13
 71
     2
 72
     2
 73
     0
 90
        0
 40
-0.6
 41
-30.0
 62
     5
 63
     7
 74
     1
 91
        4
 64
     7
 65
   257
 75
     1
175
     1
 42
1.0
 92
       12
 66
     7
 43
1.0
 76
     1
 77
     6
 78
     2
 67
     7
 79
     5
170
     0
171
     0
290
     0
174
     0
 93
        1
 44
0.0
173
     0
291
     1
 45
0.0
1001
ACAD
1000
AcDbSavedByObjectVersion
1070
     0
  0
DICTIONARYVAR
  5
61A
102
{ACAD_REACTORS
330
619
102
}
330
619
100
DictionaryVariables
280
     0
  1
1:1
  0
DICTIONARYVAR
  5
61E
102
{ACAD_REACTORS
330
619
102
}
330
619
100
DictionaryVariables
280
     0
  1
80.000000
  0
DICTIONARYVAR
  5
61D
102
{ACAD_REACTORS
330
619
102
}
330
619
100
DictionaryVariables
280
     0
  1
5.000000
  0
ENDSEC
  0
EOF
