  0
SECTION
  2
HEADER
  9
$ACADVER
  1
AC1015
  9
$ACADMAINTVER
 70
     6
  9
$DWGCODEPAGE
  3
ANSI_932
  9
$INSBASE
 10
0.0
 20
0.0
 30
0.0
  9
$EXTMIN
 10
-7.044159
 20
40.366043
 30
0.0
  9
$EXTMAX
 10
192.533188
 20
192.669525
 30
0.0
  9
$LIMMIN
 10
0.0
 20
0.0
  9
$LIMMAX
 10
12.0
 20
9.0
  9
$ORTHOMODE
 70
     0
  9
$REGENMODE
 70
     1
  9
$FILLMODE
 70
     1
  9
$QTEXTMODE
 70
     0
  9
$MIRRTEXT
 70
     1
  9
$LTSCALE
 40
2.510527
  9
$ATTMODE
 70
     1
  9
$TEXTSIZE
 40
3.2
  9
$TRACEWID
 40
1.0
  9
$TEXTSTYLE
  7
Standard
  9
$CLAYER
  8
0
  9
$CELTYPE
  6
ByLayer
  9
$CECOLOR
 62
   256
  9
$CELTSCALE
 40
1.0
  9
$DISPSILH
 70
     0
  9
$DIMSCALE
 40
1.0
  9
$DIMASZ
 40
2.5
  9
$DIMEXO
 40
0.625
  9
$DIMDLI
 40
3.75
  9
$DIMRND
 40
0.0
  9
$DIMDLE
 40
0.0
  9
$DIMEXE
 40
1.25
  9
$DIMTP
 40
0.0
  9
$DIMTM
 40
0.0
  9
$DIMTXT
 40
2.5
  9
$DIMCEN
 40
0.09
  9
$DIMTSZ
 40
0.0
  9
$DIMTOL
 70
     0
  9
$DIMLIM
 70
     0
  9
$DIMTIH
 70
     0
  9
$DIMTOH
 70
     0
  9
$DIMSE1
 70
     0
  9
$DIMSE2
 70
     0
  9
$DIMTAD
 70
     0
  9
$DIMZIN
 70
     8
  9
$DIMBLK
  1

  9
$DIMASO
 70
     1
  9
$DIMSHO
 70
     0
  9
$DIMPOST
  1

  9
$DIMAPOST
  1

  9
$DIMALT
 70
     0
  9
$DIMALTD
 70
     3
  9
$DIMALTF
 40
0.03937
  9
$DIMLFAC
 40
1.0
  9
$DIMTOFL
 70
     1
  9
$DIMTVP
 40
0.0
  9
$DIMTIX
 70
     0
  9
$DIMSOXD
 70
     0
  9
$DIMSAH
 70
     0
  9
$DIMBLK1
  1

  9
$DIMBLK2
  1

  9
$DIMSTYLE
  2
ISO-25
  9
$DIMCLRD
 70
     0
  9
$DIMCLRE
 70
     0
  9
$DIMCLRT
 70
     0
  9
$DIMTFAC
 40
1.0
  9
$DIMGAP
 40
0.625
  9
$DIMJUST
 70
     0
  9
$DIMSD1
 70
     0
  9
$DIMSD2
 70
     0
  9
$DIMTOLJ
 70
     0
  9
$DIMTZIN
 70
     8
  9
$DIMALTZ
 70
     0
  9
$DIMALTTZ
 70
     0
  9
$DIMUPT
 70
     0
  9
$DIMDEC
 70
     2
  9
$DIMTDEC
 70
     2
  9
$DIMALTU
 70
     2
  9
$DIMALTTD
 70
     3
  9
$DIMTXSTY
  7
Standard
  9
$DIMAUNIT
 70
     0
  9
$DIMADEC
 70
     0
  9
$DIMALTRND
 40
0.0
  9
$DIMAZIN
 70
     0
  9
$DIMDSEP
 70
    44
  9
$DIMATFIT
 70
     3
  9
$DIMFRAC
 70
     0
  9
$DIMLDRBLK
  1

  9
$DIMLUNIT
 70
     2
  9
$DIMLWD
 70
    -2
  9
$DIMLWE
 70
    -2
  9
$DIMTMOVE
 70
     0
  9
$LUNITS
 70
     2
  9
$LUPREC
 70
     4
  9
$SKETCHINC
 40
1.0
  9
$FILLETRAD
 40
0.0
  9
$AUNITS
 70
     0
  9
$AUPREC
 70
     0
  9
$MENU
  1
.
  9
$ELEVATION
 40
0.0
  9
$PELEVATION
 40
0.0
  9
$THICKNESS
 40
0.0
  9
$LIMCHECK
 70
     0
  9
$CHAMFERA
 40
10.0
  9
$CHAMFERB
 40
10.0
  9
$CHAMFERC
 40
20.0
  9
$CHAMFERD
 40
0.0
  9
$SKPOLY
 70
     0
  9
$TDCREATE
 40
2454728.393104016
  9
$TDUCREATE
 40
2454728.018104016
  9
$TDUPDATE
 40
2454728.393104028
  9
$TDUUPDATE
 40
2454728.018104028
  9
$TDINDWG
 40
0.0000000116
  9
$TDUSRTIMER
 40
0.0000000116
  9
$USRTIMER
 70
     1
  9
$ANGBASE
 50
0.0
  9
$ANGDIR
 70
     0
  9
$PDMODE
 70
     0
  9
$PDSIZE
 40
0.0
  9
$PLINEWID
 40
0.0
  9
$SPLFRAME
 70
     0
  9
$SPLINETYPE
 70
     6
  9
$SPLINESEGS
 70
     8
  9
$HANDSEED
  5
36A
  9
$SURFTAB1
 70
     6
  9
$SURFTAB2
 70
     6
  9
$SURFTYPE
 70
     6
  9
$SURFU
 70
     6
  9
$SURFV
 70
     6
  9
$UCSBASE
  2

  9
$UCSNAME
  2

  9
$UCSORG
 10
0.0
 20
0.0
 30
0.0
  9
$UCSXDIR
 10
1.0
 20
0.0
 30
0.0
  9
$UCSYDIR
 10
0.0
 20
1.0
 30
0.0
  9
$UCSORTHOREF
  2

  9
$UCSORTHOVIEW
 70
     0
  9
$UCSORGTOP
 10
0.0
 20
0.0
 30
0.0
  9
$UCSORGBOTTOM
 10
0.0
 20
0.0
 30
0.0
  9
$UCSORGLEFT
 10
0.0
 20
0.0
 30
0.0
  9
$UCSORGRIGHT
 10
0.0
 20
0.0
 30
0.0
  9
$UCSORGFRONT
 10
0.0
 20
0.0
 30
0.0
  9
$UCSORGBACK
 10
0.0
 20
0.0
 30
0.0
  9
$PUCSBASE
  2

  9
$PUCSNAME
  2

  9
$PUCSORG
 10
0.0
 20
0.0
 30
0.0
  9
$PUCSXDIR
 10
1.0
 20
0.0
 30
0.0
  9
$PUCSYDIR
 10
0.0
 20
1.0
 30
0.0
  9
$PUCSORTHOREF
  2

  9
$PUCSORTHOVIEW
 70
     0
  9
$PUCSORGTOP
 10
0.0
 20
0.0
 30
0.0
  9
$PUCSORGBOTTOM
 10
0.0
 20
0.0
 30
0.0
  9
$PUCSORGLEFT
 10
0.0
 20
0.0
 30
0.0
  9
$PUCSORGRIGHT
 10
0.0
 20
0.0
 30
0.0
  9
$PUCSORGFRONT
 10
0.0
 20
0.0
 30
0.0
  9
$PUCSORGBACK
 10
0.0
 20
0.0
 30
0.0
  9
$USERI1
 70
     0
  9
$USERI2
 70
     0
  9
$USERI3
 70
     0
  9
$USERI4
 70
     0
  9
$USERI5
 70
     0
  9
$USERR1
 40
0.0
  9
$USERR2
 40
0.0
  9
$USERR3
 40
0.0
  9
$USERR4
 40
0.0
  9
$USERR5
 40
0.0
  9
$WORLDVIEW
 70
     1
  9
$SHADEDGE
 70
     3
  9
$SHADEDIF
 70
    70
  9
$TILEMODE
 70
     1
  9
$MAXACTVP
 70
    64
  9
$PINSBASE
 10
0.0
 20
0.0
 30
0.0
  9
$PLIMCHECK
 70
     0
  9
$PEXTMIN
 10
1.000000E+20
 20
1.000000E+20
 30
0.0
  9
$PEXTMAX
 10
-1.000000E+20
 20
-1.000000E+20
 30
0.0
  9
$PLIMMIN
 10
0.0
 20
0.0
  9
$PLIMMAX
 10
12.0
 20
9.0
  9
$UNITMODE
 70
     0
  9
$VISRETAIN
 70
     1
  9
$PLINEGEN
 70
     0
  9
$PSLTSCALE
 70
     1
  9
$TREEDEPTH
 70
  3020
  9
$CMLSTYLE
  2
Standard
  9
$CMLJUST
 70
     0
  9
$CMLSCALE
 40
20.0
  9
$PROXYGRAPHICS
 70
     1
  9
$MEASUREMENT
 70
     1
  9
$CELWEIGHT
370
    -1
  9
$ENDCAPS
280
     0
  9
$JOINSTYLE
280
     0
  9
$LWDISPLAY
290
     0
  9
$INSUNITS
 70
     4
  9
$HYPERLINKBASE
  1

  9
$STYLESHEET
  1

  9
$XEDIT
290
     1
  9
$CEPSNTYPE
380
     0
  9
$PSTYLEMODE
290
     1
  9
$FINGERPRINTGUID
  2
{E0F9D5FA-2626-4756-9E16-B7A7622976DC}
  9
$VERSIONGUID
  2
{FAEB1C32-E019-11D5-929B-00C0DF256EC4}
  9
$EXTNAMES
290
     1
  9
$PSVPSCALE
 40
0.0
  9
$OLESTARTUP
290
     0
  0
ENDSEC
  0
SECTION
  2
CLASSES
  0
CLASS
  1
ACDBDICTIONARYWDFLT
  2
AcDbDictionaryWithDefault
  3
ObjectDBX Classes
 90
        0
280
     0
281
     0
  0
CLASS
  1
VISUALSTYLE
  2
AcDbVisualStyle
  3
ObjectDBX Classes
 90
     4095
280
     0
281
     0
  0
CLASS
  1
SCALE
  2
AcDbScale
  3
ObjectDBX Classes
 90
     1153
280
     0
281
     0
  0
CLASS
  1
DICTIONARYVAR
  2
AcDbDictionaryVar
  3
ObjectDBX Classes
 90
        0
280
     0
281
     0
  0
CLASS
  1
ACDBPLACEHOLDER
  2
AcDbPlaceHolder
  3
ObjectDBX Classes
 90
        0
280
     0
281
     0
  0
CLASS
  1
LAYOUT
  2
AcDbLayout
  3
ObjectDBX Classes
 90
        0
280
     0
281
     0
  0
ENDSEC
  0
SECTION
  2
TABLES
  0
TABLE
  2
VPORT
  5
8
330
0
100
AcDbSymbolTable
 70
     1
  0
VPORT
  5
29
330
8
100
AcDbSymbolTableRecord
100
AcDbViewportTableRecord
  2
*Active
 70
     0
 10
0.0
 20
0.0
 11
1.0
 21
1.0
 12
92.744514
 22
116.517784
 13
0.0
 23
0.0
 14
1.0
 24
1.0
 15
0.0
 25
0.0
 16
0.0
 26
0.0
 36
1.0
 17
0.0
 27
0.0
 37
0.0
 40
153.826517
 41
1.691288
 42
50.0
 43
0.0
 44
0.0
 50
0.0
 51
0.0
 71
     0
 72
   100
 73
     1
 74
     3
 75
     0
 76
     0
 77
     0
 78
     0
281
     0
 65
     1
110
0.0
120
0.0
130
0.0
111
1.0
121
0.0
131
0.0
112
0.0
122
1.0
132
0.0
 79
     0
146
0.0
  0
ENDTAB
  0
TABLE
  2
LTYPE
  5
5
330
0
100
AcDbSymbolTable
 70
     5
  0
LTYPE
  5
14
330
5
100
AcDbSymbolTableRecord
100
AcDbLinetypeTableRecord
  2
ByBlock
 70
     0
  3

 72
    65
 73
     0
 40
0.0
  0
LTYPE
  5
15
330
5
100
AcDbSymbolTableRecord
100
AcDbLinetypeTableRecord
  2
ByLayer
 70
     0
  3

 72
    65
 73
     0
 40
0.0
  0
LTYPE
  5
16
330
5
100
AcDbSymbolTableRecord
100
AcDbLinetypeTableRecord
  2
Continuous
 70
     0
  3
Solid line
 72
    65
 73
     0
 40
0.0
  0
LTYPE
  5
5D
330
5
100
AcDbSymbolTableRecord
100
AcDbLinetypeTableRecord
  2
DASHED
 70
     0
  3
DASHED
 72
    83
 73
     2
 40
0.75
 49
0.5
 74
     0
 49
-0.25
 74
     0
  0
LTYPE
  5
5E
330
5
100
AcDbSymbolTableRecord
100
AcDbLinetypeTableRecord
  2
HIDDEN
 70
     0
  3
HIDDEN
 72
    83
 73
     2
 40
0.375
 49
0.25
 74
     0
 49
-0.125
 74
     0
  0
LTYPE
  5
5F
330
5
100
AcDbSymbolTableRecord
100
AcDbLinetypeTableRecord
  2
CENTER
 70
     0
  3
CENTER
 72
    83
 73
     4
 40
2.0
 49
1.25
 74
     0
 49
-0.25
 74
     0
 49
0.25
 74
     0
 49
-0.25
 74
     0
  0
LTYPE
  5
60
330
5
100
AcDbSymbolTableRecord
100
AcDbLinetypeTableRecord
  2
PHANTOM
 70
     0
  3
PHANTOM
 72
    83
 73
     6
 40
2.5
 49
1.25
 74
     0
 49
-0.25
 74
     0
 49
0.25
 74
     0
 49
-0.25
 74
     0
 49
0.25
 74
     0
 49
-0.25
 74
     0
  0
ENDTAB
  0
TABLE
  2
LAYER
  5
2
330
0
100
AcDbSymbolTable
 70
     2
  0
LAYER
  5
10
330
2
100
AcDbSymbolTableRecord
100
AcDbLayerTableRecord
  2
0
 70
     0
 62
     7
  6
Continuous
370
    -3
390
F
  0
LAYER
  5
61
330
2
100
AcDbSymbolTableRecord
100
AcDbLayerTableRecord
  2
001
 70
     0
 62
     7
  6
Continuous
370
    -3
390
F
  0
ENDTAB
  0
TABLE
  2
STYLE
  5
3
330
0
100
AcDbSymbolTable
 70
     2
  0
STYLE
  5
11
330
3
100
AcDbSymbolTableRecord
100
AcDbTextStyleTableRecord
  2
Standard
 70
     0
 40
0.0
 41
1.0
 50
0.0
 71
     0
 42
0.2
  3
TXT
  4
BIGFONT
  0
STYLE
  5
62
330
3
100
AcDbSymbolTableRecord
100
AcDbTextStyleTableRecord
  2
TATEGAKI
 70
     4
 40
1.0
 41
1.0
 50
0.0
 71
     0
 42
0.2
  3
TXT
  4
BIGFONT
  0
ENDTAB
  0
TABLE
  2
VIEW
  5
6
330
0
100
AcDbSymbolTable
 70
     0
  0
ENDTAB
  0
TABLE
  2
UCS
  5
7
330
0
100
AcDbSymbolTable
 70
     0
  0
ENDTAB
  0
TABLE
  2
APPID
  5
9
330
0
100
AcDbSymbolTable
 70
     1
  0
APPID
  5
12
330
9
100
AcDbSymbolTableRecord
100
AcDbRegAppTableRecord
  2
ACAD
 70
     0
  0
ENDTAB
  0
TABLE
  2
DIMSTYLE
  5
A
330
0
100
AcDbSymbolTable
 70
     2
100
AcDbDimStyleTable
  0
DIMSTYLE
105
27
330
A
100
AcDbSymbolTableRecord
100
AcDbDimStyleTableRecord
  2
ISO-25
 70
     0
 41
2.5
 42
0.625
 43
3.75
 44
1.25
 73
     0
 74
     0
 77
     1
 78
     8
140
2.5
141
2.5
143
0.03937
147
0.625
171
     3
172
     1
271
     2
272
     2
274
     3
278
    44
283
     0
284
     8
340
11
  0
DIMSTYLE
105
63
102
{ACAD_REACTORS
330
F7
330
F8
330
F9
330
FA
330
FB
330
FC
102
}
330
A
100
AcDbSymbolTableRecord
100
AcDbDimStyleTableRecord
  2
Standard
 70
     0
 41
1.5
 42
0.0
 44
2.75
 73
     0
 74
     0
 77
     1
 78
     8
 79
     2
140
4.0
146
0.8
147
1.0
172
     1
179
     1
271
     1
340
11
  0
ENDTAB
  0
TABLE
  2
BLOCK_RECORD
  5
1
330
0
100
AcDbSymbolTable
 70
     7
  0
BLOCK_RECORD
  5
1F
330
1
100
AcDbSymbolTableRecord
100
AcDbBlockTableRecord
  2
*Model_Space
340
22
  0
BLOCK_RECORD
  5
1B
330
1
100
AcDbSymbolTableRecord
100
AcDbBlockTableRecord
  2
*Paper_Space
340
1E
  0
BLOCK_RECORD
  5
23
330
1
100
AcDbSymbolTableRecord
100
AcDbBlockTableRecord
  2
*Paper_Space0
340
26
  0
BLOCK_RECORD
  5
64
330
1
100
AcDbSymbolTableRecord
100
AcDbBlockTableRecord
  2
*D1
340
0
  0
BLOCK_RECORD
  5
79
330
1
100
AcDbSymbolTableRecord
100
AcDbBlockTableRecord
  2
*D2
340
0
  0
BLOCK_RECORD
  5
8D
330
1
100
AcDbSymbolTableRecord
100
AcDbBlockTableRecord
  2
*D3
340
0
  0
BLOCK_RECORD
  5
A1
330
1
100
AcDbSymbolTableRecord
100
AcDbBlockTableRecord
  2
*D4
340
0
  0
BLOCK_RECORD
  5
B5
330
1
100
AcDbSymbolTableRecord
100
AcDbBlockTableRecord
  2
*D5
340
0
  0
BLOCK_RECORD
  5
C9
330
1
100
AcDbSymbolTableRecord
100
AcDbBlockTableRecord
  2
*D6
340
0
  0
ENDTAB
  0
ENDSEC
  0
SECTION
  2
BLOCKS
  0
BLOCK
  5
20
330
1F
100
AcDbEntity
  8
0
100
AcDbBlockBegin
  2
*Model_Space
 70
     0
 10
0.0
 20
0.0
 30
0.0
  3
*Model_Space
  1

  0
ENDBLK
  5
21
330
1F
100
AcDbEntity
  8
0
100
AcDbBlockEnd
  0
BLOCK
  5
1C
330
1B
100
AcDbEntity
 67
     1
  8
0
100
AcDbBlockBegin
  2
*Paper_Space
 70
     0
 10
0.0
 20
0.0
 30
0.0
  3
*Paper_Space
  1

  0
ENDBLK
  5
1D
330
1B
100
AcDbEntity
 67
     1
  8
0
100
AcDbBlockEnd
  0
BLOCK
  5
24
330
23
100
AcDbEntity
  8
0
100
AcDbBlockBegin
  2
*Paper_Space0
 70
     0
 10
0.0
 20
0.0
 30
0.0
  3
*Paper_Space0
  1

  0
ENDBLK
  5
25
330
23
100
AcDbEntity
  8
0
100
AcDbBlockEnd
  0
BLOCK
  5
65
330
64
100
AcDbEntity
  8
0
100
AcDbBlockBegin
  2
*D1
 70
     1
 10
0.0
 20
0.0
 30
0.0
  3
*D1
  1

  0
LINE
  5
67
330
64
100
AcDbEntity
  8
001
370
     9
100
AcDbLine
 10
46.184402
 20
102.246905
 30
0.0
 11
64.981222
 21
69.689859
 31
0.0
  0
LINE
  5
68
330
64
100
AcDbEntity
  8
001
370
     9
100
AcDbLine
 10
31.136135
 20
83.369723
 30
0.0
 11
31.136135
 21
60.621095
 31
0.0
  0
ARC
  5
69
330
64
100
AcDbEntity
  8
001
370
     9
100
AcDbCircle
 10
31.136135
 20
128.311269
 30
0.0
 40
64.94017332145684
100
AcDbArc
 50
270.0
 51
300.0
  0
POLYLINE
  5
6A
330
64
100
AcDbEntity
  8
001
370
     9
100
AcDb2dPolyline
 66
     1
 10
0.0
 20
0.0
 30
0.0
  0
VERTEX
  5
6C
330
6A
100
AcDbEntity
  8
001
370
     9
100
AcDbVertex
100
AcDb2dVertex
 10
62.10168
 20
71.686855
 30
0.0
  0
VERTEX
  5
6D
330
6A
100
AcDbEntity
  8
001
370
     9
100
AcDbVertex
100
AcDb2dVertex
 10
63.606222
 20
72.071429
 30
0.0
  0
VERTEX
  5
6E
330
6A
100
AcDbEntity
  8
001
370
     9
100
AcDbVertex
100
AcDb2dVertex
 10
62.495537
 20
70.986107
 30
0.0
  0
SEQEND
  5
6B
330
6A
100
AcDbEntity
  8
001
370
     9
  0
POLYLINE
  5
6F
330
64
100
AcDbEntity
  8
001
370
     9
100
AcDb2dPolyline
 66
     1
 10
0.0
 20
0.0
 30
0.0
  0
VERTEX
  5
71
330
6F
100
AcDbEntity
  8
001
370
     9
100
AcDbVertex
100
AcDb2dVertex
 10
32.640677
 20
62.986522
 30
0.0
  0
VERTEX
  5
72
330
6F
100
AcDbEntity
  8
001
370
     9
100
AcDbVertex
100
AcDb2dVertex
 10
31.136135
 20
63.371095
 30
0.0
  0
VERTEX
  5
73
330
6F
100
AcDbEntity
  8
001
370
     9
100
AcDbVertex
100
AcDb2dVertex
 10
32.631393
 20
63.790316
 30
0.0
  0
SEQEND
  5
70
330
6F
100
AcDbEntity
  8
001
370
     9
  0
TEXT
  5
74
330
64
100
AcDbEntity
  8
001
370
    30
100
AcDbText
 10
41.889515
 20
64.99689
 30
0.0
 40
4.0
  1
３０%%d
 50
15.0
 41
0.978261
100
AcDbText
  0
POINT
  5
75
330
64
100
AcDbEntity
  8
001
370
     9
100
AcDbPoint
 10
46.184402
 20
102.246905
 30
0.0
  0
POINT
  5
76
330
64
100
AcDbEntity
  8
001
370
     9
100
AcDbPoint
 10
31.136135
 20
128.311269
 30
0.0
  0
POINT
  5
77
330
64
100
AcDbEntity
  8
001
370
     9
100
AcDbPoint
 10
31.136135
 20
128.311269
 30
0.0
  0
POINT
  5
78
330
64
100
AcDbEntity
  8
001
370
     9
100
AcDbPoint
 10
31.136135
 20
83.369723
 30
0.0
  0
ENDBLK
  5
66
330
64
100
AcDbEntity
  8
0
100
AcDbBlockEnd
  0
BLOCK
  5
7A
330
79
100
AcDbEntity
  8
0
100
AcDbBlockBegin
  2
*D2
 70
     1
 10
0.0
 20
0.0
 30
0.0
  3
*D2
  1

  0
LINE
  5
7C
330
79
100
AcDbEntity
  8
001
370
     9
100
AcDbLine
 10
86.136135
 20
105.671523
 30
0.0
 11
86.136135
 21
53.094642
 31
0.0
  0
LINE
  5
7D
330
79
100
AcDbEntity
  8
001
370
     9
100
AcDbLine
 10
31.136135
 20
83.369723
 30
0.0
 11
31.136135
 21
53.094642
 31
0.0
  0
LINE
  5
7E
330
79
100
AcDbEntity
  8
001
370
     9
100
AcDbLine
 10
86.136135
 20
55.844642
 30
0.0
 11
31.136135
 21
55.844642
 31
0.0
  0
POLYLINE
  5
7F
330
79
100
AcDbEntity
  8
001
370
     9
100
AcDb2dPolyline
 66
     1
 10
0.0
 20
0.0
 30
0.0
  0
VERTEX
  5
81
330
7F
100
AcDbEntity
  8
001
370
     9
100
AcDbVertex
100
AcDb2dVertex
 10
84.636135
 20
56.246566
 30
0.0
  0
VERTEX
  5
82
330
7F
100
AcDbEntity
  8
001
370
     9
100
AcDbVertex
100
AcDb2dVertex
 10
86.136135
 20
55.844642
 30
0.0
  0
VERTEX
  5
83
330
7F
100
AcDbEntity
  8
001
370
     9
100
AcDbVertex
100
AcDb2dVertex
 10
84.636135
 20
55.442718
 30
0.0
  0
SEQEND
  5
80
330
7F
100
AcDbEntity
  8
001
370
     9
  0
POLYLINE
  5
84
330
79
100
AcDbEntity
  8
001
370
     9
100
AcDb2dPolyline
 66
     1
 10
0.0
 20
0.0
 30
0.0
  0
VERTEX
  5
86
330
84
100
AcDbEntity
  8
001
370
     9
100
AcDbVertex
100
AcDb2dVertex
 10
32.636135
 20
55.442718
 30
0.0
  0
VERTEX
  5
87
330
84
100
AcDbEntity
  8
001
370
     9
100
AcDbVertex
100
AcDb2dVertex
 10
31.136135
 20
55.844642
 30
0.0
  0
VERTEX
  5
88
330
84
100
AcDbEntity
  8
001
370
     9
100
AcDbVertex
100
AcDb2dVertex
 10
32.636135
 20
56.246566
 30
0.0
  0
SEQEND
  5
85
330
84
100
AcDbEntity
  8
001
370
     9
  0
TEXT
  5
89
330
79
100
AcDbEntity
  8
001
370
    30
100
AcDbText
 10
54.636135
 20
56.844642
 30
0.0
 40
4.0
  1
５５
 41
0.833333
100
AcDbText
  0
POINT
  5
8A
330
79
100
AcDbEntity
  8
001
370
     9
100
AcDbPoint
 10
86.136135
 20
105.671523
 30
0.0
  0
POINT
  5
8B
330
79
100
AcDbEntity
  8
001
370
     9
100
AcDbPoint
 10
31.136135
 20
83.369723
 30
0.0
  0
POINT
  5
8C
330
79
100
AcDbEntity
  8
001
370
     9
100
AcDbPoint
 10
31.136135
 20
55.844642
 30
0.0
  0
ENDBLK
  5
7B
330
79
100
AcDbEntity
  8
0
100
AcDbBlockEnd
  0
BLOCK
  5
8E
330
8D
100
AcDbEntity
  8
0
100
AcDbBlockBegin
  2
*D3
 70
     1
 10
0.0
 20
0.0
 30
0.0
  3
*D3
  1

  0
LINE
  5
90
330
8D
100
AcDbEntity
  8
001
370
     9
100
AcDbLine
 10
166.136135
 20
127.811269
 30
0.0
 11
166.136135
 21
53.094642
 31
0.0
  0
LINE
  5
91
330
8D
100
AcDbEntity
  8
001
370
     9
100
AcDbLine
 10
86.136135
 20
105.671523
 30
0.0
 11
86.136135
 21
53.094642
 31
0.0
  0
LINE
  5
92
330
8D
100
AcDbEntity
  8
001
370
     9
100
AcDbLine
 10
166.136135
 20
55.844642
 30
0.0
 11
86.136135
 21
55.844642
 31
0.0
  0
POLYLINE
  5
93
330
8D
100
AcDbEntity
  8
001
370
     9
100
AcDb2dPolyline
 66
     1
 10
0.0
 20
0.0
 30
0.0
  0
VERTEX
  5
95
330
93
100
AcDbEntity
  8
001
370
     9
100
AcDbVertex
100
AcDb2dVertex
 10
164.636135
 20
56.246566
 30
0.0
  0
VERTEX
  5
96
330
93
100
AcDbEntity
  8
001
370
     9
100
AcDbVertex
100
AcDb2dVertex
 10
166.136135
 20
55.844642
 30
0.0
  0
VERTEX
  5
97
330
93
100
AcDbEntity
  8
001
370
     9
100
AcDbVertex
100
AcDb2dVertex
 10
164.636135
 20
55.442718
 30
0.0
  0
SEQEND
  5
94
330
93
100
AcDbEntity
  8
001
370
     9
  0
POLYLINE
  5
98
330
8D
100
AcDbEntity
  8
001
370
     9
100
AcDb2dPolyline
 66
     1
 10
0.0
 20
0.0
 30
0.0
  0
VERTEX
  5
9A
330
98
100
AcDbEntity
  8
001
370
     9
100
AcDbVertex
100
AcDb2dVertex
 10
87.636135
 20
55.442718
 30
0.0
  0
VERTEX
  5
9B
330
98
100
AcDbEntity
  8
001
370
     9
100
AcDbVertex
100
AcDb2dVertex
 10
86.136135
 20
55.844642
 30
0.0
  0
VERTEX
  5
9C
330
98
100
AcDbEntity
  8
001
370
     9
100
AcDbVertex
100
AcDb2dVertex
 10
87.636135
 20
56.246566
 30
0.0
  0
SEQEND
  5
99
330
98
100
AcDbEntity
  8
001
370
     9
  0
TEXT
  5
9D
330
8D
100
AcDbEntity
  8
001
370
    30
100
AcDbText
 10
122.136135
 20
56.844642
 30
0.0
 40
4.0
  1
８０
 41
0.833333
100
AcDbText
  0
POINT
  5
9E
330
8D
100
AcDbEntity
  8
001
370
     9
100
AcDbPoint
 10
166.136135
 20
127.811269
 30
0.0
  0
POINT
  5
9F
330
8D
100
AcDbEntity
  8
001
370
     9
100
AcDbPoint
 10
86.136135
 20
105.671523
 30
0.0
  0
POINT
  5
A0
330
8D
100
AcDbEntity
  8
001
370
     9
100
AcDbPoint
 10
86.136135
 20
55.844642
 30
0.0
  0
ENDBLK
  5
8F
330
8D
100
AcDbEntity
  8
0
100
AcDbBlockEnd
  0
BLOCK
  5
A2
330
A1
100
AcDbEntity
  8
0
100
AcDbBlockBegin
  2
*D4
 70
     1
 10
0.0
 20
0.0
 30
0.0
  3
*D4
  1

  0
LINE
  5
A4
330
A1
100
AcDbEntity
  8
001
370
     9
100
AcDbLine
 10
31.136135
 20
83.369723
 30
0.0
 11
31.136135
 21
40.366044
 31
0.0
  0
LINE
  5
A5
330
A1
100
AcDbEntity
  8
001
370
     9
100
AcDbLine
 10
166.136135
 20
127.811269
 30
0.0
 11
166.136135
 21
40.366044
 31
0.0
  0
LINE
  5
A6
330
A1
100
AcDbEntity
  8
001
370
     9
100
AcDbLine
 10
31.136135
 20
43.116044
 30
0.0
 11
166.136135
 21
43.116044
 31
0.0
  0
POLYLINE
  5
A7
330
A1
100
AcDbEntity
  8
001
370
     9
100
AcDb2dPolyline
 66
     1
 10
0.0
 20
0.0
 30
0.0
  0
VERTEX
  5
A9
330
A7
100
AcDbEntity
  8
001
370
     9
100
AcDbVertex
100
AcDb2dVertex
 10
32.636135
 20
42.71412
 30
0.0
  0
VERTEX
  5
AA
330
A7
100
AcDbEntity
  8
001
370
     9
100
AcDbVertex
100
AcDb2dVertex
 10
31.136135
 20
43.116044
 30
0.0
  0
VERTEX
  5
AB
330
A7
100
AcDbEntity
  8
001
370
     9
100
AcDbVertex
100
AcDb2dVertex
 10
32.636135
 20
43.517968
 30
0.0
  0
SEQEND
  5
A8
330
A7
100
AcDbEntity
  8
001
370
     9
  0
POLYLINE
  5
AC
330
A1
100
AcDbEntity
  8
001
370
     9
100
AcDb2dPolyline
 66
     1
 10
0.0
 20
0.0
 30
0.0
  0
VERTEX
  5
AE
330
AC
100
AcDbEntity
  8
001
370
     9
100
AcDbVertex
100
AcDb2dVertex
 10
164.636135
 20
43.517968
 30
0.0
  0
VERTEX
  5
AF
330
AC
100
AcDbEntity
  8
001
370
     9
100
AcDbVertex
100
AcDb2dVertex
 10
166.136135
 20
43.116044
 30
0.0
  0
VERTEX
  5
B0
330
AC
100
AcDbEntity
  8
001
370
     9
100
AcDbVertex
100
AcDb2dVertex
 10
164.636135
 20
42.71412
 30
0.0
  0
SEQEND
  5
AD
330
AC
100
AcDbEntity
  8
001
370
     9
  0
TEXT
  5
B1
330
A1
100
AcDbEntity
  8
001
370
    30
100
AcDbText
 10
92.636135
 20
44.116044
 30
0.0
 40
4.0
  1
１３５
 41
0.833333
100
AcDbText
  0
POINT
  5
B2
330
A1
100
AcDbEntity
  8
001
370
     9
100
AcDbPoint
 10
31.136135
 20
83.369723
 30
0.0
  0
POINT
  5
B3
330
A1
100
AcDbEntity
  8
001
370
     9
100
AcDbPoint
 10
166.136135
 20
127.811269
 30
0.0
  0
POINT
  5
B4
330
A1
100
AcDbEntity
  8
001
370
     9
100
AcDbPoint
 10
166.136135
 20
43.116044
 30
0.0
  0
ENDBLK
  5
A3
330
A1
100
AcDbEntity
  8
0
100
AcDbBlockEnd
  0
BLOCK
  5
B6
330
B5
100
AcDbEntity
  8
0
100
AcDbBlockBegin
  2
*D5
 70
     1
 10
0.0
 20
0.0
 30
0.0
  3
*D5
  1

  0
LINE
  5
B8
330
B5
100
AcDbEntity
  8
001
370
     9
100
AcDbLine
 10
158.136135
 20
119.811269
 30
0.0
 11
192.533187
 21
119.811269
 31
0.0
  0
LINE
  5
B9
330
B5
100
AcDbEntity
  8
001
370
     9
100
AcDbLine
 10
158.136135
 20
151.811269
 30
0.0
 11
192.533187
 21
151.811269
 31
0.0
  0
LINE
  5
BA
330
B5
100
AcDbEntity
  8
001
370
     9
100
AcDbLine
 10
189.783187
 20
119.811269
 30
0.0
 11
189.783187
 21
151.811269
 31
0.0
  0
POLYLINE
  5
BB
330
B5
100
AcDbEntity
  8
001
370
     9
100
AcDb2dPolyline
 66
     1
 10
0.0
 20
0.0
 30
0.0
  0
VERTEX
  5
BD
330
BB
100
AcDbEntity
  8
001
370
     9
100
AcDbVertex
100
AcDb2dVertex
 10
190.185111
 20
121.311269
 30
0.0
  0
VERTEX
  5
BE
330
BB
100
AcDbEntity
  8
001
370
     9
100
AcDbVertex
100
AcDb2dVertex
 10
189.783187
 20
119.811269
 30
0.0
  0
VERTEX
  5
BF
330
BB
100
AcDbEntity
  8
001
370
     9
100
AcDbVertex
100
AcDb2dVertex
 10
189.381263
 20
121.311269
 30
0.0
  0
SEQEND
  5
BC
330
BB
100
AcDbEntity
  8
001
370
     9
  0
POLYLINE
  5
C0
330
B5
100
AcDbEntity
  8
001
370
     9
100
AcDb2dPolyline
 66
     1
 10
0.0
 20
0.0
 30
0.0
  0
VERTEX
  5
C2
330
C0
100
AcDbEntity
  8
001
370
     9
100
AcDbVertex
100
AcDb2dVertex
 10
189.381263
 20
150.311269
 30
0.0
  0
VERTEX
  5
C3
330
C0
100
AcDbEntity
  8
001
370
     9
100
AcDbVertex
100
AcDb2dVertex
 10
189.783187
 20
151.811269
 30
0.0
  0
VERTEX
  5
C4
330
C0
100
AcDbEntity
  8
001
370
     9
100
AcDbVertex
100
AcDb2dVertex
 10
190.185111
 20
150.311269
 30
0.0
  0
SEQEND
  5
C1
330
C0
100
AcDbEntity
  8
001
370
     9
  0
TEXT
  5
C5
330
B5
100
AcDbEntity
  8
001
370
    30
100
AcDbText
 10
188.783187
 20
129.811269
 30
0.0
 40
4.0
  1
%%c３２
 50
90.000003
 41
0.882353
100
AcDbText
  0
POINT
  5
C6
330
B5
100
AcDbEntity
  8
001
370
     9
100
AcDbPoint
 10
158.136135
 20
119.811269
 30
0.0
  0
POINT
  5
C7
330
B5
100
AcDbEntity
  8
001
370
     9
100
AcDbPoint
 10
158.136135
 20
151.811269
 30
0.0
  0
POINT
  5
C8
330
B5
100
AcDbEntity
  8
001
370
     9
100
AcDbPoint
 10
189.783187
 20
151.811269
 30
0.0
  0
ENDBLK
  5
B7
330
B5
100
AcDbEntity
  8
0
100
AcDbBlockEnd
  0
BLOCK
  5
CA
330
C9
100
AcDbEntity
  8
0
100
AcDbBlockBegin
  2
*D6
 70
     1
 10
0.0
 20
0.0
 30
0.0
  3
*D6
  1

  0
LINE
  5
CC
330
C9
100
AcDbEntity
  8
001
370
     9
100
AcDbLine
 10
46.265599
 20
83.369723
 30
0.0
 11
46.265599
 21
77.572714
 31
0.0
  0
LINE
  5
CD
330
C9
100
AcDbEntity
  8
001
370
     9
100
AcDbLine
 10
31.136135
 20
83.369723
 30
0.0
 11
31.136135
 21
77.572714
 31
0.0
  0
LINE
  5
CE
330
C9
100
AcDbEntity
  8
001
370
     9
100
AcDbLine
 10
46.265599
 20
80.322714
 30
0.0
 11
31.136135
 21
80.322714
 31
0.0
  0
POLYLINE
  5
CF
330
C9
100
AcDbEntity
  8
001
370
     9
100
AcDb2dPolyline
 66
     1
 10
0.0
 20
0.0
 30
0.0
  0
VERTEX
  5
D1
330
CF
100
AcDbEntity
  8
001
370
     9
100
AcDbVertex
100
AcDb2dVertex
 10
47.765599
 20
79.92079
 30
0.0
  0
VERTEX
  5
D2
330
CF
100
AcDbEntity
  8
001
370
     9
100
AcDbVertex
100
AcDb2dVertex
 10
46.265599
 20
80.322714
 30
0.0
  0
VERTEX
  5
D3
330
CF
100
AcDbEntity
  8
001
370
     9
100
AcDbVertex
100
AcDb2dVertex
 10
47.765599
 20
80.724638
 30
0.0
  0
SEQEND
  5
D0
330
CF
100
AcDbEntity
  8
001
370
     9
  0
POLYLINE
  5
D4
330
C9
100
AcDbEntity
  8
001
370
     9
100
AcDb2dPolyline
 66
     1
 10
0.0
 20
0.0
 30
0.0
  0
VERTEX
  5
D6
330
D4
100
AcDbEntity
  8
001
370
     9
100
AcDbVertex
100
AcDb2dVertex
 10
29.636135
 20
80.724638
 30
0.0
  0
VERTEX
  5
D7
330
D4
100
AcDbEntity
  8
001
370
     9
100
AcDbVertex
100
AcDb2dVertex
 10
31.136135
 20
80.322714
 30
0.0
  0
VERTEX
  5
D8
330
D4
100
AcDbEntity
  8
001
370
     9
100
AcDbVertex
100
AcDb2dVertex
 10
29.636135
 20
79.92079
 30
0.0
  0
SEQEND
  5
D5
330
D4
100
AcDbEntity
  8
001
370
     9
  0
TEXT
  5
D9
330
C9
100
AcDbEntity
  8
001
370
    30
100
AcDbText
 10
3.636135
 20
81.322714
 30
0.0
 40
4.0
  1
（１５．１）
 41
0.833333
100
AcDbText
  0
POINT
  5
DA
330
C9
100
AcDbEntity
  8
001
370
     9
100
AcDbPoint
 10
46.265599
 20
83.369723
 30
0.0
  0
POINT
  5
DB
330
C9
100
AcDbEntity
  8
001
370
     9
100
AcDbPoint
 10
31.136135
 20
83.369723
 30
0.0
  0
POINT
  5
DC
330
C9
100
AcDbEntity
  8
001
370
     9
100
AcDbPoint
 10
31.136135
 20
80.322714
 30
0.0
  0
LINE
  5
DD
330
C9
100
AcDbEntity
  8
001
370
     9
100
AcDbLine
 10
46.265599
 20
80.322714
 30
0.0
 11
48.765599
 21
80.322714
 31
0.0
  0
LINE
  5
DE
330
C9
100
AcDbEntity
  8
001
370
     9
100
AcDbLine
 10
31.136135
 20
80.322714
 30
0.0
 11
0.636135
 21
80.322714
 31
0.0
  0
ENDBLK
  5
CB
330
C9
100
AcDbEntity
  8
0
100
AcDbBlockEnd
  0
ENDSEC
  0
SECTION
  2
ENTITIES
  0
TEXT
  5
DF
330
1F
100
AcDbEntity
  8
001
370
    30
100
AcDbText
 10
6.355417
 20
125.811269
 30
0.0
 40
4.0
  1
%%c６７．４
 50
90.000003
 41
0.862069
100
AcDbText
  0
POLYLINE
  5
E0
330
1F
100
AcDbEntity
  8
001
370
     9
100
AcDb2dPolyline
 66
     1
 10
0.0
 20
0.0
 30
0.0
  0
VERTEX
  5
E2
330
E0
100
AcDbEntity
  8
001
370
     9
100
AcDbVertex
100
AcDb2dVertex
 10
7.757341
 20
103.606269
 30
0.0
  0
VERTEX
  5
E3
330
E0
100
AcDbEntity
  8
001
370
     9
100
AcDbVertex
100
AcDb2dVertex
 10
7.355417
 20
102.106269
 30
0.0
  0
VERTEX
  5
E4
330
E0
100
AcDbEntity
  8
001
370
     9
100
AcDbVertex
100
AcDb2dVertex
 10
6.953493
 20
103.606269
 30
0.0
  0
SEQEND
  5
E1
330
E0
100
AcDbEntity
  8
001
370
     9
  0
LINE
  5
E5
330
1F
100
AcDbEntity
  8
001
370
     9
100
AcDbLine
 10
7.355417
 20
102.106269
 30
0.0
 11
7.355417
 21
169.516269
 31
0.0
  0
POLYLINE
  5
E6
330
1F
100
AcDbEntity
  8
001
370
     9
100
AcDb2dPolyline
 66
     1
 10
0.0
 20
0.0
 30
0.0
  0
VERTEX
  5
E8
330
E6
100
AcDbEntity
  8
001
370
     9
100
AcDbVertex
100
AcDb2dVertex
 10
21.932116
 20
102.106269
 30
0.0
  0
VERTEX
  5
E9
330
E6
100
AcDbEntity
  8
001
370
     9
100
AcDbVertex
100
AcDb2dVertex
 10
7.355417
 20
102.106269
 30
0.0
  0
VERTEX
  5
EA
330
E6
100
AcDbEntity
  8
001
370
     9
100
AcDbVertex
100
AcDb2dVertex
 10
4.605417
 20
102.106269
 30
0.0
  0
SEQEND
  5
E7
330
E6
100
AcDbEntity
  8
001
370
     9
  0
TEXT
  5
EB
330
1F
100
AcDbEntity
  8
001
370
    30
100
AcDbText
 10
15.128359
 20
129.811269
 30
0.0
 40
4.0
  1
%%c１５
 50
90.000003
 41
0.882353
100
AcDbText
  0
POLYLINE
  5
EC
330
1F
100
AcDbEntity
  8
001
370
     9
100
AcDb2dPolyline
 66
     1
 10
0.0
 20
0.0
 30
0.0
  0
VERTEX
  5
EE
330
EC
100
AcDbEntity
  8
001
370
     9
100
AcDbVertex
100
AcDb2dVertex
 10
16.530282
 20
129.811269
 30
0.0
  0
VERTEX
  5
EF
330
EC
100
AcDbEntity
  8
001
370
     9
100
AcDbVertex
100
AcDb2dVertex
 10
16.128359
 20
128.311269
 30
0.0
  0
VERTEX
  5
F0
330
EC
100
AcDbEntity
  8
001
370
     9
100
AcDbVertex
100
AcDb2dVertex
 10
15.726435
 20
129.811269
 30
0.0
  0
SEQEND
  5
ED
330
EC
100
AcDbEntity
  8
001
370
     9
  0
LINE
  5
F1
330
1F
100
AcDbEntity
  8
001
370
     9
100
AcDbLine
 10
16.128359
 20
128.311269
 30
0.0
 11
16.128359
 21
143.311269
 31
0.0
  0
POLYLINE
  5
F2
330
1F
100
AcDbEntity
  8
001
370
     9
100
AcDb2dPolyline
 66
     1
 10
0.0
 20
0.0
 30
0.0
  0
VERTEX
  5
F4
330
F2
100
AcDbEntity
  8
001
370
     9
100
AcDbVertex
100
AcDb2dVertex
 10
21.932116
 20
128.311269
 30
0.0
  0
VERTEX
  5
F5
330
F2
100
AcDbEntity
  8
001
370
     9
100
AcDbVertex
100
AcDb2dVertex
 10
16.128359
 20
128.311269
 30
0.0
  0
VERTEX
  5
F6
330
F2
100
AcDbEntity
  8
001
370
     9
100
AcDbVertex
100
AcDb2dVertex
 10
13.378359
 20
128.311269
 30
0.0
  0
SEQEND
  5
F3
330
F2
100
AcDbEntity
  8
001
370
     9
  0
DIMENSION
  5
F7
330
1F
100
AcDbEntity
  8
001
370
     9
100
AcDbDimension
  2
*D1
 10
31.136135
 20
128.311269
 30
0.0
 11
47.167431
 21
68.481656
 31
0.0
 70
    34
 71
     5
 42
-1.0
  3
Standard
100
AcDb2LineAngularDimension
 13
46.184402
 23
102.246905
 33
0.0
 14
31.136135
 24
128.311269
 34
0.0
 15
31.136135
 25
83.369723
 35
0.0
 16
47.943889
 26
65.583878
 36
0.0
  0
DIMENSION
  5
F8
330
1F
100
AcDbEntity
  8
001
370
     9
100
AcDbDimension
  2
*D2
 10
31.136135
 20
55.844642
 30
0.0
 11
58.636135
 21
58.844642
 31
0.0
 70
   160
 71
     5
 42
-1.0
  3
Standard
100
AcDbAlignedDimension
 13
86.136135
 23
105.671523
 33
0.0
 14
31.136135
 24
83.369723
 34
0.0
 50
180.0
100
AcDbRotatedDimension
  0
DIMENSION
  5
F9
330
1F
100
AcDbEntity
  8
001
370
     9
100
AcDbDimension
  2
*D3
 10
86.136135
 20
55.844642
 30
0.0
 11
126.136135
 21
58.844642
 31
0.0
 70
   160
 71
     5
 42
-1.0
  3
Standard
100
AcDbAlignedDimension
 13
166.136135
 23
127.811269
 33
0.0
 14
86.136135
 24
105.671523
 34
0.0
 50
180.0
100
AcDbRotatedDimension
  0
DIMENSION
  5
FA
330
1F
100
AcDbEntity
  8
001
370
     9
100
AcDbDimension
  2
*D4
 10
166.136135
 20
43.116044
 30
0.0
 11
98.636135
 21
46.116044
 31
0.0
 70
   160
 71
     5
 42
-1.0
  3
Standard
100
AcDbAlignedDimension
 13
31.136135
 23
83.369723
 33
0.0
 14
166.136135
 24
127.811269
 34
0.0
100
AcDbRotatedDimension
  0
DIMENSION
  5
FB
330
1F
100
AcDbEntity
  8
001
370
     9
100
AcDbDimension
  2
*D5
 10
189.783187
 20
151.811269
 30
0.0
 11
186.783187
 21
135.811269
 31
0.0
 70
   160
 71
     5
 42
-1.0
  3
Standard
100
AcDbAlignedDimension
 13
158.136135
 23
119.811269
 33
0.0
 14
158.136135
 24
151.811269
 34
0.0
 50
90.0
100
AcDbRotatedDimension
  0
DIMENSION
  5
FC
330
1F
100
AcDbEntity
  8
001
370
     9
100
AcDbDimension
  2
*D6
 10
31.136135
 20
80.322714
 30
0.0
 11
15.636135
 21
83.322714
 31
0.0
 70
   160
 71
     5
 42
-1.0
  3
Standard
100
AcDbAlignedDimension
 13
46.265599
 23
83.369723
 33
0.0
 14
31.136135
 24
83.369723
 34
0.0
 50
180.0
100
AcDbRotatedDimension
  0
TEXT
  5
FD
330
1F
100
AcDbEntity
  8
001
370
    30
100
AcDbText
 10
-3.044163
 20
121.811269
 30
0.0
 40
4.0
  1
（%%c７９．１）
 50
90.000003
 41
0.853659
100
AcDbText
  0
POLYLINE
  5
FE
330
1F
100
AcDbEntity
  8
001
370
     9
100
AcDb2dPolyline
 66
     1
 10
0.0
 20
0.0
 30
0.0
  0
VERTEX
  5
100
330
FE
100
AcDbEntity
  8
001
370
     9
100
AcDbVertex
100
AcDb2dVertex
 10
-1.642239
 20
97.786269
 30
0.0
  0
VERTEX
  5
101
330
FE
100
AcDbEntity
  8
001
370
     9
100
AcDbVertex
100
AcDb2dVertex
 10
-2.044163
 20
96.286269
 30
0.0
  0
VERTEX
  5
102
330
FE
100
AcDbEntity
  8
001
370
     9
100
AcDbVertex
100
AcDb2dVertex
 10
-2.446087
 20
97.786269
 30
0.0
  0
SEQEND
  5
FF
330
FE
100
AcDbEntity
  8
001
370
     9
  0
LINE
  5
103
330
1F
100
AcDbEntity
  8
001
370
     9
100
AcDbLine
 10
-2.044163
 20
96.286269
 30
0.0
 11
-2.044163
 21
175.336269
 31
0.0
  0
POLYLINE
  5
104
330
1F
100
AcDbEntity
  8
001
370
     9
100
AcDb2dPolyline
 66
     1
 10
0.0
 20
0.0
 30
0.0
  0
VERTEX
  5
106
330
104
100
AcDbEntity
  8
001
370
     9
100
AcDbVertex
100
AcDb2dVertex
 10
21.932116
 20
96.286269
 30
0.0
  0
VERTEX
  5
107
330
104
100
AcDbEntity
  8
001
370
     9
100
AcDbVertex
100
AcDb2dVertex
 10
-2.044163
 20
96.286269
 30
0.0
  0
VERTEX
  5
108
330
104
100
AcDbEntity
  8
001
370
     9
100
AcDbVertex
100
AcDb2dVertex
 10
-4.794163
 20
96.286269
 30
0.0
  0
SEQEND
  5
105
330
104
100
AcDbEntity
  8
001
370
     9
  0
LINE
  5
109
330
1F
100
AcDbEntity
  8
001
370
    50
100
AcDbLine
 10
68.037863
 20
156.98934
 30
0.0
 11
67.265972
 21
160.979724
 31
0.0
  0
POLYLINE
  5
10A
330
1F
100
AcDbEntity
  8
001
370
    50
100
AcDb2dPolyline
 66
     1
 10
0.0
 20
0.0
 30
0.0
  0
VERTEX
  5
10C
330
10A
100
AcDbEntity
  8
001
370
    50
100
AcDbVertex
100
AcDb2dVertex
 10
68.005248
 20
156.984755
 30
0.0
  0
VERTEX
  5
10D
330
10A
100
AcDbEntity
  8
001
370
    50
100
AcDbVertex
100
AcDb2dVertex
 10
67.995493
 20
156.991584
 30
0.0
  0
VERTEX
  5
10E
330
10A
100
AcDbEntity
  8
001
370
    50
100
AcDbVertex
100
AcDb2dVertex
 10
67.981073
 20
157.000749
 30
0.0
  0
VERTEX
  5
10F
330
10A
100
AcDbEntity
  8
001
370
    50
100
AcDbVertex
100
AcDb2dVertex
 10
67.901146
 20
157.034123
 30
0.0
  0
VERTEX
  5
110
330
10A
100
AcDbEntity
  8
001
370
    50
100
AcDbVertex
100
AcDb2dVertex
 10
67.823616
 20
157.043829
 30
0.0
  0
VERTEX
  5
111
330
10A
100
AcDbEntity
  8
001
370
    50
100
AcDbVertex
100
AcDb2dVertex
 10
67.756874
 20
157.045156
 30
0.0
  0
VERTEX
  5
112
330
10A
100
AcDbEntity
  8
001
370
    50
100
AcDbVertex
100
AcDb2dVertex
 10
67.691001
 20
157.04204
 30
0.0
  0
VERTEX
  5
113
330
10A
100
AcDbEntity
  8
001
370
    50
100
AcDbVertex
100
AcDb2dVertex
 10
67.658046
 20
157.038169
 30
0.0
  0
VERTEX
  5
114
330
10A
100
AcDbEntity
  8
001
370
    50
100
AcDbVertex
100
AcDb2dVertex
 10
67.622237
 20
157.031791
 30
0.0
  0
VERTEX
  5
115
330
10A
100
AcDbEntity
  8
001
370
    50
100
AcDbVertex
100
AcDb2dVertex
 10
67.586417
 20
157.023813
 30
0.0
  0
VERTEX
  5
116
330
10A
100
AcDbEntity
  8
001
370
    50
100
AcDbVertex
100
AcDb2dVertex
 10
67.560656
 20
157.017355
 30
0.0
  0
SEQEND
  5
10B
330
10A
100
AcDbEntity
  8
001
370
    50
  0
POLYLINE
  5
117
330
1F
100
AcDbEntity
  8
001
370
    50
100
AcDb2dPolyline
 66
     1
 10
0.0
 20
0.0
 30
0.0
  0
VERTEX
  5
119
330
117
100
AcDbEntity
  8
001
370
    50
100
AcDbVertex
100
AcDb2dVertex
 10
67.265972
 20
160.979724
 30
0.0
  0
VERTEX
  5
11A
330
117
100
AcDbEntity
  8
001
370
    50
100
AcDbVertex
100
AcDb2dVertex
 10
67.261659
 20
160.993732
 30
0.0
  0
VERTEX
  5
11B
330
117
100
AcDbEntity
  8
001
370
    50
100
AcDbVertex
100
AcDb2dVertex
 10
67.253501
 20
161.012199
 30
0.0
  0
VERTEX
  5
11C
330
117
100
AcDbEntity
  8
001
370
    50
100
AcDbVertex
100
AcDb2dVertex
 10
67.242405
 20
161.028516
 30
0.0
  0
VERTEX
  5
11D
330
117
100
AcDbEntity
  8
001
370
    50
100
AcDbVertex
100
AcDb2dVertex
 10
67.229476
 20
161.041379
 30
0.0
  0
VERTEX
  5
11E
330
117
100
AcDbEntity
  8
001
370
    50
100
AcDbVertex
100
AcDb2dVertex
 10
67.2128
 20
161.054541
 30
0.0
  0
VERTEX
  5
11F
330
117
100
AcDbEntity
  8
001
370
    50
100
AcDbVertex
100
AcDb2dVertex
 10
67.194627
 20
161.066377
 30
0.0
  0
VERTEX
  5
120
330
117
100
AcDbEntity
  8
001
370
    50
100
AcDbVertex
100
AcDb2dVertex
 10
67.118942
 20
161.096861
 30
0.0
  0
VERTEX
  5
121
330
117
100
AcDbEntity
  8
001
370
    50
100
AcDbVertex
100
AcDb2dVertex
 10
67.03717
 20
161.109456
 30
0.0
  0
VERTEX
  5
122
330
117
100
AcDbEntity
  8
001
370
    50
100
AcDbVertex
100
AcDb2dVertex
 10
66.969646
 20
161.111316
 30
0.0
  0
VERTEX
  5
123
330
117
100
AcDbEntity
  8
001
370
    50
100
AcDbVertex
100
AcDb2dVertex
 10
66.904555
 20
161.107668
 30
0.0
  0
VERTEX
  5
124
330
117
100
AcDbEntity
  8
001
370
    50
100
AcDbVertex
100
AcDb2dVertex
 10
66.87168
 20
161.103742
 30
0.0
  0
VERTEX
  5
125
330
117
100
AcDbEntity
  8
001
370
    50
100
AcDbVertex
100
AcDb2dVertex
 10
66.835791
 20
161.097418
 30
0.0
  0
VERTEX
  5
126
330
117
100
AcDbEntity
  8
001
370
    50
100
AcDbVertex
100
AcDb2dVertex
 10
66.799957
 20
161.08945
 30
0.0
  0
VERTEX
  5
127
330
117
100
AcDbEntity
  8
001
370
    50
100
AcDbVertex
100
AcDb2dVertex
 10
66.77421
 20
161.082983
 30
0.0
  0
SEQEND
  5
118
330
117
100
AcDbEntity
  8
001
370
    50
  0
POLYLINE
  5
128
330
1F
100
AcDbEntity
  8
001
370
    50
100
AcDb2dPolyline
 66
     1
 10
0.0
 20
0.0
 30
0.0
  0
VERTEX
  5
12A
330
128
100
AcDbEntity
  8
001
370
    50
100
AcDbVertex
100
AcDb2dVertex
 10
47.207799
 20
151.388433
 30
0.0
  0
VERTEX
  5
12B
330
128
100
AcDbEntity
  8
001
370
    50
100
AcDbVertex
100
AcDb2dVertex
 10
47.205333
 20
151.387743
 30
0.0
  0
VERTEX
  5
12C
330
128
100
AcDbEntity
  8
001
370
    50
100
AcDbVertex
100
AcDb2dVertex
 10
47.201754
 20
151.386735
 30
0.0
  0
VERTEX
  5
12D
330
128
100
AcDbEntity
  8
001
370
    50
100
AcDbVertex
100
AcDb2dVertex
 10
47.135523
 20
151.365969
 30
0.0
  0
VERTEX
  5
12E
330
128
100
AcDbEntity
  8
001
370
    50
100
AcDbVertex
100
AcDb2dVertex
 10
47.078038
 20
151.338939
 30
0.0
  0
VERTEX
  5
12F
330
128
100
AcDbEntity
  8
001
370
    50
100
AcDbVertex
100
AcDb2dVertex
 10
47.01266
 20
151.297211
 30
0.0
  0
VERTEX
  5
130
330
128
100
AcDbEntity
  8
001
370
    50
100
AcDbVertex
100
AcDb2dVertex
 10
46.966786
 20
151.26126
 30
0.0
  0
SEQEND
  5
129
330
128
100
AcDbEntity
  8
001
370
    50
  0
LINE
  5
131
330
1F
100
AcDbEntity
  8
001
370
    50
100
AcDbLine
 10
47.207799
 20
151.388433
 30
0.0
 11
67.560656
 21
157.017355
 31
0.0
  0
POLYLINE
  5
132
330
1F
100
AcDbEntity
  8
001
370
    50
100
AcDb2dPolyline
 66
     1
 10
0.0
 20
0.0
 30
0.0
  0
VERTEX
  5
134
330
132
100
AcDbEntity
  8
001
370
    50
100
AcDbVertex
100
AcDb2dVertex
 10
31.924364
 20
136.03685
 30
0.0
  0
VERTEX
  5
135
330
132
100
AcDbEntity
  8
001
370
    50
100
AcDbVertex
100
AcDb2dVertex
 10
31.92866
 20
136.022843
 30
0.0
  0
VERTEX
  5
136
330
132
100
AcDbEntity
  8
001
370
    50
100
AcDbVertex
100
AcDb2dVertex
 10
31.936835
 20
136.004375
 30
0.0
  0
VERTEX
  5
137
330
132
100
AcDbEntity
  8
001
370
    50
100
AcDbVertex
100
AcDb2dVertex
 10
31.948027
 20
135.98805
 30
0.0
  0
VERTEX
  5
138
330
132
100
AcDbEntity
  8
001
370
    50
100
AcDbVertex
100
AcDb2dVertex
 10
31.96086
 20
135.975195
 30
0.0
  0
VERTEX
  5
139
330
132
100
AcDbEntity
  8
001
370
    50
100
AcDbVertex
100
AcDb2dVertex
 10
31.977098
 20
135.962068
 30
0.0
  0
VERTEX
  5
13A
330
132
100
AcDbEntity
  8
001
370
    50
100
AcDbVertex
100
AcDb2dVertex
 10
31.995709
 20
135.950197
 30
0.0
  0
VERTEX
  5
13B
330
132
100
AcDbEntity
  8
001
370
    50
100
AcDbVertex
100
AcDb2dVertex
 10
32.073962
 20
135.921075
 30
0.0
  0
VERTEX
  5
13C
330
132
100
AcDbEntity
  8
001
370
    50
100
AcDbVertex
100
AcDb2dVertex
 10
32.136135
 20
135.908844
 30
0.0
  0
SEQEND
  5
133
330
132
100
AcDbEntity
  8
001
370
    50
  0
LINE
  5
13D
330
1F
100
AcDbEntity
  8
001
370
    50
100
AcDbLine
 10
31.977029
 20
136.164869
 30
0.0
 11
37.567882
 21
141.795495
 31
0.0
  0
LINE
  5
13E
330
1F
100
AcDbEntity
  8
001
370
    50
100
AcDbLine
 10
37.567882
 20
141.795495
 30
0.0
 11
46.966786
 21
151.26126
 31
0.0
  0
LINE
  5
13F
330
1F
100
AcDbEntity
  8
001
370
    50
100
AcDbLine
 10
46.421353
 20
155.45406
 30
0.0
 11
66.77421
 21
161.082983
 31
0.0
  0
POLYLINE
  5
140
330
1F
100
AcDbEntity
  8
001
370
    50
100
AcDb2dPolyline
 66
     1
 10
0.0
 20
0.0
 30
0.0
  0
VERTEX
  5
142
330
140
100
AcDbEntity
  8
001
370
    50
100
AcDbVertex
100
AcDb2dVertex
 10
46.421353
 20
155.45406
 30
0.0
  0
VERTEX
  5
143
330
140
100
AcDbEntity
  8
001
370
    50
100
AcDbVertex
100
AcDb2dVertex
 10
46.418887
 20
155.453371
 30
0.0
  0
VERTEX
  5
144
330
140
100
AcDbEntity
  8
001
370
    50
100
AcDbVertex
100
AcDb2dVertex
 10
46.415308
 20
155.452362
 30
0.0
  0
VERTEX
  5
145
330
140
100
AcDbEntity
  8
001
370
    50
100
AcDbVertex
100
AcDb2dVertex
 10
46.349077
 20
155.431597
 30
0.0
  0
VERTEX
  5
146
330
140
100
AcDbEntity
  8
001
370
    50
100
AcDbVertex
100
AcDb2dVertex
 10
46.291592
 20
155.404567
 30
0.0
  0
VERTEX
  5
147
330
140
100
AcDbEntity
  8
001
370
    50
100
AcDbVertex
100
AcDb2dVertex
 10
46.226214
 20
155.362838
 30
0.0
  0
VERTEX
  5
148
330
140
100
AcDbEntity
  8
001
370
    50
100
AcDbVertex
100
AcDb2dVertex
 10
46.18034
 20
155.326887
 30
0.0
  0
SEQEND
  5
141
330
140
100
AcDbEntity
  8
001
370
    50
  0
LINE
  5
149
330
1F
100
AcDbEntity
  8
001
370
    50
100
AcDbLine
 10
31.190583
 20
140.230497
 30
0.0
 11
46.18034
 21
155.326887
 31
0.0
  0
POLYLINE
  5
14A
330
1F
100
AcDbEntity
  8
001
370
    50
100
AcDb2dPolyline
 66
     1
 10
0.0
 20
0.0
 30
0.0
  0
VERTEX
  5
14C
330
14A
100
AcDbEntity
  8
001
370
    50
100
AcDbVertex
100
AcDb2dVertex
 10
31.977029
 20
136.164869
 30
0.0
  0
VERTEX
  5
14D
330
14A
100
AcDbEntity
  8
001
370
    50
100
AcDbVertex
100
AcDb2dVertex
 10
31.968985
 20
136.156296
 30
0.0
  0
VERTEX
  5
14E
330
14A
100
AcDbEntity
  8
001
370
    50
100
AcDbVertex
100
AcDb2dVertex
 10
31.958247
 20
136.143858
 30
0.0
  0
VERTEX
  5
14F
330
14A
100
AcDbEntity
  8
001
370
    50
100
AcDbVertex
100
AcDb2dVertex
 10
31.945005
 20
136.125419
 30
0.0
  0
VERTEX
  5
150
330
14A
100
AcDbEntity
  8
001
370
    50
100
AcDbVertex
100
AcDb2dVertex
 10
31.935235
 20
136.107667
 30
0.0
  0
VERTEX
  5
151
330
14A
100
AcDbEntity
  8
001
370
    50
100
AcDbVertex
100
AcDb2dVertex
 10
31.928209
 20
136.091059
 30
0.0
  0
VERTEX
  5
152
330
14A
100
AcDbEntity
  8
001
370
    50
100
AcDbVertex
100
AcDb2dVertex
 10
31.923825
 20
136.071633
 30
0.0
  0
VERTEX
  5
153
330
14A
100
AcDbEntity
  8
001
370
    50
100
AcDbVertex
100
AcDb2dVertex
 10
31.923111
 20
136.05143
 30
0.0
  0
VERTEX
  5
154
330
14A
100
AcDbEntity
  8
001
370
    50
100
AcDbVertex
100
AcDb2dVertex
 10
31.924364
 20
136.03685
 30
0.0
  0
SEQEND
  5
14B
330
14A
100
AcDbEntity
  8
001
370
    50
  0
POLYLINE
  5
155
330
1F
100
AcDbEntity
  8
001
370
    50
100
AcDb2dPolyline
 66
     1
 10
0.0
 20
0.0
 30
0.0
  0
VERTEX
  5
157
330
155
100
AcDbEntity
  8
001
370
    50
100
AcDbVertex
100
AcDb2dVertex
 10
31.190583
 20
140.230497
 30
0.0
  0
VERTEX
  5
158
330
155
100
AcDbEntity
  8
001
370
    50
100
AcDbVertex
100
AcDb2dVertex
 10
31.182539
 20
140.221924
 30
0.0
  0
VERTEX
  5
159
330
155
100
AcDbEntity
  8
001
370
    50
100
AcDbVertex
100
AcDb2dVertex
 10
31.171801
 20
140.209486
 30
0.0
  0
VERTEX
  5
15A
330
155
100
AcDbEntity
  8
001
370
    50
100
AcDbVertex
100
AcDb2dVertex
 10
31.158559
 20
140.191046
 30
0.0
  0
VERTEX
  5
15B
330
155
100
AcDbEntity
  8
001
370
    50
100
AcDbVertex
100
AcDb2dVertex
 10
31.148789
 20
140.173295
 30
0.0
  0
VERTEX
  5
15C
330
155
100
AcDbEntity
  8
001
370
    50
100
AcDbVertex
100
AcDb2dVertex
 10
31.141763
 20
140.156687
 30
0.0
  0
VERTEX
  5
15D
330
155
100
AcDbEntity
  8
001
370
    50
100
AcDbVertex
100
AcDb2dVertex
 10
31.137379
 20
140.13726
 30
0.0
  0
VERTEX
  5
15E
330
155
100
AcDbEntity
  8
001
370
    50
100
AcDbVertex
100
AcDb2dVertex
 10
31.136665
 20
140.117057
 30
0.0
  0
VERTEX
  5
15F
330
155
100
AcDbEntity
  8
001
370
    50
100
AcDbVertex
100
AcDb2dVertex
 10
31.137918
 20
140.102477
 30
0.0
  0
SEQEND
  5
156
330
155
100
AcDbEntity
  8
001
370
    50
  0
LINE
  5
160
330
1F
100
AcDbEntity
  8
001
370
    50
100
AcDbLine
 10
31.137918
 20
140.102477
 30
0.0
 11
31.924364
 21
136.03685
 31
0.0
  0
LINE
  5
161
330
1F
100
AcDbEntity
  8
001
370
    50
100
AcDbLine
 10
67.397329
 20
97.145561
 30
0.0
 11
52.22355
 21
123.30623
 31
0.0
  0
POLYLINE
  5
162
330
1F
100
AcDbEntity
  8
001
370
    50
100
AcDb2dPolyline
 66
     1
 10
0.0
 20
0.0
 30
0.0
  0
VERTEX
  5
164
330
162
100
AcDbEntity
  8
001
370
    50
100
AcDbVertex
100
AcDb2dVertex
 10
49.201945
 20
109.107917
 30
0.0
  0
VERTEX
  5
165
330
162
100
AcDbEntity
  8
001
370
    50
100
AcDbVertex
100
AcDb2dVertex
 10
49.473056
 20
109.122184
 30
0.0
  0
VERTEX
  5
166
330
162
100
AcDbEntity
  8
001
370
    50
100
AcDbVertex
100
AcDb2dVertex
 10
49.844176
 20
109.164888
 30
0.0
  0
VERTEX
  5
167
330
162
100
AcDbEntity
  8
001
370
    50
100
AcDbVertex
100
AcDb2dVertex
 10
50.173179
 20
109.235811
 30
0.0
  0
VERTEX
  5
168
330
162
100
AcDbEntity
  8
001
370
    50
100
AcDbVertex
100
AcDb2dVertex
 10
50.466894
 20
109.33407
 30
0.0
  0
VERTEX
  5
169
330
162
100
AcDbEntity
  8
001
370
    50
100
AcDbVertex
100
AcDb2dVertex
 10
50.760804
 20
109.459031
 30
0.0
  0
VERTEX
  5
16A
330
162
100
AcDbEntity
  8
001
370
    50
100
AcDbVertex
100
AcDb2dVertex
 10
51.051176
 20
109.610322
 30
0.0
  0
VERTEX
  5
16B
330
162
100
AcDbEntity
  8
001
370
    50
100
AcDbVertex
100
AcDb2dVertex
 10
51.819966
 20
110.208132
 30
0.0
  0
VERTEX
  5
16C
330
162
100
AcDbEntity
  8
001
370
    50
100
AcDbVertex
100
AcDb2dVertex
 10
52.404908
 20
110.982917
 30
0.0
  0
VERTEX
  5
16D
330
162
100
AcDbEntity
  8
001
370
    50
100
AcDbVertex
100
AcDb2dVertex
 10
52.677612
 20
111.576748
 30
0.0
  0
VERTEX
  5
16E
330
162
100
AcDbEntity
  8
001
370
    50
100
AcDbVertex
100
AcDb2dVertex
 10
52.84422
 20
112.206737
 30
0.0
  0
VERTEX
  5
16F
330
162
100
AcDbEntity
  8
001
370
    50
100
AcDbVertex
100
AcDb2dVertex
 10
52.886365
 20
112.53122
 30
0.0
  0
VERTEX
  5
170
330
162
100
AcDbEntity
  8
001
370
    50
100
AcDbVertex
100
AcDb2dVertex
 10
52.900408
 20
112.857917
 30
0.0
  0
VERTEX
  5
171
330
162
100
AcDbEntity
  8
001
370
    50
100
AcDbVertex
100
AcDb2dVertex
 10
52.886365
 20
113.184615
 30
0.0
  0
VERTEX
  5
172
330
162
100
AcDbEntity
  8
001
370
    50
100
AcDbVertex
100
AcDb2dVertex
 10
52.84422
 20
113.509098
 30
0.0
  0
VERTEX
  5
173
330
162
100
AcDbEntity
  8
001
370
    50
100
AcDbVertex
100
AcDb2dVertex
 10
52.677612
 20
114.139087
 30
0.0
  0
VERTEX
  5
174
330
162
100
AcDbEntity
  8
001
370
    50
100
AcDbVertex
100
AcDb2dVertex
 10
52.404908
 20
114.732917
 30
0.0
  0
VERTEX
  5
175
330
162
100
AcDbEntity
  8
001
370
    50
100
AcDbVertex
100
AcDb2dVertex
 10
51.819966
 20
115.507703
 30
0.0
  0
VERTEX
  5
176
330
162
100
AcDbEntity
  8
001
370
    50
100
AcDbVertex
100
AcDb2dVertex
 10
51.051176
 20
116.105513
 30
0.0
  0
VERTEX
  5
177
330
162
100
AcDbEntity
  8
001
370
    50
100
AcDbVertex
100
AcDb2dVertex
 10
50.760804
 20
116.256804
 30
0.0
  0
VERTEX
  5
178
330
162
100
AcDbEntity
  8
001
370
    50
100
AcDbVertex
100
AcDb2dVertex
 10
50.466894
 20
116.381765
 30
0.0
  0
VERTEX
  5
179
330
162
100
AcDbEntity
  8
001
370
    50
100
AcDbVertex
100
AcDb2dVertex
 10
50.173179
 20
116.480023
 30
0.0
  0
VERTEX
  5
17A
330
162
100
AcDbEntity
  8
001
370
    50
100
AcDbVertex
100
AcDb2dVertex
 10
49.844176
 20
116.550946
 30
0.0
  0
VERTEX
  5
17B
330
162
100
AcDbEntity
  8
001
370
    50
100
AcDbVertex
100
AcDb2dVertex
 10
49.473056
 20
116.59365
 30
0.0
  0
VERTEX
  5
17C
330
162
100
AcDbEntity
  8
001
370
    50
100
AcDbVertex
100
AcDb2dVertex
 10
49.201945
 20
116.607917
 30
0.0
  0
SEQEND
  5
163
330
162
100
AcDbEntity
  8
001
370
    50
  0
LINE
  5
17D
330
1F
100
AcDbEntity
  8
001
370
    50
100
AcDbLine
 10
54.674862
 20
120.435882
 30
0.0
 11
53.009996
 21
123.30623
 31
0.0
  0
POLYLINE
  5
17E
330
1F
100
AcDbEntity
  8
001
370
    50
100
AcDb2dPolyline
 66
     1
 10
0.0
 20
0.0
 30
0.0
  0
VERTEX
  5
180
330
17E
100
AcDbEntity
  8
001
370
    50
100
AcDbVertex
100
AcDb2dVertex
 10
49.201945
 20
116.607917
 30
0.0
  0
VERTEX
  5
181
330
17E
100
AcDbEntity
  8
001
370
    50
100
AcDbVertex
100
AcDb2dVertex
 10
48.930834
 20
116.59365
 30
0.0
  0
VERTEX
  5
182
330
17E
100
AcDbEntity
  8
001
370
    50
100
AcDbVertex
100
AcDb2dVertex
 10
48.559714
 20
116.550946
 30
0.0
  0
VERTEX
  5
183
330
17E
100
AcDbEntity
  8
001
370
    50
100
AcDbVertex
100
AcDb2dVertex
 10
48.230711
 20
116.480023
 30
0.0
  0
VERTEX
  5
184
330
17E
100
AcDbEntity
  8
001
370
    50
100
AcDbVertex
100
AcDb2dVertex
 10
47.936996
 20
116.381765
 30
0.0
  0
VERTEX
  5
185
330
17E
100
AcDbEntity
  8
001
370
    50
100
AcDbVertex
100
AcDb2dVertex
 10
47.643086
 20
116.256804
 30
0.0
  0
VERTEX
  5
186
330
17E
100
AcDbEntity
  8
001
370
    50
100
AcDbVertex
100
AcDb2dVertex
 10
47.352713
 20
116.105513
 30
0.0
  0
VERTEX
  5
187
330
17E
100
AcDbEntity
  8
001
370
    50
100
AcDbVertex
100
AcDb2dVertex
 10
46.583924
 20
115.507703
 30
0.0
  0
VERTEX
  5
188
330
17E
100
AcDbEntity
  8
001
370
    50
100
AcDbVertex
100
AcDb2dVertex
 10
45.998982
 20
114.732917
 30
0.0
  0
VERTEX
  5
189
330
17E
100
AcDbEntity
  8
001
370
    50
100
AcDbVertex
100
AcDb2dVertex
 10
45.726277
 20
114.139087
 30
0.0
  0
VERTEX
  5
18A
330
17E
100
AcDbEntity
  8
001
370
    50
100
AcDbVertex
100
AcDb2dVertex
 10
45.55967
 20
113.509098
 30
0.0
  0
VERTEX
  5
18B
330
17E
100
AcDbEntity
  8
001
370
    50
100
AcDbVertex
100
AcDb2dVertex
 10
45.517525
 20
113.184615
 30
0.0
  0
VERTEX
  5
18C
330
17E
100
AcDbEntity
  8
001
370
    50
100
AcDbVertex
100
AcDb2dVertex
 10
45.503482
 20
112.857917
 30
0.0
  0
VERTEX
  5
18D
330
17E
100
AcDbEntity
  8
001
370
    50
100
AcDbVertex
100
AcDb2dVertex
 10
45.517525
 20
112.53122
 30
0.0
  0
VERTEX
  5
18E
330
17E
100
AcDbEntity
  8
001
370
    50
100
AcDbVertex
100
AcDb2dVertex
 10
45.55967
 20
112.206737
 30
0.0
  0
VERTEX
  5
18F
330
17E
100
AcDbEntity
  8
001
370
    50
100
AcDbVertex
100
AcDb2dVertex
 10
45.726277
 20
111.576748
 30
0.0
  0
VERTEX
  5
190
330
17E
100
AcDbEntity
  8
001
370
    50
100
AcDbVertex
100
AcDb2dVertex
 10
45.998982
 20
110.982917
 30
0.0
  0
VERTEX
  5
191
330
17E
100
AcDbEntity
  8
001
370
    50
100
AcDbVertex
100
AcDb2dVertex
 10
46.583924
 20
110.208132
 30
0.0
  0
VERTEX
  5
192
330
17E
100
AcDbEntity
  8
001
370
    50
100
AcDbVertex
100
AcDb2dVertex
 10
47.352713
 20
109.610322
 30
0.0
  0
VERTEX
  5
193
330
17E
100
AcDbEntity
  8
001
370
    50
100
AcDbVertex
100
AcDb2dVertex
 10
47.643086
 20
109.459031
 30
0.0
  0
VERTEX
  5
194
330
17E
100
AcDbEntity
  8
001
370
    50
100
AcDbVertex
100
AcDb2dVertex
 10
47.936996
 20
109.33407
 30
0.0
  0
VERTEX
  5
195
330
17E
100
AcDbEntity
  8
001
370
    50
100
AcDbVertex
100
AcDb2dVertex
 10
48.230711
 20
109.235811
 30
0.0
  0
VERTEX
  5
196
330
17E
100
AcDbEntity
  8
001
370
    50
100
AcDbVertex
100
AcDb2dVertex
 10
48.559714
 20
109.164888
 30
0.0
  0
VERTEX
  5
197
330
17E
100
AcDbEntity
  8
001
370
    50
100
AcDbVertex
100
AcDb2dVertex
 10
48.930834
 20
109.122184
 30
0.0
  0
VERTEX
  5
198
330
17E
100
AcDbEntity
  8
001
370
    50
100
AcDbVertex
100
AcDb2dVertex
 10
49.201945
 20
109.107917
 30
0.0
  0
SEQEND
  5
17F
330
17E
100
AcDbEntity
  8
001
370
    50
  0
POLYLINE
  5
199
330
1F
100
AcDbEntity
  8
001
370
    50
100
AcDb2dPolyline
 66
     1
 10
0.0
 20
0.0
 30
0.0
  0
VERTEX
  5
19B
330
199
100
AcDbEntity
  8
001
370
    50
100
AcDbVertex
100
AcDb2dVertex
 10
53.009996
 20
123.30623
 30
0.0
  0
VERTEX
  5
19C
330
199
100
AcDbEntity
  8
001
370
    50
100
AcDbVertex
100
AcDb2dVertex
 10
52.953462
 20
123.375023
 30
0.0
  0
VERTEX
  5
19D
330
199
100
AcDbEntity
  8
001
370
    50
100
AcDbVertex
100
AcDb2dVertex
 10
52.867192
 20
123.449865
 30
0.0
  0
VERTEX
  5
19E
330
199
100
AcDbEntity
  8
001
370
    50
100
AcDbVertex
100
AcDb2dVertex
 10
52.838287
 20
123.466085
 30
0.0
  0
VERTEX
  5
19F
330
199
100
AcDbEntity
  8
001
370
    50
100
AcDbVertex
100
AcDb2dVertex
 10
52.804869
 20
123.479332
 30
0.0
  0
VERTEX
  5
1A0
330
199
100
AcDbEntity
  8
001
370
    50
100
AcDbVertex
100
AcDb2dVertex
 10
52.784027
 20
123.486175
 30
0.0
  0
VERTEX
  5
1A1
330
199
100
AcDbEntity
  8
001
370
    50
100
AcDbVertex
100
AcDb2dVertex
 10
52.768983
 20
123.490644
 30
0.0
  0
SEQEND
  5
19A
330
199
100
AcDbEntity
  8
001
370
    50
  0
LINE
  5
1A2
330
1F
100
AcDbEntity
  8
001
370
    50
100
AcDbLine
 10
52.768983
 20
123.490644
 30
0.0
 11
48.809657
 21
124.531855
 31
0.0
  0
LINE
  5
1A3
330
1F
100
AcDbEntity
  8
001
370
    50
100
AcDbLine
 10
43.727768
 20
125.868273
 30
0.0
 11
37.17511
 21
127.591469
 31
0.0
  0
POLYLINE
  5
1A4
330
1F
100
AcDbEntity
  8
001
370
    50
100
AcDb2dPolyline
 66
     1
 10
0.0
 20
0.0
 30
0.0
  0
VERTEX
  5
1A6
330
1A4
100
AcDbEntity
  8
001
370
    50
100
AcDbVertex
100
AcDb2dVertex
 10
31.924364
 20
142.941174
 30
0.0
  0
VERTEX
  5
1A7
330
1A4
100
AcDbEntity
  8
001
370
    50
100
AcDbVertex
100
AcDb2dVertex
 10
31.923146
 20
142.926565
 30
0.0
  0
VERTEX
  5
1A8
330
1A4
100
AcDbEntity
  8
001
370
    50
100
AcDbVertex
100
AcDb2dVertex
 10
31.923825
 20
142.906391
 30
0.0
  0
VERTEX
  5
1A9
330
1A4
100
AcDbEntity
  8
001
370
    50
100
AcDbVertex
100
AcDb2dVertex
 10
31.928008
 20
142.887125
 30
0.0
  0
VERTEX
  5
1AA
330
1A4
100
AcDbEntity
  8
001
370
    50
100
AcDbVertex
100
AcDb2dVertex
 10
31.935235
 20
142.870356
 30
0.0
  0
VERTEX
  5
1AB
330
1A4
100
AcDbEntity
  8
001
370
    50
100
AcDbVertex
100
AcDb2dVertex
 10
31.945922
 20
142.851869
 30
0.0
  0
VERTEX
  5
1AC
330
1A4
100
AcDbEntity
  8
001
370
    50
100
AcDbVertex
100
AcDb2dVertex
 10
31.958247
 20
142.834165
 30
0.0
  0
VERTEX
  5
1AD
330
1A4
100
AcDbEntity
  8
001
370
    50
100
AcDbVertex
100
AcDb2dVertex
 10
32.013505
 20
142.779282
 30
0.0
  0
VERTEX
  5
1AE
330
1A4
100
AcDbEntity
  8
001
370
    50
100
AcDbVertex
100
AcDb2dVertex
 10
32.088281
 20
142.735475
 30
0.0
  0
VERTEX
  5
1AF
330
1A4
100
AcDbEntity
  8
001
370
    50
100
AcDbVertex
100
AcDb2dVertex
 10
32.116235
 20
142.722413
 30
0.0
  0
VERTEX
  5
1B0
330
1A4
100
AcDbEntity
  8
001
370
    50
100
AcDbVertex
100
AcDb2dVertex
 10
32.136135
 20
142.713738
 30
0.0
  0
SEQEND
  5
1A5
330
1A4
100
AcDbEntity
  8
001
370
    50
  0
LINE
  5
1B1
330
1F
100
AcDbEntity
  8
001
370
    50
100
AcDbLine
 10
31.977029
 20
143.015929
 30
0.0
 11
32.136135
 21
143.130001
 31
0.0
  0
POLYLINE
  5
1B2
330
1F
100
AcDbEntity
  8
001
370
    50
100
AcDb2dPolyline
 66
     1
 10
0.0
 20
0.0
 30
0.0
  0
VERTEX
  5
1B4
330
1B2
100
AcDbEntity
  8
001
370
    50
100
AcDbVertex
100
AcDb2dVertex
 10
31.977029
 20
143.015929
 30
0.0
  0
VERTEX
  5
1B5
330
1B2
100
AcDbEntity
  8
001
370
    50
100
AcDbVertex
100
AcDb2dVertex
 10
31.97015
 20
143.01058
 30
0.0
  0
VERTEX
  5
1B6
330
1B2
100
AcDbEntity
  8
001
370
    50
100
AcDbVertex
100
AcDb2dVertex
 10
31.96086
 20
143.002829
 30
0.0
  0
VERTEX
  5
1B7
330
1B2
100
AcDbEntity
  8
001
370
    50
100
AcDbVertex
100
AcDb2dVertex
 10
31.947119
 20
142.989292
 30
0.0
  0
VERTEX
  5
1B8
330
1B2
100
AcDbEntity
  8
001
370
    50
100
AcDbVertex
100
AcDb2dVertex
 10
31.936835
 20
142.973649
 30
0.0
  0
VERTEX
  5
1B9
330
1B2
100
AcDbEntity
  8
001
370
    50
100
AcDbVertex
100
AcDb2dVertex
 10
31.928821
 20
142.955302
 30
0.0
  0
VERTEX
  5
1BA
330
1B2
100
AcDbEntity
  8
001
370
    50
100
AcDbVertex
100
AcDb2dVertex
 10
31.924364
 20
142.941174
 30
0.0
  0
SEQEND
  5
1B3
330
1B2
100
AcDbEntity
  8
001
370
    50
  0
LINE
  5
1BB
330
1F
100
AcDbEntity
  8
001
370
    50
100
AcDbLine
 10
31.924364
 20
142.941174
 30
0.0
 11
31.450688
 21
140.492453
 31
0.0
  0
LINE
  5
1BC
330
1F
100
AcDbEntity
  8
001
370
    50
100
AcDbLine
 10
31.256585
 20
139.489012
 30
0.0
 11
31.137918
 21
138.875546
 31
0.0
  0
LINE
  5
1BD
330
1F
100
AcDbEntity
  8
001
370
    50
100
AcDbLine
 10
32.136135
 20
141.209797
 30
0.0
 11
32.129643
 21
141.176238
 31
0.0
  0
POLYLINE
  5
1BE
330
1F
100
AcDbEntity
  8
001
370
    50
100
AcDb2dPolyline
 66
     1
 10
0.0
 20
0.0
 30
0.0
  0
VERTEX
  5
1C0
330
1BE
100
AcDbEntity
  8
001
370
    50
100
AcDbVertex
100
AcDb2dVertex
 10
31.137918
 20
138.875546
 30
0.0
  0
VERTEX
  5
1C1
330
1BE
100
AcDbEntity
  8
001
370
    50
100
AcDbVertex
100
AcDb2dVertex
 10
31.136699
 20
138.860939
 30
0.0
  0
VERTEX
  5
1C2
330
1BE
100
AcDbEntity
  8
001
370
    50
100
AcDbVertex
100
AcDb2dVertex
 10
31.137379
 20
138.840763
 30
0.0
  0
VERTEX
  5
1C3
330
1BE
100
AcDbEntity
  8
001
370
    50
100
AcDbVertex
100
AcDb2dVertex
 10
31.141569
 20
138.821492
 30
0.0
  0
VERTEX
  5
1C4
330
1BE
100
AcDbEntity
  8
001
370
    50
100
AcDbVertex
100
AcDb2dVertex
 10
31.148789
 20
138.804729
 30
0.0
  0
VERTEX
  5
1C5
330
1BE
100
AcDbEntity
  8
001
370
    50
100
AcDbVertex
100
AcDb2dVertex
 10
31.159448
 20
138.786268
 30
0.0
  0
VERTEX
  5
1C6
330
1BE
100
AcDbEntity
  8
001
370
    50
100
AcDbVertex
100
AcDb2dVertex
 10
31.171801
 20
138.768538
 30
0.0
  0
VERTEX
  5
1C7
330
1BE
100
AcDbEntity
  8
001
370
    50
100
AcDbVertex
100
AcDb2dVertex
 10
31.227869
 20
138.712889
 30
0.0
  0
VERTEX
  5
1C8
330
1BE
100
AcDbEntity
  8
001
370
    50
100
AcDbVertex
100
AcDb2dVertex
 10
31.301835
 20
138.669847
 30
0.0
  0
VERTEX
  5
1C9
330
1BE
100
AcDbEntity
  8
001
370
    50
100
AcDbVertex
100
AcDb2dVertex
 10
31.37221
 20
138.640389
 30
0.0
  0
VERTEX
  5
1CA
330
1BE
100
AcDbEntity
  8
001
370
    50
100
AcDbVertex
100
AcDb2dVertex
 10
31.424214
 20
138.622434
 30
0.0
  0
SEQEND
  5
1BF
330
1BE
100
AcDbEntity
  8
001
370
    50
  0
POLYLINE
  5
1CB
330
1F
100
AcDbEntity
  8
001
370
    50
100
AcDb2dPolyline
 66
     1
 10
0.0
 20
0.0
 30
0.0
  0
VERTEX
  5
1CD
330
1CB
100
AcDbEntity
  8
001
370
    50
100
AcDbVertex
100
AcDb2dVertex
 10
59.801012
 20
120.792636
 30
0.0
  0
VERTEX
  5
1CE
330
1CB
100
AcDbEntity
  8
001
370
    50
100
AcDbVertex
100
AcDb2dVertex
 10
60.73664
 20
119.317915
 30
0.0
  0
VERTEX
  5
1CF
330
1CB
100
AcDbEntity
  8
001
370
    50
100
AcDbVertex
100
AcDb2dVertex
 10
62.036554
 20
117.298591
 30
0.0
  0
VERTEX
  5
1D0
330
1CB
100
AcDbEntity
  8
001
370
    50
100
AcDbVertex
100
AcDb2dVertex
 10
63.621544
 20
114.878977
 30
0.0
  0
VERTEX
  5
1D1
330
1CB
100
AcDbEntity
  8
001
370
    50
100
AcDbVertex
100
AcDb2dVertex
 10
65.4124
 20
112.203391
 30
0.0
  0
VERTEX
  5
1D2
330
1CB
100
AcDbEntity
  8
001
370
    50
100
AcDbVertex
100
AcDb2dVertex
 10
67.329913
 20
109.416146
 30
0.0
  0
VERTEX
  5
1D3
330
1CB
100
AcDbEntity
  8
001
370
    50
100
AcDbVertex
100
AcDb2dVertex
 10
67.487722
 20
109.190744
 30
0.0
  0
VERTEX
  5
1D4
330
1CB
100
AcDbEntity
  8
001
370
    50
100
AcDbVertex
100
AcDb2dVertex
 10
67.59583
 20
109.036614
 30
0.0
  0
SEQEND
  5
1CC
330
1CB
100
AcDbEntity
  8
001
370
    50
  0
POLYLINE
  5
1D5
330
1F
100
AcDbEntity
  8
001
370
    50
100
AcDb2dPolyline
 66
     1
 10
0.0
 20
0.0
 30
0.0
  0
VERTEX
  5
1D7
330
1D5
100
AcDbEntity
  8
001
370
    50
100
AcDbVertex
100
AcDb2dVertex
 10
47.15765
 20
130.220034
 30
0.0
  0
VERTEX
  5
1D8
330
1D5
100
AcDbEntity
  8
001
370
    50
100
AcDbVertex
100
AcDb2dVertex
 10
47.898908
 20
130.012826
 30
0.0
  0
VERTEX
  5
1D9
330
1D5
100
AcDbEntity
  8
001
370
    50
100
AcDbVertex
100
AcDb2dVertex
 10
48.634354
 20
129.787338
 30
0.0
  0
VERTEX
  5
1DA
330
1D5
100
AcDbEntity
  8
001
370
    50
100
AcDbVertex
100
AcDb2dVertex
 10
49.362419
 20
129.528013
 30
0.0
  0
VERTEX
  5
1DB
330
1D5
100
AcDbEntity
  8
001
370
    50
100
AcDbVertex
100
AcDb2dVertex
 10
50.078942
 20
129.237367
 30
0.0
  0
VERTEX
  5
1DC
330
1D5
100
AcDbEntity
  8
001
370
    50
100
AcDbVertex
100
AcDb2dVertex
 10
50.806727
 20
128.90915
 30
0.0
  0
VERTEX
  5
1DD
330
1D5
100
AcDbEntity
  8
001
370
    50
100
AcDbVertex
100
AcDb2dVertex
 10
51.521085
 20
128.552997
 30
0.0
  0
VERTEX
  5
1DE
330
1D5
100
AcDbEntity
  8
001
370
    50
100
AcDbVertex
100
AcDb2dVertex
 10
52.223914
 20
128.166887
 30
0.0
  0
VERTEX
  5
1DF
330
1D5
100
AcDbEntity
  8
001
370
    50
100
AcDbVertex
100
AcDb2dVertex
 10
52.910949
 20
127.753224
 30
0.0
  0
VERTEX
  5
1E0
330
1D5
100
AcDbEntity
  8
001
370
    50
100
AcDbVertex
100
AcDb2dVertex
 10
53.566236
 20
127.323408
 30
0.0
  0
VERTEX
  5
1E1
330
1D5
100
AcDbEntity
  8
001
370
    50
100
AcDbVertex
100
AcDb2dVertex
 10
54.204887
 20
126.869277
 30
0.0
  0
VERTEX
  5
1E2
330
1D5
100
AcDbEntity
  8
001
370
    50
100
AcDbVertex
100
AcDb2dVertex
 10
54.827827
 20
126.390468
 30
0.0
  0
VERTEX
  5
1E3
330
1D5
100
AcDbEntity
  8
001
370
    50
100
AcDbVertex
100
AcDb2dVertex
 10
55.432691
 20
125.88899
 30
0.0
  0
VERTEX
  5
1E4
330
1D5
100
AcDbEntity
  8
001
370
    50
100
AcDbVertex
100
AcDb2dVertex
 10
56.037472
 20
125.348386
 30
0.0
  0
VERTEX
  5
1E5
330
1D5
100
AcDbEntity
  8
001
370
    50
100
AcDbVertex
100
AcDb2dVertex
 10
56.621527
 20
124.785516
 30
0.0
  0
VERTEX
  5
1E6
330
1D5
100
AcDbEntity
  8
001
370
    50
100
AcDbVertex
100
AcDb2dVertex
 10
57.183356
 20
124.202532
 30
0.0
  0
VERTEX
  5
1E7
330
1D5
100
AcDbEntity
  8
001
370
    50
100
AcDbVertex
100
AcDb2dVertex
 10
57.724332
 20
123.599958
 30
0.0
  0
VERTEX
  5
1E8
330
1D5
100
AcDbEntity
  8
001
370
    50
100
AcDbVertex
100
AcDb2dVertex
 10
58.284425
 20
122.928903
 30
0.0
  0
VERTEX
  5
1E9
330
1D5
100
AcDbEntity
  8
001
370
    50
100
AcDbVertex
100
AcDb2dVertex
 10
58.815777
 20
122.235291
 30
0.0
  0
VERTEX
  5
1EA
330
1D5
100
AcDbEntity
  8
001
370
    50
100
AcDbVertex
100
AcDb2dVertex
 10
59.316845
 20
121.519998
 30
0.0
  0
VERTEX
  5
1EB
330
1D5
100
AcDbEntity
  8
001
370
    50
100
AcDbVertex
100
AcDb2dVertex
 10
59.801012
 20
120.792636
 30
0.0
  0
SEQEND
  5
1D6
330
1D5
100
AcDbEntity
  8
001
370
    50
  0
LINE
  5
1EC
330
1F
100
AcDbEntity
  8
001
370
    50
100
AcDbLine
 10
47.15765
 20
151.27318
 30
0.0
 11
47.15765
 21
130.220034
 31
0.0
  0
POLYLINE
  5
1ED
330
1F
100
AcDbEntity
  8
001
370
    50
100
AcDb2dPolyline
 66
     1
 10
0.0
 20
0.0
 30
0.0
  0
VERTEX
  5
1EF
330
1ED
100
AcDbEntity
  8
001
370
    50
100
AcDbVertex
100
AcDb2dVertex
 10
67.59583
 20
156.927168
 30
0.0
  0
VERTEX
  5
1F0
330
1ED
100
AcDbEntity
  8
001
370
    50
100
AcDbVertex
100
AcDb2dVertex
 10
65.549662
 20
156.367009
 30
0.0
  0
VERTEX
  5
1F1
330
1ED
100
AcDbEntity
  8
001
370
    50
100
AcDbVertex
100
AcDb2dVertex
 10
63.503617
 20
155.806406
 30
0.0
  0
VERTEX
  5
1F2
330
1ED
100
AcDbEntity
  8
001
370
    50
100
AcDbVertex
100
AcDb2dVertex
 10
61.457818
 20
155.244915
 30
0.0
  0
VERTEX
  5
1F3
330
1ED
100
AcDbEntity
  8
001
370
    50
100
AcDbVertex
100
AcDb2dVertex
 10
59.412387
 20
154.682093
 30
0.0
  0
VERTEX
  5
1F4
330
1ED
100
AcDbEntity
  8
001
370
    50
100
AcDbVertex
100
AcDb2dVertex
 10
57.367447
 20
154.117496
 30
0.0
  0
VERTEX
  5
1F5
330
1ED
100
AcDbEntity
  8
001
370
    50
100
AcDbVertex
100
AcDb2dVertex
 10
55.324752
 20
153.551291
 30
0.0
  0
VERTEX
  5
1F6
330
1ED
100
AcDbEntity
  8
001
370
    50
100
AcDbVertex
100
AcDb2dVertex
 10
53.282548
 20
152.983315
 30
0.0
  0
VERTEX
  5
1F7
330
1ED
100
AcDbEntity
  8
001
370
    50
100
AcDbVertex
100
AcDb2dVertex
 10
51.240711
 20
152.414008
 30
0.0
  0
VERTEX
  5
1F8
330
1ED
100
AcDbEntity
  8
001
370
    50
100
AcDbVertex
100
AcDb2dVertex
 10
49.199119
 20
151.843816
 30
0.0
  0
VERTEX
  5
1F9
330
1ED
100
AcDbEntity
  8
001
370
    50
100
AcDbVertex
100
AcDb2dVertex
 10
47.15765
 20
151.27318
 30
0.0
  0
SEQEND
  5
1EE
330
1ED
100
AcDbEntity
  8
001
370
    50
  0
LINE
  5
1FA
330
1F
100
AcDbEntity
  8
001
370
    50
100
AcDbLine
 10
67.59583
 20
156.927168
 30
0.0
 11
67.59583
 21
109.036614
 31
0.0
  0
LINE
  5
1FB
330
1F
100
AcDbEntity
  8
001
370
    50
100
AcDbLine
 10
67.59583
 20
174.611269
 30
0.0
 11
67.59583
 21
173.517691
 31
0.0
  0
LINE
  5
1FC
330
1F
100
AcDbEntity
  8
001
370
    50
100
AcDbLine
 10
81.136135
 20
174.611269
 30
0.0
 11
67.59583
 21
174.611269
 31
0.0
  0
POLYLINE
  5
1FD
330
1F
100
AcDbEntity
  8
001
370
    50
100
AcDb2dPolyline
 66
     1
 10
0.0
 20
0.0
 30
0.0
  0
VERTEX
  5
1FF
330
1FD
100
AcDbEntity
  8
001
370
    50
100
AcDbVertex
100
AcDb2dVertex
 10
67.59583
 20
97.330004
 30
0.0
  0
VERTEX
  5
200
330
1FD
100
AcDbEntity
  8
001
370
    50
100
AcDbVertex
100
AcDb2dVertex
 10
67.699766
 20
97.276807
 30
0.0
  0
VERTEX
  5
201
330
1FD
100
AcDbEntity
  8
001
370
    50
100
AcDbVertex
100
AcDb2dVertex
 10
67.854193
 20
97.204506
 30
0.0
  0
VERTEX
  5
202
330
1FD
100
AcDbEntity
  8
001
370
    50
100
AcDbVertex
100
AcDb2dVertex
 10
68.074123
 20
97.11852
 30
0.0
  0
VERTEX
  5
203
330
1FD
100
AcDbEntity
  8
001
370
    50
100
AcDbVertex
100
AcDb2dVertex
 10
68.228131
 20
97.069087
 30
0.0
  0
SEQEND
  5
1FE
330
1FD
100
AcDbEntity
  8
001
370
    50
  0
LINE
  5
204
330
1F
100
AcDbEntity
  8
001
370
    50
100
AcDbLine
 10
67.59583
 20
97.58279
 30
0.0
 11
67.59583
 21
97.330004
 31
0.0
  0
POLYLINE
  5
205
330
1F
100
AcDbEntity
  8
001
370
    50
100
AcDb2dPolyline
 66
     1
 10
0.0
 20
0.0
 30
0.0
  0
VERTEX
  5
207
330
205
100
AcDbEntity
  8
001
370
    50
100
AcDbVertex
100
AcDb2dVertex
 10
67.59583
 20
97.58279
 30
0.0
  0
VERTEX
  5
208
330
205
100
AcDbEntity
  8
001
370
    50
100
AcDbVertex
100
AcDb2dVertex
 10
67.844481
 20
97.590046
 30
0.0
  0
VERTEX
  5
209
330
205
100
AcDbEntity
  8
001
370
    50
100
AcDbVertex
100
AcDb2dVertex
 10
68.207892
 20
97.600728
 30
0.0
  0
VERTEX
  5
20A
330
205
100
AcDbEntity
  8
001
370
    50
100
AcDbVertex
100
AcDb2dVertex
 10
71.055213
 20
97.688275
 30
0.0
  0
VERTEX
  5
20B
330
205
100
AcDbEntity
  8
001
370
    50
100
AcDbVertex
100
AcDb2dVertex
 10
73.514121
 20
97.76848
 30
0.0
  0
VERTEX
  5
20C
330
205
100
AcDbEntity
  8
001
370
    50
100
AcDbVertex
100
AcDb2dVertex
 10
75.196452
 20
97.825758
 30
0.0
  0
SEQEND
  5
206
330
205
100
AcDbEntity
  8
001
370
    50
  0
POLYLINE
  5
20D
330
1F
100
AcDbEntity
  8
001
370
    50
100
AcDb2dPolyline
 66
     1
 10
0.0
 20
0.0
 30
0.0
  0
VERTEX
  5
20F
330
20D
100
AcDbEntity
  8
001
370
    50
100
AcDbVertex
100
AcDb2dVertex
 10
75.196452
 20
97.825758
 30
0.0
  0
VERTEX
  5
210
330
20D
100
AcDbEntity
  8
001
370
    50
100
AcDbVertex
100
AcDb2dVertex
 10
75.38389
 20
97.83441
 30
0.0
  0
VERTEX
  5
211
330
20D
100
AcDbEntity
  8
001
370
    50
100
AcDbVertex
100
AcDb2dVertex
 10
75.571194
 20
97.845228
 30
0.0
  0
VERTEX
  5
212
330
20D
100
AcDbEntity
  8
001
370
    50
100
AcDbVertex
100
AcDb2dVertex
 10
75.748436
 20
97.859193
 30
0.0
  0
VERTEX
  5
213
330
20D
100
AcDbEntity
  8
001
370
    50
100
AcDbVertex
100
AcDb2dVertex
 10
75.925314
 20
97.877401
 30
0.0
  0
VERTEX
  5
214
330
20D
100
AcDbEntity
  8
001
370
    50
100
AcDbVertex
100
AcDb2dVertex
 10
76.087294
 20
97.898219
 30
0.0
  0
VERTEX
  5
215
330
20D
100
AcDbEntity
  8
001
370
    50
100
AcDbVertex
100
AcDb2dVertex
 10
76.24859
 20
97.923521
 30
0.0
  0
VERTEX
  5
216
330
20D
100
AcDbEntity
  8
001
370
    50
100
AcDbVertex
100
AcDb2dVertex
 10
76.386984
 20
97.949944
 30
0.0
  0
VERTEX
  5
217
330
20D
100
AcDbEntity
  8
001
370
    50
100
AcDbVertex
100
AcDb2dVertex
 10
76.523998
 20
97.983614
 30
0.0
  0
VERTEX
  5
218
330
20D
100
AcDbEntity
  8
001
370
    50
100
AcDbVertex
100
AcDb2dVertex
 10
76.619149
 20
98.013228
 30
0.0
  0
VERTEX
  5
219
330
20D
100
AcDbEntity
  8
001
370
    50
100
AcDbVertex
100
AcDb2dVertex
 10
76.712025
 20
98.047428
 30
0.0
  0
VERTEX
  5
21A
330
20D
100
AcDbEntity
  8
001
370
    50
100
AcDbVertex
100
AcDb2dVertex
 10
76.779308
 20
98.077552
 30
0.0
  0
VERTEX
  5
21B
330
20D
100
AcDbEntity
  8
001
370
    50
100
AcDbVertex
100
AcDb2dVertex
 10
76.842252
 20
98.120481
 30
0.0
  0
VERTEX
  5
21C
330
20D
100
AcDbEntity
  8
001
370
    50
100
AcDbVertex
100
AcDb2dVertex
 10
76.896685
 20
98.1868
 30
0.0
  0
VERTEX
  5
21D
330
20D
100
AcDbEntity
  8
001
370
    50
100
AcDbVertex
100
AcDb2dVertex
 10
76.911551
 20
98.262591
 30
0.0
  0
VERTEX
  5
21E
330
20D
100
AcDbEntity
  8
001
370
    50
100
AcDbVertex
100
AcDb2dVertex
 10
76.904869
 20
98.283267
 30
0.0
  0
VERTEX
  5
21F
330
20D
100
AcDbEntity
  8
001
370
    50
100
AcDbVertex
100
AcDb2dVertex
 10
76.895397
 20
98.303657
 30
0.0
  0
SEQEND
  5
20E
330
20D
100
AcDbEntity
  8
001
370
    50
  0
POLYLINE
  5
220
330
1F
100
AcDbEntity
  8
001
370
    50
100
AcDb2dPolyline
 66
     1
 10
0.0
 20
0.0
 30
0.0
  0
VERTEX
  5
222
330
220
100
AcDbEntity
  8
001
370
    50
100
AcDbVertex
100
AcDb2dVertex
 10
67.59583
 20
109.036614
 30
0.0
  0
VERTEX
  5
223
330
220
100
AcDbEntity
  8
001
370
    50
100
AcDbVertex
100
AcDb2dVertex
 10
68.472748
 20
107.889995
 30
0.0
  0
VERTEX
  5
224
330
220
100
AcDbEntity
  8
001
370
    50
100
AcDbVertex
100
AcDb2dVertex
 10
69.737198
 20
106.284389
 30
0.0
  0
VERTEX
  5
225
330
220
100
AcDbEntity
  8
001
370
    50
100
AcDbVertex
100
AcDb2dVertex
 10
71.229442
 20
104.435062
 30
0.0
  0
VERTEX
  5
226
330
220
100
AcDbEntity
  8
001
370
    50
100
AcDbVertex
100
AcDb2dVertex
 10
72.789741
 20
102.557278
 30
0.0
  0
VERTEX
  5
227
330
220
100
AcDbEntity
  8
001
370
    50
100
AcDbVertex
100
AcDb2dVertex
 10
74.258358
 20
100.866301
 30
0.0
  0
VERTEX
  5
228
330
220
100
AcDbEntity
  8
001
370
    50
100
AcDbVertex
100
AcDb2dVertex
 10
75.361502
 20
99.700853
 30
0.0
  0
VERTEX
  5
229
330
220
100
AcDbEntity
  8
001
370
    50
100
AcDbVertex
100
AcDb2dVertex
 10
76.720989
 20
98.469333
 30
0.0
  0
VERTEX
  5
22A
330
220
100
AcDbEntity
  8
001
370
    50
100
AcDbVertex
100
AcDb2dVertex
 10
76.784864
 20
98.415509
 30
0.0
  0
VERTEX
  5
22B
330
220
100
AcDbEntity
  8
001
370
    50
100
AcDbVertex
100
AcDb2dVertex
 10
76.82887
 20
98.378614
 30
0.0
  0
SEQEND
  5
221
330
220
100
AcDbEntity
  8
001
370
    50
  0
POLYLINE
  5
22C
330
1F
100
AcDbEntity
  8
001
370
    50
100
AcDb2dPolyline
 66
     1
 10
0.0
 20
0.0
 30
0.0
  0
VERTEX
  5
22E
330
22C
100
AcDbEntity
  8
001
370
    50
100
AcDbVertex
100
AcDb2dVertex
 10
68.228131
 20
157.016079
 30
0.0
  0
VERTEX
  5
22F
330
22C
100
AcDbEntity
  8
001
370
    50
100
AcDbVertex
100
AcDb2dVertex
 10
68.099699
 20
156.998031
 30
0.0
  0
VERTEX
  5
230
330
22C
100
AcDbEntity
  8
001
370
    50
100
AcDbVertex
100
AcDb2dVertex
 10
67.911992
 20
156.971643
 30
0.0
  0
VERTEX
  5
231
330
22C
100
AcDbEntity
  8
001
370
    50
100
AcDbVertex
100
AcDb2dVertex
 10
67.72427
 20
156.94524
 30
0.0
  0
VERTEX
  5
232
330
22C
100
AcDbEntity
  8
001
370
    50
100
AcDbVertex
100
AcDb2dVertex
 10
67.59583
 20
156.927168
 30
0.0
  0
SEQEND
  5
22D
330
22C
100
AcDbEntity
  8
001
370
    50
  0
POLYLINE
  5
233
330
1F
100
AcDbEntity
  8
001
370
    50
100
AcDb2dPolyline
 66
     1
 10
0.0
 20
0.0
 30
0.0
  0
VERTEX
  5
235
330
233
100
AcDbEntity
  8
001
370
    50
100
AcDbVertex
100
AcDb2dVertex
 10
68.228131
 20
157.016079
 30
0.0
  0
VERTEX
  5
236
330
233
100
AcDbEntity
  8
001
370
    50
100
AcDbVertex
100
AcDb2dVertex
 10
68.109842
 20
157.497371
 30
0.0
  0
VERTEX
  5
237
330
233
100
AcDbEntity
  8
001
370
    50
100
AcDbVertex
100
AcDb2dVertex
 10
67.927205
 20
158.198256
 30
0.0
  0
VERTEX
  5
238
330
233
100
AcDbEntity
  8
001
370
    50
100
AcDbVertex
100
AcDb2dVertex
 10
67.734372
 20
158.883247
 30
0.0
  0
VERTEX
  5
239
330
233
100
AcDbEntity
  8
001
370
    50
100
AcDbVertex
100
AcDb2dVertex
 10
67.59583
 20
159.350063
 30
0.0
  0
SEQEND
  5
234
330
233
100
AcDbEntity
  8
001
370
    50
  0
LINE
  5
23A
330
1F
100
AcDbEntity
  8
001
370
    50
100
AcDbLine
 10
67.59583
 20
160.6716
 30
0.0
 11
67.59583
 21
159.350063
 31
0.0
  0
POLYLINE
  5
23B
330
1F
100
AcDbEntity
  8
001
370
    50
100
AcDb2dPolyline
 66
     1
 10
0.0
 20
0.0
 30
0.0
  0
VERTEX
  5
23D
330
23B
100
AcDbEntity
  8
001
370
    50
100
AcDbVertex
100
AcDb2dVertex
 10
75.196452
 20
161.652801
 30
0.0
  0
VERTEX
  5
23E
330
23B
100
AcDbEntity
  8
001
370
    50
100
AcDbVertex
100
AcDb2dVertex
 10
73.65496
 20
161.455525
 30
0.0
  0
VERTEX
  5
23F
330
23B
100
AcDbEntity
  8
001
370
    50
100
AcDbVertex
100
AcDb2dVertex
 10
71.402198
 20
161.165738
 30
0.0
  0
VERTEX
  5
240
330
23B
100
AcDbEntity
  8
001
370
    50
100
AcDbVertex
100
AcDb2dVertex
 10
69.14209
 20
160.872937
 30
0.0
  0
VERTEX
  5
241
330
23B
100
AcDbEntity
  8
001
370
    50
100
AcDbVertex
100
AcDb2dVertex
 10
67.59583
 20
160.6716
 30
0.0
  0
SEQEND
  5
23C
330
23B
100
AcDbEntity
  8
001
370
    50
  0
POLYLINE
  5
242
330
1F
100
AcDbEntity
  8
001
370
    50
100
AcDb2dPolyline
 66
     1
 10
0.0
 20
0.0
 30
0.0
  0
VERTEX
  5
244
330
242
100
AcDbEntity
  8
001
370
    50
100
AcDbVertex
100
AcDb2dVertex
 10
75.196452
 20
161.652801
 30
0.0
  0
VERTEX
  5
245
330
242
100
AcDbEntity
  8
001
370
    50
100
AcDbVertex
100
AcDb2dVertex
 10
75.384622
 20
161.68456
 30
0.0
  0
VERTEX
  5
246
330
242
100
AcDbEntity
  8
001
370
    50
100
AcDbVertex
100
AcDb2dVertex
 10
75.571194
 20
161.723606
 30
0.0
  0
VERTEX
  5
247
330
242
100
AcDbEntity
  8
001
370
    50
100
AcDbVertex
100
AcDb2dVertex
 10
75.75031
 20
161.774458
 30
0.0
  0
VERTEX
  5
248
330
242
100
AcDbEntity
  8
001
370
    50
100
AcDbVertex
100
AcDb2dVertex
 10
75.925314
 20
161.838393
 30
0.0
  0
VERTEX
  5
249
330
242
100
AcDbEntity
  8
001
370
    50
100
AcDbVertex
100
AcDb2dVertex
 10
76.089978
 20
161.912355
 30
0.0
  0
VERTEX
  5
24A
330
242
100
AcDbEntity
  8
001
370
    50
100
AcDbVertex
100
AcDb2dVertex
 10
76.24859
 20
161.998691
 30
0.0
  0
VERTEX
  5
24B
330
242
100
AcDbEntity
  8
001
370
    50
100
AcDbVertex
100
AcDb2dVertex
 10
76.391528
 20
162.092727
 30
0.0
  0
VERTEX
  5
24C
330
242
100
AcDbEntity
  8
001
370
    50
100
AcDbVertex
100
AcDb2dVertex
 10
76.523998
 20
162.200482
 30
0.0
  0
VERTEX
  5
24D
330
242
100
AcDbEntity
  8
001
370
    50
100
AcDbVertex
100
AcDb2dVertex
 10
76.558484
 20
162.232974
 30
0.0
  0
VERTEX
  5
24E
330
242
100
AcDbEntity
  8
001
370
    50
100
AcDbVertex
100
AcDb2dVertex
 10
76.592412
 20
162.266067
 30
0.0
  0
SEQEND
  5
243
330
242
100
AcDbEntity
  8
001
370
    50
  0
POLYLINE
  5
24F
330
1F
100
AcDbEntity
  8
001
370
    50
100
AcDb2dPolyline
 66
     1
 10
0.0
 20
0.0
 30
0.0
  0
VERTEX
  5
251
330
24F
100
AcDbEntity
  8
001
370
    50
100
AcDbVertex
100
AcDb2dVertex
 10
76.82887
 20
163.369388
 30
0.0
  0
VERTEX
  5
252
330
24F
100
AcDbEntity
  8
001
370
    50
100
AcDbVertex
100
AcDb2dVertex
 10
76.133548
 20
164.780628
 30
0.0
  0
VERTEX
  5
253
330
24F
100
AcDbEntity
  8
001
370
    50
100
AcDbVertex
100
AcDb2dVertex
 10
75.063119
 20
166.689604
 30
0.0
  0
VERTEX
  5
254
330
24F
100
AcDbEntity
  8
001
370
    50
100
AcDbVertex
100
AcDb2dVertex
 10
73.664806
 20
168.684718
 30
0.0
  0
VERTEX
  5
255
330
24F
100
AcDbEntity
  8
001
370
    50
100
AcDbVertex
100
AcDb2dVertex
 10
72.217798
 20
170.300185
 30
0.0
  0
VERTEX
  5
256
330
24F
100
AcDbEntity
  8
001
370
    50
100
AcDbVertex
100
AcDb2dVertex
 10
70.768731
 20
171.622299
 30
0.0
  0
VERTEX
  5
257
330
24F
100
AcDbEntity
  8
001
370
    50
100
AcDbVertex
100
AcDb2dVertex
 10
68.898737
 20
172.862837
 30
0.0
  0
VERTEX
  5
258
330
24F
100
AcDbEntity
  8
001
370
    50
100
AcDbVertex
100
AcDb2dVertex
 10
68.139861
 20
173.259023
 30
0.0
  0
VERTEX
  5
259
330
24F
100
AcDbEntity
  8
001
370
    50
100
AcDbVertex
100
AcDb2dVertex
 10
67.59583
 20
173.517691
 30
0.0
  0
SEQEND
  5
250
330
24F
100
AcDbEntity
  8
001
370
    50
  0
LINE
  5
25A
330
1F
100
AcDbEntity
  8
001
370
    50
100
AcDbLine
 10
81.136135
 20
174.611269
 30
0.0
 11
81.136135
 21
97.011269
 31
0.0
  0
LINE
  5
25B
330
1F
100
AcDbEntity
  8
001
370
    50
100
AcDbLine
 10
81.136135
 20
97.011269
 30
0.0
 11
86.136135
 21
105.671523
 31
0.0
  0
LINE
  5
25C
330
1F
100
AcDbEntity
  8
001
370
    50
100
AcDbLine
 10
86.136135
 20
165.951015
 30
0.0
 11
81.136135
 21
174.611269
 31
0.0
  0
LINE
  5
25D
330
1F
100
AcDbEntity
  8
001
370
    50
100
AcDbLine
 10
86.136135
 20
165.951015
 30
0.0
 11
86.136135
 21
105.671523
 31
0.0
  0
POLYLINE
  5
25E
330
1F
100
AcDbEntity
  8
001
370
    50
100
AcDb2dPolyline
 66
     1
 10
0.0
 20
0.0
 30
0.0
  0
VERTEX
  5
260
330
25E
100
AcDbEntity
  8
001
370
    50
100
AcDbVertex
100
AcDb2dVertex
 10
32.136135
 20
133.598884
 30
0.0
  0
VERTEX
  5
261
330
25E
100
AcDbEntity
  8
001
370
    50
100
AcDbVertex
100
AcDb2dVertex
 10
34.457555
 20
133.08306
 30
0.0
  0
VERTEX
  5
262
330
25E
100
AcDbEntity
  8
001
370
    50
100
AcDbVertex
100
AcDb2dVertex
 10
36.778995
 20
132.567328
 30
0.0
  0
VERTEX
  5
263
330
25E
100
AcDbEntity
  8
001
370
    50
100
AcDbVertex
100
AcDb2dVertex
 10
39.119502
 20
132.04753
 30
0.0
  0
VERTEX
  5
264
330
25E
100
AcDbEntity
  8
001
370
    50
100
AcDbVertex
100
AcDb2dVertex
 10
41.460039
 20
131.527873
 30
0.0
  0
VERTEX
  5
265
330
25E
100
AcDbEntity
  8
001
370
    50
100
AcDbVertex
100
AcDb2dVertex
 10
43.800597
 20
131.008309
 30
0.0
  0
VERTEX
  5
266
330
25E
100
AcDbEntity
  8
001
370
    50
100
AcDbVertex
100
AcDb2dVertex
 10
46.141165
 20
130.488791
 30
0.0
  0
SEQEND
  5
25F
330
25E
100
AcDbEntity
  8
001
370
    50
  0
POLYLINE
  5
267
330
1F
100
AcDbEntity
  8
001
370
    50
100
AcDb2dPolyline
 66
     1
 10
0.0
 20
0.0
 30
0.0
  0
VERTEX
  5
269
330
267
100
AcDbEntity
  8
001
370
    50
100
AcDbVertex
100
AcDb2dVertex
 10
47.15765
 20
151.27318
 30
0.0
  0
VERTEX
  5
26A
330
267
100
AcDbEntity
  8
001
370
    50
100
AcDbVertex
100
AcDb2dVertex
 10
45.623225
 20
149.766261
 30
0.0
  0
VERTEX
  5
26B
330
267
100
AcDbEntity
  8
001
370
    50
100
AcDbVertex
100
AcDb2dVertex
 10
44.089711
 20
148.25843
 30
0.0
  0
VERTEX
  5
26C
330
267
100
AcDbEntity
  8
001
370
    50
100
AcDbVertex
100
AcDb2dVertex
 10
42.55802
 20
146.748778
 30
0.0
  0
VERTEX
  5
26D
330
267
100
AcDbEntity
  8
001
370
    50
100
AcDbVertex
100
AcDb2dVertex
 10
41.029064
 20
145.236393
 30
0.0
  0
VERTEX
  5
26E
330
267
100
AcDbEntity
  8
001
370
    50
100
AcDbVertex
100
AcDb2dVertex
 10
39.503755
 20
143.720364
 30
0.0
  0
VERTEX
  5
26F
330
267
100
AcDbEntity
  8
001
370
    50
100
AcDbVertex
100
AcDb2dVertex
 10
37.61631
 20
141.831505
 30
0.0
  0
VERTEX
  5
270
330
267
100
AcDbEntity
  8
001
370
    50
100
AcDbVertex
100
AcDb2dVertex
 10
35.73773
 20
139.933662
 30
0.0
  0
VERTEX
  5
271
330
267
100
AcDbEntity
  8
001
370
    50
100
AcDbVertex
100
AcDb2dVertex
 10
34.811847
 20
138.988081
 30
0.0
  0
VERTEX
  5
272
330
267
100
AcDbEntity
  8
001
370
    50
100
AcDbVertex
100
AcDb2dVertex
 10
33.896195
 20
138.032761
 30
0.0
  0
VERTEX
  5
273
330
267
100
AcDbEntity
  8
001
370
    50
100
AcDbVertex
100
AcDb2dVertex
 10
33.011867
 20
137.080984
 30
0.0
  0
VERTEX
  5
274
330
267
100
AcDbEntity
  8
001
370
    50
100
AcDbVertex
100
AcDb2dVertex
 10
32.136135
 20
136.121115
 30
0.0
  0
SEQEND
  5
268
330
267
100
AcDbEntity
  8
001
370
    50
  0
LINE
  5
275
330
1F
100
AcDbEntity
  8
001
370
    50
100
AcDbLine
 10
46.141165
 20
130.488791
 30
0.0
 11
47.15765
 21
130.220034
 31
0.0
  0
POLYLINE
  5
276
330
1F
100
AcDbEntity
  8
001
370
    50
100
AcDb2dPolyline
 66
     1
 10
0.0
 20
0.0
 30
0.0
  0
VERTEX
  5
278
330
276
100
AcDbEntity
  8
001
370
    50
100
AcDbVertex
100
AcDb2dVertex
 10
67.59583
 20
159.350063
 30
0.0
  0
VERTEX
  5
279
330
276
100
AcDbEntity
  8
001
370
    50
100
AcDbVertex
100
AcDb2dVertex
 10
67.589839
 20
159.365774
 30
0.0
  0
VERTEX
  5
27A
330
276
100
AcDbEntity
  8
001
370
    50
100
AcDbVertex
100
AcDb2dVertex
 10
67.581068
 20
159.38873
 30
0.0
  0
VERTEX
  5
27B
330
276
100
AcDbEntity
  8
001
370
    50
100
AcDbVertex
100
AcDb2dVertex
 10
67.572283
 20
159.411659
 30
0.0
  0
VERTEX
  5
27C
330
276
100
AcDbEntity
  8
001
370
    50
100
AcDbVertex
100
AcDb2dVertex
 10
67.566261
 20
159.427344
 30
0.0
  0
SEQEND
  5
277
330
276
100
AcDbEntity
  8
001
370
    50
  0
LINE
  5
27D
330
1F
100
AcDbEntity
  8
001
370
    50
100
AcDbLine
 10
67.59583
 20
160.6716
 30
0.0
 11
67.338735
 21
160.60356
 31
0.0
  0
POLYLINE
  5
27E
330
1F
100
AcDbEntity
  8
001
370
    50
100
AcDb2dPolyline
 66
     1
 10
0.0
 20
0.0
 30
0.0
  0
VERTEX
  5
280
330
27E
100
AcDbEntity
  8
001
370
    50
100
AcDbVertex
100
AcDb2dVertex
 10
76.592412
 20
162.266067
 30
0.0
  0
VERTEX
  5
281
330
27E
100
AcDbEntity
  8
001
370
    50
100
AcDbVertex
100
AcDb2dVertex
 10
76.653818
 20
162.335169
 30
0.0
  0
VERTEX
  5
282
330
27E
100
AcDbEntity
  8
001
370
    50
100
AcDbVertex
100
AcDb2dVertex
 10
76.712025
 20
162.406701
 30
0.0
  0
VERTEX
  5
283
330
27E
100
AcDbEntity
  8
001
370
    50
100
AcDbVertex
100
AcDb2dVertex
 10
76.784139
 20
162.515726
 30
0.0
  0
VERTEX
  5
284
330
27E
100
AcDbEntity
  8
001
370
    50
100
AcDbVertex
100
AcDb2dVertex
 10
76.842252
 20
162.633718
 30
0.0
  0
VERTEX
  5
285
330
27E
100
AcDbEntity
  8
001
370
    50
100
AcDbVertex
100
AcDb2dVertex
 10
76.902457
 20
162.839051
 30
0.0
  0
VERTEX
  5
286
330
27E
100
AcDbEntity
  8
001
370
    50
100
AcDbVertex
100
AcDb2dVertex
 10
76.911551
 20
163.050393
 30
0.0
  0
VERTEX
  5
287
330
27E
100
AcDbEntity
  8
001
370
    50
100
AcDbVertex
100
AcDb2dVertex
 10
76.879761
 20
163.211299
 30
0.0
  0
VERTEX
  5
288
330
27E
100
AcDbEntity
  8
001
370
    50
100
AcDbVertex
100
AcDb2dVertex
 10
76.82887
 20
163.369388
 30
0.0
  0
SEQEND
  5
27F
330
27E
100
AcDbEntity
  8
001
370
    50
  0
LINE
  5
289
330
1F
100
AcDbEntity
  8
001
370
    50
100
AcDbLine
 10
75.168762
 20
161.670812
 30
0.0
 11
75.144702
 21
161.646195
 31
0.0
  0
POLYLINE
  5
28A
330
1F
100
AcDbEntity
  8
001
370
    50
100
AcDb2dPolyline
 66
     1
 10
0.0
 20
0.0
 30
0.0
  0
VERTEX
  5
28C
330
28A
100
AcDbEntity
  8
001
370
    50
100
AcDbVertex
100
AcDb2dVertex
 10
62.141187
 20
173.17009
 30
0.0
  0
VERTEX
  5
28D
330
28A
100
AcDbEntity
  8
001
370
    50
100
AcDbVertex
100
AcDb2dVertex
 10
61.651616
 20
173.030911
 30
0.0
  0
VERTEX
  5
28E
330
28A
100
AcDbEntity
  8
001
370
    50
100
AcDbVertex
100
AcDb2dVertex
 10
60.943879
 20
172.803166
 30
0.0
  0
VERTEX
  5
28F
330
28A
100
AcDbEntity
  8
001
370
    50
100
AcDbVertex
100
AcDb2dVertex
 10
60.261982
 20
172.548346
 30
0.0
  0
VERTEX
  5
290
330
28A
100
AcDbEntity
  8
001
370
    50
100
AcDbVertex
100
AcDb2dVertex
 10
59.801012
 20
172.359006
 30
0.0
  0
SEQEND
  5
28B
330
28A
100
AcDbEntity
  8
001
370
    50
  0
LINE
  5
291
330
1F
100
AcDbEntity
  8
001
370
    50
100
AcDbLine
 10
88.136135
 20
151.811269
 30
0.0
 11
158.136135
 21
151.811269
 31
0.0
  0
LINE
  5
292
330
1F
100
AcDbEntity
  8
001
370
    50
100
AcDbLine
 10
88.136135
 20
119.811269
 30
0.0
 11
158.136135
 21
119.811269
 31
0.0
  0
ARC
  5
293
330
1F
100
AcDbEntity
  8
001
370
    50
100
AcDbCircle
 10
158.136135
 20
143.811269
 30
0.0
 40
8.0
100
AcDbArc
 50
0.0
 51
90.0
  0
ARC
  5
294
330
1F
100
AcDbEntity
  8
001
370
    50
100
AcDbCircle
 10
158.136135
 20
127.811269
 30
0.0
 40
8.0
100
AcDbArc
 50
270.0
 51
0.0
  0
LINE
  5
295
330
1F
100
AcDbEntity
  8
001
370
    50
100
AcDbLine
 10
166.136135
 20
143.811269
 30
0.0
 11
166.136135
 21
127.811269
 31
0.0
  0
LINE
  5
296
330
1F
100
AcDbEntity
  8
001
370
    50
100
AcDbLine
 10
76.895397
 20
98.303657
 30
0.0
 11
76.82887
 21
98.378614
 31
0.0
  0
POLYLINE
  5
297
330
1F
100
AcDbEntity
  8
001
370
    50
100
AcDb2dPolyline
 66
     1
 10
0.0
 20
0.0
 30
0.0
  0
VERTEX
  5
299
330
297
100
AcDbEntity
  8
001
370
    50
100
AcDbVertex
100
AcDb2dVertex
 10
67.59583
 20
173.517691
 30
0.0
  0
VERTEX
  5
29A
330
297
100
AcDbEntity
  8
001
370
    50
100
AcDbVertex
100
AcDb2dVertex
 10
66.471587
 20
173.623332
 30
0.0
  0
VERTEX
  5
29B
330
297
100
AcDbEntity
  8
001
370
    50
100
AcDbVertex
100
AcDb2dVertex
 10
64.82806
 20
173.620677
 30
0.0
  0
VERTEX
  5
29C
330
297
100
AcDbEntity
  8
001
370
    50
100
AcDbVertex
100
AcDb2dVertex
 10
63.225407
 20
173.410501
 30
0.0
  0
VERTEX
  5
29D
330
297
100
AcDbEntity
  8
001
370
    50
100
AcDbVertex
100
AcDb2dVertex
 10
62.141187
 20
173.17009
 30
0.0
  0
SEQEND
  5
298
330
297
100
AcDbEntity
  8
001
370
    50
  0
LINE
  5
29E
330
1F
100
AcDbEntity
  8
001
370
    50
100
AcDbLine
 10
67.59583
 20
174.611269
 30
0.0
 11
62.141187
 21
173.17009
 31
0.0
  0
POLYLINE
  5
29F
330
1F
100
AcDbEntity
  8
001
370
    50
100
AcDb2dPolyline
 66
     1
 10
0.0
 20
0.0
 30
0.0
  0
VERTEX
  5
2A1
330
29F
100
AcDbEntity
  8
001
370
    50
100
AcDbVertex
100
AcDb2dVertex
 10
47.15765
 20
167.123961
 30
0.0
  0
VERTEX
  5
2A2
330
29F
100
AcDbEntity
  8
001
370
    50
100
AcDbVertex
100
AcDb2dVertex
 10
47.896971
 20
167.367967
 30
0.0
  0
VERTEX
  5
2A3
330
29F
100
AcDbEntity
  8
001
370
    50
100
AcDbVertex
100
AcDb2dVertex
 10
48.634354
 20
167.617635
 30
0.0
  0
VERTEX
  5
2A4
330
29F
100
AcDbEntity
  8
001
370
    50
100
AcDbVertex
100
AcDb2dVertex
 10
49.358295
 20
167.873766
 30
0.0
  0
VERTEX
  5
2A5
330
29F
100
AcDbEntity
  8
001
370
    50
100
AcDbVertex
100
AcDb2dVertex
 10
50.078942
 20
168.139118
 30
0.0
  0
VERTEX
  5
2A6
330
29F
100
AcDbEntity
  8
001
370
    50
100
AcDbVertex
100
AcDb2dVertex
 10
50.801466
 20
168.414032
 30
0.0
  0
VERTEX
  5
2A7
330
29F
100
AcDbEntity
  8
001
370
    50
100
AcDbVertex
100
AcDb2dVertex
 10
51.521085
 20
168.696429
 30
0.0
  0
VERTEX
  5
2A8
330
29F
100
AcDbEntity
  8
001
370
    50
100
AcDbVertex
100
AcDb2dVertex
 10
52.217361
 20
168.977827
 30
0.0
  0
VERTEX
  5
2A9
330
29F
100
AcDbEntity
  8
001
370
    50
100
AcDbVertex
100
AcDb2dVertex
 10
52.910949
 20
169.265795
 30
0.0
  0
VERTEX
  5
2AA
330
29F
100
AcDbEntity
  8
001
370
    50
100
AcDbVertex
100
AcDb2dVertex
 10
53.558969
 20
169.541361
 30
0.0
  0
VERTEX
  5
2AB
330
29F
100
AcDbEntity
  8
001
370
    50
100
AcDbVertex
100
AcDb2dVertex
 10
54.204887
 20
169.821813
 30
0.0
  0
VERTEX
  5
2AC
330
29F
100
AcDbEntity
  8
001
370
    50
100
AcDbVertex
100
AcDb2dVertex
 10
54.819579
 20
170.093588
 30
0.0
  0
VERTEX
  5
2AD
330
29F
100
AcDbEntity
  8
001
370
    50
100
AcDbVertex
100
AcDb2dVertex
 10
55.432691
 20
170.368912
 30
0.0
  0
VERTEX
  5
2AE
330
29F
100
AcDbEntity
  8
001
370
    50
100
AcDbVertex
100
AcDb2dVertex
 10
56.027582
 20
170.63954
 30
0.0
  0
VERTEX
  5
2AF
330
29F
100
AcDbEntity
  8
001
370
    50
100
AcDbVertex
100
AcDb2dVertex
 10
56.621527
 20
170.912236
 30
0.0
  0
VERTEX
  5
2B0
330
29F
100
AcDbEntity
  8
001
370
    50
100
AcDbVertex
100
AcDb2dVertex
 10
57.173056
 20
171.16684
 30
0.0
  0
VERTEX
  5
2B1
330
29F
100
AcDbEntity
  8
001
370
    50
100
AcDbVertex
100
AcDb2dVertex
 10
57.724332
 20
171.422004
 30
0.0
  0
VERTEX
  5
2B2
330
29F
100
AcDbEntity
  8
001
370
    50
100
AcDbVertex
100
AcDb2dVertex
 10
58.2694
 20
171.673879
 30
0.0
  0
VERTEX
  5
2B3
330
29F
100
AcDbEntity
  8
001
370
    50
100
AcDbVertex
100
AcDb2dVertex
 10
58.815777
 20
171.922864
 30
0.0
  0
VERTEX
  5
2B4
330
29F
100
AcDbEntity
  8
001
370
    50
100
AcDbVertex
100
AcDb2dVertex
 10
59.307865
 20
172.142113
 30
0.0
  0
VERTEX
  5
2B5
330
29F
100
AcDbEntity
  8
001
370
    50
100
AcDbVertex
100
AcDb2dVertex
 10
59.801012
 20
172.359006
 30
0.0
  0
SEQEND
  5
2A0
330
29F
100
AcDbEntity
  8
001
370
    50
  0
LINE
  5
2B6
330
1F
100
AcDbEntity
  8
001
370
    50
100
AcDbLine
 10
46.141165
 20
165.543062
 30
0.0
 11
47.15765
 21
167.123961
 31
0.0
  0
LINE
  5
2B7
330
1F
100
AcDbEntity
  8
001
370
    50
100
AcDbLine
 10
67.59583
 20
97.58279
 30
0.0
 11
67.109268
 21
97.699168
 31
0.0
  0
LINE
  5
2B8
330
1F
100
AcDbEntity
  8
001
370
    50
100
AcDbLine
 10
67.109268
 20
97.699168
 30
0.0
 11
63.673061
 21
103.623433
 31
0.0
  0
POLYLINE
  5
2B9
330
1F
100
AcDbEntity
  8
001
370
    50
100
AcDb2dPolyline
 66
     1
 10
0.0
 20
0.0
 30
0.0
  0
VERTEX
  5
2BB
330
2B9
100
AcDbEntity
  8
001
370
    50
100
AcDbVertex
100
AcDb2dVertex
 10
63.673061
 20
103.623433
 30
0.0
  0
VERTEX
  5
2BC
330
2B9
100
AcDbEntity
  8
001
370
    50
100
AcDbVertex
100
AcDb2dVertex
 10
63.654563
 20
103.871395
 30
0.0
  0
VERTEX
  5
2BD
330
2B9
100
AcDbEntity
  8
001
370
    50
100
AcDbVertex
100
AcDb2dVertex
 10
63.614488
 20
104.21297
 30
0.0
  0
VERTEX
  5
2BE
330
2B9
100
AcDbEntity
  8
001
370
    50
100
AcDbVertex
100
AcDb2dVertex
 10
63.459759
 20
104.87486
 30
0.0
  0
VERTEX
  5
2BF
330
2B9
100
AcDbEntity
  8
001
370
    50
100
AcDbVertex
100
AcDb2dVertex
 10
63.145888
 20
105.518378
 30
0.0
  0
VERTEX
  5
2C0
330
2B9
100
AcDbEntity
  8
001
370
    50
100
AcDbVertex
100
AcDb2dVertex
 10
63.136448
 20
105.534837
 30
0.0
  0
VERTEX
  5
2C1
330
2B9
100
AcDbEntity
  8
001
370
    50
100
AcDbVertex
100
AcDb2dVertex
 10
63.129942
 20
105.546124
 30
0.0
  0
SEQEND
  5
2BA
330
2B9
100
AcDbEntity
  8
001
370
    50
  0
LINE
  5
2C2
330
1F
100
AcDbEntity
  8
001
370
    50
100
AcDbLine
 10
63.129942
 20
105.546124
 30
0.0
 11
59.066679
 21
112.551477
 31
0.0
  0
POLYLINE
  5
2C3
330
1F
100
AcDbEntity
  8
001
370
    50
100
AcDb2dPolyline
 66
     1
 10
0.0
 20
0.0
 30
0.0
  0
VERTEX
  5
2C5
330
2C3
100
AcDbEntity
  8
001
370
    50
100
AcDbVertex
100
AcDb2dVertex
 10
59.066679
 20
112.551477
 30
0.0
  0
VERTEX
  5
2C6
330
2C3
100
AcDbEntity
  8
001
370
    50
100
AcDbVertex
100
AcDb2dVertex
 10
58.840844
 20
112.893195
 30
0.0
  0
VERTEX
  5
2C7
330
2C3
100
AcDbEntity
  8
001
370
    50
100
AcDbVertex
100
AcDb2dVertex
 10
58.458728
 20
113.349071
 30
0.0
  0
VERTEX
  5
2C8
330
2C3
100
AcDbEntity
  8
001
370
    50
100
AcDbVertex
100
AcDb2dVertex
 10
58.010444
 20
113.736957
 30
0.0
  0
VERTEX
  5
2C9
330
2C3
100
AcDbEntity
  8
001
370
    50
100
AcDbVertex
100
AcDb2dVertex
 10
57.673423
 20
113.967232
 30
0.0
  0
SEQEND
  5
2C4
330
2C3
100
AcDbEntity
  8
001
370
    50
  0
LINE
  5
2CA
330
1F
100
AcDbEntity
  8
001
370
    50
100
AcDbLine
 10
57.673423
 20
113.967232
 30
0.0
 11
54.330132
 21
119.731304
 31
0.0
  0
POLYLINE
  5
2CB
330
1F
100
AcDbEntity
  8
001
370
    50
100
AcDb2dPolyline
 66
     1
 10
0.0
 20
0.0
 30
0.0
  0
VERTEX
  5
2CD
330
2CB
100
AcDbEntity
  8
001
370
    50
100
AcDbVertex
100
AcDb2dVertex
 10
50.985568
 20
125.852618
 30
0.0
  0
VERTEX
  5
2CE
330
2CB
100
AcDbEntity
  8
001
370
    50
100
AcDbVertex
100
AcDb2dVertex
 10
50.69674
 20
125.837809
 30
0.0
  0
VERTEX
  5
2CF
330
2CB
100
AcDbEntity
  8
001
370
    50
100
AcDbVertex
100
AcDb2dVertex
 10
50.300521
 20
125.791849
 30
0.0
  0
VERTEX
  5
2D0
330
2CB
100
AcDbEntity
  8
001
370
    50
100
AcDbVertex
100
AcDb2dVertex
 10
49.9478
 20
125.714148
 30
0.0
  0
VERTEX
  5
2D1
330
2CB
100
AcDbEntity
  8
001
370
    50
100
AcDbVertex
100
AcDb2dVertex
 10
49.636289
 20
125.611388
 30
0.0
  0
VERTEX
  5
2D2
330
2CB
100
AcDbEntity
  8
001
370
    50
100
AcDbVertex
100
AcDb2dVertex
 10
49.329587
 20
125.485903
 30
0.0
  0
VERTEX
  5
2D3
330
2CB
100
AcDbEntity
  8
001
370
    50
100
AcDbVertex
100
AcDb2dVertex
 10
49.013055
 20
125.316719
 30
0.0
  0
VERTEX
  5
2D4
330
2CB
100
AcDbEntity
  8
001
370
    50
100
AcDbVertex
100
AcDb2dVertex
 10
48.440323
 20
124.892298
 30
0.0
  0
VERTEX
  5
2D5
330
2CB
100
AcDbEntity
  8
001
370
    50
100
AcDbVertex
100
AcDb2dVertex
 10
48.056255
 20
124.531855
 30
0.0
  0
SEQEND
  5
2CC
330
2CB
100
AcDbEntity
  8
001
370
    50
  0
LINE
  5
2D6
330
1F
100
AcDbEntity
  8
001
370
    50
100
AcDbLine
 10
48.056255
 20
124.531855
 30
0.0
 11
44.059065
 21
125.583023
 31
0.0
  0
POLYLINE
  5
2D7
330
1F
100
AcDbEntity
  8
001
370
    50
100
AcDb2dPolyline
 66
     1
 10
0.0
 20
0.0
 30
0.0
  0
VERTEX
  5
2D9
330
2D7
100
AcDbEntity
  8
001
370
    50
100
AcDbVertex
100
AcDb2dVertex
 10
44.059065
 20
125.583023
 30
0.0
  0
VERTEX
  5
2DA
330
2D7
100
AcDbEntity
  8
001
370
    50
100
AcDbVertex
100
AcDb2dVertex
 10
43.750312
 20
125.837988
 30
0.0
  0
VERTEX
  5
2DB
330
2D7
100
AcDbEntity
  8
001
370
    50
100
AcDbVertex
100
AcDb2dVertex
 10
43.316249
 20
126.145388
 30
0.0
  0
VERTEX
  5
2DC
330
2D7
100
AcDbEntity
  8
001
370
    50
100
AcDbVertex
100
AcDb2dVertex
 10
43.021088
 20
126.309588
 30
0.0
  0
VERTEX
  5
2DD
330
2D7
100
AcDbEntity
  8
001
370
    50
100
AcDbVertex
100
AcDb2dVertex
 10
42.693015
 20
126.440057
 30
0.0
  0
VERTEX
  5
2DE
330
2D7
100
AcDbEntity
  8
001
370
    50
100
AcDbVertex
100
AcDb2dVertex
 10
42.485097
 20
126.508322
 30
0.0
  0
VERTEX
  5
2DF
330
2D7
100
AcDbEntity
  8
001
370
    50
100
AcDbVertex
100
AcDb2dVertex
 10
42.334158
 20
126.553177
 30
0.0
  0
SEQEND
  5
2D8
330
2D7
100
AcDbEntity
  8
001
370
    50
  0
LINE
  5
2E0
330
1F
100
AcDbEntity
  8
001
370
    50
100
AcDbLine
 10
42.334158
 20
126.553177
 30
0.0
 11
38.394221
 21
127.589288
 31
0.0
  0
POLYLINE
  5
2E1
330
1F
100
AcDbEntity
  8
001
370
    50
100
AcDb2dPolyline
 66
     1
 10
0.0
 20
0.0
 30
0.0
  0
VERTEX
  5
2E3
330
2E1
100
AcDbEntity
  8
001
370
    50
100
AcDbVertex
100
AcDb2dVertex
 10
38.394221
 20
127.589288
 30
0.0
  0
VERTEX
  5
2E4
330
2E1
100
AcDbEntity
  8
001
370
    50
100
AcDbVertex
100
AcDb2dVertex
 10
38.270696
 20
127.619339
 30
0.0
  0
VERTEX
  5
2E5
330
2E1
100
AcDbEntity
  8
001
370
    50
100
AcDbVertex
100
AcDb2dVertex
 10
38.088845
 20
127.656629
 30
0.0
  0
VERTEX
  5
2E6
330
2E1
100
AcDbEntity
  8
001
370
    50
100
AcDbVertex
100
AcDb2dVertex
 10
37.683598
 20
127.705906
 30
0.0
  0
VERTEX
  5
2E7
330
2E1
100
AcDbEntity
  8
001
370
    50
100
AcDbVertex
100
AcDb2dVertex
 10
37.403799
 20
127.717398
 30
0.0
  0
SEQEND
  5
2E2
330
2E1
100
AcDbEntity
  8
001
370
    50
  0
LINE
  5
2E8
330
1F
100
AcDbEntity
  8
001
370
    50
100
AcDbLine
 10
36.421708
 20
127.591469
 30
0.0
 11
32.136135
 21
128.718475
 31
0.0
  0
POLYLINE
  5
2E9
330
1F
100
AcDbEntity
  8
001
370
    50
100
AcDb2dPolyline
 66
     1
 10
0.0
 20
0.0
 30
0.0
  0
VERTEX
  5
2EB
330
2E9
100
AcDbEntity
  8
001
370
    50
100
AcDbVertex
100
AcDb2dVertex
 10
67.109268
 20
97.699168
 30
0.0
  0
VERTEX
  5
2EC
330
2E9
100
AcDbEntity
  8
001
370
    50
100
AcDbVertex
100
AcDb2dVertex
 10
67.209718
 20
97.619421
 30
0.0
  0
VERTEX
  5
2ED
330
2E9
100
AcDbEntity
  8
001
370
    50
100
AcDbVertex
100
AcDb2dVertex
 10
67.358022
 20
97.504802
 30
0.0
  0
VERTEX
  5
2EE
330
2E9
100
AcDbEntity
  8
001
370
    50
100
AcDbVertex
100
AcDb2dVertex
 10
67.49864
 20
97.400233
 30
0.0
  0
VERTEX
  5
2EF
330
2E9
100
AcDbEntity
  8
001
370
    50
100
AcDbVertex
100
AcDb2dVertex
 10
67.59583
 20
97.330004
 30
0.0
  0
SEQEND
  5
2EA
330
2E9
100
AcDbEntity
  8
001
370
    50
  0
POLYLINE
  5
2F0
330
1F
100
AcDbEntity
  8
001
370
    50
100
AcDb2dPolyline
 66
     1
 10
0.0
 20
0.0
 30
0.0
  0
VERTEX
  5
2F2
330
2F0
100
AcDbEntity
  8
001
370
    50
100
AcDbVertex
100
AcDb2dVertex
 10
51.362269
 20
125.83434
 30
0.0
  0
VERTEX
  5
2F3
330
2F0
100
AcDbEntity
  8
001
370
    50
100
AcDbVertex
100
AcDb2dVertex
 10
51.234124
 20
125.818859
 30
0.0
  0
VERTEX
  5
2F4
330
2F0
100
AcDbEntity
  8
001
370
    50
100
AcDbVertex
100
AcDb2dVertex
 10
51.053923
 20
125.791849
 30
0.0
  0
VERTEX
  5
2F5
330
2F0
100
AcDbEntity
  8
001
370
    50
100
AcDbVertex
100
AcDb2dVertex
 10
50.696603
 20
125.712464
 30
0.0
  0
VERTEX
  5
2F6
330
2F0
100
AcDbEntity
  8
001
370
    50
100
AcDbVertex
100
AcDb2dVertex
 10
50.389691
 20
125.611388
 30
0.0
  0
VERTEX
  5
2F7
330
2F0
100
AcDbEntity
  8
001
370
    50
100
AcDbVertex
100
AcDb2dVertex
 10
50.08429
 20
125.486379
 30
0.0
  0
VERTEX
  5
2F8
330
2F0
100
AcDbEntity
  8
001
370
    50
100
AcDbVertex
100
AcDb2dVertex
 10
49.766457
 20
125.316719
 30
0.0
  0
VERTEX
  5
2F9
330
2F0
100
AcDbEntity
  8
001
370
    50
100
AcDbVertex
100
AcDb2dVertex
 10
49.193157
 20
124.89209
 30
0.0
  0
VERTEX
  5
2FA
330
2F0
100
AcDbEntity
  8
001
370
    50
100
AcDbVertex
100
AcDb2dVertex
 10
48.809657
 20
124.531855
 30
0.0
  0
SEQEND
  5
2F1
330
2F0
100
AcDbEntity
  8
001
370
    50
  0
POLYLINE
  5
2FB
330
1F
100
AcDbEntity
  8
001
370
    50
100
AcDb2dPolyline
 66
     1
 10
0.0
 20
0.0
 30
0.0
  0
VERTEX
  5
2FD
330
2FB
100
AcDbEntity
  8
001
370
    50
100
AcDbVertex
100
AcDb2dVertex
 10
54.330132
 20
119.731304
 30
0.0
  0
VERTEX
  5
2FE
330
2FB
100
AcDbEntity
  8
001
370
    50
100
AcDbVertex
100
AcDb2dVertex
 10
54.359881
 20
119.780698
 30
0.0
  0
VERTEX
  5
2FF
330
2FB
100
AcDbEntity
  8
001
370
    50
100
AcDbVertex
100
AcDb2dVertex
 10
54.402062
 20
119.852618
 30
0.0
  0
VERTEX
  5
300
330
2FB
100
AcDbEntity
  8
001
370
    50
100
AcDbVertex
100
AcDb2dVertex
 10
54.716907
 20
120.5247
 30
0.0
  0
VERTEX
  5
301
330
2FB
100
AcDbEntity
  8
001
370
    50
100
AcDbVertex
100
AcDb2dVertex
 10
54.870661
 20
121.158025
 30
0.0
  0
VERTEX
  5
302
330
2FB
100
AcDbEntity
  8
001
370
    50
100
AcDbVertex
100
AcDb2dVertex
 10
54.913231
 20
121.500292
 30
0.0
  0
VERTEX
  5
303
330
2FB
100
AcDbEntity
  8
001
370
    50
100
AcDbVertex
100
AcDb2dVertex
 10
54.930595
 20
121.852618
 30
0.0
  0
VERTEX
  5
304
330
2FB
100
AcDbEntity
  8
001
370
    50
100
AcDbVertex
100
AcDb2dVertex
 10
54.916309
 20
122.202213
 30
0.0
  0
VERTEX
  5
305
330
2FB
100
AcDbEntity
  8
001
370
    50
100
AcDbVertex
100
AcDb2dVertex
 10
54.870661
 20
122.54721
 30
0.0
  0
VERTEX
  5
306
330
2FB
100
AcDbEntity
  8
001
370
    50
100
AcDbVertex
100
AcDb2dVertex
 10
54.692479
 20
123.218444
 30
0.0
  0
VERTEX
  5
307
330
2FB
100
AcDbEntity
  8
001
370
    50
100
AcDbVertex
100
AcDb2dVertex
 10
54.402062
 20
123.852618
 30
0.0
  0
VERTEX
  5
308
330
2FB
100
AcDbEntity
  8
001
370
    50
100
AcDbVertex
100
AcDb2dVertex
 10
53.77831
 20
124.679356
 30
0.0
  0
VERTEX
  5
309
330
2FB
100
AcDbEntity
  8
001
370
    50
100
AcDbVertex
100
AcDb2dVertex
 10
52.958082
 20
125.316719
 30
0.0
  0
VERTEX
  5
30A
330
2FB
100
AcDbEntity
  8
001
370
    50
100
AcDbVertex
100
AcDb2dVertex
 10
52.648341
 20
125.478081
 30
0.0
  0
VERTEX
  5
30B
330
2FB
100
AcDbEntity
  8
001
370
    50
100
AcDbVertex
100
AcDb2dVertex
 10
52.334847
 20
125.611388
 30
0.0
  0
VERTEX
  5
30C
330
2FB
100
AcDbEntity
  8
001
370
    50
100
AcDbVertex
100
AcDb2dVertex
 10
52.021553
 20
125.716202
 30
0.0
  0
VERTEX
  5
30D
330
2FB
100
AcDbEntity
  8
001
370
    50
100
AcDbVertex
100
AcDb2dVertex
 10
51.670615
 20
125.791849
 30
0.0
  0
VERTEX
  5
30E
330
2FB
100
AcDbEntity
  8
001
370
    50
100
AcDbVertex
100
AcDb2dVertex
 10
51.274752
 20
125.837399
 30
0.0
  0
VERTEX
  5
30F
330
2FB
100
AcDbEntity
  8
001
370
    50
100
AcDbVertex
100
AcDb2dVertex
 10
50.985568
 20
125.852618
 30
0.0
  0
SEQEND
  5
2FC
330
2FB
100
AcDbEntity
  8
001
370
    50
  0
LINE
  5
310
330
1F
100
AcDbEntity
  8
001
370
    50
100
AcDbLine
 10
48.809657
 20
124.531855
 30
0.0
 11
48.056255
 21
124.531855
 31
0.0
  0
POLYLINE
  5
311
330
1F
100
AcDbEntity
  8
001
370
    50
100
AcDb2dPolyline
 66
     1
 10
0.0
 20
0.0
 30
0.0
  0
VERTEX
  5
313
330
311
100
AcDbEntity
  8
001
370
    50
100
AcDbVertex
100
AcDb2dVertex
 10
37.7805
 20
127.69912
 30
0.0
  0
VERTEX
  5
314
330
311
100
AcDbEntity
  8
001
370
    50
100
AcDbVertex
100
AcDb2dVertex
 10
37.654825
 20
127.684547
 30
0.0
  0
VERTEX
  5
315
330
311
100
AcDbEntity
  8
001
370
    50
100
AcDbVertex
100
AcDb2dVertex
 10
37.472154
 20
127.656629
 30
0.0
  0
VERTEX
  5
316
330
311
100
AcDbEntity
  8
001
370
    50
100
AcDbVertex
100
AcDb2dVertex
 10
37.295264
 20
127.620483
 30
0.0
  0
VERTEX
  5
317
330
311
100
AcDbEntity
  8
001
370
    50
100
AcDbVertex
100
AcDb2dVertex
 10
37.17511
 20
127.591469
 30
0.0
  0
SEQEND
  5
312
330
311
100
AcDbEntity
  8
001
370
    50
  0
POLYLINE
  5
318
330
1F
100
AcDbEntity
  8
001
370
    50
100
AcDb2dPolyline
 66
     1
 10
0.0
 20
0.0
 30
0.0
  0
VERTEX
  5
31A
330
318
100
AcDbEntity
  8
001
370
    50
100
AcDbVertex
100
AcDb2dVertex
 10
37.403799
 20
127.717398
 30
0.0
  0
VERTEX
  5
31B
330
318
100
AcDbEntity
  8
001
370
    50
100
AcDbVertex
100
AcDb2dVertex
 10
37.124001
 20
127.705907
 30
0.0
  0
VERTEX
  5
31C
330
318
100
AcDbEntity
  8
001
370
    50
100
AcDbVertex
100
AcDb2dVertex
 10
36.718752
 20
127.656629
 30
0.0
  0
VERTEX
  5
31D
330
318
100
AcDbEntity
  8
001
370
    50
100
AcDbVertex
100
AcDb2dVertex
 10
36.541879
 20
127.620488
 30
0.0
  0
VERTEX
  5
31E
330
318
100
AcDbEntity
  8
001
370
    50
100
AcDbVertex
100
AcDb2dVertex
 10
36.421708
 20
127.591469
 30
0.0
  0
SEQEND
  5
319
330
318
100
AcDbEntity
  8
001
370
    50
  0
LINE
  5
31F
330
1F
100
AcDbEntity
  8
001
370
    50
100
AcDbLine
 10
36.421708
 20
127.591469
 30
0.0
 11
37.17511
 21
127.591469
 31
0.0
  0
POLYLINE
  5
320
330
1F
100
AcDbEntity
  8
001
370
    50
100
AcDb2dPolyline
 66
     1
 10
0.0
 20
0.0
 30
0.0
  0
VERTEX
  5
322
330
320
100
AcDbEntity
  8
001
370
    50
100
AcDbVertex
100
AcDb2dVertex
 10
32.136135
 20
143.935225
 30
0.0
  0
VERTEX
  5
323
330
320
100
AcDbEntity
  8
001
370
    50
100
AcDbVertex
100
AcDb2dVertex
 10
33.296434
 20
145.730234
 30
0.0
  0
VERTEX
  5
324
330
320
100
AcDbEntity
  8
001
370
    50
100
AcDbVertex
100
AcDb2dVertex
 10
34.456899
 20
147.525134
 30
0.0
  0
VERTEX
  5
325
330
320
100
AcDbEntity
  8
001
370
    50
100
AcDbVertex
100
AcDb2dVertex
 10
35.617697
 20
149.319819
 30
0.0
  0
VERTEX
  5
326
330
320
100
AcDbEntity
  8
001
370
    50
100
AcDbVertex
100
AcDb2dVertex
 10
36.778995
 20
151.11418
 30
0.0
  0
VERTEX
  5
327
330
320
100
AcDbEntity
  8
001
370
    50
100
AcDbVertex
100
AcDb2dVertex
 10
38.649359
 20
154.001298
 30
0.0
  0
VERTEX
  5
328
330
320
100
AcDbEntity
  8
001
370
    50
100
AcDbVertex
100
AcDb2dVertex
 10
40.521102
 20
156.887522
 30
0.0
  0
VERTEX
  5
329
330
320
100
AcDbEntity
  8
001
370
    50
100
AcDbVertex
100
AcDb2dVertex
 10
42.393881
 20
159.773074
 30
0.0
  0
VERTEX
  5
32A
330
320
100
AcDbEntity
  8
001
370
    50
100
AcDbVertex
100
AcDb2dVertex
 10
44.267351
 20
162.65818
 30
0.0
  0
VERTEX
  5
32B
330
320
100
AcDbEntity
  8
001
370
    50
100
AcDbVertex
100
AcDb2dVertex
 10
46.141165
 20
165.543062
 30
0.0
  0
SEQEND
  5
321
330
320
100
AcDbEntity
  8
001
370
    50
  0
LINE
  5
32C
330
1F
100
AcDbEntity
  8
001
370
    50
100
AcDbLine
 10
32.136135
 20
141.182775
 30
0.0
 11
32.136135
 21
143.935225
 31
0.0
  0
LINE
  5
32D
330
1F
100
AcDbEntity
  8
001
370
    50
100
AcDbLine
 10
32.136135
 20
136.121115
 30
0.0
 11
32.136135
 21
128.718475
 31
0.0
  0
LINE
  5
32E
330
1F
100
AcDbEntity
  8
001
  6
CENTER
370
     9
100
AcDbLine
 10
29.838428
 20
135.811269
 30
0.0
 11
169.209409
 21
135.811269
 31
0.0
  0
LINE
  5
32F
330
1F
100
AcDbEntity
  8
001
370
    50
100
AcDbLine
 10
88.136135
 20
119.811269
 30
0.0
 11
88.136135
 21
151.811269
 31
0.0
  0
LINE
  5
330
330
1F
100
AcDbEntity
  8
001
370
    50
100
AcDbLine
 10
88.136135
 20
151.311269
 30
0.0
 11
86.136135
 21
151.311269
 31
0.0
  0
LINE
  5
331
330
1F
100
AcDbEntity
  8
001
370
    50
100
AcDbLine
 10
86.136135
 20
120.311269
 30
0.0
 11
88.136135
 21
120.311269
 31
0.0
  0
LINE
  5
332
330
1F
100
AcDbEntity
  8
001
370
    50
100
AcDbLine
 10
166.136135
 20
135.811269
 30
0.0
 11
168.734211
 21
137.311269
 31
0.0
  0
LINE
  5
333
330
1F
100
AcDbEntity
  8
001
370
    50
100
AcDbLine
 10
166.136135
 20
135.811269
 30
0.0
 11
168.734211
 21
134.311269
 31
0.0
  0
ARC
  5
334
330
1F
100
AcDbEntity
  8
001
370
    50
100
AcDbCircle
 10
49.201945
 20
114.437917
 30
0.0
 40
0.3950000000000001
100
AcDbArc
 50
13.633617
 51
166.366383
  0
ARC
  5
335
330
1F
100
AcDbEntity
  8
001
370
    50
100
AcDbCircle
 10
48.141189
 20
114.6952
 30
0.0
 40
0.6965113125890092
100
AcDbArc
 50
253.633617
 51
346.366383
  0
ARC
  5
336
330
1F
100
AcDbEntity
  8
001
370
    50
100
AcDbCircle
 10
47.833625
 20
113.647917
 30
0.0
 40
0.3950000000000001
100
AcDbArc
 50
73.633617
 51
226.366383
  0
ARC
  5
337
330
1F
100
AcDbEntity
  8
001
370
    50
100
AcDbCircle
 10
47.080434
 20
112.857917
 30
0.0
 40
0.6965113125890092
100
AcDbArc
 50
313.633617
 51
46.366383
  0
ARC
  5
338
330
1F
100
AcDbEntity
  8
001
370
    50
100
AcDbCircle
 10
47.833625
 20
112.067917
 30
0.0
 40
0.3950000000000001
100
AcDbArc
 50
133.633617
 51
286.366383
  0
ARC
  5
339
330
1F
100
AcDbEntity
  8
001
370
    50
100
AcDbCircle
 10
48.141189
 20
111.020635
 30
0.0
 40
0.6965113125890092
100
AcDbArc
 50
13.633617
 51
106.366383
  0
ARC
  5
33A
330
1F
100
AcDbEntity
  8
001
370
    50
100
AcDbCircle
 10
49.201945
 20
111.277917
 30
0.0
 40
0.3950000000000001
100
AcDbArc
 50
193.633617
 51
346.366383
  0
ARC
  5
33B
330
1F
100
AcDbEntity
  8
001
370
    50
100
AcDbCircle
 10
50.262701
 20
111.020635
 30
0.0
 40
0.6965113125890092
100
AcDbArc
 50
73.633617
 51
166.366383
  0
ARC
  5
33C
330
1F
100
AcDbEntity
  8
001
370
    50
100
AcDbCircle
 10
50.570265
 20
112.067917
 30
0.0
 40
0.3950000000000001
100
AcDbArc
 50
253.633617
 51
46.366383
  0
ARC
  5
33D
330
1F
100
AcDbEntity
  8
001
370
    50
100
AcDbCircle
 10
51.323456
 20
112.857917
 30
0.0
 40
0.6965113125890092
100
AcDbArc
 50
133.633617
 51
226.366383
  0
ARC
  5
33E
330
1F
100
AcDbEntity
  8
001
370
    50
100
AcDbCircle
 10
50.570265
 20
113.647917
 30
0.0
 40
0.3950000000000001
100
AcDbArc
 50
313.633617
 51
106.366383
  0
ARC
  5
33F
330
1F
100
AcDbEntity
  8
001
370
    50
100
AcDbCircle
 10
50.262701
 20
114.6952
 30
0.0
 40
0.6965113125890092
100
AcDbArc
 50
193.633617
 51
286.366383
  0
CIRCLE
  5
340
330
1F
100
AcDbEntity
  8
001
370
    50
100
AcDbCircle
 10
49.201945
 20
112.857917
 30
0.0
 40
3.0
  0
TEXT
  5
341
330
1F
100
AcDbEntity
  8
001
370
    30
100
AcDbText
 10
27.329728
 20
188.669531
 30
0.0
 40
4.0
  1
ＮＫ３０８０Ｘ（ＮＥＷ）
 41
0.833333
100
AcDbText
  0
ARC
  5
342
330
1F
100
AcDbEntity
  8
001
370
    50
100
AcDbCircle
 10
46.530812
 20
102.446905
 30
0.0
 40
0.4
100
AcDbArc
 50
210.0
 51
254.192612
  0
LINE
  5
343
330
1F
100
AcDbEntity
  8
001
  6
PHANTOM
370
     9
100
AcDbLine
 10
31.18968
 20
128.218526
 30
0.0
 11
31.136135
 21
128.311269
 31
0.0
  0
LINE
  5
344
330
1F
100
AcDbEntity
  8
001
  6
PHANTOM
370
     9
100
AcDbLine
 10
31.136135
 20
128.424531
 30
0.0
 11
31.136135
 21
128.311269
 31
0.0
  0
LINE
  5
345
330
1F
100
AcDbEntity
  8
001
370
    50
100
AcDbLine
 10
31.18968
 20
128.218526
 30
0.0
 11
46.184402
 21
102.246905
 31
0.0
  0
LINE
  5
346
330
1F
100
AcDbEntity
  8
001
  6
PHANTOM
370
     9
100
AcDbLine
 10
46.184402
 20
102.246905
 30
0.0
 11
46.265599
 21
102.106269
 31
0.0
  0
LINE
  5
347
330
1F
100
AcDbEntity
  8
001
  6
PHANTOM
370
     9
100
AcDbLine
 10
46.421851
 20
102.062032
 30
0.0
 11
46.265599
 21
102.106269
 31
0.0
  0
ARC
  5
348
330
1F
100
AcDbEntity
  8
001
370
    50
100
AcDbCircle
 10
66.902362
 20
96.858469
 30
0.0
 40
0.5722004441254605
100
AcDbArc
 50
254.192612
 51
30.114701
  0
LINE
  5
349
330
1F
100
AcDbEntity
  8
001
370
    50
100
AcDbLine
 10
67.659698
 20
96.286269
 30
0.0
 11
66.873252
 21
96.286269
 31
0.0
  0
ARC
  5
34A
330
1F
100
AcDbEntity
  8
001
370
    50
100
AcDbCircle
 10
67.659698
 20
96.858469
 30
0.0
 40
0.5722004441254605
100
AcDbArc
 50
270.0
 51
22.908218
  0
LINE
  5
34B
330
1F
100
AcDbEntity
  8
001
370
    50
100
AcDbLine
 10
68.21112
 20
97.011269
 30
0.0
 11
81.136135
 21
97.011269
 31
0.0
  0
POLYLINE
  5
34C
330
1F
100
AcDbEntity
  8
001
370
    50
100
AcDb2dPolyline
 66
     1
 10
0.0
 20
0.0
 30
0.0
  0
VERTEX
  5
34E
330
34C
100
AcDbEntity
  8
001
370
    50
100
AcDbVertex
100
AcDb2dVertex
 10
68.191856
 20
97.068756
 30
0.0
  0
VERTEX
  5
34F
330
34C
100
AcDbEntity
  8
001
370
    50
100
AcDbVertex
100
AcDb2dVertex
 10
68.212926
 20
97.068948
 30
0.0
  0
VERTEX
  5
350
330
34C
100
AcDbEntity
  8
001
370
    50
100
AcDbVertex
100
AcDb2dVertex
 10
68.228131
 20
97.069087
 30
0.0
  0
SEQEND
  5
34D
330
34C
100
AcDbEntity
  8
001
370
    50
  0
LINE
  5
351
330
1F
100
AcDbEntity
  8
001
370
     9
100
AcDbLine
 10
21.932116
 20
128.311269
 30
0.0
 11
31.136135
 21
128.311269
 31
0.0
  0
LINE
  5
352
330
1F
100
AcDbEntity
  8
001
370
     9
100
AcDbLine
 10
21.932116
 20
102.106269
 30
0.0
 11
46.265599
 21
102.106269
 31
0.0
  0
LINE
  5
353
330
1F
100
AcDbEntity
  8
001
370
     9
100
AcDbLine
 10
21.932116
 20
96.286269
 30
0.0
 11
66.902362
 21
96.286269
 31
0.0
  0
LINE
  5
354
330
1F
100
AcDbEntity
  8
001
370
     9
100
AcDbLine
 10
31.136135
 20
128.311269
 30
0.0
 11
31.136135
 21
83.369723
 31
0.0
  0
LINE
  5
355
330
1F
100
AcDbEntity
  8
001
370
     9
100
AcDbLine
 10
46.265599
 20
102.106269
 30
0.0
 11
46.265599
 21
83.369723
 31
0.0
  0
LINE
  5
356
330
1F
100
AcDbEntity
  8
001
370
     9
100
AcDbLine
 10
66.746492
 20
96.307908
 30
0.0
 11
66.822925
 21
96.286269
 31
0.0
  0
LINE
  5
357
330
1F
100
AcDbEntity
  8
001
370
    50
100
AcDbLine
 10
66.746492
 20
96.307908
 30
0.0
 11
46.421851
 21
102.062032
 31
0.0
  0
ARC
  5
358
330
1F
100
AcDbEntity
  8
001
370
    50
100
AcDbCircle
 10
31.53609
 20
128.418526
 30
0.0
 40
0.4
100
AcDbArc
 50
75.266147
 51
210.0
  0
LINE
  5
359
330
1F
100
AcDbEntity
  8
001
370
    50
100
AcDbLine
 10
51.982537
 20
123.490644
 30
0.0
 11
31.637191
 21
128.805539
 31
0.0
  0
LINE
  5
35A
330
1F
100
AcDbEntity
  8
001
370
    50
100
AcDbLine
 10
31.53609
 20
128.818526
 30
0.0
 11
32.136135
 21
128.818526
 31
0.0
  0
POLYLINE
  5
35B
330
1F
100
AcDbEntity
  8
001
370
    50
100
AcDb2dPolyline
 66
     1
 10
0.0
 20
0.0
 30
0.0
  0
VERTEX
  5
35D
330
35B
100
AcDbEntity
  8
001
370
    50
100
AcDbVertex
100
AcDb2dVertex
 10
52.22355
 20
123.30623
 30
0.0
  0
VERTEX
  5
35E
330
35B
100
AcDbEntity
  8
001
370
    50
100
AcDbVertex
100
AcDb2dVertex
 10
52.167016
 20
123.375023
 30
0.0
  0
VERTEX
  5
35F
330
35B
100
AcDbEntity
  8
001
370
    50
100
AcDbVertex
100
AcDb2dVertex
 10
52.080746
 20
123.449865
 30
0.0
  0
VERTEX
  5
360
330
35B
100
AcDbEntity
  8
001
370
    50
100
AcDbVertex
100
AcDb2dVertex
 10
52.051841
 20
123.466085
 30
0.0
  0
VERTEX
  5
361
330
35B
100
AcDbEntity
  8
001
370
    50
100
AcDbVertex
100
AcDb2dVertex
 10
52.018423
 20
123.479332
 30
0.0
  0
VERTEX
  5
362
330
35B
100
AcDbEntity
  8
001
370
    50
100
AcDbVertex
100
AcDb2dVertex
 10
51.997581
 20
123.486175
 30
0.0
  0
VERTEX
  5
363
330
35B
100
AcDbEntity
  8
001
370
    50
100
AcDbVertex
100
AcDb2dVertex
 10
51.982537
 20
123.490644
 30
0.0
  0
SEQEND
  5
35C
330
35B
100
AcDbEntity
  8
001
370
    50
  0
ENDSEC
  0
SECTION
  2
OBJECTS
  0
DICTIONARY
  5
C
330
0
100
AcDbDictionary
281
     1
  3
ACAD_GROUP
350
D
  3
ACAD_LAYOUT
350
1A
  3
ACAD_MLEADERSTYLE
350
367
  3
ACAD_MLINESTYLE
350
17
  3
ACAD_PLOTSETTINGS
350
19
  3
ACAD_PLOTSTYLENAME
350
E
  3
ACAD_SCALELIST
350
3B
  3
ACAD_TABLESTYLE
350
366
  3
ACAD_VISUALSTYLE
350
2A
  3
AcDbVariableDictionary
350
364
  0
DICTIONARY
  5
D
102
{ACAD_REACTORS
330
C
102
}
330
C
100
AcDbDictionary
281
     1
  0
DICTIONARY
  5
1A
102
{ACAD_REACTORS
330
C
102
}
330
C
100
AcDbDictionary
281
     1
  3
Layout1
350
1E
  3
Layout2
350
26
  3
Model
350
22
  0
DICTIONARY
  5
367
102
{ACAD_REACTORS
330
C
102
}
330
C
100
AcDbDictionary
281
     1
  0
DICTIONARY
  5
17
102
{ACAD_REACTORS
330
C
102
}
330
C
100
AcDbDictionary
281
     1
  3
Standard
350
18
  0
DICTIONARY
  5
19
102
{ACAD_REACTORS
330
C
102
}
330
C
100
AcDbDictionary
281
     1
  0
ACDBDICTIONARYWDFLT
  5
E
102
{ACAD_REACTORS
330
C
102
}
330
C
100
AcDbDictionary
281
     1
  3
Normal
350
F
100
AcDbDictionaryWithDefault
340
F
  0
DICTIONARY
  5
3B
102
{ACAD_REACTORS
330
C
102
}
330
C
100
AcDbDictionary
281
     1
  3
A0
350
3C
  3
A1
350
3D
  3
A2
350
3E
  3
A3
350
3F
  3
A4
350
40
  3
A5
350
41
  3
A6
350
42
  3
A7
350
43
  3
A8
350
44
  3
A9
350
45
  3
B0
350
46
  3
B1
350
47
  3
B2
350
48
  3
B3
350
49
  3
B4
350
4A
  3
B5
350
4B
  3
B6
350
4C
  3
B7
350
4D
  3
B8
350
4E
  3
B9
350
4F
  3
C0
350
50
  3
C1
350
51
  3
C2
350
52
  3
C3
350
53
  3
C4
350
54
  3
C5
350
55
  3
C6
350
56
  3
C7
350
57
  3
C8
350
58
  3
C9
350
59
  3
D0
350
5A
  3
D1
350
5B
  3
D2
350
5C
  0
DICTIONARY
  5
366
102
{ACAD_REACTORS
330
C
102
}
330
C
100
AcDbDictionary
281
     1
  0
DICTIONARY
  5
2A
102
{ACAD_REACTORS
330
C
102
}
330
C
100
AcDbDictionary
281
     1
  3
2dWireframe
350
2F
  3
3D Hidden
350
31
  3
3dWireframe
350
30
  3
Basic
350
32
  3
Brighten
350
36
  3
ColorChange
350
3A
  3
Conceptual
350
34
  3
Dim
350
35
  3
Facepattern
350
39
  3
Flat
350
2B
  3
FlatWithEdges
350
2C
  3
Gouraud
350
2D
  3
GouraudWithEdges
350
2E
  3
Linepattern
350
38
  3
Realistic
350
33
  3
Thicken
350
37
  0
DICTIONARY
  5
364
102
{ACAD_REACTORS
330
C
102
}
330
C
100
AcDbDictionary
281
     1
  3
CANNOSCALE
350
365
  3
PSOLHEIGHT
350
369
  3
PSOLWIDTH
350
368
  0
LAYOUT
  5
1E
102
{ACAD_REACTORS
330
1A
102
}
330
1A
100
AcDbPlotSettings
  1

  2
none_device
  4

  6

 40
0.0
 41
0.0
 42
0.0
 43
0.0
 44
0.0
 45
0.0
 46
0.0
 47
0.0
 48
0.0
 49
0.0
140
0.0
141
0.0
142
1.0
143
1.0
 70
   688
 72
     0
 73
     0
 74
     5
  7

 75
    16
147
1.0
148
0.0
149
0.0
100
AcDbLayout
  1
Layout1
 70
     1
 71
     1
 10
0.0
 20
0.0
 11
12.0
 21
9.0
 12
0.0
 22
0.0
 32
0.0
 14
1.000000E+20
 24
1.000000E+20
 34
0.0
 15
-1.000000E+20
 25
-1.000000E+20
 35
0.0
146
0.0
 13
0.0
 23
0.0
 33
0.0
 16
1.0
 26
0.0
 36
0.0
 17
0.0
 27
1.0
 37
0.0
 76
     0
330
1B
  0
LAYOUT
  5
26
102
{ACAD_REACTORS
330
1A
102
}
330
1A
100
AcDbPlotSettings
  1

  2
none_device
  4

  6

 40
0.0
 41
0.0
 42
0.0
 43
0.0
 44
0.0
 45
0.0
 46
0.0
 47
0.0
 48
0.0
 49
0.0
140
0.0
141
0.0
142
1.0
143
1.0
 70
   688
 72
     0
 73
     0
 74
     5
  7

 75
    16
147
1.0
148
0.0
149
0.0
100
AcDbLayout
  1
Layout2
 70
     1
 71
     2
 10
0.0
 20
0.0
 11
0.0
 21
0.0
 12
0.0
 22
0.0
 32
0.0
 14
0.0
 24
0.0
 34
0.0
 15
0.0
 25
0.0
 35
0.0
146
0.0
 13
0.0
 23
0.0
 33
0.0
 16
1.0
 26
0.0
 36
0.0
 17
0.0
 27
1.0
 37
0.0
 76
     0
330
23
  0
LAYOUT
  5
22
102
{ACAD_REACTORS
330
1A
102
}
330
1A
100
AcDbPlotSettings
  1

  2
none_device
  4

  6

 40
0.0
 41
0.0
 42
0.0
 43
0.0
 44
0.0
 45
0.0
 46
0.0
 47
0.0
 48
0.0
 49
0.0
140
0.0
141
0.0
142
1.0
143
1.0
 70
  1712
 72
     0
 73
     0
 74
     0
  7

 75
     0
147
1.0
148
0.0
149
0.0
100
AcDbLayout
  1
Model
 70
     1
 71
     0
 10
0.0
 20
0.0
 11
12.0
 21
9.0
 12
0.0
 22
0.0
 32
0.0
 14
-7.044159
 24
40.366043
 34
0.0
 15
192.533188
 25
192.669525
 35
0.0
146
0.0
 13
0.0
 23
0.0
 33
0.0
 16
1.0
 26
0.0
 36
0.0
 17
0.0
 27
1.0
 37
0.0
 76
     0
330
1F
331
29
  0
MLINESTYLE
  5
18
102
{ACAD_REACTORS
330
17
102
}
330
17
100
AcDbMlineStyle
  2
Standard
 70
     0
  3

 62
   256
 51
90.0
 52
90.0
 71
     2
 49
0.5
 62
   256
  6
BYLAYER
 49
-0.5
 62
   256
  6
BYLAYER
  0
ACDBPLACEHOLDER
  5
F
102
{ACAD_REACTORS
330
E
102
}
330
E
  0
SCALE
  5
3C
102
{ACAD_REACTORS
330
3B
102
}
330
3B
100
AcDbScale
 70
     0
300
1:1
140
1.0
141
1.0
290
     1
  0
SCALE
  5
3D
102
{ACAD_REACTORS
330
3B
102
}
330
3B
100
AcDbScale
 70
     0
300
1:2
140
1.0
141
2.0
290
     0
  0
SCALE
  5
3E
102
{ACAD_REACTORS
330
3B
102
}
330
3B
100
AcDbScale
 70
     0
300
1:4
140
1.0
141
4.0
290
     0
  0
SCALE
  5
3F
102
{ACAD_REACTORS
330
3B
102
}
330
3B
100
AcDbScale
 70
     0
300
1:5
140
1.0
141
5.0
290
     0
  0
SCALE
  5
40
102
{ACAD_REACTORS
330
3B
102
}
330
3B
100
AcDbScale
 70
     0
300
1:8
140
1.0
141
8.0
290
     0
  0
SCALE
  5
41
102
{ACAD_REACTORS
330
3B
102
}
330
3B
100
AcDbScale
 70
     0
300
1:10
140
1.0
141
10.0
290
     0
  0
SCALE
  5
42
102
{ACAD_REACTORS
330
3B
102
}
330
3B
100
AcDbScale
 70
     0
300
1:16
140
1.0
141
16.0
290
     0
  0
SCALE
  5
43
102
{ACAD_REACTORS
330
3B
102
}
330
3B
100
AcDbScale
 70
     0
300
1:20
140
1.0
141
20.0
290
     0
  0
SCALE
  5
44
102
{ACAD_REACTORS
330
3B
102
}
330
3B
100
AcDbScale
 70
     0
300
1:30
140
1.0
141
30.0
290
     0
  0
SCALE
  5
45
102
{ACAD_REACTORS
330
3B
102
}
330
3B
100
AcDbScale
 70
     0
300
1:40
140
1.0
141
40.0
290
     0
  0
SCALE
  5
46
102
{ACAD_REACTORS
330
3B
102
}
330
3B
100
AcDbScale
 70
     0
300
1:50
140
1.0
141
50.0
290
     0
  0
SCALE
  5
47
102
{ACAD_REACTORS
330
3B
102
}
330
3B
100
AcDbScale
 70
     0
300
1:100
140
1.0
141
100.0
290
     0
  0
SCALE
  5
48
102
{ACAD_REACTORS
330
3B
102
}
330
3B
100
AcDbScale
 70
     0
300
2:1
140
2.0
141
1.0
290
     0
  0
SCALE
  5
49
102
{ACAD_REACTORS
330
3B
102
}
330
3B
100
AcDbScale
 70
     0
300
4:1
140
4.0
141
1.0
290
     0
  0
SCALE
  5
4A
102
{ACAD_REACTORS
330
3B
102
}
330
3B
100
AcDbScale
 70
     0
300
8:1
140
8.0
141
1.0
290
     0
  0
SCALE
  5
4B
102
{ACAD_REACTORS
330
3B
102
}
330
3B
100
AcDbScale
 70
     0
300
10:1
140
10.0
141
1.0
290
     0
  0
SCALE
  5
4C
102
{ACAD_REACTORS
330
3B
102
}
330
3B
100
AcDbScale
 70
     0
300
100:1
140
100.0
141
1.0
290
     0
  0
SCALE
  5
4D
102
{ACAD_REACTORS
330
3B
102
}
330
3B
100
AcDbScale
 70
     0
300
1/128" = 1'-0"
140
0.007812
141
12.0
290
     0
  0
SCALE
  5
4E
102
{ACAD_REACTORS
330
3B
102
}
330
3B
100
AcDbScale
 70
     0
300
1/64" = 1'-0"
140
0.015625
141
12.0
290
     0
  0
SCALE
  5
4F
102
{ACAD_REACTORS
330
3B
102
}
330
3B
100
AcDbScale
 70
     0
300
1/32" = 1'-0"
140
0.03125
141
12.0
290
     0
  0
SCALE
  5
50
102
{ACAD_REACTORS
330
3B
102
}
330
3B
100
AcDbScale
 70
     0
300
1/16" = 1'-0"
140
0.0625
141
12.0
290
     0
  0
SCALE
  5
51
102
{ACAD_REACTORS
330
3B
102
}
330
3B
100
AcDbScale
 70
     0
300
3/32" = 1'-0"
140
0.09375
141
12.0
290
     0
  0
SCALE
  5
52
102
{ACAD_REACTORS
330
3B
102
}
330
3B
100
AcDbScale
 70
     0
300
1/8" = 1'-0"
140
0.125
141
12.0
290
     0
  0
SCALE
  5
53
102
{ACAD_REACTORS
330
3B
102
}
330
3B
100
AcDbScale
 70
     0
300
3/16" = 1'-0"
140
0.1875
141
12.0
290
     0
  0
SCALE
  5
54
102
{ACAD_REACTORS
330
3B
102
}
330
3B
100
AcDbScale
 70
     0
300
1/4" = 1'-0"
140
0.25
141
12.0
290
     0
  0
SCALE
  5
55
102
{ACAD_REACTORS
330
3B
102
}
330
3B
100
AcDbScale
 70
     0
300
3/8" = 1'-0"
140
0.375
141
12.0
290
     0
  0
SCALE
  5
56
102
{ACAD_REACTORS
330
3B
102
}
330
3B
100
AcDbScale
 70
     0
300
1/2" = 1'-0"
140
0.5
141
12.0
290
     0
  0
SCALE
  5
57
102
{ACAD_REACTORS
330
3B
102
}
330
3B
100
AcDbScale
 70
     0
300
3/4" = 1'-0"
140
0.75
141
12.0
290
     0
  0
SCALE
  5
58
102
{ACAD_REACTORS
330
3B
102
}
330
3B
100
AcDbScale
 70
     0
300
1" = 1'-0"
140
1.0
141
12.0
290
     0
  0
SCALE
  5
59
102
{ACAD_REACTORS
330
3B
102
}
330
3B
100
AcDbScale
 70
     0
300
1-1/2" = 1'-0"
140
1.5
141
12.0
290
     0
  0
SCALE
  5
5A
102
{ACAD_REACTORS
330
3B
102
}
330
3B
100
AcDbScale
 70
     0
300
3" = 1'-0"
140
3.0
141
12.0
290
     0
  0
SCALE
  5
5B
102
{ACAD_REACTORS
330
3B
102
}
330
3B
100
AcDbScale
 70
     0
300
6" = 1'-0"
140
6.0
141
12.0
290
     0
  0
SCALE
  5
5C
102
{ACAD_REACTORS
330
3B
102
}
330
3B
100
AcDbScale
 70
     0
300
1'-0" = 1'-0"
140
12.0
141
12.0
290
     0
  0
VISUALSTYLE
  5
2F
102
{ACAD_REACTORS
330
2A
102
}
330
2A
100
AcDbVisualStyle
  2
2dWireframe
 70
     4
 71
     0
 72
     2
 73
     0
 90
        0
 40
-0.6
 41
-30.0
 62
     5
 63
     7
 74
     1
 91
        4
 64
     7
 65
   257
 75
     1
175
     1
 42
1.0
 92
        0
 66
   257
 43
1.0
 76
     1
 77
     6
 78
     2
 67
     7
 79
     5
170
     0
171
     0
290
     0
174
     0
 93
        1
 44
0.0
173
     0
291
     0
 45
0.0
1001
ACAD
1000
AcDbSavedByObjectVersion
1070
     0
  0
VISUALSTYLE
  5
31
102
{ACAD_REACTORS
330
2A
102
}
330
2A
100
AcDbVisualStyle
  2
3D Hidden
 70
     6
 71
     1
 72
     2
 73
     2
 90
        0
 40
-0.6
 41
-30.0
 62
     5
 63
     7
 74
     2
 91
        2
 64
     7
 65
   257
 75
     2
175
     1
 42
40.0
 92
        0
 66
   257
 43
1.0
 76
     1
 77
     6
 78
     2
 67
     7
 79
     3
170
     0
171
     0
290
     0
174
     0
 93
        1
 44
0.0
173
     0
291
     0
 45
0.0
1001
ACAD
1000
AcDbSavedByObjectVersion
1070
     0
  0
VISUALSTYLE
  5
30
102
{ACAD_REACTORS
330
2A
102
}
330
2A
100
AcDbVisualStyle
  2
3dWireframe
 70
     5
 71
     0
 72
     2
 73
     0
 90
        0
 40
-0.6
 41
-30.0
 62
     5
 63
     7
 74
     1
 91
        4
 64
     7
 65
   257
 75
     1
175
     1
 42
1.0
 92
        0
 66
   257
 43
1.0
 76
     1
 77
     6
 78
     2
 67
     7
 79
     5
170
     0
171
     0
290
     0
174
     0
 93
        1
 44
0.0
173
     0
291
     0
 45
0.0
1001
ACAD
1000
AcDbSavedByObjectVersion
1070
     0
  0
VISUALSTYLE
  5
32
102
{ACAD_REACTORS
330
2A
102
}
330
2A
100
AcDbVisualStyle
  2
Basic
 70
     7
 71
     1
 72
     0
 73
     1
 90
        0
 40
-0.6
 41
-30.0
 62
     5
 63
     7
 74
     0
 91
        4
 64
     7
 65
   257
 75
     1
175
     1
 42
1.0
 92
        8
 66
     7
 43
1.0
 76
     1
 77
     6
 78
     2
 67
     7
 79
     5
170
     0
171
     0
290
     0
174
     0
 93
        1
 44
0.0
173
     0
291
     1
 45
0.0
1001
ACAD
1000
AcDbSavedByObjectVersion
1070
     0
  0
VISUALSTYLE
  5
36
102
{ACAD_REACTORS
330
2A
102
}
330
2A
100
AcDbVisualStyle
  2
Brighten
 70
    12
 71
     2
 72
     2
 73
     0
 90
        0
 40
-0.6
 41
-30.0
 62
     5
 63
     7
 74
     1
 91
        4
 64
     7
 65
   257
 75
     1
175
     1
 42
1.0
 92
        8
 66
     7
 43
1.0
 76
     1
 77
     6
 78
     2
 67
     7
 79
     5
170
     0
171
     0
290
     0
174
     0
 93
        1
 44
50.0
173
     0
291
     1
 45
0.0
1001
ACAD
1000
AcDbSavedByObjectVersion
1070
     0
  0
VISUALSTYLE
  5
3A
102
{ACAD_REACTORS
330
2A
102
}
330
2A
100
AcDbVisualStyle
  2
ColorChange
 70
    16
 71
     2
 72
     2
 73
     3
 90
        0
 40
-0.6
 41
-30.0
 62
     5
 63
     8
 74
     1
 91
        4
 64
     7
 65
   257
 75
     1
175
     1
 42
1.0
 92
        8
 66
     8
 43
1.0
 76
     1
 77
     6
 78
     2
 67
     7
 79
     5
170
     0
171
     0
290
     0
174
     0
 93
        1
 44
0.0
173
     0
291
     1
 45
0.0
1001
ACAD
1000
AcDbSavedByObjectVersion
1070
     0
  0
VISUALSTYLE
  5
34
102
{ACAD_REACTORS
330
2A
102
}
330
2A
100
AcDbVisualStyle
  2
Conceptual
 70
     9
 71
     3
 72
     2
 73
     0
 90
        0
 40
-0.6
 41
-30.0
 62
     5
 63
     7
 74
     2
 91
        2
 64
     7
 65
   257
 75
     1
175
     1
 42
40.0
 92
        8
 66
     7
 43
1.0
 76
     1
 77
     6
 78
     2
 67
     7
 79
     3
170
     0
171
     0
290
     0
174
     0
 93
        1
 44
0.0
173
     0
291
     0
 45
0.0
1001
ACAD
1000
AcDbSavedByObjectVersion
1070
     0
  0
VISUALSTYLE
  5
35
102
{ACAD_REACTORS
330
2A
102
}
330
2A
100
AcDbVisualStyle
  2
Dim
 70
    11
 71
     2
 72
     2
 73
     0
 90
        0
 40
-0.6
 41
-30.0
 62
     5
 63
     7
 74
     1
 91
        4
 64
     7
 65
   257
 75
     1
175
     1
 42
1.0
 92
        8
 66
     7
 43
1.0
 76
     1
 77
     6
 78
     2
 67
     7
 79
     5
170
     0
171
     0
290
     0
174
     0
 93
        1
 44
-50.0
173
     0
291
     1
 45
0.0
1001
ACAD
1000
AcDbSavedByObjectVersion
1070
     0
  0
VISUALSTYLE
  5
39
102
{ACAD_REACTORS
330
2A
102
}
330
2A
100
AcDbVisualStyle
  2
Facepattern
 70
    15
 71
     2
 72
     2
 73
     0
 90
        0
 40
-0.6
 41
-30.0
 62
     5
 63
     7
 74
     1
 91
        4
 64
     7
 65
   257
 75
     1
175
     1
 42
1.0
 92
        8
 66
     7
 43
1.0
 76
     1
 77
     6
 78
     2
 67
     7
 79
     5
170
     0
171
     0
290
     0
174
     0
 93
        1
 44
0.0
173
     0
291
     1
 45
0.0
1001
ACAD
1000
AcDbSavedByObjectVersion
1070
     0
  0
VISUALSTYLE
  5
2B
102
{ACAD_REACTORS
330
2A
102
}
330
2A
100
AcDbVisualStyle
  2
Flat
 70
     0
 71
     2
 72
     1
 73
     1
 90
        2
 40
-0.6
 41
30.0
 62
     5
 63
     7
 74
     0
 91
        4
 64
     7
 65
   257
 75
     1
175
     1
 42
1.0
 92
        8
 66
     7
 43
1.0
 76
     1
 77
     6
 78
     2
 67
     7
 79
     5
170
     0
171
     0
290
     0
174
     0
 93
       13
 44
0.0
173
     0
291
     1
 45
0.0
1001
ACAD
1000
AcDbSavedByObjectVersion
1070
     0
  0
VISUALSTYLE
  5
2C
102
{ACAD_REACTORS
330
2A
102
}
330
2A
100
AcDbVisualStyle
  2
FlatWithEdges
 70
     1
 71
     2
 72
     1
 73
     1
 90
        2
 40
-0.6
 41
30.0
 62
     5
 63
     7
 74
     1
 91
        4
 64
     7
 65
   257
 75
     1
175
     1
 42
1.0
 92
        0
 66
   257
 43
1.0
 76
     1
 77
     6
 78
     2
 67
     7
 79
     5
170
     0
171
     0
290
     0
174
     0
 93
       13
 44
0.0
173
     0
291
     1
 45
0.0
1001
ACAD
1000
AcDbSavedByObjectVersion
1070
     0
  0
VISUALSTYLE
  5
2D
102
{ACAD_REACTORS
330
2A
102
}
330
2A
100
AcDbVisualStyle
  2
Gouraud
 70
     2
 71
     2
 72
     2
 73
     1
 90
        2
 40
-0.6
 41
30.0
 62
     5
 63
     7
 74
     0
 91
        4
 64
     7
 65
   257
 75
     1
175
     1
 42
1.0
 92
        0
 66
     7
 43
1.0
 76
     1
 77
     6
 78
     2
 67
     7
 79
     5
170
     0
171
     0
290
     0
174
     0
 93
       13
 44
0.0
173
     0
291
     1
 45
0.0
1001
ACAD
1000
AcDbSavedByObjectVersion
1070
     0
  0
VISUALSTYLE
  5
2E
102
{ACAD_REACTORS
330
2A
102
}
330
2A
100
AcDbVisualStyle
  2
GouraudWithEdges
 70
     3
 71
     2
 72
     2
 73
     1
 90
        2
 40
-0.6
 41
30.0
 62
     5
 63
     7
 74
     1
 91
        4
 64
     7
 65
   257
 75
     1
175
     1
 42
1.0
 92
        0
 66
   257
 43
1.0
 76
     1
 77
     6
 78
     2
 67
     7
 79
     5
170
     0
171
     0
290
     0
174
     0
 93
       13
 44
0.0
173
     0
291
     1
 45
0.0
1001
ACAD
1000
AcDbSavedByObjectVersion
1070
     0
  0
VISUALSTYLE
  5
38
102
{ACAD_REACTORS
330
2A
102
}
330
2A
100
AcDbVisualStyle
  2
Linepattern
 70
    14
 71
     2
 72
     2
 73
     0
 90
        0
 40
-0.6
 41
-30.0
 62
     5
 63
     7
 74
     1
 91
        4
 64
     7
 65
   257
 75
     7
175
     7
 42
1.0
 92
        8
 66
     7
 43
1.0
 76
     1
 77
     6
 78
     2
 67
     7
 79
     5
170
     0
171
     0
290
     0
174
     0
 93
        1
 44
0.0
173
     0
291
     1
 45
0.0
1001
ACAD
1000
AcDbSavedByObjectVersion
1070
     0
  0
VISUALSTYLE
  5
33
102
{ACAD_REACTORS
330
2A
102
}
330
2A
100
AcDbVisualStyle
  2
Realistic
 70
     8
 71
     2
 72
     2
 73
     0
 90
        0
 40
-0.6
 41
-30.0
 62
     5
 63
     7
 74
     1
 91
        0
 64
     7
 65
   257
 75
     1
175
     1
 42
1.0
 92
        8
 66
     8
 43
1.0
 76
     1
 77
     6
 78
     2
 67
     7
 79
     5
170
     0
171
     0
290
     0
174
     0
 93
       13
 44
0.0
173
     0
291
     0
 45
0.0
1001
ACAD
1000
AcDbSavedByObjectVersion
1070
     0
  0
VISUALSTYLE
  5
37
102
{ACAD_REACTORS
330
2A
102
}
330
2A
100
AcDbVisualStyle
  2
Thicken
 70
    13
 71
     2
 72
     2
 73
     0
 90
        0
 40
-0.6
 41
-30.0
 62
     5
 63
     7
 74
     1
 91
        4
 64
     7
 65
   257
 75
     1
175
     1
 42
1.0
 92
       12
 66
     7
 43
1.0
 76
     1
 77
     6
 78
     2
 67
     7
 79
     5
170
     0
171
     0
290
     0
174
     0
 93
        1
 44
0.0
173
     0
291
     1
 45
0.0
1001
ACAD
1000
AcDbSavedByObjectVersion
1070
     0
  0
DICTIONARYVAR
  5
365
102
{ACAD_REACTORS
330
364
102
}
330
364
100
DictionaryVariables
280
     0
  1
1:1
  0
DICTIONARYVAR
  5
369
102
{ACAD_REACTORS
330
364
102
}
330
364
100
DictionaryVariables
280
     0
  1
80.000000
  0
DICTIONARYVAR
  5
368
102
{ACAD_REACTORS
330
364
102
}
330
364
100
DictionaryVariables
280
     0
  1
5.000000
  0
ENDSEC
  0
EOF
