  0
SECTION
  2
HEADER
  9
$ACADVER
  1
AC1015
  9
$ACADMAINTVER
 70
    20
  9
$DWGCODEPAGE
  3
ANSI_932
  9
$INSBASE
 10
0.0
 20
0.0
 30
0.0
  9
$EXTMIN
 10
10.0
 20
10.0
 30
-1.470203699499999
  9
$EXTMAX
 10
410.0
 20
287.0
 30
0.0
  9
$LIMMIN
 10
0.0
 20
0.0
  9
$LIMMAX
 10
420.0
 20
297.0
  9
$ORTHOMODE
 70
     0
  9
$REGENMODE
 70
     1
  9
$FILLMODE
 70
     1
  9
$QTEXTMODE
 70
     0
  9
$MIRRTEXT
 70
     1
  9
$LTSCALE
 40
1.0
  9
$ATTMODE
 70
     1
  9
$TEXTSIZE
 40
3.5
  9
$TRACEWID
 40
1.0
  9
$TEXTSTYLE
  7
STANDARD
  9
$CLAYER
  8
0
  9
$CELTYPE
  6
BYLAYER
  9
$CECOLOR
 62
   256
  9
$CELTSCALE
 40
1.0
  9
$DISPSILH
 70
     0
  9
$DIMSCALE
 40
1.0
  9
$DIMASZ
 40
3.302
  9
$DIMEXO
 40
1.0
  9
$DIMDLI
 40
3.75
  9
$DIMRND
 40
0.0
  9
$DIMDLE
 40
0.0
  9
$DIMEXE
 40
1.0
  9
$DIMTP
 40
0.0
  9
$DIMTM
 40
0.0
  9
$DIMTXT
 40
3.5
  9
$DIMCEN
 40
2.5
  9
$DIMTSZ
 40
0.0
  9
$DIMTOL
 70
     0
  9
$DIMLIM
 70
     0
  9
$DIMTIH
 70
     1
  9
$DIMTOH
 70
     1
  9
$DIMSE1
 70
     0
  9
$DIMSE2
 70
     0
  9
$DIMTAD
 70
     1
  9
$DIMZIN
 70
     0
  9
$DIMBLK
  1

  9
$DIMASO
 70
     1
  9
$DIMSHO
 70
     1
  9
$DIMPOST
  1

  9
$DIMAPOST
  1

  9
$DIMALT
 70
     0
  9
$DIMALTD
 70
     3
  9
$DIMALTF
 40
0.0393700787
  9
$DIMLFAC
 40
1.0
  9
$DIMTOFL
 70
     1
  9
$DIMTVP
 40
0.0
  9
$DIMTIX
 70
     0
  9
$DIMSOXD
 70
     0
  9
$DIMSAH
 70
     0
  9
$DIMBLK1
  1

  9
$DIMBLK2
  1

  9
$DIMSTYLE
  2
ISO-25
  9
$DIMCLRD
 70
     0
  9
$DIMCLRE
 70
     0
  9
$DIMCLRT
 70
     0
  9
$DIMTFAC
 40
1.0
  9
$DIMGAP
 40
1.524
  9
$DIMJUST
 70
     0
  9
$DIMSD1
 70
     0
  9
$DIMSD2
 70
     0
  9
$DIMTOLJ
 70
     0
  9
$DIMTZIN
 70
     0
  9
$DIMALTZ
 70
     0
  9
$DIMALTTZ
 70
     0
  9
$DIMUPT
 70
     0
  9
$DIMDEC
 70
     2
  9
$DIMTDEC
 70
     2
  9
$DIMALTU
 70
     2
  9
$DIMALTTD
 70
     3
  9
$DIMTXSTY
  7
STANDARD
  9
$DIMAUNIT
 70
     0
  9
$DIMADEC
 70
     0
  9
$DIMALTRND
 40
0.0
  9
$DIMAZIN
 70
     0
  9
$DIMDSEP
 70
    46
  9
$DIMATFIT
 70
     3
  9
$DIMFRAC
 70
     0
  9
$DIMLDRBLK
  1

  9
$DIMLUNIT
 70
     2
  9
$DIMLWD
 70
    -2
  9
$DIMLWE
 70
    -2
  9
$DIMTMOVE
 70
     0
  9
$LUNITS
 70
     2
  9
$LUPREC
 70
     2
  9
$SKETCHINC
 40
1.0
  9
$FILLETRAD
 40
10.0
  9
$AUNITS
 70
     0
  9
$AUPREC
 70
     2
  9
$MENU
  1
.
  9
$ELEVATION
 40
0.0
  9
$PELEVATION
 40
0.0
  9
$THICKNESS
 40
0.0
  9
$LIMCHECK
 70
     0
  9
$CHAMFERA
 40
0.0
  9
$CHAMFERB
 40
0.0
  9
$CHAMFERC
 40
0.0
  9
$CHAMFERD
 40
0.0
  9
$SKPOLY
 70
     0
  9
$TDCREATE
 40
2457625.461050162
  9
$TDUCREATE
 40
2457625.086050162
  9
$TDUPDATE
 40
2457827.373500578
  9
$TDUUPDATE
 40
2457826.998500578
  9
$TDINDWG
 40
0.0002897106
  9
$TDUSRTIMER
 40
0.0002892940
  9
$USRTIMER
 70
     1
  9
$ANGBASE
 50
0.0
  9
$ANGDIR
 70
     0
  9
$PDMODE
 70
     0
  9
$PDSIZE
 40
-1.0
  9
$PLINEWID
 40
0.0
  9
$SPLFRAME
 70
     0
  9
$SPLINETYPE
 70
     6
  9
$SPLINESEGS
 70
     8
  9
$HANDSEED
  5
3D1
  9
$SURFTAB1
 70
     6
  9
$SURFTAB2
 70
     6
  9
$SURFTYPE
 70
     6
  9
$SURFU
 70
     6
  9
$SURFV
 70
     6
  9
$UCSBASE
  2

  9
$UCSNAME
  2

  9
$UCSORG
 10
0.0
 20
0.0
 30
0.0
  9
$UCSXDIR
 10
1.0
 20
0.0
 30
0.0
  9
$UCSYDIR
 10
0.0
 20
1.0
 30
0.0
  9
$UCSORTHOREF
  2

  9
$UCSORTHOVIEW
 70
     0
  9
$UCSORGTOP
 10
0.0
 20
0.0
 30
0.0
  9
$UCSORGBOTTOM
 10
0.0
 20
0.0
 30
0.0
  9
$UCSORGLEFT
 10
0.0
 20
0.0
 30
0.0
  9
$UCSORGRIGHT
 10
0.0
 20
0.0
 30
0.0
  9
$UCSORGFRONT
 10
0.0
 20
0.0
 30
0.0
  9
$UCSORGBACK
 10
0.0
 20
0.0
 30
0.0
  9
$PUCSBASE
  2

  9
$PUCSNAME
  2

  9
$PUCSORG
 10
0.0
 20
0.0
 30
0.0
  9
$PUCSXDIR
 10
1.0
 20
0.0
 30
0.0
  9
$PUCSYDIR
 10
0.0
 20
1.0
 30
0.0
  9
$PUCSORTHOREF
  2

  9
$PUCSORTHOVIEW
 70
     0
  9
$PUCSORGTOP
 10
0.0
 20
0.0
 30
0.0
  9
$PUCSORGBOTTOM
 10
0.0
 20
0.0
 30
0.0
  9
$PUCSORGLEFT
 10
0.0
 20
0.0
 30
0.0
  9
$PUCSORGRIGHT
 10
0.0
 20
0.0
 30
0.0
  9
$PUCSORGFRONT
 10
0.0
 20
0.0
 30
0.0
  9
$PUCSORGBACK
 10
0.0
 20
0.0
 30
0.0
  9
$USERI1
 70
     0
  9
$USERI2
 70
     0
  9
$USERI3
 70
     0
  9
$USERI4
 70
     0
  9
$USERI5
 70
     0
  9
$USERR1
 40
0.0
  9
$USERR2
 40
0.0
  9
$USERR3
 40
0.0
  9
$USERR4
 40
0.0
  9
$USERR5
 40
0.0
  9
$WORLDVIEW
 70
     1
  9
$SHADEDGE
 70
     3
  9
$SHADEDIF
 70
    70
  9
$TILEMODE
 70
     1
  9
$MAXACTVP
 70
    64
  9
$PINSBASE
 10
0.0
 20
0.0
 30
0.0
  9
$PLIMCHECK
 70
     0
  9
$PEXTMIN
 10
1.000000000000000E+20
 20
1.000000000000000E+20
 30
1.000000000000000E+20
  9
$PEXTMAX
 10
-1.000000000000000E+20
 20
-1.000000000000000E+20
 30
-1.000000000000000E+20
  9
$PLIMMIN
 10
0.0
 20
0.0
  9
$PLIMMAX
 10
420.0
 20
297.0
  9
$UNITMODE
 70
     0
  9
$VISRETAIN
 70
     1
  9
$PLINEGEN
 70
     0
  9
$PSLTSCALE
 70
     1
  9
$TREEDEPTH
 70
  3020
  9
$CMLSTYLE
  2
STANDARD
  9
$CMLJUST
 70
     0
  9
$CMLSCALE
 40
20.0
  9
$PROXYGRAPHICS
 70
     1
  9
$MEASUREMENT
 70
     1
  9
$CELWEIGHT
370
    -1
  9
$ENDCAPS
280
     0
  9
$JOINSTYLE
280
     0
  9
$LWDISPLAY
290
     0
  9
$INSUNITS
 70
     0
  9
$HYPERLINKBASE
  1

  9
$STYLESHEET
  1

  9
$XEDIT
290
     1
  9
$CEPSNTYPE
380
     0
  9
$PSTYLEMODE
290
     1
  9
$FINGERPRINTGUID
  2
{32A78F07-A418-462C-833A-46451591489D}
  9
$VERSIONGUID
  2
{3CB9D64F-CD47-44B2-A39C-8B19D65F5BCF}
  9
$EXTNAMES
290
     1
  9
$PSVPSCALE
 40
0.0
  9
$OLESTARTUP
290
     0
  0
ENDSEC
  0
SECTION
  2
CLASSES
  0
CLASS
  1
ACDBDICTIONARYWDFLT
  2
AcDbDictionaryWithDefault
  3
ObjectDBX Classes
 90
        0
280
     0
281
     0
  0
CLASS
  1
VISUALSTYLE
  2
AcDbVisualStyle
  3
ObjectDBX Classes
 90
    36863
280
     0
281
     0
  0
CLASS
  1
MATERIAL
  2
AcDbMaterial
  3
ObjectDBX Classes
 90
    32768
280
     0
281
     0
  0
CLASS
  1
SCALE
  2
AcDbScale
  3
ObjectDBX Classes
 90
    33921
280
     0
281
     0
  0
CLASS
  1
TABLESTYLE
  2
AcDbTableStyle
  3
ObjectDBX Classes
 90
    36863
280
     0
281
     0
  0
CLASS
  1
MLEADERSTYLE
  2
AcDbMLeaderStyle
  3
ACDB_MLEADERSTYLE_CLASS
 90
    36863
280
     0
281
     0
  0
CLASS
  1
SUN
  2
AcDbSun
  3
SCENEOE
 90
    33921
280
     0
281
     0
  0
CLASS
  1
DICTIONARYVAR
  2
AcDbDictionaryVar
  3
ObjectDBX Classes
 90
        0
280
     0
281
     0
  0
CLASS
  1
ACDBPLACEHOLDER
  2
AcDbPlaceHolder
  3
ObjectDBX Classes
 90
        0
280
     0
281
     0
  0
CLASS
  1
LAYOUT
  2
AcDbLayout
  3
ObjectDBX Classes
 90
        0
280
     0
281
     0
  0
ENDSEC
  0
SECTION
  2
TABLES
  0
TABLE
  2
VPORT
  5
8
330
0
100
AcDbSymbolTable
 70
     2
  0
VPORT
  5
3C9
330
8
100
AcDbSymbolTableRecord
100
AcDbViewportTableRecord
  2
*Active
 70
     0
 10
0.0
 20
0.0
 11
1.0
 21
1.0
 12
215.5341189652664
 22
185.6145408530318
 13
0.0
 23
0.0
 14
10.0
 24
10.0
 15
10.0
 25
10.0
 16
0.0
 26
0.0
 36
1.0
 17
0.0
 27
0.0
 37
0.0
 40
178.6558659587089
 41
2.411650485436893
 42
50.0
 43
0.0
 44
0.0
 50
0.0
 51
0.0
 71
     0
 72
  2000
 73
     1
 74
     3
 75
     0
 76
     0
 77
     0
 78
     0
281
     0
 65
     1
110
0.0
120
0.0
130
0.0
111
1.0
121
0.0
131
0.0
112
0.0
122
1.0
132
0.0
 79
     0
146
0.0
  0
ENDTAB
  0
TABLE
  2
LTYPE
  5
5
330
0
100
AcDbSymbolTable
 70
     6
  0
LTYPE
  5
14
330
5
100
AcDbSymbolTableRecord
100
AcDbLinetypeTableRecord
  2
BYBLOCK
 70
     0
  3

 72
    65
 73
     0
 40
0.0
  0
LTYPE
  5
15
330
5
100
AcDbSymbolTableRecord
100
AcDbLinetypeTableRecord
  2
BYLAYER
 70
     0
  3

 72
    65
 73
     0
 40
0.0
  0
LTYPE
  5
16
330
5
100
AcDbSymbolTableRecord
100
AcDbLinetypeTableRecord
  2
CONTINUOUS
 70
     0
  3
Solid line
 72
    65
 73
     0
 40
0.0
  0
LTYPE
  5
6E
330
5
100
AcDbSymbolTableRecord
100
AcDbLinetypeTableRecord
  2
HIDDEN
 70
     0
  3
Hidden __ __ __ __ __ __ __ __ __ __ __ __ __ __
 72
    65
 73
     2
 40
1.905
 49
1.27
 74
     0
 49
-0.635
 74
     0
  0
LTYPE
  5
6F
330
5
100
AcDbSymbolTableRecord
100
AcDbLinetypeTableRecord
  2
PHANTOM
 70
     0
  3
Phantom ______  __  __  ______  __  __  ______
 72
    65
 73
     6
 40
12.7
 49
6.349999999999999
 74
     0
 49
-1.27
 74
     0
 49
1.27
 74
     0
 49
-1.27
 74
     0
 49
1.27
 74
     0
 49
-1.27
 74
     0
  0
LTYPE
  5
70
330
5
100
AcDbSymbolTableRecord
100
AcDbLinetypeTableRecord
  2
CENTER
 70
     0
  3
Center ____ _ ____ _ ____ _ ____ _ ____ _ ____
 72
    65
 73
     4
 40
10.16
 49
6.349999999999999
 74
     0
 49
-1.27
 74
     0
 49
1.27
 74
     0
 49
-1.27
 74
     0
  0
LTYPE
  5
71
330
5
100
AcDbSymbolTableRecord
100
AcDbLinetypeTableRecord
  2
CENTERX2
 70
     0
  3
Center (2x) ________  __  ________  __  _____
 72
    65
 73
     4
 40
20.32
 49
12.7
 74
     0
 49
-2.54
 74
     0
 49
2.54
 74
     0
 49
-2.54
 74
     0
  0
LTYPE
  5
72
330
5
100
AcDbSymbolTableRecord
100
AcDbLinetypeTableRecord
  2
DOT2
 70
     0
  3
Dot (.5x) ........................................
 72
    65
 73
     2
 40
0.635
 49
0.0
 74
     0
 49
-0.635
 74
     0
  0
ENDTAB
  0
TABLE
  2
LAYER
  5
2
330
0
100
AcDbSymbolTable
 70
     8
  0
LAYER
  5
10
330
2
100
AcDbSymbolTableRecord
100
AcDbLayerTableRecord
  2
0
 70
     0
 62
     7
  6
CONTINUOUS
370
    -3
390
3B8
  0
LAYER
  5
73
330
2
100
AcDbSymbolTableRecord
100
AcDbLayerTableRecord
  2
参考線タイプ1
 70
     0
 62
     7
  6
PHANTOM
370
    -3
390
3B8
  0
LAYER
  5
74
330
2
100
AcDbSymbolTableRecord
100
AcDbLayerTableRecord
  2
参考線タイプ２
 70
     0
 62
     7
  6
CONTINUOUS
370
    -3
390
3B8
  0
LAYER
  5
75
330
2
100
AcDbSymbolTableRecord
100
AcDbLayerTableRecord
  2
細い実線
 70
     0
 62
     7
  6
CONTINUOUS
370
    -3
390
3B8
  0
LAYER
  5
76
330
2
100
AcDbSymbolTableRecord
100
AcDbLayerTableRecord
  2
中の実線
 70
     0
 62
     7
  6
CONTINUOUS
370
    -3
390
3B8
  0
LAYER
  5
77
330
2
100
AcDbSymbolTableRecord
100
AcDbLayerTableRecord
  2
太い実線
 70
     0
 62
     7
  6
CONTINUOUS
370
    -3
390
3B8
  0
LAYER
  5
78
330
2
100
AcDbSymbolTableRecord
100
AcDbLayerTableRecord
  2
寸法
 70
     0
 62
   179
  6
CONTINUOUS
370
    -3
390
3B8
  0
LAYER
  5
79
330
2
100
AcDbSymbolTableRecord
100
AcDbLayerTableRecord
  2
印刷しない
 70
     0
 62
    -7
  6
PHANTOM
370
    -3
390
3B8
  0
ENDTAB
  0
TABLE
  2
STYLE
  5
3
330
0
100
AcDbSymbolTable
 70
     9
  0
STYLE
  5
11
330
3
100
AcDbSymbolTableRecord
100
AcDbTextStyleTableRecord
  2
STANDARD
 70
     0
 40
0.0
 41
1.0
 50
0.0
 71
     0
 42
3.5
  3
GOTHIC.TTF
  4

1001
ACAD
1000
CENTURY GOTHIC
1071
       34
  0
STYLE
  5
149
330
3
100
AcDbSymbolTableRecord
100
AcDbTextStyleTableRecord
  2
SLDTEXTSTYLE0
 70
     0
 40
0.0
 41
1.111066666699999
 50
0.0
 71
     0
 42
3.5
  3
HGRSMP.TTF
  4
bigfont
1001
ACAD
1000
HG丸ｺﾞｼｯｸM-PRO
1071
 33554738
  0
STYLE
  5
14F
330
3
100
AcDbSymbolTableRecord
100
AcDbTextStyleTableRecord
  2
SLDTEXTSTYLE1
 70
     0
 40
0.0
 41
1.0
 50
0.0
 71
     0
 42
3.5
  3
HGRGE.TTC
  4
bigfont
1001
ACAD
1000
HGｺﾞｼｯｸE
1071
      305
  0
STYLE
  5
158
330
3
100
AcDbSymbolTableRecord
100
AcDbTextStyleTableRecord
  2
SLDTEXTSTYLE2
 70
     0
 40
0.0
 41
1.111066666699999
 50
0.0
 71
     0
 42
3.5
  3
MS PGOTHIC
  4

1001
ACAD
1000
MS PGOTHIC
1071
      256
  0
STYLE
  5
1B7
330
3
100
AcDbSymbolTableRecord
100
AcDbTextStyleTableRecord
  2
SLDTEXTSTYLE3
 70
     0
 40
0.0
 41
0.7608029000000001
 50
0.0
 71
     0
 42
3.5
  3
GOTHIC.TTF
  4
bigfont
1001
ACAD
1000
Century Gothic
1071
      290
  0
STYLE
  5
1BA
330
3
100
AcDbSymbolTableRecord
100
AcDbTextStyleTableRecord
  2
SLDTEXTSTYLE4
 70
     0
 40
0.0
 41
0.7608029000000001
 50
0.0
 71
     0
 42
3.5
  3
GOTHIC.TTF
  4

1001
ACAD
1000
Century Gothic
1071
      290
  0
STYLE
  5
1DB
330
3
100
AcDbSymbolTableRecord
100
AcDbTextStyleTableRecord
  2
SLDTEXTSTYLE5
 70
     0
 40
0.0
 41
1.0
 50
0.0
 71
     0
 42
3.5
  3
MS PGOTHIC
  4
bigfont
1001
ACAD
1000
MS PGOTHIC
1071
      256
  0
STYLE
  5
341
330
3
100
AcDbSymbolTableRecord
100
AcDbTextStyleTableRecord
  2
SLDTEXTSTYLE6
 70
     0
 40
0.0
 41
0.9129999999999999
 50
0.0
 71
     0
 42
3.5
  3
GOTHIC.TTF
  4

1001
ACAD
1000
Century Gothic
1071
      290
  0
STYLE
  5
3A7
330
3
100
AcDbSymbolTableRecord
100
AcDbTextStyleTableRecord
  2
SLDTEXTSTYLE7
 70
     0
 40
0.0
 41
0.9129999999999999
 50
0.0
 71
     0
 42
3.5
  3
GOTHIC.TTF
  4
bigfont
1001
ACAD
1000
Century Gothic
1071
      290
  0
ENDTAB
  0
TABLE
  2
VIEW
  5
6
330
0
100
AcDbSymbolTable
 70
     0
  0
ENDTAB
  0
TABLE
  2
UCS
  5
7
330
0
100
AcDbSymbolTable
 70
     0
  0
ENDTAB
  0
TABLE
  2
APPID
  5
9
330
0
100
AcDbSymbolTable
 70
     1
  0
APPID
  5
12
330
9
100
AcDbSymbolTableRecord
100
AcDbRegAppTableRecord
  2
ACAD
 70
     0
  0
ENDTAB
  0
TABLE
  2
DIMSTYLE
  5
A
330
0
100
AcDbSymbolTable
 70
     8
100
AcDbDimStyleTable
 71
     0
  0
DIMSTYLE
105
27
330
A
100
AcDbSymbolTableRecord
100
AcDbDimStyleTableRecord
  2
ISO-25
 70
     0
 41
2.5
 42
0.625
 43
3.75
 44
1.25
 73
     0
 74
     0
 77
     1
 78
     8
140
2.5
141
2.5
143
0.0393700787
147
0.625
171
     3
172
     1
271
     2
272
     2
274
     3
283
     0
284
     8
340
11
  0
DIMSTYLE
105
342
102
{ACAD_REACTORS
330
340
330
352
102
}
330
A
100
AcDbSymbolTableRecord
100
AcDbDimStyleTableRecord
  2
SLDDIMSTYLE0
 70
     0
 41
3.302
 44
0.0
 45
0.000000001
 73
     0
 74
     0
 77
     3
 78
    12
140
3.5
147
0.875
173
     1
271
     1
272
     2
284
    12
340
341
341
343
343
343
344
343
  0
DIMSTYLE
105
35D
102
{ACAD_REACTORS
330
35C
102
}
330
A
100
AcDbSymbolTableRecord
100
AcDbDimStyleTableRecord
  2
SLDDIMSTYLE1
 70
     0
 41
3.302
 44
0.0
 73
     0
 74
     0
 77
     3
 78
    12
140
3.5
147
0.875
173
     1
179
     2
272
     2
284
    12
340
341
341
343
343
343
344
343
  0
DIMSTYLE
105
368
102
{ACAD_REACTORS
330
367
330
374
102
}
330
A
100
AcDbSymbolTableRecord
100
AcDbDimStyleTableRecord
  2
SLDDIMSTYLE2
 70
     0
 41
3.302
 44
0.0
 45
0.000000001
 73
     0
 74
     0
 75
     1
 77
     3
 78
    12
140
3.5
147
0.875
173
     1
271
     2
272
     2
284
    12
340
341
341
343
343
343
344
369
  0
DIMSTYLE
105
37E
102
{ACAD_REACTORS
330
37D
102
}
330
A
100
AcDbSymbolTableRecord
100
AcDbDimStyleTableRecord
  2
SLDDIMSTYLE3
 70
     0
 41
3.302
 44
0.0
 45
0.000000001
 73
     0
 74
     0
 77
     3
 78
    12
140
3.5
147
0.875
172
     1
173
     1
271
     2
272
     2
284
    12
340
341
341
343
343
343
344
343
  0
DIMSTYLE
105
38D
102
{ACAD_REACTORS
330
38C
102
}
330
A
100
AcDbSymbolTableRecord
100
AcDbDimStyleTableRecord
  2
SLDDIMSTYLE4
 70
     0
 41
3.302
 44
0.0
 45
0.000000001
 73
     0
 74
     0
 77
     3
 78
    12
140
3.5
147
0.875
173
     1
271
     1
272
     1
284
    12
340
341
341
343
343
343
344
343
  0
DIMSTYLE
105
398
102
{ACAD_REACTORS
330
397
102
}
330
A
100
AcDbSymbolTableRecord
100
AcDbDimStyleTableRecord
  2
SLDDIMSTYLE5
 70
     0
 41
3.302
 44
0.0
 45
0.000000001
 73
     0
 74
     0
 77
     3
 78
    12
140
3.5
147
0.875
173
     1
271
     2
272
     3
284
    12
340
341
341
343
343
343
344
343
  0
DIMSTYLE
105
3AA
330
A
100
AcDbSymbolTableRecord
100
AcDbDimStyleTableRecord
  2
SLDDIMSTYLE6
 70
     0
 41
3.0
 44
0.0
 45
0.000000001
146
3.0
147
0.0
173
     1
271
     0
272
     0
340
11
341
3AB
343
3AB
344
3AB
  0
ENDTAB
  0
TABLE
  2
BLOCK_RECORD
  5
1
330
0
100
AcDbSymbolTable
 70
    28
  0
BLOCK_RECORD
  5
1F
330
1
100
AcDbSymbolTableRecord
100
AcDbBlockTableRecord
  2
*MODEL_SPACE
340
3BD
  0
BLOCK_RECORD
  5
1B
330
1
100
AcDbSymbolTableRecord
100
AcDbBlockTableRecord
  2
*PAPER_SPACE
340
3BE
  0
BLOCK_RECORD
  5
23
330
1
100
AcDbSymbolTableRecord
100
AcDbBlockTableRecord
  2
*PAPER_SPACE0
340
0
  0
BLOCK_RECORD
  5
7A
330
1
100
AcDbSymbolTableRecord
100
AcDbBlockTableRecord
  2
ﾌﾞﾛｯｸ1
340
0
102
{BLKREFS
331
33F
102
}
  0
BLOCK_RECORD
  5
7F
330
1
100
AcDbSymbolTableRecord
100
AcDbBlockTableRecord
  2
ﾌﾞﾛｯｸ14
340
0
  0
BLOCK_RECORD
  5
14B
330
1
100
AcDbSymbolTableRecord
100
AcDbBlockTableRecord
  2
ﾌﾞﾛｯｸ15
340
0
  0
BLOCK_RECORD
  5
152
330
1
100
AcDbSymbolTableRecord
100
AcDbBlockTableRecord
  2
ﾌﾞﾛｯｸ16
340
0
  0
BLOCK_RECORD
  5
15A
330
1
100
AcDbSymbolTableRecord
100
AcDbBlockTableRecord
  2
ﾌﾞﾛｯｸ17
340
0
  0
BLOCK_RECORD
  5
161
330
1
100
AcDbSymbolTableRecord
100
AcDbBlockTableRecord
  2
ﾌﾞﾛｯｸ18
340
0
  0
BLOCK_RECORD
  5
168
330
1
100
AcDbSymbolTableRecord
100
AcDbBlockTableRecord
  2
ﾌﾞﾛｯｸ19
340
0
  0
BLOCK_RECORD
  5
16F
330
1
100
AcDbSymbolTableRecord
100
AcDbBlockTableRecord
  2
ﾌﾞﾛｯｸ20
340
0
  0
BLOCK_RECORD
  5
17A
330
1
100
AcDbSymbolTableRecord
100
AcDbBlockTableRecord
  2
ﾌﾞﾛｯｸ23
340
0
  0
BLOCK_RECORD
  5
19A
330
1
100
AcDbSymbolTableRecord
100
AcDbBlockTableRecord
  2
ﾌﾞﾛｯｸ27
340
0
  0
BLOCK_RECORD
  5
1A1
330
1
100
AcDbSymbolTableRecord
100
AcDbBlockTableRecord
  2
ﾌﾞﾛｯｸ32
340
0
  0
BLOCK_RECORD
  5
1AF
330
1
100
AcDbSymbolTableRecord
100
AcDbBlockTableRecord
  2
ﾌﾞﾛｯｸ8
340
0
  0
BLOCK_RECORD
  5
1BC
330
1
100
AcDbSymbolTableRecord
100
AcDbBlockTableRecord
  2
ﾌﾞﾛｯｸ7
340
0
  0
BLOCK_RECORD
  5
1C4
330
1
100
AcDbSymbolTableRecord
100
AcDbBlockTableRecord
  2
ﾌﾞﾛｯｸ6
340
0
  0
BLOCK_RECORD
  5
1CC
330
1
100
AcDbSymbolTableRecord
100
AcDbBlockTableRecord
  2
ﾌﾞﾛｯｸ5
340
0
  0
BLOCK_RECORD
  5
343
330
1
100
AcDbSymbolTableRecord
100
AcDbBlockTableRecord
  2
_OPEN30
340
0
102
{BLKREFS
331
34C
331
34D
331
356
331
357
331
362
331
363
331
36F
331
378
331
384
331
385
331
391
331
392
331
39C
331
39D
102
}
  0
BLOCK_RECORD
  5
349
330
1
100
AcDbSymbolTableRecord
100
AcDbBlockTableRecord
  2
_D
340
0
  0
BLOCK_RECORD
  5
353
330
1
100
AcDbSymbolTableRecord
100
AcDbBlockTableRecord
  2
_D_1
340
0
  0
BLOCK_RECORD
  5
35E
330
1
100
AcDbSymbolTableRecord
100
AcDbBlockTableRecord
  2
_D_2
340
0
  0
BLOCK_RECORD
  5
369
330
1
100
AcDbSymbolTableRecord
100
AcDbBlockTableRecord
  2
_NONE
340
0
  0
BLOCK_RECORD
  5
36C
330
1
100
AcDbSymbolTableRecord
100
AcDbBlockTableRecord
  2
_D_3
340
0
  0
BLOCK_RECORD
  5
375
330
1
100
AcDbSymbolTableRecord
100
AcDbBlockTableRecord
  2
_D_4
340
0
  0
BLOCK_RECORD
  5
37F
330
1
100
AcDbSymbolTableRecord
100
AcDbBlockTableRecord
  2
_D_5
340
0
  0
BLOCK_RECORD
  5
38E
330
1
100
AcDbSymbolTableRecord
100
AcDbBlockTableRecord
  2
_D_6
340
0
  0
BLOCK_RECORD
  5
399
330
1
100
AcDbSymbolTableRecord
100
AcDbBlockTableRecord
  2
_D_7
340
0
  0
BLOCK_RECORD
  5
3A3
330
1
100
AcDbSymbolTableRecord
100
AcDbBlockTableRecord
  2
SW_NOTE_0
340
0
102
{BLKREFS
331
3A9
102
}
  0
BLOCK_RECORD
  5
3AB
330
1
100
AcDbSymbolTableRecord
100
AcDbBlockTableRecord
  2
_DOT
340
0
  0
ENDTAB
  0
ENDSEC
  0
SECTION
  2
BLOCKS
  0
BLOCK
  5
20
330
1F
100
AcDbEntity
  8
0
100
AcDbBlockBegin
  2
*MODEL_SPACE
 70
     0
 10
0.0
 20
0.0
 30
0.0
  3
*MODEL_SPACE
  1

  0
ENDBLK
  5
21
330
1F
100
AcDbEntity
  8
0
100
AcDbBlockEnd
  0
BLOCK
  5
1C
330
1B
100
AcDbEntity
 67
     1
  8
0
100
AcDbBlockBegin
  2
*PAPER_SPACE
 70
     0
 10
0.0
 20
0.0
 30
0.0
  3
*PAPER_SPACE
  1

  0
ENDBLK
  5
1D
330
1B
100
AcDbEntity
 67
     1
  8
0
100
AcDbBlockEnd
  0
BLOCK
  5
24
330
23
100
AcDbEntity
  8
0
100
AcDbBlockBegin
  2
*PAPER_SPACE0
 70
     0
 10
0.0
 20
0.0
 30
0.0
  3
*PAPER_SPACE0
  1

  0
ENDBLK
  5
25
330
23
100
AcDbEntity
  8
0
100
AcDbBlockEnd
  0
BLOCK
  5
7B
330
7A
100
AcDbEntity
  8
0
100
AcDbBlockBegin
  2
ﾌﾞﾛｯｸ1
 70
     0
 10
0.0
 20
0.0
 30
0.0
  3
ﾌﾞﾛｯｸ1
  1

  0
LINE
  5
7D
330
7A
100
AcDbEntity
  8
0
  6
Continuous
 62
     7
100
AcDbLine
 10
0.0
 20
1.772001483099999
 30
0.0
 11
3.0691965999
 21
3.544002966299999
 31
0.0
  0
LINE
  5
7E
330
7A
100
AcDbEntity
  8
0
  6
Continuous
 62
     7
100
AcDbLine
 10
0.0
 20
1.772001483099999
 30
0.0
 11
3.0691965999
 21
0.0
 31
0.0
  0
ENDBLK
  5
7C
330
7A
100
AcDbEntity
  8
0
100
AcDbBlockEnd
  0
BLOCK
  5
80
330
7F
100
AcDbEntity
  8
0
100
AcDbBlockBegin
  2
ﾌﾞﾛｯｸ14
 70
     0
 10
0.0
 20
0.0
 30
0.0
  3
ﾌﾞﾛｯｸ14
  1

  0
ARC
  5
82
330
7F
100
AcDbEntity
  8
0
  6
Continuous
 62
   179
100
AcDbCircle
 10
3.9378540676
 20
5.2087765801
 30
0.0
 40
0.599999999999969
100
AcDbArc
 50
330.0000000011
 51
45.0
  0
ARC
  5
83
330
7F
100
AcDbEntity
  8
0
  6
Continuous
 62
   179
100
AcDbCircle
 10
2.308448241299999
 20
5.1640707505
 30
0.0
 40
0.5999999999997606
100
AcDbArc
 50
135.0000000009
 51
211.6075022463
  0
ARC
  5
84
330
7F
100
AcDbEntity
  8
0
  6
Continuous
 62
   179
100
AcDbCircle
 10
5.660515756299999
 20
2.225039010999999
 30
0.0
 40
0.6000000000004679
100
AcDbArc
 50
14.9999999996
 51
90.00000000200001
  0
ARC
  5
85
330
7F
100
AcDbEntity
  8
0
  6
Continuous
 62
   179
100
AcDbCircle
 10
4.807096458999999
 20
0.8362850870999999
 30
0.0
 40
0.5999999999999819
100
AcDbArc
 50
208.3924977538
 51
285.0
  0
ARC
  5
86
330
7F
100
AcDbEntity
  8
0
  6
Continuous
 62
   179
100
AcDbCircle
 10
1.483911679499999
 20
0.8362850870999999
 30
0.0
 40
0.6000000000000413
100
AcDbArc
 50
255.0
 51
331.6075022462
  0
ARC
  5
87
330
7F
100
AcDbEntity
  8
0
  6
Continuous
 62
   179
100
AcDbCircle
 10
0.6304923822000001
 20
2.2250390109
 30
0.0
 40
0.5999999999999704
100
AcDbArc
 50
90.0
 51
164.9999999999
  0
LINE
  5
88
330
7F
100
AcDbEntity
  8
0
  6
Continuous
 62
   179
100
AcDbLine
 10
5.5625513147
 20
0.5586223723
 30
0.0
 11
5.573313280099999
 21
0.5693843377000001
 31
0.0
  0
LINE
  5
89
330
7F
100
AcDbEntity
  8
0
  6
Continuous
 62
   179
100
AcDbLine
 10
5.178045115799999
 20
0.3155375296
 30
0.0
 11
5.9674631032
 21
1.104955517
 31
0.0
  0
LINE
  5
8A
330
7F
100
AcDbEntity
  8
0
  6
Continuous
 62
   179
100
AcDbLine
 10
4.956223493199999
 20
0.2351372632
 30
0.0
 11
5.154875814499999
 21
0.4337895845000001
 31
0.0
  0
LINE
  5
8B
330
7F
100
AcDbEntity
  8
0
  6
Continuous
 62
   179
100
AcDbLine
 10
5.734398140199999
 20
1.013311910199999
 30
0.0
 11
6.1357831719
 21
1.414696941899999
 31
0.0
  0
LINE
  5
8C
330
7F
100
AcDbEntity
  8
0
  6
Continuous
 62
   179
100
AcDbLine
 10
4.796075563699999
 20
0.2164106899
 30
0.0
 11
4.900703093599999
 21
0.3210382199
 31
0.0
  0
LINE
  5
8D
330
7F
100
AcDbEntity
  8
0
  6
Continuous
 62
   179
100
AcDbLine
 10
5.9193517398
 20
1.3396868661
 30
0.0
 11
6.208082259299999
 21
1.628417385599999
 31
0.0
  0
LINE
  5
8E
330
7F
100
AcDbEntity
  8
0
  6
Continuous
 62
   179
100
AcDbLine
 10
4.670344949999999
 20
0.2321014325
 30
0.0
 11
4.744818183299999
 21
0.3065746658
 31
0.0
  0
LINE
  5
8F
330
7F
100
AcDbEntity
  8
0
  6
Continuous
 62
   179
100
AcDbLine
 10
6.0163304873
 20
1.5780869698
 30
0.0
 11
6.262041187599999
 21
1.823797670099999
 31
0.0
  0
LINE
  5
90
330
7F
100
AcDbEntity
  8
0
  6
Continuous
 62
   179
100
AcDbLine
 10
4.564405034299999
 20
0.267582873
 30
0.0
 11
4.628925793999999
 21
0.3321036327
 31
0.0
  0
LINE
  5
91
330
7F
100
AcDbEntity
  8
0
  6
Continuous
 62
   179
100
AcDbLine
 10
6.0744134209
 20
1.7775912596
 30
0.0
 11
6.2892612101
 21
1.992439048799999
 31
0.0
  0
LINE
  5
92
330
7F
100
AcDbEntity
  8
0
  6
Continuous
 62
   179
100
AcDbLine
 10
4.4731996001
 20
0.3177987951
 30
0.0
 11
4.542211786
 21
0.386810981
 31
0.0
  0
LINE
  5
93
330
7F
100
AcDbEntity
  8
0
  6
Continuous
 62
   179
100
AcDbLine
 10
6.1062917675
 20
1.9508909624
 30
0.0
 11
6.280693102699999
 21
2.125292297599999
 31
0.0
  0
LINE
  5
94
330
7F
100
AcDbEntity
  8
0
  6
Continuous
 62
   179
100
AcDbLine
 10
4.3945871245
 20
0.3806076756999999
 30
0.0
 11
4.472105395499999
 21
0.4581259467
 31
0.0
  0
LINE
  5
95
330
7F
100
AcDbEntity
  8
0
  6
Continuous
 62
   179
100
AcDbLine
 10
6.117018544299999
 20
2.1030390955
 30
0.0
 11
6.268444365099999
 21
2.254464916299999
 31
0.0
  0
LINE
  5
96
330
7F
100
AcDbEntity
  8
0
  6
Continuous
 62
   179
100
AcDbLine
 10
4.327856453399999
 20
0.4552983609
 30
0.0
 11
4.418241436699999
 21
0.5456833442
 31
0.0
  0
LINE
  5
97
330
7F
100
AcDbEntity
  8
0
  6
Continuous
 62
   179
100
AcDbLine
 10
6.109705585599999
 20
2.237147493
 30
0.0
 11
6.2385354015
 21
2.365977308899999
 31
0.0
  0
LINE
  5
98
330
7F
100
AcDbEntity
  8
0
  6
Continuous
 62
   179
100
AcDbLine
 10
4.273259803999999
 20
0.5421230677000001
 30
0.0
 11
4.383154467099999
 21
0.6520177308
 31
0.0
  0
LINE
  5
99
330
7F
100
AcDbEntity
  8
0
  6
Continuous
 62
   179
100
AcDbLine
 10
6.0857758862
 20
2.3546391499
 30
0.0
 11
6.199605410599999
 21
2.468468674299999
 31
0.0
  0
LINE
  5
9A
330
7F
100
AcDbEntity
  8
0
  6
Continuous
 62
   179
100
AcDbLine
 10
4.2236389766
 20
0.6339235965
 30
0.0
 11
4.362867239999999
 21
0.7731518599
 31
0.0
  0
LINE
  5
9B
330
7F
100
AcDbEntity
  8
0
  6
Continuous
 62
   179
100
AcDbLine
 10
6.046148400999999
 20
2.4564330209
 30
0.0
 11
6.1465665397
 21
2.556851159599999
 31
0.0
  0
LINE
  5
9C
330
7F
100
AcDbEntity
  8
0
  6
Continuous
 62
   179
100
AcDbLine
 10
4.1740181492
 20
0.7257241253000001
 30
0.0
 11
4.3585514505
 21
0.9102574265999999
 31
0.0
  0
LINE
  5
9D
330
7F
100
AcDbEntity
  8
0
  6
Continuous
 62
   179
100
AcDbLine
 10
5.9911398898
 20
2.542845865899999
 30
0.0
 11
6.081185555499999
 21
2.632891531599999
 31
0.0
  0
LINE
  5
9E
330
7F
100
AcDbEntity
  8
0
  6
Continuous
 62
   179
100
AcDbLine
 10
4.1243973218
 20
0.8175246540999999
 30
0.0
 11
4.3738112937
 21
1.066938626
 31
0.0
  0
LINE
  5
9F
330
7F
100
AcDbEntity
  8
0
  6
Continuous
 62
   179
100
AcDbLine
 10
5.916109327899999
 20
2.6092366602
 30
0.0
 11
6.0039351569
 21
2.697062489299999
 31
0.0
  0
LINE
  5
A0
330
7F
100
AcDbEntity
  8
0
  6
Continuous
 62
   179
100
AcDbLine
 10
4.074776494299999
 20
0.9093251829000001
 30
0.0
 11
4.4118295098
 21
1.246378198399999
 31
0.0
  0
LINE
  5
A1
330
7F
100
AcDbEntity
  8
0
  6
Continuous
 62
   179
100
AcDbLine
 10
5.8230367301
 20
2.6575854187
 30
0.0
 11
5.914231727399999
 21
2.748780416
 31
0.0
  0
LINE
  5
A2
330
7F
100
AcDbEntity
  8
0
  6
Continuous
 62
   179
100
AcDbLine
 10
4.025155666899999
 20
1.0011257118
 30
0.0
 11
4.476445459299999
 21
1.4524155041
 31
0.0
  0
LINE
  5
A3
330
7F
100
AcDbEntity
  8
0
  6
Continuous
 62
   179
100
AcDbLine
 10
5.7005608058
 20
2.676530850599999
 30
0.0
 11
5.8101381994
 21
2.7861082443
 31
0.0
  0
LINE
  5
A4
330
7F
100
AcDbEntity
  8
0
  6
Continuous
 62
   179
100
AcDbLine
 10
3.975534839499999
 20
1.092926240599999
 30
0.0
 11
4.586073029899999
 21
1.703464431
 31
0.0
  0
LINE
  5
A5
330
7F
100
AcDbEntity
  8
0
  6
Continuous
 62
   179
100
AcDbLine
 10
5.532060830399999
 20
2.6494522315
 30
0.0
 11
5.6870834948
 21
2.804474895899999
 31
0.0
  0
LINE
  5
A6
330
7F
100
AcDbEntity
  8
0
  6
Continuous
 62
   179
100
AcDbLine
 10
3.925914012099999
 20
1.184726769399999
 30
0.0
 11
4.8603984843
 21
2.119211241599999
 31
0.0
  0
LINE
  5
A7
330
7F
100
AcDbEntity
  8
0
  6
Continuous
 62
   179
100
AcDbLine
 10
5.236239606299999
 20
2.4950523637
 30
0.0
 11
5.5462506311
 21
2.805063388399999
 31
0.0
  0
LINE
  5
A8
330
7F
100
AcDbEntity
  8
0
  6
Continuous
 62
   179
100
AcDbLine
 10
3.876293184599999
 20
1.276527298199999
 30
0.0
 11
5.404829274899999
 21
2.805063388399999
 31
0.0
  0
LINE
  5
A9
330
7F
100
AcDbEntity
  8
0
  6
Continuous
 62
   179
100
AcDbLine
 10
3.8266723572
 20
1.368327826999999
 30
0.0
 11
5.2634079186
 21
2.805063388399999
 31
0.0
  0
LINE
  5
AA
330
7F
100
AcDbEntity
  8
0
  6
Continuous
 62
   179
100
AcDbLine
 10
3.7770515298
 20
1.4601283558
 30
0.0
 11
5.1219865624
 21
2.805063388399999
 31
0.0
  0
LINE
  5
AB
330
7F
100
AcDbEntity
  8
0
  6
Continuous
 62
   179
100
AcDbLine
 10
3.7274307023
 20
1.5519288846
 30
0.0
 11
4.9805652061
 21
2.805063388399999
 31
0.0
  0
LINE
  5
AC
330
7F
100
AcDbEntity
  8
0
  6
Continuous
 62
   179
100
AcDbLine
 10
3.677809874899999
 20
1.6437294134
 30
0.0
 11
4.8391438499
 21
2.805063388399999
 31
0.0
  0
LINE
  5
AD
330
7F
100
AcDbEntity
  8
0
  6
Continuous
 62
   179
100
AcDbLine
 10
3.628189047499999
 20
1.735529942199999
 30
0.0
 11
4.697722493699999
 21
2.805063388399999
 31
0.0
  0
LINE
  5
AE
330
7F
100
AcDbEntity
  8
0
  6
Continuous
 62
   179
100
AcDbLine
 10
3.578568220099999
 20
1.827330470999999
 30
0.0
 11
4.5563011374
 21
2.805063388399999
 31
0.0
  0
LINE
  5
AF
330
7F
100
AcDbEntity
  8
0
  6
Continuous
 62
   179
100
AcDbLine
 10
3.5289473926
 20
1.9191309999
 30
0.0
 11
4.414879781199999
 21
2.805063388399999
 31
0.0
  0
LINE
  5
B0
330
7F
100
AcDbEntity
  8
0
  6
Continuous
 62
   179
100
AcDbLine
 10
1.744012993399999
 20
0.2756179569
 30
0.0
 11
2.026254084799999
 21
0.5578590483000001
 31
0.0
  0
LINE
  5
B1
330
7F
100
AcDbEntity
  8
0
  6
Continuous
 62
   179
100
AcDbLine
 10
3.479326565199999
 20
2.0109315287
 30
0.0
 11
4.273458425
 21
2.805063388399999
 31
0.0
  0
LINE
  5
B2
330
7F
100
AcDbEntity
  8
0
  6
Continuous
 62
   179
100
AcDbLine
 10
1.546563111699999
 20
0.2195894314
 30
0.0
 11
1.6564408732
 21
0.3294671929
 31
0.0
  0
LINE
  5
B3
330
7F
100
AcDbEntity
  8
0
  6
Continuous
 62
   179
100
AcDbLine
 10
1.872834990699999
 20
0.5458613104
 30
0.0
 11
2.1926242696
 21
0.8656505893
 31
0.0
  0
LINE
  5
B4
330
7F
100
AcDbEntity
  8
0
  6
Continuous
 62
   179
100
AcDbLine
 10
3.429705737799999
 20
2.102732057499999
 30
0.0
 11
4.132037068699999
 21
2.805063388399999
 31
0.0
  0
LINE
  5
B5
330
7F
100
AcDbEntity
  8
0
  6
Continuous
 62
   179
100
AcDbLine
 10
1.4068332843
 20
0.2212809602
 30
0.0
 11
1.4918591261
 21
0.306306802
 31
0.0
  0
LINE
  5
B6
330
7F
100
AcDbEntity
  8
0
  6
Continuous
 62
   179
100
AcDbLine
 10
1.924353366299999
 20
0.7388010423
 30
0.0
 11
2.358994454399999
 21
1.173442130299999
 31
0.0
  0
LINE
  5
B7
330
7F
100
AcDbEntity
  8
0
  6
Continuous
 62
   179
100
AcDbLine
 10
3.380084910299999
 20
2.194532586299999
 30
0.0
 11
3.9906157125
 21
2.805063388399999
 31
0.0
  0
LINE
  5
B8
330
7F
100
AcDbEntity
  8
0
  6
Continuous
 62
   179
100
AcDbLine
 10
1.2909725958
 20
0.246841628
 30
0.0
 11
1.3700317858
 21
0.325900818
 31
0.0
  0
LINE
  5
B9
330
7F
100
AcDbEntity
  8
0
  6
Continuous
 62
   179
100
AcDbLine
 10
1.932673302899999
 20
0.8885423349999999
 30
0.0
 11
2.525364639099999
 21
1.4812336713
 31
0.0
  0
LINE
  5
BA
330
7F
100
AcDbEntity
  8
0
  6
Continuous
 62
   179
100
AcDbLine
 10
3.3304640829
 20
2.286333115099999
 30
0.0
 11
3.849194356199999
 21
2.805063388399999
 31
0.0
  0
LINE
  5
BB
330
7F
100
AcDbEntity
  8
0
  6
Continuous
 62
   179
100
AcDbLine
 10
1.186734933999999
 20
0.2840253224
 30
0.0
 11
1.270012214
 21
0.3673026024
 31
0.0
  0
LINE
  5
BC
330
7F
100
AcDbEntity
  8
0
  6
Continuous
 62
   179
100
AcDbLine
 10
1.923214940399999
 20
1.020505328899999
 30
0.0
 11
2.6917348239
 21
1.789025212299999
 31
0.0
  0
LINE
  5
BD
330
7F
100
AcDbEntity
  8
0
  6
Continuous
 62
   179
100
AcDbLine
 10
3.2808432555
 20
2.3781336439
 30
0.0
 11
3.707773
 21
2.805063388399999
 31
0.0
  0
LINE
  5
BE
330
7F
100
AcDbEntity
  8
0
  6
Continuous
 62
   179
100
AcDbLine
 10
1.0876418904
 20
0.326353635
 30
0.0
 11
1.175518172099999
 21
0.4142299167
 31
0.0
  0
LINE
  5
BF
330
7F
100
AcDbEntity
  8
0
  6
Continuous
 62
   179
100
AcDbLine
 10
1.9037475494
 20
1.142459294
 30
0.0
 11
2.858105008699999
 21
2.0968167533
 31
0.0
  0
LINE
  5
C0
330
7F
100
AcDbEntity
  8
0
  6
Continuous
 62
   179
100
AcDbLine
 10
3.2077322631
 20
2.4464440077
 30
0.0
 11
3.5663516438
 21
2.805063388399999
 31
0.0
  0
LINE
  5
C1
330
7F
100
AcDbEntity
  8
0
  6
Continuous
 62
   179
100
AcDbLine
 10
0.9885488467
 20
0.3686819476
 30
0.0
 11
1.0821363761
 21
0.4622694770000001
 31
0.0
  0
LINE
  5
C2
330
7F
100
AcDbEntity
  8
0
  6
Continuous
 62
   179
100
AcDbLine
 10
1.8764247927
 20
1.256557893599999
 30
0.0
 11
3.024475193399999
 21
2.4046082943
 31
0.0
  0
LINE
  5
C3
330
7F
100
AcDbEntity
  8
0
  6
Continuous
 62
   179
100
AcDbLine
 10
3.0431363287
 20
2.423269429599999
 30
0.0
 11
3.4474975793
 21
2.8276306802
 31
0.0
  0
LINE
  5
C4
330
7F
100
AcDbEntity
  8
0
  6
Continuous
 62
   179
100
AcDbLine
 10
0.8920242657999999
 20
0.4135787229
 30
0.0
 11
1.0040959724
 21
0.5256504296
 31
0.0
  0
LINE
  5
C5
330
7F
100
AcDbEntity
  8
0
  6
Continuous
 62
   179
100
AcDbLine
 10
1.8443338071
 20
1.365888264199999
 30
0.0
 11
3.370504069299999
 21
2.892058526399999
 31
0.0
  0
LINE
  5
C6
330
7F
100
AcDbEntity
  8
0
  6
Continuous
 62
   179
100
AcDbLine
 10
0.817069314
 20
0.4800451273000001
 30
0.0
 11
0.9260555688
 21
0.5890313821000001
 31
0.0
  0
LINE
  5
C7
330
7F
100
AcDbEntity
  8
0
  6
Continuous
 62
   179
100
AcDbLine
 10
1.807625782899999
 20
1.470601596299999
 30
0.0
 11
3.407875721
 21
3.0708515344
 31
0.0
  0
LINE
  5
C8
330
7F
100
AcDbEntity
  8
0
  6
Continuous
 62
   179
100
AcDbLine
 10
0.7421143621999999
 20
0.5465115318000001
 30
0.0
 11
0.8524614837999999
 21
0.6568586534000001
 31
0.0
  0
LINE
  5
C9
330
7F
100
AcDbEntity
  8
0
  6
Continuous
 62
   179
100
AcDbLine
 10
1.766809953799999
 20
1.571207123399999
 30
0.0
 11
3.601060886299999
 21
3.405458055899999
 31
0.0
  0
LINE
  5
CA
330
7F
100
AcDbEntity
  8
0
  6
Continuous
 62
   179
100
AcDbLine
 10
0.6736656685
 20
0.6194841943000001
 30
0.0
 11
0.7871889622000001
 21
0.733007488
 31
0.0
  0
LINE
  5
CB
330
7F
100
AcDbEntity
  8
0
  6
Continuous
 62
   179
100
AcDbLine
 10
1.722282215399999
 20
1.668100741199999
 30
0.0
 11
3.794246051499999
 21
3.7400645774
 31
0.0
  0
LINE
  5
CC
330
7F
100
AcDbEntity
  8
0
  6
Continuous
 62
   179
100
AcDbLine
 10
0.6075153356000001
 20
0.6947552177
 30
0.0
 11
0.7219164406000001
 21
0.8091563225999999
 31
0.0
  0
LINE
  5
CD
330
7F
100
AcDbEntity
  8
0
  6
Continuous
 62
   179
100
AcDbLine
 10
1.674457466199999
 20
1.7616973483
 30
0.0
 11
2.717823506299999
 21
2.805063388399999
 31
0.0
  0
LINE
  5
CE
330
7F
100
AcDbEntity
  8
0
  6
Continuous
 62
   179
100
AcDbLine
 10
2.9193365043
 20
3.006576386399999
 30
0.0
 11
3.9874312168
 21
4.074671098899999
 31
0.0
  0
LINE
  5
CF
330
7F
100
AcDbEntity
  8
0
  6
Continuous
 62
   179
100
AcDbLine
 10
0.5413650028000001
 20
0.7700262411
 30
0.0
 11
0.6566439189
 21
0.8853051573
 31
0.0
  0
LINE
  5
D0
330
7F
100
AcDbEntity
  8
0
  6
Continuous
 62
   179
100
AcDbLine
 10
1.623486977199999
 20
1.8521482155
 30
0.0
 11
2.576402150099999
 21
2.805063388399999
 31
0.0
  0
LINE
  5
D1
330
7F
100
AcDbEntity
  8
0
  6
Continuous
 62
   179
100
AcDbLine
 10
2.8654617019
 20
3.094122940199999
 30
0.0
 11
4.1806163821
 21
4.4092776204
 31
0.0
  0
LINE
  5
D2
330
7F
100
AcDbEntity
  8
0
  6
Continuous
 62
   179
100
AcDbLine
 10
0.47521467
 20
0.8452972645999999
 30
0.0
 11
0.5913994488000001
 21
0.9614820434
 31
0.0
  0
LINE
  5
D3
330
7F
100
AcDbEntity
  8
0
  6
Continuous
 62
   179
100
AcDbLine
 10
1.569498621999999
 20
1.939581216599999
 30
0.0
 11
2.434980793899999
 21
2.805063388399999
 31
0.0
  0
LINE
  5
D4
330
7F
100
AcDbEntity
  8
0
  6
Continuous
 62
   179
100
AcDbLine
 10
2.811586899599999
 20
3.1816694941
 30
0.0
 11
4.3738015473
 21
4.743884141899999
 31
0.0
  0
LINE
  5
D5
330
7F
100
AcDbEntity
  8
0
  6
Continuous
 62
   179
100
AcDbLine
 10
0.4223376823
 20
0.9338416330999999
 30
0.0
 11
0.5345995176000001
 21
1.0461034684
 31
0.0
  0
LINE
  5
D6
330
7F
100
AcDbEntity
  8
0
  6
Continuous
 62
   179
100
AcDbLine
 10
1.5123484356
 20
2.023852386399999
 30
0.0
 11
2.293559437599999
 21
2.805063388399999
 31
0.0
  0
LINE
  5
D7
330
7F
100
AcDbEntity
  8
0
  6
Continuous
 62
   179
100
AcDbLine
 10
2.7577120972
 20
3.269216048
 30
0.0
 11
4.5156765582
 21
5.027180508899999
 31
0.0
  0
LINE
  5
D8
330
7F
100
AcDbEntity
  8
0
  6
Continuous
 62
   179
100
AcDbLine
 10
0.3705738733
 20
1.023499180299999
 30
0.0
 11
0.4807606809000001
 21
1.1336859879
 31
0.0
  0
LINE
  5
D9
330
7F
100
AcDbEntity
  8
0
  6
Continuous
 62
   179
100
AcDbLine
 10
1.447075914
 20
2.100001220999999
 30
0.0
 11
2.152138081399999
 21
2.805063388399999
 31
0.0
  0
LINE
  5
DA
330
7F
100
AcDbEntity
  8
0
  6
Continuous
 62
   179
100
AcDbLine
 10
2.7038372948
 20
3.356762601799999
 30
0.0
 11
4.0670879032
 21
4.720013210199999
 31
0.0
  0
LINE
  5
DB
330
7F
100
AcDbEntity
  8
0
  6
Continuous
 62
   179
100
AcDbLine
 10
4.390799612699999
 20
5.0437249197
 30
0.0
 11
4.537850816499999
 21
5.1907761235
 31
0.0
  0
LINE
  5
DC
330
7F
100
AcDbEntity
  8
0
  6
Continuous
 62
   179
100
AcDbLine
 10
0.3188100642
 20
1.1131567275
 30
0.0
 11
0.4299417977
 21
1.224288460999999
 31
0.0
  0
LINE
  5
DD
330
7F
100
AcDbEntity
  8
0
  6
Continuous
 62
   179
100
AcDbLine
 10
1.381803392299999
 20
2.176150055599999
 30
0.0
 11
2.010716725199999
 21
2.805063388399999
 31
0.0
  0
LINE
  5
DE
330
7F
100
AcDbEntity
  8
0
  6
Continuous
 62
   179
100
AcDbLine
 10
2.6499624924
 20
3.4443091557
 30
0.0
 11
3.8203083783
 21
4.614655041599999
 31
0.0
  0
LINE
  5
DF
330
7F
100
AcDbEntity
  8
0
  6
Continuous
 62
   179
100
AcDbLine
 10
4.417699725799999
 20
5.2120463891
 30
0.0
 11
4.5237559962
 21
5.3181026594
 31
0.0
  0
LINE
  5
E0
330
7F
100
AcDbEntity
  8
0
  6
Continuous
 62
   179
100
AcDbLine
 10
0.2670462552
 20
1.202814274699999
 30
0.0
 11
0.3822739602
 21
1.3180419797
 31
0.0
  0
LINE
  5
E1
330
7F
100
AcDbEntity
  8
0
  6
Continuous
 62
   179
100
AcDbLine
 10
1.316530870699999
 20
2.2522988902
 30
0.0
 11
1.869295368899999
 21
2.805063388399999
 31
0.0
  0
LINE
  5
E2
330
7F
100
AcDbEntity
  8
0
  6
Continuous
 62
   179
100
AcDbLine
 10
2.5960876901
 20
3.531855709499999
 30
0.0
 11
3.623711028699999
 21
4.5594790482
 31
0.0
  0
LINE
  5
E3
330
7F
100
AcDbEntity
  8
0
  6
Continuous
 62
   179
100
AcDbLine
 10
4.387054121
 20
5.3228221405
 30
0.0
 11
4.4893541144
 21
5.425122133899999
 31
0.0
  0
LINE
  5
E4
330
7F
100
AcDbEntity
  8
0
  6
Continuous
 62
   179
100
AcDbLine
 10
0.2152824462
 20
1.292471821899999
 30
0.0
 11
0.3379080421
 21
1.4150974178
 31
0.0
  0
LINE
  5
E5
330
7F
100
AcDbEntity
  8
0
  6
Continuous
 62
   179
100
AcDbLine
 10
1.2512583491
 20
2.328447724799999
 30
0.0
 11
1.7278740127
 21
2.805063388399999
 31
0.0
  0
LINE
  5
E6
330
7F
100
AcDbEntity
  8
0
  6
Continuous
 62
   179
100
AcDbLine
 10
2.5422128877
 20
3.619402263399999
 30
0.0
 11
3.4513606954
 21
4.528550071099999
 31
0.0
  0
LINE
  5
E7
330
7F
100
AcDbEntity
  8
0
  6
Continuous
 62
   179
100
AcDbLine
 10
4.337547618899999
 20
5.4147369947
 30
0.0
 11
4.440006326799999
 21
5.517195702599999
 31
0.0
  0
LINE
  5
E8
330
7F
100
AcDbEntity
  8
0
  6
Continuous
 62
   179
100
AcDbLine
 10
0.1655537389
 20
1.3841644709
 30
0.0
 11
0.297264952
 21
1.515875684
 31
0.0
  0
LINE
  5
E9
330
7F
100
AcDbEntity
  8
0
  6
Continuous
 62
   179
100
AcDbLine
 10
1.1770941709
 20
2.395704902899999
 30
0.0
 11
1.586452656399999
 21
2.805063388399999
 31
0.0
  0
LINE
  5
EA
330
7F
100
AcDbEntity
  8
0
  6
Continuous
 62
   179
100
AcDbLine
 10
2.4883380853
 20
3.7069488173
 30
0.0
 11
3.292922761799999
 21
4.5115334938
 31
0.0
  0
LINE
  5
EB
330
7F
100
AcDbEntity
  8
0
  6
Continuous
 62
   179
100
AcDbLine
 10
4.270296642799999
 20
5.4889073748
 30
0.0
 11
4.377978032499999
 21
5.5965887645
 31
0.0
  0
LINE
  5
EC
330
7F
100
AcDbEntity
  8
0
  6
Continuous
 62
   179
100
AcDbLine
 10
0.1298057082
 20
1.489837796399999
 30
0.0
 11
0.2607469377
 21
1.6207790259
 31
0.0
  0
LINE
  5
ED
330
7F
100
AcDbEntity
  8
0
  6
Continuous
 62
   179
100
AcDbLine
 10
1.099053769199999
 20
2.4590858574
 30
0.0
 11
1.4450313002
 21
2.805063388399999
 31
0.0
  0
LINE
  5
EE
330
7F
100
AcDbEntity
  8
0
  6
Continuous
 62
   179
100
AcDbLine
 10
2.434463282899999
 20
3.7944953711
 30
0.0
 11
3.1450612967
 21
4.5050933849
 31
0.0
  0
LINE
  5
EF
330
7F
100
AcDbEntity
  8
0
  6
Continuous
 62
   179
100
AcDbLine
 10
4.194084802399999
 20
5.554116890599999
 30
0.0
 11
4.307575537199999
 21
5.667607625399999
 31
0.0
  0
LINE
  5
F0
330
7F
100
AcDbEntity
  8
0
  6
Continuous
 62
   179
100
AcDbLine
 10
0.0940576774
 20
1.595511121799999
 30
0.0
 11
0.2288649924
 21
1.7303184369
 31
0.0
  0
LINE
  5
F1
330
7F
100
AcDbEntity
  8
0
  6
Continuous
 62
   179
100
AcDbLine
 10
1.021013367499999
 20
2.522466811999999
 30
0.0
 11
1.303609943999999
 21
2.805063388399999
 31
0.0
  0
LINE
  5
F2
330
7F
100
AcDbEntity
  8
0
  6
Continuous
 62
   179
100
AcDbLine
 10
2.3805884805
 20
3.882041924999999
 30
0.0
 11
3.005394782699999
 21
4.506848227199999
 31
0.0
  0
LINE
  5
F3
330
7F
100
AcDbEntity
  8
0
  6
Continuous
 62
   179
100
AcDbLine
 10
4.112353432099999
 20
5.613806876599999
 30
0.0
 11
4.230137016999999
 21
5.731590461499999
 31
0.0
  0
LINE
  5
F4
330
7F
100
AcDbEntity
  8
0
  6
Continuous
 62
   179
100
AcDbLine
 10
0.0583096466
 20
1.7011844473
 30
0.0
 11
0.2017914384
 21
1.8446662391
 31
0.0
  0
LINE
  5
F5
330
7F
100
AcDbEntity
  8
0
  6
Continuous
 62
   179
100
AcDbLine
 10
0.9268969029999999
 20
2.5697717036
 30
0.0
 11
1.162188587699999
 21
2.805063388399999
 31
0.0
  0
LINE
  5
F6
330
7F
100
AcDbEntity
  8
0
  6
Continuous
 62
   179
100
AcDbLine
 10
2.326713678199999
 20
3.9695884789
 30
0.0
 11
2.8728457697
 21
4.5157205703
 31
0.0
  0
LINE
  5
F7
330
7F
100
AcDbEntity
  8
0
  6
Continuous
 62
   179
100
AcDbLine
 10
4.019905892899999
 20
5.6627806936
 30
0.0
 11
4.1452842033
 21
5.788159003999999
 31
0.0
  0
LINE
  5
F8
330
7F
100
AcDbEntity
  8
0
  6
Continuous
 62
   179
100
AcDbLine
 10
0.0307564885
 20
1.815052645399999
 30
0.0
 11
0.1827256921
 21
1.967021848999999
 31
0.0
  0
LINE
  5
F9
330
7F
100
AcDbEntity
  8
0
  6
Continuous
 62
   179
100
AcDbLine
 10
0.8324028592999999
 20
2.6166990162
 30
0.0
 11
1.0207672315
 21
2.805063388399999
 31
0.0
  0
LINE
  5
FA
330
7F
100
AcDbEntity
  8
0
  6
Continuous
 62
   179
100
AcDbLine
 10
2.2728388758
 20
4.057135032699999
 30
0.0
 11
2.7468513872
 21
4.5311475441
 31
0.0
  0
LINE
  5
FB
330
7F
100
AcDbEntity
  8
0
  6
Continuous
 62
   179
100
AcDbLine
 10
3.924189336799999
 20
5.708485493799999
 30
0.0
 11
4.060431389499999
 21
5.844727546499999
 31
0.0
  0
LINE
  5
FC
330
7F
100
AcDbEntity
  8
0
  6
Continuous
 62
   179
100
AcDbLine
 10
0.0067328211
 20
1.932450334199999
 30
0.0
 11
0.1739797152
 21
2.0996972283
 31
0.0
  0
LINE
  5
FD
330
7F
100
AcDbEntity
  8
0
  6
Continuous
 62
   179
100
AcDbLine
 10
0.731719907
 20
2.657437420099999
 30
0.0
 11
0.8793458752999999
 21
2.805063388399999
 31
0.0
  0
LINE
  5
FE
330
7F
100
AcDbEntity
  8
0
  6
Continuous
 62
   179
100
AcDbLine
 10
2.2189640734
 20
4.144681586599999
 30
0.0
 11
2.626240194999999
 21
4.551957708099999
 31
0.0
  0
LINE
  5
FF
330
7F
100
AcDbEntity
  8
0
  6
Continuous
 62
   179
100
AcDbLine
 10
3.819327582699999
 20
5.7450450959
 30
0.0
 11
3.9580972024
 21
5.883814715599999
 31
0.0
  0
LINE
  5
100
330
7F
100
AcDbEntity
  8
0
  6
Continuous
 62
   179
100
AcDbLine
 10
0.0070170995
 20
2.074155968899999
 30
0.0
 11
0.1835216526
 21
2.250660521899999
 31
0.0
  0
LINE
  5
101
330
7F
100
AcDbEntity
  8
0
  6
Continuous
 62
   179
100
AcDbLine
 10
0.6087652312
 20
2.675904100599999
 30
0.0
 11
0.7379245190000001
 21
2.805063388399999
 31
0.0
  0
LINE
  5
102
330
7F
100
AcDbEntity
  8
0
  6
Continuous
 62
   179
100
AcDbLine
 10
2.165089270999999
 20
4.2322281404
 30
0.0
 11
2.5117244265
 21
4.578863295899999
 31
0.0
  0
LINE
  5
103
330
7F
100
AcDbEntity
  8
0
  6
Continuous
 62
   179
100
AcDbLine
 10
3.711421953099999
 20
5.7785608225
 30
0.0
 11
3.852031185299999
 21
5.9191700546
 31
0.0
  0
LINE
  5
104
330
7F
100
AcDbEntity
  8
0
  6
Continuous
 62
   179
100
AcDbLine
 10
0.0167665625
 20
2.225326788099999
 30
0.0
 11
0.2395820006
 21
2.448142226199999
 31
0.0
  0
LINE
  5
105
330
7F
100
AcDbEntity
  8
0
  6
Continuous
 62
   179
100
AcDbLine
 10
0.4383388362
 20
2.6468990619
 30
0.0
 11
0.5954807816
 21
2.8040410072
 31
0.0
  0
LINE
  5
106
330
7F
100
AcDbEntity
  8
0
  6
Continuous
 62
   179
100
AcDbLine
 10
2.1112144687
 20
4.3197746943
 30
0.0
 11
2.4034075331
 21
4.611967758799999
 31
0.0
  0
LINE
  5
107
330
7F
100
AcDbEntity
  8
0
  6
Continuous
 62
   179
100
AcDbLine
 10
3.597313258699999
 20
5.805873484299999
 30
0.0
 11
3.7376830679
 21
5.9462432936
 31
0.0
  0
LINE
  5
108
330
7F
100
AcDbEntity
  8
0
  6
Continuous
 62
   179
100
AcDbLine
 10
0.0704948723
 20
2.420476454199999
 30
0.0
 11
0.4150793164000001
 21
2.765060898299999
 31
0.0
  0
LINE
  5
109
330
7F
100
AcDbEntity
  8
0
  6
Continuous
 62
   179
100
AcDbLine
 10
2.057339666299999
 20
4.407321248199999
 30
0.0
 11
2.298545778899999
 21
4.6485273608
 31
0.0
  0
LINE
  5
10A
330
7F
100
AcDbEntity
  8
0
  6
Continuous
 62
   179
100
AcDbLine
 10
3.477073543599999
 20
5.827055125399999
 30
0.0
 11
3.619831937699999
 21
5.9698135196
 31
0.0
  0
LINE
  5
10B
330
7F
100
AcDbEntity
  8
0
  6
Continuous
 62
   179
100
AcDbLine
 10
2.003464863899999
 20
4.494867801999999
 30
0.0
 11
2.2021637515
 21
4.693566689599999
 31
0.0
  0
LINE
  5
10C
330
7F
100
AcDbEntity
  8
0
  6
Continuous
 62
   179
100
AcDbLine
 10
3.351346047999999
 20
5.8427489861
 30
0.0
 11
3.501980807499999
 21
5.9933837457
 31
0.0
  0
LINE
  5
10D
330
7F
100
AcDbEntity
  8
0
  6
Continuous
 62
   179
100
AcDbLine
 10
1.9495900615
 20
4.5824143559
 30
0.0
 11
2.108897847599999
 21
4.7417221419
 31
0.0
  0
LINE
  5
10E
330
7F
100
AcDbEntity
  8
0
  6
Continuous
 62
   179
100
AcDbLine
 10
3.219390505799999
 20
5.852214800099999
 30
0.0
 11
3.371854798999999
 21
6.0046790933
 31
0.0
  0
LINE
  5
10F
330
7F
100
AcDbEntity
  8
0
  6
Continuous
 62
   179
100
AcDbLine
 10
1.895715259199999
 20
4.6699609097
 30
0.0
 11
2.027166477899999
 21
4.801412128399999
 31
0.0
  0
LINE
  5
110
330
7F
100
AcDbEntity
  8
0
  6
Continuous
 62
   179
100
AcDbLine
 10
3.0801217243
 20
5.854367374899999
 30
0.0
 11
3.230433442699999
 21
6.0046790933
 31
0.0
  0
LINE
  5
111
330
7F
100
AcDbEntity
  8
0
  6
Continuous
 62
   179
100
AcDbLine
 10
1.841840456799999
 20
4.7575074636
 30
0.0
 11
1.950025707299999
 21
4.8656927141
 31
0.0
  0
LINE
  5
112
330
7F
100
AcDbEntity
  8
0
  6
Continuous
 62
   179
100
AcDbLine
 10
2.9329368204
 20
5.848603827299999
 30
0.0
 11
3.089012086499999
 21
6.0046790933
 31
0.0
  0
LINE
  5
113
330
7F
100
AcDbEntity
  8
0
  6
Continuous
 62
   179
100
AcDbLine
 10
1.7881656419
 20
4.845254005
 30
0.0
 11
1.882774731199999
 21
4.939863094299999
 31
0.0
  0
LINE
  5
114
330
7F
100
AcDbEntity
  8
0
  6
Continuous
 62
   179
100
AcDbLine
 10
2.775270229999999
 20
5.832358593099999
 30
0.0
 11
2.947590730299999
 21
6.0046790933
 31
0.0
  0
LINE
  5
115
330
7F
100
AcDbEntity
  8
0
  6
Continuous
 62
   179
100
AcDbLine
 10
1.7435032774
 20
4.942012996699999
 30
0.0
 11
1.832061674799999
 21
5.030571394099999
 31
0.0
  0
LINE
  5
116
330
7F
100
AcDbEntity
  8
0
  6
Continuous
 62
   179
100
AcDbLine
 10
2.6040347857
 20
5.802544505
 30
0.0
 11
2.796335700199999
 21
5.9948454195
 31
0.0
  0
LINE
  5
117
330
7F
100
AcDbEntity
  8
0
  6
Continuous
 62
   179
100
AcDbLine
 10
1.7150960002
 20
5.055027075699999
 30
0.0
 11
1.799031776299999
 21
5.138962851799999
 31
0.0
  0
LINE
  5
118
330
7F
100
AcDbEntity
  8
0
  6
Continuous
 62
   179
100
AcDbLine
 10
2.409628137399999
 20
5.749559212899999
 30
0.0
 11
2.6195590049
 21
5.959490080399999
 31
0.0
  0
LINE
  5
119
330
7F
100
AcDbEntity
  8
0
  6
Continuous
 62
   179
100
AcDbLine
 10
1.710339065999999
 20
5.191691497799999
 30
0.0
 11
1.815411123899999
 21
5.2967635557
 31
0.0
  0
LINE
  5
11A
330
7F
100
AcDbEntity
  8
0
  6
Continuous
 62
   179
100
AcDbLine
 10
2.1669461821
 20
5.648298613899999
 30
0.0
 11
2.4372379577
 21
5.9185903894
 31
0.0
  0
LINE
  5
11B
330
7F
100
AcDbEntity
  8
0
  6
Continuous
 62
   179
100
AcDbLine
 10
1.7564303484
 20
5.3792041364
 30
0.0
 11
2.1911090134
 21
5.8138828014
 31
0.0
  0
LINE
  5
11C
330
7F
100
AcDbEntity
  8
0
  6
Continuous
 62
   179
100
AcDbLine
 10
2.9205040693
 20
3.024654715799999
 30
0.0
 11
2.9205040693
 21
2.892058526399999
 31
0.0
  0
LINE
  5
11D
330
7F
100
AcDbEntity
  8
0
  6
Continuous
 62
   179
100
AcDbLine
 10
2.804422863399999
 20
2.825039010899999
 30
0.0
 11
2.9205040693
 21
2.892058526399999
 31
0.0
  0
LINE
  5
11E
330
7F
100
AcDbEntity
  8
0
  6
Continuous
 62
   179
100
AcDbLine
 10
4.3621181363
 20
5.633040648799999
 30
0.0
 11
4.2705040692
 21
5.7246547158
 31
0.0
  0
LINE
  5
11F
330
7F
100
AcDbEntity
  8
0
  6
Continuous
 62
   179
100
AcDbLine
 10
4.2705040692
 20
5.7246547158
 30
0.0
 11
4.045504069299999
 21
5.8746547158
 31
0.0
  0
LINE
  5
120
330
7F
100
AcDbEntity
  8
0
  6
Continuous
 62
   179
100
AcDbLine
 10
4.045504069299999
 20
5.8746547158
 30
0.0
 11
3.8205040693
 21
5.9496547158
 31
0.0
  0
LINE
  5
121
330
7F
100
AcDbEntity
  8
0
  6
Continuous
 62
   179
100
AcDbLine
 10
3.8205040693
 20
5.9496547158
 30
0.0
 11
3.4455040693
 21
6.0246547158
 31
0.0
  0
LINE
  5
122
330
7F
100
AcDbEntity
  8
0
  6
Continuous
 62
   179
100
AcDbLine
 10
3.4455040693
 20
6.0246547158
 30
0.0
 11
2.8455040693
 21
6.0246547158
 31
0.0
  0
LINE
  5
123
330
7F
100
AcDbEntity
  8
0
  6
Continuous
 62
   179
100
AcDbLine
 10
2.8455040693
 20
6.0246547158
 30
0.0
 11
2.470504069299999
 21
5.9496547158
 31
0.0
  0
LINE
  5
124
330
7F
100
AcDbEntity
  8
0
  6
Continuous
 62
   179
100
AcDbLine
 10
2.470504069299999
 20
5.9496547158
 30
0.0
 11
2.245504069299999
 21
5.8746547158
 31
0.0
  0
LINE
  5
125
330
7F
100
AcDbEntity
  8
0
  6
Continuous
 62
   179
100
AcDbLine
 10
2.245504069299999
 20
5.8746547158
 30
0.0
 11
1.9455040693
 21
5.6496547158
 31
0.0
  0
LINE
  5
126
330
7F
100
AcDbEntity
  8
0
  6
Continuous
 62
   179
100
AcDbLine
 10
1.884184172599999
 20
5.588334819199999
 30
0.0
 11
1.9455040693
 21
5.6496547158
 31
0.0
  0
LINE
  5
127
330
7F
100
AcDbEntity
  8
0
  6
Continuous
 62
   179
100
AcDbLine
 10
1.797453251299999
 20
4.8496122951
 30
0.0
 11
2.9205040693
 21
3.024654715799999
 31
0.0
  0
LINE
  5
128
330
7F
100
AcDbEntity
  8
0
  6
Continuous
 62
   179
100
AcDbLine
 10
4.4574693098
 20
4.908776580099999
 30
0.0
 11
3.370504069299999
 21
3.0260975573
 31
0.0
  0
LINE
  5
129
330
7F
100
AcDbEntity
  8
0
  6
Continuous
 62
   179
100
AcDbLine
 10
0.0509368864
 20
2.380330438
 30
0.0
 11
0.0174038106
 21
2.255183295099999
 31
0.0
  0
LINE
  5
12A
330
7F
100
AcDbEntity
  8
0
  6
Continuous
 62
   179
100
AcDbLine
 10
0.0174038106
 20
2.255183295099999
 30
0.0
 11
0.0
 21
1.985327579199999
 31
0.0
  0
LINE
  5
12B
330
7F
100
AcDbEntity
  8
0
  6
Continuous
 62
   179
100
AcDbLine
 10
0.0
 20
1.985327579199999
 30
0.0
 11
0.0475480947
 21
1.752971863399999
 31
0.0
  0
LINE
  5
12C
330
7F
100
AcDbEntity
  8
0
  6
Continuous
 62
   179
100
AcDbLine
 10
0.0475480947
 20
1.752971863399999
 30
0.0
 11
0.1700961894
 21
1.390712336999999
 31
0.0
  0
LINE
  5
12D
330
7F
100
AcDbEntity
  8
0
  6
Continuous
 62
   179
100
AcDbLine
 10
0.1700961894
 20
1.390712336999999
 30
0.0
 11
0.4700961894
 21
0.8710970946999999
 31
0.0
  0
LINE
  5
12E
330
7F
100
AcDbEntity
  8
0
  6
Continuous
 62
   179
100
AcDbLine
 10
0.4700961894
 20
0.8710970946999999
 30
0.0
 11
0.7225480947000001
 21
0.5838375683
 31
0.0
  0
LINE
  5
12F
330
7F
100
AcDbEntity
  8
0
  6
Continuous
 62
   179
100
AcDbLine
 10
0.7225480947000001
 20
0.5838375683
 30
0.0
 11
0.9
 21
0.4264818524000001
 31
0.0
  0
LINE
  5
130
330
7F
100
AcDbEntity
  8
0
  6
Continuous
 62
   179
100
AcDbLine
 10
0.9
 20
0.4264818524000001
 30
0.0
 11
1.244855715899999
 21
0.2791742312999999
 31
0.0
  0
LINE
  5
131
330
7F
100
AcDbEntity
  8
0
  6
Continuous
 62
   179
100
AcDbLine
 10
1.328620252499999
 20
0.2567295914
 30
0.0
 11
1.244855715899999
 21
0.2791742312999999
 31
0.0
  0
LINE
  5
132
330
7F
100
AcDbEntity
  8
0
  6
Continuous
 62
   179
100
AcDbLine
 10
2.0117381853
 20
0.5509796723
 30
0.0
 11
3.030672400799999
 21
2.436049
 31
0.0
  0
LINE
  5
133
330
7F
100
AcDbEntity
  8
0
  6
Continuous
 62
   179
100
AcDbLine
 10
0.6304923822000001
 20
2.825039010899999
 30
0.0
 11
2.804422863399999
 21
2.825039010899999
 31
0.0
  0
LINE
  5
134
330
7F
100
AcDbEntity
  8
0
  6
Continuous
 62
   179
100
AcDbLine
 10
6.2400712521
 20
2.380330438
 30
0.0
 11
6.273604327999999
 21
2.255183295099999
 31
0.0
  0
LINE
  5
135
330
7F
100
AcDbEntity
  8
0
  6
Continuous
 62
   179
100
AcDbLine
 10
6.273604327999999
 20
2.255183295099999
 30
0.0
 11
6.2910081386
 21
1.985327579199999
 31
0.0
  0
LINE
  5
136
330
7F
100
AcDbEntity
  8
0
  6
Continuous
 62
   179
100
AcDbLine
 10
6.2910081386
 20
1.985327579199999
 30
0.0
 11
6.243460043799999
 21
1.752971863399999
 31
0.0
  0
LINE
  5
137
330
7F
100
AcDbEntity
  8
0
  6
Continuous
 62
   179
100
AcDbLine
 10
6.243460043799999
 20
1.752971863399999
 30
0.0
 11
6.120911949099999
 21
1.390712336999999
 31
0.0
  0
LINE
  5
138
330
7F
100
AcDbEntity
  8
0
  6
Continuous
 62
   179
100
AcDbLine
 10
6.120911949099999
 20
1.390712336999999
 30
0.0
 11
5.8209119491
 21
0.8710970946999999
 31
0.0
  0
LINE
  5
139
330
7F
100
AcDbEntity
  8
0
  6
Continuous
 62
   179
100
AcDbLine
 10
5.8209119491
 20
0.8710970946999999
 30
0.0
 11
5.5684600438
 21
0.5838375683
 31
0.0
  0
LINE
  5
13A
330
7F
100
AcDbEntity
  8
0
  6
Continuous
 62
   179
100
AcDbLine
 10
5.5684600438
 20
0.5838375683
 30
0.0
 11
5.3910081386
 21
0.4264818524000001
 31
0.0
  0
LINE
  5
13B
330
7F
100
AcDbEntity
  8
0
  6
Continuous
 62
   179
100
AcDbLine
 10
5.3910081386
 20
0.4264818524000001
 30
0.0
 11
5.046152422699999
 21
0.2791742312999999
 31
0.0
  0
LINE
  5
13C
330
7F
100
AcDbEntity
  8
0
  6
Continuous
 62
   179
100
AcDbLine
 10
4.9623878861
 20
0.2567295914
 30
0.0
 11
5.046152422699999
 21
0.2791742312999999
 31
0.0
  0
LINE
  5
13D
330
7F
100
AcDbEntity
  8
0
  6
Continuous
 62
   179
100
AcDbLine
 10
4.2792699532
 20
0.5509796723
 30
0.0
 11
3.260335737799999
 21
2.436049
 31
0.0
  0
LINE
  5
13E
330
7F
100
AcDbEntity
  8
0
  6
Continuous
 62
   179
100
AcDbLine
 10
5.660515756299999
 20
2.825039011
 30
0.0
 11
3.486585275099999
 21
2.825039011
 31
0.0
  0
LINE
  5
13F
330
7F
100
AcDbEntity
  8
0
  6
Continuous
 62
   179
100
AcDbLine
 10
3.030672400799999
 20
2.436049
 30
0.0
 11
3.1455040693
 21
2.5023470947
 31
0.0
  0
LINE
  5
140
330
7F
100
AcDbEntity
  8
0
  6
Continuous
 62
   179
100
AcDbLine
 10
3.260335737799999
 20
2.436049
 30
0.0
 11
3.1455040693
 21
2.5023470947
 31
0.0
  0
LINE
  5
141
330
7F
100
AcDbEntity
  8
0
  6
Continuous
 62
   179
100
AcDbLine
 10
3.486585275099999
 20
2.825039011
 30
0.0
 11
3.370504069299999
 21
2.892058526399999
 31
0.0
  0
LINE
  5
142
330
7F
100
AcDbEntity
  8
0
  6
Continuous
 62
   179
100
AcDbLine
 10
3.370504069299999
 20
2.892058526399999
 30
0.0
 11
3.370504069299999
 21
3.0260975573
 31
0.0
  0
SPLINE
  5
143
330
7F
100
AcDbEntity
  8
0
  6
Continuous
 62
   179
100
AcDbSpline
210
0.0
220
0.0
230
1.0
 70
     8
 71
     3
 72
    19
 73
    15
 74
     0
 42
0.0000000001
 43
0.0000000001
 40
7.975646058491272
 40
7.975646058491272
 40
7.975646058491272
 40
7.975646058491272
 40
8.272887242288289
 40
8.593266109759017
 40
8.953126628167836
 40
10.30366899818228
 40
11.39310954048549
 40
11.96346908773699
 40
12.53382863498849
 40
13.6232691772917
 40
14.97381154730614
 40
15.33367206571496
 40
15.65405093318569
 40
15.95129211698271
 40
15.95129211698271
 40
15.95129211698271
 40
15.95129211698271
 10
1.795504069278863
 20
5.199654715832433
 30
0.0
 10
1.795504069278863
 20
5.159874569968955
 30
0.0
 10
1.810211755193136
 20
5.077217734150305
 30
0.0
 10
1.87300509428101
 20
4.960940397378196
 30
0.0
 10
2.059836337999775
 20
4.761816397391468
 30
0.0
 10
2.415483428187314
 20
4.605585903962746
 30
0.0
 10
2.810370737024614
 20
4.534544873491793
 30
0.0
 10
3.107995589491819
 20
4.521256881099374
 30
0.0
 10
3.405686755494464
 20
4.534540597414801
 30
0.0
 10
3.800142598733403
 20
4.605626246990387
 30
0.0
 10
4.157372387241898
 20
4.761688304511555
 30
0.0
 10
4.341998805859836
 20
4.961047563383599
 30
0.0
 10
4.409107287349112
 20
5.076864405321832
 30
0.0
 10
4.413857461221803
 20
5.160583875857424
 30
0.0
 10
4.420504069278962
 20
5.199654715832433
 30
0.0
  0
SPLINE
  5
144
330
7F
100
AcDbEntity
  8
0
  6
Continuous
 62
   179
100
AcDbSpline
210
0.0
220
0.0
230
1.0
 70
     8
 71
     3
 72
    19
 73
    15
 74
     0
 42
0.0000000001
 43
0.0000000001
 40
0.0
 40
0.0
 40
0.0
 40
0.0
 40
0.297241183796906
 40
0.6176200512676338
 40
0.9774805696764543
 40
2.328022939690946
 40
3.417463481994138
 40
3.987823029245636
 40
4.558182576497133
 40
5.647623118800325
 40
6.998165488814816
 40
7.358026007223637
 40
7.678404874694365
 40
7.975646058491272
 40
7.975646058491272
 40
7.975646058491272
 40
7.975646058491272
 10
4.420504069278962
 20
5.199654715832433
 30
0.0
 10
4.413857461221803
 20
5.238725555807496
 30
0.0
 10
4.409107287349112
 20
5.322445026343033
 30
0.0
 10
4.341998805859836
 20
5.438261868281267
 30
0.0
 10
4.157372387241676
 20
5.6376211271532
 30
0.0
 10
3.800142598733513
 20
5.793683184674588
 30
0.0
 10
3.405686755494464
 20
5.864768834250063
 30
0.0
 10
3.107995589491708
 20
5.878052550565434
 30
0.0
 10
2.810370737024614
 20
5.864764558173236
 30
0.0
 10
2.415483428187314
 20
5.793723527702062
 30
0.0
 10
2.059836337999664
 20
5.637493034273451
 30
0.0
 10
1.87300509428101
 20
5.438369034286613
 30
0.0
 10
1.810211755193136
 20
5.322091697514671
 30
0.0
 10
1.795504069278975
 20
5.23943486169591
 30
0.0
 10
1.795504069278863
 20
5.199654715832433
 30
0.0
  0
SPLINE
  5
145
330
7F
100
AcDbEntity
  8
0
  6
Continuous
 62
   179
100
AcDbSpline
210
0.0
220
0.0
230
1.0
 70
     8
 71
     3
 72
    19
 73
    15
 74
     0
 42
0.0000000001
 43
0.0000000001
 40
7.975646058491586
 40
7.975646058491586
 40
7.975646058491586
 40
7.975646058491586
 40
8.272887242288543
 40
8.593266109759239
 40
8.953126628168211
 40
10.30366899818269
 40
11.39310954048579
 40
11.96346908773733
 40
12.53382863498889
 40
13.62326917729202
 40
14.97381154730648
 40
15.33367206571538
 40
15.65405093318618
 40
15.95129211698296
 40
15.95129211698296
 40
15.95129211698296
 40
15.95129211698296
 10
1.709567147554546
 20
0.3742704207233411
 30
0.0
 10
1.744017764438555
 20
0.3941604936551352
 30
0.0
 10
1.808246841096816
 20
0.4482261411972028
 30
0.0
 10
1.877549299082014
 20
0.5607454364216919
 30
0.0
 10
1.956580119714334
 20
0.8221080396961093
 30
0.0
 10
1.914056150775556
 20
1.208222701294934
 30
0.0
 10
1.778135833455874
 20
1.585725657615764
 30
0.0
 10
1.640831146199284
 20
1.850120336845936
 30
0.0
 10
1.480481527412203
 20
2.101286590928828
 30
0.0
 10
1.221691627415589
 20
2.407352547057136
 30
0.0
 10
0.9079230267812208
 20
2.638691590133455
 30
0.0
 10
0.6429596348094258
 20
2.69890312943026
 30
0.0
 10
0.5091050667600517
 20
2.69911235824026
 30
0.0
 10
0.4342267915486975
 20
2.661366394218642
 30
0.0
 10
0.3970671475545529
 20
2.647587105657587
 30
0.0
  0
SPLINE
  5
146
330
7F
100
AcDbEntity
  8
0
  6
Continuous
 62
   179
100
AcDbSpline
210
0.0
220
0.0
230
1.0
 70
     8
 71
     3
 72
    19
 73
    15
 74
     0
 42
0.0000000001
 43
0.0000000001
 40
0.0
 40
0.0
 40
0.0
 40
0.0
 40
0.2972411837968981
 40
0.6176200512676911
 40
0.9774805696766961
 40
2.328022939691068
 40
3.417463481994236
 40
3.987823029245826
 40
4.55818257649729
 40
5.647623118800512
 40
6.998165488814874
 40
7.358026007223798
 40
7.678404874694598
 40
7.975646058491586
 40
7.975646058491586
 40
7.975646058491586
 40
7.975646058491586
 10
0.3970671475545529
 20
2.647587105657587
 30
0.0
 10
0.3665541116175675
 20
2.622295554243577
 30
0.0
 10
0.2964260102786831
 20
2.576322047729714
 30
0.0
 10
0.2296799237186953
 20
2.460295976981372
 30
0.0
 10
0.1493429503647836
 20
2.200725178812576
 30
0.0
 10
0.1928041382390222
 20
1.813324078215148
 30
0.0
 10
0.3284700814812913
 20
1.436172472511141
 30
0.0
 10
0.4658116286970215
 20
1.17172250211299
 30
0.0
 10
0.626131793907414
 20
0.9206158152747361
 30
0.0
 10
0.8850987854251979
 20
0.6141538894253035
 30
0.0
 10
1.198221906673902
 20
0.3842697212550344
 30
0.0
 10
1.464083971025043
 20
0.3220311179673446
 30
0.0
 10
1.596179768097894
 20
0.3257891595149082
 30
0.0
 10
1.67511653067054
 20
0.3543803477916024
 30
0.0
 10
1.709567147554546
 20
0.3742704207233411
 30
0.0
  0
SPLINE
  5
147
330
7F
100
AcDbEntity
  8
0
  6
Continuous
 62
   179
100
AcDbSpline
210
0.0
220
0.0
230
1.0
 70
     8
 71
     3
 72
    19
 73
    15
 74
     0
 42
0.0000000001
 43
0.0000000001
 40
7.975646058491483
 40
7.975646058491483
 40
7.975646058491483
 40
7.975646058491483
 40
8.272887242288438
 40
8.593266109759138
 40
8.953126628168142
 40
10.30366899818262
 40
11.39310954048572
 40
11.96346908773731
 40
12.53382863498887
 40
13.62326917729193
 40
14.97381154730639
 40
15.33367206571529
 40
15.65405093318604
 40
15.95129211698297
 40
15.95129211698297
 40
15.95129211698297
 40
15.95129211698297
 10
4.58144099100366
 20
0.3742704207233966
 30
0.0
 10
4.546990374119652
 20
0.3941604936551907
 30
0.0
 10
4.482761297461391
 20
0.4482261411970918
 30
0.0
 10
4.413458839476191
 20
0.5607454364216364
 30
0.0
 10
4.334428018843872
 20
0.8221080396962204
 30
0.0
 10
4.376951987782651
 20
1.208222701294934
 30
0.0
 10
4.512872305102222
 20
1.585725657615708
 30
0.0
 10
4.650176992358923
 20
1.85012033684588
 30
0.0
 10
4.810526611146004
 20
2.101286590928828
 30
0.0
 10
5.069316511142507
 20
2.407352547057136
 30
0.0
 10
5.383085111776875
 20
2.638691590133399
 30
0.0
 10
5.64804850374867
 20
2.698903129430372
 30
0.0
 10
5.781903071798044
 20
2.699112358240093
 30
0.0
 10
5.856781347009398
 20
2.661366394218642
 30
0.0
 10
5.893940991003598
 20
2.647587105657587
 30
0.0
  0
SPLINE
  5
148
330
7F
100
AcDbEntity
  8
0
  6
Continuous
 62
   179
100
AcDbSpline
210
0.0
220
0.0
230
1.0
 70
     8
 71
     3
 72
    19
 73
    15
 74
     0
 42
0.0000000001
 43
0.0000000001
 40
0.0
 40
0.0
 40
0.0
 40
0.0
 40
0.2972411837968981
 40
0.61762005126763
 40
0.9774805696766351
 40
2.328022939691002
 40
3.417463481994208
 40
3.987823029245771
 40
4.558182576497235
 40
5.647623118800419
 40
6.998165488814878
 40
7.358026007223802
 40
7.678404874694602
 40
7.975646058491483
 40
7.975646058491483
 40
7.975646058491483
 40
7.975646058491483
 10
5.893940991003598
 20
2.647587105657587
 30
0.0
 10
5.924454026940639
 20
2.622295554243577
 30
0.0
 10
5.994582128279411
 20
2.576322047729771
 30
0.0
 10
6.0613282148394
 20
2.460295976981428
 30
0.0
 10
6.141665188193368
 20
2.200725178812465
 30
0.0
 10
6.098204000319241
 20
1.813324078215091
 30
0.0
 10
5.962538057076804
 20
1.43617247251103
 30
0.0
 10
5.825196509861241
 20
1.171722502112934
 30
0.0
 10
5.664876344650627
 20
0.9206158152747915
 30
0.0
 10
5.40590935313312
 20
0.6141538894253035
 30
0.0
 10
5.092786231884138
 20
0.38426972125509
 30
0.0
 10
4.826924167533052
 20
0.3220311179674001
 30
0.0
 10
4.69482837046009
 20
0.3257891595149082
 30
0.0
 10
4.615891607887667
 20
0.3543803477916579
 30
0.0
 10
4.58144099100366
 20
0.3742704207233966
 30
0.0
  0
MTEXT
  5
14A
330
7F
100
AcDbEntity
  8
0
  6
Continuous
 62
     7
100
AcDbMText
 10
7.675552552899999
 20
5.465387772999999
 30
0.0
 40
4.7625
 41
0.0
 71
     1
 72
     1
  1
\U+5bcc\U+58eb\U+5143\U+5de5\U+696d\U+682a\U+5f0f\U+4f1a\U+793e
  7
SLDTEXTSTYLE0
 73
     1
 44
1.0
1001
ACAD
1000
MTEXTBEGIN
1070
    73
1070
     1
1070
    44
1040
1.0
1070
    74
1070
     0
1000
MTEXTEND
  0
ENDBLK
  5
81
330
7F
100
AcDbEntity
  8
0
100
AcDbBlockEnd
  0
BLOCK
  5
14C
330
14B
100
AcDbEntity
  8
0
100
AcDbBlockBegin
  2
ﾌﾞﾛｯｸ15
 70
     0
 10
0.0
 20
0.0
 30
0.0
  3
ﾌﾞﾛｯｸ15
  1

  0
CIRCLE
  5
14E
330
14B
100
AcDbEntity
  8
0
  6
Continuous
 62
     7
100
AcDbCircle
 10
5.5
 20
5.5
 30
0.0
 40
5.500000000000011
  0
MTEXT
  5
150
330
14B
100
AcDbEntity
  8
0
  6
Continuous
 62
     7
100
AcDbMText
 10
3.197357994999999
 20
4.811914226099999
 30
0.0
 40
3.7041666667
 41
0.0
 71
     1
 72
     1
  1
\U+5ddd
  7
SLDTEXTSTYLE1
 73
     1
 44
1.0
1001
ACAD
1000
MTEXTBEGIN
1070
    73
1070
     1
1070
    44
1040
1.0
1070
    74
1070
     0
1000
MTEXTEND
  0
MTEXT
  5
151
330
14B
100
AcDbEntity
  8
0
  6
Continuous
 62
     7
100
AcDbMText
 10
3.197357994999999
 20
9.6469801011
 30
0.0
 40
3.7041666667
 41
0.0
 71
     1
 72
     1
  1
\U+68ee
  7
SLDTEXTSTYLE1
 73
     1
 44
1.0
1001
ACAD
1000
MTEXTBEGIN
1070
    73
1070
     1
1070
    44
1040
1.0
1070
    74
1070
     0
1000
MTEXTEND
  0
ENDBLK
  5
14D
330
14B
100
AcDbEntity
  8
0
100
AcDbBlockEnd
  0
BLOCK
  5
153
330
152
100
AcDbEntity
  8
0
100
AcDbBlockBegin
  2
ﾌﾞﾛｯｸ16
 70
     0
 10
0.0
 20
0.0
 30
0.0
  3
ﾌﾞﾛｯｸ16
  1

  0
LINE
  5
155
330
152
100
AcDbEntity
  8
0
  6
Continuous
 62
     7
100
AcDbLine
 10
3.793318020899999
 20
6.5702195415
 30
0.0
 11
0.0
 21
0.0
 31
0.0
  0
LINE
  5
156
330
152
100
AcDbEntity
  8
0
  6
Continuous
 62
     7
100
AcDbLine
 10
0.0
 20
0.0
 30
0.0
 11
7.586636041799999
 21
0.0
 31
0.0
  0
LINE
  5
157
330
152
100
AcDbEntity
  8
0
  6
Continuous
 62
     7
100
AcDbLine
 10
7.586636041799999
 20
0.0
 30
0.0
 11
3.793318020899999
 21
6.5702195415
 31
0.0
  0
MTEXT
  5
159
330
152
100
AcDbEntity
  8
0
  6
Continuous
 62
   179
100
AcDbMText
 10
2.846892803199999
 20
3.8430881066
 30
0.0
 40
3.0
 41
0.0
 71
     1
 72
     1
  1
1
  7
SLDTEXTSTYLE2
 73
     1
 44
1.0
1001
ACAD
1000
MTEXTBEGIN
1070
    73
1070
     1
1070
    44
1040
1.0
1070
    74
1070
     0
1000
MTEXTEND
  0
ENDBLK
  5
154
330
152
100
AcDbEntity
  8
0
100
AcDbBlockEnd
  0
BLOCK
  5
15B
330
15A
100
AcDbEntity
  8
0
100
AcDbBlockBegin
  2
ﾌﾞﾛｯｸ17
 70
     0
 10
0.0
 20
0.0
 30
0.0
  3
ﾌﾞﾛｯｸ17
  1

  0
LINE
  5
15D
330
15A
100
AcDbEntity
  8
0
  6
Continuous
 62
     7
100
AcDbLine
 10
3.793318020899999
 20
6.5702195415
 30
0.0
 11
0.0
 21
0.0
 31
0.0
  0
LINE
  5
15E
330
15A
100
AcDbEntity
  8
0
  6
Continuous
 62
     7
100
AcDbLine
 10
0.0
 20
0.0
 30
0.0
 11
7.586636041799999
 21
0.0
 31
0.0
  0
LINE
  5
15F
330
15A
100
AcDbEntity
  8
0
  6
Continuous
 62
     7
100
AcDbLine
 10
7.586636041799999
 20
0.0
 30
0.0
 11
3.793318020899999
 21
6.5702195415
 31
0.0
  0
MTEXT
  5
160
330
15A
100
AcDbEntity
  8
0
  6
Continuous
 62
   179
100
AcDbMText
 10
2.846892803199999
 20
4.092356282899999
 30
0.0
 40
3.0
 41
0.0
 71
     1
 72
     1
  1
2
  7
SLDTEXTSTYLE2
 73
     1
 44
1.0
1001
ACAD
1000
MTEXTBEGIN
1070
    73
1070
     1
1070
    44
1040
1.0
1070
    74
1070
     0
1000
MTEXTEND
  0
ENDBLK
  5
15C
330
15A
100
AcDbEntity
  8
0
100
AcDbBlockEnd
  0
BLOCK
  5
162
330
161
100
AcDbEntity
  8
0
100
AcDbBlockBegin
  2
ﾌﾞﾛｯｸ18
 70
     0
 10
0.0
 20
0.0
 30
0.0
  3
ﾌﾞﾛｯｸ18
  1

  0
LINE
  5
164
330
161
100
AcDbEntity
  8
0
  6
Continuous
 62
     7
100
AcDbLine
 10
3.793318020899999
 20
6.5702195415
 30
0.0
 11
0.0
 21
0.0
 31
0.0
  0
LINE
  5
165
330
161
100
AcDbEntity
  8
0
  6
Continuous
 62
     7
100
AcDbLine
 10
0.0
 20
0.0
 30
0.0
 11
7.586636041799999
 21
0.0
 31
0.0
  0
LINE
  5
166
330
161
100
AcDbEntity
  8
0
  6
Continuous
 62
     7
100
AcDbLine
 10
7.586636041799999
 20
0.0
 30
0.0
 11
3.793318020899999
 21
6.5702195415
 31
0.0
  0
MTEXT
  5
167
330
161
100
AcDbEntity
  8
0
  6
Continuous
 62
   179
100
AcDbMText
 10
2.889272638099999
 20
3.703716240199999
 30
0.0
 40
3.0
 41
0.0
 71
     1
 72
     1
  1
3
  7
SLDTEXTSTYLE2
 73
     1
 44
1.0
1001
ACAD
1000
MTEXTBEGIN
1070
    73
1070
     1
1070
    44
1040
1.0
1070
    74
1070
     0
1000
MTEXTEND
  0
ENDBLK
  5
163
330
161
100
AcDbEntity
  8
0
100
AcDbBlockEnd
  0
BLOCK
  5
169
330
168
100
AcDbEntity
  8
0
100
AcDbBlockBegin
  2
ﾌﾞﾛｯｸ19
 70
     0
 10
0.0
 20
0.0
 30
0.0
  3
ﾌﾞﾛｯｸ19
  1

  0
LINE
  5
16B
330
168
100
AcDbEntity
  8
0
  6
Continuous
 62
     7
100
AcDbLine
 10
3.793318020899999
 20
6.5702195415
 30
0.0
 11
0.0
 21
0.0
 31
0.0
  0
LINE
  5
16C
330
168
100
AcDbEntity
  8
0
  6
Continuous
 62
     7
100
AcDbLine
 10
0.0
 20
0.0
 30
0.0
 11
7.586636041799999
 21
0.0
 31
0.0
  0
LINE
  5
16D
330
168
100
AcDbEntity
  8
0
  6
Continuous
 62
     7
100
AcDbLine
 10
7.586636041799999
 20
0.0
 30
0.0
 11
3.793318020899999
 21
6.5702195415
 31
0.0
  0
MTEXT
  5
16E
330
168
100
AcDbEntity
  8
0
  6
Continuous
 62
   179
100
AcDbMText
 10
2.846892803199999
 20
3.9993044185
 30
0.0
 40
3.0
 41
0.0
 71
     1
 72
     1
  1
4
  7
SLDTEXTSTYLE2
 73
     1
 44
1.0
1001
ACAD
1000
MTEXTBEGIN
1070
    73
1070
     1
1070
    44
1040
1.0
1070
    74
1070
     0
1000
MTEXTEND
  0
ENDBLK
  5
16A
330
168
100
AcDbEntity
  8
0
100
AcDbBlockEnd
  0
BLOCK
  5
170
330
16F
100
AcDbEntity
  8
0
100
AcDbBlockBegin
  2
ﾌﾞﾛｯｸ20
 70
     0
 10
0.0
 20
0.0
 30
0.0
  3
ﾌﾞﾛｯｸ20
  1

  0
CIRCLE
  5
172
330
16F
100
AcDbEntity
  8
0
  6
Continuous
 62
   179
100
AcDbCircle
 10
2.205577736499999
 20
2.1929709528
 30
0.0
 40
1.280000000000012
  0
CIRCLE
  5
173
330
16F
100
AcDbEntity
  8
0
  6
Continuous
 62
   179
100
AcDbCircle
 10
2.205577736499999
 20
2.1929709528
 30
0.0
 40
1.919999999999973
  0
LINE
  5
174
330
16F
100
AcDbEntity
  8
0
  6
Continuous
 62
   179
100
AcDbLine
 10
6.2265214983
 20
0.9129709527999999
 30
0.0
 11
6.2265214983
 21
3.472970952799999
 31
0.0
  0
LINE
  5
175
330
16F
100
AcDbEntity
  8
0
  6
Continuous
 62
   179
100
AcDbLine
 10
11.7012083374
 20
0.2729709528
 30
0.0
 11
11.7012083374
 21
4.112970952799999
 31
0.0
  0
LINE
  5
176
330
16F
100
AcDbEntity
  8
0
  6
CENTER
 62
   179
100
AcDbLine
 10
2.205577736499999
 20
0.0
 30
0.0
 11
2.205577736499999
 21
4.2231564269
 31
0.0
  0
LINE
  5
177
330
16F
100
AcDbEntity
  8
0
  6
Continuous
 62
   179
100
AcDbLine
 10
11.7012083374
 20
4.112970952799999
 30
0.0
 11
6.2265214983
 21
3.472970952799999
 31
0.0
  0
LINE
  5
178
330
16F
100
AcDbEntity
  8
0
  6
Continuous
 62
   179
100
AcDbLine
 10
11.7012083374
 20
0.2729709528
 30
0.0
 11
6.2265214983
 21
0.9129709527999999
 31
0.0
  0
LINE
  5
179
330
16F
100
AcDbEntity
  8
0
  6
CENTER
 62
   179
100
AcDbLine
 10
0.0
 20
2.1929709528
 30
0.0
 11
11.9931630914
 21
2.1929709528
 31
0.0
  0
ENDBLK
  5
171
330
16F
100
AcDbEntity
  8
0
100
AcDbBlockEnd
  0
BLOCK
  5
17B
330
17A
100
AcDbEntity
  8
0
100
AcDbBlockBegin
  2
ﾌﾞﾛｯｸ23
 70
     0
 10
0.0
 20
0.0
 30
0.0
  3
ﾌﾞﾛｯｸ23
  1

  0
LINE
  5
17D
330
17A
100
AcDbEntity
  8
0
  6
Continuous
 62
     7
100
AcDbLine
 10
268.238654963
 20
219.5046088929
 30
0.0
 11
268.238654963
 21
195.5046088929
 31
0.0
  0
LINE
  5
17E
330
17A
100
AcDbEntity
  8
0
  6
Continuous
 62
     7
100
AcDbLine
 10
268.238654963
 20
219.5046088929
 30
0.0
 11
268.238654963
 21
227.5046088929
 31
0.0
  0
LINE
  5
17F
330
17A
100
AcDbEntity
  8
0
  6
Continuous
 62
     7
100
AcDbLine
 10
292.4583369592
 20
209.5046088929
 30
0.0
 11
337.4583369592
 21
209.5046088929
 31
0.0
  0
LINE
  5
180
330
17A
100
AcDbEntity
  8
0
  6
Continuous
 62
     7
100
AcDbLine
 10
412.4582640912
 20
211.5046088929
 30
0.0
 11
337.4583369592
 21
211.5046088929
 31
0.0
  0
LINE
  5
181
330
17A
100
AcDbEntity
  8
0
  6
Continuous
 62
     7
100
AcDbLine
 10
251.238654963
 20
187.5604289349
 30
0.0
 11
251.238654963
 21
227.5046088929
 31
0.0
  0
LINE
  5
182
330
17A
100
AcDbEntity
  8
0
  6
Continuous
 62
     7
100
AcDbLine
 10
374.9582640912
 20
227.5046088929
 30
0.0
 11
412.4582640912
 21
227.5046088929
 31
0.0
  0
LINE
  5
183
330
17A
100
AcDbEntity
  8
0
  6
Continuous
 62
     7
100
AcDbLine
 10
374.9582640912
 20
227.5046088929
 30
0.0
 11
374.9582640912
 21
235.5046088929
 31
0.0
  0
LINE
  5
184
330
17A
100
AcDbEntity
  8
0
  6
Continuous
 62
     7
100
AcDbLine
 10
251.238654963
 20
227.5046088929
 30
0.0
 11
412.4582640912
 21
227.5046088929
 31
0.0
  0
LINE
  5
185
330
17A
100
AcDbEntity
  8
0
  6
Continuous
 62
     7
100
AcDbLine
 10
251.238654963
 20
187.5604289349
 30
0.0
 11
412.4582640912
 21
187.5604289349
 31
0.0
  0
LINE
  5
186
330
17A
100
AcDbEntity
  8
0
  6
Continuous
 62
     7
100
AcDbLine
 10
374.9582640912
 20
235.5046088929
 30
0.0
 11
412.4582640912
 21
235.5046088929
 31
0.0
  0
LINE
  5
187
330
17A
100
AcDbEntity
  8
0
  6
Continuous
 62
     7
100
AcDbLine
 10
412.4582640912
 20
235.5046088929
 30
0.0
 11
412.4582640912
 21
187.5604289349
 31
0.0
  0
LINE
  5
188
330
17A
100
AcDbEntity
  8
0
  6
Continuous
 62
     7
100
AcDbLine
 10
322.4583369592
 20
213.5046088929
 30
0.0
 11
322.4583369592
 21
195.5046088929
 31
0.0
  0
LINE
  5
189
330
17A
100
AcDbEntity
  8
0
  6
Continuous
 62
     7
100
AcDbLine
 10
307.4583369592
 20
213.5046088929
 30
0.0
 11
307.4583369592
 21
195.5046088929
 31
0.0
  0
LINE
  5
18A
330
17A
100
AcDbEntity
  8
0
  6
Continuous
 62
     7
100
AcDbLine
 10
292.4583369592
 20
219.5046088929
 30
0.0
 11
292.4583369592
 21
195.5046088929
 31
0.0
  0
LINE
  5
18B
330
17A
100
AcDbEntity
  8
0
  6
Continuous
 62
     7
100
AcDbLine
 10
292.4583369592
 20
203.5046088929
 30
0.0
 11
251.238654963
 21
203.5046088929
 31
0.0
  0
LINE
  5
18C
330
17A
100
AcDbEntity
  8
0
  6
Continuous
 62
     7
100
AcDbLine
 10
292.4583369592
 20
211.5046088929
 30
0.0
 11
251.238654963
 21
211.5046088929
 31
0.0
  0
LINE
  5
18D
330
17A
100
AcDbEntity
  8
0
  6
Continuous
 62
     7
100
AcDbLine
 10
310.0483757077
 20
213.5046088929
 30
0.0
 11
310.0483757077
 21
219.5046088929
 31
0.0
  0
LINE
  5
18E
330
17A
100
AcDbEntity
  8
0
  6
Continuous
 62
     7
100
AcDbLine
 10
322.4583369592
 20
227.5046088929
 30
0.0
 11
322.4583369592
 21
219.5046088929
 31
0.0
  0
LINE
  5
18F
330
17A
100
AcDbEntity
  8
0
  6
Continuous
 62
     7
100
AcDbLine
 10
292.4583369592
 20
213.5046088929
 30
0.0
 11
337.4583369592
 21
213.5046088929
 31
0.0
  0
LINE
  5
190
330
17A
100
AcDbEntity
  8
0
  6
Continuous
 62
   179
100
AcDbLine
 10
412.4025169171
 20
195.5046088929
 30
0.0
 11
251.238654963
 21
195.5046088929
 31
0.0
  0
LINE
  5
191
330
17A
100
AcDbEntity
  8
0
  6
Continuous
 62
   179
100
AcDbLine
 10
412.4582640912
 20
219.5046088929
 30
0.0
 11
251.238654963
 21
219.5046088929
 31
0.0
  0
LINE
  5
192
330
17A
100
AcDbEntity
  8
0
  6
Continuous
 62
   179
100
AcDbLine
 10
354.4583369592
 20
187.5604289349
 30
0.0
 11
354.4583369592
 21
195.5604289349
 31
0.0
  0
LINE
  5
193
330
17A
100
AcDbEntity
  8
0
  6
Continuous
 62
   179
100
AcDbLine
 10
404.4583369591999
 20
187.5604289349
 30
0.0
 11
404.4583369591999
 21
195.5604289349
 31
0.0
  0
LINE
  5
194
330
17A
100
AcDbEntity
  8
0
  6
Continuous
 62
   179
100
AcDbLine
 10
412.4583369592
 20
195.5604289349
 30
0.0
 11
404.4583369591999
 21
187.5604289349
 31
0.0
  0
LINE
  5
195
330
17A
100
AcDbEntity
  8
0
  6
Continuous
 62
   179
100
AcDbLine
 10
337.4583369592
 20
205.5046088929
 30
0.0
 11
412.4583369592
 21
205.5046088929
 31
0.0
  0
LINE
  5
196
330
17A
100
AcDbEntity
  8
0
  6
Continuous
 62
   179
100
AcDbLine
 10
337.4583369592
 20
187.5604289349
 30
0.0
 11
337.4583369592
 21
227.5046088929
 31
0.0
  0
LINE
  5
197
330
17A
100
AcDbEntity
  8
0
  6
Continuous
 62
   179
100
AcDbLine
 10
374.9583369592
 20
211.5046088929
 30
0.0
 11
374.9583369592
 21
219.5046088929
 31
0.0
  0
LINE
  5
198
330
17A
100
AcDbEntity
  8
0
  6
Continuous
 62
   179
100
AcDbLine
 10
389.9583369592
 20
211.5046088929
 30
0.0
 11
389.9583369592
 21
219.5046088929
 31
0.0
  0
LINE
  5
199
330
17A
100
AcDbEntity
  8
0
  6
Continuous
 62
   179
100
AcDbLine
 10
354.4583369592
 20
205.5046088929
 30
0.0
 11
354.4583369592
 21
219.5046088929
 31
0.0
  0
ENDBLK
  5
17C
330
17A
100
AcDbEntity
  8
0
100
AcDbBlockEnd
  0
BLOCK
  5
19B
330
19A
100
AcDbEntity
  8
0
100
AcDbBlockBegin
  2
ﾌﾞﾛｯｸ27
 70
     0
 10
0.0
 20
0.0
 30
0.0
  3
ﾌﾞﾛｯｸ27
  1

  0
LINE
  5
19D
330
19A
100
AcDbEntity
  8
0
  6
Continuous
 62
     7
100
AcDbLine
 10
381.7722276463
 20
16.0193713005
 30
0.0
 11
379.317577707
 21
11.7677928908
 31
0.0
  0
LINE
  5
19E
330
19A
100
AcDbEntity
  8
0
  6
Continuous
 62
     7
100
AcDbLine
 10
379.317577707
 20
11.7677928908
 30
0.0
 11
384.2268775856
 21
11.7677928908
 31
0.0
  0
LINE
  5
19F
330
19A
100
AcDbEntity
  8
0
  6
Continuous
 62
     7
100
AcDbLine
 10
384.2268775856
 20
11.7677928908
 30
0.0
 11
381.7722276463
 21
16.0193713005
 31
0.0
  0
MTEXT
  5
1A0
330
19A
100
AcDbEntity
  8
0
  6
Continuous
 62
   179
100
AcDbMText
 10
381.0244073834
 20
14.3220648272
 30
0.0
 40
2.1166666667
 41
0.0
 71
     1
 72
     1
  1
1
  7
SLDTEXTSTYLE2
 73
     1
 44
1.0
1001
ACAD
1000
MTEXTBEGIN
1070
    73
1070
     1
1070
    44
1040
1.0
1070
    74
1070
     0
1000
MTEXTEND
  0
ENDBLK
  5
19C
330
19A
100
AcDbEntity
  8
0
100
AcDbBlockEnd
  0
BLOCK
  5
1A2
330
1A1
100
AcDbEntity
  8
0
100
AcDbBlockBegin
  2
ﾌﾞﾛｯｸ32
 70
     0
 10
0.0
 20
0.0
 30
0.0
  3
ﾌﾞﾛｯｸ32
  1

  0
LINE
  5
1A4
330
1A1
100
AcDbEntity
  8
0
  6
Continuous
 62
     7
100
AcDbLine
 10
225.4552651195
 20
264.5160609699
 30
0.0
 11
225.4552651195
 21
224.5718810119
 31
0.0
  0
LINE
  5
1A5
330
1A1
100
AcDbEntity
  8
0
  6
Continuous
 62
     7
100
AcDbLine
 10
225.4552651195
 20
264.5160609699
 30
0.0
 11
383.4804821696
 21
264.5160609699
 31
0.0
  0
LINE
  5
1A6
330
1A1
100
AcDbEntity
  8
0
  6
Continuous
 62
     7
100
AcDbLine
 10
225.4552651195
 20
224.5718810119
 30
0.0
 11
383.4804821696
 21
224.5718810119
 31
0.0
  0
LINE
  5
1A7
330
1A1
100
AcDbEntity
  8
0
  6
Continuous
 62
     7
100
AcDbLine
 10
383.4804821696
 20
256.5160609699
 30
0.0
 11
225.4552651195
 21
256.5160609699
 31
0.0
  0
LINE
  5
1A8
330
1A1
100
AcDbEntity
  8
0
  6
Continuous
 62
     7
100
AcDbLine
 10
383.4804821696
 20
248.5160609699
 30
0.0
 11
225.4552651195
 21
248.5160609699
 31
0.0
  0
LINE
  5
1A9
330
1A1
100
AcDbEntity
  8
0
  6
Continuous
 62
     7
100
AcDbLine
 10
383.4804821696
 20
240.5160609699
 30
0.0
 11
225.4552651195
 21
240.5160609699
 31
0.0
  0
LINE
  5
1AA
330
1A1
100
AcDbEntity
  8
0
  6
Continuous
 62
     7
100
AcDbLine
 10
383.4804821696
 20
232.5160609699
 30
0.0
 11
225.4552651195
 21
232.5160609699
 31
0.0
  0
LINE
  5
1AB
330
1A1
100
AcDbEntity
  8
0
  6
Continuous
 62
     7
100
AcDbLine
 10
263.9166986013
 20
264.5160609699
 30
0.0
 11
263.9166986013
 21
224.5160609699
 31
0.0
  0
LINE
  5
1AC
330
1A1
100
AcDbEntity
  8
0
  6
Continuous
 62
     7
100
AcDbLine
 10
240.4552651195
 20
264.5160609699
 30
0.0
 11
240.4552651195
 21
224.5160609699
 31
0.0
  0
LINE
  5
1AD
330
1A1
100
AcDbEntity
  8
0
  6
Continuous
 62
     7
100
AcDbLine
 10
366.4932314017
 20
264.5160609699
 30
0.0
 11
366.4932314017
 21
224.5160609699
 31
0.0
  0
LINE
  5
1AE
330
1A1
100
AcDbEntity
  8
0
  6
Continuous
 62
     7
100
AcDbLine
 10
383.4804821696
 20
224.5718810119
 30
0.0
 11
383.4804821696
 21
264.5160609699
 31
0.0
  0
ENDBLK
  5
1A3
330
1A1
100
AcDbEntity
  8
0
100
AcDbBlockEnd
  0
BLOCK
  5
1B0
330
1AF
100
AcDbEntity
  8
0
100
AcDbBlockBegin
  2
ﾌﾞﾛｯｸ8
 70
     0
 10
0.0
 20
0.0
 30
0.0
  3
ﾌﾞﾛｯｸ8
  1

  0
LINE
  5
1B2
330
1AF
100
AcDbEntity
  8
0
  6
Continuous
 62
     7
100
AcDbLine
 10
10.2771678241
 20
0.0460177818
 30
0.0
 11
8.0407999314
 21
3.919520596399999
 31
0.0
  0
LINE
  5
1B3
330
1AF
100
AcDbEntity
  8
0
  6
Continuous
 62
     7
100
AcDbLine
 10
6.2204324676
 20
0.0460177818
 30
0.0
 11
14.2815063052
 21
0.0460177818
 31
0.0
  0
LINE
  5
1B4
330
1AF
100
AcDbEntity
  8
0
  6
Continuous
 62
     7
100
AcDbLine
 10
8.0407999314
 20
3.919520596399999
 30
0.0
 11
12.5135357169
 21
3.919520596399999
 31
0.0
  0
LINE
  5
1B5
330
1AF
100
AcDbEntity
  8
0
  6
Continuous
 62
     7
100
AcDbLine
 10
14.7499036096
 20
7.7930234111
 30
0.0
 11
21.112070412
 21
7.7930234111
 31
0.0
  0
LINE
  5
1B6
330
1AF
100
AcDbEntity
  8
0
  6
Continuous
 62
     7
100
AcDbLine
 10
10.2771678241
 20
0.0460177818
 30
0.0
 11
14.7499036096
 21
7.7930234111
 31
0.0
  0
MTEXT
  5
1B8
330
1AF
100
AcDbEntity
  8
0
  6
Continuous
 62
     7
100
AcDbMText
 10
0.020771185
 20
3.983490456999999
 30
0.0
 40
3.5
 41
0.0
 71
     1
 72
     1
  1
\U+ff08\U+3000\U+3000\U+3000\U+3000\U+3000\U+3000\U+ff09
  7
SLDTEXTSTYLE3
 73
     1
 44
1.0
1001
ACAD
1000
MTEXTBEGIN
1070
    73
1070
     1
1070
    44
1040
1.0
1070
    74
1070
     0
1000
MTEXTEND
  0
MTEXT
  5
1B9
330
1AF
100
AcDbEntity
  8
0
  6
Continuous
 62
     7
100
AcDbMText
 10
2.887536894499999
 20
8.825573805999999
 30
0.0
 40
3.5
 41
0.0
 71
     1
 72
     1
  1
0.\U+ff14a
  7
SLDTEXTSTYLE3
 73
     1
 44
1.0
1001
ACAD
1000
MTEXTBEGIN
1070
    73
1070
     1
1070
    44
1040
1.0
1070
    74
1070
     0
1000
MTEXTEND
  0
MTEXT
  5
1BB
330
1AF
100
AcDbEntity
  8
0
  6
Continuous
 62
     7
100
AcDbMText
 10
15.6971077622
 20
12.3181231494
 30
0.0
 40
3.5
 41
0.0
 71
     1
 72
     1
  1
G
  7
SLDTEXTSTYLE4
 73
     1
 44
1.0
1001
ACAD
1000
MTEXTBEGIN
1070
    73
1070
     1
1070
    44
1040
1.0
1070
    74
1070
     0
1000
MTEXTEND
  0
ENDBLK
  5
1B1
330
1AF
100
AcDbEntity
  8
0
100
AcDbBlockEnd
  0
BLOCK
  5
1BD
330
1BC
100
AcDbEntity
  8
0
100
AcDbBlockBegin
  2
ﾌﾞﾛｯｸ7
 70
     0
 10
0.0
 20
0.0
 30
0.0
  3
ﾌﾞﾛｯｸ7
  1

  0
LINE
  5
1BF
330
1BC
100
AcDbEntity
  8
0
  6
Continuous
 62
     7
100
AcDbLine
 10
7.4512178636
 20
0.0
 30
0.0
 11
11.9239536491
 21
7.747005629299999
 31
0.0
  0
LINE
  5
1C0
330
1BC
100
AcDbEntity
  8
0
  6
Continuous
 62
     7
100
AcDbLine
 10
5.214849970899999
 20
3.873502814599999
 30
0.0
 11
9.687585756399998
 21
3.873502814599999
 31
0.0
  0
LINE
  5
1C1
330
1BC
100
AcDbEntity
  8
0
  6
Continuous
 62
     7
100
AcDbLine
 10
7.4512178636
 20
0.0
 30
0.0
 11
5.214849970899999
 21
3.873502814599999
 31
0.0
  0
LINE
  5
1C2
330
1BC
100
AcDbEntity
  8
0
  6
Continuous
 62
     7
100
AcDbLine
 10
3.394482507099999
 20
0.0
 30
0.0
 11
11.4555563447
 21
0.0
 31
0.0
  0
MTEXT
  5
1C3
330
1BC
100
AcDbEntity
  8
0
  6
Continuous
 62
     7
100
AcDbMText
 10
0.061586934
 20
8.779556024199999
 30
0.0
 40
3.5
 41
0.0
 71
     1
 72
     1
  1
3.2a
  7
SLDTEXTSTYLE4
 73
     1
 44
1.0
1001
ACAD
1000
MTEXTBEGIN
1070
    73
1070
     1
1070
    44
1040
1.0
1070
    74
1070
     0
1000
MTEXTEND
  0
ENDBLK
  5
1BE
330
1BC
100
AcDbEntity
  8
0
100
AcDbBlockEnd
  0
BLOCK
  5
1C5
330
1C4
100
AcDbEntity
  8
0
100
AcDbBlockBegin
  2
ﾌﾞﾛｯｸ6
 70
     0
 10
0.0
 20
0.0
 30
0.0
  3
ﾌﾞﾛｯｸ6
  1

  0
LINE
  5
1C7
330
1C4
100
AcDbEntity
  8
0
  6
Continuous
 62
     7
100
AcDbLine
 10
7.626566366199999
 20
0.0
 30
0.0
 11
12.0993021517
 21
7.747005629299999
 31
0.0
  0
LINE
  5
1C8
330
1C4
100
AcDbEntity
  8
0
  6
Continuous
 62
     7
100
AcDbLine
 10
5.390198473499999
 20
3.873502814599999
 30
0.0
 11
9.862934258899999
 21
3.873502814599999
 31
0.0
  0
LINE
  5
1C9
330
1C4
100
AcDbEntity
  8
0
  6
Continuous
 62
     7
100
AcDbLine
 10
7.626566366199999
 20
0.0
 30
0.0
 11
5.390198473499999
 21
3.873502814599999
 31
0.0
  0
LINE
  5
1CA
330
1C4
100
AcDbEntity
  8
0
  6
Continuous
 62
     7
100
AcDbLine
 10
3.5698310097
 20
0.0
 30
0.0
 11
11.6309048473
 21
0.0
 31
0.0
  0
MTEXT
  5
1CB
330
1C4
100
AcDbEntity
  8
0
  6
Continuous
 62
     7
100
AcDbMText
 10
0.2369354366
 20
8.779556024199999
 30
0.0
 40
3.5
 41
0.0
 71
     1
 72
     1
  1
3.2a
  7
SLDTEXTSTYLE4
 73
     1
 44
1.0
1001
ACAD
1000
MTEXTBEGIN
1070
    73
1070
     1
1070
    44
1040
1.0
1070
    74
1070
     0
1000
MTEXTEND
  0
ENDBLK
  5
1C6
330
1C4
100
AcDbEntity
  8
0
100
AcDbBlockEnd
  0
BLOCK
  5
1CD
330
1CC
100
AcDbEntity
  8
0
100
AcDbBlockBegin
  2
ﾌﾞﾛｯｸ5
 70
     0
 10
0.0
 20
0.0
 30
0.0
  3
ﾌﾞﾛｯｸ5
  1

  0
LINE
  5
1CF
330
1CC
100
AcDbEntity
  8
0
  6
Continuous
 62
     7
100
AcDbLine
 10
7.4052276671
 20
0.0
 30
0.0
 11
11.8779634525
 21
7.747005629299999
 31
0.0
  0
LINE
  5
1D0
330
1CC
100
AcDbEntity
  8
0
  6
Continuous
 62
     7
100
AcDbLine
 10
5.1688597743
 20
3.873502814599999
 30
0.0
 11
9.6415955598
 21
3.873502814599999
 31
0.0
  0
LINE
  5
1D1
330
1CC
100
AcDbEntity
  8
0
  6
Continuous
 62
     7
100
AcDbLine
 10
7.4052276671
 20
0.0
 30
0.0
 11
5.1688597743
 21
3.873502814599999
 31
0.0
  0
LINE
  5
1D2
330
1CC
100
AcDbEntity
  8
0
  6
Continuous
 62
     7
100
AcDbLine
 10
3.3484923106
 20
0.0
 30
0.0
 11
11.4095661481
 21
0.0
 31
0.0
  0
MTEXT
  5
1D3
330
1CC
100
AcDbEntity
  8
0
  6
Continuous
 62
     7
100
AcDbMText
 10
0.0155967374
 20
8.779556024199999
 30
0.0
 40
3.5
 41
0.0
 71
     1
 72
     1
  1
3.2a
  7
SLDTEXTSTYLE4
 73
     1
 44
1.0
1001
ACAD
1000
MTEXTBEGIN
1070
    73
1070
     1
1070
    44
1040
1.0
1070
    74
1070
     0
1000
MTEXTEND
  0
ENDBLK
  5
1CE
330
1CC
100
AcDbEntity
  8
0
100
AcDbBlockEnd
  0
BLOCK
  5
344
330
343
100
AcDbEntity
  8
0
100
AcDbBlockBegin
  2
_OPEN30
 70
     0
 10
0.0
 20
0.0
 30
0.0
  3
_OPEN30
  1

  0
LINE
  5
346
330
343
100
AcDbEntity
  8
0
  6
ByBlock
 62
     0
100
AcDbLine
 10
-1.0
 20
0.267949
 30
0.0
 11
0.0
 21
0.0
 31
0.0
  0
LINE
  5
347
330
343
100
AcDbEntity
  8
0
  6
ByBlock
 62
     0
100
AcDbLine
 10
0.0
 20
0.0
 30
0.0
 11
-1.0
 21
-0.267949
 31
0.0
  0
LINE
  5
348
330
343
100
AcDbEntity
  8
0
  6
ByBlock
 62
     0
100
AcDbLine
 10
0.0
 20
0.0
 30
0.0
 11
-1.0
 21
0.0
 31
0.0
  0
ENDBLK
  5
345
330
343
100
AcDbEntity
  8
0
100
AcDbBlockEnd
  0
BLOCK
  5
34A
330
349
100
AcDbEntity
  8
0
100
AcDbBlockBegin
  2
_D
 70
     0
 10
0.0
 20
0.0
 30
0.0
  3
_D
  1

  0
INSERT
  5
34C
330
349
100
AcDbEntity
  8
0
  6
Continuous
 62
     7
100
AcDbBlockReference
  2
_OPEN30
 10
152.2127131783
 20
102.7620629414
 30
0.0
 41
3.302
 42
3.302
 50
180.0
  0
INSERT
  5
34D
330
349
100
AcDbEntity
  8
0
  6
Continuous
 62
     7
100
AcDbBlockReference
  2
_OPEN30
 10
271.9139527887
 20
102.7620629414
 30
0.0
 41
3.302
 42
3.302
  0
LINE
  5
34E
330
349
100
AcDbEntity
  8
0
  6
Continuous
 62
     7
100
AcDbLine
 10
152.2127131783
 20
180.5368974578
 30
0.0
 11
152.2127131783
 21
101.7620629414
 31
0.0
  0
LINE
  5
34F
330
349
100
AcDbEntity
  8
0
  6
Continuous
 62
     7
100
AcDbLine
 10
271.9139527887
 20
174.1137776526
 30
0.0
 11
271.9139527887
 21
101.7620629414
 31
0.0
  0
LINE
  5
350
330
349
100
AcDbEntity
  8
0
  6
Continuous
 62
     7
100
AcDbLine
 10
152.2127131783
 20
102.7620629414
 30
0.0
 11
271.9139527887
 21
102.7620629414
 31
0.0
  0
MTEXT
  5
351
330
349
100
AcDbEntity
  8
0
  6
Continuous
 62
     7
100
AcDbMText
 10
202.6010996864
 20
107.2327658918
 30
0.0
 40
3.5
 41
0.0
 71
     1
 72
     1
  1
119.7
  7
SLDTEXTSTYLE6
 73
     1
 44
1.0
1001
ACAD
1000
MTEXTBEGIN
1070
    73
1070
     1
1070
    44
1040
1.0
1070
    74
1070
     0
1000
MTEXTEND
  0
ENDBLK
  5
34B
330
349
100
AcDbEntity
  8
0
100
AcDbBlockEnd
  0
BLOCK
  5
354
330
353
100
AcDbEntity
  8
0
100
AcDbBlockBegin
  2
_D_1
 70
     0
 10
0.0
 20
0.0
 30
0.0
  3
_D_1
  1

  0
INSERT
  5
356
330
353
100
AcDbEntity
  8
0
  6
Continuous
 62
     7
100
AcDbBlockReference
  2
_OPEN30
 10
152.2127131783
 20
120.7620629414
 30
0.0
 41
3.302
 42
3.302
 50
180.0
  0
INSERT
  5
357
330
353
100
AcDbEntity
  8
0
  6
Continuous
 62
     7
100
AcDbBlockReference
  2
_OPEN30
 10
174.8139527887
 20
120.7620629414
 30
0.0
 41
3.302
 42
3.302
  0
LINE
  5
358
330
353
100
AcDbEntity
  8
0
  6
Continuous
 62
     7
100
AcDbLine
 10
152.2127131783
 20
178.960017263
 30
0.0
 11
152.2127131783
 21
119.7620629414
 31
0.0
  0
LINE
  5
359
330
353
100
AcDbEntity
  8
0
  6
Continuous
 62
     7
100
AcDbLine
 10
174.8139527887
 20
173.6762677174
 30
0.0
 11
174.8139527887
 21
119.7620629414
 31
0.0
  0
LINE
  5
35A
330
353
100
AcDbEntity
  8
0
  6
Continuous
 62
     7
100
AcDbLine
 10
152.2127131783
 20
120.7620629414
 30
0.0
 11
174.8139527887
 21
120.7620629414
 31
0.0
  0
MTEXT
  5
35B
330
353
100
AcDbEntity
  8
0
  6
Continuous
 62
     7
100
AcDbMText
 10
159.6137664551
 20
125.2327658918
 30
0.0
 40
3.5
 41
0.0
 71
     1
 72
     1
  1
22.6
  7
SLDTEXTSTYLE6
 73
     1
 44
1.0
1001
ACAD
1000
MTEXTBEGIN
1070
    73
1070
     1
1070
    44
1040
1.0
1070
    74
1070
     0
1000
MTEXTEND
  0
ENDBLK
  5
355
330
353
100
AcDbEntity
  8
0
100
AcDbBlockEnd
  0
BLOCK
  5
35F
330
35E
100
AcDbEntity
  8
0
100
AcDbBlockBegin
  2
_D_2
 70
     0
 10
0.0
 20
0.0
 30
0.0
  3
_D_2
  1

  0
ARC
  5
361
330
35E
100
AcDbEntity
  8
0
  6
Continuous
 62
     7
100
AcDbCircle
 10
152.2127131783
 20
179.960017263
 30
0.0
 40
42.88961125428648
100
AcDbArc
 50
270.0
 51
315.0
  0
INSERT
  5
362
330
35E
100
AcDbEntity
  8
0
  6
Continuous
 62
     7
100
AcDbBlockReference
  2
_OPEN30
 10
152.2127131783
 20
137.0704060087
 30
0.0
 41
3.302
 42
3.302
 50
182.2012113372
  0
INSERT
  5
363
330
35E
100
AcDbEntity
  8
0
  6
Continuous
 62
     7
100
AcDbBlockReference
  2
_OPEN30
 10
182.5402481386
 20
149.6324823026
 30
0.0
 41
3.302
 42
3.302
 50
42.79878866279999
  0
LINE
  5
364
330
35E
100
AcDbEntity
  8
0
  6
Continuous
 62
     7
100
AcDbLine
 10
152.2127131783
 20
178.960017263
 30
0.0
 11
152.2127131783
 21
136.0704060087
 31
0.0
  0
LINE
  5
365
330
35E
100
AcDbEntity
  8
0
  6
Continuous
 62
     7
100
AcDbLine
 10
159.8349315686
 20
172.3377988727
 30
0.0
 11
183.2473549198
 21
148.9253755214
 31
0.0
  0
MTEXT
  5
366
330
35E
100
AcDbEntity
  8
0
  6
Continuous
 62
     7
100
AcDbMText
 10
159.5156172552
 20
142.0777444055
 30
0.0
 40
3.5
 41
0.0
 71
     1
 72
     1
  1
45\U+00b0
  7
SLDTEXTSTYLE6
 11
0.9605578860893963
 21
0.2780801098091526
 31
0.0
 73
     1
 44
1.0
1001
ACAD
1000
MTEXTBEGIN
1070
    73
1070
     1
1070
    44
1040
1.0
1070
    74
1070
     0
1000
MTEXTEND
  0
ENDBLK
  5
360
330
35E
100
AcDbEntity
  8
0
100
AcDbBlockEnd
  0
BLOCK
  5
36A
330
369
100
AcDbEntity
  8
0
100
AcDbBlockBegin
  2
_NONE
 70
     0
 10
0.0
 20
0.0
 30
0.0
  3
_NONE
  1

  0
ENDBLK
  5
36B
330
369
100
AcDbEntity
  8
0
100
AcDbBlockEnd
  0
BLOCK
  5
36D
330
36C
100
AcDbEntity
  8
0
100
AcDbBlockBegin
  2
_D_3
 70
     0
 10
0.0
 20
0.0
 30
0.0
  3
_D_3
  1

  0
INSERT
  5
36F
330
36C
100
AcDbEntity
  8
0
  6
Continuous
 62
     7
100
AcDbBlockReference
  2
_OPEN30
 10
118.0476480387
 20
172.9271280809
 30
0.0
 41
3.302
 42
3.302
 50
270.0
  0
LINE
  5
370
330
36C
100
AcDbEntity
  8
0
  6
Continuous
 62
     7
100
AcDbLine
 10
158.4085592332
 20
172.9271280809
 30
0.0
 11
117.0476480387
 21
172.9271280809
 31
0.0
  0
LINE
  5
371
330
36C
100
AcDbEntity
  8
0
  6
Continuous
 62
     7
100
AcDbLine
 10
118.0476480387
 20
172.9271280809
 30
0.0
 11
118.0476480387
 21
193.3004272243
 31
0.0
  0
MTEXT
  5
372
330
36C
100
AcDbEntity
  8
0
  6
Continuous
 62
     7
100
AcDbMText
 10
113.5769449137
 20
175.1275894107
 30
0.0
 40
3.5
 41
0.0
 71
     1
 72
     1
  1
%%c
  7
SLDTEXTSTYLE6
 11
-0.000000000000007
 21
1.0
 31
0.0
 73
     1
 44
1.0
1001
ACAD
1000
MTEXTBEGIN
1070
    73
1070
     1
1070
    44
1040
1.0
1070
    74
1070
     0
1000
MTEXTEND
  0
MTEXT
  5
373
330
36C
100
AcDbEntity
  8
0
  6
Continuous
 62
     7
100
AcDbMText
 10
113.5234727371
 20
180.4060268091
 30
0.0
 40
3.5
 41
0.0
 71
     1
 72
     1
  1
20.37
  7
SLDTEXTSTYLE6
 11
-0.000000000000007
 21
1.0
 31
0.0
 73
     1
 44
1.0
1001
ACAD
1000
MTEXTBEGIN
1070
    73
1070
     1
1070
    44
1040
1.0
1070
    74
1070
     0
1000
MTEXTEND
  0
ENDBLK
  5
36E
330
36C
100
AcDbEntity
  8
0
100
AcDbBlockEnd
  0
BLOCK
  5
376
330
375
100
AcDbEntity
  8
0
100
AcDbBlockBegin
  2
_D_4
 70
     0
 10
0.0
 20
0.0
 30
0.0
  3
_D_4
  1

  0
INSERT
  5
378
330
375
100
AcDbEntity
  8
0
  6
Continuous
 62
     7
100
AcDbBlockReference
  2
_OPEN30
 10
130.0476480387
 20
179.960017263
 30
0.0
 41
3.302
 42
3.302
 50
270.0
  0
LINE
  5
379
330
375
100
AcDbEntity
  8
0
  6
Continuous
 62
     7
100
AcDbLine
 10
151.2127131783
 20
179.960017263
 30
0.0
 11
129.0476480387
 21
179.960017263
 31
0.0
  0
LINE
  5
37A
330
375
100
AcDbEntity
  8
0
  6
Continuous
 62
     7
100
AcDbLine
 10
130.0476480387
 20
179.960017263
 30
0.0
 11
130.0476480387
 21
186.2675380422
 31
0.0
  0
MTEXT
  5
37B
330
375
100
AcDbEntity
  8
0
  6
Continuous
 62
     7
100
AcDbMText
 10
125.5769449137
 20
176.4206446582
 30
0.0
 40
3.5
 41
0.0
 71
     1
 72
     1
  1
%%c
  7
SLDTEXTSTYLE6
 11
-0.000000000000007
 21
1.0
 31
0.0
 73
     1
 44
1.0
1001
ACAD
1000
MTEXTBEGIN
1070
    73
1070
     1
1070
    44
1040
1.0
1070
    74
1070
     0
1000
MTEXTEND
  0
MTEXT
  5
37C
330
375
100
AcDbEntity
  8
0
  6
Continuous
 62
     7
100
AcDbMText
 10
125.5234727371
 20
181.6990820566
 30
0.0
 40
3.5
 41
0.0
 71
     1
 72
     1
  1
6.31
  7
SLDTEXTSTYLE6
 11
-0.000000000000007
 21
1.0
 31
0.0
 73
     1
 44
1.0
1001
ACAD
1000
MTEXTBEGIN
1070
    73
1070
     1
1070
    44
1040
1.0
1070
    74
1070
     0
1000
MTEXTEND
  0
ENDBLK
  5
377
330
375
100
AcDbEntity
  8
0
100
AcDbBlockEnd
  0
BLOCK
  5
380
330
37F
100
AcDbEntity
  8
0
100
AcDbBlockBegin
  2
_D_5
 70
     0
 10
0.0
 20
0.0
 30
0.0
  3
_D_5
  1

  0
ARC
  5
382
330
37F
100
AcDbEntity
  8
0
  6
Continuous
 62
     7
100
AcDbCircle
 10
143.0782036739
 20
153.5401879369
 30
0.0
 40
6.212076339995612
100
AcDbArc
 50
153.4349488229
 51
206.5650511771
  0
ARC
  5
383
330
37F
100
AcDbEntity
  8
0
  6
Continuous
 62
     7
100
AcDbCircle
 10
141.0170927527
 20
153.5401879369
 30
0.0
 40
6.212076339995587
100
AcDbArc
 50
333.4349488229
 51
26.5650511771
  0
INSERT
  5
384
330
37F
100
AcDbEntity
  8
0
  6
Continuous
 62
     7
100
AcDbBlockReference
  2
_OPEN30
 10
159.2456023603
 20
150.7620629414
 30
0.0
 41
3.302
 42
3.302
 50
180.0
  0
INSERT
  5
385
330
37F
100
AcDbEntity
  8
0
  6
Continuous
 62
     7
100
AcDbBlockReference
  2
_OPEN30
 10
152.2127131783
 20
150.7620629414
 30
0.0
 41
3.302
 42
3.302
  0
LINE
  5
386
330
37F
100
AcDbEntity
  8
0
  6
Continuous
 62
     7
100
AcDbLine
 10
159.2456023603
 20
171.9271280809
 30
0.0
 11
159.2456023603
 21
149.7620629414
 31
0.0
  0
LINE
  5
387
330
37F
100
AcDbEntity
  8
0
  6
Continuous
 62
     7
100
AcDbLine
 10
152.2127131783
 20
178.960017263
 30
0.0
 11
152.2127131783
 21
149.7620629414
 31
0.0
  0
LINE
  5
388
330
37F
100
AcDbEntity
  8
0
  6
Continuous
 62
     7
100
AcDbLine
 10
159.2456023603
 20
150.7620629414
 30
0.0
 11
165.5956023603
 21
150.7620629414
 31
0.0
  0
LINE
  5
389
330
37F
100
AcDbEntity
  8
0
  6
Continuous
 62
     7
100
AcDbLine
 10
159.2456023603
 20
150.7620629414
 30
0.0
 11
152.2127131783
 21
150.7620629414
 31
0.0
  0
LINE
  5
38A
330
37F
100
AcDbEntity
  8
0
  6
Continuous
 62
     7
100
AcDbLine
 10
152.2127131783
 20
150.7620629414
 30
0.0
 11
136.8661273271
 21
150.7620629414
 31
0.0
  0
MTEXT
  5
38B
330
37F
100
AcDbEntity
  8
0
  6
Continuous
 62
     7
100
AcDbMText
 10
137.5219536829
 20
155.2327658918
 30
0.0
 40
3.5
 41
0.0
 71
     1
 72
     1
  1
7.03
  7
SLDTEXTSTYLE6
 73
     1
 44
1.0
1001
ACAD
1000
MTEXTBEGIN
1070
    73
1070
     1
1070
    44
1040
1.0
1070
    74
1070
     0
1000
MTEXTEND
  0
ENDBLK
  5
381
330
37F
100
AcDbEntity
  8
0
100
AcDbBlockEnd
  0
BLOCK
  5
38F
330
38E
100
AcDbEntity
  8
0
100
AcDbBlockBegin
  2
_D_6
 70
     0
 10
0.0
 20
0.0
 30
0.0
  3
_D_6
  1

  0
INSERT
  5
391
330
38E
100
AcDbEntity
  8
0
  6
Continuous
 62
     7
100
AcDbBlockReference
  2
_OPEN30
 10
174.8139527887
 20
120.7620629414
 30
-1.470203699499999
 41
3.302
 42
3.302
 50
180.0
  0
INSERT
  5
392
330
38E
100
AcDbEntity
  8
0
  6
Continuous
 62
     7
100
AcDbBlockReference
  2
_OPEN30
 10
271.9139527887
 20
120.7620629414
 30
-1.470203699499999
 41
3.302
 42
3.302
  0
LINE
  5
393
330
38E
100
AcDbEntity
  8
0
  6
Continuous
 62
     7
100
AcDbLine
 10
174.8139527887
 20
173.6762677174
 30
0.0
 11
174.8139527887
 21
119.7620629414
 31
0.0
  0
LINE
  5
394
330
38E
100
AcDbEntity
  8
0
  6
Continuous
 62
     7
100
AcDbLine
 10
271.9139527887
 20
174.1137776526
 30
0.0
 11
271.9139527887
 21
119.7620629414
 31
0.0
  0
LINE
  5
395
330
38E
100
AcDbEntity
  8
0
  6
Continuous
 62
     7
100
AcDbLine
 10
174.8139527887
 20
120.7620629414
 30
0.0
 11
271.9139527887
 21
120.7620629414
 31
0.0
  0
MTEXT
  5
396
330
38E
100
AcDbEntity
  8
0
  6
Continuous
 62
     7
100
AcDbMText
 10
218.4598146871
 20
125.2327658918
 30
0.0
 40
3.5
 41
0.0
 71
     1
 72
     1
  1
97.1
  7
SLDTEXTSTYLE6
 73
     1
 44
1.0
1001
ACAD
1000
MTEXTBEGIN
1070
    73
1070
     1
1070
    44
1040
1.0
1070
    74
1070
     0
1000
MTEXTEND
  0
ENDBLK
  5
390
330
38E
100
AcDbEntity
  8
0
100
AcDbBlockEnd
  0
BLOCK
  5
39A
330
399
100
AcDbEntity
  8
0
100
AcDbBlockBegin
  2
_D_7
 70
     0
 10
0.0
 20
0.0
 30
0.0
  3
_D_7
  1

  0
INSERT
  5
39C
330
399
100
AcDbEntity
  8
0
  6
Continuous
 62
     7
100
AcDbBlockReference
  2
_OPEN30
 10
303.4397690726
 20
193.1137776526
 30
-1.470203699499999
 41
3.302
 42
3.302
 50
90.0
  0
INSERT
  5
39D
330
399
100
AcDbEntity
  8
0
  6
Continuous
 62
     7
100
AcDbBlockReference
  2
_OPEN30
 10
303.4397690726
 20
173.1137776526
 30
-1.470203699499999
 41
3.302
 42
3.302
 50
270.0
  0
LINE
  5
39E
330
399
100
AcDbEntity
  8
0
  6
Continuous
 62
     7
100
AcDbLine
 10
270.9139527887
 20
193.1137776526
 30
0.0
 11
304.4397690726
 21
193.1137776526
 31
0.0
  0
LINE
  5
39F
330
399
100
AcDbEntity
  8
0
  6
Continuous
 62
     7
100
AcDbLine
 10
270.9139527887
 20
173.1137776526
 30
0.0
 11
304.4397690726
 21
173.1137776526
 31
0.0
  0
LINE
  5
3A0
330
399
100
AcDbEntity
  8
0
  6
Continuous
 62
     7
100
AcDbLine
 10
303.4397690726
 20
193.1137776526
 30
0.0
 11
303.4397690726
 21
173.1137776526
 31
0.0
  0
MTEXT
  5
3A1
330
399
100
AcDbEntity
  8
0
  6
Continuous
 62
     7
100
AcDbMText
 10
298.9690659476
 20
177.0804312155
 30
0.0
 40
3.5
 41
0.0
 71
     1
 72
     1
  1
%%c
  7
SLDTEXTSTYLE6
 11
-0.000000000000007
 21
1.0
 31
0.0
 73
     1
 44
1.0
1001
ACAD
1000
MTEXTBEGIN
1070
    73
1070
     1
1070
    44
1040
1.0
1070
    74
1070
     0
1000
MTEXTEND
  0
MTEXT
  5
3A2
330
399
100
AcDbEntity
  8
0
  6
Continuous
 62
     7
100
AcDbMText
 10
298.9155937709
 20
182.3588686139
 30
0.0
 40
3.5
 41
0.0
 71
     1
 72
     1
  1
20
  7
SLDTEXTSTYLE6
 11
-0.000000000000007
 21
1.0
 31
0.0
 73
     1
 44
1.0
1001
ACAD
1000
MTEXTBEGIN
1070
    73
1070
     1
1070
    44
1040
1.0
1070
    74
1070
     0
1000
MTEXTEND
  0
ENDBLK
  5
39B
330
399
100
AcDbEntity
  8
0
100
AcDbBlockEnd
  0
BLOCK
  5
3A4
330
3A3
100
AcDbEntity
  8
0
100
AcDbBlockBegin
  2
SW_NOTE_0
 70
     0
 10
0.0
 20
0.0
 30
0.0
  3
SW_NOTE_0
  1

  0
LINE
  5
3A6
330
3A3
100
AcDbEntity
  8
0
  6
Continuous
 62
     0
100
AcDbLine
 10
12.7768835065
 20
0.0
 30
0.0
 11
0.0
 21
0.0
 31
0.0
  0
MTEXT
  5
3A8
330
3A3
100
AcDbEntity
  8
0
  6
Continuous
 62
     0
100
AcDbMText
 10
0.4193498508
 20
4.495561584399999
 30
0.0
 40
3.5
 41
0.0
 71
     1
 72
     1
  1
\U+76ee\U+76db\U+308a
  7
SLDTEXTSTYLE7
 73
     1
 44
1.0
1001
ACAD
1000
MTEXTBEGIN
1070
    73
1070
     1
1070
    44
1040
1.0
1070
    74
1070
     0
1000
MTEXTEND
  0
ENDBLK
  5
3A5
330
3A3
100
AcDbEntity
  8
0
100
AcDbBlockEnd
  0
BLOCK
  5
3AC
330
3AB
100
AcDbEntity
  8
0
100
AcDbBlockBegin
  2
_DOT
 70
     0
 10
0.0
 20
0.0
 30
0.0
  3
_DOT
  1

  0
LWPOLYLINE
  5
3AE
330
3AB
100
AcDbEntity
  8
0
  6
ByBlock
 62
     0
100
AcDbPolyline
 90
        2
 70
     1
 43
0.5
 10
-0.25
 20
0.0
 42
1.0
 10
0.25
 20
0.0
 42
1.0
  0
LINE
  5
3AF
330
3AB
100
AcDbEntity
  8
0
  6
ByBlock
 62
     0
100
AcDbLine
 10
-0.5
 20
0.0
 30
0.0
 11
-1.0
 21
0.0
 31
0.0
  0
ENDBLK
  5
3AD
330
3AB
100
AcDbEntity
  8
0
100
AcDbBlockEnd
  0
ENDSEC
  0
SECTION
  2
ENTITIES
  0
LINE
  5
1D5
330
1F
100
AcDbEntity
  8
0
  6
Continuous
 62
     7
100
AcDbLine
 10
152.2127131783
 20
179.960017263
 30
0.0
 11
159.2454816956
 21
172.9272487457
 31
0.0
  0
LINE
  5
1D6
330
1F
100
AcDbEntity
  8
0
  6
Continuous
 62
     7
100
AcDbLine
 10
131.5854890713
 20
172.9271280809
 30
0.0
 11
148.564500901
 21
172.9271280809
 31
0.0
  0
LINE
  5
1D7
330
1F
100
AcDbEntity
  8
0
  6
Continuous
 62
     7
100
AcDbLine
 10
10.0
 20
10.0
 30
0.0
 11
10.0
 21
287.0
 31
0.0
  0
LINE
  5
1D8
330
1F
100
AcDbEntity
  8
0
  6
Continuous
 62
     7
100
AcDbLine
 10
10.0
 20
287.0
 30
0.0
 11
410.0
 21
287.0
 31
0.0
  0
LINE
  5
1D9
330
1F
100
AcDbEntity
  8
0
  6
Continuous
 62
     7
100
AcDbLine
 10
410.0
 20
287.0
 30
0.0
 11
410.0
 21
10.0
 31
0.0
  0
LINE
  5
1DA
330
1F
100
AcDbEntity
  8
0
  6
Continuous
 62
     7
100
AcDbLine
 10
410.0
 20
10.0
 30
0.0
 11
10.0
 21
10.0
 31
0.0
  0
MTEXT
  5
1DC
330
1F
100
AcDbEntity
  8
0
  6
Continuous
 62
     7
100
AcDbMText
 10
133.3109122984
 20
256.832954021
 30
0.0
 40
7.4083333333
 41
0.0
 71
     1
 72
     1
  1
\U+30de\U+30eb\U+30c1\U+30a2\U+30f3\U+30b0\U+30eb\U+30df\U+30cb\U+3000MAM20-19TI
  7
SLDTEXTSTYLE5
 73
     1
 44
1.0
1001
ACAD
1000
MTEXTBEGIN
1070
    73
1070
     1
1070
    44
1040
1.0
1070
    74
1070
     0
1000
MTEXTEND
  0
LINE
  5
1DD
330
1F
100
AcDbEntity
  8
0
  6
Continuous
 62
     7
100
AcDbLine
 10
157.5362255528
 20
179.4581347685
 30
0.0
 11
157.6213349732
 21
179.5432441889
 31
0.0
  0
LINE
  5
1DE
330
1F
100
AcDbEntity
  8
0
  6
Continuous
 62
     7
100
AcDbLine
 10
158.4983285887
 20
178.0052491784
 30
0.0
 11
158.4132191683
 21
177.9201397579
 31
0.0
  0
LINE
  5
1DF
330
1F
100
AcDbEntity
  8
0
  6
Continuous
 62
     7
100
AcDbLine
 10
156.7769092493
 20
179.9661978861
 30
0.0
 11
156.7631378852
 21
179.952426522
 31
0.0
  0
LINE
  5
1E0
330
1F
100
AcDbEntity
  8
0
  6
Continuous
 62
     7
100
AcDbLine
 10
159.2380116194
 20
177.4775527879
 30
0.0
 11
159.2517829835
 21
177.491324152
 31
0.0
  0
ARC
  5
1E1
330
1F
100
AcDbEntity
  8
0
  6
Continuous
 62
     7
100
AcDbCircle
 10
269.9139527887
 20
191.1137776526
 30
0.0
 40
2.0
100
AcDbArc
 50
0.0
 51
90.0
  0
ARC
  5
1E2
330
1F
100
AcDbEntity
  8
0
  6
Continuous
 62
     7
100
AcDbCircle
 10
269.9139527887
 20
175.1137776526
 30
0.0
 40
2.0
100
AcDbArc
 50
270.0
 51
0.0
  0
LINE
  5
1E3
330
1F
100
AcDbEntity
  8
0
  6
Continuous
 62
     7
100
AcDbLine
 10
177.5202649673
 20
173.1137776526
 30
0.0
 11
269.9139527887
 21
173.1137776526
 31
0.0
  0
LINE
  5
1E4
330
1F
100
AcDbEntity
  8
0
  6
Continuous
 62
     7
100
AcDbLine
 10
269.9139527887
 20
193.1137776526
 30
0.0
 11
177.5202649673
 21
193.1137776526
 31
0.0
  0
LINE
  5
1E5
330
1F
100
AcDbEntity
  8
0
  6
Continuous
 62
     7
100
AcDbLine
 10
177.5202649673
 20
193.1137776526
 30
0.0
 11
174.8139527887
 21
191.5512875878
 31
0.0
  0
LINE
  5
1E6
330
1F
100
AcDbEntity
  8
0
  6
Continuous
 62
     7
100
AcDbLine
 10
174.8139527887
 20
174.6762677174
 30
0.0
 11
177.5202649673
 21
173.1137776526
 31
0.0
  0
LINE
  5
1E7
330
1F
100
AcDbEntity
  8
0
  6
Continuous
 62
     7
100
AcDbLine
 10
174.8139527887
 20
191.5512875878
 30
0.0
 11
160.0936892396
 21
191.5512875878
 31
0.0
  0
LINE
  5
1E8
330
1F
100
AcDbEntity
  8
0
  6
Continuous
 62
     7
100
AcDbLine
 10
168.0651730751
 20
174.6762677174
 30
0.0
 11
174.8139527887
 21
174.6762677174
 31
0.0
  0
ARC
  5
1E9
330
1F
100
AcDbEntity
  8
0
  6
Continuous
 62
     7
100
AcDbCircle
 10
160.0936892396
 20
186.1345814993
 30
0.0
 40
5.416706088482329
100
AcDbArc
 50
90.0
 51
148.1215745309
  0
ARC
  5
1EA
330
1F
100
AcDbEntity
  8
0
  6
Continuous
 62
     7
100
AcDbCircle
 10
160.5993627499
 20
181.3137776526
 30
0.0
 40
1.883974596210483
100
AcDbArc
 50
298.4186883127
 51
353.4120850445
  0
SPLINE
  5
1EB
330
1F
100
AcDbEntity
  8
0
  6
Continuous
 62
     7
100
AcDbSpline
210
0.0
220
0.0
230
1.0
 70
     8
 71
     3
 72
    37
 73
    33
 74
     0
 42
0.0000000001
 43
0.0000000001
 40
0.0
 40
0.0
 40
0.0
 40
0.0
 40
0.0447513384827712
 40
0.0904899481244345
 40
0.1158828045633122
 40
0.1414581605597828
 40
0.1676188874344842
 40
0.1939863278472083
 40
0.236665249102374
 40
0.2803113822373727
 40
0.3263956993989109
 40
0.3500292353817722
 40
0.3738366260540821
 40
0.4199302249060045
 40
0.4436019801998521
 40
0.4674562572425182
 40
0.5127008905551975
 40
0.535924817635803
 40
0.559322081243055
 40
0.6042411699736834
 40
0.6504350100397746
 40
0.6958971242168019
 40
0.7426111988939082
 40
0.7893236829384184
 40
0.8132527822015006
 40
0.8373429016667603
 40
0.8619337554183211
 40
0.8866935053003832
 40
0.9119781318883871
 40
0.9374408500520495
 40
0.9685578854356256
 40
1.0
 40
1.0
 40
1.0
 40
1.0
 10
160.3832188246754
 20
183.1853123390993
 30
0.0
 10
160.4311681806844
 20
183.2477177368103
 30
0.0
 10
160.5281247161751
 20
183.3739052742787
 30
0.0
 10
160.6816401545775
 20
183.5102156617824
 30
0.0
 10
160.8207548383113
 20
183.6090493130829
 30
0.0
 10
160.9384272746524
 20
183.6780626087793
 30
0.0
 10
161.0633487456631
 20
183.7374208194588
 30
0.0
 10
161.2216803810703
 20
183.7959775426622
 30
0.0
 10
161.4168194675085
 20
183.8429041003825
 30
0.0
 10
161.6522213310219
 20
183.8632086280267
 30
0.0
 10
161.8546309525959
 20
183.8485938247461
 30
0.0
 10
162.0184130930197
 20
183.8159630374296
 30
0.0
 10
162.1789654578021
 20
183.7695019770923
 30
0.0
 10
162.3333012845844
 20
183.7027705740682
 30
0.0
 10
162.4774293108485
 20
183.6172588162374
 30
0.0
 10
162.6124252033735
 20
183.5204396660688
 30
0.0
 10
162.7340727716464
 20
183.4073447324619
 30
0.0
 10
162.8395646693345
 20
183.2810970408863
 30
0.0
 10
162.9335828077743
 20
183.1468159874968
 30
0.0
 10
163.0296460565741
 20
182.9649023087971
 30
0.0
 10
163.1067709119147
 20
182.732332208714
 30
0.0
 10
163.1451451717576
 20
182.4875112648604
 30
0.0
 10
163.143144139549
 20
182.2392448740318
 30
0.0
 10
163.1073992808052
 20
182.0329326019162
 30
0.0
 10
163.0588319056735
 20
181.8720263449905
 30
0.0
 10
163.0116740598845
 20
181.7522777965038
 30
0.0
 10
162.9542188044964
 20
181.6356584155164
 30
0.0
 10
162.8862626024077
 20
181.5225638972338
 30
0.0
 10
162.8083053272958
 20
181.414392799
 30
0.0
 10
162.71417421389
 20
181.305035710688
 30
0.0
 10
162.603107106303
 20
181.1965843359377
 30
0.0
 10
162.5151197307577
 20
181.1307313286156
 30
0.0
 10
162.4708974364264
 20
181.0976337273478
 30
0.0
  0
ARC
  5
1EC
330
1F
100
AcDbEntity
  8
0
  6
Continuous
 62
     7
100
AcDbCircle
 10
160.5993627499
 20
181.3137776526
 30
0.0
 40
1.883974596210404
100
AcDbArc
 50
96.5879149555
 51
151.5813116873
  0
ARC
  5
1ED
330
1F
100
AcDbEntity
  8
0
  6
Continuous
 62
     7
100
AcDbCircle
 10
160.5993627499
 20
181.3137776526
 30
0.0
 40
3.749999999968165
100
AcDbArc
 50
275.3141102246
 51
174.6858897754
  0
ARC
  5
1EE
330
1F
100
AcDbEntity
  8
0
  6
Continuous
 62
     7
100
AcDbCircle
 10
160.5993627499
 20
181.3137776526
 30
0.0
 40
1.499999999999993
100
AcDbArc
 50
347.6093159758
 51
349.14687296
  0
ARC
  5
1EF
330
1F
100
AcDbEntity
  8
0
  6
Continuous
 62
     7
100
AcDbCircle
 10
161.7995276252
 20
182.4866700007
 30
0.0
 40
1.480715448331539
100
AcDbArc
 50
280.6246104891
 51
314.9871492748
  0
ARC
  5
1F0
330
1F
100
AcDbEntity
  8
0
  6
Continuous
 62
     7
100
AcDbCircle
 10
161.772255098
 20
182.5139425279
 30
0.0
 40
1.480715448331921
100
AcDbArc
 50
135.0128507252
 51
169.3753895109
  0
ARC
  5
1F1
330
1F
100
AcDbEntity
  8
0
  6
Continuous
 62
     7
100
AcDbCircle
 10
160.5993627499
 20
181.3137776526
 30
0.0
 40
1.500000000000109
100
AcDbArc
 50
100.85312704
 51
102.3906840242
  0
ELLIPSE
  5
1F2
330
1F
100
AcDbEntity
  8
0
  6
Continuous
 62
     7
100
AcDbEllipse
 10
161.7468513371
 20
182.4612662398
 30
0.0
 11
-1.068625544541049
 21
-1.068625544541049
 31
0.0
210
0.0
220
0.0
230
1.0
 40
0.9925461515999998
 41
5.281528910986205
 42
5.431855297487688
  0
ELLIPSE
  5
1F3
330
1F
100
AcDbEntity
  8
0
  6
Continuous
 62
     7
100
AcDbEllipse
 10
161.6166186437
 20
182.3310335464
 30
0.0
 11
-1.068625544541049
 21
-1.068625544541049
 31
0.0
210
0.0
220
0.0
230
1.0
 40
0.9925461515999998
 41
4.890719908175324
 42
5.366148338165846
  0
ELLIPSE
  5
1F4
330
1F
100
AcDbEntity
  8
0
  6
Continuous
 62
     7
100
AcDbEllipse
 10
161.6166186437
 20
182.3310335464
 30
0.0
 11
-1.068625544541049
 21
-1.068625544541049
 31
0.0
210
0.0
220
0.0
230
1.0
 40
0.9925461515999998
 41
0.9170369690130307
 42
1.392465399004144
  0
ELLIPSE
  5
1F5
330
1F
100
AcDbEntity
  8
0
  6
Continuous
 62
     7
100
AcDbEllipse
 10
161.7468513371
 20
182.4612662398
 30
0.0
 11
-1.068625544541049
 21
-1.068625544541049
 31
0.0
210
0.0
220
0.0
230
1.0
 40
0.9925461515999998
 41
0.8513300096912113
 42
1.001656396193314
  0
SPLINE
  5
1F6
330
1F
100
AcDbEntity
  8
0
  6
Continuous
 62
     7
100
AcDbSpline
210
0.0
220
0.0
230
1.0
 70
     8
 71
     3
 72
    10
 73
     6
 74
     0
 42
0.0000000001
 43
0.0000000001
 40
0.0
 40
0.0
 40
0.0
 40
0.0
 40
0.2070488722521671
 40
0.6256333181995726
 40
1.0
 40
1.0
 40
1.0
 40
1.0
 10
165.0837651801848
 20
182.0540784711121
 30
0.0
 10
165.0793777454548
 20
182.0736335232376
 30
0.0
 10
165.066120366563
 20
182.1327224330963
 30
0.0
 10
165.0688346376329
 20
182.2328491908824
 30
0.0
 10
165.1018089116966
 20
182.302846771839
 30
0.0
 10
165.1173766675572
 20
182.3358939057666
 30
0.0
  0
SPLINE
  5
1F7
330
1F
100
AcDbEntity
  8
0
  6
Continuous
 62
     7
100
AcDbSpline
210
0.0
220
0.0
230
1.0
 70
     8
 71
     3
 72
    10
 73
     6
 74
     0
 42
0.0000000001
 43
0.0000000001
 40
0.0
 40
0.0
 40
0.0
 40
0.0
 40
0.2074843893361163
 40
0.6181511805376454
 40
1.0
 40
1.0
 40
1.0
 40
1.0
 10
165.2537812994356
 20
181.8268248892089
 30
0.0
 10
165.2368612610991
 20
181.8376996213838
 30
0.0
 10
165.1864519666652
 20
181.8700983408897
 30
0.0
 10
165.1208456083731
 20
181.9458189234045
 30
0.0
 10
165.0958220148144
 20
182.0188774896899
 30
0.0
 10
165.0837651801848
 20
182.0540784711121
 30
0.0
  0
SPLINE
  5
1F8
330
1F
100
AcDbEntity
  8
0
  6
Continuous
 62
     7
100
AcDbSpline
210
0.0
220
0.0
230
1.0
 70
     8
 71
     3
 72
    11
 73
     7
 74
     0
 42
0.0000000001
 43
0.0000000001
 40
0.0
 40
0.0
 40
0.0
 40
0.0
 40
0.1178901975879154
 40
0.5932116904468306
 40
0.8944434949246478
 40
1.0
 40
1.0
 40
1.0
 40
1.0
 10
165.7509161663027
 20
181.8041407674544
 30
0.0
 10
165.7315430313794
 20
181.7991713208249
 30
0.0
 10
165.6340593529032
 20
181.7741655621109
 30
0.0
 10
165.481066460003
 20
181.7571577095702
 30
0.0
 10
165.3309168751442
 20
181.7863870151942
 30
0.0
 10
165.2696732564854
 20
181.8184936237568
 30
0.0
 10
165.2537812994356
 20
181.8268248892089
 30
0.0
  0
LINE
  5
1F9
330
1F
100
AcDbEntity
  8
0
  6
Continuous
 62
     7
100
AcDbLine
 10
165.8963644567
 20
181.8431135194
 30
0.0
 11
165.7509161663
 21
181.8041407675
 31
0.0
  0
SPLINE
  5
1FA
330
1F
100
AcDbEntity
  8
0
  6
Continuous
 62
     7
100
AcDbSpline
210
0.0
220
0.0
230
1.0
 70
     8
 71
     3
 72
    11
 73
     7
 74
     0
 42
0.0000000001
 43
0.0000000001
 40
0.0
 40
0.0
 40
0.0
 40
0.0
 40
0.1164874627183363
 40
0.4288454639930233
 40
0.7105177197898125
 40
1.0
 40
1.0
 40
1.0
 40
1.0
 10
166.3228262342068
 20
182.1132746161535
 30
0.0
 10
166.3119857605554
 20
182.0963357789965
 30
0.0
 10
166.2720768480899
 20
182.0339759051474
 30
0.0
 10
166.1749941778891
 20
181.9545359933541
 30
0.0
 10
166.0386829640392
 20
181.8857363788321
 30
0.0
 10
165.9442344586238
 20
181.8574500691689
 30
0.0
 10
165.8963644567478
 20
181.8431135194196
 30
0.0
  0
SPLINE
  5
1FB
330
1F
100
AcDbEntity
  8
0
  6
Continuous
 62
     7
100
AcDbSpline
210
0.0
220
0.0
230
1.0
 70
     8
 71
     3
 72
    10
 73
     6
 74
     0
 42
0.0000000001
 43
0.0000000001
 40
0.0
 40
0.0
 40
0.0
 40
0.0
 40
0.2070163308001977
 40
0.6255967116795381
 40
1.0
 40
1.0
 40
1.0
 40
1.0
 10
166.3564377215792
 20
182.395090050808
 30
0.0
 10
166.3608294594285
 20
182.3755386870551
 30
0.0
 10
166.374101150345
 20
182.3164550928991
 30
0.0
 10
166.3713764316838
 20
182.2163241778252
 30
0.0
 10
166.338397209595
 20
182.1463245782944
 30
0.0
 10
166.3228262342068
 20
182.1132746161535
 30
0.0
  0
SPLINE
  5
1FC
330
1F
100
AcDbEntity
  8
0
  6
Continuous
 62
     7
100
AcDbSpline
210
0.0
220
0.0
230
1.0
 70
     8
 71
     3
 72
    10
 73
     6
 74
     0
 42
0.0000000001
 43
0.0000000001
 40
0.0
 40
0.0
 40
0.0
 40
0.0
 40
0.2074579530340885
 40
0.6262359097095518
 40
1.0
 40
1.0
 40
1.0
 40
1.0
 10
166.1864216023285
 20
182.6223436327112
 30
0.0
 10
166.2033426465864
 20
182.6114760410468
 30
0.0
 10
166.2544207826092
 20
182.5786709542674
 30
0.0
 10
166.3197543367603
 20
182.502592526731
 30
0.0
 10
166.3446818613315
 20
182.4295411814621
 30
0.0
 10
166.3564377215792
 20
182.395090050808
 30
0.0
  0
SPLINE
  5
1FD
330
1F
100
AcDbEntity
  8
0
  6
Continuous
 62
     7
100
AcDbSpline
210
0.0
220
0.0
230
1.0
 70
     8
 71
     3
 72
    11
 73
     7
 74
     0
 42
0.0000000001
 43
0.0000000001
 40
0.0
 40
0.0
 40
0.0
 40
0.0
 40
0.1162112130490068
 40
0.5844464133962595
 40
0.8826596395455945
 40
1.0
 40
1.0
 40
1.0
 40
1.0
 10
165.682014320939
 20
182.6430791168676
 30
0.0
 10
165.70138606047
 20
182.6480605694037
 30
0.0
 10
165.7988099096247
 20
182.6731131610758
 30
0.0
 10
165.9515198893974
 20
182.6909884303558
 30
0.0
 10
166.1047682549091
 20
182.664610994814
 30
0.0
 10
166.1684419775431
 20
182.6316506768838
 30
0.0
 10
166.1864216023285
 20
182.6223436327112
 30
0.0
  0
LINE
  5
1FE
330
1F
100
AcDbEntity
  8
0
  6
Continuous
 62
     7
100
AcDbLine
 10
165.5365660304999
 20
182.6041063649
 30
0.0
 11
165.6820143209
 21
182.6430791169
 31
0.0
  0
SPLINE
  5
1FF
330
1F
100
AcDbEntity
  8
0
  6
Continuous
 62
     7
100
AcDbSpline
210
0.0
220
0.0
230
1.0
 70
     8
 71
     3
 72
    11
 73
     7
 74
     0
 42
0.0000000001
 43
0.0000000001
 40
0.0
 40
0.0
 40
0.0
 40
0.0
 40
0.1181466373175512
 40
0.4375861393143453
 40
0.7149882056277801
 40
1.0
 40
1.0
 40
1.0
 40
1.0
 10
165.1173766675572
 20
182.3358939057666
 30
0.0
 10
165.128223469646
 20
182.3528232275991
 30
0.0
 10
165.1683973616643
 20
182.4155252794735
 30
0.0
 10
165.2643375399772
 20
182.4948047055842
 30
0.0
 10
165.3984434699123
 20
182.5626311464545
 30
0.0
 10
165.4901117384865
 20
182.5901571454501
 30
0.0
 10
165.536566030494
 20
182.6041063649023
 30
0.0
  0
SPLINE
  5
200
330
1F
100
AcDbEntity
  8
0
  6
Continuous
 62
     7
100
AcDbSpline
210
0.0
220
0.0
230
1.0
 70
     8
 71
     3
 72
    10
 73
     6
 74
     0
 42
0.0000000001
 43
0.0000000001
 40
0.0
 40
0.0
 40
0.0
 40
0.0
 40
0.2070488722520988
 40
0.6256333181995643
 40
1.0
 40
1.0
 40
1.0
 40
1.0
 10
164.8304592259412
 20
179.6781884543648
 30
0.0
 10
164.8364371220703
 20
179.6973173436428
 30
0.0
 10
164.8545003500919
 20
179.7551185301083
 30
0.0
 10
164.906914356684
 20
179.8404737104148
 30
0.0
 10
164.9704697061731
 20
179.8846062566946
 30
0.0
 10
165.000475345192
 20
179.905442036268
 30
0.0
  0
SPLINE
  5
201
330
1F
100
AcDbEntity
  8
0
  6
Continuous
 62
     7
100
AcDbSpline
210
0.0
220
0.0
230
1.0
 70
     8
 71
     3
 72
    10
 73
     6
 74
     0
 42
0.0000000001
 43
0.0000000001
 40
0.0
 40
0.0
 40
0.0
 40
0.0
 40
0.2074843893361677
 40
0.6181511805385574
 40
1.0
 40
1.0
 40
1.0
 40
1.0
 10
164.8640707133136
 20
179.3963730197102
 30
0.0
 10
164.8548548963686
 20
179.4142508332013
 30
0.0
 10
164.8273985265551
 20
179.4675135945605
 30
0.0
 10
164.8084420448817
 20
179.5658927217538
 30
0.0
 10
164.8233002603086
 20
179.6416750929004
 30
0.0
 10
164.8304592259412
 20
179.6781884543648
 30
0.0
  0
SPLINE
  5
202
330
1F
100
AcDbEntity
  8
0
  6
Continuous
 62
     7
100
AcDbSpline
210
0.0
220
0.0
230
1.0
 70
     8
 71
     3
 72
    11
 73
     7
 74
     0
 42
0.0000000001
 43
0.0000000001
 40
0.0
 40
0.0
 40
0.0
 40
0.0
 40
0.1178901975877105
 40
0.5932116904467523
 40
0.894443494925126
 40
1.0
 40
1.0
 40
1.0
 40
1.0
 10
165.2832600762502
 20
179.1281605605747
 30
0.0
 10
165.263997725941
 20
179.1335434610126
 30
0.0
 10
165.1670715045694
 20
179.1606296779634
 30
0.0
 10
165.0260718464489
 20
179.2223968920494
 30
0.0
 10
164.9106531444054
 20
179.3227850056843
 30
0.0
 10
164.8736679191085
 20
179.3812119536582
 30
0.0
 10
164.8640707133136
 20
179.3963730197102
 30
0.0
  0
LINE
  5
203
330
1F
100
AcDbEntity
  8
0
  6
Continuous
 62
     7
100
AcDbLine
 10
165.4287083667
 20
179.0891878086
 30
0.0
 11
165.2832600763
 21
179.1281605606
 31
0.0
  0
SPLINE
  5
204
330
1F
100
AcDbEntity
  8
0
  6
Continuous
 62
     7
100
AcDbSpline
210
0.0
220
0.0
230
1.0
 70
     8
 71
     3
 72
    11
 73
     7
 74
     0
 42
0.0000000001
 43
0.0000000001
 40
0.0
 40
0.0
 40
0.0
 40
0.0
 40
0.1164874627181675
 40
0.4288454639926806
 40
0.7105177197896553
 40
1.0
 40
1.0
 40
1.0
 40
1.0
 10
165.9331156480849
 20
179.1099232927657
 30
0.0
 10
165.9152581039351
 20
179.1006740663028
 30
0.0
 10
165.8495160349783
 20
179.0666232876055
 30
0.0
 10
165.7257200204204
 20
179.0463676410187
 30
0.0
 10
165.5732712391446
 20
179.0549410339968
 30
0.0
 10
165.4773332792738
 20
179.077668623957
 30
0.0
 10
165.4287083666954
 20
179.0891878086094
 30
0.0
  0
SPLINE
  5
205
330
1F
100
AcDbEntity
  8
0
  6
Continuous
 62
     7
100
AcDbSpline
210
0.0
220
0.0
230
1.0
 70
     8
 71
     3
 72
    10
 73
     6
 74
     0
 42
0.0000000001
 43
0.0000000001
 40
0.0
 40
0.0
 40
0.0
 40
0.0
 40
0.2070163308003953
 40
0.6255967116797239
 40
1.0
 40
1.0
 40
1.0
 40
1.0
 10
166.1031317673356
 20
179.3371768746689
 30
0.0
 10
166.0971594420034
 20
179.3180490280556
 30
0.0
 10
166.07911126641
 20
179.2602452891115
 30
0.0
 10
166.0266861332946
 20
179.1748917322836
 30
0.0
 10
165.9631254894032
 20
179.1307599118798
 30
0.0
 10
165.9331156480849
 20
179.1099232927657
 30
0.0
  0
SPLINE
  5
206
330
1F
100
AcDbEntity
  8
0
  6
Continuous
 62
     7
100
AcDbSpline
210
0.0
220
0.0
230
1.0
 70
     8
 71
     3
 72
    10
 73
     6
 74
     0
 42
0.0000000001
 43
0.0000000001
 40
0.0
 40
0.0
 40
0.0
 40
0.0
 40
0.2074579530342031
 40
0.6262359097095383
 40
1.0
 40
1.0
 40
1.0
 40
1.0
 10
166.0695202799633
 20
179.6189923093235
 30
0.0
 10
166.0787405383169
 20
179.6011201767352
 30
0.0
 10
166.1065729583011
 20
179.5471710701995
 30
0.0
 10
166.125114262147
 20
179.4486184421974
 30
0.0
 10
166.1101764590449
 20
179.3728903591283
 30
0.0
 10
166.1031317673356
 20
179.3371768746689
 30
0.0
  0
SPLINE
  5
207
330
1F
100
AcDbEntity
  8
0
  6
Continuous
 62
     7
100
AcDbSpline
210
0.0
220
0.0
230
1.0
 70
     8
 71
     3
 72
    11
 73
     7
 74
     0
 42
0.0000000001
 43
0.0000000001
 40
0.0
 40
0.0
 40
0.0
 40
0.0
 40
0.1162112130492697
 40
0.584446413396195
 40
0.8826596395456625
 40
1.0
 40
1.0
 40
1.0
 40
1.0
 10
165.6430585025043
 20
179.8891534060573
 30
0.0
 10
165.6623256473218
 20
179.8837816007359
 30
0.0
 10
165.7592234714603
 20
179.8567658569774
 30
0.0
 10
165.9004118279945
 20
179.7958913043866
 30
0.0
 10
166.0199400878455
 20
179.6964235923652
 30
0.0
 10
166.058602990235
 20
179.6360422584038
 30
0.0
 10
166.0695202799633
 20
179.6189923093235
 30
0.0
  0
LINE
  5
208
330
1F
100
AcDbEntity
  8
0
  6
Continuous
 62
     7
100
AcDbLine
 10
165.4976102121
 20
179.928126158
 30
0.0
 11
165.6430585025
 21
179.8891534061
 31
0.0
  0
SPLINE
  5
209
330
1F
100
AcDbEntity
  8
0
  6
Continuous
 62
     7
100
AcDbSpline
210
0.0
220
0.0
230
1.0
 70
     8
 71
     3
 72
    11
 73
     7
 74
     0
 42
0.0000000001
 43
0.0000000001
 40
0.0
 40
0.0
 40
0.0
 40
0.0
 40
0.1181466373177179
 40
0.4375861393138266
 40
0.7149882056275496
 40
1.0
 40
1.0
 40
1.0
 40
1.0
 10
165.000475345192
 20
179.905442036268
 30
0.0
 10
165.018333612267
 20
179.9146798579994
 30
0.0
 10
165.084476249261
 20
179.9488944817826
 30
0.0
 10
165.2072025939786
 20
179.9695823896358
 30
0.0
 10
165.3572549565358
 20
179.9612688455101
 30
0.0
 10
165.4504050053398
 20
179.9392729256178
 30
0.0
 10
165.4976102120592
 20
179.9281261580225
 30
0.0
  0
SPLINE
  5
20A
330
1F
100
AcDbEntity
  8
0
  6
Continuous
 62
     7
100
AcDbSpline
210
0.0
220
0.0
230
1.0
 70
     8
 71
     3
 72
    10
 73
     6
 74
     0
 42
0.0000000001
 43
0.0000000001
 40
0.0
 40
0.0
 40
0.0
 40
0.0
 40
0.2070488722524905
 40
0.6256333181997601
 40
1.0
 40
1.0
 40
1.0
 40
1.0
 10
163.4619706448405
 20
177.783841321691
 30
0.0
 10
163.4767120993886
 20
177.7974184776874
 30
0.0
 10
163.5212559069623
 20
177.8384441595246
 30
0.0
 10
163.6093253583385
 20
177.8861569107184
 30
0.0
 10
163.6864321786822
 20
177.8925991421861
 30
0.0
 10
163.7228357141161
 20
177.8956406370949
 30
0.0
  0
SPLINE
  5
20B
330
1F
100
AcDbEntity
  8
0
  6
Continuous
 62
     7
100
AcDbSpline
210
0.0
220
0.0
230
1.0
 70
     8
 71
     3
 72
    10
 73
     6
 74
     0
 42
0.0000000001
 43
0.0000000001
 40
0.0
 40
0.0
 40
0.0
 40
0.0
 40
0.2074843893357818
 40
0.6181511805358563
 40
1.0
 40
1.0
 40
1.0
 40
1.0
 10
163.3501713294366
 20
177.5229762524154
 30
0.0
 10
163.3511291045913
 20
177.5430668015353
 30
0.0
 10
163.3539825715166
 20
177.6029218908546
 30
0.0
 10
163.3867553404173
 20
177.6975989550429
 30
0.0
 10
163.4375141180054
 20
177.7557993059014
 30
0.0
 10
163.4619706448405
 20
177.783841321691
 30
0.0
  0
SPLINE
  5
20C
330
1F
100
AcDbEntity
  8
0
  6
Continuous
 62
     7
100
AcDbSpline
210
0.0
220
0.0
230
1.0
 70
     8
 71
     3
 72
    11
 73
     7
 74
     0
 42
0.0000000001
 43
0.0000000001
 40
0.0
 40
0.0
 40
0.0
 40
0.0
 40
0.1178901975878184
 40
0.5932116904467546
 40
0.8944434949249377
 40
1.0
 40
1.0
 40
1.0
 40
1.0
 10
163.5790937371683
 20
177.0811027677241
 30
0.0
 10
163.5651035026828
 20
177.095395671404
 30
0.0
 10
163.4947060411574
 20
177.1673161340617
 30
0.0
 10
163.4034803623434
 20
177.2913079396414
 30
0.0
 10
163.3537188911191
 20
177.4359559473089
 30
0.0
 10
163.3509022204344
 20
177.5050477811684
 30
0.0
 10
163.3501713294366
 20
177.5229762524154
 30
0.0
  0
LINE
  5
20D
330
1F
100
AcDbEntity
  8
0
  6
Continuous
 62
     7
100
AcDbLine
 10
163.6855692756
 20
176.9746272292
 30
0.0
 11
163.5790937372
 21
177.0811027677
 31
0.0
  0
SPLINE
  5
20E
330
1F
100
AcDbEntity
  8
0
  6
Continuous
 62
     7
100
AcDbSpline
210
0.0
220
0.0
230
1.0
 70
     8
 71
     3
 72
    11
 73
     7
 74
     0
 42
0.0000000001
 43
0.0000000001
 40
0.0
 40
0.0
 40
0.0
 40
0.0
 40
0.116487462718401
 40
0.4288454639926241
 40
0.71051771978965
 40
1.0
 40
1.0
 40
1.0
 40
1.0
 10
164.1327665372634
 20
176.7403810445886
 30
0.0
 10
164.112676837149
 20
176.7412997515814
 30
0.0
 10
164.0387171459865
 20
176.7446819466894
 30
0.0
 10
163.9213788291986
 20
176.7890380494539
 30
0.0
 10
163.793641008327
 20
176.8726872162074
 30
0.0
 10
163.7219200928716
 20
176.9403388664151
 30
0.0
 10
163.6855692756481
 20
176.9746272292443
 30
0.0
  0
SPLINE
  5
20F
330
1F
100
AcDbEntity
  8
0
  6
Continuous
 62
     7
100
AcDbSpline
210
0.0
220
0.0
230
1.0
 70
     8
 71
     3
 72
    10
 73
     6
 74
     0
 42
0.0000000001
 43
0.0000000001
 40
0.0
 40
0.0
 40
0.0
 40
0.0
 40
0.2070163308005404
 40
0.6255967116797092
 40
1.0
 40
1.0
 40
1.0
 40
1.0
 10
164.393631606539
 20
176.8521803599925
 30
0.0
 10
164.3788954977749
 20
176.8386013215719
 30
0.0
 10
164.3343634497471
 20
176.7975659030091
 30
0.0
 10
164.2462851742585
 20
176.7498601210507
 30
0.0
 10
164.1691741317657
 20
176.7434211654113
 30
0.0
 10
164.1327665372634
 20
176.7403810445886
 30
0.0
  0
SPLINE
  5
210
330
1F
100
AcDbEntity
  8
0
  6
Continuous
 62
     7
100
AcDbSpline
210
0.0
220
0.0
230
1.0
 70
     8
 71
     3
 72
    10
 73
     6
 74
     0
 42
0.0000000001
 43
0.0000000001
 40
0.0
 40
0.0
 40
0.0
 40
0.0
 40
0.2074579530342808
 40
0.6262359097098821
 40
1.0
 40
1.0
 40
1.0
 40
1.0
 10
164.5054309219427
 20
177.1130454292681
 30
0.0
 10
164.5044798336124
 20
177.0929575792499
 30
0.0
 10
164.5016088630996
 20
177.0323200724865
 30
0.0
 10
164.4683897892485
 20
176.937700341104
 30
0.0
 10
164.4175892307507
 20
176.8795867989374
 30
0.0
 10
164.393631606539
 20
176.8521803599925
 30
0.0
  0
SPLINE
  5
211
330
1F
100
AcDbEntity
  8
0
  6
Continuous
 62
     7
100
AcDbSpline
210
0.0
220
0.0
230
1.0
 70
     8
 71
     3
 72
    11
 73
     7
 74
     0
 42
0.0000000001
 43
0.0000000001
 40
0.0
 40
0.0
 40
0.0
 40
0.0
 40
0.1162112130491332
 40
0.5844464133961997
 40
0.8826596395454021
 40
1.0
 40
1.0
 40
1.0
 40
1.0
 10
164.2711847372871
 20
177.5602426908834
 30
0.0
 10
164.2851846714968
 20
177.5459569986021
 30
0.0
 10
164.355592776893
 20
177.4741117661359
 30
0.0
 10
164.4474282040746
 20
177.3507986788811
 30
0.0
 10
164.5012088575652
 20
177.2048929834888
 30
0.0
 10
164.5045012462376
 20
177.1332697631691
 30
0.0
 10
164.5054309219427
 20
177.1130454292681
 30
0.0
  0
LINE
  5
212
330
1F
100
AcDbEntity
  8
0
  6
Continuous
 62
     7
100
AcDbLine
 10
164.1647091988
 20
177.6667182294
 30
0.0
 11
164.2711847373
 21
177.5602426909
 31
0.0
  0
SPLINE
  5
213
330
1F
100
AcDbEntity
  8
0
  6
Continuous
 62
     7
100
AcDbSpline
210
0.0
220
0.0
230
1.0
 70
     8
 71
     3
 72
    12
 73
     8
 74
     0
 42
0.0000000001
 43
0.0000000001
 40
0.0
 40
0.0
 40
0.0
 40
0.0
 40
0.1180233451201205
 40
0.2758849719063503
 40
0.4381730476044976
 40
0.7152856303476204
 40
1.0
 40
1.0
 40
1.0
 40
1.0
 10
163.7228357141161
 20
177.8956406370949
 30
0.0
 10
163.742919591294
 20
177.8947502848937
 30
0.0
 10
163.7898665735657
 20
177.8926690458664
 30
0.0
 10
163.8625451430569
 20
177.8737134088764
 30
0.0
 10
163.9560744259237
 20
177.8336323341107
 30
0.0
 10
164.0598088889274
 20
177.7654594183677
 30
0.0
 10
164.1294284336209
 20
177.6999275183299
 30
0.0
 10
164.1647091988073
 20
177.6667182293631
 30
0.0
  0
LINE
  5
214
330
1F
100
AcDbEntity
  8
0
  6
Continuous
 62
     7
100
AcDbLine
 10
165.8192483433
 20
183.0617838316
 30
0.0
 11
165.8477284257
 21
183.0727298469
 31
0.0
  0
SPLINE
  5
215
330
1F
100
AcDbEntity
  8
0
  6
Continuous
 62
     7
100
AcDbSpline
210
0.0
220
0.0
230
1.0
 70
     8
 71
     3
 72
    10
 73
     6
 74
     0
 42
0.0000000001
 43
0.0000000001
 40
0.0
 40
0.0
 40
0.0
 40
0.0
 40
0.3159466725988054
 40
0.7356970250153334
 40
1.0
 40
1.0
 40
1.0
 40
1.0
 10
165.6363937085384
 20
183.0751444830204
 30
0.0
 10
165.6545578250823
 20
183.0669630575192
 30
0.0
 10
165.6968538441964
 20
183.0479122146918
 30
0.0
 10
165.7615646574274
 20
183.0483376334801
 30
0.0
 10
165.8031721389019
 20
183.0580364318571
 30
0.0
 10
165.8192483433363
 20
183.0617838316024
 30
0.0
  0
SPLINE
  5
216
330
1F
100
AcDbEntity
  8
0
  6
Continuous
 62
     7
100
AcDbSpline
210
0.0
220
0.0
230
1.0
 70
     8
 71
     3
 72
    10
 73
     6
 74
     0
 42
0.0000000001
 43
0.0000000001
 40
0.0
 40
0.0
 40
0.0
 40
0.0
 40
0.3550849980666823
 40
0.7092926775033584
 40
1.0
 40
1.0
 40
1.0
 40
1.0
 10
165.5450875531899
 20
183.1831864291126
 30
0.0
 10
165.5512835739569
 20
183.1670376044259
 30
0.0
 10
165.5636603068056
 20
183.1347798544141
 30
0.0
 10
165.5984413231004
 20
183.0995461853818
 30
0.0
 10
165.624601518394
 20
183.0827263388319
 30
0.0
 10
165.6363937085384
 20
183.0751444830204
 30
0.0
  0
LINE
  5
217
330
1F
100
AcDbEntity
  8
0
  6
Continuous
 62
     7
100
AcDbLine
 10
165.5333957276
 20
183.2268209162
 30
0.0
 11
165.5450875532
 21
183.1831864291
 31
0.0
  0
LINE
  5
218
330
1F
100
AcDbEntity
  8
0
  6
Continuous
 62
     7
100
AcDbLine
 10
165.4097646807
 20
183.1936940771
 30
0.0
 11
165.5333957276
 21
183.2268209162
 31
0.0
  0
LINE
  5
219
330
1F
100
AcDbEntity
  8
0
  6
Continuous
 62
     7
100
AcDbLine
 10
165.4253537815
 20
183.1355147609
 30
0.0
 11
165.4097646807
 21
183.1936940771
 31
0.0
  0
SPLINE
  5
21A
330
1F
100
AcDbEntity
  8
0
  6
Continuous
 62
     7
100
AcDbSpline
210
0.0
220
0.0
230
1.0
 70
     8
 71
     3
 72
    10
 73
     6
 74
     0
 42
0.0000000001
 43
0.0000000001
 40
0.0
 40
0.0
 40
0.0
 40
0.0
 40
0.3988598893324521
 40
0.7990874899131845
 40
1.0
 40
1.0
 40
1.0
 40
1.0
 10
165.4022499420988
 20
182.9890221987109
 30
0.0
 10
165.4112541172471
 20
183.0072128815093
 30
0.0
 10
165.4292933433273
 20
183.0436566239009
 30
0.0
 10
165.4342009288855
 20
183.0958060782994
 30
0.0
 10
165.4275699734895
 20
183.1255678186564
 30
0.0
 10
165.4253537815081
 20
183.1355147608976
 30
0.0
  0
SPLINE
  5
21B
330
1F
100
AcDbEntity
  8
0
  6
Continuous
 62
     7
100
AcDbSpline
210
0.0
220
0.0
230
1.0
 70
     8
 71
     3
 72
    10
 73
     6
 74
     0
 42
0.0000000001
 43
0.0000000001
 40
0.0
 40
0.0
 40
0.0
 40
0.0
 40
0.3338331911201949
 40
0.7541561427067869
 40
1.0
 40
1.0
 40
1.0
 40
1.0
 10
165.2578459233953
 20
182.8879728553711
 30
0.0
 10
165.2770041211198
 20
182.8940570668012
 30
0.0
 10
165.3202840372021
 20
182.9078017918481
 30
0.0
 10
165.371586803772
 20
182.9432396414865
 30
0.0
 10
165.3939843104756
 20
182.9766809390281
 30
0.0
 10
165.4022499420988
 20
182.9890221987109
 30
0.0
  0
SPLINE
  5
21C
330
1F
100
AcDbEntity
  8
0
  6
Continuous
 62
     7
100
AcDbSpline
210
0.0
220
0.0
230
1.0
 70
     8
 71
     3
 72
    10
 73
     6
 74
     0
 42
0.0000000001
 43
0.0000000001
 40
0.0
 40
0.0
 40
0.0
 40
0.0
 40
0.2839931172723353
 40
0.6992683855811727
 40
1.0
 40
1.0
 40
1.0
 40
1.0
 10
165.0604464595528
 20
182.8974362315926
 30
0.0
 10
165.0781055071683
 20
182.8896511923655
 30
0.0
 10
165.1215868909271
 20
182.8704823059352
 30
0.0
 10
165.191281378001
 20
182.8724833880262
 30
0.0
 10
165.238157416217
 20
182.8833913700293
 30
0.0
 10
165.2578459233953
 20
182.8879728553711
 30
0.0
  0
SPLINE
  5
21D
330
1F
100
AcDbEntity
  8
0
  6
Continuous
 62
     7
100
AcDbSpline
210
0.0
220
0.0
230
1.0
 70
     8
 71
     3
 72
    10
 73
     6
 74
     0
 42
0.0000000001
 43
0.0000000001
 40
0.0
 40
0.0
 40
0.0
 40
0.0
 40
0.3495615120458098
 40
0.6998915663661313
 40
1.0
 40
1.0
 40
1.0
 40
1.0
 10
164.9613457538113
 20
183.0345678357739
 30
0.0
 10
164.9676862097767
 20
183.015334800692
 30
0.0
 10
164.9803810617674
 20
182.9768264449789
 30
0.0
 10
165.0148343252546
 20
182.9285365453843
 30
0.0
 10
165.0460457120799
 20
182.9072552802324
 30
0.0
 10
165.0604464595529
 20
182.8974362315925
 30
0.0
  0
SPLINE
  5
21E
330
1F
100
AcDbEntity
  8
0
  6
Continuous
 62
     7
100
AcDbSpline
210
0.0
220
0.0
230
1.0
 70
     8
 71
     3
 72
    10
 73
     6
 74
     0
 42
0.0000000001
 43
0.0000000001
 40
0.0
 40
0.0
 40
0.0
 40
0.0
 40
0.4289757170193404
 40
0.8598212322094681
 40
1.0
 40
1.0
 40
1.0
 40
1.0
 10
164.9791258162966
 20
183.1718393458399
 30
0.0
 10
164.97042560464
 20
183.1533135175514
 30
0.0
 10
164.9529872592738
 20
183.1161811115089
 30
0.0
 10
164.9537461805702
 20
183.067237973417
 30
0.0
 10
164.9598478710175
 20
183.0410071496005
 30
0.0
 10
164.9613457538113
 20
183.0345678357739
 30
0.0
  0
SPLINE
  5
21F
330
1F
100
AcDbEntity
  8
0
  6
Continuous
 62
     7
100
AcDbSpline
210
0.0
220
0.0
230
1.0
 70
     8
 71
     3
 72
    10
 73
     6
 74
     0
 42
0.0000000001
 43
0.0000000001
 40
0.0
 40
0.0
 40
0.0
 40
0.0
 40
0.3288331410471925
 40
0.6590114905381816
 40
1.0
 40
1.0
 40
1.0
 40
1.0
 10
165.1215811974019
 20
183.280161103702
 30
0.0
 10
165.1024488168513
 20
183.273734494175
 30
0.0
 10
165.0641057879701
 20
183.2608549847982
 30
0.0
 10
165.013939226331
 20
183.2233671310101
 30
0.0
 10
164.9908542259531
 20
183.1891987189257
 30
0.0
 10
164.9791258162966
 20
183.17183934584
 30
0.0
  0
LINE
  5
220
330
1F
100
AcDbEntity
  8
0
  6
Continuous
 62
     7
100
AcDbLine
 10
165.1724880991
 20
183.2938015669
 30
0.0
 11
165.1215811974
 21
183.2801611037
 31
0.0
  0
LINE
  5
221
330
1F
100
AcDbEntity
  8
0
  6
Continuous
 62
     7
100
AcDbLine
 10
165.1263703426
 20
183.4659153772
 30
0.0
 11
165.1724880991
 21
183.2938015669
 31
0.0
  0
LINE
  5
222
330
1F
100
AcDbEntity
  8
0
  6
Continuous
 62
     7
100
AcDbLine
 10
165.0681910264
 20
183.4503262765
 30
0.0
 11
165.1263703426
 21
183.4659153772
 31
0.0
  0
SPLINE
  5
223
330
1F
100
AcDbEntity
  8
0
  6
Continuous
 62
     7
100
AcDbSpline
210
0.0
220
0.0
230
1.0
 70
     8
 71
     3
 72
    10
 73
     6
 74
     0
 42
0.0000000001
 43
0.0000000001
 40
0.0
 40
0.0
 40
0.0
 40
0.0
 40
0.2156501257009848
 40
0.6276172605415973
 40
1.0
 40
1.0
 40
1.0
 40
1.0
 10
164.8567813652609
 20
183.2793591560614
 30
0.0
 10
164.8671036079337
 20
183.2965293171992
 30
0.0
 10
164.8971449429334
 20
183.3465004890746
 30
0.0
 10
164.9663130649157
 20
183.4134309998495
 30
0.0
 10
165.0353938233588
 20
183.4384487137364
 30
0.0
 10
165.0681910263874
 20
183.4503262764638
 30
0.0
  0
SPLINE
  5
224
330
1F
100
AcDbEntity
  8
0
  6
Continuous
 62
     7
100
AcDbSpline
210
0.0
220
0.0
230
1.0
 70
     8
 71
     3
 72
    10
 73
     6
 74
     0
 42
0.0000000001
 43
0.0000000001
 40
0.0
 40
0.0
 40
0.0
 40
0.0
 40
0.207048872252035
 40
0.6256333181996631
 40
1.0
 40
1.0
 40
1.0
 40
1.0
 10
164.8231698778886
 20
182.9975437214068
 30
0.0
 10
164.8187824431585
 20
183.0170987735324
 30
0.0
 10
164.8055250642666
 20
183.0761876833911
 30
0.0
 10
164.8082393353366
 20
183.1763144411771
 30
0.0
 10
164.8412136094004
 20
183.2463120221338
 30
0.0
 10
164.8567813652609
 20
183.2793591560614
 30
0.0
  0
SPLINE
  5
225
330
1F
100
AcDbEntity
  8
0
  6
Continuous
 62
     7
100
AcDbSpline
210
0.0
220
0.0
230
1.0
 70
     8
 71
     3
 72
    10
 73
     6
 74
     0
 42
0.0000000001
 43
0.0000000001
 40
0.0
 40
0.0
 40
0.0
 40
0.0
 40
0.1890405176323975
 40
0.5585991324833327
 40
1.0
 40
1.0
 40
1.0
 40
1.0
 10
165.0009805475322
 20
182.7412004814146
 30
0.0
 10
164.9841284987272
 20
182.7522694363156
 30
0.0
 10
164.9343320849161
 20
182.7849772847843
 30
0.0
 10
164.8655231862343
 20
182.8704002190294
 30
0.0
 10
164.8380975199588
 20
182.9527313379314
 30
0.0
 10
164.8231698778886
 20
182.9975437214068
 30
0.0
  0
SPLINE
  5
226
330
1F
100
AcDbEntity
  8
0
  6
Continuous
 62
     7
100
AcDbSpline
210
0.0
220
0.0
230
1.0
 70
     8
 71
     3
 72
    10
 73
     6
 74
     0
 42
0.0000000001
 43
0.0000000001
 40
0.0
 40
0.0
 40
0.0
 40
0.0
 40
0.2019931839945958
 40
0.6098016164167975
 40
1.0
 40
1.0
 40
1.0
 40
1.0
 10
165.2900683967091
 20
182.7095376316404
 30
0.0
 10
165.2705445325388
 20
182.7050994288564
 30
0.0
 10
165.2116035143603
 20
182.6917008419428
 30
0.0
 10
165.1091406274216
 20
182.6915802507007
 30
0.0
 10
165.0364995709768
 20
182.724905540251
 30
0.0
 10
165.0009805475322
 20
182.7412004814146
 30
0.0
  0
SPLINE
  5
227
330
1F
100
AcDbEntity
  8
0
  6
Continuous
 62
     7
100
AcDbSpline
210
0.0
220
0.0
230
1.0
 70
     8
 71
     3
 72
    10
 73
     6
 74
     0
 42
0.0000000001
 43
0.0000000001
 40
0.0
 40
0.0
 40
0.0
 40
0.0
 40
0.2287183012473211
 40
0.6147810963316829
 40
1.0
 40
1.0
 40
1.0
 40
1.0
 10
165.4994020102421
 20
182.859163009052
 30
0.0
 10
165.4883515295424
 20
182.8423134557843
 30
0.0
 10
165.45864849921
 20
182.7970228656824
 30
0.0
 10
165.3867191539608
 20
182.7418835204082
 30
0.0
 10
165.3222618073042
 20
182.7203117270306
 30
0.0
 10
165.2900683967091
 20
182.7095376316404
 30
0.0
  0
SPLINE
  5
228
330
1F
100
AcDbEntity
  8
0
  6
Continuous
 62
     7
100
AcDbSpline
210
0.0
220
0.0
230
1.0
 70
     8
 71
     3
 72
    10
 73
     6
 74
     0
 42
0.0000000001
 43
0.0000000001
 40
0.0
 40
0.0
 40
0.0
 40
0.0
 40
0.4021445712785915
 40
0.6975883171327978
 40
1.0
 40
1.0
 40
1.0
 40
1.0
 10
165.5389993162941
 20
183.0022804319129
 30
0.0
 10
165.5374135463136
 20
182.9821992191565
 30
0.0
 10
165.5346627579378
 20
182.9473649321534
 30
0.0
 10
165.5200750916233
 20
182.8991717266589
 30
0.0
 10
165.5063463729208
 20
182.8726024688135
 30
0.0
 10
165.4994020102421
 20
182.859163009052
 30
0.0
  0
SPLINE
  5
229
330
1F
100
AcDbEntity
  8
0
  6
Continuous
 62
     7
100
AcDbSpline
210
0.0
220
0.0
230
1.0
 70
     8
 71
     3
 72
    10
 73
     6
 74
     0
 42
0.0000000001
 43
0.0000000001
 40
0.0
 40
0.0
 40
0.0
 40
0.0
 40
0.4653945689300398
 40
0.9337930221479911
 40
1.0
 40
1.0
 40
1.0
 40
1.0
 10
165.6264081964461
 20
182.9087833148652
 30
0.0
 10
165.6095264210179
 20
182.9199441882536
 30
0.0
 10
165.5756539069218
 20
182.942337972769
 30
0.0
 10
165.5492737182797
 20
182.9783906412873
 30
0.0
 10
165.5401315117924
 20
182.9996478783648
 30
0.0
 10
165.5389993162941
 20
183.0022804319129
 30
0.0
  0
SPLINE
  5
22A
330
1F
100
AcDbEntity
  8
0
  6
Continuous
 62
     7
100
AcDbSpline
210
0.0
220
0.0
230
1.0
 70
     8
 71
     3
 72
    11
 73
     7
 74
     0
 42
0.0000000001
 43
0.0000000001
 40
0.0
 40
0.0
 40
0.0
 40
0.0
 40
0.2465631844431868
 40
0.4932741375073545
 40
0.8503599580159672
 40
1.0
 40
1.0
 40
1.0
 40
1.0
 10
165.8640670080962
 20
182.8945182975905
 30
0.0
 10
165.8445332239461
 20
182.8898895428912
 30
0.0
 10
165.8054539487873
 20
182.8806292594179
 30
0.0
 10
165.7363738013959
 20
182.8755827106041
 30
0.0
 10
165.6741468494357
 20
182.8847016147502
 30
0.0
 10
165.6372917813321
 20
182.9032931049203
 30
0.0
 10
165.6264081964461
 20
182.9087833148652
 30
0.0
  0
LINE
  5
22B
330
1F
100
AcDbEntity
  8
0
  6
Continuous
 62
     7
100
AcDbLine
 10
165.9203783133
 20
182.9169316602
 30
0.0
 11
165.8640670081
 21
182.8945182975999
 31
0.0
  0
LINE
  5
22C
330
1F
100
AcDbEntity
  8
0
  6
Continuous
 62
     7
100
AcDbLine
 10
165.6801306139
 20
183.4064403176
 30
0.0
 11
165.6639394416
 21
183.4668665952
 31
0.0
  0
SPLINE
  5
22D
330
1F
100
AcDbEntity
  8
0
  6
Continuous
 62
     7
100
AcDbSpline
210
0.0
220
0.0
230
1.0
 70
     8
 71
     3
 72
    10
 73
     6
 74
     0
 42
0.0000000001
 43
0.0000000001
 40
0.0
 40
0.0
 40
0.0
 40
0.0
 40
0.2070488722523597
 40
0.6256333181996827
 40
1.0
 40
1.0
 40
1.0
 40
1.0
 10
163.7764678372022
 20
184.5589037031897
 30
0.0
 10
163.7628906812058
 20
184.5736451577377
 30
0.0
 10
163.7218649993685
 20
184.6181889653114
 30
0.0
 10
163.6741522481748
 20
184.7062584166875
 30
0.0
 10
163.6677100167072
 20
184.7833652370314
 30
0.0
 10
163.6646685217984
 20
184.8197687724653
 30
0.0
  0
SPLINE
  5
22E
330
1F
100
AcDbEntity
  8
0
  6
Continuous
 62
     7
100
AcDbSpline
210
0.0
220
0.0
230
1.0
 70
     8
 71
     3
 72
    10
 73
     6
 74
     0
 42
0.0000000001
 43
0.0000000001
 40
0.0
 40
0.0
 40
0.0
 40
0.0
 40
0.2074843893359274
 40
0.6181511805376415
 40
1.0
 40
1.0
 40
1.0
 40
1.0
 10
164.0373329064778
 20
184.4471043877859
 30
0.0
 10
164.0172423573579
 20
184.4480621629404
 30
0.0
 10
163.9573872680385
 20
184.4509156298657
 30
0.0
 10
163.8627102038503
 20
184.4836883987668
 30
0.0
 10
163.8045098529917
 20
184.5344471763547
 30
0.0
 10
163.7764678372022
 20
184.5589037031897
 30
0.0
  0
SPLINE
  5
22F
330
1F
100
AcDbEntity
  8
0
  6
Continuous
 62
     7
100
AcDbSpline
210
0.0
220
0.0
230
1.0
 70
     8
 71
     3
 72
    11
 73
     7
 74
     0
 42
0.0000000001
 43
0.0000000001
 40
0.0
 40
0.0
 40
0.0
 40
0.0
 40
0.1178901975880663
 40
0.5932116904467422
 40
0.894443494924879
 40
1.0
 40
1.0
 40
1.0
 40
1.0
 10
164.4792063911691
 20
184.6760267955175
 30
0.0
 10
164.4649134874892
 20
184.662036561032
 30
0.0
 10
164.3929930248315
 20
184.5916390995068
 30
0.0
 10
164.2690012192518
 20
184.5004134206924
 30
0.0
 10
164.1243532115843
 20
184.4506519494684
 30
0.0
 10
164.0552613777248
 20
184.4478352787836
 30
0.0
 10
164.0373329064778
 20
184.4471043877859
 30
0.0
  0
LINE
  5
230
330
1F
100
AcDbEntity
  8
0
  6
Continuous
 62
     7
100
AcDbLine
 10
164.5856819296
 20
184.782502334
 30
0.0
 11
164.4792063912
 21
184.6760267955
 31
0.0
  0
SPLINE
  5
231
330
1F
100
AcDbEntity
  8
0
  6
Continuous
 62
     7
100
AcDbSpline
210
0.0
220
0.0
230
1.0
 70
     8
 71
     3
 72
    11
 73
     7
 74
     0
 42
0.0000000001
 43
0.0000000001
 40
0.0
 40
0.0
 40
0.0
 40
0.0
 40
0.116487462718381
 40
0.4288454639929669
 40
0.7105177197898788
 40
1.0
 40
1.0
 40
1.0
 40
1.0
 10
164.8199281143046
 20
185.2296995956126
 30
0.0
 10
164.8190094073119
 20
185.2096098954984
 30
0.0
 10
164.8156272122038
 20
185.1356502043356
 30
0.0
 10
164.7712711094394
 20
185.0183118875477
 30
0.0
 10
164.6876219426858
 20
184.8905740666762
 30
0.0
 10
164.619970292478
 20
184.8188531512208
 30
0.0
 10
164.5856819296489
 20
184.7825023339973
 30
0.0
  0
SPLINE
  5
232
330
1F
100
AcDbEntity
  8
0
  6
Continuous
 62
     7
100
AcDbSpline
210
0.0
220
0.0
230
1.0
 70
     8
 71
     3
 72
    10
 73
     6
 74
     0
 42
0.0000000001
 43
0.0000000001
 40
0.0
 40
0.0
 40
0.0
 40
0.0
 40
0.2070163308002919
 40
0.6255967116796294
 40
1.0
 40
1.0
 40
1.0
 40
1.0
 10
164.7081287989008
 20
185.4905646648882
 30
0.0
 10
164.7217078373214
 20
185.4758285561242
 30
0.0
 10
164.7627432558841
 20
185.4312965080963
 30
0.0
 10
164.8104490378426
 20
185.3432182326077
 30
0.0
 10
164.816887993482
 20
185.2661071901149
 30
0.0
 10
164.8199281143046
 20
185.2296995956126
 30
0.0
  0
SPLINE
  5
233
330
1F
100
AcDbEntity
  8
0
  6
Continuous
 62
     7
100
AcDbSpline
210
0.0
220
0.0
230
1.0
 70
     8
 71
     3
 72
    10
 73
     6
 74
     0
 42
0.0000000001
 43
0.0000000001
 40
0.0
 40
0.0
 40
0.0
 40
0.0
 40
0.2074579530344519
 40
0.626235909710055
 40
1.0
 40
1.0
 40
1.0
 40
1.0
 10
164.4472637296251
 20
185.6023639802921
 30
0.0
 10
164.4673515796433
 20
185.6014128919617
 30
0.0
 10
164.5279890864067
 20
185.5985419214489
 30
0.0
 10
164.6226088177894
 20
185.5653228475975
 30
0.0
 10
164.6807223599559
 20
185.5145222890999
 30
0.0
 10
164.7081287989008
 20
185.4905646648882
 30
0.0
  0
SPLINE
  5
234
330
1F
100
AcDbEntity
  8
0
  6
Continuous
 62
     7
100
AcDbSpline
210
0.0
220
0.0
230
1.0
 70
     8
 71
     3
 72
    11
 73
     7
 74
     0
 42
0.0000000001
 43
0.0000000001
 40
0.0
 40
0.0
 40
0.0
 40
0.0
 40
0.1162112130490715
 40
0.5844464133961671
 40
0.8826596395454773
 40
1.0
 40
1.0
 40
1.0
 40
1.0
 10
164.0000664680099
 20
185.3681177956364
 30
0.0
 10
164.0143521602912
 20
185.382117729846
 30
0.0
 10
164.0861973927575
 20
185.452525835242
 30
0.0
 10
164.209510480012
 20
185.5443612624242
 30
0.0
 10
164.3554161754044
 20
185.5981419159143
 30
0.0
 10
164.427039395724
 20
185.6014343045869
 30
0.0
 10
164.4472637296251
 20
185.6023639802921
 30
0.0
  0
LINE
  5
235
330
1F
100
AcDbEntity
  8
0
  6
Continuous
 62
     7
100
AcDbLine
 10
163.8935909295
 20
185.2616422572
 30
0.0
 11
164.000066468
 21
185.3681177956
 31
0.0
  0
SPLINE
  5
236
330
1F
100
AcDbEntity
  8
0
  6
Continuous
 62
     7
100
AcDbSpline
210
0.0
220
0.0
230
1.0
 70
     8
 71
     3
 72
    11
 73
     7
 74
     0
 42
0.0000000001
 43
0.0000000001
 40
0.0
 40
0.0
 40
0.0
 40
0.0
 40
0.1181466373176096
 40
0.4375861393142089
 40
0.7149882056276873
 40
1.0
 40
1.0
 40
1.0
 40
1.0
 10
163.6646685217984
 20
184.8197687724653
 30
0.0
 10
163.6655974670409
 20
184.8398533962854
 30
0.0
 10
163.6690380521607
 20
184.9142419120871
 30
0.0
 10
163.7124849707677
 20
185.0308699982529
 30
0.0
 10
163.7947108924544
 20
185.1566623840625
 30
0.0
 10
163.8603349422629
 20
185.2263347327443
 30
0.0
 10
163.8935909295301
 20
185.2616422571565
 30
0.0
  0
LINE
  5
237
330
1F
100
AcDbEntity
  8
0
  6
Continuous
 62
     7
100
AcDbLine
 10
164.4468693758
 20
177.8743455294
 30
0.0
 11
164.4362218219
 21
177.9808210679
 31
0.0
  0
SPLINE
  5
238
330
1F
100
AcDbEntity
  8
0
  6
Continuous
 62
     7
100
AcDbSpline
210
0.0
220
0.0
230
1.0
 70
     8
 71
     3
 72
    11
 73
     7
 74
     0
 42
0.0000000001
 43
0.0000000001
 40
0.0
 40
0.0
 40
0.0
 40
0.0
 40
0.1283636982824322
 40
0.3865598605010221
 40
0.6895996019630861
 40
1.0
 40
1.0
 40
1.0
 40
1.0
 10
164.2179469680472
 20
178.2736287986982
 30
0.0
 10
164.2194272921857
 20
178.2534769343577
 30
0.0
 10
164.2238852027955
 20
178.1927907592745
 30
0.0
 10
164.2685739966926
 20
178.0917383869044
 30
0.0
 10
164.3466314068644
 20
177.9792729655086
 30
0.0
 10
164.4131905056868
 20
177.9096000095934
 30
0.0
 10
164.4468693757789
 20
177.8743455293989
 30
0.0
  0
SPLINE
  5
239
330
1F
100
AcDbEntity
  8
0
  6
Continuous
 62
     7
100
AcDbSpline
210
0.0
220
0.0
230
1.0
 70
     8
 71
     3
 72
    10
 73
     6
 74
     0
 42
0.0000000001
 43
0.0000000001
 40
0.0
 40
0.0
 40
0.0
 40
0.0
 40
0.4262027782790227
 40
0.8531827412959851
 40
1.0
 40
1.0
 40
1.0
 40
1.0
 10
164.2658609603631
 20
178.3960756679501
 30
0.0
 10
164.2535951377882
 20
178.3811278617907
 30
0.0
 10
164.2290411257962
 20
178.351204992008
 30
0.0
 10
164.2188218383563
 20
178.305891222002
 30
0.0
 10
164.218125213231
 20
178.2802019118915
 30
0.0
 10
164.2179469680472
 20
178.2736287986982
 30
0.0
  0
SPLINE
  5
23A
330
1F
100
AcDbEntity
  8
0
  6
Continuous
 62
     7
100
AcDbSpline
210
0.0
220
0.0
230
1.0
 70
     8
 71
     3
 72
    10
 73
     6
 74
     0
 42
0.0000000001
 43
0.0000000001
 40
0.0
 40
0.0
 40
0.0
 40
0.0
 40
0.3093487254198015
 40
0.711923344512019
 40
1.0
 40
1.0
 40
1.0
 40
1.0
 10
164.351041391147
 20
178.4386658833419
 30
0.0
 10
164.34097551224
 20
178.4375330868714
 30
0.0
 10
164.3178102828788
 20
178.4349261123287
 30
0.0
 10
164.289165434791
 20
178.4175775795866
 30
0.0
 10
164.2727203488049
 20
178.4024044939706
 30
0.0
 10
164.2658609603631
 20
178.3960756679501
 30
0.0
  0
SPLINE
  5
23B
330
1F
100
AcDbEntity
  8
0
  6
Continuous
 62
     7
100
AcDbSpline
210
0.0
220
0.0
230
1.0
 70
     8
 71
     3
 72
    10
 73
     6
 74
     0
 42
0.0000000001
 43
0.0000000001
 40
0.0
 40
0.0
 40
0.0
 40
0.0
 40
0.3332948860470992
 40
0.6671392199165675
 40
1.0
 40
1.0
 40
1.0
 40
1.0
 10
164.5107546988668
 20
178.364133006406
 30
0.0
 10
164.4965390820255
 20
178.3785846946836
 30
0.0
 10
164.4680844134207
 20
178.4075118953328
 30
0.0
 10
164.4117497220004
 20
178.4342490779805
 30
0.0
 10
164.3712575894847
 20
178.4371950635722
 30
0.0
 10
164.351041391147
 20
178.4386658833419
 30
0.0
  0
LINE
  5
23C
330
1F
100
AcDbEntity
  8
0
  6
Continuous
 62
     7
100
AcDbLine
 10
164.6332015681
 20
178.4865798757
 30
0.0
 11
164.5107546989
 21
178.3641330064
 31
0.0
  0
SPLINE
  5
23D
330
1F
100
AcDbEntity
  8
0
  6
Continuous
 62
     7
100
AcDbSpline
210
0.0
220
0.0
230
1.0
 70
     8
 71
     3
 72
    10
 73
     6
 74
     0
 42
0.0000000001
 43
0.0000000001
 40
0.0
 40
0.0
 40
0.0
 40
0.0
 40
0.2143836977671247
 40
0.5858724853148422
 40
1.0
 40
1.0
 40
1.0
 40
1.0
 10
164.3829840526911
 20
178.5983791910617
 30
0.0
 10
164.4030527519715
 20
178.5973312115183
 30
0.0
 10
164.4578969348408
 20
178.5944672699684
 30
0.0
 10
164.5482934755705
 20
178.5610167145501
 30
0.0
 10
164.6038929966989
 20
178.5122739802298
 30
0.0
 10
164.6332015681186
 20
178.4865798756579
 30
0.0
  0
SPLINE
  5
23E
330
1F
100
AcDbEntity
  8
0
  6
Continuous
 62
     7
100
AcDbSpline
210
0.0
220
0.0
230
1.0
 70
     8
 71
     3
 72
    10
 73
     6
 74
     0
 42
0.0000000001
 43
0.0000000001
 40
0.0
 40
0.0
 40
0.0
 40
0.0
 40
0.2442224630077935
 40
0.7198189196627448
 40
1.0
 40
1.0
 40
1.0
 40
1.0
 10
164.1647091988073
 20
178.4972274295059
 30
0.0
 10
164.1794072906182
 20
178.5107978651017
 30
0.0
 10
164.2227283039193
 20
178.5507952354073
 30
0.0
 10
164.2977741024134
 20
178.5917406583511
 30
0.0
 10
164.3599385221796
 20
178.5965837609783
 30
0.0
 10
164.3829840526911
 20
178.5983791910617
 30
0.0
  0
SPLINE
  5
23F
330
1F
100
AcDbEntity
  8
0
  6
Continuous
 62
     7
100
AcDbSpline
210
0.0
220
0.0
230
1.0
 70
     8
 71
     3
 72
    10
 73
     6
 74
     0
 42
0.0000000001
 43
0.0000000001
 40
0.0
 40
0.0
 40
0.0
 40
0.0
 40
0.2176849542831115
 40
0.6265923942263512
 40
1.0
 40
1.0
 40
1.0
 40
1.0
 10
164.0635574372515
 20
178.2470099140781
 30
0.0
 10
164.0644125992974
 20
178.2670433010084
 30
0.0
 10
164.0668741292439
 20
178.3247081401905
 30
0.0
 10
164.0951026794377
 20
178.4156347152927
 30
0.0
 10
164.1422197168278
 20
178.4708652741708
 30
0.0
 10
164.1647091988073
 20
178.4972274295059
 30
0.0
  0
SPLINE
  5
240
330
1F
100
AcDbEntity
  8
0
  6
Continuous
 62
     7
100
AcDbSpline
210
0.0
220
0.0
230
1.0
 70
     8
 71
     3
 72
    12
 73
     8
 74
     0
 42
0.0000000001
 43
0.0000000001
 40
0.0
 40
0.0
 40
0.0
 40
0.0
 40
0.0996277139874748
 40
0.4997346304582122
 40
0.6615655060812593
 40
0.8269526048866831
 40
1.0
 40
1.0
 40
1.0
 40
1.0
 10
164.345717614223
 20
177.7306035524511
 30
0.0
 10
164.3316923800525
 20
177.7448540592355
 30
0.0
 10
164.2613415214934
 20
177.816334889787
 30
0.0
 10
164.1770961913252
 20
177.9207751801173
 30
0.0
 10
164.1074857441991
 20
178.0492313116987
 30
0.0
 10
164.0715074839761
 20
178.1441286035279
 30
0.0
 10
164.0662471412395
 20
178.212202537359
 30
0.0
 10
164.0635574372515
 20
178.2470099140781
 30
0.0
  0
SPLINE
  5
241
330
1F
100
AcDbEntity
  8
0
  6
Continuous
 62
     7
100
AcDbSpline
210
0.0
220
0.0
230
1.0
 70
     8
 71
     3
 72
    11
 73
     7
 74
     0
 42
0.0000000001
 43
0.0000000001
 40
0.0
 40
0.0
 40
0.0
 40
0.0
 40
0.1030327245120918
 40
0.3854664676070036
 40
0.6489194347434664
 40
1.0
 40
1.0
 40
1.0
 40
1.0
 10
164.8461526450781
 20
177.4537671524035
 30
0.0
 10
164.8260443408509
 20
177.4548096358738
 30
0.0
 10
164.7508150674642
 20
177.458709779471
 30
0.0
 10
164.6300361917682
 20
177.5056778210403
 30
0.0
 10
164.4828190840065
 20
177.6008036213734
 30
0.0
 10
164.3955653345766
 20
177.683410545137
 30
0.0
 10
164.345717614223
 20
177.7306035524511
 30
0.0
  0
SPLINE
  5
242
330
1F
100
AcDbEntity
  8
0
  6
Continuous
 62
     7
100
AcDbSpline
210
0.0
220
0.0
230
1.0
 70
     8
 71
     3
 72
    10
 73
     6
 74
     0
 42
0.0000000001
 43
0.0000000001
 40
0.0
 40
0.0
 40
0.0
 40
0.0
 40
0.2326036830495025
 40
0.620454909667954
 40
1.0
 40
1.0
 40
1.0
 40
1.0
 10
165.080398829734
 20
177.5495951370354
 30
0.0
 10
165.0654894587975
 20
177.536086617436
 30
0.0
 10
165.0257196998828
 20
177.5000535366269
 30
0.0
 10
164.9456338880545
 20
177.4609911650089
 30
0.0
 10
164.8790729120701
 20
177.456157717867
 30
0.0
 10
164.8461526450783
 20
177.4537671524035
 30
0.0
  0
SPLINE
  5
243
330
1F
100
AcDbEntity
  8
0
  6
Continuous
 62
     7
100
AcDbSpline
210
0.0
220
0.0
230
1.0
 70
     8
 71
     3
 72
    10
 73
     6
 74
     0
 42
0.0000000001
 43
0.0000000001
 40
0.0
 40
0.0
 40
0.0
 40
0.0
 40
0.2451489449290371
 40
0.6167896696835714
 40
1.0
 40
1.0
 40
1.0
 40
1.0
 10
165.1815505912898
 20
177.767869990919
 30
0.0
 10
165.1801857192628
 20
177.7477077932006
 30
0.0
 10
165.1767517295021
 20
177.6969801211957
 30
0.0
 10
165.1427159825363
 20
177.6195770098815
 30
0.0
 10
165.1013823874017
 20
177.5731595747308
 30
0.0
 10
165.080398829734
 20
177.5495951370354
 30
0.0
  0
SPLINE
  5
244
330
1F
100
AcDbEntity
  8
0
  6
Continuous
 62
     7
100
AcDbSpline
210
0.0
220
0.0
230
1.0
 70
     8
 71
     3
 72
    11
 73
     7
 74
     0
 42
0.0000000001
 43
0.0000000001
 40
0.0
 40
0.0
 40
0.0
 40
0.0
 40
0.1517819012368963
 40
0.3752205275469992
 40
0.6053151617953626
 40
1.0
 40
1.0
 40
1.0
 40
1.0
 10
165.0218372835699
 20
178.1192392679025
 30
0.0
 10
165.0356235452677
 20
178.104714146904
 30
0.0
 10
165.0697046072716
 20
178.0688065484401
 30
0.0
 10
165.1167193011811
 20
178.0040528882034
 30
0.0
 10
165.1677812125364
 20
177.9030643808506
 30
0.0
 10
165.1762197867009
 20
177.8202103969131
 30
0.0
 10
165.1815505912898
 20
177.767869990919
 30
0.0
  0
SPLINE
  5
245
330
1F
100
AcDbEntity
  8
0
  6
Continuous
 62
     7
100
AcDbSpline
210
0.0
220
0.0
230
1.0
 70
     8
 71
     3
 72
    11
 73
     7
 74
     0
 42
0.0000000001
 43
0.0000000001
 40
0.0
 40
0.0
 40
0.0
 40
0.0
 40
0.1698196050904994
 40
0.5128396617040209
 40
0.7529803904626885
 40
1.0
 40
1.0
 40
1.0
 40
1.0
 10
164.7077344450545
 20
178.2629812448502
 30
0.0
 10
164.7277987470785
 20
178.262045688137
 30
0.0
 10
164.7883911024594
 20
178.2592203925058
 30
0.0
 10
164.8743460065851
 20
178.2300675103851
 30
0.0
 10
164.9582024797774
 20
178.178386911847
 30
0.0
 10
165.0004269407348
 20
178.1391398766774
 30
0.0
 10
165.0218372835699
 20
178.1192392679025
 30
0.0
  0
SPLINE
  5
246
330
1F
100
AcDbEntity
  8
0
  6
Continuous
 62
     7
100
AcDbSpline
210
0.0
220
0.0
230
1.0
 70
     8
 71
     3
 72
    10
 73
     6
 74
     0
 42
0.0000000001
 43
0.0000000001
 40
0.0
 40
0.0
 40
0.0
 40
0.0
 40
0.2906698954889933
 40
0.7214597322665174
 40
1.0
 40
1.0
 40
1.0
 40
1.0
 10
164.5214022527148
 20
178.1831245909904
 30
0.0
 10
164.5364018225168
 20
178.1965747003624
 30
0.0
 10
164.5736316346902
 20
178.2299586608518
 30
0.0
 10
164.6392577580527
 20
178.2589264010176
 30
0.0
 10
164.6884267349876
 20
178.2618379396976
 30
0.0
 10
164.7077344450545
 20
178.2629812448502
 30
0.0
  0
SPLINE
  5
247
330
1F
100
AcDbEntity
  8
0
  6
Continuous
 62
     7
100
AcDbSpline
210
0.0
220
0.0
230
1.0
 70
     8
 71
     3
 72
    10
 73
     6
 74
     0
 42
0.0000000001
 43
0.0000000001
 40
0.0
 40
0.0
 40
0.0
 40
0.0
 40
0.268638553589092
 40
0.6669072879833184
 40
1.0
 40
1.0
 40
1.0
 40
1.0
 10
164.4362218219309
 20
177.9808210678786
 30
0.0
 10
164.4373672742984
 20
178.0009671994249
 30
0.0
 10
164.4402109113034
 20
178.0509808768116
 30
0.0
 10
164.4686249996489
 20
178.1229145208798
 30
0.0
 10
164.5048870104027
 20
178.1642834456155
 30
0.0
 10
164.5214022527148
 20
178.1831245909904
 30
0.0
  0
SPLINE
  5
248
330
1F
100
AcDbEntity
  8
0
  6
Continuous
 62
     7
100
AcDbSpline
210
0.0
220
0.0
230
1.0
 70
     8
 71
     3
 72
    11
 73
     7
 74
     0
 42
0.0000000001
 43
0.0000000001
 40
0.0
 40
0.0
 40
0.0
 40
0.0
 40
0.1568378502198041
 40
0.422332832777111
 40
0.8270355859749102
 40
1.0
 40
1.0
 40
1.0
 40
1.0
 10
165.4042530008963
 20
180.1324158064014
 30
0.0
 10
165.385021198283
 20
180.1380043426432
 30
0.0
 10
165.3332338161828
 20
180.1530531483924
 30
0.0
 10
165.2363192639019
 20
180.1949156864506
 30
0.0
 10
165.1462883760129
 20
180.2600131839878
 30
0.0
 10
165.1057620608569
 20
180.3218463831521
 30
0.0
 10
165.0936277199228
 20
180.3403604058758
 30
0.0
  0
SPLINE
  5
249
330
1F
100
AcDbEntity
  8
0
  6
Continuous
 62
     7
100
AcDbSpline
210
0.0
220
0.0
230
1.0
 70
     8
 71
     3
 72
    11
 73
     7
 74
     0
 42
0.0000000001
 43
0.0000000001
 40
0.0
 40
0.0
 40
0.0
 40
0.0
 40
0.1647247722922975
 40
0.4971502472176974
 40
0.7457312947763116
 40
1.0
 40
1.0
 40
1.0
 40
1.0
 10
165.7607412183718
 20
180.1538133323134
 30
0.0
 10
165.7427276530787
 20
180.144785241977
 30
0.0
 10
165.6883615227506
 20
180.1175378687969
 30
0.0
 10
165.5961712272492
 20
180.1044360425913
 30
0.0
 10
165.4942477890711
 20
180.1109369272073
 30
0.0
 10
165.4344766178536
 20
180.1252023951516
 30
0.0
 10
165.4042530008963
 20
180.1324158064014
 30
0.0
  0
SPLINE
  5
24A
330
1F
100
AcDbEntity
  8
0
  6
Continuous
 62
     7
100
AcDbSpline
210
0.0
220
0.0
230
1.0
 70
     8
 71
     3
 72
    10
 73
     6
 74
     0
 42
0.0000000001
 43
0.0000000001
 40
0.0
 40
0.0
 40
0.0
 40
0.0
 40
0.241433701194647
 40
0.6740619666231038
 40
1.0
 40
1.0
 40
1.0
 40
1.0
 10
165.9064693205867
 20
180.3486021168019
 30
0.0
 10
165.9004525821597
 20
180.3294703715419
 30
0.0
 10
165.8836543699935
 20
180.2760561970869
 30
0.0
 10
165.8355558595487
 20
180.2047020486703
 30
0.0
 10
165.7832260866101
 20
180.1691074788079
 30
0.0
 10
165.7607412183718
 20
180.1538133323134
 30
0.0
  0
SPLINE
  5
24B
330
1F
100
AcDbEntity
  8
0
  6
Continuous
 62
     7
100
AcDbSpline
210
0.0
220
0.0
230
1.0
 70
     8
 71
     3
 72
    10
 73
     6
 74
     0
 42
0.0000000001
 43
0.0000000001
 40
0.0
 40
0.0
 40
0.0
 40
0.0
 40
0.3303951812364024
 40
0.6608589490370632
 40
1.0
 40
1.0
 40
1.0
 40
1.0
 10
165.8838876170482
 20
180.5261329746758
 30
0.0
 10
165.89280376684
 20
180.5079081963564
 30
0.0
 10
165.9106379173224
 20
180.4714548564453
 30
0.0
 10
165.9186258102181
 20
180.4093395007291
 30
0.0
 10
165.9105563407107
 20
180.3690220667972
 30
0.0
 10
165.9064693205867
 20
180.3486021168019
 30
0.0
  0
SPLINE
  5
24C
330
1F
100
AcDbEntity
  8
0
  6
Continuous
 62
     7
100
AcDbSpline
210
0.0
220
0.0
230
1.0
 70
     8
 71
     3
 72
    10
 73
     6
 74
     0
 42
0.0000000001
 43
0.0000000001
 40
0.0
 40
0.0
 40
0.0
 40
0.0
 40
0.4868431834051473
 40
0.7428533835272363
 40
1.0
 40
1.0
 40
1.0
 40
1.0
 10
165.8088326042414
 20
180.6241894086758
 30
0.0
 10
165.8224655302731
 20
180.6094087842769
 30
0.0
 10
165.8432674344082
 20
180.5868556558371
 30
0.0
 10
165.8675391194875
 20
180.5533996944921
 30
0.0
 10
165.8784300783022
 20
180.53523529
 30
0.0
 10
165.8838876170482
 20
180.5261329746758
 30
0.0
  0
SPLINE
  5
24D
330
1F
100
AcDbEntity
  8
0
  6
Continuous
 62
     7
100
AcDbSpline
210
0.0
220
0.0
230
1.0
 70
     8
 71
     3
 72
    11
 73
     7
 74
     0
 42
0.0000000001
 43
0.0000000001
 40
0.0
 40
0.0
 40
0.0
 40
0.0
 40
0.1344397574921572
 40
0.4021391820344299
 40
0.6973065059204659
 40
1.0
 40
1.0
 40
1.0
 40
1.0
 10
166.1849096159155
 20
180.398707070817
 30
0.0
 10
166.1736693919314
 20
180.415457354008
 30
0.0
 10
166.1400473848464
 20
180.4655611723049
 30
0.0
 10
166.054985340738
 20
180.529618766491
 30
0.0
 10
165.9382210373789
 20
180.5860930089972
 30
0.0
 10
165.8523225263883
 20
180.6113844815589
 30
0.0
 10
165.8088326042414
 20
180.6241894086758
 30
0.0
  0
SPLINE
  5
24E
330
1F
100
AcDbEntity
  8
0
  6
Continuous
 62
     7
100
AcDbSpline
210
0.0
220
0.0
230
1.0
 70
     8
 71
     3
 72
    10
 73
     6
 74
     0
 42
0.0000000001
 43
0.0000000001
 40
0.0
 40
0.0
 40
0.0
 40
0.0
 40
0.4881713996969338
 40
0.7381176105563286
 40
1.0
 40
1.0
 40
1.0
 40
1.0
 10
166.1993145390751
 20
180.2779290273936
 30
0.0
 10
166.2029527562303
 20
180.298137864548
 30
0.0
 10
166.2084537588597
 20
180.3286937279225
 30
0.0
 10
166.1993895968342
 20
180.3699435203991
 30
0.0
 10
166.1898107379783
 20
180.3889713071893
 30
0.0
 10
166.1849096159155
 20
180.398707070817
 30
0.0
  0
SPLINE
  5
24F
330
1F
100
AcDbEntity
  8
0
  6
Continuous
 62
     7
100
AcDbSpline
210
0.0
220
0.0
230
1.0
 70
     8
 71
     3
 72
    10
 73
     6
 74
     0
 42
0.0000000001
 43
0.0000000001
 40
0.0
 40
0.0
 40
0.0
 40
0.0
 40
0.4322895214058686
 40
0.8656679884331527
 40
1.0
 40
1.0
 40
1.0
 40
1.0
 10
166.1264504879676
 20
180.1805346351493
 30
0.0
 10
166.1412768396197
 20
180.1910033703902
 30
0.0
 10
166.1709668907891
 20
180.2119672118173
 30
0.0
 10
166.1909733546758
 20
180.2500616742443
 30
0.0
 10
166.1977184988141
 20
180.2725967609595
 30
0.0
 10
166.1993145390751
 20
180.2779290273936
 30
0.0
  0
SPLINE
  5
250
330
1F
100
AcDbEntity
  8
0
  6
Continuous
 62
     7
100
AcDbSpline
210
0.0
220
0.0
230
1.0
 70
     8
 71
     3
 72
    10
 73
     6
 74
     0
 42
0.0000000001
 43
0.0000000001
 40
0.0
 40
0.0
 40
0.0
 40
0.0
 40
0.3736335981798256
 40
0.7497735856613441
 40
1.0
 40
1.0
 40
1.0
 40
1.0
 10
165.969310371933
 20
180.1758728999812
 30
0.0
 10
165.9887835387342
 20
180.1714602564223
 30
0.0
 10
166.0278605012125
 20
180.1626053686405
 30
0.0
 10
166.0830863951701
 20
180.1615472701454
 30
0.0
 10
166.1140720595208
 20
180.1751146269367
 30
0.0
 10
166.1264504879676
 20
180.1805346351493
 30
0.0
  0
LINE
  5
251
330
1F
100
AcDbEntity
  8
0
  6
Continuous
 62
     7
100
AcDbLine
 10
165.9244917072
 20
180.0086073659999
 30
0.0
 11
165.9693103719
 21
180.1758729
 31
0.0
  0
SPLINE
  5
252
330
1F
100
AcDbEntity
  8
0
  6
Continuous
 62
     7
100
AcDbSpline
210
0.0
220
0.0
230
1.0
 70
     8
 71
     3
 72
    10
 73
     6
 74
     0
 42
0.0000000001
 43
0.0000000001
 40
0.0
 40
0.0
 40
0.0
 40
0.0
 40
0.2197678580154733
 40
0.5962371311384879
 40
1.0
 40
1.0
 40
1.0
 40
1.0
 10
166.1898136751847
 20
180.0388437140159
 30
0.0
 10
166.1719660654276
 20
180.0296685120055
 30
0.0
 10
166.1235449371727
 20
180.0047758995292
 30
0.0
 10
166.031122450983
 20
179.9878966468725
 30
0.0
 10
165.9608546433637
 20
180.0015446509391
 30
0.0
 10
165.924491707173
 20
180.0086073659693
 30
0.0
  0
SPLINE
  5
253
330
1F
100
AcDbEntity
  8
0
  6
Continuous
 62
     7
100
AcDbSpline
210
0.0
220
0.0
230
1.0
 70
     8
 71
     3
 72
    10
 73
     6
 74
     0
 42
0.0000000001
 43
0.0000000001
 40
0.0
 40
0.0
 40
0.0
 40
0.0
 40
0.2345977398798438
 40
0.6899071485919255
 40
1.0
 40
1.0
 40
1.0
 40
1.0
 10
166.3374904149979
 20
180.2409049130267
 30
0.0
 10
166.3315748366521
 20
180.2217723061291
 30
0.0
 10
166.3141782505172
 20
180.1655069632638
 30
0.0
 10
166.2659585362382
 20
180.0910082738601
 30
0.0
 10
166.2117681934629
 20
180.0538840958189
 30
0.0
 10
166.1898136751847
 20
180.0388437140159
 30
0.0
  0
SPLINE
  5
254
330
1F
100
AcDbEntity
  8
0
  6
Continuous
 62
     7
100
AcDbSpline
210
0.0
220
0.0
230
1.0
 70
     8
 71
     3
 72
    10
 73
     6
 74
     0
 42
0.0000000001
 43
0.0000000001
 40
0.0
 40
0.0
 40
0.0
 40
0.0
 40
0.2414372581796733
 40
0.6429073122533973
 40
1.0
 40
1.0
 40
1.0
 40
1.0
 10
166.3086805686787
 20
180.4824609998734
 30
0.0
 10
166.3178112084441
 20
180.4645646505522
 30
0.0
 10
166.342124585406
 20
180.4169096451566
 30
0.0
 10
166.3555384072841
 20
180.3321795967883
 30
0.0
 10
166.3432671144188
 20
180.2701195982098
 30
0.0
 10
166.3374904149979
 20
180.2409049130267
 30
0.0
  0
SPLINE
  5
255
330
1F
100
AcDbEntity
  8
0
  6
Continuous
 62
     7
100
AcDbSpline
210
0.0
220
0.0
230
1.0
 70
     8
 71
     3
 72
    11
 73
     7
 74
     0
 42
0.0000000001
 43
0.0000000001
 40
0.0
 40
0.0
 40
0.0
 40
0.0
 40
0.0944206839034446
 40
0.4736642765873552
 40
0.6629772521500941
 40
1.0
 40
1.0
 40
1.0
 40
1.0
 10
165.780927123779
 20
180.8109413186702
 30
0.0
 10
165.8001862111778
 20
180.8055424128839
 30
0.0
 10
165.8968000178503
 20
180.778458635284
 30
0.0
 10
166.0280901218276
 20
180.7270827109528
 30
0.0
 10
166.1947774044077
 20
180.6283989347945
 30
0.0
 10
166.2642170478016
 20
180.5394296930406
 30
0.0
 10
166.3086805686787
 20
180.4824609998734
 30
0.0
  0
SPLINE
  5
256
330
1F
100
AcDbEntity
  8
0
  6
Continuous
 62
     7
100
AcDbSpline
210
0.0
220
0.0
230
1.0
 70
     8
 71
     3
 72
    11
 73
     7
 74
     0
 42
0.0000000001
 43
0.0000000001
 40
0.0
 40
0.0
 40
0.0
 40
0.0
 40
0.1100205491554655
 40
0.3969517033448595
 40
0.6954472822238838
 40
1.0
 40
1.0
 40
1.0
 40
1.0
 10
165.2440550449746
 20
180.8144938515498
 30
0.0
 10
165.2621896743271
 20
180.8233454563261
 30
0.0
 10
165.3276190151753
 20
180.8552818502112
 30
0.0
 10
165.4577853219461
 20
180.8662093444431
 30
0.0
 10
165.6195804627764
 20
180.8507966132748
 30
0.0
 10
165.7267859721814
 20
180.824315078832
 30
0.0
 10
165.780927123779
 20
180.8109413186702
 30
0.0
  0
SPLINE
  5
257
330
1F
100
AcDbEntity
  8
0
  6
Continuous
 62
     7
100
AcDbSpline
210
0.0
220
0.0
230
1.0
 70
     8
 71
     3
 72
    10
 73
     6
 74
     0
 42
0.0000000001
 43
0.0000000001
 40
0.0
 40
0.0
 40
0.0
 40
0.0
 40
0.2156076626145885
 40
0.6022752155963831
 40
1.0
 40
1.0
 40
1.0
 40
1.0
 10
165.0706637863983
 20
180.6037337362893
 30
0.0
 10
165.0769326336086
 20
180.6228672457471
 30
0.0
 10
165.0944439375171
 20
180.6763145045044
 30
0.0
 10
165.1517804474253
 20
180.7535092107354
 30
0.0
 10
165.2130091411976
 20
180.7939754928586
 30
0.0
 10
165.2440550449746
 20
180.8144938515498
 30
0.0
  0
SPLINE
  5
258
330
1F
100
AcDbEntity
  8
0
  6
Continuous
 62
     7
100
AcDbSpline
210
0.0
220
0.0
230
1.0
 70
     8
 71
     3
 72
    10
 73
     6
 74
     0
 42
0.0000000001
 43
0.0000000001
 40
0.0
 40
0.0
 40
0.0
 40
0.0
 40
0.222589322429218
 40
0.5975186993755984
 40
1.0
 40
1.0
 40
1.0
 40
1.0
 10
165.0936277199228
 20
180.3403604058758
 30
0.0
 10
165.0846358579832
 20
180.3583935125668
 30
0.0
 10
165.0604981069335
 20
180.4068015778687
 30
0.0
 10
165.049201408178
 20
180.4991139967439
 30
0.0
 10
165.0633426027136
 20
180.56804615673
 30
0.0
 10
165.0706637863983
 20
180.6037337362893
 30
0.0
  0
ARC
  5
259
330
1F
100
AcDbEntity
  8
0
  6
Continuous
 62
     7
100
AcDbCircle
 10
160.5993627499
 20
181.3137776526
 30
0.0
 40
8.50000177810719
100
AcDbArc
 50
5.337085877799999
 51
7.895364823399999
  0
LINE
  5
25A
330
1F
100
AcDbEntity
  8
0
  6
Continuous
 62
     7
100
AcDbLine
 10
167.120083088
 20
181.9344651991
 30
0.0
 11
167.9887275722
 21
182.0104617441
 31
0.0
  0
LINE
  5
25B
330
1F
100
AcDbEntity
  8
0
  6
Continuous
 62
     7
100
AcDbLine
 10
168.0135718474
 20
182.0126353365
 30
0.0
 11
169.0625144774
 21
182.1044059253
 31
0.0
  0
ARC
  5
25C
330
1F
100
AcDbEntity
  8
0
  6
Continuous
 62
     7
100
AcDbCircle
 10
167.1244408751
 20
181.8846554642
 30
0.0
 40
0.0500000000000528
100
AcDbArc
 50
95.0
 51
275.0000000001
  0
LINE
  5
25D
330
1F
100
AcDbEntity
  8
0
  6
Continuous
 62
     7
100
AcDbLine
 10
169.0712300952
 20
182.0047864593
 30
0.0
 11
167.1287986623
 21
181.8348457293
 31
0.0
  0
ARC
  5
25E
330
1F
100
AcDbEntity
  8
0
  6
Continuous
 62
     7
100
AcDbCircle
 10
160.5993627499
 20
181.3137776526
 30
0.0
 40
8.500001734468181
100
AcDbArc
 50
0.3370359408
 51
4.6630141354
  0
LINE
  5
25F
330
1F
100
AcDbEntity
  8
0
  6
Continuous
 62
     7
100
AcDbLine
 10
168.292183073
 20
181.3637776526
 30
0.0
 11
169.0992156898
 21
181.3637776526
 31
0.0
  0
LINE
  5
260
330
1F
100
AcDbEntity
  8
0
  6
Continuous
 62
     7
100
AcDbLine
 10
167.5993627499
 20
181.7637776525999
 30
0.0
 11
168.292183073
 21
181.3637776526
 31
0.0
  0
LINE
  5
261
330
1F
100
AcDbEntity
  8
0
  6
Continuous
 62
     7
100
AcDbLine
 10
167.5993627499
 20
180.8637776526
 30
0.0
 11
167.5993627499
 21
181.7637776525999
 31
0.0
  0
LINE
  5
262
330
1F
100
AcDbEntity
  8
0
  6
Continuous
 62
     7
100
AcDbLine
 10
168.292183073
 20
181.2637776525999
 30
0.0
 11
167.5993627499
 21
180.8637776526
 31
0.0
  0
LINE
  5
263
330
1F
100
AcDbEntity
  8
0
  6
Continuous
 62
     7
100
AcDbLine
 10
169.0992156898
 20
181.2637776525999
 30
0.0
 11
168.292183073
 21
181.2637776525999
 31
0.0
  0
ARC
  5
264
330
1F
100
AcDbEntity
  8
0
  6
Continuous
 62
     7
100
AcDbCircle
 10
160.5993627499
 20
181.3137776526
 30
0.0
 40
8.500001790410786
100
AcDbArc
 50
355.3370999766
 51
359.6629640591999
  0
LINE
  5
265
330
1F
100
AcDbEntity
  8
0
  6
Continuous
 62
     7
100
AcDbLine
 10
167.12880015
 20
180.7927264394
 30
0.0
 11
169.0712315271
 21
180.6227857142
 31
0.0
  0
ARC
  5
266
330
1F
100
AcDbEntity
  8
0
  6
Continuous
 62
     7
100
AcDbCircle
 10
167.1244423628
 20
180.7429167045
 30
0.0
 40
0.0500000000000036
100
AcDbArc
 50
85.0
 51
264.9999999999
  0
LINE
  5
267
330
1F
100
AcDbEntity
  8
0
  6
Continuous
 62
     7
100
AcDbLine
 10
169.0625160086
 20
180.5231662395
 30
0.0
 11
167.1200845757
 21
180.6931069696
 31
0.0
  0
ARC
  5
268
330
1F
100
AcDbEntity
  8
0
  6
Continuous
 62
     7
100
AcDbCircle
 10
160.5993627499
 20
181.3137776526
 30
0.0
 40
8.500001734468185
100
AcDbArc
 50
350.33448441
 51
354.6630282347
  0
LINE
  5
269
330
1F
100
AcDbEntity
  8
0
  6
Continuous
 62
     7
100
AcDbLine
 10
167.5505402312
 20
180.1384844855
 30
0.0
 11
168.9787026886
 21
179.8866609115
 31
0.0
  0
ARC
  5
26A
330
1F
100
AcDbEntity
  8
0
  6
Continuous
 62
     7
100
AcDbCircle
 10
167.5418578223
 20
180.0892440979
 30
0.0
 40
0.0499999999999885
100
AcDbArc
 50
80.0
 51
260.0000000001
  0
LINE
  5
26B
330
1F
100
AcDbEntity
  8
0
  6
Continuous
 62
     7
100
AcDbLine
 10
168.9613334852
 20
179.7881809095
 30
0.0
 11
167.5331754134
 21
180.0400037102
 31
0.0
  0
ARC
  5
26C
330
1F
100
AcDbEntity
  8
0
  6
Continuous
 62
     7
100
AcDbCircle
 10
160.5993627499
 20
181.3137776526
 30
0.0
 40
8.50000162093325
100
AcDbArc
 50
345.3371138828
 51
349.6604125276001
  0
LINE
  5
26D
330
1F
100
AcDbEntity
  8
0
  6
Continuous
 62
     7
100
AcDbLine
 10
166.9391239252
 20
179.666819555
 30
0.0
 11
168.8225356716
 21
179.1621608985
 31
0.0
  0
ARC
  5
26E
330
1F
100
AcDbEntity
  8
0
  6
Continuous
 62
     7
100
AcDbCircle
 10
166.9261829729
 20
179.6185232636999
 30
0.0
 40
0.0500000000000714
100
AcDbArc
 50
75.0000000001
 51
255.0
  0
LINE
  5
26F
330
1F
100
AcDbEntity
  8
0
  6
Continuous
 62
     7
100
AcDbLine
 10
168.7966538328
 20
179.0655682983
 30
0.0
 11
166.9132420207
 21
179.5702269724
 31
0.0
  0
ARC
  5
270
330
1F
100
AcDbEntity
  8
0
  6
Continuous
 62
     7
100
AcDbCircle
 10
160.5993627499
 20
181.3137776526
 30
0.0
 40
8.500001552861196
100
AcDbArc
 50
340.3351955124
 51
344.663042127
  0
LINE
  5
271
330
1F
100
AcDbEntity
  8
0
  6
Continuous
 62
     7
100
AcDbLine
 10
167.2410113059
 20
178.9493338356
 30
0.0
 11
168.6036209664
 21
178.4533842523
 31
0.0
  0
ARC
  5
272
330
1F
100
AcDbEntity
  8
0
  6
Continuous
 62
     7
100
AcDbCircle
 10
167.2239102987
 20
178.9023492046
 30
0.0
 40
0.0500000000000588
100
AcDbArc
 50
70.0
 51
250.0
  0
LINE
  5
273
330
1F
100
AcDbEntity
  8
0
  6
Continuous
 62
     7
100
AcDbLine
 10
168.5694160789
 20
178.3594164808
 30
0.0
 11
167.2068092916
 21
178.8553645735
 31
0.0
  0
ARC
  5
274
330
1F
100
AcDbEntity
  8
0
  6
Continuous
 62
     7
100
AcDbCircle
 10
160.5993627499
 20
181.3137776526
 30
0.0
 40
8.50000127482381
100
AcDbArc
 50
335.3371271739
 51
339.6611264481
  0
LINE
  5
275
330
1F
100
AcDbEntity
  8
0
  6
Continuous
 62
     7
100
AcDbLine
 10
166.5568176298
 20
178.5909546569
 30
0.0
 11
168.3239833774
 21
177.7669117355
 31
0.0
  0
ARC
  5
276
330
1F
100
AcDbEntity
  8
0
  6
Continuous
 62
     7
100
AcDbCircle
 10
166.5356867167
 20
178.5456392675
 30
0.0
 40
0.0500000000000453
100
AcDbArc
 50
65.0
 51
245.0000000001
  0
LINE
  5
277
330
1F
100
AcDbEntity
  8
0
  6
Continuous
 62
     7
100
AcDbLine
 10
168.2817216234
 20
177.6762809232
 30
0.0
 11
166.5145558036
 21
178.5003238782
 31
0.0
  0
ARC
  5
278
330
1F
100
AcDbEntity
  8
0
  6
Continuous
 62
     7
100
AcDbCircle
 10
160.5993627499
 20
181.3137776526
 30
0.0
 40
8.500001195165168
100
AcDbArc
 50
330.3360558759
 51
334.6630553901
  0
LINE
  5
279
330
1F
100
AcDbEntity
  8
0
  6
Continuous
 62
     7
100
AcDbLine
 10
166.7296909772
 20
177.8319981898
 30
0.0
 11
167.9853793674
 21
177.1070261118
 31
0.0
  0
ARC
  5
27A
330
1F
100
AcDbEntity
  8
0
  6
Continuous
 62
     7
100
AcDbCircle
 10
166.7046909772
 20
177.7886969197
 30
0.0
 40
0.0499999999999938
100
AcDbArc
 50
60.0000000001
 51
239.9999999999
  0
LINE
  5
27B
330
1F
100
AcDbEntity
  8
0
  6
Continuous
 62
     7
100
AcDbLine
 10
167.9353779272
 20
177.020424497
 30
0.0
 11
166.6796909772
 21
177.7453956495
 31
0.0
  0
ARC
  5
27C
330
1F
100
AcDbEntity
  8
0
  6
Continuous
 62
     7
100
AcDbCircle
 10
160.5993627499
 20
181.3137776526
 30
0.0
 40
8.500000762598858
100
AcDbArc
 50
325.337139446
 51
329.6619845437
  0
LINE
  5
27D
330
1F
100
AcDbEntity
  8
0
  6
Continuous
 62
     7
100
AcDbLine
 10
165.9934974471
 20
177.5978213555
 30
0.0
 11
167.5907228442
 21
176.4794320922
 31
0.0
  0
ARC
  5
27E
330
1F
100
AcDbEntity
  8
0
  6
Continuous
 62
     7
100
AcDbCircle
 10
165.9648186253
 20
177.5568637533
 30
0.0
 40
0.0500000000000672
100
AcDbArc
 50
55.00000000020001
 51
234.9999999999
  0
LINE
  5
27F
330
1F
100
AcDbEntity
  8
0
  6
Continuous
 62
     7
100
AcDbLine
 10
167.5333652745
 20
176.397516836
 30
0.0
 11
165.9361398034
 21
177.5159061511
 31
0.0
  0
ARC
  5
280
330
1F
100
AcDbEntity
  8
0
  6
Continuous
 62
     7
100
AcDbCircle
 10
160.5993627499
 20
181.3137776526
 30
0.0
 40
8.500000672248763
100
AcDbArc
 50
320.3370359408
 51
324.6630676212
  0
LINE
  5
281
330
1F
100
AcDbEntity
  8
0
  6
Continuous
 62
     7
100
AcDbLine
 10
166.0321154544
 20
176.8204272265
 30
0.0
 11
167.1427672424
 21
175.8884797208
 31
0.0
  0
ARC
  5
282
330
1F
100
AcDbEntity
  8
0
  6
Continuous
 62
     7
100
AcDbCircle
 10
165.9999760739
 20
176.7821250043
 30
0.0
 40
0.0499999999999796
100
AcDbArc
 50
50.0
 51
230.0000000001
  0
LINE
  5
283
330
1F
100
AcDbEntity
  8
0
  6
Continuous
 62
     7
100
AcDbLine
 10
167.0784884814
 20
175.8118752765
 30
0.0
 11
165.9678366934
 21
176.7438227822
 31
0.0
  0
ARC
  5
284
330
1F
100
AcDbEntity
  8
0
  6
Continuous
 62
     7
100
AcDbCircle
 10
160.5993627499
 20
181.3137776526
 30
0.0
 40
8.500000099821999
100
AcDbArc
 50
315.3371503262
 51
319.6629640592
  0
LINE
  5
285
330
1F
100
AcDbEntity
  8
0
  6
Continuous
 62
     7
100
AcDbLine
 10
165.2662795757
 20
176.7175955037
 30
0.0
 11
166.6450337413
 21
175.3388413382
 31
0.0
  0
ARC
  5
286
330
1F
100
AcDbEntity
  8
0
  6
Continuous
 62
     7
100
AcDbCircle
 10
165.2309242367
 20
176.6822401647
 30
0.0
 40
0.0500000000000326
100
AcDbArc
 50
45.0
 51
225.0
  0
LINE
  5
287
330
1F
100
AcDbEntity
  8
0
  6
Continuous
 62
     7
100
AcDbLine
 10
166.5743231337
 20
175.2681305895
 30
0.0
 11
165.1955688976
 21
176.6468848256
 31
0.0
  0
ARC
  5
288
330
1F
100
AcDbEntity
  8
0
  6
Continuous
 62
     7
100
AcDbCircle
 10
160.5993627499
 20
181.3137776526
 30
0.0
 40
8.500000000000147
100
AcDbArc
 50
290.8219650679
 51
314.6630784485
  0
LINE
  5
289
330
1F
100
AcDbEntity
  8
0
  6
Continuous
 62
     7
100
AcDbLine
 10
161.1246817449
 20
173.3689171328
 30
0.0
 11
163.620817916
 21
173.3689171328
 31
0.0
  0
LINE
  5
28A
330
1F
100
AcDbEntity
  8
0
  6
Continuous
 62
     7
100
AcDbLine
 10
160.1031485355
 20
174.3904503422
 30
0.0
 11
161.1246817449
 21
173.3689171328
 31
0.0
  0
LINE
  5
28B
330
1F
100
AcDbEntity
  8
0
  6
Continuous
 62
     7
100
AcDbLine
 10
153.3495036130999
 20
181.1440952645
 30
0.0
 11
153.6760354395
 21
180.8175634382
 31
0.0
  0
LINE
  5
28C
330
1F
100
AcDbEntity
  8
0
  6
Continuous
 62
     7
100
AcDbLine
 10
161.916513746
 20
189.7111053974
 30
0.0
 11
153.3495036130999
 21
181.1440952645
 31
0.0
  0
ARC
  5
28D
330
1F
100
AcDbEntity
  8
0
  6
Continuous
 62
     7
100
AcDbCircle
 10
160.5993627499
 20
181.3137776526
 30
0.0
 40
8.500000000000182
100
AcDbArc
 50
45.3370359408
 51
81.08558504220001
  0
LINE
  5
28E
330
1F
100
AcDbEntity
  8
0
  6
Continuous
 62
     7
100
AcDbLine
 10
165.1955568276
 20
185.9806824084
 30
0.0
 11
166.5743110638
 21
187.3594366445999
 31
0.0
  0
ARC
  5
28F
330
1F
100
AcDbEntity
  8
0
  6
Continuous
 62
     7
100
AcDbCircle
 10
165.2309121667
 20
185.9453270694
 30
0.0
 40
0.0500000000001129
100
AcDbArc
 50
135.0
 51
315.0
  0
LINE
  5
290
330
1F
100
AcDbEntity
  8
0
  6
Continuous
 62
     7
100
AcDbLine
 10
166.6450217419
 20
187.2887259664
 30
0.0
 11
165.9004608803
 21
186.5441651048
 31
0.0
  0
LINE
  5
291
330
1F
100
AcDbEntity
  8
0
  6
Continuous
 62
     7
100
AcDbLine
 10
165.8828518818
 20
186.5265561064
 30
0.0
 11
165.2662675058
 21
185.9099717303
 31
0.0
  0
ARC
  5
292
330
1F
100
AcDbEntity
  8
0
  6
Continuous
 62
     7
100
AcDbCircle
 10
160.5993627499
 20
181.3137776526
 30
0.0
 40
8.500000000000156
100
AcDbArc
 50
42.1046351766
 51
44.6629640592
  0
SPLINE
  5
293
330
1F
100
AcDbEntity
  8
0
  6
Continuous
 62
     7
100
AcDbSpline
210
0.0
220
0.0
230
1.0
 70
     8
 71
     3
 72
    10
 73
     6
 74
     0
 42
0.0000000001
 43
0.0000000001
 40
0.0
 40
0.0
 40
0.0
 40
0.0
 40
0.3978932413598428
 40
0.7991966237561665
 40
1.0
 40
1.0
 40
1.0
 40
1.0
 10
165.3151958490544
 20
181.9757882248647
 30
0.0
 10
165.2983305236483
 20
181.98700115228
 30
0.0
 10
165.2644553286914
 20
182.009523107421
 30
0.0
 10
165.2346176571973
 20
182.0524556647663
 30
0.0
 10
165.225111403806
 20
182.0814372047305
 30
0.0
 10
165.2219410561077
 20
182.0911025854792
 30
0.0
  0
SPLINE
  5
294
330
1F
100
AcDbEntity
  8
0
  6
Continuous
 62
     7
100
AcDbSpline
210
0.0
220
0.0
230
1.0
 70
     8
 71
     3
 72
    10
 73
     6
 74
     0
 42
0.0000000001
 43
0.0000000001
 40
0.0
 40
0.0
 40
0.0
 40
0.0
 40
0.3550849980674125
 40
0.7092926775042877
 40
1.0
 40
1.0
 40
1.0
 40
1.0
 10
165.2219410561077
 20
182.0911025854792
 30
0.0
 10
165.2192325551509
 20
182.1081858882825
 30
0.0
 10
165.2138222452079
 20
182.1423102856862
 30
0.0
 10
165.2263266543725
 20
182.190214046284
 30
0.0
 10
165.2405721247897
 20
182.2178605583308
 30
0.0
 10
165.2469935331152
 20
182.2303227331435
 30
0.0
  0
SPLINE
  5
295
330
1F
100
AcDbEntity
  8
0
  6
Continuous
 62
     7
100
AcDbSpline
210
0.0
220
0.0
230
1.0
 70
     8
 71
     3
 72
    11
 73
     7
 74
     0
 42
0.0000000001
 43
0.0000000001
 40
0.0
 40
0.0
 40
0.0
 40
0.0
 40
0.1542871944604919
 40
0.4547580122276039
 40
0.7248351658324595
 40
1.0
 40
1.0
 40
1.0
 40
1.0
 10
165.2469935331152
 20
182.2303227331435
 30
0.0
 10
165.2584479336659
 20
182.2470484715213
 30
0.0
 10
165.2922095199329
 20
182.2963472066776
 30
0.0
 10
165.3723960482554
 20
182.3512831851592
 30
0.0
 10
165.472923007694
 20
182.3973313024317
 30
0.0
 10
165.5414684145653
 20
182.4174610095521
 30
0.0
 10
165.5760609183299
 20
182.4276197787699
 30
0.0
  0
LINE
  5
296
330
1F
100
AcDbEntity
  8
0
  6
Continuous
 62
     7
100
AcDbLine
 10
165.5760609183
 20
182.4276197788
 30
0.0
 11
165.7433264523
 21
182.4724384435
 31
0.0
  0
SPLINE
  5
297
330
1F
100
AcDbEntity
  8
0
  6
Continuous
 62
     7
100
AcDbSpline
210
0.0
220
0.0
230
1.0
 70
     8
 71
     3
 72
    11
 73
     7
 74
     0
 42
0.0000000001
 43
0.0000000001
 40
0.0
 40
0.0
 40
0.0
 40
0.0
 40
0.1539815569645438
 40
0.4623291613187954
 40
0.8107880087856832
 40
1.0
 40
1.0
 40
1.0
 40
1.0
 10
165.7433264523418
 20
182.4724384435299
 30
0.0
 10
165.7627160940047
 20
182.4774587538147
 30
0.0
 10
165.8209334347368
 20
182.4925322203339
 30
0.0
 10
165.9245635757708
 20
182.5089051137875
 30
0.0
 10
166.0378560017581
 20
182.5115242955775
 30
0.0
 10
166.1023211077282
 20
182.4833094102721
 30
0.0
 10
166.1250070527097
 20
182.4733802970555
 30
0.0
  0
LINE
  5
298
330
1F
100
AcDbEntity
  8
0
  6
Continuous
 62
     7
100
AcDbLine
 10
165.8641419834
 20
182.0215487431999
 30
0.0
 11
165.6968764494
 21
181.9767300784
 31
0.0
  0
SPLINE
  5
299
330
1F
100
AcDbEntity
  8
0
  6
Continuous
 62
     7
100
AcDbSpline
210
0.0
220
0.0
230
1.0
 70
     8
 71
     3
 72
    11
 73
     7
 74
     0
 42
0.0000000001
 43
0.0000000001
 40
0.0
 40
0.0
 40
0.0
 40
0.0
 40
0.1539815569646146
 40
0.4623291613188448
 40
0.8107880087861039
 40
1.0
 40
1.0
 40
1.0
 40
1.0
 10
165.6968764494223
 20
181.9767300783902
 30
0.0
 10
165.6774868077594
 20
181.9717097681055
 30
0.0
 10
165.6192694670273
 20
181.9566363015861
 30
0.0
 10
165.5156393259932
 20
181.9402634081328
 30
0.0
 10
165.4023469000059
 20
181.9376442263425
 30
0.0
 10
165.3378817940358
 20
181.965859111648
 30
0.0
 10
165.3151958490544
 20
181.9757882248647
 30
0.0
  0
SPLINE
  5
29A
330
1F
100
AcDbEntity
  8
0
  6
Continuous
 62
     7
100
AcDbSpline
210
0.0
220
0.0
230
1.0
 70
     8
 71
     3
 72
    11
 73
     7
 74
     0
 42
0.0000000001
 43
0.0000000001
 40
0.0
 40
0.0
 40
0.0
 40
0.0
 40
0.1551604652228641
 40
0.434308896730841
 40
0.7147244444346698
 40
1.0
 40
1.0
 40
1.0
 40
1.0
 10
166.1951580062471
 20
182.2115733742544
 30
0.0
 10
166.1834815837738
 20
182.1949879503055
 30
0.0
 10
166.1507981669326
 20
182.1485637715257
 30
0.0
 10
166.0708021484978
 20
182.0969779473555
 30
0.0
 10
165.9705918679806
 20
182.0523733676736
 30
0.0
 10
165.8998279291037
 20
182.031882299459
 30
0.0
 10
165.864141983434
 20
182.0215487431502
 30
0.0
  0
SPLINE
  5
29B
330
1F
100
AcDbEntity
  8
0
  6
Continuous
 62
     7
100
AcDbSpline
210
0.0
220
0.0
230
1.0
 70
     8
 71
     3
 72
    10
 73
     6
 74
     0
 42
0.0000000001
 43
0.0000000001
 40
0.0
 40
0.0
 40
0.0
 40
0.0
 40
0.3993503709945734
 40
0.7992905979552349
 40
1.0
 40
1.0
 40
1.0
 40
1.0
 10
166.1250070527097
 20
182.4733802970555
 30
0.0
 10
166.1418869846553
 20
182.4620806238746
 30
0.0
 10
166.1756717808599
 20
182.4394645874578
 30
0.0
 10
166.2061309564454
 20
182.3968626691112
 30
0.0
 10
166.2152235277172
 20
182.3677830154454
 30
0.0
 10
166.2182618456565
 20
182.3580659364411
 30
0.0
  0
SPLINE
  5
29C
330
1F
100
AcDbEntity
  8
0
  6
Continuous
 62
     7
100
AcDbSpline
210
0.0
220
0.0
230
1.0
 70
     8
 71
     3
 72
    10
 73
     6
 74
     0
 42
0.0000000001
 43
0.0000000001
 40
0.0
 40
0.0
 40
0.0
 40
0.0
 40
0.3480343855481442
 40
0.6947247737984805
 40
1.0
 40
1.0
 40
1.0
 40
1.0
 10
166.2182618456565
 20
182.3580659364411
 30
0.0
 10
166.2214059879817
 20
182.3405906506411
 30
0.0
 10
166.2276821309619
 20
182.3057075629966
 30
0.0
 10
166.2174389712976
 20
182.2547329917027
 30
0.0
 10
166.2022636648827
 20
182.2253374777274
 30
0.0
 10
166.1951580062471
 20
182.2115733742544
 30
0.0
  0
SPLINE
  5
29D
330
1F
100
AcDbEntity
  8
0
  6
Continuous
 62
     7
100
AcDbSpline
210
0.0
220
0.0
230
1.0
 70
     8
 71
     3
 72
    10
 73
     6
 74
     0
 42
0.0000000001
 43
0.0000000001
 40
0.0
 40
0.0
 40
0.0
 40
0.0
 40
0.3978932413595307
 40
0.7991966237564472
 40
1.0
 40
1.0
 40
1.0
 40
1.0
 10
164.9917389412733
 20
179.4946717778112
 30
0.0
 10
164.9827396047363
 20
179.5128151205067
 30
0.0
 10
164.964663802916
 20
179.5492573032801
 30
0.0
 10
164.960289900085
 20
179.6013568243376
 30
0.0
 10
164.9665480131353
 20
179.6312087008831
 30
0.0
 10
164.968635101864
 20
179.6411643399978
 30
0.0
  0
SPLINE
  5
29E
330
1F
100
AcDbEntity
  8
0
  6
Continuous
 62
     7
100
AcDbSpline
210
0.0
220
0.0
230
1.0
 70
     8
 71
     3
 72
    10
 73
     6
 74
     0
 42
0.0000000001
 43
0.0000000001
 40
0.0
 40
0.0
 40
0.0
 40
0.0
 40
0.3550849980701739
 40
0.7092926775091298
 40
1.0
 40
1.0
 40
1.0
 40
1.0
 10
164.968635101864
 20
179.6411643399978
 30
0.0
 10
164.9748311226311
 20
179.6573131646846
 30
0.0
 10
164.9872078554801
 20
179.6895709146967
 30
0.0
 10
165.021988871775
 20
179.7248045837288
 30
0.0
 10
165.0481490670683
 20
179.7416244302787
 30
0.0
 10
165.0599412572125
 20
179.7492062860901
 30
0.0
  0
SPLINE
  5
29F
330
1F
100
AcDbEntity
  8
0
  6
Continuous
 62
     7
100
AcDbSpline
210
0.0
220
0.0
230
1.0
 70
     8
 71
     3
 72
    11
 73
     7
 74
     0
 42
0.0000000001
 43
0.0000000001
 40
0.0
 40
0.0
 40
0.0
 40
0.0
 40
0.1542871944607468
 40
0.4547580122272509
 40
0.7248351658321206
 40
1.0
 40
1.0
 40
1.0
 40
1.0
 10
165.0599412572125
 20
179.7492062860901
 30
0.0
 10
165.0782239282634
 20
179.757964000147
 30
0.0
 10
165.1321116872208
 20
179.7837771640332
 30
0.0
 10
165.2290232470301
 20
179.7912598528187
 30
0.0
 10
165.3391062063055
 20
179.780875212454
 30
0.0
 10
165.408533123529
 20
179.7640353467553
 30
0.0
 10
165.4435704951786
 20
179.7555368470868
 30
0.0
  0
LINE
  5
2A0
330
1F
100
AcDbEntity
  8
0
  6
Continuous
 62
     7
100
AcDbLine
 10
165.4435704952
 20
179.7555368471
 30
0.0
 11
165.6108360292
 21
179.7107181822999
 31
0.0
  0
SPLINE
  5
2A1
330
1F
100
AcDbEntity
  8
0
  6
Continuous
 62
     7
100
AcDbSpline
210
0.0
220
0.0
230
1.0
 70
     8
 71
     3
 72
    11
 73
     7
 74
     0
 42
0.0000000001
 43
0.0000000001
 40
0.0
 40
0.0
 40
0.0
 40
0.0
 40
0.1539815569644234
 40
0.4623291613188269
 40
0.810788008786225
 40
1.0
 40
1.0
 40
1.0
 40
1.0
 10
165.6108360291906
 20
179.7107181823267
 30
0.0
 10
165.6301381065832
 20
179.7053710777368
 30
0.0
 10
165.6880925358575
 20
179.6893164122995
 30
0.0
 10
165.7860253173176
 20
179.6516806834466
 30
0.0
 10
165.8854490271741
 20
179.5973027484203
 30
0.0
 10
165.9271700039491
 20
179.5406353879959
 30
0.0
 10
165.9418520520035
 20
179.5206935512226
 30
0.0
  0
SPLINE
  5
2A2
330
1F
100
AcDbEntity
  8
0
  6
Continuous
 62
     7
100
AcDbSpline
210
0.0
220
0.0
230
1.0
 70
     8
 71
     3
 72
    10
 73
     6
 74
     0
 42
0.0000000001
 43
0.0000000001
 40
0.0
 40
0.0
 40
0.0
 40
0.0
 40
0.3993503709947805
 40
0.7992905979552908
 40
1.0
 40
1.0
 40
1.0
 40
1.0
 10
165.9418520520035
 20
179.5206935512226
 30
0.0
 10
165.9508206652921
 20
179.5024677812206
 30
0.0
 10
165.9687711388585
 20
179.4659893210484
 30
0.0
 10
165.9738485995208
 20
179.4138653897176
 30
0.0
 10
165.9671831703948
 20
179.3841353852738
 30
0.0
 10
165.9649558914128
 20
179.3742009890359
 30
0.0
  0
SPLINE
  5
2A3
330
1F
100
AcDbEntity
  8
0
  6
Continuous
 62
     7
100
AcDbSpline
210
0.0
220
0.0
230
1.0
 70
     8
 71
     3
 72
    10
 73
     6
 74
     0
 42
0.0000000001
 43
0.0000000001
 40
0.0
 40
0.0
 40
0.0
 40
0.0
 40
0.3480343855467763
 40
0.6947247737956514
 40
1.0
 40
1.0
 40
1.0
 40
1.0
 10
165.9649558914128
 20
179.3742009890359
 30
0.0
 10
165.9589411556396
 20
179.3574948764321
 30
0.0
 10
165.9469349110761
 20
179.3241471648795
 30
0.0
 10
165.912576788945
 20
179.2851234710241
 30
0.0
 10
165.8847368310917
 20
179.2672538623716
 30
0.0
 10
165.871701098466
 20
179.2588866284214
 30
0.0
  0
SPLINE
  5
2A4
330
1F
100
AcDbEntity
  8
0
  6
Continuous
 62
     7
100
AcDbSpline
210
0.0
220
0.0
230
1.0
 70
     8
 71
     3
 72
    11
 73
     7
 74
     0
 42
0.0000000001
 43
0.0000000001
 40
0.0
 40
0.0
 40
0.0
 40
0.0
 40
0.1551604652225209
 40
0.4343088967310402
 40
0.7147244444349017
 40
1.0
 40
1.0
 40
1.0
 40
1.0
 10
165.871701098466
 20
179.2588866284214
 30
0.0
 10
165.8532963080044
 20
179.2503614411858
 30
0.0
 10
165.8017795493476
 20
179.2264986314331
 30
0.0
 10
165.7067080530963
 20
179.2218220064445
 30
0.0
 10
165.5976211146071
 20
179.2332984475729
 30
0.0
 10
165.5260922117606
 20
179.250934631387
 30
0.0
 10
165.4900204980982
 20
179.259828481947
 30
0.0
  0
LINE
  5
2A5
330
1F
100
AcDbEntity
  8
0
  6
Continuous
 62
     7
100
AcDbLine
 10
165.4900204981
 20
179.2598284819
 30
0.0
 11
165.3227549641
 21
179.3046471467
 31
0.0
  0
SPLINE
  5
2A6
330
1F
100
AcDbEntity
  8
0
  6
Continuous
 62
     7
100
AcDbSpline
210
0.0
220
0.0
230
1.0
 70
     8
 71
     3
 72
    11
 73
     7
 74
     0
 42
0.0000000001
 43
0.0000000001
 40
0.0
 40
0.0
 40
0.0
 40
0.0
 40
0.1539815569643456
 40
0.4623291613186085
 40
0.8107880087863438
 40
1.0
 40
1.0
 40
1.0
 40
1.0
 10
165.3227549640864
 20
179.304647146707
 30
0.0
 10
165.3034528866937
 20
179.309994251297
 30
0.0
 10
165.2454984574193
 20
179.3260489167343
 30
0.0
 10
165.1475656759593
 20
179.3636846455871
 30
0.0
 10
165.0481419661028
 20
179.4180625806135
 30
0.0
 10
165.0064209893278
 20
179.4747299410379
 30
0.0
 10
164.9917389412733
 20
179.4946717778112
 30
0.0
  0
SPLINE
  5
2A7
330
1F
100
AcDbEntity
  8
0
  6
Continuous
 62
     7
100
AcDbSpline
210
0.0
220
0.0
230
1.0
 70
     8
 71
     3
 72
    10
 73
     6
 74
     0
 42
0.0000000001
 43
0.0000000001
 40
0.0
 40
0.0
 40
0.0
 40
0.0
 40
0.3543271326531701
 40
0.7146393863022179
 40
1.0
 40
1.0
 40
1.0
 40
1.0
 10
165.1996186102007
 20
180.5613858449983
 30
0.0
 10
165.2050383751125
 20
180.5755855063988
 30
0.0
 10
165.2159694529601
 20
180.6042246829499
 30
0.0
 10
165.2462478480078
 20
180.6357191061897
 30
0.0
 10
165.2694851518272
 20
180.6503606464385
 30
0.0
 10
165.2797550758303
 20
180.6568315996443
 30
0.0
  0
SPLINE
  5
2A8
330
1F
100
AcDbEntity
  8
0
  6
Continuous
 62
     7
100
AcDbSpline
210
0.0
220
0.0
230
1.0
 70
     8
 71
     3
 72
    10
 73
     6
 74
     0
 42
0.0000000001
 43
0.0000000001
 40
0.0
 40
0.0
 40
0.0
 40
0.0
 40
0.2064052469061594
 40
0.5718450813544771
 40
1.0
 40
1.0
 40
1.0
 40
1.0
 10
165.2797550758303
 20
180.6568315996443
 30
0.0
 10
165.2979169116998
 20
180.6656773502534
 30
0.0
 10
165.3482342203245
 20
180.6901844742368
 30
0.0
 10
165.4483160994855
 20
180.6987851968478
 30
0.0
 10
165.5240735163563
 20
180.6826531006945
 30
0.0
 10
165.5649456498106
 20
180.6739496203739
 30
0.0
  0
SPLINE
  5
2A9
330
1F
100
AcDbEntity
  8
0
  6
Continuous
 62
     7
100
AcDbSpline
210
0.0
220
0.0
230
1.0
 70
     8
 71
     3
 72
    10
 73
     6
 74
     0
 42
0.0000000001
 43
0.0000000001
 40
0.0
 40
0.0
 40
0.0
 40
0.0
 40
0.244222463008013
 40
0.7198189196640033
 40
1.0
 40
1.0
 40
1.0
 40
1.0
 10
165.5649456498106
 20
180.6739496203739
 30
0.0
 10
165.5840470376824
 20
180.6680059172764
 30
0.0
 10
165.6403462831022
 20
180.6504875043929
 30
0.0
 10
165.7133289587873
 20
180.6059686479215
 30
0.0
 10
165.7486054185788
 20
180.5545542325061
 30
0.0
 10
165.7616830718974
 20
180.5354939326813
 30
0.0
  0
SPLINE
  5
2AA
330
1F
100
AcDbEntity
  8
0
  6
Continuous
 62
     7
100
AcDbSpline
210
0.0
220
0.0
230
1.0
 70
     8
 71
     3
 72
    10
 73
     6
 74
     0
 42
0.0000000001
 43
0.0000000001
 40
0.0
 40
0.0
 40
0.0
 40
0.0
 40
0.2512854588579379
 40
0.6416800189262931
 40
1.0
 40
1.0
 40
1.0
 40
1.0
 10
165.7794631343826
 20
180.398222422615
 30
0.0
 10
165.7759545374489
 20
180.3886881220263
 30
0.0
 10
165.766995019628
 20
180.3643414279913
 30
0.0
 10
165.7389513460008
 20
180.3337501428526
 30
0.0
 10
165.7134701182954
 20
180.3177205356662
 30
0.0
 10
165.7012753063513
 20
180.3100490824914
 30
0.0
  0
SPLINE
  5
2AB
330
1F
100
AcDbEntity
  8
0
  6
Continuous
 62
     7
100
AcDbSpline
210
0.0
220
0.0
230
1.0
 70
     8
 71
     3
 72
    10
 73
     6
 74
     0
 42
0.0000000001
 43
0.0000000001
 40
0.0
 40
0.0
 40
0.0
 40
0.0
 40
0.2110994945316991
 40
0.5541638761143445
 40
1.0
 40
1.0
 40
1.0
 40
1.0
 10
165.7012753063513
 20
180.3100490824914
 30
0.0
 10
165.684672482123
 20
180.3028158754182
 30
0.0
 10
165.6410878897052
 20
180.2838277576242
 30
0.0
 10
165.5534420562619
 20
180.2835043271929
 30
0.0
 10
165.4880025359647
 20
180.2984866845307
 30
0.0
 10
165.4510203032548
 20
180.3069537549355
 30
0.0
  0
SPLINE
  5
2AC
330
1F
100
AcDbEntity
  8
0
  6
Continuous
 62
     7
100
AcDbSpline
210
0.0
220
0.0
230
1.0
 70
     8
 71
     3
 72
    11
 73
     7
 74
     0
 42
0.0000000001
 43
0.0000000001
 40
0.0
 40
0.0
 40
0.0
 40
0.0
 40
0.2160768665909126
 40
0.5245764929693131
 40
0.8347197994156692
 40
1.0
 40
1.0
 40
1.0
 40
1.0
 10
165.4510203032548
 20
180.3069537549355
 30
0.0
 10
165.4317547379136
 20
180.3124368730429
 30
0.0
 10
165.3849831289894
 20
180.3257484084826
 30
0.0
 10
165.3135424785744
 20
180.3546269014761
 30
0.0
 10
165.2492454800074
 20
180.3924210360632
 30
0.0
 10
165.2231096215748
 20
180.4281772222375
 30
0.0
 10
165.2140235333601
 20
180.4406078015749
 30
0.0
  0
SPLINE
  5
2AD
330
1F
100
AcDbEntity
  8
0
  6
Continuous
 62
     7
100
AcDbSpline
210
0.0
220
0.0
230
1.0
 70
     8
 71
     3
 72
    10
 73
     6
 74
     0
 42
0.0000000001
 43
0.0000000001
 40
0.0
 40
0.0
 40
0.0
 40
0.0
 40
0.3795619657175479
 40
0.758149777744481
 40
1.0
 40
1.0
 40
1.0
 40
1.0
 10
165.2140235333601
 20
180.4406078015749
 30
0.0
 10
165.2072995117377
 20
180.4549889392634
 30
0.0
 10
165.1938687258344
 20
180.483714305151
 30
0.0
 10
165.1918742420926
 20
180.5264117495275
 30
0.0
 10
165.1974465092426
 20
180.5515764886738
 30
0.0
 10
165.1996186102007
 20
180.5613858449983
 30
0.0
  0
SPLINE
  5
2AE
330
1F
100
AcDbEntity
  8
0
  6
Continuous
 62
     7
100
AcDbSpline
210
0.0
220
0.0
230
1.0
 70
     8
 71
     3
 72
    10
 73
     6
 74
     0
 42
0.0000000001
 43
0.0000000001
 40
0.0
 40
0.0
 40
0.0
 40
0.0
 40
0.428975717019514
 40
0.8598212322094404
 40
1.0
 40
1.0
 40
1.0
 40
1.0
 10
165.7616830718974
 20
180.5354939326813
 30
0.0
 10
165.770383283554
 20
180.5169681043927
 30
0.0
 10
165.7878216289202
 20
180.4798356983502
 30
0.0
 10
165.7870627076238
 20
180.4308925602583
 30
0.0
 10
165.7809610171765
 20
180.4046617364417
 30
0.0
 10
165.7794631343826
 20
180.398222422615
 30
0.0
  0
SPLINE
  5
2AF
330
1F
100
AcDbEntity
  8
0
  6
Continuous
 62
     7
100
AcDbSpline
210
0.0
220
0.0
230
1.0
 70
     8
 71
     3
 72
    10
 73
     6
 74
     0
 42
0.0000000001
 43
0.0000000001
 40
0.0
 40
0.0
 40
0.0
 40
0.0
 40
0.3180518279845499
 40
0.7235961952050111
 40
1.0
 40
1.0
 40
1.0
 40
1.0
 10
164.5906113527266
 20
178.0606777217385
 30
0.0
 10
164.6007050778491
 20
178.0687019262959
 30
0.0
 10
164.6236692002069
 20
178.0869577053117
 30
0.0
 10
164.6640115445488
 20
178.0965467588847
 30
0.0
 10
164.6913357560778
 20
178.0975411276553
 30
0.0
 10
164.7024106681305
 20
178.0979441602065
 30
0.0
  0
SPLINE
  5
2B0
330
1F
100
AcDbEntity
  8
0
  6
Continuous
 62
     7
100
AcDbSpline
210
0.0
220
0.0
230
1.0
 70
     8
 71
     3
 72
    10
 73
     6
 74
     0
 42
0.0000000001
 43
0.0000000001
 40
0.0
 40
0.0
 40
0.0
 40
0.0
 40
0.1905587271173727
 40
0.5235910888717395
 40
1.0
 40
1.0
 40
1.0
 40
1.0
 10
164.7024106681305
 20
178.0979441602065
 30
0.0
 10
164.7166448969623
 20
178.0965143099373
 30
0.0
 10
164.7557557552579
 20
178.0925855638195
 30
0.0
 10
164.8236317128127
 20
178.056731499103
 30
0.0
 10
164.8679704201657
 20
178.0156485897623
 30
0.0
 10
164.8940666373942
 20
177.9914686217266
 30
0.0
  0
SPLINE
  5
2B1
330
1F
100
AcDbEntity
  8
0
  6
Continuous
 62
     7
100
AcDbSpline
210
0.0
220
0.0
230
1.0
 70
     8
 71
     3
 72
    10
 73
     6
 74
     0
 42
0.0000000001
 43
0.0000000001
 40
0.0
 40
0.0
 40
0.0
 40
0.0
 40
0.4262027782757694
 40
0.8531827412901641
 40
1.0
 40
1.0
 40
1.0
 40
1.0
 10
164.9845708451021
 20
177.6454231216671
 30
0.0
 10
164.9696230389428
 20
177.6331572990923
 30
0.0
 10
164.9397001691603
 20
177.6086032871006
 30
0.0
 10
164.8943863991546
 20
177.5983839996599
 30
0.0
 10
164.8686970890439
 20
177.597687374535
 30
0.0
 10
164.8621239758503
 20
177.5975091293514
 30
0.0
  0
SPLINE
  5
2B2
330
1F
100
AcDbEntity
  8
0
  6
Continuous
 62
     7
100
AcDbSpline
210
0.0
220
0.0
230
1.0
 70
     8
 71
     3
 72
    10
 73
     6
 74
     0
 42
0.0000000001
 43
0.0000000001
 40
0.0
 40
0.0
 40
0.0
 40
0.0
 40
0.2093688585054156
 40
0.5627933292894446
 40
1.0
 40
1.0
 40
1.0
 40
1.0
 10
164.8621239758503
 20
177.5975091293514
 30
0.0
 10
164.8418678147269
 20
177.5993484065503
 30
0.0
 10
164.7874183018499
 20
177.6042924700832
 30
0.0
 10
164.6993450633912
 20
177.650513792989
 30
0.0
 10
164.6430414687401
 20
177.7020853094516
 30
0.0
 10
164.6119064604227
 20
177.7306035524511
 30
0.0
  0
SPLINE
  5
2B3
330
1F
100
AcDbEntity
  8
0
  6
Continuous
 62
     7
100
AcDbSpline
210
0.0
220
0.0
230
1.0
 70
     8
 71
     3
 72
    10
 73
     6
 74
     0
 42
0.0000000001
 43
0.0000000001
 40
0.0
 40
0.0
 40
0.0
 40
0.0
 40
0.2678802948112372
 40
0.6702119600377231
 40
1.0
 40
1.0
 40
1.0
 40
1.0
 10
164.6119064604227
 20
177.7306035524511
 30
0.0
 10
164.5984847183872
 20
177.7455646608937
 30
0.0
 10
164.5649047492332
 20
177.7829959837936
 30
0.0
 10
164.5322931881874
 20
177.8531448268166
 30
0.0
 10
164.5284549767289
 20
177.9081359635739
 30
0.0
 10
164.5267260296389
 20
177.9329070755628
 30
0.0
  0
SPLINE
  5
2B4
330
1F
100
AcDbEntity
  8
0
  6
Continuous
 62
     7
100
AcDbSpline
210
0.0
220
0.0
230
1.0
 70
     8
 71
     3
 72
    10
 73
     6
 74
     0
 42
0.0000000001
 43
0.0000000001
 40
0.0
 40
0.0
 40
0.0
 40
0.0
 40
0.2768005505617668
 40
0.6866987349724873
 40
1.0
 40
1.0
 40
1.0
 40
1.0
 10
164.5267260296389
 20
177.9329070755628
 30
0.0
 10
164.5280629323171
 20
177.9464224824488
 30
0.0
 10
164.5313795780971
 20
177.9799520863184
 30
0.0
 10
164.5563469089742
 20
178.0236922901618
 30
0.0
 10
164.5802542990138
 20
178.0494981997769
 30
0.0
 10
164.5906113527266
 20
178.0606777217385
 30
0.0
  0
SPLINE
  5
2B5
330
1F
100
AcDbEntity
  8
0
  6
Continuous
 62
     7
100
AcDbSpline
210
0.0
220
0.0
230
1.0
 70
     8
 71
     3
 72
    11
 73
     7
 74
     0
 42
0.0000000001
 43
0.0000000001
 40
0.0
 40
0.0
 40
0.0
 40
0.0
 40
0.2144388164028904
 40
0.5041646099029613
 40
0.870724724027305
 40
1.0
 40
1.0
 40
1.0
 40
1.0
 10
164.8940666373942
 20
177.9914686217266
 30
0.0
 10
164.9079868606877
 20
177.9770450288351
 30
0.0
 10
164.9407145359482
 20
177.9431338871601
 30
0.0
 10
164.9894528409355
 20
177.878285867708
 30
0.0
 10
165.0231147734749
 20
177.8103159300103
 30
0.0
 10
165.0263242728666
 20
177.7639795749243
 30
0.0
 10
165.0271610604939
 20
177.7518986601471
 30
0.0
  0
SPLINE
  5
2B6
330
1F
100
AcDbEntity
  8
0
  6
Continuous
 62
     7
100
AcDbSpline
210
0.0
220
0.0
230
1.0
 70
     8
 71
     3
 72
    10
 73
     6
 74
     0
 42
0.0000000001
 43
0.0000000001
 40
0.0
 40
0.0
 40
0.0
 40
0.0
 40
0.4638481776964614
 40
0.9300398458725823
 40
1.0
 40
1.0
 40
1.0
 40
1.0
 10
165.0271610604939
 20
177.7518986601471
 30
0.0
 10
165.0256624747015
 20
177.7336382959488
 30
0.0
 10
165.0226577318429
 20
177.6970253110949
 30
0.0
 10
165.0011423058691
 20
177.6623315963919
 30
0.0
 10
164.9864835971916
 20
177.6473747734144
 30
0.0
 10
164.9845708451021
 20
177.6454231216671
 30
0.0
  0
SPLINE
  5
2B7
330
1F
100
AcDbEntity
  8
0
  6
Continuous
 62
     7
100
AcDbSpline
210
0.0
220
0.0
230
1.0
 70
     8
 71
     3
 72
    10
 73
     6
 74
     0
 42
0.0000000001
 43
0.0000000001
 40
0.0
 40
0.0
 40
0.0
 40
0.0
 40
0.3978932413596982
 40
0.7991966237568394
 40
1.0
 40
1.0
 40
1.0
 40
1.0
 10
164.0160377987818
 20
184.6068176955056
 30
0.0
 10
163.9958255348294
 20
184.6080957127951
 30
0.0
 10
163.955227777868
 20
184.6106627006117
 30
0.0
 10
163.9079213176917
 20
184.6329245501749
 30
0.0
 10
163.8851978907779
 20
184.6532701733292
 30
0.0
 10
163.8776195987581
 20
184.6600554647456
 30
0.0
  0
SPLINE
  5
2B8
330
1F
100
AcDbEntity
  8
0
  6
Continuous
 62
     7
100
AcDbSpline
210
0.0
220
0.0
230
1.0
 70
     8
 71
     3
 72
    10
 73
     6
 74
     0
 42
0.0000000001
 43
0.0000000001
 40
0.0
 40
0.0
 40
0.0
 40
0.0
 40
0.3550849980676564
 40
0.7092926775049288
 40
1.0
 40
1.0
 40
1.0
 40
1.0
 10
163.8776195987581
 20
184.6600554647456
 30
0.0
 10
163.8667323167216
 20
184.6734957884755
 30
0.0
 10
163.8449846521669
 20
184.7003432285444
 30
0.0
 10
163.8318619078638
 20
184.7480813067411
 30
0.0
 10
163.8303755911105
 20
184.7791466237083
 30
0.0
 10
163.8297056064421
 20
184.7931498878453
 30
0.0
  0
SPLINE
  5
2B9
330
1F
100
AcDbEntity
  8
0
  6
Continuous
 62
     7
100
AcDbSpline
210
0.0
220
0.0
230
1.0
 70
     8
 71
     3
 72
    11
 73
     7
 74
     0
 42
0.0000000001
 43
0.0000000001
 40
0.0
 40
0.0
 40
0.0
 40
0.0
 40
0.1542871944605868
 40
0.4547580122271601
 40
0.7248351658322015
 40
1.0
 40
1.0
 40
1.0
 40
1.0
 10
163.8297056064421
 20
184.7931498878453
 30
0.0
 10
163.8312625391152
 20
184.8133620024528
 30
0.0
 10
163.8358515629164
 20
184.872936752606
 30
0.0
 10
163.8778271442441
 20
184.9606059697141
 30
0.0
 10
163.9418619862469
 20
185.0507482887879
 30
0.0
 10
163.9911591963499
 20
185.1024538299606
 30
0.0
 10
164.0160377987818
 20
185.1285478340568
 30
0.0
  0
LINE
  5
2BA
330
1F
100
AcDbEntity
  8
0
  6
Continuous
 62
     7
100
AcDbLine
 10
164.0160377988
 20
185.1285478341
 30
0.0
 11
164.138484668
 21
185.2509947033
 31
0.0
  0
SPLINE
  5
2BB
330
1F
100
AcDbEntity
  8
0
  6
Continuous
 62
     7
100
AcDbSpline
210
0.0
220
0.0
230
1.0
 70
     8
 71
     3
 72
    11
 73
     7
 74
     0
 42
0.0000000001
 43
0.0000000001
 40
0.0
 40
0.0
 40
0.0
 40
0.0
 40
0.1539815569643912
 40
0.4623291613186466
 40
0.8107880087853786
 40
1.0
 40
1.0
 40
1.0
 40
1.0
 10
164.1384846680336
 20
185.2509947033086
 30
0.0
 10
164.1527664351416
 20
185.2650372403814
 30
0.0
 10
164.1956473978967
 20
185.3071999156763
 30
0.0
 10
164.2772072859032
 20
185.3731943278574
 30
0.0
 10
164.3740118139695
 20
185.4321088188186
 30
0.0
 10
164.44394767605
 20
185.4399065643642
 30
0.0
 10
164.4685588373212
 20
185.4426506725723
 30
0.0
  0
SPLINE
  5
2BC
330
1F
100
AcDbEntity
  8
0
  6
Continuous
 62
     7
100
AcDbSpline
210
0.0
220
0.0
230
1.0
 70
     8
 71
     3
 72
    10
 73
     6
 74
     0
 42
0.0000000001
 43
0.0000000001
 40
0.0
 40
0.0
 40
0.0
 40
0.0
 40
0.3993503709944568
 40
0.7992905979552115
 40
1.0
 40
1.0
 40
1.0
 40
1.0
 10
164.4685588373212
 20
185.4426506725723
 30
0.0
 10
164.4888271237907
 20
185.441304834516
 30
0.0
 10
164.5293936337739
 20
185.4386111705484
 30
0.0
 10
164.5770730127827
 20
185.4169464148031
 30
0.0
 10
164.5994872373226
 20
185.3963089816311
 30
0.0
 10
164.6069770373449
 20
185.3894129033324
 30
0.0
  0
SPLINE
  5
2BD
330
1F
100
AcDbEntity
  8
0
  6
Continuous
 62
     7
100
AcDbSpline
210
0.0
220
0.0
230
1.0
 70
     8
 71
     3
 72
    10
 73
     6
 74
     0
 42
0.0000000001
 43
0.0000000001
 40
0.0
 40
0.0
 40
0.0
 40
0.0
 40
0.3480343855471979
 40
0.6947247737955847
 40
1.0
 40
1.0
 40
1.0
 40
1.0
 10
164.6069770373449
 20
185.3894129033324
 30
0.0
 10
164.6184375873717
 20
185.3758509330539
 30
0.0
 10
164.6413144304525
 20
185.3487793644815
 30
0.0
 10
164.6579308796152
 20
185.2995125109619
 30
0.0
 10
164.6594864357374
 20
185.2664675958945
 30
0.0
 10
164.6602148065848
 20
185.2509947033086
 30
0.0
  0
SPLINE
  5
2BE
330
1F
100
AcDbEntity
  8
0
  6
Continuous
 62
     7
100
AcDbSpline
210
0.0
220
0.0
230
1.0
 70
     8
 71
     3
 72
    11
 73
     7
 74
     0
 42
0.0000000001
 43
0.0000000001
 40
0.0
 40
0.0
 40
0.0
 40
0.0
 40
0.1551604652226739
 40
0.434308896730726
 40
0.7147244444347122
 40
1.0
 40
1.0
 40
1.0
 40
1.0
 10
164.6602148065848
 20
185.2509947033086
 30
0.0
 10
164.658395440072
 20
185.2307930935997
 30
0.0
 10
164.653302860195
 20
185.174246867006
 30
0.0
 10
164.6098171881139
 20
185.089574223582
 30
0.0
 10
164.5453348293067
 20
185.0008403841937
 30
0.0
 10
164.4942969946747
 20
184.9477126291308
 30
0.0
 10
164.4685588373211
 20
184.9209205340211
 30
0.0
  0
LINE
  5
2BF
330
1F
100
AcDbEntity
  8
0
  6
Continuous
 62
     7
100
AcDbLine
 10
164.4685588373
 20
184.920920534
 30
0.0
 11
164.3461119681
 21
184.7984736647999
 31
0.0
  0
SPLINE
  5
2C0
330
1F
100
AcDbEntity
  8
0
  6
Continuous
 62
     7
100
AcDbSpline
210
0.0
220
0.0
230
1.0
 70
     8
 71
     3
 72
    11
 73
     7
 74
     0
 42
0.0000000001
 43
0.0000000001
 40
0.0
 40
0.0
 40
0.0
 40
0.0
 40
0.15398155696437
 40
0.4623291613186506
 40
0.8107880087859772
 40
1.0
 40
1.0
 40
1.0
 40
1.0
 10
164.3461119680693
 20
184.7984736647693
 30
0.0
 10
164.3318302009613
 20
184.7844311276964
 30
0.0
 10
164.2889492382062
 20
184.7422684524016
 30
0.0
 10
164.2073893501998
 20
184.6762740402204
 30
0.0
 10
164.1105848221333
 20
184.6173595492593
 30
0.0
 10
164.0406489600529
 20
184.6095618037137
 30
0.0
 10
164.0160377987818
 20
184.6068176955056
 30
0.0
  0
SPLINE
  5
2C1
330
1F
100
AcDbEntity
  8
0
  6
Continuous
 62
     7
100
AcDbSpline
210
0.0
220
0.0
230
1.0
 70
     8
 71
     3
 72
    10
 73
     6
 74
     0
 42
0.0000000001
 43
0.0000000001
 40
0.0
 40
0.0
 40
0.0
 40
0.0
 40
0.3978932413593017
 40
0.7991966237555745
 40
1.0
 40
1.0
 40
1.0
 40
1.0
 10
163.5098846371563
 20
177.5442713601114
 30
0.0
 10
163.5111626544459
 20
177.5644836240638
 30
0.0
 10
163.5137296422626
 20
177.6050813810251
 30
0.0
 10
163.5359914918258
 20
177.6523878412015
 30
0.0
 10
163.55633711498
 20
177.6751112681153
 30
0.0
 10
163.5631224063964
 20
177.6826895601352
 30
0.0
  0
SPLINE
  5
2C2
330
1F
100
AcDbEntity
  8
0
  6
Continuous
 62
     7
100
AcDbSpline
210
0.0
220
0.0
230
1.0
 70
     8
 71
     3
 72
    10
 73
     6
 74
     0
 42
0.0000000001
 43
0.0000000001
 40
0.0
 40
0.0
 40
0.0
 40
0.0
 40
0.3550849980687164
 40
0.7092926775076707
 40
1.0
 40
1.0
 40
1.0
 40
1.0
 10
163.5631224063964
 20
177.6826895601352
 30
0.0
 10
163.5765627301265
 20
177.6935768421716
 30
0.0
 10
163.6034101701955
 20
177.7153245067265
 30
0.0
 10
163.6511482483922
 20
177.7284472510293
 30
0.0
 10
163.6822135653592
 20
177.7299335677826
 30
0.0
 10
163.696216829496
 20
177.7306035524511
 30
0.0
  0
SPLINE
  5
2C3
330
1F
100
AcDbEntity
  8
0
  6
Continuous
 62
     7
100
AcDbSpline
210
0.0
220
0.0
230
1.0
 70
     8
 71
     3
 72
    11
 73
     7
 74
     0
 42
0.0000000001
 43
0.0000000001
 40
0.0
 40
0.0
 40
0.0
 40
0.0
 40
0.1542871944609219
 40
0.4547580122273467
 40
0.7248351658323199
 40
1.0
 40
1.0
 40
1.0
 40
1.0
 10
163.696216829496
 20
177.7306035524511
 30
0.0
 10
163.7164289441036
 20
177.729046619778
 30
0.0
 10
163.7760036942569
 20
177.7244575959768
 30
0.0
 10
163.8636729113649
 20
177.6824820146491
 30
0.0
 10
163.9538152304387
 20
177.6184471726464
 30
0.0
 10
164.0055207716114
 20
177.5691499625433
 30
0.0
 10
164.0316147757075
 20
177.5442713601114
 30
0.0
  0
LINE
  5
2C4
330
1F
100
AcDbEntity
  8
0
  6
Continuous
 62
     7
100
AcDbLine
 10
164.0316147757
 20
177.5442713601
 30
0.0
 11
164.154061645
 21
177.4218244909
 31
0.0
  0
SPLINE
  5
2C5
330
1F
100
AcDbEntity
  8
0
  6
Continuous
 62
     7
100
AcDbSpline
210
0.0
220
0.0
230
1.0
 70
     8
 71
     3
 72
    11
 73
     7
 74
     0
 42
0.0000000001
 43
0.0000000001
 40
0.0
 40
0.0
 40
0.0
 40
0.0
 40
0.1539815569643959
 40
0.462329161318946
 40
0.8107880087854081
 40
1.0
 40
1.0
 40
1.0
 40
1.0
 10
164.1540616449593
 20
177.4218244908596
 30
0.0
 10
164.1681041820323
 20
177.4075427237516
 30
0.0
 10
164.2102668573271
 20
177.3646617609966
 30
0.0
 10
164.2762612695082
 20
177.2831018729901
 30
0.0
 10
164.3351757604694
 20
177.1862973449237
 30
0.0
 10
164.3429735060149
 20
177.1163614828433
 30
0.0
 10
164.345717614223
 20
177.0917503215722
 30
0.0
  0
SPLINE
  5
2C6
330
1F
100
AcDbEntity
  8
0
  6
Continuous
 62
     7
100
AcDbSpline
210
0.0
220
0.0
230
1.0
 70
     8
 71
     3
 72
    10
 73
     6
 74
     0
 42
0.0000000001
 43
0.0000000001
 40
0.0
 40
0.0
 40
0.0
 40
0.0
 40
0.3993503709947048
 40
0.7992905979550606
 40
1.0
 40
1.0
 40
1.0
 40
1.0
 10
164.345717614223
 20
177.0917503215722
 30
0.0
 10
164.3443717761667
 20
177.0714820351026
 30
0.0
 10
164.3416781121992
 20
177.0309155251194
 30
0.0
 10
164.3200133564541
 20
176.9832361461105
 30
0.0
 10
164.2993759232819
 20
176.9608219215706
 30
0.0
 10
164.2924798449831
 20
176.9533321215484
 30
0.0
  0
SPLINE
  5
2C7
330
1F
100
AcDbEntity
  8
0
  6
Continuous
 62
     7
100
AcDbSpline
210
0.0
220
0.0
230
1.0
 70
     8
 71
     3
 72
    10
 73
     6
 74
     0
 42
0.0000000001
 43
0.0000000001
 40
0.0
 40
0.0
 40
0.0
 40
0.0
 40
0.3480343855484986
 40
0.6947247737994986
 40
1.0
 40
1.0
 40
1.0
 40
1.0
 10
164.2924798449832
 20
176.9533321215484
 30
0.0
 10
164.2789178747047
 20
176.9418715715216
 30
0.0
 10
164.251846306132
 20
176.9189947284407
 30
0.0
 10
164.2025794526125
 20
176.9023782792779
 30
0.0
 10
164.169534537545
 20
176.9008227231558
 30
0.0
 10
164.1540616449593
 20
176.9000943523085
 30
0.0
  0
SPLINE
  5
2C8
330
1F
100
AcDbEntity
  8
0
  6
Continuous
 62
     7
100
AcDbSpline
210
0.0
220
0.0
230
1.0
 70
     8
 71
     3
 72
    11
 73
     7
 74
     0
 42
0.0000000001
 43
0.0000000001
 40
0.0
 40
0.0
 40
0.0
 40
0.0
 40
0.1551604652227238
 40
0.4343088967312323
 40
0.7147244444350797
 40
1.0
 40
1.0
 40
1.0
 40
1.0
 10
164.1540616449593
 20
176.9000943523085
 30
0.0
 10
164.1338600352504
 20
176.9019137188212
 30
0.0
 10
164.0773138086565
 20
176.9070062986982
 30
0.0
 10
163.9926411652328
 20
176.9504919707796
 30
0.0
 10
163.9039073258444
 20
177.0149743295866
 30
0.0
 10
163.8507795707815
 20
177.0660121642185
 30
0.0
 10
163.8239874756719
 20
177.091750321572
 30
0.0
  0
LINE
  5
2C9
330
1F
100
AcDbEntity
  8
0
  6
Continuous
 62
     7
100
AcDbLine
 10
163.8239874757
 20
177.0917503216
 30
0.0
 11
163.7015406064
 21
177.2141971908
 31
0.0
  0
SPLINE
  5
2CA
330
1F
100
AcDbEntity
  8
0
  6
Continuous
 62
     7
100
AcDbSpline
210
0.0
220
0.0
230
1.0
 70
     8
 71
     3
 72
    11
 73
     7
 74
     0
 42
0.0000000001
 43
0.0000000001
 40
0.0
 40
0.0
 40
0.0
 40
0.0
 40
0.1539815569644579
 40
0.4623291613187734
 40
0.8107880087855571
 40
1.0
 40
1.0
 40
1.0
 40
1.0
 10
163.70154060642
 20
177.2141971908239
 30
0.0
 10
163.6874980693472
 20
177.2284789579319
 30
0.0
 10
163.6453353940524
 20
177.271359920687
 30
0.0
 10
163.5793409818712
 20
177.3529198086935
 30
0.0
 10
163.5204264909102
 20
177.4497243367598
 30
0.0
 10
163.5126287453644
 20
177.5196601988403
 30
0.0
 10
163.5098846371563
 20
177.5442713601114
 30
0.0
  0
LINE
  5
2CB
330
1F
100
AcDbEntity
  8
0
  6
Continuous
 62
     7
100
AcDbLine
 10
159.8355309813
 20
173.3785620786
 30
0.0
 11
161.1246817449
 21
173.3689171328
 31
0.0
  0
LINE
  5
2CC
330
1F
100
AcDbEntity
  8
0
  6
Continuous
 62
     7
100
AcDbLine
 10
153.3495036130999
 20
181.1440952645
 30
0.0
 11
152.7881495705
 21
180.5827412219
 31
0.0
  0
ARC
  5
2CD
330
1F
100
AcDbEntity
  8
0
  6
Continuous
 62
     7
100
AcDbCircle
 10
160.5993627499
 20
181.3137776526
 30
0.0
 40
8.5000000000002
100
AcDbArc
 50
359.6629640591999
 51
0.3370359408
  0
ARC
  5
2CE
330
1F
100
AcDbEntity
  8
0
  6
Continuous
 62
     7
100
AcDbCircle
 10
160.5993627499
 20
181.3137776526
 30
0.0
 40
1.500000000000028
100
AcDbArc
 50
74.1645748679
 51
100.85312704
  0
ARC
  5
2CF
330
1F
100
AcDbEntity
  8
0
  6
Continuous
 62
     7
100
AcDbCircle
 10
160.5993627499
 20
181.3137776526
 30
0.0
 40
1.500000000000069
100
AcDbArc
 50
349.14687296
 51
15.8354251321
  0
CIRCLE
  5
2D0
330
1F
100
AcDbEntity
  8
0
  6
Continuous
 62
     7
100
AcDbCircle
 10
170.1155945138
 20
185.7512694009
 30
0.0
 40
2.499999999999988
  0
SPLINE
  5
2D1
330
1F
100
AcDbEntity
  8
0
  6
Continuous
 62
     7
100
AcDbSpline
210
0.0
220
0.0
230
1.0
 70
    24
 71
     3
 72
     9
 73
     5
 74
     0
 42
0.0000000001
 43
0.0000000001
 40
0.0
 40
0.0
 40
0.0
 40
0.0
 40
0.4953003012041519
 40
1.0
 40
1.0
 40
1.0
 40
1.0
 10
171.2910624356973
 20
184.9281654192185
 30
0.0
 10
171.3117144991314
 20
185.1641691841777
 30
0.0
 10
171.3534105437005
 20
185.6406553974616
 30
0.0
 10
171.3951111496011
 20
186.1171937358717
 30
0.0
 10
171.4161574328388
 20
186.3577024917319
 30
0.0
  0
SPLINE
  5
2D2
330
1F
100
AcDbEntity
  8
0
  6
Continuous
 62
     7
100
AcDbSpline
210
0.0
220
0.0
230
1.0
 70
    24
 71
     3
 72
     9
 73
     5
 74
     0
 42
0.0000000001
 43
0.0000000001
 40
0.0
 40
0.0
 40
0.0
 40
0.0
 40
0.4953003012042199
 40
1.0
 40
1.0
 40
1.0
 40
1.0
 10
171.4161574328388
 20
186.3577024917319
 30
0.0
 10
171.2220982087125
 20
186.493589585786
 30
0.0
 10
170.8302970657402
 20
186.7679425262621
 30
0.0
 10
170.4384530617504
 20
187.0423254795305
 30
0.0
 10
170.2406895109617
 20
187.1808064733997
 30
0.0
  0
SPLINE
  5
2D3
330
1F
100
AcDbEntity
  8
0
  6
Continuous
 62
     7
100
AcDbSpline
210
0.0
220
0.0
230
1.0
 70
    24
 71
     3
 72
     9
 73
     5
 74
     0
 42
0.0000000001
 43
0.0000000001
 40
0.0
 40
0.0
 40
0.0
 40
0.0
 40
0.4953003012041197
 40
1.0
 40
1.0
 40
1.0
 40
1.0
 10
170.2406895109615
 20
187.1808064733997
 30
0.0
 10
170.0259782234011
 20
187.0806898024946
 30
0.0
 10
169.5924810358595
 20
186.8785565296869
 30
0.0
 10
169.1589364259688
 20
186.6764011445451
 30
0.0
 10
168.9401265919425
 20
186.5743733825541
 30
0.0
  0
SPLINE
  5
2D4
330
1F
100
AcDbEntity
  8
0
  6
Continuous
 62
     7
100
AcDbSpline
210
0.0
220
0.0
230
1.0
 70
    24
 71
     3
 72
    11
 73
     7
 74
     0
 42
0.0000000001
 43
0.0000000001
 40
0.0
 40
0.0
 40
0.0
 40
0.0
 40
0.2468604812390011
 40
0.4952973775608835
 40
0.7470710644583268
 40
1.0
 40
1.0
 40
1.0
 40
1.0
 10
168.9401265919425
 20
186.5743733825541
 30
0.0
 10
168.9298685605078
 20
186.4571485809089
 30
0.0
 10
168.9092869913436
 20
186.2219503971065
 30
0.0
 10
168.8780298711895
 20
185.864756160231
 30
0.0
 10
168.8465176387803
 20
185.5046465995345
 30
0.0
 10
168.8255429462674
 20
185.2649559546886
 30
0.0
 10
168.8150315948008
 20
185.1448363100408
 30
0.0
  0
SPLINE
  5
2D5
330
1F
100
AcDbEntity
  8
0
  6
Continuous
 62
     7
100
AcDbSpline
210
0.0
220
0.0
230
1.0
 70
    24
 71
     3
 72
     9
 73
     5
 74
     0
 42
0.0000000001
 43
0.0000000001
 40
0.0
 40
0.0
 40
0.0
 40
0.0
 40
0.3016153332842683
 40
1.0
 40
1.0
 40
1.0
 40
1.0
 10
168.8150315948008
 20
185.1448363100408
 30
0.0
 10
168.932879558466
 20
185.0623150210129
 30
0.0
 10
169.3236022792973
 20
184.7887172296494
 30
0.0
 10
169.7162678811779
 20
184.5137589646413
 30
0.0
 10
169.9904995166781
 20
184.3217323283729
 30
0.0
  0
SPLINE
  5
2D6
330
1F
100
AcDbEntity
  8
0
  6
Continuous
 62
     7
100
AcDbSpline
210
0.0
220
0.0
230
1.0
 70
    24
 71
     3
 72
     9
 73
     5
 74
     0
 42
0.0000000001
 43
0.0000000001
 40
0.0
 40
0.0
 40
0.0
 40
0.0
 40
0.4953003012040986
 40
1.0
 40
1.0
 40
1.0
 40
1.0
 10
169.9904995166781
 20
184.3217323283729
 30
0.0
 10
170.2052108042386
 20
184.421848999278
 30
0.0
 10
170.6387079917802
 20
184.6239822720857
 30
0.0
 10
171.0722526016708
 20
184.8261376572275
 30
0.0
 10
171.2910624356973
 20
184.9281654192185
 30
0.0
  0
LINE
  5
2D7
330
1F
100
AcDbEntity
  8
0
  6
Continuous
 62
     7
100
AcDbLine
 10
172.3779436413999
 20
188.4612870029
 30
0.0
 11
171.0490231935
 21
188.94497914
 31
0.0
  0
LINE
  5
2D8
330
1F
100
AcDbEntity
  8
0
  6
Continuous
 62
     7
100
AcDbLine
 10
173.6457982828
 20
185.7423639502
 30
0.0
 11
172.3779436413999
 21
188.4612870029
 31
0.0
  0
LINE
  5
2D9
330
1F
100
AcDbEntity
  8
0
  6
Continuous
 62
     7
100
AcDbLine
 10
173.1621089013
 20
184.413437593
 30
0.0
 11
173.6457982828
 21
185.7423639502
 31
0.0
  0
LINE
  5
2DA
330
1F
100
AcDbEntity
  8
0
  6
Continuous
 62
     7
100
AcDbLine
 10
168.4532168070999
 20
182.2176451481
 30
0.0
 11
173.1621089013
 21
184.413437593
 31
0.0
  0
LINE
  5
2DB
330
1F
100
AcDbEntity
  8
0
  6
Continuous
 62
     7
100
AcDbLine
 10
166.3401254984
 20
186.7491840833
 30
0.0
 11
168.4532168070999
 21
182.2176451481
 31
0.0
  0
LINE
  5
2DC
330
1F
100
AcDbEntity
  8
0
  6
Continuous
 62
     7
100
AcDbLine
 10
171.0490231935
 20
188.94497914
 30
0.0
 11
166.3401254984
 21
186.7491840833
 31
0.0
  0
LINE
  5
2DD
330
1F
100
AcDbEntity
  8
0
  6
Continuous
 62
     7
100
AcDbLine
 10
165.8869716048
 20
186.5378749524
 30
0.0
 11
166.3401254984
 21
186.7491840833
 31
0.0
  0
LINE
  5
2DE
330
1F
100
AcDbEntity
  8
0
  6
Continuous
 62
     7
100
AcDbLine
 10
168.0000629135
 20
182.0063360172
 30
0.0
 11
166.0066738404
 21
182.7318703051
 31
0.0
  0
LINE
  5
2DF
330
1F
100
AcDbEntity
  8
0
  6
Continuous
 62
     7
100
AcDbLine
 10
166.0066738404
 20
182.7318703051
 30
0.0
 11
165.1614373169
 21
184.5444858791999
 31
0.0
  0
LINE
  5
2E0
330
1F
100
AcDbEntity
  8
0
  6
Continuous
 62
     7
100
AcDbLine
 10
165.1614373169
 20
184.5444858791999
 30
0.0
 11
165.8869716048
 21
186.5378749524
 31
0.0
  0
LINE
  5
2E1
330
1F
100
AcDbEntity
  8
0
  6
Continuous
 62
     7
100
AcDbLine
 10
168.4532168070999
 20
182.2176451481
 30
0.0
 11
168.0000629135
 21
182.0063360172
 31
0.0
  0
ARC
  5
2E2
330
1F
100
AcDbEntity
  8
0
  6
Continuous
 62
     7
100
AcDbCircle
 10
158.0125180587
 20
178.7010179196
 30
0.0
 40
1.731675892281456
100
AcDbArc
 50
315.047457065
 51
5.003690666899999
  0
ARC
  5
2E3
330
1F
100
AcDbEntity
  8
0
  6
Continuous
 62
     7
100
AcDbCircle
 10
157.9928685969
 20
178.7061888809
 30
0.0
 40
1.750812920127573
100
AcDbArc
 50
4.779028691
 51
134.6180228322
  0
CIRCLE
  5
2E4
330
1F
100
AcDbEntity
  8
0
  6
Continuous
 62
     7
100
AcDbCircle
 10
157.9752143698
 20
178.6784131125999
 30
0.0
 40
1.44411181967399
  0
ARC
  5
2E5
330
1F
100
AcDbEntity
  8
0
  6
Continuous
 62
     7
100
AcDbCircle
 10
158.5349035918
 20
179.8792456227
 30
0.0
 40
0.4461705599238398
100
AcDbArc
 50
200.3056778566
 51
288.8693641535
  0
ARC
  5
2E6
330
1F
100
AcDbEntity
  8
0
  6
Continuous
 62
     7
100
AcDbCircle
 10
157.8919049085
 20
179.6428963153
 30
0.0
 40
0.2388932179767981
100
AcDbArc
 50
19.9512772173
 51
169.0722238797
  0
ARC
  5
2E7
330
1F
100
AcDbEntity
  8
0
  6
Continuous
 62
     7
100
AcDbCircle
 10
157.2253166728
 20
179.7688953387
 30
0.0
 40
0.4395015434454155
100
AcDbArc
 50
259.8776575977
 51
349.4179328604
  0
ARC
  5
2E8
330
1F
100
AcDbEntity
  8
0
  6
Continuous
 62
     7
100
AcDbCircle
 10
157.1070639968
 20
179.1016923644
 30
0.0
 40
0.2381007261255794
100
AcDbArc
 50
80.08202962590001
 51
229.6377367398
  0
ARC
  5
2E9
330
1F
100
AcDbEntity
  8
0
  6
Continuous
 62
     7
100
AcDbCircle
 10
156.6639955816
 20
178.5833651942
 30
0.0
 40
0.4437897805970605
100
AcDbArc
 50
320.47994601
 51
49.3892684477
  0
ARC
  5
2EA
330
1F
100
AcDbEntity
  8
0
  6
Continuous
 62
     7
100
AcDbCircle
 10
157.1921314898
 20
178.1485092769
 30
0.0
 40
0.2403358939178734
100
AcDbArc
 50
140.6300615693
 51
288.9665284536
  0
ARC
  5
2EB
330
1F
100
AcDbEntity
  8
0
  6
Continuous
 62
     7
100
AcDbCircle
 10
157.4145411293
 20
177.4990289038
 30
0.0
 40
0.4461705599240272
100
AcDbArc
 50
20.3056778567
 51
108.8693641535
  0
ARC
  5
2EC
330
1F
100
AcDbEntity
  8
0
  6
Continuous
 62
     7
100
AcDbCircle
 10
158.0575398126
 20
177.7353782111999
 30
0.0
 40
0.2388932179769414
100
AcDbArc
 50
199.9512772173
 51
349.0722238797
  0
ARC
  5
2ED
330
1F
100
AcDbEntity
  8
0
  6
Continuous
 62
     7
100
AcDbCircle
 10
158.7241280483
 20
177.6093791877
 30
0.0
 40
0.4395015434453088
100
AcDbArc
 50
79.87765759770001
 51
169.4179328604
  0
ARC
  5
2EE
330
1F
100
AcDbEntity
  8
0
  6
Continuous
 62
     7
100
AcDbCircle
 10
158.8423807243
 20
178.276582162
 30
0.0
 40
0.2381007261256338
100
AcDbArc
 50
260.0820296259
 51
49.6377367398
  0
ARC
  5
2EF
330
1F
100
AcDbEntity
  8
0
  6
Continuous
 62
     7
100
AcDbCircle
 10
159.2854491395
 20
178.7949093323
 30
0.0
 40
0.4437897805970456
100
AcDbArc
 50
140.47994601
 51
229.3892684477
  0
ARC
  5
2F0
330
1F
100
AcDbEntity
  8
0
  6
Continuous
 62
     7
100
AcDbCircle
 10
158.7573132313
 20
179.2297652495
 30
0.0
 40
0.2403358939179074
100
AcDbArc
 50
320.6300615693
 51
108.9665284536
  0
SPLINE
  5
2F1
330
1F
100
AcDbEntity
  8
0
  6
Continuous
 62
     7
100
AcDbSpline
210
0.0
220
0.0
230
1.0
 70
     8
 71
     3
 72
     9
 73
     5
 74
     0
 42
0.0000000001
 43
0.0000000001
 40
0.0
 40
0.0
 40
0.0
 40
0.0
 40
0.2321026001809553
 40
1.0
 40
1.0
 40
1.0
 40
1.0
 10
157.7663712453262
 20
179.8453142408086
 30
0.0
 10
157.7619819678061
 20
179.8397317284367
 30
0.0
 10
157.7430710313643
 20
179.8156798118809
 30
0.0
 10
157.7377988426889
 20
179.7867814285609
 30
0.0
 10
157.7337503427138
 20
179.7645904351507
 30
0.0
  0
LINE
  5
2F2
330
1F
100
AcDbEntity
  8
0
  6
Continuous
 62
     7
100
AcDbLine
 10
157.7337503427
 20
179.7645904352
 30
0.0
 11
157.6573435588
 21
179.6881836512
 31
0.0
  0
LINE
  5
2F3
330
1F
100
AcDbEntity
  8
0
  6
Continuous
 62
     7
100
AcDbLine
 10
158.8777775002
 20
178.1184465509999
 30
0.0
 11
158.8013707163
 21
178.0420397671
 31
0.0
  0
SPLINE
  5
2F4
330
1F
100
AcDbEntity
  8
0
  6
Continuous
 62
     7
100
AcDbSpline
210
0.0
220
0.0
230
1.0
 70
     8
 71
     3
 72
     9
 73
     5
 74
     0
 42
0.0000000001
 43
0.0000000001
 40
0.0
 40
0.0
 40
0.0
 40
0.0
 40
0.5072788570471153
 40
1.0
 40
1.0
 40
1.0
 40
1.0
 10
158.8777775001804
 20
178.1184465510236
 30
0.0
 10
158.9045729354815
 20
178.1147043713278
 30
0.0
 10
158.9573948399012
 20
178.1073274037215
 30
0.0
 10
159.0088849292806
 20
178.1309082812125
 30
0.0
 10
159.0342551849704
 20
178.1425270781217
 30
0.0
  0
SPLINE
  5
2F5
330
1F
100
AcDbEntity
  8
0
  6
Continuous
 62
     7
100
AcDbSpline
210
0.0
220
0.0
230
1.0
 70
     8
 71
     3
 72
    10
 73
     6
 74
     0
 42
0.0000000001
 43
0.0000000001
 40
0.0
 40
0.0
 40
0.0
 40
0.0
 40
0.5436292896938473
 40
0.9969652423565504
 40
1.0
 40
1.0
 40
1.0
 40
1.0
 10
157.7337503427138
 20
179.7645904351507
 30
0.0
 10
157.7224809945938
 20
179.7226985294988
 30
0.0
 10
157.7018140647711
 20
179.6458726949408
 30
0.0
 10
157.6549727196815
 20
179.5683040418091
 30
0.0
 10
157.6209454333826
 20
179.5429704548851
 30
0.0
 10
157.62071915995
 20
179.5428019925038
 30
0.0
  0
SPLINE
  5
2F6
330
1F
100
AcDbEntity
  8
0
  6
Continuous
 62
     7
100
AcDbSpline
210
0.0
220
0.0
230
1.0
 70
     8
 71
     3
 72
    11
 73
     7
 74
     0
 42
0.0000000001
 43
0.0000000001
 40
0.0
 40
0.0
 40
0.0
 40
0.0
 40
0.2890136749748948
 40
0.5470189076450085
 40
0.8238983927553
 40
1.0
 40
1.0
 40
1.0
 40
1.0
 10
158.4978615825596
 20
178.0046085553535
 30
0.0
 10
158.5307227578916
 20
178.0324977691076
 30
0.0
 10
158.5929194142803
 20
178.0852839469385
 30
0.0
 10
158.7042949975995
 20
178.1241894843429
 30
0.0
 10
158.7989728321289
 20
178.1326413555448
 30
0.0
 10
158.8557173978901
 20
178.1224201587739
 30
0.0
 10
158.8777775001804
 20
178.1184465510236
 30
0.0
  0
ARC
  5
2F7
330
1F
100
AcDbEntity
  8
0
  6
Continuous
 62
     7
100
AcDbCircle
 10
158.0091518823
 20
178.7250373245
 30
0.0
 40
1.751076427297368
100
AcDbArc
 50
315.3704414885
 51
94.62920543580001
  0
ARC
  5
2F8
330
1F
100
AcDbEntity
  8
0
  6
Continuous
 62
     7
100
AcDbCircle
 10
158.0024022308
 20
178.7469660664
 30
0.0
 40
1.728681585111015
100
AcDbArc
 50
94.4648818619
 51
134.9805067554
  0
SPLINE
  5
2F9
330
1F
100
AcDbEntity
  8
0
  6
Continuous
 62
     7
100
AcDbSpline
210
0.0
220
0.0
230
1.0
 70
     8
 71
     3
 72
    12
 73
     8
 74
     0
 42
0.0000000001
 43
0.0000000001
 40
0.0
 40
0.0
 40
0.0
 40
0.0
 40
0.1373936000930462
 40
0.345128370705213
 40
0.555464846876066
 40
0.7784532695751345
 40
1.0
 40
1.0
 40
1.0
 40
1.0
 10
156.9765223380413
 20
179.2956259578678
 30
0.0
 10
156.9677595395564
 20
179.2818999174507
 30
0.0
 10
156.9457476673738
 20
179.2474205387739
 30
0.0
 10
156.9357543223194
 20
179.1820870712875
 30
0.0
 10
156.9450162359
 20
179.1103571019166
 30
0.0
 10
156.9765989805611
 20
179.0443855902696
 30
0.0
 10
157.0117526095347
 20
179.0125439245444
 30
0.0
 10
157.029272419851
 20
178.9966747252626
 30
0.0
  0
LINE
  5
2FA
330
1F
100
AcDbEntity
  8
0
  6
Continuous
 62
     7
100
AcDbLine
 10
157.0292724199
 20
178.9966747253
 30
0.0
 11
156.9528656359
 21
178.9202679413
 31
0.0
  0
SPLINE
  5
2FB
330
1F
100
AcDbEntity
  8
0
  6
Continuous
 62
     7
100
AcDbSpline
210
0.0
220
0.0
230
1.0
 70
     8
 71
     3
 72
    13
 73
     9
 74
     0
 42
0.0000000001
 43
0.0000000001
 40
0.0
 40
0.0
 40
0.0
 40
0.0
 40
0.2117437609635422
 40
0.388408793759094
 40
0.566001201798856
 40
0.7234727368618483
 40
0.8924513516388058
 40
1.0
 40
1.0
 40
1.0
 40
1.0
 10
157.029272419851
 20
178.9966747252626
 30
0.0
 10
157.0636426396062
 20
178.9653253817519
 30
0.0
 10
157.1266891045203
 20
178.9078202130388
 30
0.0
 10
157.182649272448
 20
178.7867189817111
 30
0.0
 10
157.1989228264853
 20
178.6620804300758
 30
0.0
 10
157.1779924196378
 20
178.5409879915396
 30
0.0
 10
157.1361055046904
 20
178.446825410991
 30
0.0
 10
157.0976852743626
 20
178.3968167821485
 30
0.0
 10
157.0827426470259
 20
178.377367125079
 30
0.0
  0
LINE
  5
2FC
330
1F
100
AcDbEntity
  8
0
  6
Continuous
 62
     7
100
AcDbLine
 10
157.082742647
 20
178.3773671251
 30
0.0
 11
157.0063358631
 21
178.3009603412
 31
0.0
  0
LINE
  5
2FD
330
1F
100
AcDbEntity
  8
0
  6
Continuous
 62
     7
100
AcDbLine
 10
157.9093910027
 20
177.730269629
 30
0.0
 11
157.8329842188
 21
177.653862845
 31
0.0
  0
SPLINE
  5
2FE
330
1F
100
AcDbEntity
  8
0
  6
Continuous
 62
     7
100
AcDbSpline
210
0.0
220
0.0
230
1.0
 70
     8
 71
     3
 72
    13
 73
     9
 74
     0
 42
0.0000000001
 43
0.0000000001
 40
0.0
 40
0.0
 40
0.0
 40
0.0
 40
0.2061829959625079
 40
0.4136018481410333
 40
0.6024863329570474
 40
0.7741591113683493
 40
0.9384148780835024
 40
1.0
 40
1.0
 40
1.0
 40
1.0
 10
157.9093910027373
 20
177.7302696289595
 30
0.0
 10
157.9204602105239
 20
177.7040182351822
 30
0.0
 10
157.9426649746783
 20
177.6513580973668
 30
0.0
 10
158.0087094564824
 20
177.5937289483739
 30
0.0
 10
158.0875734567513
 20
177.564171552377
 30
0.0
 10
158.1662119942233
 20
177.5652883704108
 30
0.0
 10
158.2253761654803
 20
177.5820396128347
 30
0.0
 10
158.2517286184781
 20
177.6027208187519
 30
0.0
 10
158.2589147353966
 20
177.6083604289905
 30
0.0
  0
SPLINE
  5
2FF
330
1F
100
AcDbEntity
  8
0
  6
Continuous
 62
     7
100
AcDbSpline
210
0.0
220
0.0
230
1.0
 70
     8
 71
     3
 72
    13
 73
     9
 74
     0
 42
0.0000000001
 43
0.0000000001
 40
0.0
 40
0.0
 40
0.0
 40
0.0
 40
0.2118356635324318
 40
0.3884856893727833
 40
0.5660625410946148
 40
0.7235315364658855
 40
0.8925202557703054
 40
1.0
 40
1.0
 40
1.0
 40
1.0
 10
157.3466512216065
 20
177.997628337255
 30
0.0
 10
157.3934209020156
 20
178.0108057469685
 30
0.0
 10
157.4791918776507
 20
178.0349718151902
 30
0.0
 10
157.616020432557
 20
178.0209079901659
 30
0.0
 10
157.7324985124813
 20
177.9717228239704
 30
0.0
 10
157.8240619356393
 20
177.8930636007725
 30
0.0
 10
157.8804396204231
 20
177.8103196306265
 30
0.0
 10
157.9012865576499
 20
177.7526782599436
 30
0.0
 10
157.9093910027373
 20
177.7302696289595
 30
0.0
  0
LINE
  5
300
330
1F
100
AcDbEntity
  8
0
  6
Continuous
 62
     7
100
AcDbLine
 10
157.3466512216
 20
177.9976283373
 30
0.0
 11
157.2702444377
 21
177.9212215533
 31
0.0
  0
SPLINE
  5
301
330
1F
100
AcDbEntity
  8
0
  6
Continuous
 62
     7
100
AcDbSpline
210
0.0
220
0.0
230
1.0
 70
     8
 71
     3
 72
    15
 73
    11
 74
     0
 42
0.0000000001
 43
0.0000000001
 40
0.0
 40
0.0
 40
0.0
 40
0.0
 40
0.1414769025131276
 40
0.2839268150276339
 40
0.4136460666672253
 40
0.5315412253215698
 40
0.6443381338354742
 40
0.7585434214305194
 40
0.879614926165993
 40
1.0
 40
1.0
 40
1.0
 40
1.0
 10
157.0827426470259
 20
178.377367125079
 30
0.0
 10
157.066060872571
 20
178.3532595044528
 30
0.0
 10
157.0325825944501
 20
178.3048784625958
 30
0.0
 10
157.0169908221411
 20
178.2157381331549
 30
0.0
 10
157.0319686241776
 20
178.1312851411965
 30
0.0
 10
157.0723703932256
 20
178.0623114573569
 30
0.0
 10
157.1299213667385
 20
178.0128238847834
 30
0.0
 10
157.1994503574913
 20
177.9843079557573
 30
0.0
 10
157.2751741862962
 20
177.9772559985931
 30
0.0
 10
157.32287074162
 20
177.9908504401342
 30
0.0
 10
157.3466512216065
 20
177.997628337255
 30
0.0
  0
LINE
  5
302
330
1F
100
AcDbEntity
  8
0
  6
Continuous
 62
     7
100
AcDbLine
 10
152.5066434456
 20
180.508290333
 30
0.0
 11
161.7480961166
 21
182.9524089679
 31
0.0
  0
ARC
  5
303
330
1F
100
AcDbEntity
  8
0
  6
Continuous
 62
     7
100
AcDbCircle
 10
161.8496926033
 20
182.564107506
 30
0.0
 40
0.4013724846224803
100
AcDbArc
 50
345.3376253123999
 51
104.6623746876
  0
LINE
  5
304
330
1F
100
AcDbEntity
  8
0
  6
Continuous
 62
     7
100
AcDbLine
 10
162.2379940652
 20
182.4625110193
 30
0.0
 11
159.7938754304
 21
173.2210583483
 31
0.0
  0
ARC
  5
305
330
1F
100
AcDbEntity
  8
0
  6
Continuous
 62
     7
100
AcDbCircle
 10
159.4103442599
 20
173.3239495779
 30
0.0
 40
0.3970928907211927
100
AcDbArc
 50
224.6453976218
 51
344.9826674386
  0
LINE
  5
306
330
1F
100
AcDbEntity
  8
0
  6
Continuous
 62
     7
100
AcDbLine
 10
159.1278247874
 20
173.0449056539
 30
0.0
 11
152.3304907512
 21
179.8422396901
 31
0.0
  0
ARC
  5
307
330
1F
100
AcDbEntity
  8
0
  6
Continuous
 62
     7
100
AcDbCircle
 10
152.6095346752
 20
180.1247591625999
 30
0.0
 40
0.3970928907213289
100
AcDbArc
 50
105.0173325614
 51
225.3546023781
  0
CIRCLE
  5
308
330
1F
100
AcDbEntity
  8
0
  6
Continuous
 62
     7
100
AcDbCircle
 10
157.9658011789
 20
178.6663959853
 30
0.0
 40
1.890228758597016
  0
ARC
  5
309
330
1F
100
AcDbEntity
  8
0
  6
Continuous
 62
     7
100
AcDbCircle
 10
157.99963493
 20
178.7140498327
 30
0.0
 40
1.900031024052672
100
AcDbArc
 50
135.327421459
 51
314.672578541
  0
LINE
  5
30A
330
1F
100
AcDbEntity
  8
0
  6
Continuous
 62
     7
100
AcDbLine
 10
271.9139527887
 20
191.1137776526
 30
0.0
 11
271.9139527887
 21
175.1137776659
 31
0.0
  0
LINE
  5
30B
330
1F
100
AcDbEntity
  8
0
  6
Continuous
 62
     7
100
AcDbLine
 10
177.5202649673
 20
193.1137776526
 30
0.0
 11
177.5202649673
 21
173.1137776526
 31
0.0
  0
SPLINE
  5
30C
330
1F
100
AcDbEntity
  8
0
  6
Continuous
 62
     7
100
AcDbSpline
210
0.0
220
0.0
230
1.0
 70
     8
 71
     3
 72
    15
 73
    11
 74
     0
 42
0.0000000001
 43
0.0000000001
 40
0.0
 40
0.0
 40
0.0
 40
0.0
 40
0.1668262646437114
 40
0.3391128105440596
 40
0.493331189339933
 40
0.623747340015643
 40
0.7299245474046546
 40
0.8363495637298257
 40
0.9384860163260711
 40
1.0
 40
1.0
 40
1.0
 40
1.0
 10
174.8139527886529
 20
189.431457689356
 30
0.0
 10
174.9806659727489
 20
189.3060914531706
 30
0.0
 10
175.3195489210321
 20
189.0512557005928
 30
0.0
 10
175.7143475191275
 20
188.4861251542908
 30
0.0
 10
175.9568444216229
 20
187.8069158994751
 30
0.0
 10
175.9967691051568
 20
187.094574329334
 30
0.0
 10
175.8488380888298
 20
186.4171240641586
 30
0.0
 10
175.5439319959988
 20
185.8295749499579
 30
0.0
 10
175.1731272016678
 20
185.4116224959101
 30
0.0
 10
174.9120777454454
 20
185.2259763109685
 30
0.0
 10
174.8139527886525
 20
185.1561944231233
 30
0.0
  0
LINE
  5
30D
330
1F
100
AcDbEntity
  8
0
  6
Continuous
 62
     7
100
AcDbLine
 10
174.8139527887
 20
185.1561944231
 30
0.0
 11
174.8139527887
 21
174.6762677174
 31
0.0
  0
LINE
  5
30E
330
1F
100
AcDbEntity
  8
0
  6
Continuous
 62
     7
100
AcDbLine
 10
174.8139527887
 20
191.5512875878
 30
0.0
 11
174.8139527887
 21
189.4314576894
 31
0.0
  0
SPLINE
  5
30F
330
1F
100
AcDbEntity
  8
0
  6
Continuous
 62
     7
100
AcDbSpline
210
0.0
220
0.0
230
1.0
 70
     8
 71
     3
 72
    12
 73
     8
 74
     0
 42
0.0000000001
 43
0.0000000001
 40
0.0
 40
0.0
 40
0.0
 40
0.0
 40
0.2028927480919947
 40
0.4073480393735097
 40
0.6166284726367551
 40
0.8274732362585883
 40
1.0
 40
1.0
 40
1.0
 40
1.0
 10
160.0936892396441
 20
190.299560551221
 30
0.0
 10
160.2306240831027
 20
190.3054546443687
 30
0.0
 10
160.5055483498856
 20
190.3172882229964
 30
0.0
 10
160.9235471339975
 20
190.3110259551754
 30
0.0
 10
161.3439118959925
 20
190.2861183902046
 30
0.0
 10
161.738028293981
 20
190.2448796637439
 30
0.0
 10
161.9872201776129
 20
190.2055821776377
 30
0.0
 10
162.0993627499351
 20
190.1878973272584
 30
0.0
  0
LINE
  5
310
330
1F
100
AcDbEntity
  8
0
  6
Continuous
 62
     7
100
AcDbLine
 10
168.0651730751
 20
174.6762677174
 30
0.0
 11
165.9091143318
 21
174.6762677174
 31
0.0
  0
SPLINE
  5
311
330
1F
100
AcDbEntity
  8
0
  6
Continuous
 62
     7
100
AcDbSpline
210
0.0
220
0.0
230
1.0
 70
     8
 71
     3
 72
    24
 73
    20
 74
     0
 42
0.0000000001
 43
0.0000000001
 40
0.0
 40
0.0
 40
0.0
 40
0.0
 40
0.0347975303507254
 40
0.105846311667695
 40
0.1421509950045147
 40
0.1769366234687594
 40
0.2474697516279361
 40
0.2832331651733557
 40
0.3346135877375599
 40
0.4391901689610851
 40
0.4923767874767261
 40
0.5298430159825795
 40
0.605140189959751
 40
0.6814995424548281
 40
0.7588325312139479
 40
0.7976273137827218
 40
0.8480383977346292
 40
0.9492237143337243
 40
1.0
 40
1.0
 40
1.0
 40
1.0
 10
169.7417868902001
 20
174.735736479046
 30
0.0
 10
169.7379799319112
 20
174.7329141283606
 30
0.0
 10
169.7264000154775
 20
174.7243291682426
 30
0.0
 10
169.6942195634854
 20
174.7146879586053
 30
0.0
 10
169.6509228010298
 20
174.7066116534038
 30
0.0
 10
169.600352578754
 20
174.6996044621669
 30
0.0
 10
169.5402154201151
 20
174.6940339234926
 30
0.0
 10
169.4643416015835
 20
174.6891539903023
 30
0.0
 10
169.3643492649851
 20
174.6844011046668
 30
0.0
 10
169.2426049698569
 20
174.681118170429
 30
0.0
 10
169.1213445180474
 20
174.6792006445074
 30
0.0
 10
169.0151556112056
 20
174.6780022253132
 30
0.0
 10
168.890352533058
 20
174.6771333398835
 30
0.0
 10
168.7349383193008
 20
174.6765950366066
 30
0.0
 10
168.6017440625546
 20
174.6763981109781
 30
0.0
 10
168.4854551285531
 20
174.6763138744941
 30
0.0
 10
168.3517611225251
 20
174.6762694350592
 30
0.0
 10
168.2086916521978
 20
174.6762678155325
 30
0.0
 10
168.1011177144998
 20
174.6762677420145
 30
0.0
 10
168.0651730751345
 20
174.6762677174494
 30
0.0
  0
SPLINE
  5
312
330
1F
100
AcDbEntity
  8
0
  6
Continuous
 62
     7
100
AcDbSpline
210
0.0
220
0.0
230
1.0
 70
     8
 71
     3
 72
    20
 73
    16
 74
     0
 42
0.0000000001
 43
0.0000000001
 40
0.0
 40
0.0
 40
0.0
 40
0.0
 40
0.0809536584574252
 40
0.1644094956608679
 40
0.2453633158994987
 40
0.328606333433525
 40
0.4114534120842732
 40
0.4960148366210257
 40
0.594859038938998
 40
0.6956877201133711
 40
0.8143100397196775
 40
0.875726537920198
 40
0.937113782514948
 40
0.9684903520326432
 40
1.0
 40
1.0
 40
1.0
 40
1.0
 10
172.2952101494459
 20
183.6337427395061
 30
0.0
 10
172.3754340134267
 20
183.2851724712582
 30
0.0
 10
172.5383613630779
 20
182.577258053343
 30
0.0
 10
172.6172490179812
 20
181.4993584852226
 30
0.0
 10
172.5771493128573
 20
180.4397407942425
 30
0.0
 10
172.4200607648068
 20
179.436370713344
 30
0.0
 10
172.1644959422716
 20
178.4966423259978
 30
0.0
 10
171.8141992094158
 20
177.595385461834
 30
0.0
 10
171.3780329187612
 20
176.7541175807908
 30
0.0
 10
170.8565766047515
 20
175.9646235277106
 30
0.0
 10
170.4084366510805
 20
175.4187067071427
 30
0.0
 10
170.0796426249125
 20
175.0654535041574
 30
0.0
 10
169.9082548781283
 20
174.8943494120962
 30
0.0
 10
169.8001112168914
 20
174.7904193571901
 30
0.0
 10
169.7612557408025
 20
174.7539898022388
 30
0.0
 10
169.7417868902001
 20
174.735736479046
 30
0.0
  0
LINE
  5
313
330
1F
100
AcDbEntity
  8
0
  6
Continuous
 62
     7
100
AcDbLine
 10
172.2952101494
 20
183.6337427395
 30
0.0
 11
172.6282014106
 21
184.1093035455
 31
0.0
  0
LINE
  5
314
330
1F
100
AcDbEntity
  8
0
  6
Continuous
 62
     7
100
AcDbLine
 10
174.5012945039
 20
184.9827411993
 30
0.0
 11
172.6282014106
 21
184.1093035455
 31
0.0
  0
LINE
  5
315
330
1F
100
AcDbEntity
  8
0
  6
Continuous
 62
     7
100
AcDbLine
 10
170.4728482758
 20
188.7314732593
 30
0.0
 11
172.3459413691
 21
189.6049109132
 31
0.0
  0
LINE
  5
316
330
1F
100
AcDbEntity
  8
0
  6
Continuous
 62
     7
100
AcDbLine
 10
168.42511496
 20
188.9106267104
 30
0.0
 11
170.4728482758
 21
188.7314732593
 31
0.0
  0
SPLINE
  5
317
330
1F
100
AcDbEntity
  8
0
  6
Continuous
 62
     7
100
AcDbSpline
210
0.0
220
0.0
230
1.0
 70
     8
 71
     3
 72
    19
 73
    15
 74
     0
 42
0.0000000001
 43
0.0000000001
 40
0.0
 40
0.0
 40
0.0
 40
0.0
 40
0.0671890906468307
 40
0.134894143632702
 40
0.2044644704023912
 40
0.2747741824007549
 40
0.3419838362716179
 40
0.4097837413364897
 40
0.4791604414913639
 40
0.5489627105670698
 40
0.6597530010130832
 40
0.7714724850055009
 40
0.8854320710303584
 40
1.0
 40
1.0
 40
1.0
 40
1.0
 10
162.0993627499351
 20
190.1878973272584
 30
0.0
 10
162.2492299135736
 20
190.2110038587279
 30
0.0
 10
162.5501151094149
 20
190.2573943626756
 30
0.0
 10
163.0184104903461
 20
190.2989285422109
 30
0.0
 10
163.4989622891912
 20
190.3176870512583
 30
0.0
 10
163.9797071755385
 20
190.3099509447699
 30
0.0
 10
164.4522531906111
 20
190.27729637197
 30
0.0
 10
164.9147936776444
 20
190.2211817088748
 30
0.0
 10
165.3723095106381
 20
190.1414967604175
 30
0.0
 10
165.9096150557818
 20
190.0190311028991
 30
0.0
 10
166.5144038810903
 20
189.8387111608553
 30
0.0
 10
167.1769536507361
 20
189.581598265348
 30
0.0
 10
167.8176032090901
 20
189.2774172434451
 30
0.0
 10
168.222251983109
 20
189.0331070069907
 30
0.0
 10
168.425114960027
 20
188.9106267103955
 30
0.0
  0
SPLINE
  5
318
330
1F
100
AcDbEntity
  8
0
  6
Continuous
 62
     7
100
AcDbSpline
210
0.0
220
0.0
230
1.0
 70
     8
 71
     3
 72
    13
 73
     9
 74
     0
 42
0.0000000001
 43
0.0000000001
 40
0.0
 40
0.0
 40
0.0
 40
0.0
 40
0.2216143174595892
 40
0.4450202449207031
 40
0.6436902066028097
 40
0.7733869037115515
 40
0.9067407572539481
 40
1.0
 40
1.0
 40
1.0
 40
1.0
 10
172.345941369065
 20
189.6049109131833
 30
0.0
 10
172.5177070542442
 20
189.6730015305894
 30
0.0
 10
172.8626270402975
 20
189.8097332344894
 30
0.0
 10
173.4602017756248
 20
189.8653147575138
 30
0.0
 10
173.9592838666441
 20
189.7997781103907
 30
0.0
 10
174.3359694352231
 20
189.6821901112907
 30
0.0
 10
174.6012983792741
 20
189.5623513896784
 30
0.0
 10
174.7519530882564
 20
189.4696199368612
 30
0.0
 10
174.8139527886529
 20
189.431457689356
 30
0.0
  0
SPLINE
  5
319
330
1F
100
AcDbEntity
  8
0
  6
Continuous
 62
     7
100
AcDbSpline
210
0.0
220
0.0
230
1.0
 70
     8
 71
     3
 72
     9
 73
     5
 74
     0
 42
0.0000000001
 43
0.0000000001
 40
0.0
 40
0.0
 40
0.0
 40
0.0
 40
0.4986865864714138
 40
1.0
 40
1.0
 40
1.0
 40
1.0
 10
174.8139527886526
 20
185.1561944231231
 30
0.0
 10
174.7635885820991
 20
185.1246725667883
 30
0.0
 10
174.6625948759921
 20
185.0614628130271
 30
0.0
 10
174.5551553696265
 20
185.0090276499083
 30
0.0
 10
174.5012945039425
 20
184.9827411992963
 30
0.0
  0
SPLINE
  5
31A
330
1F
100
AcDbEntity
  8
0
  6
Continuous
 62
     7
100
AcDbSpline
210
0.0
220
0.0
230
1.0
 70
     8
 71
     3
 72
    11
 73
     7
 74
     0
 42
0.0000000001
 43
0.0000000001
 40
0.0
 40
0.0
 40
0.0
 40
0.0
 40
0.2497025359433999
 40
0.4995216845291603
 40
0.749699307034028
 40
1.0
 40
1.0
 40
1.0
 40
1.0
 10
155.4939816311973
 20
187.8404737832156
 30
0.0
 10
155.5133799487861
 20
187.8786996920055
 30
0.0
 10
155.5521856430989
 20
187.9551693613232
 30
0.0
 10
155.6135952828841
 20
188.0682821958748
 30
0.0
 10
155.6771732607574
 20
188.1803097014617
 30
0.0
 10
155.7217005222913
 20
188.2537879058568
 30
0.0
 10
155.7439696278116
 20
188.2905360424082
 30
0.0
  0
LINE
  5
31B
330
1F
100
AcDbEntity
  8
0
  6
Continuous
 62
     7
100
AcDbLine
 10
155.4939816312
 20
188.7255981869
 30
0.0
 11
155.4939816312
 21
188.995244843
 31
0.0
  0
SPLINE
  5
31C
330
1F
100
AcDbEntity
  8
0
  6
Continuous
 62
     7
100
AcDbSpline
210
0.0
220
0.0
230
1.0
 70
     8
 71
     3
 72
    24
 73
    20
 74
     0
 42
0.0000000001
 43
0.0000000001
 40
0.0
 40
0.0
 40
0.0
 40
0.0
 40
0.0238820625083514
 40
0.0958064823050842
 40
0.13548604490429
 40
0.1751661753162469
 40
0.2566684235610943
 40
0.3397724731091658
 40
0.4092259210987656
 40
0.4798947896815179
 40
0.5513781272200827
 40
0.5898816450278292
 40
0.6283847100208241
 40
0.7066701020318665
 40
0.7858511066631687
 40
0.8211476592014868
 40
0.8564441225193432
 40
0.9279084386858396
 40
1.0
 40
1.0
 40
1.0
 40
1.0
 10
155.4939816311973
 20
188.725598186893
 30
0.0
 10
155.5084629885409
 20
188.7355364518763
 30
0.0
 10
155.5665571295144
 20
188.7754052951944
 30
0.0
 10
155.66643625087
 20
188.8420937867824
 30
0.0
 10
155.7978529532831
 20
188.9263387686304
 30
0.0
 10
155.9535748767484
 20
189.0230240561217
 30
0.0
 10
156.1818397797189
 20
189.1575566386963
 30
0.0
 10
156.4875323135786
 20
189.3222666020304
 30
0.0
 10
156.8134898863025
 20
189.4813194528078
 30
0.0
 10
157.1488428281849
 20
189.6289327989387
 30
0.0
 10
157.4547375940855
 20
189.7484411550472
 30
0.0
 10
157.7164457817076
 20
189.8404751888533
 30
0.0
 10
157.9969811729845
 20
189.9315722141784
 30
0.0
 10
158.3628176300749
 20
190.0355627670952
 30
0.0
 10
158.7343658524156
 20
190.1207279980978
 30
0.0
 10
159.027447630238
 20
190.1763009268265
 30
0.0
 10
159.3075402381035
 20
190.2224657116484
 30
0.0
 10
159.6634583714607
 20
190.2693941647778
 30
0.0
 10
159.9498618184318
 20
190.2894758411496
 30
0.0
 10
160.0936892396441
 20
190.299560551221
 30
0.0
  0
LINE
  5
31D
330
1F
100
AcDbEntity
  8
0
  6
Continuous
 62
     7
100
AcDbLine
 10
172.6282014106
 20
184.1093035455
 30
0.0
 11
172.2147956472
 21
183.916529272
 31
0.0
  0
ARC
  5
31E
330
1F
100
AcDbEntity
  8
0
  6
Continuous
 62
     7
100
AcDbCircle
 10
163.5993627499
 20
181.3137776527
 30
0.0
 40
9.000000000002101
100
AcDbArc
 50
14.9380140593
 51
16.8097455069
  0
LINE
  5
31F
330
1F
100
AcDbEntity
  8
0
  6
Continuous
 62
     7
100
AcDbLine
 10
169.3723586205
 20
188.2183065054
 30
0.0
 11
170.4728482758
 21
188.7314732593
 31
0.0
  0
ARC
  5
320
330
1F
100
AcDbEntity
  8
0
  6
Continuous
 62
     7
100
AcDbCircle
 10
163.5993627499
 20
181.3137776526
 30
0.0
 40
8.999999999999976
100
AcDbArc
 50
50.10042166699999
 51
57.5750313264
  0
ARC
  5
321
330
1F
100
AcDbEntity
  8
0
  6
Continuous
 62
     7
100
AcDbCircle
 10
163.5993627499
 20
181.3137776526
 30
0.0
 40
7.999999999999992
100
AcDbArc
 50
303.9332224632
 51
15.7775389496
  0
SPLINE
  5
322
330
1F
100
AcDbEntity
  8
0
  6
Continuous
 62
     7
100
AcDbSpline
210
0.0
220
0.0
230
1.0
 70
    24
 71
     3
 72
    17
 73
    13
 74
     0
 42
0.0000000001
 43
0.0000000001
 40
0.0
 40
0.0
 40
0.0
 40
0.0
 40
0.107449480420958
 40
0.2179965987643645
 40
0.3254519728227919
 40
0.4360649573336961
 40
0.5427566128365231
 40
0.6526105757095491
 40
0.7581190288905359
 40
0.8667417347078123
 40
0.9329941029490099
 40
1.0
 40
1.0
 40
1.0
 40
1.0
 10
171.2979600195133
 20
183.489001797575
 30
0.0
 10
171.3492518264131
 20
183.512919559933
 30
0.0
 10
171.4533141206635
 20
183.5614446046672
 30
0.0
 10
171.6043794680029
 20
183.6318875330134
 30
0.0
 10
171.7481173910696
 20
183.6989136273066
 30
0.0
 10
171.877458044682
 20
183.7592261645969
 30
0.0
 10
171.9910460685241
 20
183.8121931299891
 30
0.0
 10
172.0832018251394
 20
183.8551660650419
 30
0.0
 10
172.1534870491407
 20
183.8879406032488
 30
0.0
 10
172.1928200209743
 20
183.9062818692329
 30
0.0
 10
172.2118377294354
 20
183.9151499723288
 30
0.0
 10
172.2138059647335
 20
183.9160677755214
 30
0.0
 10
172.2147956472231
 20
183.9165292720454
 30
0.0
  0
ARC
  5
323
330
1F
100
AcDbEntity
  8
0
  6
Continuous
 62
     7
100
AcDbCircle
 10
163.5993627499
 20
181.3137776526
 30
0.0
 40
8.000000000000001
100
AcDbArc
 50
53.50476518069999
 51
90.89528298659999
  0
SPLINE
  5
324
330
1F
100
AcDbEntity
  8
0
  6
Continuous
 62
     7
100
AcDbSpline
210
0.0
220
0.0
230
1.0
 70
     8
 71
     3
 72
    20
 73
    16
 74
     0
 42
0.0000000001
 43
0.0000000001
 40
0.0
 40
0.0
 40
0.0
 40
0.0
 40
0.150671599897766
 40
0.2265421527295995
 40
0.3027696264374704
 40
0.3977521632037589
 40
0.4462781989390915
 40
0.4951920467722561
 40
0.5903615551243572
 40
0.6394379439433066
 40
0.6889348881227419
 40
0.7769134753740721
 40
0.8671497658833457
 40
0.9331101885882722
 40
1.0
 40
1.0
 40
1.0
 40
1.0
 10
163.4743627499351
 20
189.3128010304971
 30
0.0
 10
163.3801724260668
 20
189.3474583150057
 30
0.0
 10
163.2385526466928
 20
189.3995672449279
 30
0.0
 10
163.0543204219689
 20
189.4805963820718
 30
0.0
 10
162.908225774639
 20
189.5541027569359
 30
0.0
 10
162.7850994928828
 20
189.6290832692215
 30
0.0
 10
162.6855882692742
 20
189.7013888943687
 30
0.0
 10
162.5924664026592
 20
189.7772037143066
 30
0.0
 10
162.5094840174125
 20
189.8562024847256
 30
0.0
 10
162.4365613785331
 20
189.9319357780886
 30
0.0
 10
162.3721234726087
 20
190.000680939848
 30
0.0
 10
162.3017919807778
 20
190.0746314322651
 30
0.0
 10
162.2343162323445
 20
190.133685993342
 30
0.0
 10
162.1764229367581
 20
190.1701150660492
 30
0.0
 10
162.1431485085825
 20
190.1788750534268
 30
0.0
 10
162.1263949044936
 20
190.1832856885118
 30
0.0
  0
SPLINE
  5
325
330
1F
100
AcDbEntity
  8
0
  6
Continuous
 62
     7
100
AcDbSpline
210
0.0
220
0.0
230
1.0
 70
    24
 71
     3
 72
    17
 73
    13
 74
     0
 42
0.0000000001
 43
0.0000000001
 40
0.0
 40
0.0
 40
0.0
 40
0.0
 40
0.0924887615441389
 40
0.1877638308305347
 40
0.2802289304572678
 40
0.3752108354477749
 40
0.4710608069012225
 40
0.5692667035211081
 40
0.6737508939177627
 40
0.7807323035507397
 40
0.8891957534119294
 40
1.0
 40
1.0
 40
1.0
 40
1.0
 10
169.3723586204908
 20
188.2183065053655
 30
0.0
 10
169.3700531814526
 20
188.2172314614866
 30
0.0
 10
169.3653728499363
 20
188.2150489870579
 30
0.0
 10
169.3279009413708
 20
188.1975755491281
 30
0.0
 10
169.2692413500683
 20
188.1702221324795
 30
0.0
 10
169.1896284648781
 20
188.1330980344275
 30
0.0
 10
169.0903330243711
 20
188.0867958100991
 30
0.0
 10
168.9719716642623
 20
188.0316030014508
 30
0.0
 10
168.8358071196127
 20
187.9681084315115
 30
0.0
 10
168.6847165976814
 20
187.8976537640604
 30
0.0
 10
168.5237236469255
 20
187.8225815182139
 30
0.0
 10
168.4132411586882
 20
187.7710626878568
 30
0.0
 10
168.357410185551
 20
187.7450282775208
 30
0.0
  0
ARC
  5
326
330
1F
100
AcDbEntity
  8
0
  6
Continuous
 62
     7
100
AcDbCircle
 10
160.5993627499
 20
181.3137776526
 30
0.0
 40
8.500000000000001
100
AcDbArc
 50
70.2306049282
 51
126.9152516124
  0
SPLINE
  5
327
330
1F
100
AcDbEntity
  8
0
  6
Continuous
 62
     7
100
AcDbSpline
210
0.0
220
0.0
230
1.0
 70
    24
 71
     3
 72
    15
 73
    11
 74
     0
 42
0.0000000001
 43
0.0000000001
 40
0.0
 40
0.0
 40
0.0
 40
0.0
 40
0.1283259818239054
 40
0.2606968909182736
 40
0.3889605439891548
 40
0.5205793302024197
 40
0.6566924312714307
 40
0.7957462956146467
 40
0.8974317509244404
 40
1.0
 40
1.0
 40
1.0
 40
1.0
 10
155.4939816311973
 20
188.725598186893
 30
0.0
 10
155.4939816311973
 20
188.7231528514569
 30
0.0
 10
155.4939816311973
 20
188.7181851018525
 30
0.0
 10
155.4939816311973
 20
188.6785884735149
 30
0.0
 10
155.4939816311974
 20
188.6171848088138
 30
0.0
 10
155.4939816311972
 20
188.5341105660871
 30
0.0
 10
155.493981631198
 20
188.4307462405585
 30
0.0
 10
155.4939816311972
 20
188.3209364142462
 30
0.0
 10
155.4939816311974
 20
188.2127728161475
 30
0.0
 10
155.4939816311973
 20
188.1441820793283
 30
0.0
 10
155.4939816311973
 20
188.1097384847824
 30
0.0
  0
ARC
  5
328
330
1F
100
AcDbEntity
  8
0
  6
Continuous
 62
     7
100
AcDbCircle
 10
160.5993627499
 20
181.3137776526
 30
0.0
 40
8.500000000000003
100
AcDbArc
 50
308.6584588478
 51
358.3147692684
  0
ARC
  5
329
330
1F
100
AcDbEntity
  8
0
  6
Continuous
 62
     7
100
AcDbCircle
 10
169.0993627499
 20
181.3137776526
 30
0.0
 40
0.2500000000000136
100
AcDbArc
 50
269.1573846342
 51
270.0
  0
LINE
  5
32A
330
1F
100
AcDbEntity
  8
0
  6
Continuous
 62
     7
100
AcDbLine
 10
169.0993627499
 20
181.0637776525999
 30
0.0
 11
170.0993627499
 21
181.0637776525999
 31
0.0
  0
ARC
  5
32B
330
1F
100
AcDbEntity
  8
0
  6
Continuous
 62
     7
100
AcDbCircle
 10
170.0993627499
 20
181.3137776526
 30
0.0
 40
0.25
100
AcDbArc
 50
270.0
 51
90.0
  0
LINE
  5
32C
330
1F
100
AcDbEntity
  8
0
  6
Continuous
 62
     7
100
AcDbLine
 10
170.0993627499
 20
181.5637776526
 30
0.0
 11
169.0993627499
 21
181.5637776526
 31
0.0
  0
ARC
  5
32D
330
1F
100
AcDbEntity
  8
0
  6
Continuous
 62
     7
100
AcDbCircle
 10
169.0993627499
 20
181.3137776526
 30
0.0
 40
0.2500000000000136
100
AcDbArc
 50
90.0
 51
90.84261536579999
  0
LWPOLYLINE
  5
32E
330
1F
100
AcDbEntity
  8
0
  6
Continuous
 62
     7
100
AcDbPolyline
 90
        3
 70
   128
 43
0.0
 10
169.0956862793
 20
181.5637506183
 10
169.0286183461
 20
182.4081496622
 10
169.0187876726
 20
182.4813751739
  0
ARC
  5
32F
330
1F
100
AcDbEntity
  8
0
  6
Continuous
 62
     7
100
AcDbCircle
 10
160.5993627499
 20
181.3137776526
 30
0.0
 40
8.500000000000012
100
AcDbArc
 50
42.1046351766
 51
70.2306049282
  0
LINE
  5
330
330
1F
100
AcDbEntity
  8
0
  6
Continuous
 62
     7
100
AcDbLine
 10
155.4939816312
 20
187.8404737832
 30
0.0
 11
155.4939816312
 21
183.2885732825999
 31
0.0
  0
ARC
  5
331
330
1F
100
AcDbEntity
  8
0
  6
Continuous
 62
     7
100
AcDbCircle
 10
160.5993627499
 20
181.3137776526
 30
0.0
 40
5.049999999981377
100
AcDbArc
 50
127.4691568878
 51
142.5308431122
  0
LINE
  5
332
330
1F
100
AcDbEntity
  8
0
  6
Continuous
 62
     7
100
AcDbLine
 10
160.0936892396
 20
191.5512875878
 30
0.0
 11
160.0936892396
 21
190.2995605512
 31
0.0
  0
LINE
  5
333
330
1F
100
AcDbEntity
  8
印刷しない
100
AcDbLine
 10
155.3191860012
 20
183.1137776526
 30
0.0
 11
147.3189493171999
 21
183.1137776526
 31
0.0
  0
LINE
  5
334
330
1F
100
AcDbEntity
  8
印刷しない
100
AcDbLine
 10
152.2127131783
 20
179.960017263
 30
0.0
 11
152.2127131783
 21
183.1137776526
 31
0.0
  0
LINE
  5
335
330
1F
100
AcDbEntity
  8
0
  6
Continuous
 62
     7
100
AcDbLine
 10
163.8036200078
 20
168.3691104335
 30
0.0
 11
178.7583418070999
 21
153.4143886342
 31
0.0
  0
LINE
  5
336
330
1F
100
AcDbEntity
  8
印刷しない
100
AcDbLine
 10
168.2566952561
 20
172.8392928821
 30
0.0
 11
158.8973292058
 21
172.8392928821
 31
0.0
  0
LINE
  5
337
330
1F
100
AcDbEntity
  8
印刷しない
100
AcDbLine
 10
168.2566952561
 20
193.3882624231
 30
0.0
 11
158.8973292058
 21
193.3882624231
 31
0.0
  0
LINE
  5
338
330
1F
100
AcDbEntity
  8
印刷しない
100
AcDbLine
 10
159.4085592332
 20
172.9271280809
 30
0.0
 11
167.3865298776
 21
172.9271280809
 31
0.0
  0
LINE
  5
339
330
1F
100
AcDbEntity
  8
印刷しない
100
AcDbLine
 10
159.4085592332
 20
193.3004272243
 30
0.0
 11
167.3865298776
 21
193.3004272243
 31
0.0
  0
LINE
  5
33A
330
1F
100
AcDbEntity
  8
印刷しない
100
AcDbLine
 10
152.1248779794
 20
184.0557878321
 30
0.0
 11
152.1248779794
 21
181.4857558097
 31
0.0
  0
LINE
  5
33B
330
1F
100
AcDbEntity
  8
印刷しない
100
AcDbLine
 10
152.2127131783
 20
179.960017263
 30
0.0
 11
152.4350493813
 21
179.7376810599
 31
0.0
  0
LINE
  5
33C
330
1F
100
AcDbEntity
  8
印刷しない
100
AcDbLine
 10
152.2127131783
 20
186.2675380422
 30
0.0
 11
152.4350493813
 21
186.4898742453
 31
0.0
  0
LINE
  5
33D
330
1F
100
AcDbEntity
  8
印刷しない
100
AcDbLine
 10
159.0707053359
 20
173.1020251054
 30
0.0
 11
159.2456023603
 21
172.9271280809
 31
0.0
  0
CIRCLE
  5
33E
330
1F
100
AcDbEntity
  8
0
  6
PHANTOM
 62
     7
100
AcDbCircle
 10
160.5993627499
 20
181.3137776526
 30
0.0
 40
8.474484770534402
  0
INSERT
  5
33F
330
1F
100
AcDbEntity
  8
0
  6
Continuous
 62
     7
100
AcDbBlockReference
  2
ﾌﾞﾛｯｸ1
 10
271.9157602301
 20
181.3417761695
 30
0.0
 41
1.5
 42
1.5
 43
1.5
  0
DIMENSION
  5
340
330
1F
100
AcDbEntity
  8
0
  6
Continuous
 62
     7
100
AcDbDimension
  2
_D
 10
271.9139527887
 20
102.7620629414
 30
0.0
 11
208.4198499301
 21
102.7620629414
 31
0.0
 70
   160
  1
<>
 71
     5
 42
-1.0
  3
SLDDIMSTYLE0
100
AcDbAlignedDimension
 13
152.2127131783
 23
181.5368974578
 33
0.0
 14
271.9139527887
 24
175.1137776526
 34
0.0
100
AcDbRotatedDimension
  0
DIMENSION
  5
352
330
1F
100
AcDbEntity
  8
0
  6
Continuous
 62
     7
100
AcDbDimension
  2
_D_1
 10
174.8139527887
 20
120.7620629414
 30
0.0
 11
164.1394609855
 21
120.7620629414
 31
0.0
 70
   160
  1
<>
 71
     5
 42
-1.0
  3
SLDDIMSTYLE0
100
AcDbAlignedDimension
 13
152.2127131783
 23
179.960017263
 33
0.0
 14
174.8139527887
 24
174.6762677174
 34
0.0
100
AcDbRotatedDimension
  0
DIMENSION
  5
35C
330
1F
100
AcDbEntity
  8
0
  6
Continuous
 62
     7
100
AcDbDimension
  2
_D_2
 10
152.3304907512
 20
179.8422396901
 30
0.0
 11
164.1394609855
 21
138.7620629414
 31
0.0
 70
   162
  1
<>
 71
     5
 42
-1.0
  3
SLDDIMSTYLE1
100
AcDb2LineAngularDimension
 13
152.2127131783
 23
183.1137776526
 33
0.0
 14
152.2127131783
 24
179.960017263
 34
0.0
 15
159.1278247874
 25
173.0449056539
 35
0.0
 16
168.6258568259
 26
140.3351832678
 36
0.0
  0
DIMENSION
  5
367
330
1F
100
AcDbEntity
  8
0
  6
Continuous
 62
     7
100
AcDbDimension
  2
_D_3
 10
118.0476480387
 20
172.9271280809
 30
0.0
 11
118.0476480387
 21
183.5855583535
 31
0.0
 70
   160
  1
%%c<>
 71
     5
 42
-1.0
  3
SLDDIMSTYLE2
100
AcDbAlignedDimension
 13
159.4085592332
 23
193.3004272243
 33
0.0
 14
159.4085592332
 24
172.9271280809
 34
0.0
 50
90.0
100
AcDbRotatedDimension
  0
DIMENSION
  5
374
330
1F
100
AcDbEntity
  8
0
  6
Continuous
 62
     7
100
AcDbDimension
  2
_D_4
 10
130.0476480387
 20
179.960017263
 30
0.0
 11
130.0476480387
 21
183.5855583535
 31
0.0
 70
   160
  1
%%c<>
 71
     5
 42
-1.0
  3
SLDDIMSTYLE2
100
AcDbAlignedDimension
 13
152.2127131783
 23
186.2675380422
 33
0.0
 14
152.2127131783
 24
179.960017263
 34
0.0
 50
90.0
100
AcDbRotatedDimension
  0
DIMENSION
  5
37D
330
1F
100
AcDbEntity
  8
0
  6
Continuous
 62
     7
100
AcDbDimension
  2
_D_5
 10
152.2127131783
 20
150.7620629414
 30
0.0
 11
142.0476480387
 21
150.7620629414
 31
0.0
 70
   160
  1
(<>)
 71
     5
 42
-1.0
  3
SLDDIMSTYLE3
100
AcDbAlignedDimension
 13
159.2456023603
 23
172.9271280809
 33
0.0
 14
152.2127131783
 24
179.960017263
 34
0.0
100
AcDbRotatedDimension
  0
DIMENSION
  5
38C
330
1F
100
AcDbEntity
  8
0
  6
Continuous
 62
     7
100
AcDbDimension
  2
_D_6
 10
271.9139527887
 20
120.7620629414
 30
0.0
 11
222.9855092176
 21
120.7620629414
 31
0.0
 70
   160
  1
<>
 71
     5
 42
-1.0
  3
SLDDIMSTYLE4
100
AcDbAlignedDimension
 13
174.8139527887
 23
174.6762677174
 33
0.0
 14
271.9139527887
 24
175.1137776526
 34
0.0
100
AcDbRotatedDimension
  0
DIMENSION
  5
397
330
1F
100
AcDbEntity
  8
0
  6
Continuous
 62
     7
100
AcDbDimension
  2
_D_7
 10
303.4397690726
 20
173.1137776526
 30
0.0
 11
303.4397690726
 21
182.305761341
 31
0.0
 70
   160
  1
%%c<>
 71
     5
 42
-1.0
  3
SLDDIMSTYLE5
100
AcDbAlignedDimension
 13
269.9139527887
 23
193.1137776526
 33
0.0
 14
269.9139527887
 24
173.1137776526
 34
0.0
 50
90.0
100
AcDbRotatedDimension
  0
INSERT
  5
3A9
330
1F
100
AcDbEntity
  8
0
  6
Continuous
 62
     7
100
AcDbBlockReference
  2
SW_NOTE_0
 10
186.628072445
 20
159.122429661
 30
0.0
  0
LEADER
  5
3B3
330
1F
100
AcDbEntity
  8
0
  6
Continuous
 62
     7
100
AcDbLeader
  3
SLDDIMSTYLE6
 76
     2
 10
165.1101014443
 20
175.7335370346
 30
0.0
 10
186.628072445
 20
159.122429661
 30
0.0
1001
ACAD
1000
DSTYLE
1002
{
1070
     6
1000
DOT
1002
}
  0
LINE
  5
3B4
330
1F
100
AcDbEntity
  8
0
  6
CENTERX2
 62
     7
100
AcDbLine
 10
275.5580075853
 20
183.1137776526
 30
0.0
 11
147.4866821093
 21
183.1137776526
 31
0.0
  0
ENDSEC
  0
SECTION
  2
OBJECTS
  0
DICTIONARY
  5
C
330
0
100
AcDbDictionary
281
     1
  3
ACAD_COLOR
350
3BA
  3
ACAD_GROUP
350
D
  3
ACAD_LAYOUT
350
3BB
  3
ACAD_MATERIAL
350
3B9
  3
ACAD_MLINESTYLE
350
17
  3
ACAD_PLOTSETTINGS
350
3BC
  3
ACAD_PLOTSTYLENAME
350
3B7
  3
ACAD_SCALELIST
350
47
  3
ACDBHEADERROUNDTRIPXREC
350
3CA
  3
AcDbVariableDictionary
350
3C6
  0
DICTIONARY
  5
3BA
102
{ACAD_REACTORS
330
C
102
}
330
C
100
AcDbDictionary
281
     1
  0
DICTIONARY
  5
D
102
{ACAD_REACTORS
330
C
102
}
330
C
100
AcDbDictionary
281
     1
  0
DICTIONARY
  5
3BB
102
{ACAD_REACTORS
330
C
102
}
330
C
100
AcDbDictionary
281
     1
  3
Model
350
3BD
  3
レイアウト1
350
3BE
  0
DICTIONARY
  5
3B9
102
{ACAD_REACTORS
330
C
102
}
330
C
100
AcDbDictionary
281
     1
  0
DICTIONARY
  5
17
102
{ACAD_REACTORS
330
C
102
}
330
C
100
AcDbDictionary
281
     1
  3
STANDARD
350
18
  0
DICTIONARY
  5
3BC
102
{ACAD_REACTORS
330
C
102
}
330
C
100
AcDbDictionary
281
     1
  0
ACDBDICTIONARYWDFLT
  5
3B7
102
{ACAD_REACTORS
330
C
102
}
330
C
100
AcDbDictionary
281
     1
  3
Normal
350
3B8
100
AcDbDictionaryWithDefault
340
3B8
  0
DICTIONARY
  5
47
102
{ACAD_REACTORS
330
C
102
}
330
C
100
AcDbDictionary
281
     1
  0
DICTIONARY
  5
3CA
102
{ACAD_REACTORS
330
C
102
}
330
C
100
AcDbDictionary
281
     1
  3
COLORDICT
350
3CC
  3
MATERIALDICT
350
3CB
  0
DICTIONARY
  5
3C6
102
{ACAD_REACTORS
330
C
102
}
330
C
100
AcDbDictionary
281
     1
  3
DIMASSOC
350
3C7
  3
PROJECTNAME
350
3C8
  0
LAYOUT
  5
3BD
102
{ACAD_XDICTIONARY
360
3CD
102
}
102
{ACAD_REACTORS
330
3BB
102
}
330
3BB
100
AcDbPlotSettings
  1

  2
RICOH MP C2503 JPN RPCS V2
  4

  6

 40
0.0
 41
0.0
 42
0.0
 43
0.0
 44
0.0
 45
0.0
 46
0.0
 47
0.0
 48
0.0
 49
0.0
140
0.0
141
0.0
142
1.0
143
1.0
 70
  1712
 72
     0
 73
     0
 74
     0
  7

 75
     0
147
1.0
148
0.0
149
0.0
100
AcDbLayout
  1
Model
 70
     1
 71
     0
 10
0.0
 20
0.0
 11
12.0
 21
9.0
 12
0.0
 22
0.0
 32
0.0
 14
0.0
 24
0.0
 34
0.0
 15
0.0
 25
0.0
 35
0.0
146
0.0
 13
0.0
 23
0.0
 33
0.0
 16
1.0
 26
0.0
 36
0.0
 17
0.0
 27
1.0
 37
0.0
 76
     0
330
1F
  0
LAYOUT
  5
3BE
102
{ACAD_XDICTIONARY
360
3CF
102
}
102
{ACAD_REACTORS
330
3BB
102
}
330
3BB
100
AcDbPlotSettings
  1

  2
RICOH MP C2503 JPN RPCS V2
  4

  6

 40
0.0
 41
0.0
 42
0.0
 43
0.0
 44
0.0
 45
0.0
 46
0.0
 47
0.0
 48
0.0
 49
0.0
140
0.0
141
0.0
142
1.0
143
1.0
 70
   688
 72
     0
 73
     0
 74
     5
  7

 75
    16
147
1.0
148
0.0
149
0.0
100
AcDbLayout
  1
レイアウト1
 70
     1
 71
     1
 10
0.0
 20
0.0
 11
420.0
 21
297.0
 12
0.0
 22
0.0
 32
0.0
 14
1.000000000000000E+20
 24
1.000000000000000E+20
 34
1.000000000000000E+20
 15
-1.000000000000000E+20
 25
-1.000000000000000E+20
 35
-1.000000000000000E+20
146
0.0
 13
0.0
 23
0.0
 33
0.0
 16
1.0
 26
0.0
 36
0.0
 17
0.0
 27
1.0
 37
0.0
 76
     0
330
1B
  0
MLINESTYLE
  5
18
102
{ACAD_REACTORS
330
17
102
}
330
17
100
AcDbMlineStyle
  2
STANDARD
 70
     0
  3

 62
   256
 51
90.0
 52
90.0
 71
     2
 49
0.5
 62
   256
  6
BYLAYER
 49
-0.5
 62
   256
  6
BYLAYER
  0
ACDBPLACEHOLDER
  5
3B8
102
{ACAD_REACTORS
330
3B7
102
}
330
3B7
  0
XRECORD
  5
3CC
102
{ACAD_REACTORS
330
3CA
102
}
330
3CA
100
AcDbXrecord
280
     1
340
3BA
  0
XRECORD
  5
3CB
102
{ACAD_REACTORS
330
3CA
102
}
330
3CA
100
AcDbXrecord
280
     1
340
3B9
  0
DICTIONARYVAR
  5
3C7
102
{ACAD_REACTORS
330
3C6
102
}
330
3C6
100
DictionaryVariables
280
     0
  1
1
  0
DICTIONARYVAR
  5
3C8
102
{ACAD_REACTORS
330
3C6
102
}
330
3C6
100
DictionaryVariables
280
     0
  1

  0
DICTIONARY
  5
3CD
330
3BD
100
AcDbDictionary
280
     1
281
     1
  3
ACAD_XREC_ROUNDTRIP
360
3CE
  0
DICTIONARY
  5
3CF
330
3BE
100
AcDbDictionary
280
     1
281
     1
  3
ACAD_XREC_ROUNDTRIP
360
3D0
  0
XRECORD
  5
3CE
102
{ACAD_REACTORS
330
3CD
102
}
330
3CD
100
AcDbXrecord
280
     1
102
SHADEPLOT
 70
     0
102
SHADEPLOTRESLEVEL
 70
     2
102
SHADEPLOTCUSTOMDPI
 70
   300
  0
XRECORD
  5
3D0
102
{ACAD_REACTORS
330
3CF
102
}
330
3CF
100
AcDbXrecord
280
     1
102
SHADEPLOT
 70
     0
102
SHADEPLOTRESLEVEL
 70
     2
102
SHADEPLOTCUSTOMDPI
 70
   300
  0
ENDSEC
  0
EOF
