  0
SECTION
  2
HEADER
  9
$ACADVER
  1
AC1015
  9
$ACADMAINTVER
 70
     6
  9
$DWGCODEPAGE
  3
ANSI_932
  9
$INSBASE
 10
0.0
 20
0.0
 30
0.0
  9
$EXTMIN
 10
-6.056396
 20
10.812263
 30
0.0
  9
$EXTMAX
 10
170.258102
 20
110.769112
 30
0.0
  9
$LIMMIN
 10
0.0
 20
0.0
  9
$LIMMAX
 10
12.0
 20
9.0
  9
$ORTHOMODE
 70
     0
  9
$REGENMODE
 70
     1
  9
$FILLMODE
 70
     1
  9
$QTEXTMODE
 70
     0
  9
$MIRRTEXT
 70
     1
  9
$LTSCALE
 40
2.026775
  9
$ATTMODE
 70
     1
  9
$TEXTSIZE
 40
3.2
  9
$TRACEWID
 40
1.0
  9
$TEXTSTYLE
  7
Standard
  9
$CLAYER
  8
0
  9
$CELTYPE
  6
ByLayer
  9
$CECOLOR
 62
   256
  9
$CELTSCALE
 40
1.0
  9
$DISPSILH
 70
     0
  9
$DIMSCALE
 40
1.0
  9
$DIMASZ
 40
2.5
  9
$DIMEXO
 40
0.625
  9
$DIMDLI
 40
3.75
  9
$DIMRND
 40
0.0
  9
$DIMDLE
 40
0.0
  9
$DIMEXE
 40
1.25
  9
$DIMTP
 40
0.0
  9
$DIMTM
 40
0.0
  9
$DIMTXT
 40
2.5
  9
$DIMCEN
 40
0.09
  9
$DIMTSZ
 40
0.0
  9
$DIMTOL
 70
     0
  9
$DIMLIM
 70
     0
  9
$DIMTIH
 70
     0
  9
$DIMTOH
 70
     0
  9
$DIMSE1
 70
     0
  9
$DIMSE2
 70
     0
  9
$DIMTAD
 70
     0
  9
$DIMZIN
 70
     8
  9
$DIMBLK
  1

  9
$DIMASO
 70
     1
  9
$DIMSHO
 70
     0
  9
$DIMPOST
  1

  9
$DIMAPOST
  1

  9
$DIMALT
 70
     0
  9
$DIMALTD
 70
     3
  9
$DIMALTF
 40
0.03937
  9
$DIMLFAC
 40
1.0
  9
$DIMTOFL
 70
     1
  9
$DIMTVP
 40
0.0
  9
$DIMTIX
 70
     0
  9
$DIMSOXD
 70
     0
  9
$DIMSAH
 70
     0
  9
$DIMBLK1
  1

  9
$DIMBLK2
  1

  9
$DIMSTYLE
  2
ISO-25
  9
$DIMCLRD
 70
     0
  9
$DIMCLRE
 70
     0
  9
$DIMCLRT
 70
     0
  9
$DIMTFAC
 40
1.0
  9
$DIMGAP
 40
0.625
  9
$DIMJUST
 70
     0
  9
$DIMSD1
 70
     0
  9
$DIMSD2
 70
     0
  9
$DIMTOLJ
 70
     0
  9
$DIMTZIN
 70
     8
  9
$DIMALTZ
 70
     0
  9
$DIMALTTZ
 70
     0
  9
$DIMUPT
 70
     0
  9
$DIMDEC
 70
     2
  9
$DIMTDEC
 70
     2
  9
$DIMALTU
 70
     2
  9
$DIMALTTD
 70
     3
  9
$DIMTXSTY
  7
Standard
  9
$DIMAUNIT
 70
     0
  9
$DIMADEC
 70
     0
  9
$DIMALTRND
 40
0.0
  9
$DIMAZIN
 70
     0
  9
$DIMDSEP
 70
    44
  9
$DIMATFIT
 70
     3
  9
$DIMFRAC
 70
     0
  9
$DIMLDRBLK
  1

  9
$DIMLUNIT
 70
     2
  9
$DIMLWD
 70
    -2
  9
$DIMLWE
 70
    -2
  9
$DIMTMOVE
 70
     0
  9
$LUNITS
 70
     2
  9
$LUPREC
 70
     4
  9
$SKETCHINC
 40
1.0
  9
$FILLETRAD
 40
0.0
  9
$AUNITS
 70
     0
  9
$AUPREC
 70
     0
  9
$MENU
  1
.
  9
$ELEVATION
 40
0.0
  9
$PELEVATION
 40
0.0
  9
$THICKNESS
 40
0.0
  9
$LIMCHECK
 70
     0
  9
$CHAMFERA
 40
10.0
  9
$CHAMFERB
 40
10.0
  9
$CHAMFERC
 40
20.0
  9
$CHAMFERD
 40
0.0
  9
$SKPOLY
 70
     0
  9
$TDCREATE
 40
2455272.59405816
  9
$TDUCREATE
 40
2455272.21905816
  9
$TDUPDATE
 40
2455272.594058171
  9
$TDUUPDATE
 40
2455272.219058171
  9
$TDINDWG
 40
0.0000000116
  9
$TDUSRTIMER
 40
0.0000000116
  9
$USRTIMER
 70
     1
  9
$ANGBASE
 50
0.0
  9
$ANGDIR
 70
     0
  9
$PDMODE
 70
     0
  9
$PDSIZE
 40
0.0
  9
$PLINEWID
 40
0.0
  9
$SPLFRAME
 70
     0
  9
$SPLINETYPE
 70
     6
  9
$SPLINESEGS
 70
     8
  9
$HANDSEED
  5
6F1
  9
$SURFTAB1
 70
     6
  9
$SURFTAB2
 70
     6
  9
$SURFTYPE
 70
     6
  9
$SURFU
 70
     6
  9
$SURFV
 70
     6
  9
$UCSBASE
  2

  9
$UCSNAME
  2

  9
$UCSORG
 10
0.0
 20
0.0
 30
0.0
  9
$UCSXDIR
 10
1.0
 20
0.0
 30
0.0
  9
$UCSYDIR
 10
0.0
 20
1.0
 30
0.0
  9
$UCSORTHOREF
  2

  9
$UCSORTHOVIEW
 70
     0
  9
$UCSORGTOP
 10
0.0
 20
0.0
 30
0.0
  9
$UCSORGBOTTOM
 10
0.0
 20
0.0
 30
0.0
  9
$UCSORGLEFT
 10
0.0
 20
0.0
 30
0.0
  9
$UCSORGRIGHT
 10
0.0
 20
0.0
 30
0.0
  9
$UCSORGFRONT
 10
0.0
 20
0.0
 30
0.0
  9
$UCSORGBACK
 10
0.0
 20
0.0
 30
0.0
  9
$PUCSBASE
  2

  9
$PUCSNAME
  2

  9
$PUCSORG
 10
0.0
 20
0.0
 30
0.0
  9
$PUCSXDIR
 10
1.0
 20
0.0
 30
0.0
  9
$PUCSYDIR
 10
0.0
 20
1.0
 30
0.0
  9
$PUCSORTHOREF
  2

  9
$PUCSORTHOVIEW
 70
     0
  9
$PUCSORGTOP
 10
0.0
 20
0.0
 30
0.0
  9
$PUCSORGBOTTOM
 10
0.0
 20
0.0
 30
0.0
  9
$PUCSORGLEFT
 10
0.0
 20
0.0
 30
0.0
  9
$PUCSORGRIGHT
 10
0.0
 20
0.0
 30
0.0
  9
$PUCSORGFRONT
 10
0.0
 20
0.0
 30
0.0
  9
$PUCSORGBACK
 10
0.0
 20
0.0
 30
0.0
  9
$USERI1
 70
     0
  9
$USERI2
 70
     0
  9
$USERI3
 70
     0
  9
$USERI4
 70
     0
  9
$USERI5
 70
     0
  9
$USERR1
 40
0.0
  9
$USERR2
 40
0.0
  9
$USERR3
 40
0.0
  9
$USERR4
 40
0.0
  9
$USERR5
 40
0.0
  9
$WORLDVIEW
 70
     1
  9
$SHADEDGE
 70
     3
  9
$SHADEDIF
 70
    70
  9
$TILEMODE
 70
     1
  9
$MAXACTVP
 70
    64
  9
$PINSBASE
 10
0.0
 20
0.0
 30
0.0
  9
$PLIMCHECK
 70
     0
  9
$PEXTMIN
 10
1.000000E+20
 20
1.000000E+20
 30
0.0
  9
$PEXTMAX
 10
-1.000000E+20
 20
-1.000000E+20
 30
0.0
  9
$PLIMMIN
 10
0.0
 20
0.0
  9
$PLIMMAX
 10
12.0
 20
9.0
  9
$UNITMODE
 70
     0
  9
$VISRETAIN
 70
     1
  9
$PLINEGEN
 70
     0
  9
$PSLTSCALE
 70
     1
  9
$TREEDEPTH
 70
  3020
  9
$CMLSTYLE
  2
Standard
  9
$CMLJUST
 70
     0
  9
$CMLSCALE
 40
20.0
  9
$PROXYGRAPHICS
 70
     1
  9
$MEASUREMENT
 70
     1
  9
$CELWEIGHT
370
    -1
  9
$ENDCAPS
280
     0
  9
$JOINSTYLE
280
     0
  9
$LWDISPLAY
290
     0
  9
$INSUNITS
 70
     4
  9
$HYPERLINKBASE
  1

  9
$STYLESHEET
  1

  9
$XEDIT
290
     1
  9
$CEPSNTYPE
380
     0
  9
$PSTYLEMODE
290
     1
  9
$FINGERPRINTGUID
  2
{99130ED6-466D-4FE4-BF2C-5CF7F6D2EF4B}
  9
$VERSIONGUID
  2
{FAEB1C32-E019-11D5-929B-00C0DF256EC4}
  9
$EXTNAMES
290
     1
  9
$PSVPSCALE
 40
0.0
  9
$OLESTARTUP
290
     0
  0
ENDSEC
  0
SECTION
  2
CLASSES
  0
CLASS
  1
ACDBDICTIONARYWDFLT
  2
AcDbDictionaryWithDefault
  3
ObjectDBX Classes
 90
        0
280
     0
281
     0
  0
CLASS
  1
VISUALSTYLE
  2
AcDbVisualStyle
  3
ObjectDBX Classes
 90
     4095
280
     0
281
     0
  0
CLASS
  1
SCALE
  2
AcDbScale
  3
ObjectDBX Classes
 90
     1153
280
     0
281
     0
  0
CLASS
  1
DICTIONARYVAR
  2
AcDbDictionaryVar
  3
ObjectDBX Classes
 90
        0
280
     0
281
     0
  0
CLASS
  1
ACDBPLACEHOLDER
  2
AcDbPlaceHolder
  3
ObjectDBX Classes
 90
        0
280
     0
281
     0
  0
CLASS
  1
LAYOUT
  2
AcDbLayout
  3
ObjectDBX Classes
 90
        0
280
     0
281
     0
  0
ENDSEC
  0
SECTION
  2
TABLES
  0
TABLE
  2
VPORT
  5
8
330
0
100
AcDbSymbolTable
 70
     1
  0
VPORT
  5
29
330
8
100
AcDbSymbolTableRecord
100
AcDbViewportTableRecord
  2
*Active
 70
     0
 10
0.0
 20
0.0
 11
1.0
 21
1.0
 12
82.100853
 22
60.790688
 13
0.0
 23
0.0
 14
1.0
 24
1.0
 15
0.0
 25
0.0
 16
0.0
 26
0.0
 36
1.0
 17
0.0
 27
0.0
 37
0.0
 40
105.291141
 41
1.691288
 42
50.0
 43
0.0
 44
0.0
 50
0.0
 51
0.0
 71
     0
 72
   100
 73
     1
 74
     3
 75
     0
 76
     0
 77
     0
 78
     0
281
     0
 65
     1
110
0.0
120
0.0
130
0.0
111
1.0
121
0.0
131
0.0
112
0.0
122
1.0
132
0.0
 79
     0
146
0.0
  0
ENDTAB
  0
TABLE
  2
LTYPE
  5
5
330
0
100
AcDbSymbolTable
 70
     5
  0
LTYPE
  5
14
330
5
100
AcDbSymbolTableRecord
100
AcDbLinetypeTableRecord
  2
ByBlock
 70
     0
  3

 72
    65
 73
     0
 40
0.0
  0
LTYPE
  5
15
330
5
100
AcDbSymbolTableRecord
100
AcDbLinetypeTableRecord
  2
ByLayer
 70
     0
  3

 72
    65
 73
     0
 40
0.0
  0
LTYPE
  5
16
330
5
100
AcDbSymbolTableRecord
100
AcDbLinetypeTableRecord
  2
Continuous
 70
     0
  3
Solid line
 72
    65
 73
     0
 40
0.0
  0
LTYPE
  5
5D
330
5
100
AcDbSymbolTableRecord
100
AcDbLinetypeTableRecord
  2
DASHED
 70
     0
  3
DASHED
 72
    83
 73
     2
 40
0.75
 49
0.5
 74
     0
 49
-0.25
 74
     0
  0
LTYPE
  5
5E
330
5
100
AcDbSymbolTableRecord
100
AcDbLinetypeTableRecord
  2
HIDDEN
 70
     0
  3
HIDDEN
 72
    83
 73
     2
 40
0.375
 49
0.25
 74
     0
 49
-0.125
 74
     0
  0
LTYPE
  5
5F
330
5
100
AcDbSymbolTableRecord
100
AcDbLinetypeTableRecord
  2
CENTER
 70
     0
  3
CENTER
 72
    83
 73
     4
 40
2.0
 49
1.25
 74
     0
 49
-0.25
 74
     0
 49
0.25
 74
     0
 49
-0.25
 74
     0
  0
LTYPE
  5
60
330
5
100
AcDbSymbolTableRecord
100
AcDbLinetypeTableRecord
  2
PHANTOM
 70
     0
  3
PHANTOM
 72
    83
 73
     6
 40
2.5
 49
1.25
 74
     0
 49
-0.25
 74
     0
 49
0.25
 74
     0
 49
-0.25
 74
     0
 49
0.25
 74
     0
 49
-0.25
 74
     0
  0
ENDTAB
  0
TABLE
  2
LAYER
  5
2
330
0
100
AcDbSymbolTable
 70
     2
  0
LAYER
  5
10
330
2
100
AcDbSymbolTableRecord
100
AcDbLayerTableRecord
  2
0
 70
     0
 62
     7
  6
Continuous
370
    -3
390
F
  0
LAYER
  5
61
330
2
100
AcDbSymbolTableRecord
100
AcDbLayerTableRecord
  2
001
 70
     0
 62
     7
  6
Continuous
370
    -3
390
F
  0
ENDTAB
  0
TABLE
  2
STYLE
  5
3
330
0
100
AcDbSymbolTable
 70
     2
  0
STYLE
  5
11
330
3
100
AcDbSymbolTableRecord
100
AcDbTextStyleTableRecord
  2
Standard
 70
     0
 40
0.0
 41
1.0
 50
0.0
 71
     0
 42
0.2
  3
TXT
  4
BIGFONT
  0
STYLE
  5
62
330
3
100
AcDbSymbolTableRecord
100
AcDbTextStyleTableRecord
  2
TATEGAKI
 70
     4
 40
1.0
 41
1.0
 50
0.0
 71
     0
 42
0.2
  3
TXT
  4
BIGFONT
  0
ENDTAB
  0
TABLE
  2
VIEW
  5
6
330
0
100
AcDbSymbolTable
 70
     0
  0
ENDTAB
  0
TABLE
  2
UCS
  5
7
330
0
100
AcDbSymbolTable
 70
     0
  0
ENDTAB
  0
TABLE
  2
APPID
  5
9
330
0
100
AcDbSymbolTable
 70
     1
  0
APPID
  5
12
330
9
100
AcDbSymbolTableRecord
100
AcDbRegAppTableRecord
  2
ACAD
 70
     0
  0
ENDTAB
  0
TABLE
  2
DIMSTYLE
  5
A
330
0
100
AcDbSymbolTable
 70
     2
100
AcDbDimStyleTable
  0
DIMSTYLE
105
27
330
A
100
AcDbSymbolTableRecord
100
AcDbDimStyleTableRecord
  2
ISO-25
 70
     0
 41
2.5
 42
0.625
 43
3.75
 44
1.25
 73
     0
 74
     0
 77
     1
 78
     8
140
2.5
141
2.5
143
0.03937
147
0.625
171
     3
172
     1
271
     2
272
     2
274
     3
278
    44
283
     0
284
     8
340
11
  0
DIMSTYLE
105
63
102
{ACAD_REACTORS
330
107
330
108
330
109
330
10A
330
10B
330
10C
330
10D
330
132
102
}
330
A
100
AcDbSymbolTableRecord
100
AcDbDimStyleTableRecord
  2
Standard
 70
     0
 41
1.5
 42
0.0
 44
2.75
 73
     0
 74
     0
 77
     1
 78
     8
 79
     2
140
4.0
146
0.8
147
1.0
172
     1
179
     1
271
     1
340
11
  0
ENDTAB
  0
TABLE
  2
BLOCK_RECORD
  5
1
330
0
100
AcDbSymbolTable
 70
     9
  0
BLOCK_RECORD
  5
1F
330
1
100
AcDbSymbolTableRecord
100
AcDbBlockTableRecord
  2
*Model_Space
340
22
  0
BLOCK_RECORD
  5
1B
330
1
100
AcDbSymbolTableRecord
100
AcDbBlockTableRecord
  2
*Paper_Space
340
1E
  0
BLOCK_RECORD
  5
23
330
1
100
AcDbSymbolTableRecord
100
AcDbBlockTableRecord
  2
*Paper_Space0
340
26
  0
BLOCK_RECORD
  5
64
330
1
100
AcDbSymbolTableRecord
100
AcDbBlockTableRecord
  2
*D1
340
0
  0
BLOCK_RECORD
  5
78
330
1
100
AcDbSymbolTableRecord
100
AcDbBlockTableRecord
  2
*D2
340
0
  0
BLOCK_RECORD
  5
8C
330
1
100
AcDbSymbolTableRecord
100
AcDbBlockTableRecord
  2
*D3
340
0
  0
BLOCK_RECORD
  5
A0
330
1
100
AcDbSymbolTableRecord
100
AcDbBlockTableRecord
  2
*D4
340
0
  0
BLOCK_RECORD
  5
B4
330
1
100
AcDbSymbolTableRecord
100
AcDbBlockTableRecord
  2
*D5
340
0
  0
BLOCK_RECORD
  5
C8
330
1
100
AcDbSymbolTableRecord
100
AcDbBlockTableRecord
  2
*D6
340
0
  0
BLOCK_RECORD
  5
DE
330
1
100
AcDbSymbolTableRecord
100
AcDbBlockTableRecord
  2
*D7
340
0
  0
BLOCK_RECORD
  5
F3
330
1
100
AcDbSymbolTableRecord
100
AcDbBlockTableRecord
  2
*D8
340
0
  0
ENDTAB
  0
ENDSEC
  0
SECTION
  2
BLOCKS
  0
BLOCK
  5
20
330
1F
100
AcDbEntity
  8
0
100
AcDbBlockBegin
  2
*Model_Space
 70
     0
 10
0.0
 20
0.0
 30
0.0
  3
*Model_Space
  1

  0
ENDBLK
  5
21
330
1F
100
AcDbEntity
  8
0
100
AcDbBlockEnd
  0
BLOCK
  5
1C
330
1B
100
AcDbEntity
 67
     1
  8
0
100
AcDbBlockBegin
  2
*Paper_Space
 70
     0
 10
0.0
 20
0.0
 30
0.0
  3
*Paper_Space
  1

  0
ENDBLK
  5
1D
330
1B
100
AcDbEntity
 67
     1
  8
0
100
AcDbBlockEnd
  0
BLOCK
  5
24
330
23
100
AcDbEntity
  8
0
100
AcDbBlockBegin
  2
*Paper_Space0
 70
     0
 10
0.0
 20
0.0
 30
0.0
  3
*Paper_Space0
  1

  0
ENDBLK
  5
25
330
23
100
AcDbEntity
  8
0
100
AcDbBlockEnd
  0
BLOCK
  5
65
330
64
100
AcDbEntity
  8
0
100
AcDbBlockBegin
  2
*D1
 70
     1
 10
0.0
 20
0.0
 30
0.0
  3
*D1
  1

  0
LINE
  5
67
330
64
100
AcDbEntity
  8
001
370
     9
100
AcDbLine
 10
58.833419
 20
49.799458
 30
0.0
 11
58.833419
 21
21.503315
 31
0.0
  0
LINE
  5
68
330
64
100
AcDbEntity
  8
001
370
     9
100
AcDbLine
 10
38.833419
 20
59.323497
 30
0.0
 11
38.833419
 21
21.503315
 31
0.0
  0
LINE
  5
69
330
64
100
AcDbEntity
  8
001
370
     9
100
AcDbLine
 10
58.833419
 20
24.253315
 30
0.0
 11
38.833419
 21
24.253315
 31
0.0
  0
POLYLINE
  5
6A
330
64
100
AcDbEntity
  8
001
370
     9
100
AcDb2dPolyline
 66
     1
 10
0.0
 20
0.0
 30
0.0
  0
VERTEX
  5
6C
330
6A
100
AcDbEntity
  8
001
370
     9
100
AcDbVertex
100
AcDb2dVertex
 10
57.333419
 20
24.655239
 30
0.0
  0
VERTEX
  5
6D
330
6A
100
AcDbEntity
  8
001
370
     9
100
AcDbVertex
100
AcDb2dVertex
 10
58.833419
 20
24.253315
 30
0.0
  0
VERTEX
  5
6E
330
6A
100
AcDbEntity
  8
001
370
     9
100
AcDbVertex
100
AcDb2dVertex
 10
57.333419
 20
23.851391
 30
0.0
  0
SEQEND
  5
6B
330
6A
100
AcDbEntity
  8
001
370
     9
  0
POLYLINE
  5
6F
330
64
100
AcDbEntity
  8
001
370
     9
100
AcDb2dPolyline
 66
     1
 10
0.0
 20
0.0
 30
0.0
  0
VERTEX
  5
71
330
6F
100
AcDbEntity
  8
001
370
     9
100
AcDbVertex
100
AcDb2dVertex
 10
40.333419
 20
23.851391
 30
0.0
  0
VERTEX
  5
72
330
6F
100
AcDbEntity
  8
001
370
     9
100
AcDbVertex
100
AcDb2dVertex
 10
38.833419
 20
24.253315
 30
0.0
  0
VERTEX
  5
73
330
6F
100
AcDbEntity
  8
001
370
     9
100
AcDbVertex
100
AcDb2dVertex
 10
40.333419
 20
24.655239
 30
0.0
  0
SEQEND
  5
70
330
6F
100
AcDbEntity
  8
001
370
     9
  0
TEXT
  5
74
330
64
100
AcDbEntity
  8
001
370
    30
100
AcDbText
 10
44.833419
 20
25.253315
 30
0.0
 40
4.0
  1
２０
 41
0.833333
100
AcDbText
  0
POINT
  5
75
330
64
100
AcDbEntity
  8
001
370
     9
100
AcDbPoint
 10
58.833419
 20
49.799458
 30
0.0
  0
POINT
  5
76
330
64
100
AcDbEntity
  8
001
370
     9
100
AcDbPoint
 10
38.833419
 20
59.323497
 30
0.0
  0
POINT
  5
77
330
64
100
AcDbEntity
  8
001
370
     9
100
AcDbPoint
 10
38.833419
 20
24.253315
 30
0.0
  0
ENDBLK
  5
66
330
64
100
AcDbEntity
  8
0
100
AcDbBlockEnd
  0
BLOCK
  5
79
330
78
100
AcDbEntity
  8
0
100
AcDbBlockBegin
  2
*D2
 70
     1
 10
0.0
 20
0.0
 30
0.0
  3
*D2
  1

  0
LINE
  5
7B
330
78
100
AcDbEntity
  8
001
370
     9
100
AcDbLine
 10
143.833419
 20
57.299458
 30
0.0
 11
143.833419
 21
21.503315
 31
0.0
  0
LINE
  5
7C
330
78
100
AcDbEntity
  8
001
370
     9
100
AcDbLine
 10
58.833419
 20
49.799458
 30
0.0
 11
58.833419
 21
21.503315
 31
0.0
  0
LINE
  5
7D
330
78
100
AcDbEntity
  8
001
370
     9
100
AcDbLine
 10
143.833419
 20
24.253315
 30
0.0
 11
58.833419
 21
24.253315
 31
0.0
  0
POLYLINE
  5
7E
330
78
100
AcDbEntity
  8
001
370
     9
100
AcDb2dPolyline
 66
     1
 10
0.0
 20
0.0
 30
0.0
  0
VERTEX
  5
80
330
7E
100
AcDbEntity
  8
001
370
     9
100
AcDbVertex
100
AcDb2dVertex
 10
142.333419
 20
24.655239
 30
0.0
  0
VERTEX
  5
81
330
7E
100
AcDbEntity
  8
001
370
     9
100
AcDbVertex
100
AcDb2dVertex
 10
143.833419
 20
24.253315
 30
0.0
  0
VERTEX
  5
82
330
7E
100
AcDbEntity
  8
001
370
     9
100
AcDbVertex
100
AcDb2dVertex
 10
142.333419
 20
23.851391
 30
0.0
  0
SEQEND
  5
7F
330
7E
100
AcDbEntity
  8
001
370
     9
  0
POLYLINE
  5
83
330
78
100
AcDbEntity
  8
001
370
     9
100
AcDb2dPolyline
 66
     1
 10
0.0
 20
0.0
 30
0.0
  0
VERTEX
  5
85
330
83
100
AcDbEntity
  8
001
370
     9
100
AcDbVertex
100
AcDb2dVertex
 10
60.333419
 20
23.851391
 30
0.0
  0
VERTEX
  5
86
330
83
100
AcDbEntity
  8
001
370
     9
100
AcDbVertex
100
AcDb2dVertex
 10
58.833419
 20
24.253315
 30
0.0
  0
VERTEX
  5
87
330
83
100
AcDbEntity
  8
001
370
     9
100
AcDbVertex
100
AcDb2dVertex
 10
60.333419
 20
24.655239
 30
0.0
  0
SEQEND
  5
84
330
83
100
AcDbEntity
  8
001
370
     9
  0
TEXT
  5
88
330
78
100
AcDbEntity
  8
001
370
    30
100
AcDbText
 10
97.333419
 20
25.253315
 30
0.0
 40
4.0
  1
８５
 41
0.833333
100
AcDbText
  0
POINT
  5
89
330
78
100
AcDbEntity
  8
001
370
     9
100
AcDbPoint
 10
143.833419
 20
57.299458
 30
0.0
  0
POINT
  5
8A
330
78
100
AcDbEntity
  8
001
370
     9
100
AcDbPoint
 10
58.833419
 20
49.799458
 30
0.0
  0
POINT
  5
8B
330
78
100
AcDbEntity
  8
001
370
     9
100
AcDbPoint
 10
58.833419
 20
24.253315
 30
0.0
  0
ENDBLK
  5
7A
330
78
100
AcDbEntity
  8
0
100
AcDbBlockEnd
  0
BLOCK
  5
8D
330
8C
100
AcDbEntity
  8
0
100
AcDbBlockBegin
  2
*D3
 70
     1
 10
0.0
 20
0.0
 30
0.0
  3
*D3
  1

  0
LINE
  5
8F
330
8C
100
AcDbEntity
  8
001
370
     9
100
AcDbLine
 10
38.833419
 20
59.323497
 30
0.0
 11
38.833419
 21
10.812266
 31
0.0
  0
LINE
  5
90
330
8C
100
AcDbEntity
  8
001
370
     9
100
AcDbLine
 10
143.833419
 20
57.299458
 30
0.0
 11
143.833419
 21
10.812266
 31
0.0
  0
LINE
  5
91
330
8C
100
AcDbEntity
  8
001
370
     9
100
AcDbLine
 10
38.833419
 20
13.562266
 30
0.0
 11
143.833419
 21
13.562266
 31
0.0
  0
POLYLINE
  5
92
330
8C
100
AcDbEntity
  8
001
370
     9
100
AcDb2dPolyline
 66
     1
 10
0.0
 20
0.0
 30
0.0
  0
VERTEX
  5
94
330
92
100
AcDbEntity
  8
001
370
     9
100
AcDbVertex
100
AcDb2dVertex
 10
40.333419
 20
13.160342
 30
0.0
  0
VERTEX
  5
95
330
92
100
AcDbEntity
  8
001
370
     9
100
AcDbVertex
100
AcDb2dVertex
 10
38.833419
 20
13.562266
 30
0.0
  0
VERTEX
  5
96
330
92
100
AcDbEntity
  8
001
370
     9
100
AcDbVertex
100
AcDb2dVertex
 10
40.333419
 20
13.96419
 30
0.0
  0
SEQEND
  5
93
330
92
100
AcDbEntity
  8
001
370
     9
  0
POLYLINE
  5
97
330
8C
100
AcDbEntity
  8
001
370
     9
100
AcDb2dPolyline
 66
     1
 10
0.0
 20
0.0
 30
0.0
  0
VERTEX
  5
99
330
97
100
AcDbEntity
  8
001
370
     9
100
AcDbVertex
100
AcDb2dVertex
 10
142.333419
 20
13.96419
 30
0.0
  0
VERTEX
  5
9A
330
97
100
AcDbEntity
  8
001
370
     9
100
AcDbVertex
100
AcDb2dVertex
 10
143.833419
 20
13.562266
 30
0.0
  0
VERTEX
  5
9B
330
97
100
AcDbEntity
  8
001
370
     9
100
AcDbVertex
100
AcDb2dVertex
 10
142.333419
 20
13.160342
 30
0.0
  0
SEQEND
  5
98
330
97
100
AcDbEntity
  8
001
370
     9
  0
TEXT
  5
9C
330
8C
100
AcDbEntity
  8
001
370
    30
100
AcDbText
 10
85.333419
 20
14.562266
 30
0.0
 40
4.0
  1
１０５
 41
0.833333
100
AcDbText
  0
POINT
  5
9D
330
8C
100
AcDbEntity
  8
001
370
     9
100
AcDbPoint
 10
38.833419
 20
59.323497
 30
0.0
  0
POINT
  5
9E
330
8C
100
AcDbEntity
  8
001
370
     9
100
AcDbPoint
 10
143.833419
 20
57.299458
 30
0.0
  0
POINT
  5
9F
330
8C
100
AcDbEntity
  8
001
370
     9
100
AcDbPoint
 10
143.833419
 20
13.562266
 30
0.0
  0
ENDBLK
  5
8E
330
8C
100
AcDbEntity
  8
0
100
AcDbBlockEnd
  0
BLOCK
  5
A1
330
A0
100
AcDbEntity
  8
0
100
AcDbBlockBegin
  2
*D4
 70
     1
 10
0.0
 20
0.0
 30
0.0
  3
*D4
  1

  0
LINE
  5
A3
330
A0
100
AcDbEntity
  8
001
370
     9
100
AcDbLine
 10
140.833419
 20
79.299458
 30
0.0
 11
170.258108
 21
79.299458
 31
0.0
  0
LINE
  5
A4
330
A0
100
AcDbEntity
  8
001
370
     9
100
AcDbLine
 10
140.833419
 20
54.299458
 30
0.0
 11
170.258108
 21
54.299458
 31
0.0
  0
LINE
  5
A5
330
A0
100
AcDbEntity
  8
001
370
     9
100
AcDbLine
 10
167.508108
 20
79.299458
 30
0.0
 11
167.508108
 21
54.299458
 31
0.0
  0
POLYLINE
  5
A6
330
A0
100
AcDbEntity
  8
001
370
     9
100
AcDb2dPolyline
 66
     1
 10
0.0
 20
0.0
 30
0.0
  0
VERTEX
  5
A8
330
A6
100
AcDbEntity
  8
001
370
     9
100
AcDbVertex
100
AcDb2dVertex
 10
167.106184
 20
77.799458
 30
0.0
  0
VERTEX
  5
A9
330
A6
100
AcDbEntity
  8
001
370
     9
100
AcDbVertex
100
AcDb2dVertex
 10
167.508108
 20
79.299458
 30
0.0
  0
VERTEX
  5
AA
330
A6
100
AcDbEntity
  8
001
370
     9
100
AcDbVertex
100
AcDb2dVertex
 10
167.910031
 20
77.799458
 30
0.0
  0
SEQEND
  5
A7
330
A6
100
AcDbEntity
  8
001
370
     9
  0
POLYLINE
  5
AB
330
A0
100
AcDbEntity
  8
001
370
     9
100
AcDb2dPolyline
 66
     1
 10
0.0
 20
0.0
 30
0.0
  0
VERTEX
  5
AD
330
AB
100
AcDbEntity
  8
001
370
     9
100
AcDbVertex
100
AcDb2dVertex
 10
167.910031
 20
55.799458
 30
0.0
  0
VERTEX
  5
AE
330
AB
100
AcDbEntity
  8
001
370
     9
100
AcDbVertex
100
AcDb2dVertex
 10
167.508108
 20
54.299458
 30
0.0
  0
VERTEX
  5
AF
330
AB
100
AcDbEntity
  8
001
370
     9
100
AcDbVertex
100
AcDb2dVertex
 10
167.106184
 20
55.799458
 30
0.0
  0
SEQEND
  5
AC
330
AB
100
AcDbEntity
  8
001
370
     9
  0
TEXT
  5
B0
330
A0
100
AcDbEntity
  8
001
370
    30
100
AcDbText
 10
166.508108
 20
60.799458
 30
0.0
 40
4.0
  1
%%c２５
 50
90.000003
 41
0.882353
100
AcDbText
  0
POINT
  5
B1
330
A0
100
AcDbEntity
  8
001
370
     9
100
AcDbPoint
 10
140.833419
 20
79.299458
 30
0.0
  0
POINT
  5
B2
330
A0
100
AcDbEntity
  8
001
370
     9
100
AcDbPoint
 10
140.833419
 20
54.299458
 30
0.0
  0
POINT
  5
B3
330
A0
100
AcDbEntity
  8
001
370
     9
100
AcDbPoint
 10
167.508108
 20
54.299458
 30
0.0
  0
ENDBLK
  5
A2
330
A0
100
AcDbEntity
  8
0
100
AcDbBlockEnd
  0
BLOCK
  5
B5
330
B4
100
AcDbEntity
  8
0
100
AcDbBlockBegin
  2
*D5
 70
     1
 10
0.0
 20
0.0
 30
0.0
  3
*D5
  1

  0
LINE
  5
B7
330
B4
100
AcDbEntity
  8
001
370
     9
100
AcDbLine
 10
57.833419
 20
48.799458
 30
0.0
 11
96.998661
 21
48.799458
 31
0.0
  0
LINE
  5
B8
330
B4
100
AcDbEntity
  8
001
370
     9
100
AcDbLine
 10
57.833419
 20
84.799458
 30
0.0
 11
96.998661
 21
84.799458
 31
0.0
  0
LINE
  5
B9
330
B4
100
AcDbEntity
  8
001
370
     9
100
AcDbLine
 10
94.248661
 20
48.799458
 30
0.0
 11
94.248661
 21
84.799458
 31
0.0
  0
POLYLINE
  5
BA
330
B4
100
AcDbEntity
  8
001
370
     9
100
AcDb2dPolyline
 66
     1
 10
0.0
 20
0.0
 30
0.0
  0
VERTEX
  5
BC
330
BA
100
AcDbEntity
  8
001
370
     9
100
AcDbVertex
100
AcDb2dVertex
 10
94.650585
 20
50.299458
 30
0.0
  0
VERTEX
  5
BD
330
BA
100
AcDbEntity
  8
001
370
     9
100
AcDbVertex
100
AcDb2dVertex
 10
94.248661
 20
48.799458
 30
0.0
  0
VERTEX
  5
BE
330
BA
100
AcDbEntity
  8
001
370
     9
100
AcDbVertex
100
AcDb2dVertex
 10
93.846738
 20
50.299458
 30
0.0
  0
SEQEND
  5
BB
330
BA
100
AcDbEntity
  8
001
370
     9
  0
POLYLINE
  5
BF
330
B4
100
AcDbEntity
  8
001
370
     9
100
AcDb2dPolyline
 66
     1
 10
0.0
 20
0.0
 30
0.0
  0
VERTEX
  5
C1
330
BF
100
AcDbEntity
  8
001
370
     9
100
AcDbVertex
100
AcDb2dVertex
 10
93.846738
 20
83.299458
 30
0.0
  0
VERTEX
  5
C2
330
BF
100
AcDbEntity
  8
001
370
     9
100
AcDbVertex
100
AcDb2dVertex
 10
94.248661
 20
84.799458
 30
0.0
  0
VERTEX
  5
C3
330
BF
100
AcDbEntity
  8
001
370
     9
100
AcDbVertex
100
AcDb2dVertex
 10
94.650585
 20
83.299458
 30
0.0
  0
SEQEND
  5
C0
330
BF
100
AcDbEntity
  8
001
370
     9
  0
TEXT
  5
C4
330
B4
100
AcDbEntity
  8
001
370
    30
100
AcDbText
 10
93.248661
 20
60.799458
 30
0.0
 40
4.0
  1
%%c３６
 50
90.000003
 41
0.882353
100
AcDbText
  0
POINT
  5
C5
330
B4
100
AcDbEntity
  8
001
370
     9
100
AcDbPoint
 10
57.833419
 20
48.799458
 30
0.0
  0
POINT
  5
C6
330
B4
100
AcDbEntity
  8
001
370
     9
100
AcDbPoint
 10
57.833419
 20
84.799458
 30
0.0
  0
POINT
  5
C7
330
B4
100
AcDbEntity
  8
001
370
     9
100
AcDbPoint
 10
94.248661
 20
84.799458
 30
0.0
  0
ENDBLK
  5
B6
330
B4
100
AcDbEntity
  8
0
100
AcDbBlockEnd
  0
BLOCK
  5
C9
330
C8
100
AcDbEntity
  8
0
100
AcDbBlockBegin
  2
*D6
 70
     1
 10
0.0
 20
0.0
 30
0.0
  3
*D6
  1

  0
LINE
  5
CB
330
C8
100
AcDbEntity
  8
001
370
     9
100
AcDbLine
 10
40.030368
 20
54.799458
 30
0.0
 11
40.030368
 21
33.141454
 31
0.0
  0
LINE
  5
CC
330
C8
100
AcDbEntity
  8
001
370
     9
100
AcDbLine
 10
38.833419
 20
59.323497
 30
0.0
 11
38.833419
 21
33.141454
 31
0.0
  0
LINE
  5
CD
330
C8
100
AcDbEntity
  8
001
370
     9
100
AcDbLine
 10
40.030368
 20
35.891454
 30
0.0
 11
38.833419
 21
35.891454
 31
0.0
  0
POLYLINE
  5
CE
330
C8
100
AcDbEntity
  8
001
370
     9
100
AcDb2dPolyline
 66
     1
 10
0.0
 20
0.0
 30
0.0
  0
VERTEX
  5
D0
330
CE
100
AcDbEntity
  8
001
370
     9
100
AcDbVertex
100
AcDb2dVertex
 10
41.530368
 20
35.48953
 30
0.0
  0
VERTEX
  5
D1
330
CE
100
AcDbEntity
  8
001
370
     9
100
AcDbVertex
100
AcDb2dVertex
 10
40.030368
 20
35.891454
 30
0.0
  0
VERTEX
  5
D2
330
CE
100
AcDbEntity
  8
001
370
     9
100
AcDbVertex
100
AcDb2dVertex
 10
41.530368
 20
36.293377
 30
0.0
  0
SEQEND
  5
CF
330
CE
100
AcDbEntity
  8
001
370
     9
  0
POLYLINE
  5
D3
330
C8
100
AcDbEntity
  8
001
370
     9
100
AcDb2dPolyline
 66
     1
 10
0.0
 20
0.0
 30
0.0
  0
VERTEX
  5
D5
330
D3
100
AcDbEntity
  8
001
370
     9
100
AcDbVertex
100
AcDb2dVertex
 10
37.333419
 20
36.293377
 30
0.0
  0
VERTEX
  5
D6
330
D3
100
AcDbEntity
  8
001
370
     9
100
AcDbVertex
100
AcDb2dVertex
 10
38.833419
 20
35.891454
 30
0.0
  0
VERTEX
  5
D7
330
D3
100
AcDbEntity
  8
001
370
     9
100
AcDbVertex
100
AcDb2dVertex
 10
37.333419
 20
35.48953
 30
0.0
  0
SEQEND
  5
D4
330
D3
100
AcDbEntity
  8
001
370
     9
  0
TEXT
  5
D8
330
C8
100
AcDbEntity
  8
001
370
    30
100
AcDbText
 10
14.662982
 20
36.891454
 30
0.0
 40
4.0
  1
（１．２）
 41
0.833333
100
AcDbText
  0
POINT
  5
D9
330
C8
100
AcDbEntity
  8
001
370
     9
100
AcDbPoint
 10
40.030368
 20
54.799458
 30
0.0
  0
POINT
  5
DA
330
C8
100
AcDbEntity
  8
001
370
     9
100
AcDbPoint
 10
38.833419
 20
59.323497
 30
0.0
  0
POINT
  5
DB
330
C8
100
AcDbEntity
  8
001
370
     9
100
AcDbPoint
 10
38.833419
 20
35.891454
 30
0.0
  0
LINE
  5
DC
330
C8
100
AcDbEntity
  8
001
370
     9
100
AcDbLine
 10
40.030368
 20
35.891454
 30
0.0
 11
42.530368
 21
35.891454
 31
0.0
  0
LINE
  5
DD
330
C8
100
AcDbEntity
  8
001
370
     9
100
AcDbLine
 10
38.833419
 20
35.891454
 30
0.0
 11
11.662982
 21
35.891454
 31
0.0
  0
ENDBLK
  5
CA
330
C8
100
AcDbEntity
  8
0
100
AcDbBlockEnd
  0
BLOCK
  5
DF
330
DE
100
AcDbEntity
  8
0
100
AcDbBlockBegin
  2
*D7
 70
     1
 10
0.0
 20
0.0
 30
0.0
  3
*D7
  1

  0
LINE
  5
E1
330
DE
100
AcDbEntity
  8
001
370
     9
100
AcDbLine
 10
45.345781
 20
47.469855
 30
0.0
 11
45.345781
 21
33.141454
 31
0.0
  0
LINE
  5
E2
330
DE
100
AcDbEntity
  8
001
370
     9
100
AcDbLine
 10
45.345781
 20
35.891454
 30
0.0
 11
40.030368
 21
35.891454
 31
0.0
  0
POLYLINE
  5
E3
330
DE
100
AcDbEntity
  8
001
370
     9
100
AcDb2dPolyline
 66
     1
 10
0.0
 20
0.0
 30
0.0
  0
VERTEX
  5
E5
330
E3
100
AcDbEntity
  8
001
370
     9
100
AcDbVertex
100
AcDb2dVertex
 10
46.845781
 20
35.48953
 30
0.0
  0
VERTEX
  5
E6
330
E3
100
AcDbEntity
  8
001
370
     9
100
AcDbVertex
100
AcDb2dVertex
 10
45.345781
 20
35.891454
 30
0.0
  0
VERTEX
  5
E7
330
E3
100
AcDbEntity
  8
001
370
     9
100
AcDbVertex
100
AcDb2dVertex
 10
46.845781
 20
36.293377
 30
0.0
  0
SEQEND
  5
E4
330
E3
100
AcDbEntity
  8
001
370
     9
  0
POLYLINE
  5
E8
330
DE
100
AcDbEntity
  8
001
370
     9
100
AcDb2dPolyline
 66
     1
 10
0.0
 20
0.0
 30
0.0
  0
VERTEX
  5
EA
330
E8
100
AcDbEntity
  8
001
370
     9
100
AcDbVertex
100
AcDb2dVertex
 10
38.530368
 20
36.293377
 30
0.0
  0
VERTEX
  5
EB
330
E8
100
AcDbEntity
  8
001
370
     9
100
AcDbVertex
100
AcDb2dVertex
 10
40.030368
 20
35.891454
 30
0.0
  0
VERTEX
  5
EC
330
E8
100
AcDbEntity
  8
001
370
     9
100
AcDbVertex
100
AcDb2dVertex
 10
38.530368
 20
35.48953
 30
0.0
  0
SEQEND
  5
E9
330
E8
100
AcDbEntity
  8
001
370
     9
  0
TEXT
  5
ED
330
DE
100
AcDbEntity
  8
001
370
    30
100
AcDbText
 10
39.345781
 20
36.891454
 30
0.0
 40
4.0
  1
５．３
 41
0.833333
100
AcDbText
  0
POINT
  5
EE
330
DE
100
AcDbEntity
  8
001
370
     9
100
AcDbPoint
 10
45.345781
 20
47.469855
 30
0.0
  0
POINT
  5
EF
330
DE
100
AcDbEntity
  8
001
370
     9
100
AcDbPoint
 10
40.030368
 20
43.348473
 30
0.0
  0
POINT
  5
F0
330
DE
100
AcDbEntity
  8
001
370
     9
100
AcDbPoint
 10
40.030368
 20
35.891454
 30
0.0
  0
LINE
  5
F1
330
DE
100
AcDbEntity
  8
001
370
     9
100
AcDbLine
 10
45.345781
 20
35.891454
 30
0.0
 11
47.845781
 21
35.891454
 31
0.0
  0
LINE
  5
F2
330
DE
100
AcDbEntity
  8
001
370
     9
100
AcDbLine
 10
40.030368
 20
35.891454
 30
0.0
 11
37.530368
 21
35.891454
 31
0.0
  0
ENDBLK
  5
E0
330
DE
100
AcDbEntity
  8
0
100
AcDbBlockEnd
  0
BLOCK
  5
F4
330
F3
100
AcDbEntity
  8
0
100
AcDbBlockBegin
  2
*D8
 70
     1
 10
0.0
 20
0.0
 30
0.0
  3
*D8
  1

  0
LINE
  5
F6
330
F3
100
AcDbEntity
  8
001
370
     9
100
AcDbLine
 10
42.797802
 20
52.032025
 30
0.0
 11
67.130715
 21
27.699112
 31
0.0
  0
ARC
  5
F7
330
F3
100
AcDbEntity
  8
001
370
     9
100
AcDbCircle
 10
28.030368
 20
66.799458
 30
0.0
 40
52.54624012325172
100
AcDbArc
 50
315.0
 51
0.0
  0
POLYLINE
  5
F8
330
F3
100
AcDbEntity
  8
001
370
     9
100
AcDb2dPolyline
 66
     1
 10
0.0
 20
0.0
 30
0.0
  0
VERTEX
  5
FA
330
F8
100
AcDbEntity
  8
001
370
     9
100
AcDbVertex
100
AcDb2dVertex
 10
80.153317
 20
65.305348
 30
0.0
  0
VERTEX
  5
FB
330
F8
100
AcDbEntity
  8
001
370
     9
100
AcDbVertex
100
AcDb2dVertex
 10
80.576609
 20
66.799458
 30
0.0
  0
VERTEX
  5
FC
330
F8
100
AcDbEntity
  8
001
370
     9
100
AcDbVertex
100
AcDb2dVertex
 10
80.957082
 20
65.293875
 30
0.0
  0
SEQEND
  5
F9
330
F8
100
AcDbEntity
  8
001
370
     9
  0
POLYLINE
  5
FD
330
F3
100
AcDbEntity
  8
001
370
     9
100
AcDb2dPolyline
 66
     1
 10
0.0
 20
0.0
 30
0.0
  0
VERTEX
  5
FF
330
FD
100
AcDbEntity
  8
001
370
     9
100
AcDbVertex
100
AcDb2dVertex
 10
66.519815
 20
30.439229
 30
0.0
  0
VERTEX
  5
100
330
FD
100
AcDbEntity
  8
001
370
     9
100
AcDbVertex
100
AcDb2dVertex
 10
65.186171
 20
29.643656
 30
0.0
  0
VERTEX
  5
101
330
FD
100
AcDbEntity
  8
001
370
     9
100
AcDbVertex
100
AcDb2dVertex
 10
65.943354
 20
30.999464
 30
0.0
  0
SEQEND
  5
FE
330
FD
100
AcDbEntity
  8
001
370
     9
  0
TEXT
  5
102
330
F3
100
AcDbEntity
  8
001
370
    30
100
AcDbText
 10
69.614655
 20
35.754943
 30
0.0
 40
4.0
  1
４５%%d
 50
59.896395
 41
0.978261
100
AcDbText
  0
POINT
  5
103
330
F3
100
AcDbEntity
  8
001
370
     9
100
AcDbPoint
 10
77.826609
 20
66.799458
 30
0.0
  0
POINT
  5
104
330
F3
100
AcDbEntity
  8
001
370
     9
100
AcDbPoint
 10
28.030368
 20
66.799458
 30
0.0
  0
POINT
  5
105
330
F3
100
AcDbEntity
  8
001
370
     9
100
AcDbPoint
 10
28.030368
 20
66.799458
 30
0.0
  0
POINT
  5
106
330
F3
100
AcDbEntity
  8
001
370
     9
100
AcDbPoint
 10
42.797802
 20
52.032025
 30
0.0
  0
ENDBLK
  5
F5
330
F3
100
AcDbEntity
  8
0
100
AcDbBlockEnd
  0
ENDSEC
  0
SECTION
  2
ENTITIES
  0
DIMENSION
  5
107
330
1F
100
AcDbEntity
  8
001
370
     9
100
AcDbDimension
  2
*D1
 10
38.833419
 20
24.253315
 30
0.0
 11
48.833419
 21
27.253315
 31
0.0
 70
   160
 71
     5
 42
-1.0
  3
Standard
100
AcDbAlignedDimension
 13
58.833419
 23
49.799458
 33
0.0
 14
38.833419
 24
59.323497
 34
0.0
 50
180.0
100
AcDbRotatedDimension
  0
DIMENSION
  5
108
330
1F
100
AcDbEntity
  8
001
370
     9
100
AcDbDimension
  2
*D2
 10
58.833419
 20
24.253315
 30
0.0
 11
101.333419
 21
27.253315
 31
0.0
 70
   160
 71
     5
 42
-1.0
  3
Standard
100
AcDbAlignedDimension
 13
143.833419
 23
57.299458
 33
0.0
 14
58.833419
 24
49.799458
 34
0.0
 50
180.0
100
AcDbRotatedDimension
  0
DIMENSION
  5
109
330
1F
100
AcDbEntity
  8
001
370
     9
100
AcDbDimension
  2
*D3
 10
143.833419
 20
13.562266
 30
0.0
 11
91.333419
 21
16.562266
 31
0.0
 70
   160
 71
     5
 42
-1.0
  3
Standard
100
AcDbAlignedDimension
 13
38.833419
 23
59.323497
 33
0.0
 14
143.833419
 24
57.299458
 34
0.0
100
AcDbRotatedDimension
  0
DIMENSION
  5
10A
330
1F
100
AcDbEntity
  8
001
370
     9
100
AcDbDimension
  2
*D4
 10
167.508108
 20
54.299458
 30
0.0
 11
164.508107
 21
66.799458
 31
0.0
 70
   160
 71
     5
 42
-1.0
  3
Standard
100
AcDbAlignedDimension
 13
140.833419
 23
79.299458
 33
0.0
 14
140.833419
 24
54.299458
 34
0.0
 50
270.0
100
AcDbRotatedDimension
  0
DIMENSION
  5
10B
330
1F
100
AcDbEntity
  8
001
370
     9
100
AcDbDimension
  2
*D5
 10
94.248661
 20
84.799458
 30
0.0
 11
91.248661
 21
66.799458
 31
0.0
 70
   160
 71
     5
 42
-1.0
  3
Standard
100
AcDbAlignedDimension
 13
57.833419
 23
48.799458
 33
0.0
 14
57.833419
 24
84.799458
 34
0.0
 50
90.0
100
AcDbRotatedDimension
  0
DIMENSION
  5
10C
330
1F
100
AcDbEntity
  8
001
370
     9
100
AcDbDimension
  2
*D6
 10
38.833419
 20
35.891454
 30
0.0
 11
24.662982
 21
38.891454
 31
0.0
 70
   160
 71
     5
 42
-1.0
  3
Standard
100
AcDbAlignedDimension
 13
40.030368
 23
54.799458
 33
0.0
 14
38.833419
 24
59.323497
 34
0.0
 50
180.0
100
AcDbRotatedDimension
  0
DIMENSION
  5
10D
330
1F
100
AcDbEntity
  8
001
370
     9
100
AcDbDimension
  2
*D7
 10
40.030368
 20
35.891454
 30
0.0
 11
45.345781
 21
38.891454
 31
0.0
 70
   160
 71
     5
 42
-1.0
  3
Standard
100
AcDbAlignedDimension
 13
45.345781
 23
47.469855
 33
0.0
 14
40.030368
 24
43.348473
 34
0.0
 50
180.0
100
AcDbRotatedDimension
  0
TEXT
  5
10E
330
1F
100
AcDbEntity
  8
001
370
    30
100
AcDbText
 10
10.996474
 20
56.799458
 30
0.0
 40
4.0
  1
%%c３４．９
 50
90.000003
 41
0.862069
100
AcDbText
  0
POLYLINE
  5
10F
330
1F
100
AcDbEntity
  8
001
370
     9
100
AcDb2dPolyline
 66
     1
 10
0.0
 20
0.0
 30
0.0
  0
VERTEX
  5
111
330
10F
100
AcDbEntity
  8
001
370
     9
100
AcDbVertex
100
AcDb2dVertex
 10
12.398398
 20
50.849458
 30
0.0
  0
VERTEX
  5
112
330
10F
100
AcDbEntity
  8
001
370
     9
100
AcDbVertex
100
AcDb2dVertex
 10
11.996474
 20
49.349458
 30
0.0
  0
VERTEX
  5
113
330
10F
100
AcDbEntity
  8
001
370
     9
100
AcDbVertex
100
AcDb2dVertex
 10
11.59455
 20
50.849458
 30
0.0
  0
SEQEND
  5
110
330
10F
100
AcDbEntity
  8
001
370
     9
  0
LINE
  5
114
330
1F
100
AcDbEntity
  8
001
370
     9
100
AcDbLine
 10
11.996474
 20
49.349458
 30
0.0
 11
11.996474
 21
84.249458
 31
0.0
  0
POLYLINE
  5
115
330
1F
100
AcDbEntity
  8
001
370
     9
100
AcDb2dPolyline
 66
     1
 10
0.0
 20
0.0
 30
0.0
  0
VERTEX
  5
117
330
115
100
AcDbEntity
  8
001
370
     9
100
AcDbVertex
100
AcDb2dVertex
 10
45.345781
 20
49.349458
 30
0.0
  0
VERTEX
  5
118
330
115
100
AcDbEntity
  8
001
370
     9
100
AcDbVertex
100
AcDb2dVertex
 10
11.996474
 20
49.349458
 30
0.0
  0
VERTEX
  5
119
330
115
100
AcDbEntity
  8
001
370
     9
100
AcDbVertex
100
AcDb2dVertex
 10
9.246474
 20
49.349458
 30
0.0
  0
SEQEND
  5
116
330
115
100
AcDbEntity
  8
001
370
     9
  0
TEXT
  5
11A
330
1F
100
AcDbEntity
  8
001
370
    30
100
AcDbText
 10
24.451233
 20
60.799458
 30
0.0
 40
4.0
  1
%%c２４
 50
90.000003
 41
0.882353
100
AcDbText
  0
POLYLINE
  5
11B
330
1F
100
AcDbEntity
  8
001
370
     9
100
AcDb2dPolyline
 66
     1
 10
0.0
 20
0.0
 30
0.0
  0
VERTEX
  5
11D
330
11B
100
AcDbEntity
  8
001
370
     9
100
AcDbVertex
100
AcDb2dVertex
 10
25.853157
 20
56.299458
 30
0.0
  0
VERTEX
  5
11E
330
11B
100
AcDbEntity
  8
001
370
     9
100
AcDbVertex
100
AcDb2dVertex
 10
25.451233
 20
54.799458
 30
0.0
  0
VERTEX
  5
11F
330
11B
100
AcDbEntity
  8
001
370
     9
100
AcDbVertex
100
AcDb2dVertex
 10
25.049309
 20
56.299458
 30
0.0
  0
SEQEND
  5
11C
330
11B
100
AcDbEntity
  8
001
370
     9
  0
LINE
  5
120
330
1F
100
AcDbEntity
  8
001
370
     9
100
AcDbLine
 10
25.451233
 20
54.799458
 30
0.0
 11
25.451233
 21
78.799458
 31
0.0
  0
POLYLINE
  5
121
330
1F
100
AcDbEntity
  8
001
370
     9
100
AcDb2dPolyline
 66
     1
 10
0.0
 20
0.0
 30
0.0
  0
VERTEX
  5
123
330
121
100
AcDbEntity
  8
001
370
     9
100
AcDbVertex
100
AcDb2dVertex
 10
40.030368
 20
54.799458
 30
0.0
  0
VERTEX
  5
124
330
121
100
AcDbEntity
  8
001
370
     9
100
AcDbVertex
100
AcDb2dVertex
 10
25.451233
 20
54.799458
 30
0.0
  0
VERTEX
  5
125
330
121
100
AcDbEntity
  8
001
370
     9
100
AcDbVertex
100
AcDb2dVertex
 10
22.701233
 20
54.799458
 30
0.0
  0
SEQEND
  5
122
330
121
100
AcDbEntity
  8
001
370
     9
  0
TEXT
  5
126
330
1F
100
AcDbEntity
  8
001
370
    30
100
AcDbText
 10
-2.056393
 20
56.799458
 30
0.0
 40
4.0
  1
%%c３６．４
 50
90.000003
 41
0.862069
100
AcDbText
  0
POLYLINE
  5
127
330
1F
100
AcDbEntity
  8
001
370
     9
100
AcDb2dPolyline
 66
     1
 10
0.0
 20
0.0
 30
0.0
  0
VERTEX
  5
129
330
127
100
AcDbEntity
  8
001
370
     9
100
AcDbVertex
100
AcDb2dVertex
 10
-0.654469
 20
50.085133
 30
0.0
  0
VERTEX
  5
12A
330
127
100
AcDbEntity
  8
001
370
     9
100
AcDbVertex
100
AcDb2dVertex
 10
-1.056393
 20
48.585133
 30
0.0
  0
VERTEX
  5
12B
330
127
100
AcDbEntity
  8
001
370
     9
100
AcDbVertex
100
AcDb2dVertex
 10
-1.458317
 20
50.085133
 30
0.0
  0
SEQEND
  5
128
330
127
100
AcDbEntity
  8
001
370
     9
  0
LINE
  5
12C
330
1F
100
AcDbEntity
  8
001
370
     9
100
AcDbLine
 10
-1.056393
 20
48.585133
 30
0.0
 11
-1.056393
 21
85.013784
 31
0.0
  0
POLYLINE
  5
12D
330
1F
100
AcDbEntity
  8
001
370
     9
100
AcDb2dPolyline
 66
     1
 10
0.0
 20
0.0
 30
0.0
  0
VERTEX
  5
12F
330
12D
100
AcDbEntity
  8
001
370
     9
100
AcDbVertex
100
AcDb2dVertex
 10
45.099888
 20
48.585133
 30
0.0
  0
VERTEX
  5
130
330
12D
100
AcDbEntity
  8
001
370
     9
100
AcDbVertex
100
AcDb2dVertex
 10
-1.056393
 20
48.585133
 30
0.0
  0
VERTEX
  5
131
330
12D
100
AcDbEntity
  8
001
370
     9
100
AcDbVertex
100
AcDb2dVertex
 10
-3.806393
 20
48.585133
 30
0.0
  0
SEQEND
  5
12E
330
12D
100
AcDbEntity
  8
001
370
     9
  0
DIMENSION
  5
132
330
1F
100
AcDbEntity
  8
001
370
     9
100
AcDbDimension
  2
*D8
 10
28.030368
 20
66.799458
 30
0.0
 11
70.893807
 21
41.948792
 31
0.0
 70
    34
 71
     5
 42
-1.0
  3
Standard
100
AcDb2LineAngularDimension
 13
77.826609
 23
66.799458
 33
0.0
 14
28.030368
 24
66.799458
 34
0.0
 15
42.797802
 25
52.032025
 35
0.0
 16
76.576764
 26
46.690883
 36
0.0
  0
LINE
  5
133
330
1F
100
AcDbEntity
  8
001
 62
   200
370
    50
100
AcDbLine
 10
38.833419
 20
60.484952
 30
0.0
 11
38.833419
 21
73.761046
 31
0.0
  0
LINE
  5
134
330
1F
100
AcDbEntity
  8
001
370
    50
100
AcDbLine
 10
143.833419
 20
66.799458
 30
0.0
 11
148.48945
 21
69.487619
 31
0.0
  0
LINE
  5
135
330
1F
100
AcDbEntity
  8
001
370
    50
100
AcDbLine
 10
143.833419
 20
66.799458
 30
0.0
 11
148.48945
 21
64.111298
 31
0.0
  0
POLYLINE
  5
136
330
1F
100
AcDbEntity
  8
001
 62
   140
370
    50
100
AcDb2dPolyline
 66
     1
 10
0.0
 20
0.0
 30
0.0
  0
VERTEX
  5
138
330
136
100
AcDbEntity
  8
001
 62
   140
370
    50
100
AcDbVertex
100
AcDb2dVertex
 10
44.555671
 20
79.856261
 30
0.0
  0
VERTEX
  5
139
330
136
100
AcDbEntity
  8
001
 62
   140
370
    50
100
AcDbVertex
100
AcDb2dVertex
 10
44.550061
 20
79.860129
 30
0.0
  0
VERTEX
  5
13A
330
136
100
AcDbEntity
  8
001
 62
   140
370
    50
100
AcDbVertex
100
AcDb2dVertex
 10
44.544433
 20
79.863969
 30
0.0
  0
VERTEX
  5
13B
330
136
100
AcDbEntity
  8
001
 62
   140
370
    50
100
AcDbVertex
100
AcDb2dVertex
 10
44.485126
 20
79.899994
 30
0.0
  0
VERTEX
  5
13C
330
136
100
AcDbEntity
  8
001
 62
   140
370
    50
100
AcDbVertex
100
AcDb2dVertex
 10
44.422621
 20
79.930287
 30
0.0
  0
VERTEX
  5
13D
330
136
100
AcDbEntity
  8
001
 62
   140
370
    50
100
AcDbVertex
100
AcDb2dVertex
 10
44.358688
 20
79.954415
 30
0.0
  0
VERTEX
  5
13E
330
136
100
AcDbEntity
  8
001
 62
   140
370
    50
100
AcDbVertex
100
AcDb2dVertex
 10
44.292918
 20
79.972875
 30
0.0
  0
VERTEX
  5
13F
330
136
100
AcDbEntity
  8
001
 62
   140
370
    50
100
AcDbVertex
100
AcDb2dVertex
 10
44.22529
 20
79.985773
 30
0.0
  0
VERTEX
  5
140
330
136
100
AcDbEntity
  8
001
 62
   140
370
    50
100
AcDbVertex
100
AcDb2dVertex
 10
44.156828
 20
79.993137
 30
0.0
  0
VERTEX
  5
141
330
136
100
AcDbEntity
  8
001
 62
   140
370
    50
100
AcDbVertex
100
AcDb2dVertex
 10
44.085229
 20
79.995198
 30
0.0
  0
VERTEX
  5
142
330
136
100
AcDbEntity
  8
001
 62
   140
370
    50
100
AcDbVertex
100
AcDb2dVertex
 10
44.013673
 20
79.991919
 30
0.0
  0
VERTEX
  5
143
330
136
100
AcDbEntity
  8
001
 62
   140
370
    50
100
AcDbVertex
100
AcDb2dVertex
 10
43.937217
 20
79.982901
 30
0.0
  0
VERTEX
  5
144
330
136
100
AcDbEntity
  8
001
 62
   140
370
    50
100
AcDbVertex
100
AcDb2dVertex
 10
43.861541
 20
79.968718
 30
0.0
  0
VERTEX
  5
145
330
136
100
AcDbEntity
  8
001
 62
   140
370
    50
100
AcDbVertex
100
AcDb2dVertex
 10
43.779336
 20
79.947742
 30
0.0
  0
VERTEX
  5
146
330
136
100
AcDbEntity
  8
001
 62
   140
370
    50
100
AcDbVertex
100
AcDb2dVertex
 10
43.698555
 20
79.921801
 30
0.0
  0
VERTEX
  5
147
330
136
100
AcDbEntity
  8
001
 62
   140
370
    50
100
AcDbVertex
100
AcDb2dVertex
 10
43.610863
 20
79.888011
 30
0.0
  0
VERTEX
  5
148
330
136
100
AcDbEntity
  8
001
 62
   140
370
    50
100
AcDbVertex
100
AcDb2dVertex
 10
43.525096
 20
79.849585
 30
0.0
  0
VERTEX
  5
149
330
136
100
AcDbEntity
  8
001
 62
   140
370
    50
100
AcDbVertex
100
AcDb2dVertex
 10
43.433873
 20
79.803201
 30
0.0
  0
VERTEX
  5
14A
330
136
100
AcDbEntity
  8
001
 62
   140
370
    50
100
AcDbVertex
100
AcDb2dVertex
 10
43.344858
 20
79.752703
 30
0.0
  0
VERTEX
  5
14B
330
136
100
AcDbEntity
  8
001
 62
   140
370
    50
100
AcDbVertex
100
AcDb2dVertex
 10
43.252814
 20
79.695304
 30
0.0
  0
VERTEX
  5
14C
330
136
100
AcDbEntity
  8
001
 62
   140
370
    50
100
AcDbVertex
100
AcDb2dVertex
 10
43.163038
 20
79.634417
 30
0.0
  0
VERTEX
  5
14D
330
136
100
AcDbEntity
  8
001
 62
   140
370
    50
100
AcDbVertex
100
AcDb2dVertex
 10
43.071502
 20
79.567528
 30
0.0
  0
VERTEX
  5
14E
330
136
100
AcDbEntity
  8
001
 62
   140
370
    50
100
AcDbVertex
100
AcDb2dVertex
 10
42.982193
 20
79.497692
 30
0.0
  0
VERTEX
  5
14F
330
136
100
AcDbEntity
  8
001
 62
   140
370
    50
100
AcDbVertex
100
AcDb2dVertex
 10
42.89167
 20
79.422394
 30
0.0
  0
VERTEX
  5
150
330
136
100
AcDbEntity
  8
001
 62
   140
370
    50
100
AcDbVertex
100
AcDb2dVertex
 10
42.803317
 20
79.34456
 30
0.0
  0
VERTEX
  5
151
330
136
100
AcDbEntity
  8
001
 62
   140
370
    50
100
AcDbVertex
100
AcDb2dVertex
 10
42.714194
 20
79.261736
 30
0.0
  0
VERTEX
  5
152
330
136
100
AcDbEntity
  8
001
 62
   140
370
    50
100
AcDbVertex
100
AcDb2dVertex
 10
42.627193
 20
79.176685
 30
0.0
  0
VERTEX
  5
153
330
136
100
AcDbEntity
  8
001
 62
   140
370
    50
100
AcDbVertex
100
AcDb2dVertex
 10
42.539907
 20
79.087155
 30
0.0
  0
VERTEX
  5
154
330
136
100
AcDbEntity
  8
001
 62
   140
370
    50
100
AcDbVertex
100
AcDb2dVertex
 10
42.454713
 20
78.995632
 30
0.0
  0
VERTEX
  5
155
330
136
100
AcDbEntity
  8
001
 62
   140
370
    50
100
AcDbVertex
100
AcDb2dVertex
 10
42.369775
 20
78.900222
 30
0.0
  0
VERTEX
  5
156
330
136
100
AcDbEntity
  8
001
 62
   140
370
    50
100
AcDbVertex
100
AcDb2dVertex
 10
42.286917
 20
78.803001
 30
0.0
  0
VERTEX
  5
157
330
136
100
AcDbEntity
  8
001
 62
   140
370
    50
100
AcDbVertex
100
AcDb2dVertex
 10
42.204897
 20
78.702567
 30
0.0
  0
VERTEX
  5
158
330
136
100
AcDbEntity
  8
001
 62
   140
370
    50
100
AcDbVertex
100
AcDb2dVertex
 10
42.124964
 20
78.600465
 30
0.0
  0
VERTEX
  5
159
330
136
100
AcDbEntity
  8
001
 62
   140
370
    50
100
AcDbVertex
100
AcDb2dVertex
 10
42.046463
 20
78.495899
 30
0.0
  0
VERTEX
  5
15A
330
136
100
AcDbEntity
  8
001
 62
   140
370
    50
100
AcDbVertex
100
AcDb2dVertex
 10
41.970078
 20
78.389778
 30
0.0
  0
VERTEX
  5
15B
330
136
100
AcDbEntity
  8
001
 62
   140
370
    50
100
AcDbVertex
100
AcDb2dVertex
 10
41.895712
 20
78.281995
 30
0.0
  0
VERTEX
  5
15C
330
136
100
AcDbEntity
  8
001
 62
   140
370
    50
100
AcDbVertex
100
AcDb2dVertex
 10
41.82351
 20
78.17275
 30
0.0
  0
VERTEX
  5
15D
330
136
100
AcDbEntity
  8
001
 62
   140
370
    50
100
AcDbVertex
100
AcDb2dVertex
 10
41.753891
 20
78.06269
 30
0.0
  0
VERTEX
  5
15E
330
136
100
AcDbEntity
  8
001
 62
   140
370
    50
100
AcDbVertex
100
AcDb2dVertex
 10
41.686511
 20
77.951245
 30
0.0
  0
VERTEX
  5
15F
330
136
100
AcDbEntity
  8
001
 62
   140
370
    50
100
AcDbVertex
100
AcDb2dVertex
 10
41.622248
 20
77.839872
 30
0.0
  0
VERTEX
  5
160
330
136
100
AcDbEntity
  8
001
 62
   140
370
    50
100
AcDbVertex
100
AcDb2dVertex
 10
41.560325
 20
77.727182
 30
0.0
  0
VERTEX
  5
161
330
136
100
AcDbEntity
  8
001
 62
   140
370
    50
100
AcDbVertex
100
AcDb2dVertex
 10
41.50197
 20
77.615396
 30
0.0
  0
VERTEX
  5
162
330
136
100
AcDbEntity
  8
001
 62
   140
370
    50
100
AcDbVertex
100
AcDb2dVertex
 10
41.44609
 20
77.502352
 30
0.0
  0
VERTEX
  5
163
330
136
100
AcDbEntity
  8
001
 62
   140
370
    50
100
AcDbVertex
100
AcDb2dVertex
 10
41.394161
 20
77.391
 30
0.0
  0
VERTEX
  5
164
330
136
100
AcDbEntity
  8
001
 62
   140
370
    50
100
AcDbVertex
100
AcDb2dVertex
 10
41.344886
 20
77.278448
 30
0.0
  0
VERTEX
  5
165
330
136
100
AcDbEntity
  8
001
 62
   140
370
    50
100
AcDbVertex
100
AcDb2dVertex
 10
41.299872
 20
77.16829
 30
0.0
  0
VERTEX
  5
166
330
136
100
AcDbEntity
  8
001
 62
   140
370
    50
100
AcDbVertex
100
AcDb2dVertex
 10
41.257748
 20
77.056995
 30
0.0
  0
VERTEX
  5
167
330
136
100
AcDbEntity
  8
001
 62
   140
370
    50
100
AcDbVertex
100
AcDb2dVertex
 10
41.220124
 20
76.948666
 30
0.0
  0
VERTEX
  5
168
330
136
100
AcDbEntity
  8
001
 62
   140
370
    50
100
AcDbVertex
100
AcDb2dVertex
 10
41.185704
 20
76.839278
 30
0.0
  0
VERTEX
  5
169
330
136
100
AcDbEntity
  8
001
 62
   140
370
    50
100
AcDbVertex
100
AcDb2dVertex
 10
41.155968
 20
76.733245
 30
0.0
  0
VERTEX
  5
16A
330
136
100
AcDbEntity
  8
001
 62
   140
370
    50
100
AcDbVertex
100
AcDb2dVertex
 10
41.12986
 20
76.626261
 30
0.0
  0
VERTEX
  5
16B
330
136
100
AcDbEntity
  8
001
 62
   140
370
    50
100
AcDbVertex
100
AcDb2dVertex
 10
41.108613
 20
76.522777
 30
0.0
  0
VERTEX
  5
16C
330
136
100
AcDbEntity
  8
001
 62
   140
370
    50
100
AcDbVertex
100
AcDb2dVertex
 10
41.091571
 20
76.41852
 30
0.0
  0
VERTEX
  5
16D
330
136
100
AcDbEntity
  8
001
 62
   140
370
    50
100
AcDbVertex
100
AcDb2dVertex
 10
41.079657
 20
76.317658
 30
0.0
  0
VERTEX
  5
16E
330
136
100
AcDbEntity
  8
001
 62
   140
370
    50
100
AcDbVertex
100
AcDb2dVertex
 10
41.072741
 20
76.216328
 30
0.0
  0
VERTEX
  5
16F
330
136
100
AcDbEntity
  8
001
 62
   140
370
    50
100
AcDbVertex
100
AcDb2dVertex
 10
41.071446
 20
76.118231
 30
0.0
  0
VERTEX
  5
170
330
136
100
AcDbEntity
  8
001
 62
   140
370
    50
100
AcDbVertex
100
AcDb2dVertex
 10
41.076191
 20
76.020251
 30
0.0
  0
VERTEX
  5
171
330
136
100
AcDbEntity
  8
001
 62
   140
370
    50
100
AcDbVertex
100
AcDb2dVertex
 10
41.085511
 20
75.937764
 30
0.0
  0
VERTEX
  5
172
330
136
100
AcDbEntity
  8
001
 62
   140
370
    50
100
AcDbVertex
100
AcDb2dVertex
 10
41.100247
 20
75.856081
 30
0.0
  0
VERTEX
  5
173
330
136
100
AcDbEntity
  8
001
 62
   140
370
    50
100
AcDbVertex
100
AcDb2dVertex
 10
41.118923
 20
75.782446
 30
0.0
  0
VERTEX
  5
174
330
136
100
AcDbEntity
  8
001
 62
   140
370
    50
100
AcDbVertex
100
AcDb2dVertex
 10
41.142928
 20
75.710371
 30
0.0
  0
VERTEX
  5
175
330
136
100
AcDbEntity
  8
001
 62
   140
370
    50
100
AcDbVertex
100
AcDb2dVertex
 10
41.170361
 20
75.645121
 30
0.0
  0
VERTEX
  5
176
330
136
100
AcDbEntity
  8
001
 62
   140
370
    50
100
AcDbVertex
100
AcDb2dVertex
 10
41.202873
 20
75.582275
 30
0.0
  0
VERTEX
  5
177
330
136
100
AcDbEntity
  8
001
 62
   140
370
    50
100
AcDbVertex
100
AcDb2dVertex
 10
41.238784
 20
75.524992
 30
0.0
  0
VERTEX
  5
178
330
136
100
AcDbEntity
  8
001
 62
   140
370
    50
100
AcDbVertex
100
AcDb2dVertex
 10
41.279317
 20
75.470816
 30
0.0
  0
VERTEX
  5
179
330
136
100
AcDbEntity
  8
001
 62
   140
370
    50
100
AcDbVertex
100
AcDb2dVertex
 10
41.328388
 20
75.416097
 30
0.0
  0
VERTEX
  5
17A
330
136
100
AcDbEntity
  8
001
 62
   140
370
    50
100
AcDbVertex
100
AcDb2dVertex
 10
41.38273
 20
75.366786
 30
0.0
  0
VERTEX
  5
17B
330
136
100
AcDbEntity
  8
001
 62
   140
370
    50
100
AcDbVertex
100
AcDb2dVertex
 10
41.409589
 20
75.346009
 30
0.0
  0
VERTEX
  5
17C
330
136
100
AcDbEntity
  8
001
 62
   140
370
    50
100
AcDbVertex
100
AcDb2dVertex
 10
41.437014
 20
75.325954
 30
0.0
  0
SEQEND
  5
137
330
136
100
AcDbEntity
  8
001
370
    50
  0
LINE
  5
17D
330
1F
100
AcDbEntity
  8
001
 62
   140
370
    50
100
AcDbLine
 10
44.621949
 20
79.81073
 30
0.0
 11
44.550727
 21
79.859689
 31
0.0
  0
LINE
  5
17E
330
1F
100
AcDbEntity
  8
001
 62
   140
370
    50
100
AcDbLine
 10
41.435065
 20
75.32729
 30
0.0
 11
41.506287
 21
75.27833
 31
0.0
  0
POLYLINE
  5
17F
330
1F
100
AcDbEntity
  8
001
 62
   140
370
    50
100
AcDb2dPolyline
 66
     1
 10
0.0
 20
0.0
 30
0.0
  0
VERTEX
  5
181
330
17F
100
AcDbEntity
  8
001
 62
   140
370
    50
100
AcDbVertex
100
AcDb2dVertex
 10
42.024403
 20
76.395578
 30
0.0
  0
VERTEX
  5
182
330
17F
100
AcDbEntity
  8
001
 62
   140
370
    50
100
AcDbVertex
100
AcDb2dVertex
 10
42.032083
 20
76.391768
 30
0.0
  0
VERTEX
  5
183
330
17F
100
AcDbEntity
  8
001
 62
   140
370
    50
100
AcDbVertex
100
AcDb2dVertex
 10
42.043324
 20
76.388102
 30
0.0
  0
VERTEX
  5
184
330
17F
100
AcDbEntity
  8
001
 62
   140
370
    50
100
AcDbVertex
100
AcDb2dVertex
 10
42.055543
 20
76.386936
 30
0.0
  0
VERTEX
  5
185
330
17F
100
AcDbEntity
  8
001
 62
   140
370
    50
100
AcDbVertex
100
AcDb2dVertex
 10
42.066833
 20
76.388365
 30
0.0
  0
VERTEX
  5
186
330
17F
100
AcDbEntity
  8
001
 62
   140
370
    50
100
AcDbVertex
100
AcDb2dVertex
 10
42.080548
 20
76.391721
 30
0.0
  0
VERTEX
  5
187
330
17F
100
AcDbEntity
  8
001
 62
   140
370
    50
100
AcDbVertex
100
AcDb2dVertex
 10
42.094218
 20
76.396359
 30
0.0
  0
VERTEX
  5
188
330
17F
100
AcDbEntity
  8
001
 62
   140
370
    50
100
AcDbVertex
100
AcDb2dVertex
 10
42.146187
 20
76.425528
 30
0.0
  0
VERTEX
  5
189
330
17F
100
AcDbEntity
  8
001
 62
   140
370
    50
100
AcDbVertex
100
AcDb2dVertex
 10
42.190862
 20
76.463173
 30
0.0
  0
VERTEX
  5
18A
330
17F
100
AcDbEntity
  8
001
 62
   140
370
    50
100
AcDbVertex
100
AcDb2dVertex
 10
42.223843
 20
76.496235
 30
0.0
  0
VERTEX
  5
18B
330
17F
100
AcDbEntity
  8
001
 62
   140
370
    50
100
AcDbVertex
100
AcDb2dVertex
 10
42.257501
 20
76.536172
 30
0.0
  0
VERTEX
  5
18C
330
17F
100
AcDbEntity
  8
001
 62
   140
370
    50
100
AcDbVertex
100
AcDb2dVertex
 10
42.272308
 20
76.555652
 30
0.0
  0
VERTEX
  5
18D
330
17F
100
AcDbEntity
  8
001
 62
   140
370
    50
100
AcDbVertex
100
AcDb2dVertex
 10
42.282538
 20
76.569651
 30
0.0
  0
SEQEND
  5
180
330
17F
100
AcDbEntity
  8
001
370
    50
  0
LINE
  5
18E
330
1F
100
AcDbEntity
  8
001
 62
   140
370
    50
100
AcDbLine
 10
42.549015
 20
76.946622
 30
0.0
 11
42.282538
 21
76.569651
 31
0.0
  0
POLYLINE
  5
18F
330
1F
100
AcDbEntity
  8
001
 62
   140
370
    50
100
AcDb2dPolyline
 66
     1
 10
0.0
 20
0.0
 30
0.0
  0
VERTEX
  5
191
330
18F
100
AcDbEntity
  8
001
 62
   140
370
    50
100
AcDbVertex
100
AcDb2dVertex
 10
42.743003
 20
77.122094
 30
0.0
  0
VERTEX
  5
192
330
18F
100
AcDbEntity
  8
001
 62
   140
370
    50
100
AcDbVertex
100
AcDb2dVertex
 10
42.740687
 20
77.121222
 30
0.0
  0
VERTEX
  5
193
330
18F
100
AcDbEntity
  8
001
 62
   140
370
    50
100
AcDbVertex
100
AcDb2dVertex
 10
42.737335
 20
77.119914
 30
0.0
  0
VERTEX
  5
194
330
18F
100
AcDbEntity
  8
001
 62
   140
370
    50
100
AcDbVertex
100
AcDb2dVertex
 10
42.681641
 20
77.089084
 30
0.0
  0
VERTEX
  5
195
330
18F
100
AcDbEntity
  8
001
 62
   140
370
    50
100
AcDbVertex
100
AcDb2dVertex
 10
42.640691
 20
77.0531
 30
0.0
  0
VERTEX
  5
196
330
18F
100
AcDbEntity
  8
001
 62
   140
370
    50
100
AcDbVertex
100
AcDb2dVertex
 10
42.608402
 20
77.020347
 30
0.0
  0
VERTEX
  5
197
330
18F
100
AcDbEntity
  8
001
 62
   140
370
    50
100
AcDbVertex
100
AcDb2dVertex
 10
42.574052
 20
76.980102
 30
0.0
  0
VERTEX
  5
198
330
18F
100
AcDbEntity
  8
001
 62
   140
370
    50
100
AcDbVertex
100
AcDb2dVertex
 10
42.559207
 20
76.960604
 30
0.0
  0
VERTEX
  5
199
330
18F
100
AcDbEntity
  8
001
 62
   140
370
    50
100
AcDbVertex
100
AcDb2dVertex
 10
42.549015
 20
76.946622
 30
0.0
  0
SEQEND
  5
190
330
18F
100
AcDbEntity
  8
001
370
    50
  0
LINE
  5
19A
330
1F
100
AcDbEntity
  8
001
 62
   140
370
    50
100
AcDbLine
 10
42.993828
 20
77.213048
 30
0.0
 11
42.743003
 21
77.122094
 31
0.0
  0
POLYLINE
  5
19B
330
1F
100
AcDbEntity
  8
001
 62
   140
370
    50
100
AcDb2dPolyline
 66
     1
 10
0.0
 20
0.0
 30
0.0
  0
VERTEX
  5
19D
330
19B
100
AcDbEntity
  8
001
 62
   140
370
    50
100
AcDbVertex
100
AcDb2dVertex
 10
42.993828
 20
77.213048
 30
0.0
  0
VERTEX
  5
19E
330
19B
100
AcDbEntity
  8
001
 62
   140
370
    50
100
AcDbVertex
100
AcDb2dVertex
 10
42.996144
 20
77.213921
 30
0.0
  0
VERTEX
  5
19F
330
19B
100
AcDbEntity
  8
001
 62
   140
370
    50
100
AcDbVertex
100
AcDb2dVertex
 10
42.999496
 20
77.215228
 30
0.0
  0
VERTEX
  5
1A0
330
19B
100
AcDbEntity
  8
001
 62
   140
370
    50
100
AcDbVertex
100
AcDb2dVertex
 10
43.054764
 20
77.245437
 30
0.0
  0
VERTEX
  5
1A1
330
19B
100
AcDbEntity
  8
001
 62
   140
370
    50
100
AcDbVertex
100
AcDb2dVertex
 10
43.09614
 20
77.282042
 30
0.0
  0
VERTEX
  5
1A2
330
19B
100
AcDbEntity
  8
001
 62
   140
370
    50
100
AcDbVertex
100
AcDb2dVertex
 10
43.130059
 20
77.317174
 30
0.0
  0
VERTEX
  5
1A3
330
19B
100
AcDbEntity
  8
001
 62
   140
370
    50
100
AcDbVertex
100
AcDb2dVertex
 10
43.162779
 20
77.355041
 30
0.0
  0
VERTEX
  5
1A4
330
19B
100
AcDbEntity
  8
001
 62
   140
370
    50
100
AcDbVertex
100
AcDb2dVertex
 10
43.178678
 20
77.375719
 30
0.0
  0
VERTEX
  5
1A5
330
19B
100
AcDbEntity
  8
001
 62
   140
370
    50
100
AcDbVertex
100
AcDb2dVertex
 10
43.193719
 20
77.396988
 30
0.0
  0
VERTEX
  5
1A6
330
19B
100
AcDbEntity
  8
001
 62
   140
370
    50
100
AcDbVertex
100
AcDb2dVertex
 10
43.208119
 20
77.418902
 30
0.0
  0
VERTEX
  5
1A7
330
19B
100
AcDbEntity
  8
001
 62
   140
370
    50
100
AcDbVertex
100
AcDb2dVertex
 10
43.2218
 20
77.4409
 30
0.0
  0
VERTEX
  5
1A8
330
19B
100
AcDbEntity
  8
001
 62
   140
370
    50
100
AcDbVertex
100
AcDb2dVertex
 10
43.245426
 20
77.482384
 30
0.0
  0
VERTEX
  5
1A9
330
19B
100
AcDbEntity
  8
001
 62
   140
370
    50
100
AcDbVertex
100
AcDb2dVertex
 10
43.266086
 20
77.529264
 30
0.0
  0
VERTEX
  5
1AA
330
19B
100
AcDbEntity
  8
001
 62
   140
370
    50
100
AcDbVertex
100
AcDb2dVertex
 10
43.284886
 20
77.590936
 30
0.0
  0
VERTEX
  5
1AB
330
19B
100
AcDbEntity
  8
001
 62
   140
370
    50
100
AcDbVertex
100
AcDb2dVertex
 10
43.293615
 20
77.637141
 30
0.0
  0
SEQEND
  5
19C
330
19B
100
AcDbEntity
  8
001
370
    50
  0
LINE
  5
1AC
330
1F
100
AcDbEntity
  8
001
 62
   140
370
    50
100
AcDbLine
 10
43.309267
 20
77.923158
 30
0.0
 11
43.293615
 21
77.637141
 31
0.0
  0
POLYLINE
  5
1AD
330
1F
100
AcDbEntity
  8
001
 62
   140
370
    50
100
AcDb2dPolyline
 66
     1
 10
0.0
 20
0.0
 30
0.0
  0
VERTEX
  5
1AF
330
1AD
100
AcDbEntity
  8
001
 62
   140
370
    50
100
AcDbVertex
100
AcDb2dVertex
 10
43.415066
 20
78.171779
 30
0.0
  0
VERTEX
  5
1B0
330
1AD
100
AcDbEntity
  8
001
 62
   140
370
    50
100
AcDbVertex
100
AcDb2dVertex
 10
43.412633
 20
78.16831
 30
0.0
  0
VERTEX
  5
1B1
330
1AD
100
AcDbEntity
  8
001
 62
   140
370
    50
100
AcDbVertex
100
AcDb2dVertex
 10
43.409163
 20
78.163311
 30
0.0
  0
VERTEX
  5
1B2
330
1AD
100
AcDbEntity
  8
001
 62
   140
370
    50
100
AcDbVertex
100
AcDb2dVertex
 10
43.393658
 20
78.139899
 30
0.0
  0
VERTEX
  5
1B3
330
1AD
100
AcDbEntity
  8
001
 62
   140
370
    50
100
AcDbVertex
100
AcDb2dVertex
 10
43.381082
 20
78.119399
 30
0.0
  0
VERTEX
  5
1B4
330
1AD
100
AcDbEntity
  8
001
 62
   140
370
    50
100
AcDbVertex
100
AcDb2dVertex
 10
43.358132
 20
78.078833
 30
0.0
  0
VERTEX
  5
1B5
330
1AD
100
AcDbEntity
  8
001
 62
   140
370
    50
100
AcDbVertex
100
AcDb2dVertex
 10
43.336796
 20
78.031035
 30
0.0
  0
VERTEX
  5
1B6
330
1AD
100
AcDbEntity
  8
001
 62
   140
370
    50
100
AcDbVertex
100
AcDb2dVertex
 10
43.317837
 20
77.969147
 30
0.0
  0
VERTEX
  5
1B7
330
1AD
100
AcDbEntity
  8
001
 62
   140
370
    50
100
AcDbVertex
100
AcDb2dVertex
 10
43.309267
 20
77.923158
 30
0.0
  0
SEQEND
  5
1AE
330
1AD
100
AcDbEntity
  8
001
370
    50
  0
LINE
  5
1B8
330
1F
100
AcDbEntity
  8
001
 62
   140
370
    50
100
AcDbLine
 10
43.681543
 20
78.54875
 30
0.0
 11
43.415066
 21
78.171779
 31
0.0
  0
POLYLINE
  5
1B9
330
1F
100
AcDbEntity
  8
001
 62
   140
370
    50
100
AcDb2dPolyline
 66
     1
 10
0.0
 20
0.0
 30
0.0
  0
VERTEX
  5
1BB
330
1B9
100
AcDbEntity
  8
001
 62
   140
370
    50
100
AcDbVertex
100
AcDb2dVertex
 10
43.763298
 20
78.869121
 30
0.0
  0
VERTEX
  5
1BC
330
1B9
100
AcDbEntity
  8
001
 62
   140
370
    50
100
AcDbVertex
100
AcDb2dVertex
 10
43.755538
 20
78.872906
 30
0.0
  0
VERTEX
  5
1BD
330
1B9
100
AcDbEntity
  8
001
 62
   140
370
    50
100
AcDbVertex
100
AcDb2dVertex
 10
43.744377
 20
78.876596
 30
0.0
  0
VERTEX
  5
1BE
330
1B9
100
AcDbEntity
  8
001
 62
   140
370
    50
100
AcDbVertex
100
AcDb2dVertex
 10
43.73265
 20
78.877911
 30
0.0
  0
VERTEX
  5
1BF
330
1B9
100
AcDbEntity
  8
001
 62
   140
370
    50
100
AcDbVertex
100
AcDb2dVertex
 10
43.720868
 20
78.876333
 30
0.0
  0
VERTEX
  5
1C0
330
1B9
100
AcDbEntity
  8
001
 62
   140
370
    50
100
AcDbVertex
100
AcDb2dVertex
 10
43.708269
 20
78.873266
 30
0.0
  0
VERTEX
  5
1C1
330
1B9
100
AcDbEntity
  8
001
 62
   140
370
    50
100
AcDbVertex
100
AcDb2dVertex
 10
43.699152
 20
78.870519
 30
0.0
  0
SEQEND
  5
1BA
330
1B9
100
AcDbEntity
  8
001
370
    50
  0
LINE
  5
1C2
330
1F
100
AcDbEntity
  8
001
 62
   140
370
    50
100
AcDbLine
 10
43.448327
 20
78.779565
 30
0.0
 11
43.699152
 21
78.870519
 31
0.0
  0
POLYLINE
  5
1C3
330
1F
100
AcDbEntity
  8
001
 62
   140
370
    50
100
AcDb2dPolyline
 66
     1
 10
0.0
 20
0.0
 30
0.0
  0
VERTEX
  5
1C5
330
1C3
100
AcDbEntity
  8
001
 62
   140
370
    50
100
AcDbVertex
100
AcDb2dVertex
 10
43.360137
 20
78.852714
 30
0.0
  0
VERTEX
  5
1C6
330
1C3
100
AcDbEntity
  8
001
 62
   140
370
    50
100
AcDbVertex
100
AcDb2dVertex
 10
43.36002
 20
78.85013
 30
0.0
  0
VERTEX
  5
1C7
330
1C3
100
AcDbEntity
  8
001
 62
   140
370
    50
100
AcDbVertex
100
AcDb2dVertex
 10
43.359902
 20
78.846426
 30
0.0
  0
VERTEX
  5
1C8
330
1C3
100
AcDbEntity
  8
001
 62
   140
370
    50
100
AcDbVertex
100
AcDb2dVertex
 10
43.360354
 20
78.831137
 30
0.0
  0
VERTEX
  5
1C9
330
1C3
100
AcDbEntity
  8
001
 62
   140
370
    50
100
AcDbVertex
100
AcDb2dVertex
 10
43.362248
 20
78.817996
 30
0.0
  0
VERTEX
  5
1CA
330
1C3
100
AcDbEntity
  8
001
 62
   140
370
    50
100
AcDbVertex
100
AcDb2dVertex
 10
43.36498
 20
78.807114
 30
0.0
  0
VERTEX
  5
1CB
330
1C3
100
AcDbEntity
  8
001
 62
   140
370
    50
100
AcDbVertex
100
AcDb2dVertex
 10
43.370423
 20
78.795952
 30
0.0
  0
VERTEX
  5
1CC
330
1C3
100
AcDbEntity
  8
001
 62
   140
370
    50
100
AcDbVertex
100
AcDb2dVertex
 10
43.377868
 20
78.786743
 30
0.0
  0
VERTEX
  5
1CD
330
1C3
100
AcDbEntity
  8
001
 62
   140
370
    50
100
AcDbVertex
100
AcDb2dVertex
 10
43.38418
 20
78.780964
 30
0.0
  0
SEQEND
  5
1C4
330
1C3
100
AcDbEntity
  8
001
370
    50
  0
LINE
  5
1CE
330
1F
100
AcDbEntity
  8
001
 62
   140
370
    50
100
AcDbLine
 10
43.37579
 20
79.138731
 30
0.0
 11
43.360137
 21
78.852714
 31
0.0
  0
POLYLINE
  5
1CF
330
1F
100
AcDbEntity
  8
001
 62
   140
370
    50
100
AcDb2dPolyline
 66
     1
 10
0.0
 20
0.0
 30
0.0
  0
VERTEX
  5
1D1
330
1CF
100
AcDbEntity
  8
001
 62
   140
370
    50
100
AcDbVertex
100
AcDb2dVertex
 10
43.351747
 20
79.210481
 30
0.0
  0
VERTEX
  5
1D2
330
1CF
100
AcDbEntity
  8
001
 62
   140
370
    50
100
AcDbVertex
100
AcDb2dVertex
 10
43.344066
 20
79.214291
 30
0.0
  0
VERTEX
  5
1D3
330
1CF
100
AcDbEntity
  8
001
 62
   140
370
    50
100
AcDbVertex
100
AcDb2dVertex
 10
43.332826
 20
79.217957
 30
0.0
  0
VERTEX
  5
1D4
330
1CF
100
AcDbEntity
  8
001
 62
   140
370
    50
100
AcDbVertex
100
AcDb2dVertex
 10
43.320606
 20
79.219123
 30
0.0
  0
VERTEX
  5
1D5
330
1CF
100
AcDbEntity
  8
001
 62
   140
370
    50
100
AcDbVertex
100
AcDb2dVertex
 10
43.309316
 20
79.217694
 30
0.0
  0
VERTEX
  5
1D6
330
1CF
100
AcDbEntity
  8
001
 62
   140
370
    50
100
AcDbVertex
100
AcDb2dVertex
 10
43.295601
 20
79.214338
 30
0.0
  0
VERTEX
  5
1D7
330
1CF
100
AcDbEntity
  8
001
 62
   140
370
    50
100
AcDbVertex
100
AcDb2dVertex
 10
43.281932
 20
79.2097
 30
0.0
  0
VERTEX
  5
1D8
330
1CF
100
AcDbEntity
  8
001
 62
   140
370
    50
100
AcDbVertex
100
AcDb2dVertex
 10
43.229962
 20
79.180531
 30
0.0
  0
VERTEX
  5
1D9
330
1CF
100
AcDbEntity
  8
001
 62
   140
370
    50
100
AcDbVertex
100
AcDb2dVertex
 10
43.185287
 20
79.142886
 30
0.0
  0
VERTEX
  5
1DA
330
1CF
100
AcDbEntity
  8
001
 62
   140
370
    50
100
AcDbVertex
100
AcDb2dVertex
 10
43.152306
 20
79.109824
 30
0.0
  0
VERTEX
  5
1DB
330
1CF
100
AcDbEntity
  8
001
 62
   140
370
    50
100
AcDbVertex
100
AcDb2dVertex
 10
43.118649
 20
79.069888
 30
0.0
  0
VERTEX
  5
1DC
330
1CF
100
AcDbEntity
  8
001
 62
   140
370
    50
100
AcDbVertex
100
AcDb2dVertex
 10
43.103842
 20
79.050407
 30
0.0
  0
VERTEX
  5
1DD
330
1CF
100
AcDbEntity
  8
001
 62
   140
370
    50
100
AcDbVertex
100
AcDb2dVertex
 10
43.093612
 20
79.036408
 30
0.0
  0
SEQEND
  5
1D0
330
1CF
100
AcDbEntity
  8
001
370
    50
  0
LINE
  5
1DE
330
1F
100
AcDbEntity
  8
001
 62
   140
370
    50
100
AcDbLine
 10
42.827134
 20
78.659437
 30
0.0
 11
43.093612
 21
79.036408
 31
0.0
  0
POLYLINE
  5
1DF
330
1F
100
AcDbEntity
  8
001
 62
   140
370
    50
100
AcDb2dPolyline
 66
     1
 10
0.0
 20
0.0
 30
0.0
  0
VERTEX
  5
1E1
330
1DF
100
AcDbEntity
  8
001
 62
   140
370
    50
100
AcDbVertex
100
AcDb2dVertex
 10
42.633146
 20
78.483965
 30
0.0
  0
VERTEX
  5
1E2
330
1DF
100
AcDbEntity
  8
001
 62
   140
370
    50
100
AcDbVertex
100
AcDb2dVertex
 10
42.635462
 20
78.484837
 30
0.0
  0
VERTEX
  5
1E3
330
1DF
100
AcDbEntity
  8
001
 62
   140
370
    50
100
AcDbVertex
100
AcDb2dVertex
 10
42.638814
 20
78.486145
 30
0.0
  0
VERTEX
  5
1E4
330
1DF
100
AcDbEntity
  8
001
 62
   140
370
    50
100
AcDbVertex
100
AcDb2dVertex
 10
42.694509
 20
78.516975
 30
0.0
  0
VERTEX
  5
1E5
330
1DF
100
AcDbEntity
  8
001
 62
   140
370
    50
100
AcDbVertex
100
AcDb2dVertex
 10
42.735459
 20
78.552959
 30
0.0
  0
VERTEX
  5
1E6
330
1DF
100
AcDbEntity
  8
001
 62
   140
370
    50
100
AcDbVertex
100
AcDb2dVertex
 10
42.767748
 20
78.585712
 30
0.0
  0
VERTEX
  5
1E7
330
1DF
100
AcDbEntity
  8
001
 62
   140
370
    50
100
AcDbVertex
100
AcDb2dVertex
 10
42.802097
 20
78.625958
 30
0.0
  0
VERTEX
  5
1E8
330
1DF
100
AcDbEntity
  8
001
 62
   140
370
    50
100
AcDbVertex
100
AcDb2dVertex
 10
42.816942
 20
78.645455
 30
0.0
  0
VERTEX
  5
1E9
330
1DF
100
AcDbEntity
  8
001
 62
   140
370
    50
100
AcDbVertex
100
AcDb2dVertex
 10
42.827134
 20
78.659437
 30
0.0
  0
SEQEND
  5
1E0
330
1DF
100
AcDbEntity
  8
001
370
    50
  0
LINE
  5
1EA
330
1F
100
AcDbEntity
  8
001
 62
   140
370
    50
100
AcDbLine
 10
42.382321
 20
78.393011
 30
0.0
 11
42.633146
 21
78.483965
 31
0.0
  0
POLYLINE
  5
1EB
330
1F
100
AcDbEntity
  8
001
 62
   140
370
    50
100
AcDb2dPolyline
 66
     1
 10
0.0
 20
0.0
 30
0.0
  0
VERTEX
  5
1ED
330
1EB
100
AcDbEntity
  8
001
 62
   140
370
    50
100
AcDbVertex
100
AcDb2dVertex
 10
42.382321
 20
78.393011
 30
0.0
  0
VERTEX
  5
1EE
330
1EB
100
AcDbEntity
  8
001
 62
   140
370
    50
100
AcDbVertex
100
AcDb2dVertex
 10
42.380005
 20
78.392138
 30
0.0
  0
VERTEX
  5
1EF
330
1EB
100
AcDbEntity
  8
001
 62
   140
370
    50
100
AcDbVertex
100
AcDb2dVertex
 10
42.376654
 20
78.390831
 30
0.0
  0
VERTEX
  5
1F0
330
1EB
100
AcDbEntity
  8
001
 62
   140
370
    50
100
AcDbVertex
100
AcDb2dVertex
 10
42.321385
 20
78.360622
 30
0.0
  0
VERTEX
  5
1F1
330
1EB
100
AcDbEntity
  8
001
 62
   140
370
    50
100
AcDbVertex
100
AcDb2dVertex
 10
42.280009
 20
78.324017
 30
0.0
  0
VERTEX
  5
1F2
330
1EB
100
AcDbEntity
  8
001
 62
   140
370
    50
100
AcDbVertex
100
AcDb2dVertex
 10
42.24609
 20
78.288885
 30
0.0
  0
VERTEX
  5
1F3
330
1EB
100
AcDbEntity
  8
001
 62
   140
370
    50
100
AcDbVertex
100
AcDb2dVertex
 10
42.213371
 20
78.251018
 30
0.0
  0
VERTEX
  5
1F4
330
1EB
100
AcDbEntity
  8
001
 62
   140
370
    50
100
AcDbVertex
100
AcDb2dVertex
 10
42.197472
 20
78.230341
 30
0.0
  0
VERTEX
  5
1F5
330
1EB
100
AcDbEntity
  8
001
 62
   140
370
    50
100
AcDbVertex
100
AcDb2dVertex
 10
42.18243
 20
78.209071
 30
0.0
  0
VERTEX
  5
1F6
330
1EB
100
AcDbEntity
  8
001
 62
   140
370
    50
100
AcDbVertex
100
AcDb2dVertex
 10
42.16803
 20
78.187157
 30
0.0
  0
VERTEX
  5
1F7
330
1EB
100
AcDbEntity
  8
001
 62
   140
370
    50
100
AcDbVertex
100
AcDb2dVertex
 10
42.154349
 20
78.165159
 30
0.0
  0
VERTEX
  5
1F8
330
1EB
100
AcDbEntity
  8
001
 62
   140
370
    50
100
AcDbVertex
100
AcDb2dVertex
 10
42.130723
 20
78.123675
 30
0.0
  0
VERTEX
  5
1F9
330
1EB
100
AcDbEntity
  8
001
 62
   140
370
    50
100
AcDbVertex
100
AcDb2dVertex
 10
42.110064
 20
78.076795
 30
0.0
  0
VERTEX
  5
1FA
330
1EB
100
AcDbEntity
  8
001
 62
   140
370
    50
100
AcDbVertex
100
AcDb2dVertex
 10
42.091264
 20
78.015124
 30
0.0
  0
VERTEX
  5
1FB
330
1EB
100
AcDbEntity
  8
001
 62
   140
370
    50
100
AcDbVertex
100
AcDb2dVertex
 10
42.082535
 20
77.968918
 30
0.0
  0
SEQEND
  5
1EC
330
1EB
100
AcDbEntity
  8
001
370
    50
  0
LINE
  5
1FC
330
1F
100
AcDbEntity
  8
001
 62
   140
370
    50
100
AcDbLine
 10
42.066882
 20
77.682901
 30
0.0
 11
42.082535
 21
77.968918
 31
0.0
  0
POLYLINE
  5
1FD
330
1F
100
AcDbEntity
  8
001
 62
   140
370
    50
100
AcDb2dPolyline
 66
     1
 10
0.0
 20
0.0
 30
0.0
  0
VERTEX
  5
1FF
330
1FD
100
AcDbEntity
  8
001
 62
   140
370
    50
100
AcDbVertex
100
AcDb2dVertex
 10
41.961084
 20
77.43428
 30
0.0
  0
VERTEX
  5
200
330
1FD
100
AcDbEntity
  8
001
 62
   140
370
    50
100
AcDbVertex
100
AcDb2dVertex
 10
41.963517
 20
77.437749
 30
0.0
  0
VERTEX
  5
201
330
1FD
100
AcDbEntity
  8
001
 62
   140
370
    50
100
AcDbVertex
100
AcDb2dVertex
 10
41.966987
 20
77.442748
 30
0.0
  0
VERTEX
  5
202
330
1FD
100
AcDbEntity
  8
001
 62
   140
370
    50
100
AcDbVertex
100
AcDb2dVertex
 10
41.982491
 20
77.466161
 30
0.0
  0
VERTEX
  5
203
330
1FD
100
AcDbEntity
  8
001
 62
   140
370
    50
100
AcDbVertex
100
AcDb2dVertex
 10
41.995068
 20
77.48666
 30
0.0
  0
VERTEX
  5
204
330
1FD
100
AcDbEntity
  8
001
 62
   140
370
    50
100
AcDbVertex
100
AcDb2dVertex
 10
42.018017
 20
77.527226
 30
0.0
  0
VERTEX
  5
205
330
1FD
100
AcDbEntity
  8
001
 62
   140
370
    50
100
AcDbVertex
100
AcDb2dVertex
 10
42.039353
 20
77.575025
 30
0.0
  0
VERTEX
  5
206
330
1FD
100
AcDbEntity
  8
001
 62
   140
370
    50
100
AcDbVertex
100
AcDb2dVertex
 10
42.058313
 20
77.636912
 30
0.0
  0
VERTEX
  5
207
330
1FD
100
AcDbEntity
  8
001
 62
   140
370
    50
100
AcDbVertex
100
AcDb2dVertex
 10
42.066882
 20
77.682901
 30
0.0
  0
SEQEND
  5
1FE
330
1FD
100
AcDbEntity
  8
001
370
    50
  0
LINE
  5
208
330
1F
100
AcDbEntity
  8
001
 62
   140
370
    50
100
AcDbLine
 10
41.694607
 20
77.057309
 30
0.0
 11
41.961084
 21
77.43428
 31
0.0
  0
POLYLINE
  5
209
330
1F
100
AcDbEntity
  8
001
 62
   140
370
    50
100
AcDb2dPolyline
 66
     1
 10
0.0
 20
0.0
 30
0.0
  0
VERTEX
  5
20B
330
209
100
AcDbEntity
  8
001
 62
   140
370
    50
100
AcDbVertex
100
AcDb2dVertex
 10
41.612851
 20
76.736939
 30
0.0
  0
VERTEX
  5
20C
330
209
100
AcDbEntity
  8
001
 62
   140
370
    50
100
AcDbVertex
100
AcDb2dVertex
 10
41.620612
 20
76.733153
 30
0.0
  0
VERTEX
  5
20D
330
209
100
AcDbEntity
  8
001
 62
   140
370
    50
100
AcDbVertex
100
AcDb2dVertex
 10
41.631772
 20
76.729463
 30
0.0
  0
VERTEX
  5
20E
330
209
100
AcDbEntity
  8
001
 62
   140
370
    50
100
AcDbVertex
100
AcDb2dVertex
 10
41.6435
 20
76.728148
 30
0.0
  0
VERTEX
  5
20F
330
209
100
AcDbEntity
  8
001
 62
   140
370
    50
100
AcDbVertex
100
AcDb2dVertex
 10
41.655282
 20
76.729726
 30
0.0
  0
VERTEX
  5
210
330
209
100
AcDbEntity
  8
001
 62
   140
370
    50
100
AcDbVertex
100
AcDb2dVertex
 10
41.667881
 20
76.732793
 30
0.0
  0
VERTEX
  5
211
330
209
100
AcDbEntity
  8
001
 62
   140
370
    50
100
AcDbVertex
100
AcDb2dVertex
 10
41.676998
 20
76.73554
 30
0.0
  0
SEQEND
  5
20A
330
209
100
AcDbEntity
  8
001
370
    50
  0
LINE
  5
212
330
1F
100
AcDbEntity
  8
001
 62
   140
370
    50
100
AcDbLine
 10
41.927823
 20
76.826494
 30
0.0
 11
41.676998
 21
76.73554
 31
0.0
  0
POLYLINE
  5
213
330
1F
100
AcDbEntity
  8
001
 62
   140
370
    50
100
AcDb2dPolyline
 66
     1
 10
0.0
 20
0.0
 30
0.0
  0
VERTEX
  5
215
330
213
100
AcDbEntity
  8
001
 62
   140
370
    50
100
AcDbVertex
100
AcDb2dVertex
 10
42.016012
 20
76.753345
 30
0.0
  0
VERTEX
  5
216
330
213
100
AcDbEntity
  8
001
 62
   140
370
    50
100
AcDbVertex
100
AcDb2dVertex
 10
42.016129
 20
76.755929
 30
0.0
  0
VERTEX
  5
217
330
213
100
AcDbEntity
  8
001
 62
   140
370
    50
100
AcDbVertex
100
AcDb2dVertex
 10
42.016247
 20
76.759633
 30
0.0
  0
VERTEX
  5
218
330
213
100
AcDbEntity
  8
001
 62
   140
370
    50
100
AcDbVertex
100
AcDb2dVertex
 10
42.015795
 20
76.774922
 30
0.0
  0
VERTEX
  5
219
330
213
100
AcDbEntity
  8
001
 62
   140
370
    50
100
AcDbVertex
100
AcDb2dVertex
 10
42.013902
 20
76.788063
 30
0.0
  0
VERTEX
  5
21A
330
213
100
AcDbEntity
  8
001
 62
   140
370
    50
100
AcDbVertex
100
AcDb2dVertex
 10
42.011169
 20
76.798945
 30
0.0
  0
VERTEX
  5
21B
330
213
100
AcDbEntity
  8
001
 62
   140
370
    50
100
AcDbVertex
100
AcDb2dVertex
 10
42.005726
 20
76.810107
 30
0.0
  0
VERTEX
  5
21C
330
213
100
AcDbEntity
  8
001
 62
   140
370
    50
100
AcDbVertex
100
AcDb2dVertex
 10
41.998281
 20
76.819317
 30
0.0
  0
VERTEX
  5
21D
330
213
100
AcDbEntity
  8
001
 62
   140
370
    50
100
AcDbVertex
100
AcDb2dVertex
 10
41.991969
 20
76.825095
 30
0.0
  0
SEQEND
  5
214
330
213
100
AcDbEntity
  8
001
370
    50
  0
LINE
  5
21E
330
1F
100
AcDbEntity
  8
001
 62
   140
370
    50
100
AcDbLine
 10
42.00036
 20
76.467328
 30
0.0
 11
42.016012
 21
76.753345
 31
0.0
  0
POLYLINE
  5
21F
330
1F
100
AcDbEntity
  8
001
 62
   140
370
    50
100
AcDb2dPolyline
 66
     1
 10
0.0
 20
0.0
 30
0.0
  0
VERTEX
  5
221
330
21F
100
AcDbEntity
  8
001
 62
   140
370
    50
100
AcDbVertex
100
AcDb2dVertex
 10
43.681543
 20
78.54875
 30
0.0
  0
VERTEX
  5
222
330
21F
100
AcDbEntity
  8
001
 62
   140
370
    50
100
AcDbVertex
100
AcDb2dVertex
 10
43.683975
 20
78.552221
 30
0.0
  0
VERTEX
  5
223
330
21F
100
AcDbEntity
  8
001
 62
   140
370
    50
100
AcDbVertex
100
AcDb2dVertex
 10
43.687446
 20
78.557218
 30
0.0
  0
VERTEX
  5
224
330
21F
100
AcDbEntity
  8
001
 62
   140
370
    50
100
AcDbVertex
100
AcDb2dVertex
 10
43.702951
 20
78.580475
 30
0.0
  0
VERTEX
  5
225
330
21F
100
AcDbEntity
  8
001
 62
   140
370
    50
100
AcDbVertex
100
AcDb2dVertex
 10
43.715527
 20
78.60113
 30
0.0
  0
VERTEX
  5
226
330
21F
100
AcDbEntity
  8
001
 62
   140
370
    50
100
AcDbVertex
100
AcDb2dVertex
 10
43.738471
 20
78.6435
 30
0.0
  0
VERTEX
  5
227
330
21F
100
AcDbEntity
  8
001
 62
   140
370
    50
100
AcDbVertex
100
AcDb2dVertex
 10
43.759812
 20
78.689494
 30
0.0
  0
VERTEX
  5
228
330
21F
100
AcDbEntity
  8
001
 62
   140
370
    50
100
AcDbVertex
100
AcDb2dVertex
 10
43.779613
 20
78.745653
 30
0.0
  0
VERTEX
  5
229
330
21F
100
AcDbEntity
  8
001
 62
   140
370
    50
100
AcDbVertex
100
AcDb2dVertex
 10
43.787576
 20
78.803659
 30
0.0
  0
VERTEX
  5
22A
330
21F
100
AcDbEntity
  8
001
 62
   140
370
    50
100
AcDbVertex
100
AcDb2dVertex
 10
43.78699
 20
78.818054
 30
0.0
  0
VERTEX
  5
22B
330
21F
100
AcDbEntity
  8
001
 62
   140
370
    50
100
AcDbVertex
100
AcDb2dVertex
 10
43.785231
 20
78.832089
 30
0.0
  0
VERTEX
  5
22C
330
21F
100
AcDbEntity
  8
001
 62
   140
370
    50
100
AcDbVertex
100
AcDb2dVertex
 10
43.782524
 20
78.843148
 30
0.0
  0
VERTEX
  5
22D
330
21F
100
AcDbEntity
  8
001
 62
   140
370
    50
100
AcDbVertex
100
AcDb2dVertex
 10
43.777055
 20
78.854133
 30
0.0
  0
VERTEX
  5
22E
330
21F
100
AcDbEntity
  8
001
 62
   140
370
    50
100
AcDbVertex
100
AcDb2dVertex
 10
43.769606
 20
78.863313
 30
0.0
  0
VERTEX
  5
22F
330
21F
100
AcDbEntity
  8
001
 62
   140
370
    50
100
AcDbVertex
100
AcDb2dVertex
 10
43.763298
 20
78.869121
 30
0.0
  0
SEQEND
  5
220
330
21F
100
AcDbEntity
  8
001
370
    50
  0
POLYLINE
  5
230
330
1F
100
AcDbEntity
  8
001
 62
   140
370
    50
100
AcDb2dPolyline
 66
     1
 10
0.0
 20
0.0
 30
0.0
  0
VERTEX
  5
232
330
230
100
AcDbEntity
  8
001
 62
   140
370
    50
100
AcDbVertex
100
AcDb2dVertex
 10
42.00036
 20
76.467328
 30
0.0
  0
VERTEX
  5
233
330
230
100
AcDbEntity
  8
001
 62
   140
370
    50
100
AcDbVertex
100
AcDb2dVertex
 10
42.000243
 20
76.464744
 30
0.0
  0
VERTEX
  5
234
330
230
100
AcDbEntity
  8
001
 62
   140
370
    50
100
AcDbVertex
100
AcDb2dVertex
 10
42.000125
 20
76.46104
 30
0.0
  0
VERTEX
  5
235
330
230
100
AcDbEntity
  8
001
 62
   140
370
    50
100
AcDbVertex
100
AcDb2dVertex
 10
42.000577
 20
76.44575
 30
0.0
  0
VERTEX
  5
236
330
230
100
AcDbEntity
  8
001
 62
   140
370
    50
100
AcDbVertex
100
AcDb2dVertex
 10
42.00247
 20
76.432609
 30
0.0
  0
VERTEX
  5
237
330
230
100
AcDbEntity
  8
001
 62
   140
370
    50
100
AcDbVertex
100
AcDb2dVertex
 10
42.005203
 20
76.421727
 30
0.0
  0
VERTEX
  5
238
330
230
100
AcDbEntity
  8
001
 62
   140
370
    50
100
AcDbVertex
100
AcDb2dVertex
 10
42.010646
 20
76.410566
 30
0.0
  0
VERTEX
  5
239
330
230
100
AcDbEntity
  8
001
 62
   140
370
    50
100
AcDbVertex
100
AcDb2dVertex
 10
42.018091
 20
76.401356
 30
0.0
  0
VERTEX
  5
23A
330
230
100
AcDbEntity
  8
001
 62
   140
370
    50
100
AcDbVertex
100
AcDb2dVertex
 10
42.024403
 20
76.395578
 30
0.0
  0
SEQEND
  5
231
330
230
100
AcDbEntity
  8
001
370
    50
  0
POLYLINE
  5
23B
330
1F
100
AcDbEntity
  8
001
 62
   140
370
    50
100
AcDb2dPolyline
 66
     1
 10
0.0
 20
0.0
 30
0.0
  0
VERTEX
  5
23D
330
23B
100
AcDbEntity
  8
001
 62
   140
370
    50
100
AcDbVertex
100
AcDb2dVertex
 10
43.38418
 20
78.780964
 30
0.0
  0
VERTEX
  5
23E
330
23B
100
AcDbEntity
  8
001
 62
   140
370
    50
100
AcDbVertex
100
AcDb2dVertex
 10
43.391941
 20
78.777179
 30
0.0
  0
VERTEX
  5
23F
330
23B
100
AcDbEntity
  8
001
 62
   140
370
    50
100
AcDbVertex
100
AcDb2dVertex
 10
43.403101
 20
78.773488
 30
0.0
  0
VERTEX
  5
240
330
23B
100
AcDbEntity
  8
001
 62
   140
370
    50
100
AcDbVertex
100
AcDb2dVertex
 10
43.414829
 20
78.772173
 30
0.0
  0
VERTEX
  5
241
330
23B
100
AcDbEntity
  8
001
 62
   140
370
    50
100
AcDbVertex
100
AcDb2dVertex
 10
43.426611
 20
78.773751
 30
0.0
  0
VERTEX
  5
242
330
23B
100
AcDbEntity
  8
001
 62
   140
370
    50
100
AcDbVertex
100
AcDb2dVertex
 10
43.43921
 20
78.776819
 30
0.0
  0
VERTEX
  5
243
330
23B
100
AcDbEntity
  8
001
 62
   140
370
    50
100
AcDbVertex
100
AcDb2dVertex
 10
43.448327
 20
78.779565
 30
0.0
  0
SEQEND
  5
23C
330
23B
100
AcDbEntity
  8
001
370
    50
  0
LINE
  5
244
330
1F
100
AcDbEntity
  8
001
 62
   140
370
    50
100
AcDbLine
 10
43.38418
 20
78.780964
 30
0.0
 11
43.694494
 21
78.567648
 31
0.0
  0
POLYLINE
  5
245
330
1F
100
AcDbEntity
  8
001
 62
   140
370
    50
100
AcDb2dPolyline
 66
     1
 10
0.0
 20
0.0
 30
0.0
  0
VERTEX
  5
247
330
245
100
AcDbEntity
  8
001
 62
   140
370
    50
100
AcDbVertex
100
AcDb2dVertex
 10
41.991969
 20
76.825095
 30
0.0
  0
VERTEX
  5
248
330
245
100
AcDbEntity
  8
001
 62
   140
370
    50
100
AcDbVertex
100
AcDb2dVertex
 10
41.984209
 20
76.82888
 30
0.0
  0
VERTEX
  5
249
330
245
100
AcDbEntity
  8
001
 62
   140
370
    50
100
AcDbVertex
100
AcDb2dVertex
 10
41.973048
 20
76.832571
 30
0.0
  0
VERTEX
  5
24A
330
245
100
AcDbEntity
  8
001
 62
   140
370
    50
100
AcDbVertex
100
AcDb2dVertex
 10
41.96132
 20
76.833886
 30
0.0
  0
VERTEX
  5
24B
330
245
100
AcDbEntity
  8
001
 62
   140
370
    50
100
AcDbVertex
100
AcDb2dVertex
 10
41.949539
 20
76.832308
 30
0.0
  0
VERTEX
  5
24C
330
245
100
AcDbEntity
  8
001
 62
   140
370
    50
100
AcDbVertex
100
AcDb2dVertex
 10
41.93694
 20
76.82924
 30
0.0
  0
VERTEX
  5
24D
330
245
100
AcDbEntity
  8
001
 62
   140
370
    50
100
AcDbVertex
100
AcDb2dVertex
 10
41.927823
 20
76.826494
 30
0.0
  0
SEQEND
  5
246
330
245
100
AcDbEntity
  8
001
370
    50
  0
LINE
  5
24E
330
1F
100
AcDbEntity
  8
001
 62
   140
370
    50
100
AcDbLine
 10
42.309036
 20
76.607137
 30
0.0
 11
41.991969
 21
76.825095
 31
0.0
  0
POLYLINE
  5
24F
330
1F
100
AcDbEntity
  8
001
 62
   140
370
    50
100
AcDb2dPolyline
 66
     1
 10
0.0
 20
0.0
 30
0.0
  0
VERTEX
  5
251
330
24F
100
AcDbEntity
  8
001
 62
   140
370
    50
100
AcDbVertex
100
AcDb2dVertex
 10
43.37579
 20
79.138731
 30
0.0
  0
VERTEX
  5
252
330
24F
100
AcDbEntity
  8
001
 62
   140
370
    50
100
AcDbVertex
100
AcDb2dVertex
 10
43.375906
 20
79.141315
 30
0.0
  0
VERTEX
  5
253
330
24F
100
AcDbEntity
  8
001
 62
   140
370
    50
100
AcDbVertex
100
AcDb2dVertex
 10
43.376024
 20
79.145019
 30
0.0
  0
VERTEX
  5
254
330
24F
100
AcDbEntity
  8
001
 62
   140
370
    50
100
AcDbVertex
100
AcDb2dVertex
 10
43.375572
 20
79.160309
 30
0.0
  0
VERTEX
  5
255
330
24F
100
AcDbEntity
  8
001
 62
   140
370
    50
100
AcDbVertex
100
AcDb2dVertex
 10
43.373679
 20
79.17345
 30
0.0
  0
VERTEX
  5
256
330
24F
100
AcDbEntity
  8
001
 62
   140
370
    50
100
AcDbVertex
100
AcDb2dVertex
 10
43.370946
 20
79.184332
 30
0.0
  0
VERTEX
  5
257
330
24F
100
AcDbEntity
  8
001
 62
   140
370
    50
100
AcDbVertex
100
AcDb2dVertex
 10
43.365504
 20
79.195494
 30
0.0
  0
VERTEX
  5
258
330
24F
100
AcDbEntity
  8
001
 62
   140
370
    50
100
AcDbVertex
100
AcDb2dVertex
 10
43.358058
 20
79.204703
 30
0.0
  0
VERTEX
  5
259
330
24F
100
AcDbEntity
  8
001
 62
   140
370
    50
100
AcDbVertex
100
AcDb2dVertex
 10
43.351747
 20
79.210481
 30
0.0
  0
SEQEND
  5
250
330
24F
100
AcDbEntity
  8
001
370
    50
  0
POLYLINE
  5
25A
330
1F
100
AcDbEntity
  8
001
 62
   140
370
    50
100
AcDb2dPolyline
 66
     1
 10
0.0
 20
0.0
 30
0.0
  0
VERTEX
  5
25C
330
25A
100
AcDbEntity
  8
001
 62
   140
370
    50
100
AcDbVertex
100
AcDb2dVertex
 10
41.694607
 20
77.057309
 30
0.0
  0
VERTEX
  5
25D
330
25A
100
AcDbEntity
  8
001
 62
   140
370
    50
100
AcDbVertex
100
AcDb2dVertex
 10
41.692174
 20
77.053838
 30
0.0
  0
VERTEX
  5
25E
330
25A
100
AcDbEntity
  8
001
 62
   140
370
    50
100
AcDbVertex
100
AcDb2dVertex
 10
41.688704
 20
77.048842
 30
0.0
  0
VERTEX
  5
25F
330
25A
100
AcDbEntity
  8
001
 62
   140
370
    50
100
AcDbVertex
100
AcDb2dVertex
 10
41.673199
 20
77.025584
 30
0.0
  0
VERTEX
  5
260
330
25A
100
AcDbEntity
  8
001
 62
   140
370
    50
100
AcDbVertex
100
AcDb2dVertex
 10
41.660623
 20
77.004929
 30
0.0
  0
VERTEX
  5
261
330
25A
100
AcDbEntity
  8
001
 62
   140
370
    50
100
AcDbVertex
100
AcDb2dVertex
 10
41.637678
 20
76.962559
 30
0.0
  0
VERTEX
  5
262
330
25A
100
AcDbEntity
  8
001
 62
   140
370
    50
100
AcDbVertex
100
AcDb2dVertex
 10
41.616337
 20
76.916565
 30
0.0
  0
VERTEX
  5
263
330
25A
100
AcDbEntity
  8
001
 62
   140
370
    50
100
AcDbVertex
100
AcDb2dVertex
 10
41.596536
 20
76.860407
 30
0.0
  0
VERTEX
  5
264
330
25A
100
AcDbEntity
  8
001
 62
   140
370
    50
100
AcDbVertex
100
AcDb2dVertex
 10
41.588573
 20
76.802401
 30
0.0
  0
VERTEX
  5
265
330
25A
100
AcDbEntity
  8
001
 62
   140
370
    50
100
AcDbVertex
100
AcDb2dVertex
 10
41.589159
 20
76.788006
 30
0.0
  0
VERTEX
  5
266
330
25A
100
AcDbEntity
  8
001
 62
   140
370
    50
100
AcDbVertex
100
AcDb2dVertex
 10
41.590919
 20
76.77397
 30
0.0
  0
VERTEX
  5
267
330
25A
100
AcDbEntity
  8
001
 62
   140
370
    50
100
AcDbVertex
100
AcDb2dVertex
 10
41.593625
 20
76.762912
 30
0.0
  0
VERTEX
  5
268
330
25A
100
AcDbEntity
  8
001
 62
   140
370
    50
100
AcDbVertex
100
AcDb2dVertex
 10
41.599094
 20
76.751926
 30
0.0
  0
VERTEX
  5
269
330
25A
100
AcDbEntity
  8
001
 62
   140
370
    50
100
AcDbVertex
100
AcDb2dVertex
 10
41.606544
 20
76.742746
 30
0.0
  0
VERTEX
  5
26A
330
25A
100
AcDbEntity
  8
001
 62
   140
370
    50
100
AcDbVertex
100
AcDb2dVertex
 10
41.612851
 20
76.736939
 30
0.0
  0
SEQEND
  5
25B
330
25A
100
AcDbEntity
  8
001
370
    50
  0
POLYLINE
  5
26B
330
1F
100
AcDbEntity
  8
001
 62
   200
370
    50
100
AcDb2dPolyline
 66
     1
 10
0.0
 20
0.0
 30
0.0
  0
VERTEX
  5
26D
330
26B
100
AcDbEntity
  8
001
 62
   200
370
    50
100
AcDbVertex
100
AcDb2dVertex
 10
46.513892
 20
84.059314
 30
0.0
  0
VERTEX
  5
26E
330
26B
100
AcDbEntity
  8
001
 62
   200
370
    50
100
AcDbVertex
100
AcDb2dVertex
 10
46.511362
 20
84.064111
 30
0.0
  0
VERTEX
  5
26F
330
26B
100
AcDbEntity
  8
001
 62
   200
370
    50
100
AcDbVertex
100
AcDb2dVertex
 10
46.507557
 20
84.07091
 30
0.0
  0
VERTEX
  5
270
330
26B
100
AcDbEntity
  8
001
 62
   200
370
    50
100
AcDbVertex
100
AcDb2dVertex
 10
46.485922
 20
84.10039
 30
0.0
  0
VERTEX
  5
271
330
26B
100
AcDbEntity
  8
001
 62
   200
370
    50
100
AcDbVertex
100
AcDb2dVertex
 10
46.4617
 20
84.120869
 30
0.0
  0
VERTEX
  5
272
330
26B
100
AcDbEntity
  8
001
 62
   200
370
    50
100
AcDbVertex
100
AcDb2dVertex
 10
46.43347
 20
84.136274
 30
0.0
  0
VERTEX
  5
273
330
26B
100
AcDbEntity
  8
001
 62
   200
370
    50
100
AcDbVertex
100
AcDb2dVertex
 10
46.39863
 20
84.145788
 30
0.0
  0
VERTEX
  5
274
330
26B
100
AcDbEntity
  8
001
 62
   200
370
    50
100
AcDbVertex
100
AcDb2dVertex
 10
46.372124
 20
84.148195
 30
0.0
  0
VERTEX
  5
275
330
26B
100
AcDbEntity
  8
001
 62
   200
370
    50
100
AcDbVertex
100
AcDb2dVertex
 10
46.353078
 20
84.148364
 30
0.0
  0
SEQEND
  5
26C
330
26B
100
AcDbEntity
  8
001
370
    50
  0
LINE
  5
276
330
1F
100
AcDbEntity
  8
001
 62
   200
370
    50
100
AcDbLine
 10
43.167355
 20
70.948639
 30
0.0
 11
43.235238
 21
70.951651
 31
0.0
  0
POLYLINE
  5
277
330
1F
100
AcDbEntity
  8
001
 62
   200
370
    50
100
AcDb2dPolyline
 66
     1
 10
0.0
 20
0.0
 30
0.0
  0
VERTEX
  5
279
330
277
100
AcDbEntity
  8
001
 62
   200
370
    50
100
AcDbVertex
100
AcDb2dVertex
 10
39.037158
 20
71.513572
 30
0.0
  0
VERTEX
  5
27A
330
277
100
AcDbEntity
  8
001
 62
   200
370
    50
100
AcDbVertex
100
AcDb2dVertex
 10
40.069409
 20
71.372306
 30
0.0
  0
VERTEX
  5
27B
330
277
100
AcDbEntity
  8
001
 62
   200
370
    50
100
AcDbVertex
100
AcDb2dVertex
 10
41.101664
 20
71.231079
 30
0.0
  0
VERTEX
  5
27C
330
277
100
AcDbEntity
  8
001
 62
   200
370
    50
100
AcDbVertex
100
AcDb2dVertex
 10
42.134507
 20
71.089839
 30
0.0
  0
VERTEX
  5
27D
330
277
100
AcDbEntity
  8
001
 62
   200
370
    50
100
AcDbVertex
100
AcDb2dVertex
 10
43.167355
 20
70.948639
 30
0.0
  0
SEQEND
  5
278
330
277
100
AcDbEntity
  8
001
370
    50
  0
LINE
  5
27E
330
1F
100
AcDbEntity
  8
001
 62
   200
370
    50
100
AcDbLine
 10
46.674505
 20
83.808465
 30
0.0
 11
46.513825
 21
84.059443
 31
0.0
  0
POLYLINE
  5
27F
330
1F
100
AcDbEntity
  8
001
 62
   200
370
    50
100
AcDb2dPolyline
 66
     1
 10
0.0
 20
0.0
 30
0.0
  0
VERTEX
  5
281
330
27F
100
AcDbEntity
  8
001
 62
   200
370
    50
100
AcDbVertex
100
AcDb2dVertex
 10
38.833419
 20
71.748001
 30
0.0
  0
VERTEX
  5
282
330
27F
100
AcDbEntity
  8
001
 62
   200
370
    50
100
AcDbVertex
100
AcDb2dVertex
 10
38.835256
 20
71.712408
 30
0.0
  0
VERTEX
  5
283
330
27F
100
AcDbEntity
  8
001
 62
   200
370
    50
100
AcDbVertex
100
AcDb2dVertex
 10
38.841341
 20
71.663881
 30
0.0
  0
VERTEX
  5
284
330
27F
100
AcDbEntity
  8
001
 62
   200
370
    50
100
AcDbVertex
100
AcDb2dVertex
 10
38.851759
 20
71.62439
 30
0.0
  0
VERTEX
  5
285
330
27F
100
AcDbEntity
  8
001
 62
   200
370
    50
100
AcDbVertex
100
AcDb2dVertex
 10
38.868593
 20
71.590401
 30
0.0
  0
VERTEX
  5
286
330
27F
100
AcDbEntity
  8
001
 62
   200
370
    50
100
AcDbVertex
100
AcDb2dVertex
 10
38.889346
 20
71.563287
 30
0.0
  0
VERTEX
  5
287
330
27F
100
AcDbEntity
  8
001
 62
   200
370
    50
100
AcDbVertex
100
AcDb2dVertex
 10
38.91445
 20
71.540442
 30
0.0
  0
VERTEX
  5
288
330
27F
100
AcDbEntity
  8
001
 62
   200
370
    50
100
AcDbVertex
100
AcDb2dVertex
 10
38.9429
 20
71.524445
 30
0.0
  0
VERTEX
  5
289
330
27F
100
AcDbEntity
  8
001
 62
   200
370
    50
100
AcDbVertex
100
AcDb2dVertex
 10
38.977519
 20
71.515523
 30
0.0
  0
VERTEX
  5
28A
330
27F
100
AcDbEntity
  8
001
 62
   200
370
    50
100
AcDbVertex
100
AcDb2dVertex
 10
39.004
 20
71.513182
 30
0.0
  0
VERTEX
  5
28B
330
27F
100
AcDbEntity
  8
001
 62
   200
370
    50
100
AcDbVertex
100
AcDb2dVertex
 10
39.023072
 20
71.512947
 30
0.0
  0
SEQEND
  5
280
330
27F
100
AcDbEntity
  8
001
370
    50
  0
LINE
  5
28C
330
1F
100
AcDbEntity
  8
001
 62
   200
370
    50
100
AcDbLine
 10
39.023072
 20
71.512947
 30
0.0
 11
39.572506
 21
71.537324
 31
0.0
  0
POLYLINE
  5
28D
330
1F
100
AcDbEntity
  8
001
 62
   200
370
    50
100
AcDb2dPolyline
 66
     1
 10
0.0
 20
0.0
 30
0.0
  0
VERTEX
  5
28F
330
28D
100
AcDbEntity
  8
001
 62
   200
370
    50
100
AcDbVertex
100
AcDb2dVertex
 10
39.572506
 20
71.537324
 30
0.0
  0
VERTEX
  5
290
330
28D
100
AcDbEntity
  8
001
 62
   200
370
    50
100
AcDbVertex
100
AcDb2dVertex
 10
39.586083
 20
71.538436
 30
0.0
  0
VERTEX
  5
291
330
28D
100
AcDbEntity
  8
001
 62
   200
370
    50
100
AcDbVertex
100
AcDb2dVertex
 10
39.605319
 20
71.540776
 30
0.0
  0
VERTEX
  5
292
330
28D
100
AcDbEntity
  8
001
 62
   200
370
    50
100
AcDbVertex
100
AcDb2dVertex
 10
39.655136
 20
71.551937
 30
0.0
  0
VERTEX
  5
293
330
28D
100
AcDbEntity
  8
001
 62
   200
370
    50
100
AcDbVertex
100
AcDb2dVertex
 10
39.6966
 20
71.567422
 30
0.0
  0
VERTEX
  5
294
330
28D
100
AcDbEntity
  8
001
 62
   200
370
    50
100
AcDbVertex
100
AcDb2dVertex
 10
39.854154
 20
71.654439
 30
0.0
  0
VERTEX
  5
295
330
28D
100
AcDbEntity
  8
001
 62
   200
370
    50
100
AcDbVertex
100
AcDb2dVertex
 10
40.018748
 20
71.790137
 30
0.0
  0
VERTEX
  5
296
330
28D
100
AcDbEntity
  8
001
 62
   200
370
    50
100
AcDbVertex
100
AcDb2dVertex
 10
40.025645
 20
71.796632
 30
0.0
  0
VERTEX
  5
297
330
28D
100
AcDbEntity
  8
001
 62
   200
370
    50
100
AcDbVertex
100
AcDb2dVertex
 10
40.030368
 20
71.801107
 30
0.0
  0
SEQEND
  5
28E
330
28D
100
AcDbEntity
  8
001
370
    50
  0
LINE
  5
298
330
1F
100
AcDbEntity
  8
001
 62
   200
370
    50
100
AcDbLine
 10
40.030368
 20
71.801107
 30
0.0
 11
45.345781
 21
76.862033
 31
0.0
  0
POLYLINE
  5
299
330
1F
100
AcDbEntity
  8
001
 62
   200
370
    50
100
AcDb2dPolyline
 66
     1
 10
0.0
 20
0.0
 30
0.0
  0
VERTEX
  5
29B
330
299
100
AcDbEntity
  8
001
 62
   200
370
    50
100
AcDbVertex
100
AcDb2dVertex
 10
45.345781
 20
76.862033
 30
0.0
  0
VERTEX
  5
29C
330
299
100
AcDbEntity
  8
001
 62
   200
370
    50
100
AcDbVertex
100
AcDb2dVertex
 10
45.437872
 20
76.957828
 30
0.0
  0
VERTEX
  5
29D
330
299
100
AcDbEntity
  8
001
 62
   200
370
    50
100
AcDbVertex
100
AcDb2dVertex
 10
45.556289
 20
77.094392
 30
0.0
  0
VERTEX
  5
29E
330
299
100
AcDbEntity
  8
001
 62
   200
370
    50
100
AcDbVertex
100
AcDb2dVertex
 10
45.611573
 20
77.166432
 30
0.0
  0
VERTEX
  5
29F
330
299
100
AcDbEntity
  8
001
 62
   200
370
    50
100
AcDbVertex
100
AcDb2dVertex
 10
45.659423
 20
77.234215
 30
0.0
  0
VERTEX
  5
2A0
330
299
100
AcDbEntity
  8
001
 62
   200
370
    50
100
AcDbVertex
100
AcDb2dVertex
 10
45.704812
 20
77.302138
 30
0.0
  0
VERTEX
  5
2A1
330
299
100
AcDbEntity
  8
001
 62
   200
370
    50
100
AcDbVertex
100
AcDb2dVertex
 10
45.753027
 20
77.380589
 30
0.0
  0
VERTEX
  5
2A2
330
299
100
AcDbEntity
  8
001
 62
   200
370
    50
100
AcDbVertex
100
AcDb2dVertex
 10
45.7829
 20
77.432675
 30
0.0
  0
VERTEX
  5
2A3
330
299
100
AcDbEntity
  8
001
 62
   200
370
    50
100
AcDbVertex
100
AcDb2dVertex
 10
45.803643
 20
77.470132
 30
0.0
  0
SEQEND
  5
29A
330
299
100
AcDbEntity
  8
001
370
    50
  0
LINE
  5
2A4
330
1F
100
AcDbEntity
  8
001
 62
   200
370
    50
100
AcDbLine
 10
45.803643
 20
77.470132
 30
0.0
 11
46.353078
 21
78.492014
 31
0.0
  0
POLYLINE
  5
2A5
330
1F
100
AcDbEntity
  8
001
 62
   200
370
    50
100
AcDb2dPolyline
 66
     1
 10
0.0
 20
0.0
 30
0.0
  0
VERTEX
  5
2A7
330
2A5
100
AcDbEntity
  8
001
 62
   200
370
    50
100
AcDbVertex
100
AcDb2dVertex
 10
46.353078
 20
78.492014
 30
0.0
  0
VERTEX
  5
2A8
330
2A5
100
AcDbEntity
  8
001
 62
   200
370
    50
100
AcDbVertex
100
AcDb2dVertex
 10
46.395305
 20
78.577914
 30
0.0
  0
VERTEX
  5
2A9
330
2A5
100
AcDbEntity
  8
001
 62
   200
370
    50
100
AcDbVertex
100
AcDb2dVertex
 10
46.450079
 20
78.697018
 30
0.0
  0
VERTEX
  5
2AA
330
2A5
100
AcDbEntity
  8
001
 62
   200
370
    50
100
AcDbVertex
100
AcDb2dVertex
 10
46.517915
 20
78.876725
 30
0.0
  0
VERTEX
  5
2AB
330
2A5
100
AcDbEntity
  8
001
 62
   200
370
    50
100
AcDbVertex
100
AcDb2dVertex
 10
46.542626
 20
79.077566
 30
0.0
  0
VERTEX
  5
2AC
330
2A5
100
AcDbEntity
  8
001
 62
   200
370
    50
100
AcDbVertex
100
AcDb2dVertex
 10
46.542702
 20
79.083877
 30
0.0
  0
VERTEX
  5
2AD
330
2A5
100
AcDbEntity
  8
001
 62
   200
370
    50
100
AcDbVertex
100
AcDb2dVertex
 10
46.54273
 20
79.088214
 30
0.0
  0
SEQEND
  5
2A6
330
2A5
100
AcDbEntity
  8
001
370
    50
  0
LINE
  5
2AE
330
1F
100
AcDbEntity
  8
001
 62
   200
370
    50
100
AcDbLine
 10
46.54273
 20
79.088214
 30
0.0
 11
46.54273
 21
83.91331
 31
0.0
  0
POLYLINE
  5
2AF
330
1F
100
AcDbEntity
  8
001
 62
   200
370
    50
100
AcDb2dPolyline
 66
     1
 10
0.0
 20
0.0
 30
0.0
  0
VERTEX
  5
2B1
330
2AF
100
AcDbEntity
  8
001
 62
   200
370
    50
100
AcDbVertex
100
AcDb2dVertex
 10
46.54273
 20
83.91331
 30
0.0
  0
VERTEX
  5
2B2
330
2AF
100
AcDbEntity
  8
001
 62
   200
370
    50
100
AcDbVertex
100
AcDb2dVertex
 10
46.541608
 20
83.947791
 30
0.0
  0
VERTEX
  5
2B3
330
2AF
100
AcDbEntity
  8
001
 62
   200
370
    50
100
AcDbVertex
100
AcDb2dVertex
 10
46.534808
 20
83.99743
 30
0.0
  0
VERTEX
  5
2B4
330
2AF
100
AcDbEntity
  8
001
 62
   200
370
    50
100
AcDbVertex
100
AcDb2dVertex
 10
46.523991
 20
84.034668
 30
0.0
  0
VERTEX
  5
2B5
330
2AF
100
AcDbEntity
  8
001
 62
   200
370
    50
100
AcDbVertex
100
AcDb2dVertex
 10
46.513892
 20
84.059314
 30
0.0
  0
SEQEND
  5
2B0
330
2AF
100
AcDbEntity
  8
001
370
    50
  0
LINE
  5
2B6
330
1F
100
AcDbEntity
  8
001
 62
   200
370
    50
100
AcDbLine
 10
46.353078
 20
84.148364
 30
0.0
 11
45.803643
 21
84.123987
 31
0.0
  0
POLYLINE
  5
2B7
330
1F
100
AcDbEntity
  8
001
 62
   200
370
    50
100
AcDb2dPolyline
 66
     1
 10
0.0
 20
0.0
 30
0.0
  0
VERTEX
  5
2B9
330
2B7
100
AcDbEntity
  8
001
 62
   200
370
    50
100
AcDbVertex
100
AcDb2dVertex
 10
45.803643
 20
84.123987
 30
0.0
  0
VERTEX
  5
2BA
330
2B7
100
AcDbEntity
  8
001
 62
   200
370
    50
100
AcDbVertex
100
AcDb2dVertex
 10
45.790066
 20
84.122875
 30
0.0
  0
VERTEX
  5
2BB
330
2B7
100
AcDbEntity
  8
001
 62
   200
370
    50
100
AcDbVertex
100
AcDb2dVertex
 10
45.77083
 20
84.120535
 30
0.0
  0
VERTEX
  5
2BC
330
2B7
100
AcDbEntity
  8
001
 62
   200
370
    50
100
AcDbVertex
100
AcDb2dVertex
 10
45.721013
 20
84.109374
 30
0.0
  0
VERTEX
  5
2BD
330
2B7
100
AcDbEntity
  8
001
 62
   200
370
    50
100
AcDbVertex
100
AcDb2dVertex
 10
45.67955
 20
84.093889
 30
0.0
  0
VERTEX
  5
2BE
330
2B7
100
AcDbEntity
  8
001
 62
   200
370
    50
100
AcDbVertex
100
AcDb2dVertex
 10
45.521995
 20
84.006872
 30
0.0
  0
VERTEX
  5
2BF
330
2B7
100
AcDbEntity
  8
001
 62
   200
370
    50
100
AcDbVertex
100
AcDb2dVertex
 10
45.357401
 20
83.871174
 30
0.0
  0
VERTEX
  5
2C0
330
2B7
100
AcDbEntity
  8
001
 62
   200
370
    50
100
AcDbVertex
100
AcDb2dVertex
 10
45.350505
 20
83.864679
 30
0.0
  0
VERTEX
  5
2C1
330
2B7
100
AcDbEntity
  8
001
 62
   200
370
    50
100
AcDbVertex
100
AcDb2dVertex
 10
45.345781
 20
83.860204
 30
0.0
  0
SEQEND
  5
2B8
330
2B7
100
AcDbEntity
  8
001
370
    50
  0
LINE
  5
2C2
330
1F
100
AcDbEntity
  8
001
 62
   200
370
    50
100
AcDbLine
 10
45.345781
 20
83.860204
 30
0.0
 11
40.030368
 21
78.799278
 31
0.0
  0
POLYLINE
  5
2C3
330
1F
100
AcDbEntity
  8
001
 62
   200
370
    50
100
AcDb2dPolyline
 66
     1
 10
0.0
 20
0.0
 30
0.0
  0
VERTEX
  5
2C5
330
2C3
100
AcDbEntity
  8
001
 62
   200
370
    50
100
AcDbVertex
100
AcDb2dVertex
 10
40.030368
 20
78.799278
 30
0.0
  0
VERTEX
  5
2C6
330
2C3
100
AcDbEntity
  8
001
 62
   200
370
    50
100
AcDbVertex
100
AcDb2dVertex
 10
39.938277
 20
78.703483
 30
0.0
  0
VERTEX
  5
2C7
330
2C3
100
AcDbEntity
  8
001
 62
   200
370
    50
100
AcDbVertex
100
AcDb2dVertex
 10
39.81986
 20
78.56692
 30
0.0
  0
VERTEX
  5
2C8
330
2C3
100
AcDbEntity
  8
001
 62
   200
370
    50
100
AcDbVertex
100
AcDb2dVertex
 10
39.764576
 20
78.494879
 30
0.0
  0
VERTEX
  5
2C9
330
2C3
100
AcDbEntity
  8
001
 62
   200
370
    50
100
AcDbVertex
100
AcDb2dVertex
 10
39.716727
 20
78.427096
 30
0.0
  0
VERTEX
  5
2CA
330
2C3
100
AcDbEntity
  8
001
 62
   200
370
    50
100
AcDbVertex
100
AcDb2dVertex
 10
39.671337
 20
78.359173
 30
0.0
  0
VERTEX
  5
2CB
330
2C3
100
AcDbEntity
  8
001
 62
   200
370
    50
100
AcDbVertex
100
AcDb2dVertex
 10
39.623123
 20
78.280722
 30
0.0
  0
VERTEX
  5
2CC
330
2C3
100
AcDbEntity
  8
001
 62
   200
370
    50
100
AcDbVertex
100
AcDb2dVertex
 10
39.593249
 20
78.228636
 30
0.0
  0
VERTEX
  5
2CD
330
2C3
100
AcDbEntity
  8
001
 62
   200
370
    50
100
AcDbVertex
100
AcDb2dVertex
 10
39.572506
 20
78.191179
 30
0.0
  0
SEQEND
  5
2C4
330
2C3
100
AcDbEntity
  8
001
370
    50
  0
LINE
  5
2CE
330
1F
100
AcDbEntity
  8
001
 62
   200
370
    50
100
AcDbLine
 10
39.572506
 20
78.191179
 30
0.0
 11
39.023072
 21
77.169297
 31
0.0
  0
POLYLINE
  5
2CF
330
1F
100
AcDbEntity
  8
001
 62
   200
370
    50
100
AcDb2dPolyline
 66
     1
 10
0.0
 20
0.0
 30
0.0
  0
VERTEX
  5
2D1
330
2CF
100
AcDbEntity
  8
001
 62
   200
370
    50
100
AcDbVertex
100
AcDb2dVertex
 10
39.023072
 20
77.169297
 30
0.0
  0
VERTEX
  5
2D2
330
2CF
100
AcDbEntity
  8
001
 62
   200
370
    50
100
AcDbVertex
100
AcDb2dVertex
 10
38.980844
 20
77.083397
 30
0.0
  0
VERTEX
  5
2D3
330
2CF
100
AcDbEntity
  8
001
 62
   200
370
    50
100
AcDbVertex
100
AcDb2dVertex
 10
38.92607
 20
76.964293
 30
0.0
  0
VERTEX
  5
2D4
330
2CF
100
AcDbEntity
  8
001
 62
   200
370
    50
100
AcDbVertex
100
AcDb2dVertex
 10
38.858235
 20
76.784586
 30
0.0
  0
VERTEX
  5
2D5
330
2CF
100
AcDbEntity
  8
001
 62
   200
370
    50
100
AcDbVertex
100
AcDb2dVertex
 10
38.833523
 20
76.583745
 30
0.0
  0
VERTEX
  5
2D6
330
2CF
100
AcDbEntity
  8
001
 62
   200
370
    50
100
AcDbVertex
100
AcDb2dVertex
 10
38.833448
 20
76.577434
 30
0.0
  0
VERTEX
  5
2D7
330
2CF
100
AcDbEntity
  8
001
 62
   200
370
    50
100
AcDbVertex
100
AcDb2dVertex
 10
38.833419
 20
76.573097
 30
0.0
  0
SEQEND
  5
2D0
330
2CF
100
AcDbEntity
  8
001
370
    50
  0
POLYLINE
  5
2D8
330
1F
100
AcDbEntity
  8
001
 62
   200
370
    50
100
AcDb2dPolyline
 66
     1
 10
0.0
 20
0.0
 30
0.0
  0
VERTEX
  5
2DA
330
2D8
100
AcDbEntity
  8
001
 62
   200
370
    50
100
AcDbVertex
100
AcDb2dVertex
 10
44.630619
 20
79.652571
 30
0.0
  0
VERTEX
  5
2DB
330
2D8
100
AcDbEntity
  8
001
 62
   200
370
    50
100
AcDbVertex
100
AcDb2dVertex
 10
44.624235
 20
79.760047
 30
0.0
  0
VERTEX
  5
2DC
330
2D8
100
AcDbEntity
  8
001
 62
   200
370
    50
100
AcDbVertex
100
AcDb2dVertex
 10
44.606853
 20
79.904932
 30
0.0
  0
VERTEX
  5
2DD
330
2D8
100
AcDbEntity
  8
001
 62
   200
370
    50
100
AcDbVertex
100
AcDb2dVertex
 10
44.579539
 20
80.020275
 30
0.0
  0
VERTEX
  5
2DE
330
2D8
100
AcDbEntity
  8
001
 62
   200
370
    50
100
AcDbVertex
100
AcDb2dVertex
 10
44.525099
 20
80.125371
 30
0.0
  0
VERTEX
  5
2DF
330
2D8
100
AcDbEntity
  8
001
 62
   200
370
    50
100
AcDbVertex
100
AcDb2dVertex
 10
44.450642
 20
80.216401
 30
0.0
  0
VERTEX
  5
2E0
330
2D8
100
AcDbEntity
  8
001
 62
   200
370
    50
100
AcDbVertex
100
AcDb2dVertex
 10
44.387527
 20
80.275248
 30
0.0
  0
SEQEND
  5
2D9
330
2D8
100
AcDbEntity
  8
001
370
    50
  0
POLYLINE
  5
2E1
330
1F
100
AcDbEntity
  8
001
 62
   200
370
    50
100
AcDb2dPolyline
 66
     1
 10
0.0
 20
0.0
 30
0.0
  0
VERTEX
  5
2E3
330
2E1
100
AcDbEntity
  8
001
 62
   200
370
    50
100
AcDbVertex
100
AcDb2dVertex
 10
40.988622
 20
75.330812
 30
0.0
  0
VERTEX
  5
2E4
330
2E1
100
AcDbEntity
  8
001
 62
   200
370
    50
100
AcDbVertex
100
AcDb2dVertex
 10
41.065431
 20
75.292721
 30
0.0
  0
VERTEX
  5
2E5
330
2E1
100
AcDbEntity
  8
001
 62
   200
370
    50
100
AcDbVertex
100
AcDb2dVertex
 10
41.177831
 20
75.256053
 30
0.0
  0
VERTEX
  5
2E6
330
2E1
100
AcDbEntity
  8
001
 62
   200
370
    50
100
AcDbVertex
100
AcDb2dVertex
 10
41.299995
 20
75.244357
 30
0.0
  0
VERTEX
  5
2E7
330
2E1
100
AcDbEntity
  8
001
 62
   200
370
    50
100
AcDbVertex
100
AcDb2dVertex
 10
41.412927
 20
75.258682
 30
0.0
  0
VERTEX
  5
2E8
330
2E1
100
AcDbEntity
  8
001
 62
   200
370
    50
100
AcDbVertex
100
AcDb2dVertex
 10
41.550217
 20
75.292445
 30
0.0
  0
VERTEX
  5
2E9
330
2E1
100
AcDbEntity
  8
001
 62
   200
370
    50
100
AcDbVertex
100
AcDb2dVertex
 10
41.686768
 20
75.338621
 30
0.0
  0
VERTEX
  5
2EA
330
2E1
100
AcDbEntity
  8
001
 62
   200
370
    50
100
AcDbVertex
100
AcDb2dVertex
 10
42.201672
 20
75.623559
 30
0.0
  0
VERTEX
  5
2EB
330
2E1
100
AcDbEntity
  8
001
 62
   200
370
    50
100
AcDbVertex
100
AcDb2dVertex
 10
42.653214
 20
76.006766
 30
0.0
  0
VERTEX
  5
2EC
330
2E1
100
AcDbEntity
  8
001
 62
   200
370
    50
100
AcDbVertex
100
AcDb2dVertex
 10
42.99973
 20
76.360933
 30
0.0
  0
VERTEX
  5
2ED
330
2E1
100
AcDbEntity
  8
001
 62
   200
370
    50
100
AcDbVertex
100
AcDb2dVertex
 10
43.319598
 20
76.736749
 30
0.0
  0
VERTEX
  5
2EE
330
2E1
100
AcDbEntity
  8
001
 62
   200
370
    50
100
AcDbVertex
100
AcDb2dVertex
 10
43.477823
 20
76.943992
 30
0.0
  0
VERTEX
  5
2EF
330
2E1
100
AcDbEntity
  8
001
 62
   200
370
    50
100
AcDbVertex
100
AcDb2dVertex
 10
43.629
 20
77.156219
 30
0.0
  0
VERTEX
  5
2F0
330
2E1
100
AcDbEntity
  8
001
 62
   200
370
    50
100
AcDbVertex
100
AcDb2dVertex
 10
43.773152
 20
77.372612
 30
0.0
  0
VERTEX
  5
2F1
330
2E1
100
AcDbEntity
  8
001
 62
   200
370
    50
100
AcDbVertex
100
AcDb2dVertex
 10
43.909812
 20
77.595341
 30
0.0
  0
VERTEX
  5
2F2
330
2E1
100
AcDbEntity
  8
001
 62
   200
370
    50
100
AcDbVertex
100
AcDb2dVertex
 10
44.146662
 20
78.036768
 30
0.0
  0
VERTEX
  5
2F3
330
2E1
100
AcDbEntity
  8
001
 62
   200
370
    50
100
AcDbVertex
100
AcDb2dVertex
 10
44.352666
 20
78.478984
 30
0.0
  0
VERTEX
  5
2F4
330
2E1
100
AcDbEntity
  8
001
 62
   200
370
    50
100
AcDbVertex
100
AcDb2dVertex
 10
44.545213
 20
78.995442
 30
0.0
  0
VERTEX
  5
2F5
330
2E1
100
AcDbEntity
  8
001
 62
   200
370
    50
100
AcDbVertex
100
AcDb2dVertex
 10
44.630306
 20
79.620628
 30
0.0
  0
VERTEX
  5
2F6
330
2E1
100
AcDbEntity
  8
001
 62
   200
370
    50
100
AcDbVertex
100
AcDb2dVertex
 10
44.630537
 20
79.63957
 30
0.0
  0
VERTEX
  5
2F7
330
2E1
100
AcDbEntity
  8
001
 62
   200
370
    50
100
AcDbVertex
100
AcDb2dVertex
 10
44.630619
 20
79.652571
 30
0.0
  0
SEQEND
  5
2E2
330
2E1
100
AcDbEntity
  8
001
370
    50
  0
POLYLINE
  5
2F8
330
1F
100
AcDbEntity
  8
001
 62
   200
370
    50
100
AcDb2dPolyline
 66
     1
 10
0.0
 20
0.0
 30
0.0
  0
VERTEX
  5
2FA
330
2F8
100
AcDbEntity
  8
001
 62
   200
370
    50
100
AcDbVertex
100
AcDb2dVertex
 10
44.387527
 20
80.275248
 30
0.0
  0
VERTEX
  5
2FB
330
2F8
100
AcDbEntity
  8
001
 62
   200
370
    50
100
AcDbVertex
100
AcDb2dVertex
 10
44.310718
 20
80.313338
 30
0.0
  0
VERTEX
  5
2FC
330
2F8
100
AcDbEntity
  8
001
 62
   200
370
    50
100
AcDbVertex
100
AcDb2dVertex
 10
44.198319
 20
80.350007
 30
0.0
  0
VERTEX
  5
2FD
330
2F8
100
AcDbEntity
  8
001
 62
   200
370
    50
100
AcDbVertex
100
AcDb2dVertex
 10
44.076154
 20
80.361702
 30
0.0
  0
VERTEX
  5
2FE
330
2F8
100
AcDbEntity
  8
001
 62
   200
370
    50
100
AcDbVertex
100
AcDb2dVertex
 10
43.963222
 20
80.347377
 30
0.0
  0
VERTEX
  5
2FF
330
2F8
100
AcDbEntity
  8
001
 62
   200
370
    50
100
AcDbVertex
100
AcDb2dVertex
 10
43.825932
 20
80.313613
 30
0.0
  0
VERTEX
  5
300
330
2F8
100
AcDbEntity
  8
001
 62
   200
370
    50
100
AcDbVertex
100
AcDb2dVertex
 10
43.689381
 20
80.267439
 30
0.0
  0
VERTEX
  5
301
330
2F8
100
AcDbEntity
  8
001
 62
   200
370
    50
100
AcDbVertex
100
AcDb2dVertex
 10
43.174482
 20
79.982545
 30
0.0
  0
VERTEX
  5
302
330
2F8
100
AcDbEntity
  8
001
 62
   200
370
    50
100
AcDbVertex
100
AcDb2dVertex
 10
42.722936
 20
79.599293
 30
0.0
  0
VERTEX
  5
303
330
2F8
100
AcDbEntity
  8
001
 62
   200
370
    50
100
AcDbVertex
100
AcDb2dVertex
 10
42.376406
 20
79.244968
 30
0.0
  0
VERTEX
  5
304
330
2F8
100
AcDbEntity
  8
001
 62
   200
370
    50
100
AcDbVertex
100
AcDb2dVertex
 10
42.056551
 20
78.86931
 30
0.0
  0
VERTEX
  5
305
330
2F8
100
AcDbEntity
  8
001
 62
   200
370
    50
100
AcDbVertex
100
AcDb2dVertex
 10
41.898348
 20
78.662322
 30
0.0
  0
VERTEX
  5
306
330
2F8
100
AcDbEntity
  8
001
 62
   200
370
    50
100
AcDbVertex
100
AcDb2dVertex
 10
41.747149
 20
78.449841
 30
0.0
  0
VERTEX
  5
307
330
2F8
100
AcDbEntity
  8
001
 62
   200
370
    50
100
AcDbVertex
100
AcDb2dVertex
 10
41.602924
 20
78.232565
 30
0.0
  0
VERTEX
  5
308
330
2F8
100
AcDbEntity
  8
001
 62
   200
370
    50
100
AcDbVertex
100
AcDb2dVertex
 10
41.466337
 20
78.010718
 30
0.0
  0
VERTEX
  5
309
330
2F8
100
AcDbEntity
  8
001
 62
   200
370
    50
100
AcDbVertex
100
AcDb2dVertex
 10
41.230174
 20
77.577528
 30
0.0
  0
VERTEX
  5
30A
330
2F8
100
AcDbEntity
  8
001
 62
   200
370
    50
100
AcDbVertex
100
AcDb2dVertex
 10
41.023483
 20
77.127075
 30
0.0
  0
VERTEX
  5
30B
330
2F8
100
AcDbEntity
  8
001
 62
   200
370
    50
100
AcDbVertex
100
AcDb2dVertex
 10
40.827401
 20
76.568213
 30
0.0
  0
VERTEX
  5
30C
330
2F8
100
AcDbEntity
  8
001
 62
   200
370
    50
100
AcDbVertex
100
AcDb2dVertex
 10
40.745843
 20
75.985432
 30
0.0
  0
VERTEX
  5
30D
330
2F8
100
AcDbEntity
  8
001
 62
   200
370
    50
100
AcDbVertex
100
AcDb2dVertex
 10
40.751644
 20
75.841401
 30
0.0
  0
VERTEX
  5
30E
330
2F8
100
AcDbEntity
  8
001
 62
   200
370
    50
100
AcDbVertex
100
AcDb2dVertex
 10
40.769296
 20
75.701127
 30
0.0
  0
VERTEX
  5
30F
330
2F8
100
AcDbEntity
  8
001
 62
   200
370
    50
100
AcDbVertex
100
AcDb2dVertex
 10
40.796373
 20
75.590557
 30
0.0
  0
VERTEX
  5
310
330
2F8
100
AcDbEntity
  8
001
 62
   200
370
    50
100
AcDbVertex
100
AcDb2dVertex
 10
40.851051
 20
75.480688
 30
0.0
  0
VERTEX
  5
311
330
2F8
100
AcDbEntity
  8
001
 62
   200
370
    50
100
AcDbVertex
100
AcDb2dVertex
 10
40.925547
 20
75.38888
 30
0.0
  0
VERTEX
  5
312
330
2F8
100
AcDbEntity
  8
001
 62
   200
370
    50
100
AcDbVertex
100
AcDb2dVertex
 10
40.988622
 20
75.330812
 30
0.0
  0
SEQEND
  5
2F9
330
2F8
100
AcDbEntity
  8
001
370
    50
  0
POLYLINE
  5
313
330
1F
100
AcDbEntity
  8
001
 62
   140
370
    50
100
AcDb2dPolyline
 66
     1
 10
0.0
 20
0.0
 30
0.0
  0
VERTEX
  5
315
330
313
100
AcDbEntity
  8
001
 62
   140
370
    50
100
AcDbVertex
100
AcDb2dVertex
 10
42.285515
 20
66.509521
 30
0.0
  0
VERTEX
  5
316
330
313
100
AcDbEntity
  8
001
 62
   140
370
    50
100
AcDbVertex
100
AcDb2dVertex
 10
42.226669
 20
66.491504
 30
0.0
  0
VERTEX
  5
317
330
313
100
AcDbEntity
  8
001
 62
   140
370
    50
100
AcDbVertex
100
AcDb2dVertex
 10
42.168412
 20
66.471807
 30
0.0
  0
VERTEX
  5
318
330
313
100
AcDbEntity
  8
001
 62
   140
370
    50
100
AcDbVertex
100
AcDb2dVertex
 10
42.08365
 20
66.436821
 30
0.0
  0
VERTEX
  5
319
330
313
100
AcDbEntity
  8
001
 62
   140
370
    50
100
AcDbVertex
100
AcDb2dVertex
 10
42.001665
 20
66.395522
 30
0.0
  0
VERTEX
  5
31A
330
313
100
AcDbEntity
  8
001
 62
   140
370
    50
100
AcDbVertex
100
AcDb2dVertex
 10
41.921953
 20
66.348456
 30
0.0
  0
VERTEX
  5
31B
330
313
100
AcDbEntity
  8
001
 62
   140
370
    50
100
AcDbVertex
100
AcDb2dVertex
 10
41.845546
 20
66.296274
 30
0.0
  0
VERTEX
  5
31C
330
313
100
AcDbEntity
  8
001
 62
   140
370
    50
100
AcDbVertex
100
AcDb2dVertex
 10
41.771216
 20
66.237894
 30
0.0
  0
VERTEX
  5
31D
330
313
100
AcDbEntity
  8
001
 62
   140
370
    50
100
AcDbVertex
100
AcDb2dVertex
 10
41.700804
 20
66.174815
 30
0.0
  0
VERTEX
  5
31E
330
313
100
AcDbEntity
  8
001
 62
   140
370
    50
100
AcDbVertex
100
AcDb2dVertex
 10
41.63235
 20
66.105277
 30
0.0
  0
VERTEX
  5
31F
330
313
100
AcDbEntity
  8
001
 62
   140
370
    50
100
AcDbVertex
100
AcDb2dVertex
 10
41.56826
 20
66.031704
 30
0.0
  0
VERTEX
  5
320
330
313
100
AcDbEntity
  8
001
 62
   140
370
    50
100
AcDbVertex
100
AcDb2dVertex
 10
41.506243
 20
65.951348
 30
0.0
  0
VERTEX
  5
321
330
313
100
AcDbEntity
  8
001
 62
   140
370
    50
100
AcDbVertex
100
AcDb2dVertex
 10
41.448936
 20
65.867563
 30
0.0
  0
VERTEX
  5
322
330
313
100
AcDbEntity
  8
001
 62
   140
370
    50
100
AcDbVertex
100
AcDb2dVertex
 10
41.394031
 20
65.776876
 30
0.0
  0
VERTEX
  5
323
330
313
100
AcDbEntity
  8
001
 62
   140
370
    50
100
AcDbVertex
100
AcDb2dVertex
 10
41.344056
 20
65.68338
 30
0.0
  0
VERTEX
  5
324
330
313
100
AcDbEntity
  8
001
 62
   140
370
    50
100
AcDbVertex
100
AcDb2dVertex
 10
41.296964
 20
65.58316
 30
0.0
  0
VERTEX
  5
325
330
313
100
AcDbEntity
  8
001
 62
   140
370
    50
100
AcDbVertex
100
AcDb2dVertex
 10
41.254907
 20
65.480723
 30
0.0
  0
VERTEX
  5
326
330
313
100
AcDbEntity
  8
001
 62
   140
370
    50
100
AcDbVertex
100
AcDb2dVertex
 10
41.216248
 20
65.372063
 30
0.0
  0
VERTEX
  5
327
330
313
100
AcDbEntity
  8
001
 62
   140
370
    50
100
AcDbVertex
100
AcDb2dVertex
 10
41.182625
 20
65.261739
 30
0.0
  0
VERTEX
  5
328
330
313
100
AcDbEntity
  8
001
 62
   140
370
    50
100
AcDbVertex
100
AcDb2dVertex
 10
41.152851
 20
65.14593
 30
0.0
  0
VERTEX
  5
329
330
313
100
AcDbEntity
  8
001
 62
   140
370
    50
100
AcDbVertex
100
AcDb2dVertex
 10
41.128034
 20
65.028958
 30
0.0
  0
VERTEX
  5
32A
330
313
100
AcDbEntity
  8
001
 62
   140
370
    50
100
AcDbVertex
100
AcDb2dVertex
 10
41.107402
 20
64.907379
 30
0.0
  0
VERTEX
  5
32B
330
313
100
AcDbEntity
  8
001
 62
   140
370
    50
100
AcDbVertex
100
AcDb2dVertex
 10
41.091598
 20
64.785078
 30
0.0
  0
VERTEX
  5
32C
330
313
100
AcDbEntity
  8
001
 62
   140
370
    50
100
AcDbVertex
100
AcDb2dVertex
 10
41.080193
 20
64.659119
 30
0.0
  0
VERTEX
  5
32D
330
313
100
AcDbEntity
  8
001
 62
   140
370
    50
100
AcDbVertex
100
AcDb2dVertex
 10
41.073464
 20
64.532824
 30
0.0
  0
VERTEX
  5
32E
330
313
100
AcDbEntity
  8
001
 62
   140
370
    50
100
AcDbVertex
100
AcDb2dVertex
 10
41.071236
 20
64.403737
 30
0.0
  0
VERTEX
  5
32F
330
313
100
AcDbEntity
  8
001
 62
   140
370
    50
100
AcDbVertex
100
AcDb2dVertex
 10
41.073535
 20
64.274651
 30
0.0
  0
VERTEX
  5
330
330
313
100
AcDbEntity
  8
001
 62
   140
370
    50
100
AcDbVertex
100
AcDb2dVertex
 10
41.080356
 20
64.143645
 30
0.0
  0
VERTEX
  5
331
330
313
100
AcDbEntity
  8
001
 62
   140
370
    50
100
AcDbVertex
100
AcDb2dVertex
 10
41.091571
 20
64.012943
 30
0.0
  0
VERTEX
  5
332
330
313
100
AcDbEntity
  8
001
 62
   140
370
    50
100
AcDbVertex
100
AcDb2dVertex
 10
41.107261
 20
63.8812
 30
0.0
  0
VERTEX
  5
333
330
313
100
AcDbEntity
  8
001
 62
   140
370
    50
100
AcDbVertex
100
AcDb2dVertex
 10
41.127228
 20
63.750037
 30
0.0
  0
VERTEX
  5
334
330
313
100
AcDbEntity
  8
001
 62
   140
370
    50
100
AcDbVertex
100
AcDb2dVertex
 10
41.151561
 20
63.618715
 30
0.0
  0
VERTEX
  5
335
330
313
100
AcDbEntity
  8
001
 62
   140
370
    50
100
AcDbVertex
100
AcDb2dVertex
 10
41.180074
 20
63.488237
 30
0.0
  0
VERTEX
  5
336
330
313
100
AcDbEntity
  8
001
 62
   140
370
    50
100
AcDbVertex
100
AcDb2dVertex
 10
41.21278
 20
63.358477
 30
0.0
  0
VERTEX
  5
337
330
313
100
AcDbEntity
  8
001
 62
   140
370
    50
100
AcDbVertex
100
AcDb2dVertex
 10
41.24959
 20
63.229822
 30
0.0
  0
VERTEX
  5
338
330
313
100
AcDbEntity
  8
001
 62
   140
370
    50
100
AcDbVertex
100
AcDb2dVertex
 10
41.290361
 20
63.102749
 30
0.0
  0
VERTEX
  5
339
330
313
100
AcDbEntity
  8
001
 62
   140
370
    50
100
AcDbVertex
100
AcDb2dVertex
 10
41.335179
 20
62.977046
 30
0.0
  0
VERTEX
  5
33A
330
313
100
AcDbEntity
  8
001
 62
   140
370
    50
100
AcDbVertex
100
AcDb2dVertex
 10
41.383664
 20
62.853784
 30
0.0
  0
VERTEX
  5
33B
330
313
100
AcDbEntity
  8
001
 62
   140
370
    50
100
AcDbVertex
100
AcDb2dVertex
 10
41.436151
 20
62.732173
 30
0.0
  0
VERTEX
  5
33C
330
313
100
AcDbEntity
  8
001
 62
   140
370
    50
100
AcDbVertex
100
AcDb2dVertex
 10
41.491973
 20
62.613788
 30
0.0
  0
VERTEX
  5
33D
330
313
100
AcDbEntity
  8
001
 62
   140
370
    50
100
AcDbVertex
100
AcDb2dVertex
 10
41.551768
 20
62.49736
 30
0.0
  0
VERTEX
  5
33E
330
313
100
AcDbEntity
  8
001
 62
   140
370
    50
100
AcDbVertex
100
AcDb2dVertex
 10
41.614531
 20
62.384885
 30
0.0
  0
VERTEX
  5
33F
330
313
100
AcDbEntity
  8
001
 62
   140
370
    50
100
AcDbVertex
100
AcDb2dVertex
 10
41.681241
 20
62.274707
 30
0.0
  0
VERTEX
  5
340
330
313
100
AcDbEntity
  8
001
 62
   140
370
    50
100
AcDbVertex
100
AcDb2dVertex
 10
41.75053
 20
62.169149
 30
0.0
  0
VERTEX
  5
341
330
313
100
AcDbEntity
  8
001
 62
   140
370
    50
100
AcDbVertex
100
AcDb2dVertex
 10
41.82374
 20
62.066272
 30
0.0
  0
VERTEX
  5
342
330
313
100
AcDbEntity
  8
001
 62
   140
370
    50
100
AcDbVertex
100
AcDb2dVertex
 10
41.899121
 20
61.968614
 30
0.0
  0
VERTEX
  5
343
330
313
100
AcDbEntity
  8
001
 62
   140
370
    50
100
AcDbVertex
100
AcDb2dVertex
 10
41.978384
 20
61.874081
 30
0.0
  0
VERTEX
  5
344
330
313
100
AcDbEntity
  8
001
 62
   140
370
    50
100
AcDbVertex
100
AcDb2dVertex
 10
42.059395
 20
61.785311
 30
0.0
  0
VERTEX
  5
345
330
313
100
AcDbEntity
  8
001
 62
   140
370
    50
100
AcDbVertex
100
AcDb2dVertex
 10
42.144212
 20
61.700165
 30
0.0
  0
VERTEX
  5
346
330
313
100
AcDbEntity
  8
001
 62
   140
370
    50
100
AcDbVertex
100
AcDb2dVertex
 10
42.230325
 20
61.621261
 30
0.0
  0
VERTEX
  5
347
330
313
100
AcDbEntity
  8
001
 62
   140
370
    50
100
AcDbVertex
100
AcDb2dVertex
 10
42.320116
 20
61.546586
 30
0.0
  0
VERTEX
  5
348
330
313
100
AcDbEntity
  8
001
 62
   140
370
    50
100
AcDbVertex
100
AcDb2dVertex
 10
42.410614
 20
61.47871
 30
0.0
  0
VERTEX
  5
349
330
313
100
AcDbEntity
  8
001
 62
   140
370
    50
100
AcDbVertex
100
AcDb2dVertex
 10
42.504511
 20
61.415576
 30
0.0
  0
VERTEX
  5
34A
330
313
100
AcDbEntity
  8
001
 62
   140
370
    50
100
AcDbVertex
100
AcDb2dVertex
 10
42.598416
 20
61.359503
 30
0.0
  0
VERTEX
  5
34B
330
313
100
AcDbEntity
  8
001
 62
   140
370
    50
100
AcDbVertex
100
AcDb2dVertex
 10
42.695453
 20
61.309181
 30
0.0
  0
VERTEX
  5
34C
330
313
100
AcDbEntity
  8
001
 62
   140
370
    50
100
AcDbVertex
100
AcDb2dVertex
 10
42.723643
 20
61.295994
 30
0.0
  0
VERTEX
  5
34D
330
313
100
AcDbEntity
  8
001
 62
   140
370
    50
100
AcDbVertex
100
AcDb2dVertex
 10
42.751962
 20
61.283081
 30
0.0
  0
SEQEND
  5
314
330
313
100
AcDbEntity
  8
001
370
    50
  0
POLYLINE
  5
34E
330
1F
100
AcDbEntity
  8
001
 62
   140
370
    50
100
AcDb2dPolyline
 66
     1
 10
0.0
 20
0.0
 30
0.0
  0
VERTEX
  5
350
330
34E
100
AcDbEntity
  8
001
 62
   140
370
    50
100
AcDbVertex
100
AcDb2dVertex
 10
42.751962
 20
61.283081
 30
0.0
  0
VERTEX
  5
351
330
34E
100
AcDbEntity
  8
001
 62
   140
370
    50
100
AcDbVertex
100
AcDb2dVertex
 10
42.806768
 20
61.260479
 30
0.0
  0
VERTEX
  5
352
330
34E
100
AcDbEntity
  8
001
 62
   140
370
    50
100
AcDbVertex
100
AcDb2dVertex
 10
42.862029
 20
61.239068
 30
0.0
  0
VERTEX
  5
353
330
34E
100
AcDbEntity
  8
001
 62
   140
370
    50
100
AcDbVertex
100
AcDb2dVertex
 10
42.958652
 20
61.207516
 30
0.0
  0
VERTEX
  5
354
330
34E
100
AcDbEntity
  8
001
 62
   140
370
    50
100
AcDbVertex
100
AcDb2dVertex
 10
43.057295
 20
61.182694
 30
0.0
  0
VERTEX
  5
355
330
34E
100
AcDbEntity
  8
001
 62
   140
370
    50
100
AcDbVertex
100
AcDb2dVertex
 10
43.154275
 20
61.16493
 30
0.0
  0
VERTEX
  5
356
330
34E
100
AcDbEntity
  8
001
 62
   140
370
    50
100
AcDbVertex
100
AcDb2dVertex
 10
43.252187
 20
61.153771
 30
0.0
  0
VERTEX
  5
357
330
34E
100
AcDbEntity
  8
001
 62
   140
370
    50
100
AcDbVertex
100
AcDb2dVertex
 10
43.347581
 20
61.149679
 30
0.0
  0
VERTEX
  5
358
330
34E
100
AcDbEntity
  8
001
 62
   140
370
    50
100
AcDbVertex
100
AcDb2dVertex
 10
43.443069
 20
61.152266
 30
0.0
  0
VERTEX
  5
359
330
34E
100
AcDbEntity
  8
001
 62
   140
370
    50
100
AcDbVertex
100
AcDb2dVertex
 10
43.535902
 20
61.161309
 30
0.0
  0
VERTEX
  5
35A
330
34E
100
AcDbEntity
  8
001
 62
   140
370
    50
100
AcDbVertex
100
AcDb2dVertex
 10
43.627724
 20
61.177253
 30
0.0
  0
VERTEX
  5
35B
330
34E
100
AcDbEntity
  8
001
 62
   140
370
    50
100
AcDbVertex
100
AcDb2dVertex
 10
43.656673
 20
61.183807
 30
0.0
  0
VERTEX
  5
35C
330
34E
100
AcDbEntity
  8
001
 62
   140
370
    50
100
AcDbVertex
100
AcDb2dVertex
 10
43.685536
 20
61.19074
 30
0.0
  0
SEQEND
  5
34F
330
34E
100
AcDbEntity
  8
001
370
    50
  0
POLYLINE
  5
35D
330
1F
100
AcDbEntity
  8
001
 62
   140
370
    50
100
AcDb2dPolyline
 66
     1
 10
0.0
 20
0.0
 30
0.0
  0
VERTEX
  5
35F
330
35D
100
AcDbEntity
  8
001
 62
   140
370
    50
100
AcDbVertex
100
AcDb2dVertex
 10
43.839698
 20
61.231204
 30
0.0
  0
VERTEX
  5
360
330
35D
100
AcDbEntity
  8
001
 62
   140
370
    50
100
AcDbVertex
100
AcDb2dVertex
 10
43.954666
 20
61.269822
 30
0.0
  0
VERTEX
  5
361
330
35D
100
AcDbEntity
  8
001
 62
   140
370
    50
100
AcDbVertex
100
AcDb2dVertex
 10
44.113522
 20
61.346297
 30
0.0
  0
VERTEX
  5
362
330
35D
100
AcDbEntity
  8
001
 62
   140
370
    50
100
AcDbVertex
100
AcDb2dVertex
 10
44.141785
 20
61.363668
 30
0.0
  0
VERTEX
  5
363
330
35D
100
AcDbEntity
  8
001
 62
   140
370
    50
100
AcDbVertex
100
AcDb2dVertex
 10
44.160858
 20
61.375998
 30
0.0
  0
SEQEND
  5
35E
330
35D
100
AcDbEntity
  8
001
370
    50
  0
LINE
  5
364
330
1F
100
AcDbEntity
  8
001
 62
   140
370
    50
100
AcDbLine
 10
42.442904
 20
66.550882
 30
0.0
 11
42.294499
 21
66.511915
 31
0.0
  0
LINE
  5
365
330
1F
100
AcDbEntity
  8
001
 62
   140
370
    50
100
AcDbLine
 10
43.691293
 20
61.192237
 30
0.0
 11
43.839698
 21
61.231204
 31
0.0
  0
POLYLINE
  5
366
330
1F
100
AcDbEntity
  8
001
 62
   140
370
    50
100
AcDb2dPolyline
 66
     1
 10
0.0
 20
0.0
 30
0.0
  0
VERTEX
  5
368
330
366
100
AcDbEntity
  8
001
 62
   140
370
    50
100
AcDbVertex
100
AcDb2dVertex
 10
42.270537
 20
62.54476
 30
0.0
  0
VERTEX
  5
369
330
366
100
AcDbEntity
  8
001
 62
   140
370
    50
100
AcDbVertex
100
AcDb2dVertex
 10
42.273005
 20
62.545442
 30
0.0
  0
VERTEX
  5
36A
330
366
100
AcDbEntity
  8
001
 62
   140
370
    50
100
AcDbVertex
100
AcDb2dVertex
 10
42.276585
 20
62.546528
 30
0.0
  0
VERTEX
  5
36B
330
366
100
AcDbEntity
  8
001
 62
   140
370
    50
100
AcDbVertex
100
AcDb2dVertex
 10
42.280132
 20
62.547742
 30
0.0
  0
VERTEX
  5
36C
330
366
100
AcDbEntity
  8
001
 62
   140
370
    50
100
AcDbVertex
100
AcDb2dVertex
 10
42.282538
 20
62.548632
 30
0.0
  0
SEQEND
  5
367
330
366
100
AcDbEntity
  8
001
370
    50
  0
LINE
  5
36D
330
1F
100
AcDbEntity
  8
001
 62
   140
370
    50
100
AcDbLine
 10
42.549015
 20
62.651147
 30
0.0
 11
42.282538
 21
62.548632
 31
0.0
  0
POLYLINE
  5
36E
330
1F
100
AcDbEntity
  8
001
 62
   140
370
    50
100
AcDb2dPolyline
 66
     1
 10
0.0
 20
0.0
 30
0.0
  0
VERTEX
  5
370
330
36E
100
AcDbEntity
  8
001
 62
   140
370
    50
100
AcDbVertex
100
AcDb2dVertex
 10
42.743003
 20
62.565665
 30
0.0
  0
VERTEX
  5
371
330
36E
100
AcDbEntity
  8
001
 62
   140
370
    50
100
AcDbVertex
100
AcDb2dVertex
 10
42.710587
 20
62.60084
 30
0.0
  0
VERTEX
  5
372
330
36E
100
AcDbEntity
  8
001
 62
   140
370
    50
100
AcDbVertex
100
AcDb2dVertex
 10
42.660568
 20
62.639604
 30
0.0
  0
VERTEX
  5
373
330
36E
100
AcDbEntity
  8
001
 62
   140
370
    50
100
AcDbVertex
100
AcDb2dVertex
 10
42.643542
 20
62.647766
 30
0.0
  0
VERTEX
  5
374
330
36E
100
AcDbEntity
  8
001
 62
   140
370
    50
100
AcDbVertex
100
AcDb2dVertex
 10
42.626726
 20
62.653567
 30
0.0
  0
VERTEX
  5
375
330
36E
100
AcDbEntity
  8
001
 62
   140
370
    50
100
AcDbVertex
100
AcDb2dVertex
 10
42.610914
 20
62.657349
 30
0.0
  0
VERTEX
  5
376
330
36E
100
AcDbEntity
  8
001
 62
   140
370
    50
100
AcDbVertex
100
AcDb2dVertex
 10
42.593203
 20
62.658758
 30
0.0
  0
VERTEX
  5
377
330
36E
100
AcDbEntity
  8
001
 62
   140
370
    50
100
AcDbVertex
100
AcDb2dVertex
 10
42.574454
 20
62.657363
 30
0.0
  0
VERTEX
  5
378
330
36E
100
AcDbEntity
  8
001
 62
   140
370
    50
100
AcDbVertex
100
AcDb2dVertex
 10
42.561016
 20
62.655019
 30
0.0
  0
SEQEND
  5
36F
330
36E
100
AcDbEntity
  8
001
370
    50
  0
LINE
  5
379
330
1F
100
AcDbEntity
  8
001
 62
   140
370
    50
100
AcDbLine
 10
42.993828
 20
62.235199
 30
0.0
 11
42.743003
 21
62.565665
 31
0.0
  0
POLYLINE
  5
37A
330
1F
100
AcDbEntity
  8
001
 62
   140
370
    50
100
AcDb2dPolyline
 66
     1
 10
0.0
 20
0.0
 30
0.0
  0
VERTEX
  5
37C
330
37A
100
AcDbEntity
  8
001
 62
   140
370
    50
100
AcDbVertex
100
AcDb2dVertex
 10
43.175815
 20
62.145845
 30
0.0
  0
VERTEX
  5
37D
330
37A
100
AcDbEntity
  8
001
 62
   140
370
    50
100
AcDbVertex
100
AcDb2dVertex
 10
43.188674
 20
62.15043
 30
0.0
  0
VERTEX
  5
37E
330
37A
100
AcDbEntity
  8
001
 62
   140
370
    50
100
AcDbVertex
100
AcDb2dVertex
 10
43.205687
 20
62.158401
 30
0.0
  0
VERTEX
  5
37F
330
37A
100
AcDbEntity
  8
001
 62
   140
370
    50
100
AcDbVertex
100
AcDb2dVertex
 10
43.220409
 20
62.1682
 30
0.0
  0
VERTEX
  5
380
330
37A
100
AcDbEntity
  8
001
 62
   140
370
    50
100
AcDbVertex
100
AcDb2dVertex
 10
43.232336
 20
62.179392
 30
0.0
  0
VERTEX
  5
381
330
37A
100
AcDbEntity
  8
001
 62
   140
370
    50
100
AcDbVertex
100
AcDb2dVertex
 10
43.244186
 20
62.193255
 30
0.0
  0
VERTEX
  5
382
330
37A
100
AcDbEntity
  8
001
 62
   140
370
    50
100
AcDbVertex
100
AcDb2dVertex
 10
43.254953
 20
62.208179
 30
0.0
  0
VERTEX
  5
383
330
37A
100
AcDbEntity
  8
001
 62
   140
370
    50
100
AcDbVertex
100
AcDb2dVertex
 10
43.281075
 20
62.263528
 30
0.0
  0
VERTEX
  5
384
330
37A
100
AcDbEntity
  8
001
 62
   140
370
    50
100
AcDbVertex
100
AcDb2dVertex
 10
43.292471
 20
62.33156
 30
0.0
  0
VERTEX
  5
385
330
37A
100
AcDbEntity
  8
001
 62
   140
370
    50
100
AcDbVertex
100
AcDb2dVertex
 10
43.293218
 20
62.342752
 30
0.0
  0
VERTEX
  5
386
330
37A
100
AcDbEntity
  8
001
 62
   140
370
    50
100
AcDbVertex
100
AcDb2dVertex
 10
43.293615
 20
62.350528
 30
0.0
  0
SEQEND
  5
37B
330
37A
100
AcDbEntity
  8
001
370
    50
  0
LINE
  5
387
330
1F
100
AcDbEntity
  8
001
 62
   140
370
    50
100
AcDbLine
 10
43.309267
 20
62.783508
 30
0.0
 11
43.293615
 21
62.350528
 31
0.0
  0
POLYLINE
  5
388
330
1F
100
AcDbEntity
  8
001
 62
   140
370
    50
100
AcDb2dPolyline
 66
     1
 10
0.0
 20
0.0
 30
0.0
  0
VERTEX
  5
38A
330
388
100
AcDbEntity
  8
001
 62
   140
370
    50
100
AcDbVertex
100
AcDb2dVertex
 10
43.415066
 20
62.984318
 30
0.0
  0
VERTEX
  5
38B
330
388
100
AcDbEntity
  8
001
 62
   140
370
    50
100
AcDbVertex
100
AcDb2dVertex
 10
43.407497
 20
62.980946
 30
0.0
  0
VERTEX
  5
38C
330
388
100
AcDbEntity
  8
001
 62
   140
370
    50
100
AcDbVertex
100
AcDb2dVertex
 10
43.397195
 20
62.975635
 30
0.0
  0
VERTEX
  5
38D
330
388
100
AcDbEntity
  8
001
 62
   140
370
    50
100
AcDbVertex
100
AcDb2dVertex
 10
43.382361
 20
62.965699
 30
0.0
  0
VERTEX
  5
38E
330
388
100
AcDbEntity
  8
001
 62
   140
370
    50
100
AcDbVertex
100
AcDb2dVertex
 10
43.370546
 20
62.954644
 30
0.0
  0
VERTEX
  5
38F
330
388
100
AcDbEntity
  8
001
 62
   140
370
    50
100
AcDbVertex
100
AcDb2dVertex
 10
43.358733
 20
62.940826
 30
0.0
  0
VERTEX
  5
390
330
388
100
AcDbEntity
  8
001
 62
   140
370
    50
100
AcDbVertex
100
AcDb2dVertex
 10
43.347929
 20
62.925856
 30
0.0
  0
VERTEX
  5
391
330
388
100
AcDbEntity
  8
001
 62
   140
370
    50
100
AcDbVertex
100
AcDb2dVertex
 10
43.321767
 20
62.87046
 30
0.0
  0
VERTEX
  5
392
330
388
100
AcDbEntity
  8
001
 62
   140
370
    50
100
AcDbVertex
100
AcDb2dVertex
 10
43.310411
 20
62.802475
 30
0.0
  0
VERTEX
  5
393
330
388
100
AcDbEntity
  8
001
 62
   140
370
    50
100
AcDbVertex
100
AcDb2dVertex
 10
43.309665
 20
62.791284
 30
0.0
  0
VERTEX
  5
394
330
388
100
AcDbEntity
  8
001
 62
   140
370
    50
100
AcDbVertex
100
AcDb2dVertex
 10
43.309267
 20
62.783508
 30
0.0
  0
SEQEND
  5
389
330
388
100
AcDbEntity
  8
001
370
    50
  0
LINE
  5
395
330
1F
100
AcDbEntity
  8
001
 62
   140
370
    50
100
AcDbLine
 10
43.681543
 20
63.086832
 30
0.0
 11
43.415066
 21
62.984318
 31
0.0
  0
POLYLINE
  5
396
330
1F
100
AcDbEntity
  8
001
 62
   140
370
    50
100
AcDb2dPolyline
 66
     1
 10
0.0
 20
0.0
 30
0.0
  0
VERTEX
  5
398
330
396
100
AcDbEntity
  8
001
 62
   140
370
    50
100
AcDbVertex
100
AcDb2dVertex
 10
43.681543
 20
63.086832
 30
0.0
  0
VERTEX
  5
399
330
396
100
AcDbEntity
  8
001
 62
   140
370
    50
100
AcDbVertex
100
AcDb2dVertex
 10
43.689112
 20
63.090201
 30
0.0
  0
VERTEX
  5
39A
330
396
100
AcDbEntity
  8
001
 62
   140
370
    50
100
AcDbVertex
100
AcDb2dVertex
 10
43.699414
 20
63.095516
 30
0.0
  0
VERTEX
  5
39B
330
396
100
AcDbEntity
  8
001
 62
   140
370
    50
100
AcDbVertex
100
AcDb2dVertex
 10
43.714249
 20
63.105484
 30
0.0
  0
VERTEX
  5
39C
330
396
100
AcDbEntity
  8
001
 62
   140
370
    50
100
AcDbVertex
100
AcDb2dVertex
 10
43.726063
 20
63.116506
 30
0.0
  0
VERTEX
  5
39D
330
396
100
AcDbEntity
  8
001
 62
   140
370
    50
100
AcDbVertex
100
AcDb2dVertex
 10
43.737868
 20
63.130175
 30
0.0
  0
VERTEX
  5
39E
330
396
100
AcDbEntity
  8
001
 62
   140
370
    50
100
AcDbVertex
100
AcDb2dVertex
 10
43.748679
 20
63.145294
 30
0.0
  0
VERTEX
  5
39F
330
396
100
AcDbEntity
  8
001
 62
   140
370
    50
100
AcDbVertex
100
AcDb2dVertex
 10
43.775041
 20
63.204517
 30
0.0
  0
VERTEX
  5
3A0
330
396
100
AcDbEntity
  8
001
 62
   140
370
    50
100
AcDbVertex
100
AcDb2dVertex
 10
43.786197
 20
63.268675
 30
0.0
  0
VERTEX
  5
3A1
330
396
100
AcDbEntity
  8
001
 62
   140
370
    50
100
AcDbVertex
100
AcDb2dVertex
 10
43.787212
 20
63.319072
 30
0.0
  0
VERTEX
  5
3A2
330
396
100
AcDbEntity
  8
001
 62
   140
370
    50
100
AcDbVertex
100
AcDb2dVertex
 10
43.782558
 20
63.368944
 30
0.0
  0
VERTEX
  5
3A3
330
396
100
AcDbEntity
  8
001
 62
   140
370
    50
100
AcDbVertex
100
AcDb2dVertex
 10
43.778052
 20
63.394557
 30
0.0
  0
VERTEX
  5
3A4
330
396
100
AcDbEntity
  8
001
 62
   140
370
    50
100
AcDbVertex
100
AcDb2dVertex
 10
43.772043
 20
63.420043
 30
0.0
  0
VERTEX
  5
3A5
330
396
100
AcDbEntity
  8
001
 62
   140
370
    50
100
AcDbVertex
100
AcDb2dVertex
 10
43.764542
 20
63.445353
 30
0.0
  0
VERTEX
  5
3A6
330
396
100
AcDbEntity
  8
001
 62
   140
370
    50
100
AcDbVertex
100
AcDb2dVertex
 10
43.756098
 20
63.469717
 30
0.0
  0
VERTEX
  5
3A7
330
396
100
AcDbEntity
  8
001
 62
   140
370
    50
100
AcDbVertex
100
AcDb2dVertex
 10
43.73757
 20
63.513108
 30
0.0
  0
VERTEX
  5
3A8
330
396
100
AcDbEntity
  8
001
 62
   140
370
    50
100
AcDbVertex
100
AcDb2dVertex
 10
43.710009
 20
63.558839
 30
0.0
  0
VERTEX
  5
3A9
330
396
100
AcDbEntity
  8
001
 62
   140
370
    50
100
AcDbVertex
100
AcDb2dVertex
 10
43.703672
 20
63.567778
 30
0.0
  0
VERTEX
  5
3AA
330
396
100
AcDbEntity
  8
001
 62
   140
370
    50
100
AcDbVertex
100
AcDb2dVertex
 10
43.699152
 20
63.573934
 30
0.0
  0
SEQEND
  5
397
330
396
100
AcDbEntity
  8
001
370
    50
  0
LINE
  5
3AB
330
1F
100
AcDbEntity
  8
001
 62
   140
370
    50
100
AcDbLine
 10
43.448327
 20
63.9044
 30
0.0
 11
43.699152
 21
63.573934
 31
0.0
  0
POLYLINE
  5
3AC
330
1F
100
AcDbEntity
  8
001
 62
   140
370
    50
100
AcDb2dPolyline
 66
     1
 10
0.0
 20
0.0
 30
0.0
  0
VERTEX
  5
3AE
330
3AC
100
AcDbEntity
  8
001
 62
   140
370
    50
100
AcDbVertex
100
AcDb2dVertex
 10
43.360137
 20
64.190692
 30
0.0
  0
VERTEX
  5
3AF
330
3AC
100
AcDbEntity
  8
001
 62
   140
370
    50
100
AcDbVertex
100
AcDb2dVertex
 10
43.360894
 20
64.156093
 30
0.0
  0
VERTEX
  5
3B0
330
3AC
100
AcDbEntity
  8
001
 62
   140
370
    50
100
AcDbVertex
100
AcDb2dVertex
 10
43.36492
 20
64.109391
 30
0.0
  0
VERTEX
  5
3B1
330
3AC
100
AcDbEntity
  8
001
 62
   140
370
    50
100
AcDbVertex
100
AcDb2dVertex
 10
43.369401
 20
64.08288
 30
0.0
  0
VERTEX
  5
3B2
330
3AC
100
AcDbEntity
  8
001
 62
   140
370
    50
100
AcDbVertex
100
AcDb2dVertex
 10
43.375436
 20
64.058291
 30
0.0
  0
VERTEX
  5
3B3
330
3AC
100
AcDbEntity
  8
001
 62
   140
370
    50
100
AcDbVertex
100
AcDb2dVertex
 10
43.382944
 20
64.033238
 30
0.0
  0
VERTEX
  5
3B4
330
3AC
100
AcDbEntity
  8
001
 62
   140
370
    50
100
AcDbVertex
100
AcDb2dVertex
 10
43.39138
 20
64.008618
 30
0.0
  0
VERTEX
  5
3B5
330
3AC
100
AcDbEntity
  8
001
 62
   140
370
    50
100
AcDbVertex
100
AcDb2dVertex
 10
43.409905
 20
63.965093
 30
0.0
  0
VERTEX
  5
3B6
330
3AC
100
AcDbEntity
  8
001
 62
   140
370
    50
100
AcDbVertex
100
AcDb2dVertex
 10
43.43747
 20
63.919495
 30
0.0
  0
VERTEX
  5
3B7
330
3AC
100
AcDbEntity
  8
001
 62
   140
370
    50
100
AcDbVertex
100
AcDb2dVertex
 10
43.443807
 20
63.910558
 30
0.0
  0
VERTEX
  5
3B8
330
3AC
100
AcDbEntity
  8
001
 62
   140
370
    50
100
AcDbVertex
100
AcDb2dVertex
 10
43.448327
 20
63.9044
 30
0.0
  0
SEQEND
  5
3AD
330
3AC
100
AcDbEntity
  8
001
370
    50
  0
LINE
  5
3B9
330
1F
100
AcDbEntity
  8
001
 62
   140
370
    50
100
AcDbLine
 10
43.37579
 20
64.623672
 30
0.0
 11
43.360137
 21
64.190692
 31
0.0
  0
POLYLINE
  5
3BA
330
1F
100
AcDbEntity
  8
001
 62
   140
370
    50
100
AcDb2dPolyline
 66
     1
 10
0.0
 20
0.0
 30
0.0
  0
VERTEX
  5
3BC
330
3BA
100
AcDbEntity
  8
001
 62
   140
370
    50
100
AcDbVertex
100
AcDb2dVertex
 10
43.105613
 20
64.999318
 30
0.0
  0
VERTEX
  5
3BD
330
3BA
100
AcDbEntity
  8
001
 62
   140
370
    50
100
AcDbVertex
100
AcDb2dVertex
 10
43.103144
 20
64.998636
 30
0.0
  0
VERTEX
  5
3BE
330
3BA
100
AcDbEntity
  8
001
 62
   140
370
    50
100
AcDbVertex
100
AcDb2dVertex
 10
43.099564
 20
64.997549
 30
0.0
  0
VERTEX
  5
3BF
330
3BA
100
AcDbEntity
  8
001
 62
   140
370
    50
100
AcDbVertex
100
AcDb2dVertex
 10
43.096018
 20
64.996336
 30
0.0
  0
VERTEX
  5
3C0
330
3BA
100
AcDbEntity
  8
001
 62
   140
370
    50
100
AcDbVertex
100
AcDb2dVertex
 10
43.093612
 20
64.995445
 30
0.0
  0
SEQEND
  5
3BB
330
3BA
100
AcDbEntity
  8
001
370
    50
  0
LINE
  5
3C1
330
1F
100
AcDbEntity
  8
001
 62
   140
370
    50
100
AcDbLine
 10
42.827134
 20
64.892931
 30
0.0
 11
43.093612
 21
64.995445
 31
0.0
  0
POLYLINE
  5
3C2
330
1F
100
AcDbEntity
  8
001
 62
   140
370
    50
100
AcDb2dPolyline
 66
     1
 10
0.0
 20
0.0
 30
0.0
  0
VERTEX
  5
3C4
330
3C2
100
AcDbEntity
  8
001
 62
   140
370
    50
100
AcDbVertex
100
AcDb2dVertex
 10
42.633146
 20
64.978413
 30
0.0
  0
VERTEX
  5
3C5
330
3C2
100
AcDbEntity
  8
001
 62
   140
370
    50
100
AcDbVertex
100
AcDb2dVertex
 10
42.665563
 20
64.943238
 30
0.0
  0
VERTEX
  5
3C6
330
3C2
100
AcDbEntity
  8
001
 62
   140
370
    50
100
AcDbVertex
100
AcDb2dVertex
 10
42.715581
 20
64.904474
 30
0.0
  0
VERTEX
  5
3C7
330
3C2
100
AcDbEntity
  8
001
 62
   140
370
    50
100
AcDbVertex
100
AcDb2dVertex
 10
42.732608
 20
64.896312
 30
0.0
  0
VERTEX
  5
3C8
330
3C2
100
AcDbEntity
  8
001
 62
   140
370
    50
100
AcDbVertex
100
AcDb2dVertex
 10
42.749423
 20
64.890511
 30
0.0
  0
VERTEX
  5
3C9
330
3C2
100
AcDbEntity
  8
001
 62
   140
370
    50
100
AcDbVertex
100
AcDb2dVertex
 10
42.765235
 20
64.886729
 30
0.0
  0
VERTEX
  5
3CA
330
3C2
100
AcDbEntity
  8
001
 62
   140
370
    50
100
AcDbVertex
100
AcDb2dVertex
 10
42.782947
 20
64.88532
 30
0.0
  0
VERTEX
  5
3CB
330
3C2
100
AcDbEntity
  8
001
 62
   140
370
    50
100
AcDbVertex
100
AcDb2dVertex
 10
42.801695
 20
64.886715
 30
0.0
  0
VERTEX
  5
3CC
330
3C2
100
AcDbEntity
  8
001
 62
   140
370
    50
100
AcDbVertex
100
AcDb2dVertex
 10
42.815134
 20
64.889059
 30
0.0
  0
SEQEND
  5
3C3
330
3C2
100
AcDbEntity
  8
001
370
    50
  0
LINE
  5
3CD
330
1F
100
AcDbEntity
  8
001
 62
   140
370
    50
100
AcDbLine
 10
42.382321
 20
65.308878
 30
0.0
 11
42.633146
 21
64.978413
 31
0.0
  0
POLYLINE
  5
3CE
330
1F
100
AcDbEntity
  8
001
 62
   140
370
    50
100
AcDb2dPolyline
 66
     1
 10
0.0
 20
0.0
 30
0.0
  0
VERTEX
  5
3D0
330
3CE
100
AcDbEntity
  8
001
 62
   140
370
    50
100
AcDbVertex
100
AcDb2dVertex
 10
42.200334
 20
65.398232
 30
0.0
  0
VERTEX
  5
3D1
330
3CE
100
AcDbEntity
  8
001
 62
   140
370
    50
100
AcDbVertex
100
AcDb2dVertex
 10
42.187475
 20
65.393648
 30
0.0
  0
VERTEX
  5
3D2
330
3CE
100
AcDbEntity
  8
001
 62
   140
370
    50
100
AcDbVertex
100
AcDb2dVertex
 10
42.170462
 20
65.385677
 30
0.0
  0
VERTEX
  5
3D3
330
3CE
100
AcDbEntity
  8
001
 62
   140
370
    50
100
AcDbVertex
100
AcDb2dVertex
 10
42.155741
 20
65.375877
 30
0.0
  0
VERTEX
  5
3D4
330
3CE
100
AcDbEntity
  8
001
 62
   140
370
    50
100
AcDbVertex
100
AcDb2dVertex
 10
42.143813
 20
65.364686
 30
0.0
  0
VERTEX
  5
3D5
330
3CE
100
AcDbEntity
  8
001
 62
   140
370
    50
100
AcDbVertex
100
AcDb2dVertex
 10
42.131963
 20
65.350823
 30
0.0
  0
VERTEX
  5
3D6
330
3CE
100
AcDbEntity
  8
001
 62
   140
370
    50
100
AcDbVertex
100
AcDb2dVertex
 10
42.121197
 20
65.335898
 30
0.0
  0
VERTEX
  5
3D7
330
3CE
100
AcDbEntity
  8
001
 62
   140
370
    50
100
AcDbVertex
100
AcDb2dVertex
 10
42.095074
 20
65.28055
 30
0.0
  0
VERTEX
  5
3D8
330
3CE
100
AcDbEntity
  8
001
 62
   140
370
    50
100
AcDbVertex
100
AcDb2dVertex
 10
42.083679
 20
65.212517
 30
0.0
  0
VERTEX
  5
3D9
330
3CE
100
AcDbEntity
  8
001
 62
   140
370
    50
100
AcDbVertex
100
AcDb2dVertex
 10
42.082932
 20
65.201326
 30
0.0
  0
VERTEX
  5
3DA
330
3CE
100
AcDbEntity
  8
001
 62
   140
370
    50
100
AcDbVertex
100
AcDb2dVertex
 10
42.082535
 20
65.19355
 30
0.0
  0
SEQEND
  5
3CF
330
3CE
100
AcDbEntity
  8
001
370
    50
  0
LINE
  5
3DB
330
1F
100
AcDbEntity
  8
001
 62
   140
370
    50
100
AcDbLine
 10
42.066882
 20
64.76057
 30
0.0
 11
42.082535
 21
65.19355
 31
0.0
  0
POLYLINE
  5
3DC
330
1F
100
AcDbEntity
  8
001
 62
   140
370
    50
100
AcDb2dPolyline
 66
     1
 10
0.0
 20
0.0
 30
0.0
  0
VERTEX
  5
3DE
330
3DC
100
AcDbEntity
  8
001
 62
   140
370
    50
100
AcDbVertex
100
AcDb2dVertex
 10
41.961084
 20
64.55976
 30
0.0
  0
VERTEX
  5
3DF
330
3DC
100
AcDbEntity
  8
001
 62
   140
370
    50
100
AcDbVertex
100
AcDb2dVertex
 10
41.968653
 20
64.563132
 30
0.0
  0
VERTEX
  5
3E0
330
3DC
100
AcDbEntity
  8
001
 62
   140
370
    50
100
AcDbVertex
100
AcDb2dVertex
 10
41.978955
 20
64.568443
 30
0.0
  0
VERTEX
  5
3E1
330
3DC
100
AcDbEntity
  8
001
 62
   140
370
    50
100
AcDbVertex
100
AcDb2dVertex
 10
41.993788
 20
64.578378
 30
0.0
  0
VERTEX
  5
3E2
330
3DC
100
AcDbEntity
  8
001
 62
   140
370
    50
100
AcDbVertex
100
AcDb2dVertex
 10
42.005604
 20
64.589434
 30
0.0
  0
VERTEX
  5
3E3
330
3DC
100
AcDbEntity
  8
001
 62
   140
370
    50
100
AcDbVertex
100
AcDb2dVertex
 10
42.017416
 20
64.603251
 30
0.0
  0
VERTEX
  5
3E4
330
3DC
100
AcDbEntity
  8
001
 62
   140
370
    50
100
AcDbVertex
100
AcDb2dVertex
 10
42.02822
 20
64.618221
 30
0.0
  0
VERTEX
  5
3E5
330
3DC
100
AcDbEntity
  8
001
 62
   140
370
    50
100
AcDbVertex
100
AcDb2dVertex
 10
42.054382
 20
64.673618
 30
0.0
  0
VERTEX
  5
3E6
330
3DC
100
AcDbEntity
  8
001
 62
   140
370
    50
100
AcDbVertex
100
AcDb2dVertex
 10
42.065738
 20
64.741602
 30
0.0
  0
VERTEX
  5
3E7
330
3DC
100
AcDbEntity
  8
001
 62
   140
370
    50
100
AcDbVertex
100
AcDb2dVertex
 10
42.066485
 20
64.752793
 30
0.0
  0
VERTEX
  5
3E8
330
3DC
100
AcDbEntity
  8
001
 62
   140
370
    50
100
AcDbVertex
100
AcDb2dVertex
 10
42.066882
 20
64.76057
 30
0.0
  0
SEQEND
  5
3DD
330
3DC
100
AcDbEntity
  8
001
370
    50
  0
LINE
  5
3E9
330
1F
100
AcDbEntity
  8
001
 62
   140
370
    50
100
AcDbLine
 10
41.694607
 20
64.457245
 30
0.0
 11
41.961084
 21
64.55976
 31
0.0
  0
POLYLINE
  5
3EA
330
1F
100
AcDbEntity
  8
001
 62
   140
370
    50
100
AcDb2dPolyline
 66
     1
 10
0.0
 20
0.0
 30
0.0
  0
VERTEX
  5
3EC
330
3EA
100
AcDbEntity
  8
001
 62
   140
370
    50
100
AcDbVertex
100
AcDb2dVertex
 10
41.694607
 20
64.457245
 30
0.0
  0
VERTEX
  5
3ED
330
3EA
100
AcDbEntity
  8
001
 62
   140
370
    50
100
AcDbVertex
100
AcDb2dVertex
 10
41.687038
 20
64.453876
 30
0.0
  0
VERTEX
  5
3EE
330
3EA
100
AcDbEntity
  8
001
 62
   140
370
    50
100
AcDbVertex
100
AcDb2dVertex
 10
41.676736
 20
64.448562
 30
0.0
  0
VERTEX
  5
3EF
330
3EA
100
AcDbEntity
  8
001
 62
   140
370
    50
100
AcDbVertex
100
AcDb2dVertex
 10
41.661901
 20
64.438594
 30
0.0
  0
VERTEX
  5
3F0
330
3EA
100
AcDbEntity
  8
001
 62
   140
370
    50
100
AcDbVertex
100
AcDb2dVertex
 10
41.650087
 20
64.427571
 30
0.0
  0
VERTEX
  5
3F1
330
3EA
100
AcDbEntity
  8
001
 62
   140
370
    50
100
AcDbVertex
100
AcDb2dVertex
 10
41.638282
 20
64.413902
 30
0.0
  0
VERTEX
  5
3F2
330
3EA
100
AcDbEntity
  8
001
 62
   140
370
    50
100
AcDbVertex
100
AcDb2dVertex
 10
41.62747
 20
64.398784
 30
0.0
  0
VERTEX
  5
3F3
330
3EA
100
AcDbEntity
  8
001
 62
   140
370
    50
100
AcDbVertex
100
AcDb2dVertex
 10
41.601109
 20
64.339561
 30
0.0
  0
VERTEX
  5
3F4
330
3EA
100
AcDbEntity
  8
001
 62
   140
370
    50
100
AcDbVertex
100
AcDb2dVertex
 10
41.589952
 20
64.275403
 30
0.0
  0
VERTEX
  5
3F5
330
3EA
100
AcDbEntity
  8
001
 62
   140
370
    50
100
AcDbVertex
100
AcDb2dVertex
 10
41.588937
 20
64.225006
 30
0.0
  0
VERTEX
  5
3F6
330
3EA
100
AcDbEntity
  8
001
 62
   140
370
    50
100
AcDbVertex
100
AcDb2dVertex
 10
41.593591
 20
64.175134
 30
0.0
  0
VERTEX
  5
3F7
330
3EA
100
AcDbEntity
  8
001
 62
   140
370
    50
100
AcDbVertex
100
AcDb2dVertex
 10
41.598097
 20
64.149521
 30
0.0
  0
VERTEX
  5
3F8
330
3EA
100
AcDbEntity
  8
001
 62
   140
370
    50
100
AcDbVertex
100
AcDb2dVertex
 10
41.604106
 20
64.124035
 30
0.0
  0
VERTEX
  5
3F9
330
3EA
100
AcDbEntity
  8
001
 62
   140
370
    50
100
AcDbVertex
100
AcDb2dVertex
 10
41.611608
 20
64.098725
 30
0.0
  0
VERTEX
  5
3FA
330
3EA
100
AcDbEntity
  8
001
 62
   140
370
    50
100
AcDbVertex
100
AcDb2dVertex
 10
41.620051
 20
64.074361
 30
0.0
  0
VERTEX
  5
3FB
330
3EA
100
AcDbEntity
  8
001
 62
   140
370
    50
100
AcDbVertex
100
AcDb2dVertex
 10
41.63858
 20
64.030969
 30
0.0
  0
VERTEX
  5
3FC
330
3EA
100
AcDbEntity
  8
001
 62
   140
370
    50
100
AcDbVertex
100
AcDb2dVertex
 10
41.666141
 20
63.985238
 30
0.0
  0
VERTEX
  5
3FD
330
3EA
100
AcDbEntity
  8
001
 62
   140
370
    50
100
AcDbVertex
100
AcDb2dVertex
 10
41.672478
 20
63.976299
 30
0.0
  0
VERTEX
  5
3FE
330
3EA
100
AcDbEntity
  8
001
 62
   140
370
    50
100
AcDbVertex
100
AcDb2dVertex
 10
41.676998
 20
63.970143
 30
0.0
  0
SEQEND
  5
3EB
330
3EA
100
AcDbEntity
  8
001
370
    50
  0
LINE
  5
3FF
330
1F
100
AcDbEntity
  8
001
 62
   140
370
    50
100
AcDbLine
 10
41.927823
 20
63.639678
 30
0.0
 11
41.676998
 21
63.970143
 31
0.0
  0
POLYLINE
  5
400
330
1F
100
AcDbEntity
  8
001
 62
   140
370
    50
100
AcDb2dPolyline
 66
     1
 10
0.0
 20
0.0
 30
0.0
  0
VERTEX
  5
402
330
400
100
AcDbEntity
  8
001
 62
   140
370
    50
100
AcDbVertex
100
AcDb2dVertex
 10
42.016012
 20
63.353386
 30
0.0
  0
VERTEX
  5
403
330
400
100
AcDbEntity
  8
001
 62
   140
370
    50
100
AcDbVertex
100
AcDb2dVertex
 10
42.015255
 20
63.387985
 30
0.0
  0
VERTEX
  5
404
330
400
100
AcDbEntity
  8
001
 62
   140
370
    50
100
AcDbVertex
100
AcDb2dVertex
 10
42.011229
 20
63.434687
 30
0.0
  0
VERTEX
  5
405
330
400
100
AcDbEntity
  8
001
 62
   140
370
    50
100
AcDbVertex
100
AcDb2dVertex
 10
42.006748
 20
63.461197
 30
0.0
  0
VERTEX
  5
406
330
400
100
AcDbEntity
  8
001
 62
   140
370
    50
100
AcDbVertex
100
AcDb2dVertex
 10
42.000714
 20
63.485786
 30
0.0
  0
VERTEX
  5
407
330
400
100
AcDbEntity
  8
001
 62
   140
370
    50
100
AcDbVertex
100
AcDb2dVertex
 10
41.993205
 20
63.51084
 30
0.0
  0
VERTEX
  5
408
330
400
100
AcDbEntity
  8
001
 62
   140
370
    50
100
AcDbVertex
100
AcDb2dVertex
 10
41.984769
 20
63.53546
 30
0.0
  0
VERTEX
  5
409
330
400
100
AcDbEntity
  8
001
 62
   140
370
    50
100
AcDbVertex
100
AcDb2dVertex
 10
41.966244
 20
63.578984
 30
0.0
  0
VERTEX
  5
40A
330
400
100
AcDbEntity
  8
001
 62
   140
370
    50
100
AcDbVertex
100
AcDb2dVertex
 10
41.93868
 20
63.624582
 30
0.0
  0
VERTEX
  5
40B
330
400
100
AcDbEntity
  8
001
 62
   140
370
    50
100
AcDbVertex
100
AcDb2dVertex
 10
41.932343
 20
63.63352
 30
0.0
  0
VERTEX
  5
40C
330
400
100
AcDbEntity
  8
001
 62
   140
370
    50
100
AcDbVertex
100
AcDb2dVertex
 10
41.927823
 20
63.639678
 30
0.0
  0
SEQEND
  5
401
330
400
100
AcDbEntity
  8
001
370
    50
  0
LINE
  5
40D
330
1F
100
AcDbEntity
  8
001
 62
   140
370
    50
100
AcDbLine
 10
42.00036
 20
62.920406
 30
0.0
 11
42.016012
 21
63.353386
 31
0.0
  0
POLYLINE
  5
40E
330
1F
100
AcDbEntity
  8
001
 62
   140
370
    50
100
AcDb2dPolyline
 66
     1
 10
0.0
 20
0.0
 30
0.0
  0
VERTEX
  5
410
330
40E
100
AcDbEntity
  8
001
 62
   140
370
    50
100
AcDbVertex
100
AcDb2dVertex
 10
42.79377
 20
66.582543
 30
0.0
  0
VERTEX
  5
411
330
40E
100
AcDbEntity
  8
001
 62
   140
370
    50
100
AcDbVertex
100
AcDb2dVertex
 10
42.771099
 20
66.583912
 30
0.0
  0
VERTEX
  5
412
330
40E
100
AcDbEntity
  8
001
 62
   140
370
    50
100
AcDbVertex
100
AcDb2dVertex
 10
42.737949
 20
66.585157
 30
0.0
  0
VERTEX
  5
413
330
40E
100
AcDbEntity
  8
001
 62
   140
370
    50
100
AcDbVertex
100
AcDb2dVertex
 10
42.562014
 20
66.573726
 30
0.0
  0
VERTEX
  5
414
330
40E
100
AcDbEntity
  8
001
 62
   140
370
    50
100
AcDbVertex
100
AcDb2dVertex
 10
42.442904
 20
66.550882
 30
0.0
  0
SEQEND
  5
40F
330
40E
100
AcDbEntity
  8
001
370
    50
  0
POLYLINE
  5
415
330
1F
100
AcDbEntity
  8
001
 62
   140
370
    50
100
AcDb2dPolyline
 66
     1
 10
0.0
 20
0.0
 30
0.0
  0
VERTEX
  5
417
330
415
100
AcDbEntity
  8
001
 62
   140
370
    50
100
AcDbVertex
100
AcDb2dVertex
 10
43.37579
 20
64.623672
 30
0.0
  0
VERTEX
  5
418
330
415
100
AcDbEntity
  8
001
 62
   140
370
    50
100
AcDbVertex
100
AcDb2dVertex
 10
43.375052
 20
64.658245
 30
0.0
  0
VERTEX
  5
419
330
415
100
AcDbEntity
  8
001
 62
   140
370
    50
100
AcDbVertex
100
AcDb2dVertex
 10
43.371006
 20
64.704973
 30
0.0
  0
VERTEX
  5
41A
330
415
100
AcDbEntity
  8
001
 62
   140
370
    50
100
AcDbVertex
100
AcDb2dVertex
 10
43.36647
 20
64.731553
 30
0.0
  0
VERTEX
  5
41B
330
415
100
AcDbEntity
  8
001
 62
   140
370
    50
100
AcDbVertex
100
AcDb2dVertex
 10
43.360491
 20
64.756072
 30
0.0
  0
VERTEX
  5
41C
330
415
100
AcDbEntity
  8
001
 62
   140
370
    50
100
AcDbVertex
100
AcDb2dVertex
 10
43.353181
 20
64.780873
 30
0.0
  0
VERTEX
  5
41D
330
415
100
AcDbEntity
  8
001
 62
   140
370
    50
100
AcDbVertex
100
AcDb2dVertex
 10
43.344546
 20
64.805746
 30
0.0
  0
VERTEX
  5
41E
330
415
100
AcDbEntity
  8
001
 62
   140
370
    50
100
AcDbVertex
100
AcDb2dVertex
 10
43.324126
 20
64.85169
 30
0.0
  0
VERTEX
  5
41F
330
415
100
AcDbEntity
  8
001
 62
   140
370
    50
100
AcDbVertex
100
AcDb2dVertex
 10
43.298457
 20
64.894868
 30
0.0
  0
VERTEX
  5
420
330
415
100
AcDbEntity
  8
001
 62
   140
370
    50
100
AcDbVertex
100
AcDb2dVertex
 10
43.257147
 20
64.945223
 30
0.0
  0
VERTEX
  5
421
330
415
100
AcDbEntity
  8
001
 62
   140
370
    50
100
AcDbVertex
100
AcDb2dVertex
 10
43.205165
 20
64.983902
 30
0.0
  0
VERTEX
  5
422
330
415
100
AcDbEntity
  8
001
 62
   140
370
    50
100
AcDbVertex
100
AcDb2dVertex
 10
43.188376
 20
64.991741
 30
0.0
  0
VERTEX
  5
423
330
415
100
AcDbEntity
  8
001
 62
   140
370
    50
100
AcDbVertex
100
AcDb2dVertex
 10
43.171323
 20
64.997866
 30
0.0
  0
VERTEX
  5
424
330
415
100
AcDbEntity
  8
001
 62
   140
370
    50
100
AcDbVertex
100
AcDb2dVertex
 10
43.155455
 20
65.001724
 30
0.0
  0
VERTEX
  5
425
330
415
100
AcDbEntity
  8
001
 62
   140
370
    50
100
AcDbVertex
100
AcDb2dVertex
 10
43.137799
 20
65.003057
 30
0.0
  0
VERTEX
  5
426
330
415
100
AcDbEntity
  8
001
 62
   140
370
    50
100
AcDbVertex
100
AcDb2dVertex
 10
43.119062
 20
65.001647
 30
0.0
  0
VERTEX
  5
427
330
415
100
AcDbEntity
  8
001
 62
   140
370
    50
100
AcDbVertex
100
AcDb2dVertex
 10
43.105613
 20
64.999318
 30
0.0
  0
SEQEND
  5
416
330
415
100
AcDbEntity
  8
001
370
    50
  0
POLYLINE
  5
428
330
1F
100
AcDbEntity
  8
001
 62
   140
370
    50
100
AcDb2dPolyline
 66
     1
 10
0.0
 20
0.0
 30
0.0
  0
VERTEX
  5
42A
330
428
100
AcDbEntity
  8
001
 62
   140
370
    50
100
AcDbVertex
100
AcDb2dVertex
 10
42.815134
 20
64.889059
 30
0.0
  0
VERTEX
  5
42B
330
428
100
AcDbEntity
  8
001
 62
   140
370
    50
100
AcDbVertex
100
AcDb2dVertex
 10
42.817602
 20
64.889741
 30
0.0
  0
VERTEX
  5
42C
330
428
100
AcDbEntity
  8
001
 62
   140
370
    50
100
AcDbVertex
100
AcDb2dVertex
 10
42.821182
 20
64.890827
 30
0.0
  0
VERTEX
  5
42D
330
428
100
AcDbEntity
  8
001
 62
   140
370
    50
100
AcDbVertex
100
AcDb2dVertex
 10
42.824729
 20
64.89204
 30
0.0
  0
VERTEX
  5
42E
330
428
100
AcDbEntity
  8
001
 62
   140
370
    50
100
AcDbVertex
100
AcDb2dVertex
 10
42.827134
 20
64.892931
 30
0.0
  0
SEQEND
  5
429
330
428
100
AcDbEntity
  8
001
370
    50
  0
LINE
  5
42F
330
1F
100
AcDbEntity
  8
001
 62
   140
370
    50
100
AcDbLine
 10
42.815134
 20
64.889059
 30
0.0
 11
43.195289
 21
64.988877
 31
0.0
  0
POLYLINE
  5
430
330
1F
100
AcDbEntity
  8
001
 62
   140
370
    50
100
AcDb2dPolyline
 66
     1
 10
0.0
 20
0.0
 30
0.0
  0
VERTEX
  5
432
330
430
100
AcDbEntity
  8
001
 62
   140
370
    50
100
AcDbVertex
100
AcDb2dVertex
 10
43.159092
 20
63.653525
 30
0.0
  0
VERTEX
  5
433
330
430
100
AcDbEntity
  8
001
 62
   140
370
    50
100
AcDbVertex
100
AcDb2dVertex
 10
43.158334
 20
63.688124
 30
0.0
  0
VERTEX
  5
434
330
430
100
AcDbEntity
  8
001
 62
   140
370
    50
100
AcDbVertex
100
AcDb2dVertex
 10
43.154309
 20
63.734827
 30
0.0
  0
VERTEX
  5
435
330
430
100
AcDbEntity
  8
001
 62
   140
370
    50
100
AcDbVertex
100
AcDb2dVertex
 10
43.149828
 20
63.761337
 30
0.0
  0
VERTEX
  5
436
330
430
100
AcDbEntity
  8
001
 62
   140
370
    50
100
AcDbVertex
100
AcDb2dVertex
 10
43.143793
 20
63.785926
 30
0.0
  0
VERTEX
  5
437
330
430
100
AcDbEntity
  8
001
 62
   140
370
    50
100
AcDbVertex
100
AcDb2dVertex
 10
43.136285
 20
63.810979
 30
0.0
  0
VERTEX
  5
438
330
430
100
AcDbEntity
  8
001
 62
   140
370
    50
100
AcDbVertex
100
AcDb2dVertex
 10
43.127848
 20
63.8356
 30
0.0
  0
VERTEX
  5
439
330
430
100
AcDbEntity
  8
001
 62
   140
370
    50
100
AcDbVertex
100
AcDb2dVertex
 10
43.109324
 20
63.879124
 30
0.0
  0
VERTEX
  5
43A
330
430
100
AcDbEntity
  8
001
 62
   140
370
    50
100
AcDbVertex
100
AcDb2dVertex
 10
43.081759
 20
63.924722
 30
0.0
  0
VERTEX
  5
43B
330
430
100
AcDbEntity
  8
001
 62
   140
370
    50
100
AcDbVertex
100
AcDb2dVertex
 10
43.075422
 20
63.93366
 30
0.0
  0
VERTEX
  5
43C
330
430
100
AcDbEntity
  8
001
 62
   140
370
    50
100
AcDbVertex
100
AcDb2dVertex
 10
43.070902
 20
63.939817
 30
0.0
  0
SEQEND
  5
431
330
430
100
AcDbEntity
  8
001
370
    50
  0
LINE
  5
43D
330
1F
100
AcDbEntity
  8
001
 62
   140
370
    50
100
AcDbLine
 10
43.070902
 20
63.939817
 30
0.0
 11
42.820077
 21
64.270283
 31
0.0
  0
POLYLINE
  5
43E
330
1F
100
AcDbEntity
  8
001
 62
   140
370
    50
100
AcDb2dPolyline
 66
     1
 10
0.0
 20
0.0
 30
0.0
  0
VERTEX
  5
440
330
43E
100
AcDbEntity
  8
001
 62
   140
370
    50
100
AcDbVertex
100
AcDb2dVertex
 10
42.837686
 20
64.757385
 30
0.0
  0
VERTEX
  5
441
330
43E
100
AcDbEntity
  8
001
 62
   140
370
    50
100
AcDbVertex
100
AcDb2dVertex
 10
42.830117
 20
64.754016
 30
0.0
  0
VERTEX
  5
442
330
43E
100
AcDbEntity
  8
001
 62
   140
370
    50
100
AcDbVertex
100
AcDb2dVertex
 10
42.819815
 20
64.748702
 30
0.0
  0
VERTEX
  5
443
330
43E
100
AcDbEntity
  8
001
 62
   140
370
    50
100
AcDbVertex
100
AcDb2dVertex
 10
42.80498
 20
64.738733
 30
0.0
  0
VERTEX
  5
444
330
43E
100
AcDbEntity
  8
001
 62
   140
370
    50
100
AcDbVertex
100
AcDb2dVertex
 10
42.793166
 20
64.727711
 30
0.0
  0
VERTEX
  5
445
330
43E
100
AcDbEntity
  8
001
 62
   140
370
    50
100
AcDbVertex
100
AcDb2dVertex
 10
42.781361
 20
64.714042
 30
0.0
  0
VERTEX
  5
446
330
43E
100
AcDbEntity
  8
001
 62
   140
370
    50
100
AcDbVertex
100
AcDb2dVertex
 10
42.770549
 20
64.698923
 30
0.0
  0
VERTEX
  5
447
330
43E
100
AcDbEntity
  8
001
 62
   140
370
    50
100
AcDbVertex
100
AcDb2dVertex
 10
42.744188
 20
64.639701
 30
0.0
  0
VERTEX
  5
448
330
43E
100
AcDbEntity
  8
001
 62
   140
370
    50
100
AcDbVertex
100
AcDb2dVertex
 10
42.733031
 20
64.575542
 30
0.0
  0
VERTEX
  5
449
330
43E
100
AcDbEntity
  8
001
 62
   140
370
    50
100
AcDbVertex
100
AcDb2dVertex
 10
42.732016
 20
64.525145
 30
0.0
  0
VERTEX
  5
44A
330
43E
100
AcDbEntity
  8
001
 62
   140
370
    50
100
AcDbVertex
100
AcDb2dVertex
 10
42.73667
 20
64.475274
 30
0.0
  0
VERTEX
  5
44B
330
43E
100
AcDbEntity
  8
001
 62
   140
370
    50
100
AcDbVertex
100
AcDb2dVertex
 10
42.741177
 20
64.44966
 30
0.0
  0
VERTEX
  5
44C
330
43E
100
AcDbEntity
  8
001
 62
   140
370
    50
100
AcDbVertex
100
AcDb2dVertex
 10
42.747186
 20
64.424174
 30
0.0
  0
VERTEX
  5
44D
330
43E
100
AcDbEntity
  8
001
 62
   140
370
    50
100
AcDbVertex
100
AcDb2dVertex
 10
42.754687
 20
64.398864
 30
0.0
  0
VERTEX
  5
44E
330
43E
100
AcDbEntity
  8
001
 62
   140
370
    50
100
AcDbVertex
100
AcDb2dVertex
 10
42.763131
 20
64.374501
 30
0.0
  0
VERTEX
  5
44F
330
43E
100
AcDbEntity
  8
001
 62
   140
370
    50
100
AcDbVertex
100
AcDb2dVertex
 10
42.781659
 20
64.331109
 30
0.0
  0
VERTEX
  5
450
330
43E
100
AcDbEntity
  8
001
 62
   140
370
    50
100
AcDbVertex
100
AcDb2dVertex
 10
42.80922
 20
64.285378
 30
0.0
  0
VERTEX
  5
451
330
43E
100
AcDbEntity
  8
001
 62
   140
370
    50
100
AcDbVertex
100
AcDb2dVertex
 10
42.815557
 20
64.276439
 30
0.0
  0
VERTEX
  5
452
330
43E
100
AcDbEntity
  8
001
 62
   140
370
    50
100
AcDbVertex
100
AcDb2dVertex
 10
42.820077
 20
64.270283
 30
0.0
  0
SEQEND
  5
43F
330
43E
100
AcDbEntity
  8
001
370
    50
  0
LINE
  5
453
330
1F
100
AcDbEntity
  8
001
 62
   140
370
    50
100
AcDbLine
 10
42.837686
 20
64.757385
 30
0.0
 11
43.104163
 21
64.859899
 31
0.0
  0
POLYLINE
  5
454
330
1F
100
AcDbEntity
  8
001
 62
   140
370
    50
100
AcDb2dPolyline
 66
     1
 10
0.0
 20
0.0
 30
0.0
  0
VERTEX
  5
456
330
454
100
AcDbEntity
  8
001
 62
   140
370
    50
100
AcDbVertex
100
AcDb2dVertex
 10
43.104163
 20
64.859899
 30
0.0
  0
VERTEX
  5
457
330
454
100
AcDbEntity
  8
001
 62
   140
370
    50
100
AcDbVertex
100
AcDb2dVertex
 10
43.11173
 20
64.863258
 30
0.0
  0
VERTEX
  5
458
330
454
100
AcDbEntity
  8
001
 62
   140
370
    50
100
AcDbVertex
100
AcDb2dVertex
 10
43.122034
 20
64.868583
 30
0.0
  0
VERTEX
  5
459
330
454
100
AcDbEntity
  8
001
 62
   140
370
    50
100
AcDbVertex
100
AcDb2dVertex
 10
43.136891
 20
64.87866
 30
0.0
  0
VERTEX
  5
45A
330
454
100
AcDbEntity
  8
001
 62
   140
370
    50
100
AcDbVertex
100
AcDb2dVertex
 10
43.148683
 20
64.889573
 30
0.0
  0
VERTEX
  5
45B
330
454
100
AcDbEntity
  8
001
 62
   140
370
    50
100
AcDbVertex
100
AcDb2dVertex
 10
43.16039
 20
64.902749
 30
0.0
  0
VERTEX
  5
45C
330
454
100
AcDbEntity
  8
001
 62
   140
370
    50
100
AcDbVertex
100
AcDb2dVertex
 10
43.1713
 20
64.918361
 30
0.0
  0
VERTEX
  5
45D
330
454
100
AcDbEntity
  8
001
 62
   140
370
    50
100
AcDbVertex
100
AcDb2dVertex
 10
43.190321
 20
64.95872
 30
0.0
  0
VERTEX
  5
45E
330
454
100
AcDbEntity
  8
001
 62
   140
370
    50
100
AcDbVertex
100
AcDb2dVertex
 10
43.200583
 20
64.990267
 30
0.0
  0
SEQEND
  5
455
330
454
100
AcDbEntity
  8
001
370
    50
  0
LINE
  5
45F
330
1F
100
AcDbEntity
  8
001
 62
   140
370
    50
100
AcDbLine
 10
43.143439
 20
63.220546
 30
0.0
 11
43.159092
 21
63.653525
 31
0.0
  0
POLYLINE
  5
460
330
1F
100
AcDbEntity
  8
001
 62
   140
370
    50
100
AcDb2dPolyline
 66
     1
 10
0.0
 20
0.0
 30
0.0
  0
VERTEX
  5
462
330
460
100
AcDbEntity
  8
001
 62
   140
370
    50
100
AcDbVertex
100
AcDb2dVertex
 10
42.993828
 20
62.235199
 30
0.0
  0
VERTEX
  5
463
330
460
100
AcDbEntity
  8
001
 62
   140
370
    50
100
AcDbVertex
100
AcDb2dVertex
 10
43.026244
 20
62.200025
 30
0.0
  0
VERTEX
  5
464
330
460
100
AcDbEntity
  8
001
 62
   140
370
    50
100
AcDbVertex
100
AcDb2dVertex
 10
43.076263
 20
62.161261
 30
0.0
  0
VERTEX
  5
465
330
460
100
AcDbEntity
  8
001
 62
   140
370
    50
100
AcDbVertex
100
AcDb2dVertex
 10
43.093289
 20
62.153098
 30
0.0
  0
VERTEX
  5
466
330
460
100
AcDbEntity
  8
001
 62
   140
370
    50
100
AcDbVertex
100
AcDb2dVertex
 10
43.110105
 20
62.147297
 30
0.0
  0
VERTEX
  5
467
330
460
100
AcDbEntity
  8
001
 62
   140
370
    50
100
AcDbVertex
100
AcDb2dVertex
 10
43.125917
 20
62.143516
 30
0.0
  0
VERTEX
  5
468
330
460
100
AcDbEntity
  8
001
 62
   140
370
    50
100
AcDbVertex
100
AcDb2dVertex
 10
43.143629
 20
62.142106
 30
0.0
  0
VERTEX
  5
469
330
460
100
AcDbEntity
  8
001
 62
   140
370
    50
100
AcDbVertex
100
AcDb2dVertex
 10
43.162377
 20
62.143501
 30
0.0
  0
VERTEX
  5
46A
330
460
100
AcDbEntity
  8
001
 62
   140
370
    50
100
AcDbVertex
100
AcDb2dVertex
 10
43.175815
 20
62.145845
 30
0.0
  0
SEQEND
  5
461
330
460
100
AcDbEntity
  8
001
370
    50
  0
POLYLINE
  5
46B
330
1F
100
AcDbEntity
  8
001
 62
   140
370
    50
100
AcDb2dPolyline
 66
     1
 10
0.0
 20
0.0
 30
0.0
  0
VERTEX
  5
46D
330
46B
100
AcDbEntity
  8
001
 62
   140
370
    50
100
AcDbVertex
100
AcDb2dVertex
 10
42.382321
 20
65.308878
 30
0.0
  0
VERTEX
  5
46E
330
46B
100
AcDbEntity
  8
001
 62
   140
370
    50
100
AcDbVertex
100
AcDb2dVertex
 10
42.349905
 20
65.344053
 30
0.0
  0
VERTEX
  5
46F
330
46B
100
AcDbEntity
  8
001
 62
   140
370
    50
100
AcDbVertex
100
AcDb2dVertex
 10
42.299886
 20
65.382817
 30
0.0
  0
VERTEX
  5
470
330
46B
100
AcDbEntity
  8
001
 62
   140
370
    50
100
AcDbVertex
100
AcDb2dVertex
 10
42.28286
 20
65.390979
 30
0.0
  0
VERTEX
  5
471
330
46B
100
AcDbEntity
  8
001
 62
   140
370
    50
100
AcDbVertex
100
AcDb2dVertex
 10
42.266044
 20
65.39678
 30
0.0
  0
VERTEX
  5
472
330
46B
100
AcDbEntity
  8
001
 62
   140
370
    50
100
AcDbVertex
100
AcDb2dVertex
 10
42.250232
 20
65.400562
 30
0.0
  0
VERTEX
  5
473
330
46B
100
AcDbEntity
  8
001
 62
   140
370
    50
100
AcDbVertex
100
AcDb2dVertex
 10
42.232521
 20
65.401971
 30
0.0
  0
VERTEX
  5
474
330
46B
100
AcDbEntity
  8
001
 62
   140
370
    50
100
AcDbVertex
100
AcDb2dVertex
 10
42.213773
 20
65.400576
 30
0.0
  0
VERTEX
  5
475
330
46B
100
AcDbEntity
  8
001
 62
   140
370
    50
100
AcDbVertex
100
AcDb2dVertex
 10
42.200334
 20
65.398232
 30
0.0
  0
SEQEND
  5
46C
330
46B
100
AcDbEntity
  8
001
370
    50
  0
POLYLINE
  5
476
330
1F
100
AcDbEntity
  8
001
 62
   140
370
    50
100
AcDb2dPolyline
 66
     1
 10
0.0
 20
0.0
 30
0.0
  0
VERTEX
  5
478
330
476
100
AcDbEntity
  8
001
 62
   140
370
    50
100
AcDbVertex
100
AcDb2dVertex
 10
42.561016
 20
62.655019
 30
0.0
  0
VERTEX
  5
479
330
476
100
AcDbEntity
  8
001
 62
   140
370
    50
100
AcDbVertex
100
AcDb2dVertex
 10
42.558548
 20
62.654337
 30
0.0
  0
VERTEX
  5
47A
330
476
100
AcDbEntity
  8
001
 62
   140
370
    50
100
AcDbVertex
100
AcDb2dVertex
 10
42.554968
 20
62.65325
 30
0.0
  0
VERTEX
  5
47B
330
476
100
AcDbEntity
  8
001
 62
   140
370
    50
100
AcDbVertex
100
AcDb2dVertex
 10
42.551421
 20
62.652037
 30
0.0
  0
VERTEX
  5
47C
330
476
100
AcDbEntity
  8
001
 62
   140
370
    50
100
AcDbVertex
100
AcDb2dVertex
 10
42.549015
 20
62.651147
 30
0.0
  0
SEQEND
  5
477
330
476
100
AcDbEntity
  8
001
370
    50
  0
LINE
  5
47D
330
1F
100
AcDbEntity
  8
001
 62
   140
370
    50
100
AcDbLine
 10
43.318646
 20
62.853951
 30
0.0
 11
42.561016
 21
62.655019
 31
0.0
  0
POLYLINE
  5
47E
330
1F
100
AcDbEntity
  8
001
 62
   140
370
    50
100
AcDb2dPolyline
 66
     1
 10
0.0
 20
0.0
 30
0.0
  0
VERTEX
  5
480
330
47E
100
AcDbEntity
  8
001
 62
   140
370
    50
100
AcDbVertex
100
AcDb2dVertex
 10
43.143439
 20
63.220546
 30
0.0
  0
VERTEX
  5
481
330
47E
100
AcDbEntity
  8
001
 62
   140
370
    50
100
AcDbVertex
100
AcDb2dVertex
 10
43.144169
 20
63.185976
 30
0.0
  0
VERTEX
  5
482
330
47E
100
AcDbEntity
  8
001
 62
   140
370
    50
100
AcDbVertex
100
AcDb2dVertex
 10
43.148222
 20
63.139244
 30
0.0
  0
VERTEX
  5
483
330
47E
100
AcDbEntity
  8
001
 62
   140
370
    50
100
AcDbVertex
100
AcDb2dVertex
 10
43.152778
 20
63.112653
 30
0.0
  0
VERTEX
  5
484
330
47E
100
AcDbEntity
  8
001
 62
   140
370
    50
100
AcDbVertex
100
AcDb2dVertex
 10
43.158738
 20
63.088145
 30
0.0
  0
VERTEX
  5
485
330
47E
100
AcDbEntity
  8
001
 62
   140
370
    50
100
AcDbVertex
100
AcDb2dVertex
 10
43.165977
 20
63.063384
 30
0.0
  0
VERTEX
  5
486
330
47E
100
AcDbEntity
  8
001
 62
   140
370
    50
100
AcDbVertex
100
AcDb2dVertex
 10
43.174682
 20
63.038471
 30
0.0
  0
VERTEX
  5
487
330
47E
100
AcDbEntity
  8
001
 62
   140
370
    50
100
AcDbVertex
100
AcDb2dVertex
 10
43.195781
 20
62.992144
 30
0.0
  0
VERTEX
  5
488
330
47E
100
AcDbEntity
  8
001
 62
   140
370
    50
100
AcDbVertex
100
AcDb2dVertex
 10
43.220772
 20
62.949349
 30
0.0
  0
VERTEX
  5
489
330
47E
100
AcDbEntity
  8
001
 62
   140
370
    50
100
AcDbVertex
100
AcDb2dVertex
 10
43.25817
 20
62.901207
 30
0.0
  0
VERTEX
  5
48A
330
47E
100
AcDbEntity
  8
001
 62
   140
370
    50
100
AcDbVertex
100
AcDb2dVertex
 10
43.314064
 20
62.860315
 30
0.0
  0
VERTEX
  5
48B
330
47E
100
AcDbEntity
  8
001
 62
   140
370
    50
100
AcDbVertex
100
AcDb2dVertex
 10
43.317291
 20
62.858617
 30
0.0
  0
VERTEX
  5
48C
330
47E
100
AcDbEntity
  8
001
 62
   140
370
    50
100
AcDbVertex
100
AcDb2dVertex
 10
43.319523
 20
62.857473
 30
0.0
  0
SEQEND
  5
47F
330
47E
100
AcDbEntity
  8
001
370
    50
  0
POLYLINE
  5
48D
330
1F
100
AcDbEntity
  8
001
 62
   140
370
    50
100
AcDb2dPolyline
 66
     1
 10
0.0
 20
0.0
 30
0.0
  0
VERTEX
  5
48F
330
48D
100
AcDbEntity
  8
001
 62
   140
370
    50
100
AcDbVertex
100
AcDb2dVertex
 10
42.00036
 20
62.920406
 30
0.0
  0
VERTEX
  5
490
330
48D
100
AcDbEntity
  8
001
 62
   140
370
    50
100
AcDbVertex
100
AcDb2dVertex
 10
42.001097
 20
62.885833
 30
0.0
  0
VERTEX
  5
491
330
48D
100
AcDbEntity
  8
001
 62
   140
370
    50
100
AcDbVertex
100
AcDb2dVertex
 10
42.005143
 20
62.839105
 30
0.0
  0
VERTEX
  5
492
330
48D
100
AcDbEntity
  8
001
 62
   140
370
    50
100
AcDbVertex
100
AcDb2dVertex
 10
42.009679
 20
62.812524
 30
0.0
  0
VERTEX
  5
493
330
48D
100
AcDbEntity
  8
001
 62
   140
370
    50
100
AcDbVertex
100
AcDb2dVertex
 10
42.015658
 20
62.788005
 30
0.0
  0
VERTEX
  5
494
330
48D
100
AcDbEntity
  8
001
 62
   140
370
    50
100
AcDbVertex
100
AcDb2dVertex
 10
42.022969
 20
62.763205
 30
0.0
  0
VERTEX
  5
495
330
48D
100
AcDbEntity
  8
001
 62
   140
370
    50
100
AcDbVertex
100
AcDb2dVertex
 10
42.031603
 20
62.738332
 30
0.0
  0
VERTEX
  5
496
330
48D
100
AcDbEntity
  8
001
 62
   140
370
    50
100
AcDbVertex
100
AcDb2dVertex
 10
42.052024
 20
62.692388
 30
0.0
  0
VERTEX
  5
497
330
48D
100
AcDbEntity
  8
001
 62
   140
370
    50
100
AcDbVertex
100
AcDb2dVertex
 10
42.077693
 20
62.649209
 30
0.0
  0
VERTEX
  5
498
330
48D
100
AcDbEntity
  8
001
 62
   140
370
    50
100
AcDbVertex
100
AcDb2dVertex
 10
42.119002
 20
62.598854
 30
0.0
  0
VERTEX
  5
499
330
48D
100
AcDbEntity
  8
001
 62
   140
370
    50
100
AcDbVertex
100
AcDb2dVertex
 10
42.170985
 20
62.560175
 30
0.0
  0
VERTEX
  5
49A
330
48D
100
AcDbEntity
  8
001
 62
   140
370
    50
100
AcDbVertex
100
AcDb2dVertex
 10
42.187774
 20
62.552336
 30
0.0
  0
VERTEX
  5
49B
330
48D
100
AcDbEntity
  8
001
 62
   140
370
    50
100
AcDbVertex
100
AcDb2dVertex
 10
42.204827
 20
62.546212
 30
0.0
  0
VERTEX
  5
49C
330
48D
100
AcDbEntity
  8
001
 62
   140
370
    50
100
AcDbVertex
100
AcDb2dVertex
 10
42.220695
 20
62.542354
 30
0.0
  0
VERTEX
  5
49D
330
48D
100
AcDbEntity
  8
001
 62
   140
370
    50
100
AcDbVertex
100
AcDb2dVertex
 10
42.23835
 20
62.541021
 30
0.0
  0
VERTEX
  5
49E
330
48D
100
AcDbEntity
  8
001
 62
   140
370
    50
100
AcDbVertex
100
AcDb2dVertex
 10
42.257088
 20
62.54243
 30
0.0
  0
VERTEX
  5
49F
330
48D
100
AcDbEntity
  8
001
 62
   140
370
    50
100
AcDbVertex
100
AcDb2dVertex
 10
42.270537
 20
62.54476
 30
0.0
  0
SEQEND
  5
48E
330
48D
100
AcDbEntity
  8
001
370
    50
  0
POLYLINE
  5
4A0
330
1F
100
AcDbEntity
  8
001
 62
   200
370
    50
100
AcDb2dPolyline
 66
     1
 10
0.0
 20
0.0
 30
0.0
  0
VERTEX
  5
4A2
330
4A0
100
AcDbEntity
  8
001
 62
   200
370
    50
100
AcDbVertex
100
AcDb2dVertex
 10
46.54273
 20
66.318467
 30
0.0
  0
VERTEX
  5
4A3
330
4A0
100
AcDbEntity
  8
001
 62
   200
370
    50
100
AcDbVertex
100
AcDb2dVertex
 10
46.538557
 20
66.41211
 30
0.0
  0
VERTEX
  5
4A4
330
4A0
100
AcDbEntity
  8
001
 62
   200
370
    50
100
AcDbVertex
100
AcDb2dVertex
 10
46.5259
 20
66.54002
 30
0.0
  0
VERTEX
  5
4A5
330
4A0
100
AcDbEntity
  8
001
 62
   200
370
    50
100
AcDbVertex
100
AcDb2dVertex
 10
46.510228
 20
66.629763
 30
0.0
  0
VERTEX
  5
4A6
330
4A0
100
AcDbEntity
  8
001
 62
   200
370
    50
100
AcDbVertex
100
AcDb2dVertex
 10
46.490848
 20
66.710351
 30
0.0
  0
VERTEX
  5
4A7
330
4A0
100
AcDbEntity
  8
001
 62
   200
370
    50
100
AcDbVertex
100
AcDb2dVertex
 10
46.468161
 20
66.789955
 30
0.0
  0
VERTEX
  5
4A8
330
4A0
100
AcDbEntity
  8
001
 62
   200
370
    50
100
AcDbVertex
100
AcDb2dVertex
 10
46.437699
 20
66.87593
 30
0.0
  0
VERTEX
  5
4A9
330
4A0
100
AcDbEntity
  8
001
 62
   200
370
    50
100
AcDbVertex
100
AcDb2dVertex
 10
46.390899
 20
66.983476
 30
0.0
  0
VERTEX
  5
4AA
330
4A0
100
AcDbEntity
  8
001
 62
   200
370
    50
100
AcDbVertex
100
AcDb2dVertex
 10
46.353078
 20
67.059938
 30
0.0
  0
SEQEND
  5
4A1
330
4A0
100
AcDbEntity
  8
001
370
    50
  0
LINE
  5
4AB
330
1F
100
AcDbEntity
  8
001
 62
   200
370
    50
100
AcDbLine
 10
46.54273
 20
58.511298
 30
0.0
 11
46.54273
 21
66.318467
 31
0.0
  0
POLYLINE
  5
4AC
330
1F
100
AcDbEntity
  8
001
 62
   200
370
    50
100
AcDb2dPolyline
 66
     1
 10
0.0
 20
0.0
 30
0.0
  0
VERTEX
  5
4AE
330
4AC
100
AcDbEntity
  8
001
 62
   200
370
    50
100
AcDbVertex
100
AcDb2dVertex
 10
46.353078
 20
57.907772
 30
0.0
  0
VERTEX
  5
4AF
330
4AC
100
AcDbEntity
  8
001
 62
   200
370
    50
100
AcDbVertex
100
AcDb2dVertex
 10
46.378839
 20
57.939964
 30
0.0
  0
VERTEX
  5
4B0
330
4AC
100
AcDbEntity
  8
001
 62
   200
370
    50
100
AcDbVertex
100
AcDb2dVertex
 10
46.41297
 20
57.987351
 30
0.0
  0
VERTEX
  5
4B1
330
4AC
100
AcDbEntity
  8
001
 62
   200
370
    50
100
AcDbVertex
100
AcDb2dVertex
 10
46.507803
 20
58.181998
 30
0.0
  0
VERTEX
  5
4B2
330
4AC
100
AcDbEntity
  8
001
 62
   200
370
    50
100
AcDbVertex
100
AcDb2dVertex
 10
46.53803
 20
58.398621
 30
0.0
  0
VERTEX
  5
4B3
330
4AC
100
AcDbEntity
  8
001
 62
   200
370
    50
100
AcDbVertex
100
AcDb2dVertex
 10
46.541373
 20
58.464623
 30
0.0
  0
VERTEX
  5
4B4
330
4AC
100
AcDbEntity
  8
001
 62
   200
370
    50
100
AcDbVertex
100
AcDb2dVertex
 10
46.54273
 20
58.511298
 30
0.0
  0
SEQEND
  5
4AD
330
4AC
100
AcDbEntity
  8
001
370
    50
  0
POLYLINE
  5
4B5
330
1F
100
AcDbEntity
  8
001
 62
   200
370
    50
100
AcDb2dPolyline
 66
     1
 10
0.0
 20
0.0
 30
0.0
  0
VERTEX
  5
4B7
330
4B5
100
AcDbEntity
  8
001
 62
   200
370
    50
100
AcDbVertex
100
AcDb2dVertex
 10
45.345781
 20
57.188548
 30
0.0
  0
VERTEX
  5
4B8
330
4B5
100
AcDbEntity
  8
001
 62
   200
370
    50
100
AcDbVertex
100
AcDb2dVertex
 10
45.36014
 20
57.183665
 30
0.0
  0
VERTEX
  5
4B9
330
4B5
100
AcDbEntity
  8
001
 62
   200
370
    50
100
AcDbVertex
100
AcDb2dVertex
 10
45.380709
 20
57.17723
 30
0.0
  0
VERTEX
  5
4BA
330
4B5
100
AcDbEntity
  8
001
 62
   200
370
    50
100
AcDbVertex
100
AcDb2dVertex
 10
45.439326
 20
57.163878
 30
0.0
  0
VERTEX
  5
4BB
330
4B5
100
AcDbEntity
  8
001
 62
   200
370
    50
100
AcDbVertex
100
AcDb2dVertex
 10
45.492455
 20
57.159927
 30
0.0
  0
VERTEX
  5
4BC
330
4B5
100
AcDbEntity
  8
001
 62
   200
370
    50
100
AcDbVertex
100
AcDb2dVertex
 10
45.545552
 20
57.162535
 30
0.0
  0
VERTEX
  5
4BD
330
4B5
100
AcDbEntity
  8
001
 62
   200
370
    50
100
AcDbVertex
100
AcDb2dVertex
 10
45.599744
 20
57.172391
 30
0.0
  0
VERTEX
  5
4BE
330
4B5
100
AcDbEntity
  8
001
 62
   200
370
    50
100
AcDbVertex
100
AcDb2dVertex
 10
45.651834
 20
57.190473
 30
0.0
  0
VERTEX
  5
4BF
330
4B5
100
AcDbEntity
  8
001
 62
   200
370
    50
100
AcDbVertex
100
AcDb2dVertex
 10
45.699316
 20
57.214243
 30
0.0
  0
VERTEX
  5
4C0
330
4B5
100
AcDbEntity
  8
001
 62
   200
370
    50
100
AcDbVertex
100
AcDb2dVertex
 10
45.743376
 20
57.243611
 30
0.0
  0
VERTEX
  5
4C1
330
4B5
100
AcDbEntity
  8
001
 62
   200
370
    50
100
AcDbVertex
100
AcDb2dVertex
 10
45.788146
 20
57.284211
 30
0.0
  0
VERTEX
  5
4C2
330
4B5
100
AcDbEntity
  8
001
 62
   200
370
    50
100
AcDbVertex
100
AcDb2dVertex
 10
45.797337
 20
57.293806
 30
0.0
  0
VERTEX
  5
4C3
330
4B5
100
AcDbEntity
  8
001
 62
   200
370
    50
100
AcDbVertex
100
AcDb2dVertex
 10
45.803643
 20
57.300591
 30
0.0
  0
SEQEND
  5
4B6
330
4B5
100
AcDbEntity
  8
001
370
    50
  0
LINE
  5
4C4
330
1F
100
AcDbEntity
  8
001
 62
   200
370
    50
100
AcDbLine
 10
40.030368
 20
59.12165
 30
0.0
 11
45.345781
 21
57.188548
 31
0.0
  0
POLYLINE
  5
4C5
330
1F
100
AcDbEntity
  8
001
 62
   200
370
    50
100
AcDb2dPolyline
 66
     1
 10
0.0
 20
0.0
 30
0.0
  0
VERTEX
  5
4C7
330
4C5
100
AcDbEntity
  8
001
 62
   200
370
    50
100
AcDbVertex
100
AcDb2dVertex
 10
39.572506
 20
59.566723
 30
0.0
  0
VERTEX
  5
4C8
330
4C5
100
AcDbEntity
  8
001
 62
   200
370
    50
100
AcDbVertex
100
AcDb2dVertex
 10
39.600459
 20
59.519349
 30
0.0
  0
VERTEX
  5
4C9
330
4C5
100
AcDbEntity
  8
001
 62
   200
370
    50
100
AcDbVertex
100
AcDb2dVertex
 10
39.641516
 20
59.453657
 30
0.0
  0
VERTEX
  5
4CA
330
4C5
100
AcDbEntity
  8
001
 62
   200
370
    50
100
AcDbVertex
100
AcDb2dVertex
 10
39.773572
 20
59.280647
 30
0.0
  0
VERTEX
  5
4CB
330
4C5
100
AcDbEntity
  8
001
 62
   200
370
    50
100
AcDbVertex
100
AcDb2dVertex
 10
39.95249
 20
59.156877
 30
0.0
  0
VERTEX
  5
4CC
330
4C5
100
AcDbEntity
  8
001
 62
   200
370
    50
100
AcDbVertex
100
AcDb2dVertex
 10
39.997855
 20
59.135385
 30
0.0
  0
VERTEX
  5
4CD
330
4C5
100
AcDbEntity
  8
001
 62
   200
370
    50
100
AcDbVertex
100
AcDb2dVertex
 10
40.030368
 20
59.12165
 30
0.0
  0
SEQEND
  5
4C6
330
4C5
100
AcDbEntity
  8
001
370
    50
  0
LINE
  5
4CE
330
1F
100
AcDbEntity
  8
001
 62
   200
370
    50
100
AcDbLine
 10
39.023072
 20
60.573538
 30
0.0
 11
39.572506
 21
59.566723
 31
0.0
  0
POLYLINE
  5
4CF
330
1F
100
AcDbEntity
  8
001
 62
   200
370
    50
100
AcDb2dPolyline
 66
     1
 10
0.0
 20
0.0
 30
0.0
  0
VERTEX
  5
4D1
330
4CF
100
AcDbEntity
  8
001
 62
   200
370
    50
100
AcDbVertex
100
AcDb2dVertex
 10
38.833419
 20
61.31501
 30
0.0
  0
VERTEX
  5
4D2
330
4CF
100
AcDbEntity
  8
001
 62
   200
370
    50
100
AcDbVertex
100
AcDb2dVertex
 10
38.837593
 20
61.221367
 30
0.0
  0
VERTEX
  5
4D3
330
4CF
100
AcDbEntity
  8
001
 62
   200
370
    50
100
AcDbVertex
100
AcDb2dVertex
 10
38.85025
 20
61.093457
 30
0.0
  0
VERTEX
  5
4D4
330
4CF
100
AcDbEntity
  8
001
 62
   200
370
    50
100
AcDbVertex
100
AcDb2dVertex
 10
38.865922
 20
61.003714
 30
0.0
  0
VERTEX
  5
4D5
330
4CF
100
AcDbEntity
  8
001
 62
   200
370
    50
100
AcDbVertex
100
AcDb2dVertex
 10
38.885301
 20
60.923126
 30
0.0
  0
VERTEX
  5
4D6
330
4CF
100
AcDbEntity
  8
001
 62
   200
370
    50
100
AcDbVertex
100
AcDb2dVertex
 10
38.907988
 20
60.843522
 30
0.0
  0
VERTEX
  5
4D7
330
4CF
100
AcDbEntity
  8
001
 62
   200
370
    50
100
AcDbVertex
100
AcDb2dVertex
 10
38.93845
 20
60.757547
 30
0.0
  0
VERTEX
  5
4D8
330
4CF
100
AcDbEntity
  8
001
 62
   200
370
    50
100
AcDbVertex
100
AcDb2dVertex
 10
38.98525
 20
60.650001
 30
0.0
  0
VERTEX
  5
4D9
330
4CF
100
AcDbEntity
  8
001
 62
   200
370
    50
100
AcDbVertex
100
AcDb2dVertex
 10
39.023072
 20
60.573538
 30
0.0
  0
SEQEND
  5
4D0
330
4CF
100
AcDbEntity
  8
001
370
    50
  0
POLYLINE
  5
4DA
330
1F
100
AcDbEntity
  8
001
 62
   200
370
    50
100
AcDb2dPolyline
 66
     1
 10
0.0
 20
0.0
 30
0.0
  0
VERTEX
  5
4DC
330
4DA
100
AcDbEntity
  8
001
 62
   200
370
    50
100
AcDbVertex
100
AcDb2dVertex
 10
39.023072
 20
69.725705
 30
0.0
  0
VERTEX
  5
4DD
330
4DA
100
AcDbEntity
  8
001
 62
   200
370
    50
100
AcDbVertex
100
AcDb2dVertex
 10
38.99731
 20
69.693513
 30
0.0
  0
VERTEX
  5
4DE
330
4DA
100
AcDbEntity
  8
001
 62
   200
370
    50
100
AcDbVertex
100
AcDb2dVertex
 10
38.963179
 20
69.646126
 30
0.0
  0
VERTEX
  5
4DF
330
4DA
100
AcDbEntity
  8
001
 62
   200
370
    50
100
AcDbVertex
100
AcDb2dVertex
 10
38.868347
 20
69.451479
 30
0.0
  0
VERTEX
  5
4E0
330
4DA
100
AcDbEntity
  8
001
 62
   200
370
    50
100
AcDbVertex
100
AcDb2dVertex
 10
38.838119
 20
69.234856
 30
0.0
  0
VERTEX
  5
4E1
330
4DA
100
AcDbEntity
  8
001
 62
   200
370
    50
100
AcDbVertex
100
AcDb2dVertex
 10
38.834776
 20
69.168854
 30
0.0
  0
VERTEX
  5
4E2
330
4DA
100
AcDbEntity
  8
001
 62
   200
370
    50
100
AcDbVertex
100
AcDb2dVertex
 10
38.833419
 20
69.122179
 30
0.0
  0
SEQEND
  5
4DB
330
4DA
100
AcDbEntity
  8
001
370
    50
  0
LINE
  5
4E3
330
1F
100
AcDbEntity
  8
001
 62
   200
370
    50
100
AcDbLine
 10
39.572506
 20
70.332885
 30
0.0
 11
39.023072
 21
69.725705
 31
0.0
  0
POLYLINE
  5
4E4
330
1F
100
AcDbEntity
  8
001
 62
   200
370
    50
100
AcDb2dPolyline
 66
     1
 10
0.0
 20
0.0
 30
0.0
  0
VERTEX
  5
4E6
330
4E4
100
AcDbEntity
  8
001
 62
   200
370
    50
100
AcDbVertex
100
AcDb2dVertex
 10
40.030368
 20
70.444929
 30
0.0
  0
VERTEX
  5
4E7
330
4E4
100
AcDbEntity
  8
001
 62
   200
370
    50
100
AcDbVertex
100
AcDb2dVertex
 10
40.016265
 20
70.449809
 30
0.0
  0
VERTEX
  5
4E8
330
4E4
100
AcDbEntity
  8
001
 62
   200
370
    50
100
AcDbVertex
100
AcDb2dVertex
 10
39.99544
 20
70.456247
 30
0.0
  0
VERTEX
  5
4E9
330
4E4
100
AcDbEntity
  8
001
 62
   200
370
    50
100
AcDbVertex
100
AcDb2dVertex
 10
39.959359
 20
70.464898
 30
0.0
  0
VERTEX
  5
4EA
330
4E4
100
AcDbEntity
  8
001
 62
   200
370
    50
100
AcDbVertex
100
AcDb2dVertex
 10
39.934327
 20
70.469337
 30
0.0
  0
SEQEND
  5
4E5
330
4E4
100
AcDbEntity
  8
001
370
    50
  0
LINE
  5
4EB
330
1F
100
AcDbEntity
  8
001
 62
   200
370
    50
100
AcDbLine
 10
45.345781
 20
68.511827
 30
0.0
 11
40.030368
 21
70.444929
 31
0.0
  0
POLYLINE
  5
4EC
330
1F
100
AcDbEntity
  8
001
 62
   200
370
    50
100
AcDb2dPolyline
 66
     1
 10
0.0
 20
0.0
 30
0.0
  0
VERTEX
  5
4EE
330
4EC
100
AcDbEntity
  8
001
 62
   200
370
    50
100
AcDbVertex
100
AcDb2dVertex
 10
45.803643
 20
68.066754
 30
0.0
  0
VERTEX
  5
4EF
330
4EC
100
AcDbEntity
  8
001
 62
   200
370
    50
100
AcDbVertex
100
AcDb2dVertex
 10
45.775691
 20
68.114128
 30
0.0
  0
VERTEX
  5
4F0
330
4EC
100
AcDbEntity
  8
001
 62
   200
370
    50
100
AcDbVertex
100
AcDb2dVertex
 10
45.734633
 20
68.17982
 30
0.0
  0
VERTEX
  5
4F1
330
4EC
100
AcDbEntity
  8
001
 62
   200
370
    50
100
AcDbVertex
100
AcDb2dVertex
 10
45.602577
 20
68.35283
 30
0.0
  0
VERTEX
  5
4F2
330
4EC
100
AcDbEntity
  8
001
 62
   200
370
    50
100
AcDbVertex
100
AcDb2dVertex
 10
45.423659
 20
68.4766
 30
0.0
  0
VERTEX
  5
4F3
330
4EC
100
AcDbEntity
  8
001
 62
   200
370
    50
100
AcDbVertex
100
AcDb2dVertex
 10
45.378294
 20
68.498092
 30
0.0
  0
VERTEX
  5
4F4
330
4EC
100
AcDbEntity
  8
001
 62
   200
370
    50
100
AcDbVertex
100
AcDb2dVertex
 10
45.345781
 20
68.511827
 30
0.0
  0
SEQEND
  5
4ED
330
4EC
100
AcDbEntity
  8
001
370
    50
  0
LINE
  5
4F5
330
1F
100
AcDbEntity
  8
001
 62
   200
370
    50
100
AcDbLine
 10
46.353078
 20
67.059938
 30
0.0
 11
45.803643
 21
68.066754
 31
0.0
  0
POLYLINE
  5
4F6
330
1F
100
AcDbEntity
  8
001
 62
   200
370
    50
100
AcDb2dPolyline
 66
     1
 10
0.0
 20
0.0
 30
0.0
  0
VERTEX
  5
4F8
330
4F6
100
AcDbEntity
  8
001
 62
   200
370
    50
100
AcDbVertex
100
AcDb2dVertex
 10
44.630619
 20
63.065577
 30
0.0
  0
VERTEX
  5
4F9
330
4F6
100
AcDbEntity
  8
001
 62
   200
370
    50
100
AcDbVertex
100
AcDb2dVertex
 10
44.617723
 20
63.347182
 30
0.0
  0
VERTEX
  5
4FA
330
4F6
100
AcDbEntity
  8
001
 62
   200
370
    50
100
AcDbVertex
100
AcDb2dVertex
 10
44.580127
 20
63.730234
 30
0.0
  0
VERTEX
  5
4FB
330
4F6
100
AcDbEntity
  8
001
 62
   200
370
    50
100
AcDbVertex
100
AcDb2dVertex
 10
44.534454
 20
63.997048
 30
0.0
  0
VERTEX
  5
4FC
330
4F6
100
AcDbEntity
  8
001
 62
   200
370
    50
100
AcDbVertex
100
AcDb2dVertex
 10
44.474973
 20
64.241227
 30
0.0
  0
VERTEX
  5
4FD
330
4F6
100
AcDbEntity
  8
001
 62
   200
370
    50
100
AcDbVertex
100
AcDb2dVertex
 10
44.401959
 20
64.488943
 30
0.0
  0
VERTEX
  5
4FE
330
4F6
100
AcDbEntity
  8
001
 62
   200
370
    50
100
AcDbVertex
100
AcDb2dVertex
 10
44.315526
 20
64.737964
 30
0.0
  0
VERTEX
  5
4FF
330
4F6
100
AcDbEntity
  8
001
 62
   200
370
    50
100
AcDbVertex
100
AcDb2dVertex
 10
44.111261
 20
65.197588
 30
0.0
  0
VERTEX
  5
500
330
4F6
100
AcDbEntity
  8
001
 62
   200
370
    50
100
AcDbVertex
100
AcDb2dVertex
 10
43.85463
 20
65.629189
 30
0.0
  0
VERTEX
  5
501
330
4F6
100
AcDbEntity
  8
001
 62
   200
370
    50
100
AcDbVertex
100
AcDb2dVertex
 10
43.441553
 20
66.132677
 30
0.0
  0
VERTEX
  5
502
330
4F6
100
AcDbEntity
  8
001
 62
   200
370
    50
100
AcDbVertex
100
AcDb2dVertex
 10
42.92171
 20
66.519529
 30
0.0
  0
VERTEX
  5
503
330
4F6
100
AcDbEntity
  8
001
 62
   200
370
    50
100
AcDbVertex
100
AcDb2dVertex
 10
42.753817
 20
66.597921
 30
0.0
  0
VERTEX
  5
504
330
4F6
100
AcDbEntity
  8
001
 62
   200
370
    50
100
AcDbVertex
100
AcDb2dVertex
 10
42.58329
 20
66.659162
 30
0.0
  0
VERTEX
  5
505
330
4F6
100
AcDbEntity
  8
001
 62
   200
370
    50
100
AcDbVertex
100
AcDb2dVertex
 10
42.42461
 20
66.697741
 30
0.0
  0
VERTEX
  5
506
330
4F6
100
AcDbEntity
  8
001
 62
   200
370
    50
100
AcDbVertex
100
AcDb2dVertex
 10
42.248054
 20
66.711072
 30
0.0
  0
VERTEX
  5
507
330
4F6
100
AcDbEntity
  8
001
 62
   200
370
    50
100
AcDbVertex
100
AcDb2dVertex
 10
42.060677
 20
66.696978
 30
0.0
  0
VERTEX
  5
508
330
4F6
100
AcDbEntity
  8
001
 62
   200
370
    50
100
AcDbVertex
100
AcDb2dVertex
 10
41.926187
 20
66.673681
 30
0.0
  0
SEQEND
  5
4F7
330
4F6
100
AcDbEntity
  8
001
370
    50
  0
LINE
  5
509
330
1F
100
AcDbEntity
  8
001
 62
   200
370
    50
100
AcDbLine
 10
45.803643
 20
57.300591
 30
0.0
 11
46.353078
 21
57.907772
 31
0.0
  0
POLYLINE
  5
50A
330
1F
100
AcDbEntity
  8
001
 62
   200
370
    50
100
AcDb2dPolyline
 66
     1
 10
0.0
 20
0.0
 30
0.0
  0
VERTEX
  5
50C
330
50A
100
AcDbEntity
  8
001
 62
   200
370
    50
100
AcDbVertex
100
AcDb2dVertex
 10
39.934327
 20
70.469337
 30
0.0
  0
VERTEX
  5
50D
330
50A
100
AcDbEntity
  8
001
 62
   200
370
    50
100
AcDbVertex
100
AcDb2dVertex
 10
39.913335
 20
70.471586
 30
0.0
  0
VERTEX
  5
50E
330
50A
100
AcDbEntity
  8
001
 62
   200
370
    50
100
AcDbVertex
100
AcDb2dVertex
 10
39.883695
 20
70.47355
 30
0.0
  0
VERTEX
  5
50F
330
50A
100
AcDbEntity
  8
001
 62
   200
370
    50
100
AcDbVertex
100
AcDb2dVertex
 10
39.826774
 20
70.471648
 30
0.0
  0
VERTEX
  5
510
330
50A
100
AcDbEntity
  8
001
 62
   200
370
    50
100
AcDbVertex
100
AcDb2dVertex
 10
39.776406
 20
70.461086
 30
0.0
  0
VERTEX
  5
511
330
50A
100
AcDbEntity
  8
001
 62
   200
370
    50
100
AcDbVertex
100
AcDb2dVertex
 10
39.725332
 20
70.442816
 30
0.0
  0
VERTEX
  5
512
330
50A
100
AcDbEntity
  8
001
 62
   200
370
    50
100
AcDbVertex
100
AcDb2dVertex
 10
39.676834
 20
70.419234
 30
0.0
  0
VERTEX
  5
513
330
50A
100
AcDbEntity
  8
001
 62
   200
370
    50
100
AcDbVertex
100
AcDb2dVertex
 10
39.632535
 20
70.38991
 30
0.0
  0
VERTEX
  5
514
330
50A
100
AcDbEntity
  8
001
 62
   200
370
    50
100
AcDbVertex
100
AcDb2dVertex
 10
39.588003
 20
70.349266
 30
0.0
  0
VERTEX
  5
515
330
50A
100
AcDbEntity
  8
001
 62
   200
370
    50
100
AcDbVertex
100
AcDb2dVertex
 10
39.578816
 20
70.33967
 30
0.0
  0
VERTEX
  5
516
330
50A
100
AcDbEntity
  8
001
 62
   200
370
    50
100
AcDbVertex
100
AcDb2dVertex
 10
39.572506
 20
70.332885
 30
0.0
  0
SEQEND
  5
50B
330
50A
100
AcDbEntity
  8
001
370
    50
  0
POLYLINE
  5
517
330
1F
100
AcDbEntity
  8
001
 62
   200
370
    50
100
AcDb2dPolyline
 66
     1
 10
0.0
 20
0.0
 30
0.0
  0
VERTEX
  5
519
330
517
100
AcDbEntity
  8
001
 62
   200
370
    50
100
AcDbVertex
100
AcDb2dVertex
 10
45.865816
 20
57.369299
 30
0.0
  0
VERTEX
  5
51A
330
517
100
AcDbEntity
  8
001
 62
   200
370
    50
100
AcDbVertex
100
AcDb2dVertex
 10
46.432231
 20
57.978885
 30
0.0
  0
VERTEX
  5
51B
330
517
100
AcDbEntity
  8
001
 62
   200
370
    50
100
AcDbVertex
100
AcDb2dVertex
 10
46.998643
 20
58.588473
 30
0.0
  0
VERTEX
  5
51C
330
517
100
AcDbEntity
  8
001
 62
   200
370
    50
100
AcDbVertex
100
AcDb2dVertex
 10
47.170371
 20
58.773293
 30
0.0
  0
VERTEX
  5
51D
330
517
100
AcDbEntity
  8
001
 62
   200
370
    50
100
AcDbVertex
100
AcDb2dVertex
 10
47.342099
 20
58.958114
 30
0.0
  0
SEQEND
  5
518
330
517
100
AcDbEntity
  8
001
370
    50
  0
POLYLINE
  5
51E
330
1F
100
AcDbEntity
  8
001
 62
   200
370
    50
100
AcDb2dPolyline
 66
     1
 10
0.0
 20
0.0
 30
0.0
  0
VERTEX
  5
520
330
51E
100
AcDbEntity
  8
001
 62
   200
370
    50
100
AcDbVertex
100
AcDb2dVertex
 10
44.398186
 20
69.823449
 30
0.0
  0
VERTEX
  5
521
330
51E
100
AcDbEntity
  8
001
 62
   200
370
    50
100
AcDbVertex
100
AcDb2dVertex
 10
43.281499
 20
69.984933
 30
0.0
  0
VERTEX
  5
522
330
51E
100
AcDbEntity
  8
001
 62
   200
370
    50
100
AcDbVertex
100
AcDb2dVertex
 10
42.164819
 20
70.146465
 30
0.0
  0
VERTEX
  5
523
330
51E
100
AcDbEntity
  8
001
 62
   200
370
    50
100
AcDbVertex
100
AcDb2dVertex
 10
41.049079
 20
70.307946
 30
0.0
  0
VERTEX
  5
524
330
51E
100
AcDbEntity
  8
001
 62
   200
370
    50
100
AcDbVertex
100
AcDb2dVertex
 10
39.933346
 20
70.469477
 30
0.0
  0
SEQEND
  5
51F
330
51E
100
AcDbEntity
  8
001
370
    50
  0
POLYLINE
  5
525
330
1F
100
AcDbEntity
  8
001
 62
   200
370
    50
100
AcDb2dPolyline
 66
     1
 10
0.0
 20
0.0
 30
0.0
  0
VERTEX
  5
527
330
525
100
AcDbEntity
  8
001
 62
   200
370
    50
100
AcDbVertex
100
AcDb2dVertex
 10
44.498837
 20
69.798405
 30
0.0
  0
VERTEX
  5
528
330
525
100
AcDbEntity
  8
001
 62
   200
370
    50
100
AcDbVertex
100
AcDb2dVertex
 10
44.484733
 20
69.803286
 30
0.0
  0
VERTEX
  5
529
330
525
100
AcDbEntity
  8
001
 62
   200
370
    50
100
AcDbVertex
100
AcDb2dVertex
 10
44.463909
 20
69.809723
 30
0.0
  0
VERTEX
  5
52A
330
525
100
AcDbEntity
  8
001
 62
   200
370
    50
100
AcDbVertex
100
AcDb2dVertex
 10
44.425002
 20
69.818914
 30
0.0
  0
VERTEX
  5
52B
330
525
100
AcDbEntity
  8
001
 62
   200
370
    50
100
AcDbVertex
100
AcDb2dVertex
 10
44.397987
 20
69.823476
 30
0.0
  0
SEQEND
  5
526
330
525
100
AcDbEntity
  8
001
370
    50
  0
LINE
  5
52C
330
1F
100
AcDbEntity
  8
001
 62
   200
370
    50
100
AcDbLine
 10
47.583378
 20
68.676623
 30
0.0
 11
44.498837
 21
69.798405
 31
0.0
  0
POLYLINE
  5
52D
330
1F
100
AcDbEntity
  8
001
 62
   200
370
    50
100
AcDb2dPolyline
 66
     1
 10
0.0
 20
0.0
 30
0.0
  0
VERTEX
  5
52F
330
52D
100
AcDbEntity
  8
001
 62
   200
370
    50
100
AcDbVertex
100
AcDb2dVertex
 10
48.04124
 20
68.231551
 30
0.0
  0
VERTEX
  5
530
330
52D
100
AcDbEntity
  8
001
 62
   200
370
    50
100
AcDbVertex
100
AcDb2dVertex
 10
48.013288
 20
68.278925
 30
0.0
  0
VERTEX
  5
531
330
52D
100
AcDbEntity
  8
001
 62
   200
370
    50
100
AcDbVertex
100
AcDb2dVertex
 10
47.97223
 20
68.344617
 30
0.0
  0
VERTEX
  5
532
330
52D
100
AcDbEntity
  8
001
 62
   200
370
    50
100
AcDbVertex
100
AcDb2dVertex
 10
47.840174
 20
68.517627
 30
0.0
  0
VERTEX
  5
533
330
52D
100
AcDbEntity
  8
001
 62
   200
370
    50
100
AcDbVertex
100
AcDb2dVertex
 10
47.661256
 20
68.641397
 30
0.0
  0
VERTEX
  5
534
330
52D
100
AcDbEntity
  8
001
 62
   200
370
    50
100
AcDbVertex
100
AcDb2dVertex
 10
47.615891
 20
68.662888
 30
0.0
  0
VERTEX
  5
535
330
52D
100
AcDbEntity
  8
001
 62
   200
370
    50
100
AcDbVertex
100
AcDb2dVertex
 10
47.583378
 20
68.676623
 30
0.0
  0
SEQEND
  5
52E
330
52D
100
AcDbEntity
  8
001
370
    50
  0
LINE
  5
536
330
1F
100
AcDbEntity
  8
001
 62
   200
370
    50
100
AcDbLine
 10
48.050682
 20
68.214248
 30
0.0
 11
48.04124
 21
68.231551
 31
0.0
  0
POLYLINE
  5
537
330
1F
100
AcDbEntity
  8
001
 62
   200
370
    50
100
AcDb2dPolyline
 66
     1
 10
0.0
 20
0.0
 30
0.0
  0
VERTEX
  5
539
330
537
100
AcDbEntity
  8
001
 62
   200
370
    50
100
AcDbVertex
100
AcDb2dVertex
 10
43.449962
 20
60.870397
 30
0.0
  0
VERTEX
  5
53A
330
537
100
AcDbEntity
  8
001
 62
   200
370
    50
100
AcDbVertex
100
AcDb2dVertex
 10
43.578549
 20
60.916238
 30
0.0
  0
VERTEX
  5
53B
330
537
100
AcDbEntity
  8
001
 62
   200
370
    50
100
AcDbVertex
100
AcDb2dVertex
 10
43.748679
 20
60.995953
 30
0.0
  0
VERTEX
  5
53C
330
537
100
AcDbEntity
  8
001
 62
   200
370
    50
100
AcDbVertex
100
AcDb2dVertex
 10
43.895912
 20
61.093972
 30
0.0
  0
VERTEX
  5
53D
330
537
100
AcDbEntity
  8
001
 62
   200
370
    50
100
AcDbVertex
100
AcDb2dVertex
 10
44.01517
 20
61.205859
 30
0.0
  0
VERTEX
  5
53E
330
537
100
AcDbEntity
  8
001
 62
   200
370
    50
100
AcDbVertex
100
AcDb2dVertex
 10
44.133612
 20
61.344371
 30
0.0
  0
VERTEX
  5
53F
330
537
100
AcDbEntity
  8
001
 62
   200
370
    50
100
AcDbVertex
100
AcDb2dVertex
 10
44.241338
 20
61.493737
 30
0.0
  0
VERTEX
  5
540
330
537
100
AcDbEntity
  8
001
 62
   200
370
    50
100
AcDbVertex
100
AcDb2dVertex
 10
44.504105
 20
62.050313
 30
0.0
  0
VERTEX
  5
541
330
537
100
AcDbEntity
  8
001
 62
   200
370
    50
100
AcDbVertex
100
AcDb2dVertex
 10
44.616518
 20
62.727546
 30
0.0
  0
VERTEX
  5
542
330
537
100
AcDbEntity
  8
001
 62
   200
370
    50
100
AcDbVertex
100
AcDb2dVertex
 10
44.627084
 20
62.926228
 30
0.0
  0
VERTEX
  5
543
330
537
100
AcDbEntity
  8
001
 62
   200
370
    50
100
AcDbVertex
100
AcDb2dVertex
 10
44.630619
 20
63.065577
 30
0.0
  0
SEQEND
  5
538
330
537
100
AcDbEntity
  8
001
370
    50
  0
POLYLINE
  5
544
330
1F
100
AcDbEntity
  8
001
 62
   200
370
    50
100
AcDb2dPolyline
 66
     1
 10
0.0
 20
0.0
 30
0.0
  0
VERTEX
  5
546
330
544
100
AcDbEntity
  8
001
 62
   200
370
    50
100
AcDbVertex
100
AcDb2dVertex
 10
41.926187
 20
66.673681
 30
0.0
  0
VERTEX
  5
547
330
544
100
AcDbEntity
  8
001
 62
   200
370
    50
100
AcDbVertex
100
AcDb2dVertex
 10
41.797601
 20
66.627901
 30
0.0
  0
VERTEX
  5
548
330
544
100
AcDbEntity
  8
001
 62
   200
370
    50
100
AcDbVertex
100
AcDb2dVertex
 10
41.62747
 20
66.548125
 30
0.0
  0
VERTEX
  5
549
330
544
100
AcDbEntity
  8
001
 62
   200
370
    50
100
AcDbVertex
100
AcDb2dVertex
 10
41.480235
 20
66.449781
 30
0.0
  0
VERTEX
  5
54A
330
544
100
AcDbEntity
  8
001
 62
   200
370
    50
100
AcDbVertex
100
AcDb2dVertex
 10
41.360979
 20
66.338219
 30
0.0
  0
VERTEX
  5
54B
330
544
100
AcDbEntity
  8
001
 62
   200
370
    50
100
AcDbVertex
100
AcDb2dVertex
 10
41.242547
 20
66.201082
 30
0.0
  0
VERTEX
  5
54C
330
544
100
AcDbEntity
  8
001
 62
   200
370
    50
100
AcDbVertex
100
AcDb2dVertex
 10
41.134812
 20
66.050341
 30
0.0
  0
VERTEX
  5
54D
330
544
100
AcDbEntity
  8
001
 62
   200
370
    50
100
AcDbVertex
100
AcDb2dVertex
 10
40.871784
 20
65.458525
 30
0.0
  0
VERTEX
  5
54E
330
544
100
AcDbEntity
  8
001
 62
   200
370
    50
100
AcDbVertex
100
AcDb2dVertex
 10
40.759631
 20
64.816531
 30
0.0
  0
VERTEX
  5
54F
330
544
100
AcDbEntity
  8
001
 62
   200
370
    50
100
AcDbVertex
100
AcDb2dVertex
 10
40.749036
 20
64.312926
 30
0.0
  0
VERTEX
  5
550
330
544
100
AcDbEntity
  8
001
 62
   200
370
    50
100
AcDbVertex
100
AcDb2dVertex
 10
40.796023
 20
63.813844
 30
0.0
  0
VERTEX
  5
551
330
544
100
AcDbEntity
  8
001
 62
   200
370
    50
100
AcDbVertex
100
AcDb2dVertex
 10
40.841667
 20
63.556998
 30
0.0
  0
VERTEX
  5
552
330
544
100
AcDbEntity
  8
001
 62
   200
370
    50
100
AcDbVertex
100
AcDb2dVertex
 10
40.901176
 20
63.302851
 30
0.0
  0
VERTEX
  5
553
330
544
100
AcDbEntity
  8
001
 62
   200
370
    50
100
AcDbVertex
100
AcDb2dVertex
 10
40.974199
 20
63.052252
 30
0.0
  0
VERTEX
  5
554
330
544
100
AcDbEntity
  8
001
 62
   200
370
    50
100
AcDbVertex
100
AcDb2dVertex
 10
41.060624
 20
62.806114
 30
0.0
  0
VERTEX
  5
555
330
544
100
AcDbEntity
  8
001
 62
   200
370
    50
100
AcDbVertex
100
AcDb2dVertex
 10
41.264883
 20
62.348327
 30
0.0
  0
VERTEX
  5
556
330
544
100
AcDbEntity
  8
001
 62
   200
370
    50
100
AcDbVertex
100
AcDb2dVertex
 10
41.521519
 20
61.914889
 30
0.0
  0
VERTEX
  5
557
330
544
100
AcDbEntity
  8
001
 62
   200
370
    50
100
AcDbVertex
100
AcDb2dVertex
 10
41.934598
 20
61.410806
 30
0.0
  0
VERTEX
  5
558
330
544
100
AcDbEntity
  8
001
 62
   200
370
    50
100
AcDbVertex
100
AcDb2dVertex
 10
42.454439
 20
61.024549
 30
0.0
  0
VERTEX
  5
559
330
544
100
AcDbEntity
  8
001
 62
   200
370
    50
100
AcDbVertex
100
AcDb2dVertex
 10
42.622333
 20
60.94618
 30
0.0
  0
VERTEX
  5
55A
330
544
100
AcDbEntity
  8
001
 62
   200
370
    50
100
AcDbVertex
100
AcDb2dVertex
 10
42.792859
 20
60.884915
 30
0.0
  0
VERTEX
  5
55B
330
544
100
AcDbEntity
  8
001
 62
   200
370
    50
100
AcDbVertex
100
AcDb2dVertex
 10
42.951539
 20
60.846331
 30
0.0
  0
VERTEX
  5
55C
330
544
100
AcDbEntity
  8
001
 62
   200
370
    50
100
AcDbVertex
100
AcDb2dVertex
 10
43.128096
 20
60.833005
 30
0.0
  0
VERTEX
  5
55D
330
544
100
AcDbEntity
  8
001
 62
   200
370
    50
100
AcDbVertex
100
AcDb2dVertex
 10
43.315472
 20
60.847101
 30
0.0
  0
VERTEX
  5
55E
330
544
100
AcDbEntity
  8
001
 62
   200
370
    50
100
AcDbVertex
100
AcDb2dVertex
 10
43.449962
 20
60.870397
 30
0.0
  0
SEQEND
  5
545
330
544
100
AcDbEntity
  8
001
370
    50
  0
POLYLINE
  5
55F
330
1F
100
AcDbEntity
  8
001
 62
   200
370
    50
100
AcDb2dPolyline
 66
     1
 10
0.0
 20
0.0
 30
0.0
  0
VERTEX
  5
561
330
55F
100
AcDbEntity
  8
001
 62
   200
370
    50
100
AcDbVertex
100
AcDb2dVertex
 10
42.324736
 20
66.706994
 30
0.0
  0
VERTEX
  5
562
330
55F
100
AcDbEntity
  8
001
 62
   200
370
    50
100
AcDbVertex
100
AcDb2dVertex
 10
42.239227
 20
66.642521
 30
0.0
  0
VERTEX
  5
563
330
55F
100
AcDbEntity
  8
001
 62
   200
370
    50
100
AcDbVertex
100
AcDb2dVertex
 10
42.123032
 20
66.538312
 30
0.0
  0
VERTEX
  5
564
330
55F
100
AcDbEntity
  8
001
 62
   200
370
    50
100
AcDbVertex
100
AcDb2dVertex
 10
42.054624
 20
66.464227
 30
0.0
  0
VERTEX
  5
565
330
55F
100
AcDbEntity
  8
001
 62
   200
370
    50
100
AcDbVertex
100
AcDb2dVertex
 10
42.010385
 20
66.411139
 30
0.0
  0
SEQEND
  5
560
330
55F
100
AcDbEntity
  8
001
370
    50
  0
POLYLINE
  5
566
330
1F
100
AcDbEntity
  8
001
 62
   200
370
    50
100
AcDb2dPolyline
 66
     1
 10
0.0
 20
0.0
 30
0.0
  0
VERTEX
  5
568
330
566
100
AcDbEntity
  8
001
 62
   200
370
    50
100
AcDbVertex
100
AcDb2dVertex
 10
43.380459
 20
61.146135
 30
0.0
  0
VERTEX
  5
569
330
566
100
AcDbEntity
  8
001
 62
   200
370
    50
100
AcDbVertex
100
AcDb2dVertex
 10
43.450583
 20
61.11896
 30
0.0
  0
VERTEX
  5
56A
330
566
100
AcDbEntity
  8
001
 62
   200
370
    50
100
AcDbVertex
100
AcDb2dVertex
 10
43.554912
 20
61.085008
 30
0.0
  0
VERTEX
  5
56B
330
566
100
AcDbEntity
  8
001
 62
   200
370
    50
100
AcDbVertex
100
AcDb2dVertex
 10
43.707312
 20
61.051332
 30
0.0
  0
VERTEX
  5
56C
330
566
100
AcDbEntity
  8
001
 62
   200
370
    50
100
AcDbVertex
100
AcDb2dVertex
 10
43.813466
 20
61.037177
 30
0.0
  0
SEQEND
  5
567
330
566
100
AcDbEntity
  8
001
370
    50
  0
LINE
  5
56D
330
1F
100
AcDbEntity
  8
001
 62
   200
370
    50
100
AcDbLine
 10
46.54273
 20
49.388338
 30
0.0
 11
46.943902
 21
49.968882
 31
0.0
  0
POLYLINE
  5
56E
330
1F
100
AcDbEntity
  8
001
 62
   200
370
    50
100
AcDb2dPolyline
 66
     1
 10
0.0
 20
0.0
 30
0.0
  0
VERTEX
  5
570
330
56E
100
AcDbEntity
  8
001
 62
   200
370
    50
100
AcDbVertex
100
AcDb2dVertex
 10
47.719851
 20
51.091776
 30
0.0
  0
VERTEX
  5
571
330
56E
100
AcDbEntity
  8
001
 62
   200
370
    50
100
AcDbVertex
100
AcDb2dVertex
 10
47.778698
 20
51.176934
 30
0.0
  0
VERTEX
  5
572
330
56E
100
AcDbEntity
  8
001
 62
   200
370
    50
100
AcDbVertex
100
AcDb2dVertex
 10
47.837544
 20
51.262092
 30
0.0
  0
VERTEX
  5
573
330
56E
100
AcDbEntity
  8
001
 62
   200
370
    50
100
AcDbVertex
100
AcDb2dVertex
 10
48.353836
 20
52.009229
 30
0.0
  0
VERTEX
  5
574
330
56E
100
AcDbEntity
  8
001
 62
   200
370
    50
100
AcDbVertex
100
AcDb2dVertex
 10
48.870127
 20
52.756365
 30
0.0
  0
SEQEND
  5
56F
330
56E
100
AcDbEntity
  8
001
370
    50
  0
LINE
  5
575
330
1F
100
AcDbEntity
  8
001
 62
   200
370
    50
100
AcDbLine
 10
40.141553
 20
59.081215
 30
0.0
 11
38.833419
 21
58.46134
 31
0.0
  0
LINE
  5
576
330
1F
100
AcDbEntity
  8
001
 62
   200
370
    50
100
AcDbLine
 10
44.435259
 20
51.868597
 30
0.0
 11
38.833419
 21
58.46134
 31
0.0
  0
LINE
  5
577
330
1F
100
AcDbEntity
  8
001
 62
   200
370
    50
100
AcDbLine
 10
39.037158
 20
70.28275
 30
0.0
 11
39.023072
 21
70.282125
 31
0.0
  0
LINE
  5
578
330
1F
100
AcDbEntity
  8
001
 62
   200
370
    50
100
AcDbLine
 10
39.037158
 20
70.28275
 30
0.0
 11
39.473058
 21
70.223087
 31
0.0
  0
LINE
  5
579
330
1F
100
AcDbEntity
  8
001
 62
   200
370
    50
100
AcDbLine
 10
38.833419
 20
70.517179
 30
0.0
 11
38.833419
 21
76.573097
 31
0.0
  0
POLYLINE
  5
57A
330
1F
100
AcDbEntity
  8
001
 62
   200
370
    50
100
AcDb2dPolyline
 66
     1
 10
0.0
 20
0.0
 30
0.0
  0
VERTEX
  5
57C
330
57A
100
AcDbEntity
  8
001
 62
   200
370
    50
100
AcDbVertex
100
AcDb2dVertex
 10
38.833419
 20
70.517179
 30
0.0
  0
VERTEX
  5
57D
330
57A
100
AcDbEntity
  8
001
 62
   200
370
    50
100
AcDbVertex
100
AcDb2dVertex
 10
38.835256
 20
70.481585
 30
0.0
  0
VERTEX
  5
57E
330
57A
100
AcDbEntity
  8
001
 62
   200
370
    50
100
AcDbVertex
100
AcDb2dVertex
 10
38.841341
 20
70.433059
 30
0.0
  0
VERTEX
  5
57F
330
57A
100
AcDbEntity
  8
001
 62
   200
370
    50
100
AcDbVertex
100
AcDb2dVertex
 10
38.851759
 20
70.393568
 30
0.0
  0
VERTEX
  5
580
330
57A
100
AcDbEntity
  8
001
 62
   200
370
    50
100
AcDbVertex
100
AcDb2dVertex
 10
38.868593
 20
70.359579
 30
0.0
  0
VERTEX
  5
581
330
57A
100
AcDbEntity
  8
001
 62
   200
370
    50
100
AcDbVertex
100
AcDb2dVertex
 10
38.889346
 20
70.332465
 30
0.0
  0
VERTEX
  5
582
330
57A
100
AcDbEntity
  8
001
 62
   200
370
    50
100
AcDbVertex
100
AcDb2dVertex
 10
38.91445
 20
70.30962
 30
0.0
  0
VERTEX
  5
583
330
57A
100
AcDbEntity
  8
001
 62
   200
370
    50
100
AcDbVertex
100
AcDb2dVertex
 10
38.9429
 20
70.293623
 30
0.0
  0
VERTEX
  5
584
330
57A
100
AcDbEntity
  8
001
 62
   200
370
    50
100
AcDbVertex
100
AcDb2dVertex
 10
38.977519
 20
70.2847
 30
0.0
  0
VERTEX
  5
585
330
57A
100
AcDbEntity
  8
001
 62
   200
370
    50
100
AcDbVertex
100
AcDb2dVertex
 10
39.004
 20
70.28236
 30
0.0
  0
VERTEX
  5
586
330
57A
100
AcDbEntity
  8
001
 62
   200
370
    50
100
AcDbVertex
100
AcDb2dVertex
 10
39.023072
 20
70.282125
 30
0.0
  0
SEQEND
  5
57B
330
57A
100
AcDbEntity
  8
001
370
    50
  0
POLYLINE
  5
587
330
1F
100
AcDbEntity
  8
001
 62
   200
370
    50
100
AcDb2dPolyline
 66
     1
 10
0.0
 20
0.0
 30
0.0
  0
VERTEX
  5
589
330
587
100
AcDbEntity
  8
001
 62
   200
370
    50
100
AcDbVertex
100
AcDb2dVertex
 10
39.572506
 20
57.57521
 30
0.0
  0
VERTEX
  5
58A
330
587
100
AcDbEntity
  8
001
 62
   200
370
    50
100
AcDbVertex
100
AcDb2dVertex
 10
39.599241
 20
57.528424
 30
0.0
  0
VERTEX
  5
58B
330
587
100
AcDbEntity
  8
001
 62
   200
370
    50
100
AcDbVertex
100
AcDb2dVertex
 10
39.641516
 20
57.462144
 30
0.0
  0
VERTEX
  5
58C
330
587
100
AcDbEntity
  8
001
 62
   200
370
    50
100
AcDbVertex
100
AcDb2dVertex
 10
39.793169
 20
57.2869
 30
0.0
  0
VERTEX
  5
58D
330
587
100
AcDbEntity
  8
001
 62
   200
370
    50
100
AcDbVertex
100
AcDb2dVertex
 10
39.917051
 20
57.186026
 30
0.0
  0
SEQEND
  5
588
330
587
100
AcDbEntity
  8
001
370
    50
  0
LINE
  5
58E
330
1F
100
AcDbEntity
  8
001
 62
   200
370
    50
100
AcDbLine
 10
39.572506
 20
57.57521
 30
0.0
 11
39.547633
 21
57.620789
 31
0.0
  0
LINE
  5
58F
330
1F
100
AcDbEntity
  8
001
 62
   200
370
    50
100
AcDbLine
 10
39.036434
 20
58.557541
 30
0.0
 11
39.023072
 21
58.582026
 31
0.0
  0
POLYLINE
  5
590
330
1F
100
AcDbEntity
  8
001
 62
   200
370
    50
100
AcDb2dPolyline
 66
     1
 10
0.0
 20
0.0
 30
0.0
  0
VERTEX
  5
592
330
590
100
AcDbEntity
  8
001
 62
   200
370
    50
100
AcDbVertex
100
AcDb2dVertex
 10
38.833419
 20
59.323497
 30
0.0
  0
VERTEX
  5
593
330
590
100
AcDbEntity
  8
001
 62
   200
370
    50
100
AcDbVertex
100
AcDb2dVertex
 10
38.837593
 20
59.229854
 30
0.0
  0
VERTEX
  5
594
330
590
100
AcDbEntity
  8
001
 62
   200
370
    50
100
AcDbVertex
100
AcDb2dVertex
 10
38.85025
 20
59.101945
 30
0.0
  0
VERTEX
  5
595
330
590
100
AcDbEntity
  8
001
 62
   200
370
    50
100
AcDbVertex
100
AcDb2dVertex
 10
38.865922
 20
59.012202
 30
0.0
  0
VERTEX
  5
596
330
590
100
AcDbEntity
  8
001
 62
   200
370
    50
100
AcDbVertex
100
AcDb2dVertex
 10
38.885301
 20
58.931614
 30
0.0
  0
VERTEX
  5
597
330
590
100
AcDbEntity
  8
001
 62
   200
370
    50
100
AcDbVertex
100
AcDb2dVertex
 10
38.907988
 20
58.852009
 30
0.0
  0
VERTEX
  5
598
330
590
100
AcDbEntity
  8
001
 62
   200
370
    50
100
AcDbVertex
100
AcDb2dVertex
 10
38.93845
 20
58.766035
 30
0.0
  0
VERTEX
  5
599
330
590
100
AcDbEntity
  8
001
 62
   200
370
    50
100
AcDbVertex
100
AcDb2dVertex
 10
38.98525
 20
58.658488
 30
0.0
  0
VERTEX
  5
59A
330
590
100
AcDbEntity
  8
001
 62
   200
370
    50
100
AcDbVertex
100
AcDb2dVertex
 10
39.023072
 20
58.582026
 30
0.0
  0
SEQEND
  5
591
330
590
100
AcDbEntity
  8
001
370
    50
  0
LINE
  5
59B
330
1F
100
AcDbEntity
  8
001
 62
   200
370
    50
100
AcDbLine
 10
38.833419
 20
59.323497
 30
0.0
 11
38.833419
 21
69.122179
 31
0.0
  0
LINE
  5
59C
330
1F
100
AcDbEntity
  8
001
 62
   253
370
    50
100
AcDbLine
 10
47.305549
 20
48.799458
 30
0.0
 11
46.660441
 21
49.55868
 31
0.0
  0
POLYLINE
  5
59D
330
1F
100
AcDbEntity
  8
001
 62
   253
370
    50
100
AcDb2dPolyline
 66
     1
 10
0.0
 20
0.0
 30
0.0
  0
VERTEX
  5
59F
330
59D
100
AcDbEntity
  8
001
 62
   253
370
    50
100
AcDbVertex
100
AcDb2dVertex
 10
50.767895
 20
84.700853
 30
0.0
  0
VERTEX
  5
5A0
330
59D
100
AcDbEntity
  8
001
 62
   253
370
    50
100
AcDbVertex
100
AcDb2dVertex
 10
50.749898
 20
84.705304
 30
0.0
  0
VERTEX
  5
5A1
330
59D
100
AcDbEntity
  8
001
 62
   253
370
    50
100
AcDbVertex
100
AcDb2dVertex
 10
50.723555
 20
84.711623
 30
0.0
  0
VERTEX
  5
5A2
330
59D
100
AcDbEntity
  8
001
 62
   253
370
    50
100
AcDbVertex
100
AcDb2dVertex
 10
50.220661
 20
84.786166
 30
0.0
  0
VERTEX
  5
5A3
330
59D
100
AcDbEntity
  8
001
 62
   253
370
    50
100
AcDbVertex
100
AcDb2dVertex
 10
49.871255
 20
84.799458
 30
0.0
  0
SEQEND
  5
59E
330
59D
100
AcDbEntity
  8
001
370
    50
  0
LINE
  5
5A4
330
1F
100
AcDbEntity
  8
001
 62
   253
370
    50
100
AcDbLine
 10
47.305549
 20
48.799458
 30
0.0
 11
57.833419
 21
48.799458
 31
0.0
  0
LINE
  5
5A5
330
1F
100
AcDbEntity
  8
001
 62
   253
370
    50
100
AcDbLine
 10
57.833419
 20
84.799458
 30
0.0
 11
49.871255
 21
84.799458
 31
0.0
  0
LINE
  5
5A6
330
1F
100
AcDbEntity
  8
001
 62
   253
370
    50
100
AcDbLine
 10
47.120171
 20
49.798991
 30
0.0
 11
46.826502
 21
49.798991
 31
0.0
  0
POLYLINE
  5
5A7
330
1F
100
AcDbEntity
  8
001
 62
   253
370
    50
100
AcDb2dPolyline
 66
     1
 10
0.0
 20
0.0
 30
0.0
  0
VERTEX
  5
5A9
330
5A7
100
AcDbEntity
  8
001
 62
   253
370
    50
100
AcDbVertex
100
AcDb2dVertex
 10
47.120171
 20
49.798991
 30
0.0
  0
VERTEX
  5
5AA
330
5A7
100
AcDbEntity
  8
001
 62
   253
370
    50
100
AcDbVertex
100
AcDb2dVertex
 10
47.149196
 20
49.841259
 30
0.0
  0
VERTEX
  5
5AB
330
5A7
100
AcDbEntity
  8
001
 62
   253
370
    50
100
AcDbVertex
100
AcDb2dVertex
 10
47.190165
 20
49.903985
 30
0.0
  0
VERTEX
  5
5AC
330
5A7
100
AcDbEntity
  8
001
 62
   253
370
    50
100
AcDbVertex
100
AcDb2dVertex
 10
47.229694
 20
49.968967
 30
0.0
  0
VERTEX
  5
5AD
330
5A7
100
AcDbEntity
  8
001
 62
   253
370
    50
100
AcDbVertex
100
AcDb2dVertex
 10
47.255723
 20
50.014048
 30
0.0
  0
SEQEND
  5
5A8
330
5A7
100
AcDbEntity
  8
001
370
    50
  0
LINE
  5
5AE
330
1F
100
AcDbEntity
  8
001
 62
   253
370
    50
100
AcDbLine
 10
51.784944
 20
50.014048
 30
0.0
 11
47.255723
 21
50.014048
 31
0.0
  0
LINE
  5
5AF
330
1F
100
AcDbEntity
  8
001
 62
   253
370
    50
100
AcDbLine
 10
50.767895
 20
51.211001
 30
0.0
 11
51.784944
 21
50.014048
 31
0.0
  0
POLYLINE
  5
5B0
330
1F
100
AcDbEntity
  8
001
 62
   253
370
    50
100
AcDb2dPolyline
 66
     1
 10
0.0
 20
0.0
 30
0.0
  0
VERTEX
  5
5B2
330
5B0
100
AcDbEntity
  8
001
 62
   253
370
    50
100
AcDbVertex
100
AcDb2dVertex
 10
50.767895
 20
51.211001
 30
0.0
  0
VERTEX
  5
5B3
330
5B0
100
AcDbEntity
  8
001
 62
   253
370
    50
100
AcDbVertex
100
AcDb2dVertex
 10
50.375589
 20
51.668592
 30
0.0
  0
VERTEX
  5
5B4
330
5B0
100
AcDbEntity
  8
001
 62
   253
370
    50
100
AcDbVertex
100
AcDb2dVertex
 10
49.789731
 20
52.32633
 30
0.0
  0
VERTEX
  5
5B5
330
5B0
100
AcDbEntity
  8
001
 62
   253
370
    50
100
AcDbVertex
100
AcDb2dVertex
 10
48.310733
 20
53.875935
 30
0.0
  0
VERTEX
  5
5B6
330
5B0
100
AcDbEntity
  8
001
 62
   253
370
    50
100
AcDbVertex
100
AcDb2dVertex
 10
47.267538
 20
54.906495
 30
0.0
  0
SEQEND
  5
5B1
330
5B0
100
AcDbEntity
  8
001
370
    50
  0
POLYLINE
  5
5B7
330
1F
100
AcDbEntity
  8
001
 62
   253
370
    50
100
AcDb2dPolyline
 66
     1
 10
0.0
 20
0.0
 30
0.0
  0
VERTEX
  5
5B9
330
5B7
100
AcDbEntity
  8
001
 62
   253
370
    50
100
AcDbVertex
100
AcDb2dVertex
 10
47.267538
 20
54.906495
 30
0.0
  0
VERTEX
  5
5BA
330
5B7
100
AcDbEntity
  8
001
 62
   253
370
    50
100
AcDbVertex
100
AcDb2dVertex
 10
47.192534
 20
55.177226
 30
0.0
  0
VERTEX
  5
5BB
330
5B7
100
AcDbEntity
  8
001
 62
   253
370
    50
100
AcDbVertex
100
AcDb2dVertex
 10
47.076516
 20
55.571032
 30
0.0
  0
VERTEX
  5
5BC
330
5B7
100
AcDbEntity
  8
001
 62
   253
370
    50
100
AcDbVertex
100
AcDb2dVertex
 10
46.945495
 20
55.981907
 30
0.0
  0
VERTEX
  5
5BD
330
5B7
100
AcDbEntity
  8
001
 62
   253
370
    50
100
AcDbVertex
100
AcDb2dVertex
 10
46.851442
 20
56.261629
 30
0.0
  0
SEQEND
  5
5B8
330
5B7
100
AcDbEntity
  8
001
370
    50
  0
POLYLINE
  5
5BE
330
1F
100
AcDbEntity
  8
001
 62
   253
370
    50
100
AcDb2dPolyline
 66
     1
 10
0.0
 20
0.0
 30
0.0
  0
VERTEX
  5
5C0
330
5BE
100
AcDbEntity
  8
001
 62
   253
370
    50
100
AcDbVertex
100
AcDb2dVertex
 10
46.851442
 20
56.261629
 30
0.0
  0
VERTEX
  5
5C1
330
5BE
100
AcDbEntity
  8
001
 62
   253
370
    50
100
AcDbVertex
100
AcDb2dVertex
 10
46.922255
 20
56.2962
 30
0.0
  0
VERTEX
  5
5C2
330
5BE
100
AcDbEntity
  8
001
 62
   253
370
    50
100
AcDbVertex
100
AcDb2dVertex
 10
46.992454
 20
56.331977
 30
0.0
  0
VERTEX
  5
5C3
330
5BE
100
AcDbEntity
  8
001
 62
   253
370
    50
100
AcDbVertex
100
AcDb2dVertex
 10
47.140466
 20
56.417307
 30
0.0
  0
VERTEX
  5
5C4
330
5BE
100
AcDbEntity
  8
001
 62
   253
370
    50
100
AcDbVertex
100
AcDb2dVertex
 10
47.281774
 20
56.513572
 30
0.0
  0
VERTEX
  5
5C5
330
5BE
100
AcDbEntity
  8
001
 62
   253
370
    50
100
AcDbVertex
100
AcDb2dVertex
 10
47.411607
 20
56.617487
 30
0.0
  0
VERTEX
  5
5C6
330
5BE
100
AcDbEntity
  8
001
 62
   253
370
    50
100
AcDbVertex
100
AcDb2dVertex
 10
47.531803
 20
56.732222
 30
0.0
  0
VERTEX
  5
5C7
330
5BE
100
AcDbEntity
  8
001
 62
   253
370
    50
100
AcDbVertex
100
AcDb2dVertex
 10
47.621973
 20
56.835412
 30
0.0
  0
VERTEX
  5
5C8
330
5BE
100
AcDbEntity
  8
001
 62
   253
370
    50
100
AcDbVertex
100
AcDb2dVertex
 10
47.702806
 20
56.946113
 30
0.0
  0
VERTEX
  5
5C9
330
5BE
100
AcDbEntity
  8
001
 62
   253
370
    50
100
AcDbVertex
100
AcDb2dVertex
 10
47.771741
 20
57.061341
 30
0.0
  0
VERTEX
  5
5CA
330
5BE
100
AcDbEntity
  8
001
 62
   253
370
    50
100
AcDbVertex
100
AcDb2dVertex
 10
47.829091
 20
57.18269
 30
0.0
  0
VERTEX
  5
5CB
330
5BE
100
AcDbEntity
  8
001
 62
   253
370
    50
100
AcDbVertex
100
AcDb2dVertex
 10
47.873194
 20
57.308166
 30
0.0
  0
VERTEX
  5
5CC
330
5BE
100
AcDbEntity
  8
001
 62
   253
370
    50
100
AcDbVertex
100
AcDb2dVertex
 10
47.904238
 20
57.437543
 30
0.0
  0
VERTEX
  5
5CD
330
5BE
100
AcDbEntity
  8
001
 62
   253
370
    50
100
AcDbVertex
100
AcDb2dVertex
 10
47.922067
 20
57.569387
 30
0.0
  0
VERTEX
  5
5CE
330
5BE
100
AcDbEntity
  8
001
 62
   253
370
    50
100
AcDbVertex
100
AcDb2dVertex
 10
47.926597
 20
57.70231
 30
0.0
  0
VERTEX
  5
5CF
330
5BE
100
AcDbEntity
  8
001
 62
   253
370
    50
100
AcDbVertex
100
AcDb2dVertex
 10
47.918422
 20
57.830938
 30
0.0
  0
VERTEX
  5
5D0
330
5BE
100
AcDbEntity
  8
001
 62
   253
370
    50
100
AcDbVertex
100
AcDb2dVertex
 10
47.898753
 20
57.958348
 30
0.0
  0
VERTEX
  5
5D1
330
5BE
100
AcDbEntity
  8
001
 62
   253
370
    50
100
AcDbVertex
100
AcDb2dVertex
 10
47.86799
 20
58.085782
 30
0.0
  0
VERTEX
  5
5D2
330
5BE
100
AcDbEntity
  8
001
 62
   253
370
    50
100
AcDbVertex
100
AcDb2dVertex
 10
47.827195
 20
58.210356
 30
0.0
  0
VERTEX
  5
5D3
330
5BE
100
AcDbEntity
  8
001
 62
   253
370
    50
100
AcDbVertex
100
AcDb2dVertex
 10
47.743018
 20
58.402693
 30
0.0
  0
VERTEX
  5
5D4
330
5BE
100
AcDbEntity
  8
001
 62
   253
370
    50
100
AcDbVertex
100
AcDb2dVertex
 10
47.639179
 20
58.585477
 30
0.0
  0
VERTEX
  5
5D5
330
5BE
100
AcDbEntity
  8
001
 62
   253
370
    50
100
AcDbVertex
100
AcDb2dVertex
 10
47.540283
 20
58.729907
 30
0.0
  0
VERTEX
  5
5D6
330
5BE
100
AcDbEntity
  8
001
 62
   253
370
    50
100
AcDbVertex
100
AcDb2dVertex
 10
47.430928
 20
58.866259
 30
0.0
  0
VERTEX
  5
5D7
330
5BE
100
AcDbEntity
  8
001
 62
   253
370
    50
100
AcDbVertex
100
AcDb2dVertex
 10
47.309823
 20
58.996874
 30
0.0
  0
VERTEX
  5
5D8
330
5BE
100
AcDbEntity
  8
001
 62
   253
370
    50
100
AcDbVertex
100
AcDb2dVertex
 10
47.183451
 20
59.12276
 30
0.0
  0
SEQEND
  5
5BF
330
5BE
100
AcDbEntity
  8
001
370
    50
  0
POLYLINE
  5
5D9
330
1F
100
AcDbEntity
  8
001
 62
   253
370
    50
100
AcDb2dPolyline
 66
     1
 10
0.0
 20
0.0
 30
0.0
  0
VERTEX
  5
5DB
330
5D9
100
AcDbEntity
  8
001
 62
   253
370
    50
100
AcDbVertex
100
AcDb2dVertex
 10
47.183451
 20
59.12276
 30
0.0
  0
VERTEX
  5
5DC
330
5D9
100
AcDbEntity
  8
001
 62
   253
370
    50
100
AcDbVertex
100
AcDb2dVertex
 10
47.281214
 20
61.332155
 30
0.0
  0
VERTEX
  5
5DD
330
5D9
100
AcDbEntity
  8
001
 62
   253
370
    50
100
AcDbVertex
100
AcDb2dVertex
 10
47.035198
 20
64.539986
 30
0.0
  0
VERTEX
  5
5DE
330
5D9
100
AcDbEntity
  8
001
 62
   253
370
    50
100
AcDbVertex
100
AcDb2dVertex
 10
46.829807
 20
65.642122
 30
0.0
  0
VERTEX
  5
5DF
330
5D9
100
AcDbEntity
  8
001
 62
   253
370
    50
100
AcDbVertex
100
AcDb2dVertex
 10
46.660441
 20
66.391177
 30
0.0
  0
SEQEND
  5
5DA
330
5D9
100
AcDbEntity
  8
001
370
    50
  0
POLYLINE
  5
5E0
330
1F
100
AcDbEntity
  8
001
 62
   253
370
    50
100
AcDb2dPolyline
 66
     1
 10
0.0
 20
0.0
 30
0.0
  0
VERTEX
  5
5E2
330
5E0
100
AcDbEntity
  8
001
 62
   253
370
    50
100
AcDbVertex
100
AcDb2dVertex
 10
46.826502
 20
67.171273
 30
0.0
  0
VERTEX
  5
5E3
330
5E0
100
AcDbEntity
  8
001
 62
   253
370
    50
100
AcDbVertex
100
AcDb2dVertex
 10
46.791061
 20
67.01294
 30
0.0
  0
VERTEX
  5
5E4
330
5E0
100
AcDbEntity
  8
001
 62
   253
370
    50
100
AcDbVertex
100
AcDb2dVertex
 10
46.740693
 20
66.781221
 30
0.0
  0
VERTEX
  5
5E5
330
5E0
100
AcDbEntity
  8
001
 62
   253
370
    50
100
AcDbVertex
100
AcDb2dVertex
 10
46.692462
 20
66.549753
 30
0.0
  0
VERTEX
  5
5E6
330
5E0
100
AcDbEntity
  8
001
 62
   253
370
    50
100
AcDbVertex
100
AcDb2dVertex
 10
46.660441
 20
66.391177
 30
0.0
  0
SEQEND
  5
5E1
330
5E0
100
AcDbEntity
  8
001
370
    50
  0
LINE
  5
5E7
330
1F
100
AcDbEntity
  8
001
 62
   253
370
    50
100
AcDbLine
 10
47.120171
 20
67.171273
 30
0.0
 11
46.826502
 21
67.171273
 31
0.0
  0
POLYLINE
  5
5E8
330
1F
100
AcDbEntity
  8
001
 62
   253
370
    50
100
AcDb2dPolyline
 66
     1
 10
0.0
 20
0.0
 30
0.0
  0
VERTEX
  5
5EA
330
5E8
100
AcDbEntity
  8
001
 62
   253
370
    50
100
AcDbVertex
100
AcDb2dVertex
 10
47.120171
 20
67.171273
 30
0.0
  0
VERTEX
  5
5EB
330
5E8
100
AcDbEntity
  8
001
 62
   253
370
    50
100
AcDbVertex
100
AcDb2dVertex
 10
47.149065
 20
67.297775
 30
0.0
  0
VERTEX
  5
5EC
330
5E8
100
AcDbEntity
  8
001
 62
   253
370
    50
100
AcDbVertex
100
AcDb2dVertex
 10
47.190165
 20
67.482913
 30
0.0
  0
VERTEX
  5
5ED
330
5E8
100
AcDbEntity
  8
001
 62
   253
370
    50
100
AcDbVertex
100
AcDb2dVertex
 10
47.229549
 20
67.66773
 30
0.0
  0
VERTEX
  5
5EE
330
5E8
100
AcDbEntity
  8
001
 62
   253
370
    50
100
AcDbVertex
100
AcDb2dVertex
 10
47.255723
 20
67.794349
 30
0.0
  0
SEQEND
  5
5E9
330
5E8
100
AcDbEntity
  8
001
370
    50
  0
LINE
  5
5EF
330
1F
100
AcDbEntity
  8
001
 62
   253
370
    50
100
AcDbLine
 10
51.784944
 20
67.794349
 30
0.0
 11
47.255723
 21
67.794349
 31
0.0
  0
POLYLINE
  5
5F0
330
1F
100
AcDbEntity
  8
001
 62
   253
370
    50
100
AcDb2dPolyline
 66
     1
 10
0.0
 20
0.0
 30
0.0
  0
VERTEX
  5
5F2
330
5F0
100
AcDbEntity
  8
001
 62
   253
370
    50
100
AcDbVertex
100
AcDb2dVertex
 10
51.784944
 20
67.794349
 30
0.0
  0
VERTEX
  5
5F3
330
5F0
100
AcDbEntity
  8
001
 62
   253
370
    50
100
AcDbVertex
100
AcDb2dVertex
 10
51.603418
 20
68.358249
 30
0.0
  0
VERTEX
  5
5F4
330
5F0
100
AcDbEntity
  8
001
 62
   253
370
    50
100
AcDbVertex
100
AcDb2dVertex
 10
51.317368
 20
69.175161
 30
0.0
  0
VERTEX
  5
5F5
330
5F0
100
AcDbEntity
  8
001
 62
   253
370
    50
100
AcDbVertex
100
AcDb2dVertex
 10
50.999459
 20
69.989899
 30
0.0
  0
VERTEX
  5
5F6
330
5F0
100
AcDbEntity
  8
001
 62
   253
370
    50
100
AcDbVertex
100
AcDb2dVertex
 10
50.767895
 20
70.541869
 30
0.0
  0
SEQEND
  5
5F1
330
5F0
100
AcDbEntity
  8
001
370
    50
  0
POLYLINE
  5
5F7
330
1F
100
AcDbEntity
  8
001
 62
   253
370
    50
100
AcDb2dPolyline
 66
     1
 10
0.0
 20
0.0
 30
0.0
  0
VERTEX
  5
5F9
330
5F7
100
AcDbEntity
  8
001
 62
   253
370
    50
100
AcDbVertex
100
AcDb2dVertex
 10
50.767895
 20
70.541869
 30
0.0
  0
VERTEX
  5
5FA
330
5F7
100
AcDbEntity
  8
001
 62
   253
370
    50
100
AcDbVertex
100
AcDb2dVertex
 10
50.213002
 20
71.708967
 30
0.0
  0
VERTEX
  5
5FB
330
5F7
100
AcDbEntity
  8
001
 62
   253
370
    50
100
AcDbVertex
100
AcDb2dVertex
 10
49.278233
 20
73.344592
 30
0.0
  0
VERTEX
  5
5FC
330
5F7
100
AcDbEntity
  8
001
 62
   253
370
    50
100
AcDbVertex
100
AcDb2dVertex
 10
48.131974
 20
74.94013
 30
0.0
  0
VERTEX
  5
5FD
330
5F7
100
AcDbEntity
  8
001
 62
   253
370
    50
100
AcDbVertex
100
AcDb2dVertex
 10
47.267538
 20
75.974418
 30
0.0
  0
SEQEND
  5
5F8
330
5F7
100
AcDbEntity
  8
001
370
    50
  0
POLYLINE
  5
5FE
330
1F
100
AcDbEntity
  8
001
 62
   253
370
    50
100
AcDb2dPolyline
 66
     1
 10
0.0
 20
0.0
 30
0.0
  0
VERTEX
  5
600
330
5FE
100
AcDbEntity
  8
001
 62
   253
370
    50
100
AcDbVertex
100
AcDb2dVertex
 10
47.267538
 20
75.974418
 30
0.0
  0
VERTEX
  5
601
330
5FE
100
AcDbEntity
  8
001
 62
   253
370
    50
100
AcDbVertex
100
AcDb2dVertex
 10
47.194072
 20
76.274208
 30
0.0
  0
VERTEX
  5
602
330
5FE
100
AcDbEntity
  8
001
 62
   253
370
    50
100
AcDbVertex
100
AcDb2dVertex
 10
47.076516
 20
76.709614
 30
0.0
  0
VERTEX
  5
603
330
5FE
100
AcDbEntity
  8
001
 62
   253
370
    50
100
AcDbVertex
100
AcDb2dVertex
 10
46.946956
 20
77.133728
 30
0.0
  0
VERTEX
  5
604
330
5FE
100
AcDbEntity
  8
001
 62
   253
370
    50
100
AcDbVertex
100
AcDb2dVertex
 10
46.851442
 20
77.421809
 30
0.0
  0
SEQEND
  5
5FF
330
5FE
100
AcDbEntity
  8
001
370
    50
  0
POLYLINE
  5
605
330
1F
100
AcDbEntity
  8
001
 62
   253
370
    50
100
AcDb2dPolyline
 66
     1
 10
0.0
 20
0.0
 30
0.0
  0
VERTEX
  5
607
330
605
100
AcDbEntity
  8
001
 62
   253
370
    50
100
AcDbVertex
100
AcDb2dVertex
 10
46.851442
 20
77.421809
 30
0.0
  0
VERTEX
  5
608
330
605
100
AcDbEntity
  8
001
 62
   253
370
    50
100
AcDbVertex
100
AcDb2dVertex
 10
46.872326
 20
77.431618
 30
0.0
  0
VERTEX
  5
609
330
605
100
AcDbEntity
  8
001
 62
   253
370
    50
100
AcDbVertex
100
AcDb2dVertex
 10
46.893171
 20
77.441513
 30
0.0
  0
VERTEX
  5
60A
330
605
100
AcDbEntity
  8
001
 62
   253
370
    50
100
AcDbVertex
100
AcDb2dVertex
 10
47.050954
 20
77.523408
 30
0.0
  0
VERTEX
  5
60B
330
605
100
AcDbEntity
  8
001
 62
   253
370
    50
100
AcDbVertex
100
AcDb2dVertex
 10
47.203008
 20
77.615694
 30
0.0
  0
VERTEX
  5
60C
330
605
100
AcDbEntity
  8
001
 62
   253
370
    50
100
AcDbVertex
100
AcDb2dVertex
 10
47.34288
 20
77.714755
 30
0.0
  0
VERTEX
  5
60D
330
605
100
AcDbEntity
  8
001
 62
   253
370
    50
100
AcDbVertex
100
AcDb2dVertex
 10
47.474245
 20
77.824685
 30
0.0
  0
VERTEX
  5
60E
330
605
100
AcDbEntity
  8
001
 62
   253
370
    50
100
AcDbVertex
100
AcDb2dVertex
 10
47.57089
 20
77.920204
 30
0.0
  0
VERTEX
  5
60F
330
605
100
AcDbEntity
  8
001
 62
   253
370
    50
100
AcDbVertex
100
AcDb2dVertex
 10
47.659544
 20
78.023217
 30
0.0
  0
VERTEX
  5
610
330
605
100
AcDbEntity
  8
001
 62
   253
370
    50
100
AcDbVertex
100
AcDb2dVertex
 10
47.735344
 20
78.128401
 30
0.0
  0
VERTEX
  5
611
330
605
100
AcDbEntity
  8
001
 62
   253
370
    50
100
AcDbVertex
100
AcDb2dVertex
 10
47.800763
 20
78.24027
 30
0.0
  0
VERTEX
  5
612
330
605
100
AcDbEntity
  8
001
 62
   253
370
    50
100
AcDbVertex
100
AcDb2dVertex
 10
47.851899
 20
78.353231
 30
0.0
  0
VERTEX
  5
613
330
605
100
AcDbEntity
  8
001
 62
   253
370
    50
100
AcDbVertex
100
AcDb2dVertex
 10
47.890632
 20
78.471059
 30
0.0
  0
VERTEX
  5
614
330
605
100
AcDbEntity
  8
001
 62
   253
370
    50
100
AcDbVertex
100
AcDb2dVertex
 10
47.915193
 20
78.588039
 30
0.0
  0
VERTEX
  5
615
330
605
100
AcDbEntity
  8
001
 62
   253
370
    50
100
AcDbVertex
100
AcDb2dVertex
 10
47.92624
 20
78.706989
 30
0.0
  0
VERTEX
  5
616
330
605
100
AcDbEntity
  8
001
 62
   253
370
    50
100
AcDbVertex
100
AcDb2dVertex
 10
47.92381
 20
78.817345
 30
0.0
  0
VERTEX
  5
617
330
605
100
AcDbEntity
  8
001
 62
   253
370
    50
100
AcDbVertex
100
AcDb2dVertex
 10
47.909629
 20
78.926842
 30
0.0
  0
VERTEX
  5
618
330
605
100
AcDbEntity
  8
001
 62
   253
370
    50
100
AcDbVertex
100
AcDb2dVertex
 10
47.884269
 20
79.034568
 30
0.0
  0
VERTEX
  5
619
330
605
100
AcDbEntity
  8
001
 62
   253
370
    50
100
AcDbVertex
100
AcDb2dVertex
 10
47.848486
 20
79.139285
 30
0.0
  0
VERTEX
  5
61A
330
605
100
AcDbEntity
  8
001
 62
   253
370
    50
100
AcDbVertex
100
AcDb2dVertex
 10
47.797486
 20
79.251225
 30
0.0
  0
VERTEX
  5
61B
330
605
100
AcDbEntity
  8
001
 62
   253
370
    50
100
AcDbVertex
100
AcDb2dVertex
 10
47.736162
 20
79.357892
 30
0.0
  0
VERTEX
  5
61C
330
605
100
AcDbEntity
  8
001
 62
   253
370
    50
100
AcDbVertex
100
AcDb2dVertex
 10
47.663735
 20
79.462039
 30
0.0
  0
VERTEX
  5
61D
330
605
100
AcDbEntity
  8
001
 62
   253
370
    50
100
AcDbVertex
100
AcDb2dVertex
 10
47.583453
 20
79.560303
 30
0.0
  0
VERTEX
  5
61E
330
605
100
AcDbEntity
  8
001
 62
   253
370
    50
100
AcDbVertex
100
AcDb2dVertex
 10
47.493572
 20
79.65576
 30
0.0
  0
VERTEX
  5
61F
330
605
100
AcDbEntity
  8
001
 62
   253
370
    50
100
AcDbVertex
100
AcDb2dVertex
 10
47.397315
 20
79.744643
 30
0.0
  0
VERTEX
  5
620
330
605
100
AcDbEntity
  8
001
 62
   253
370
    50
100
AcDbVertex
100
AcDb2dVertex
 10
47.291953
 20
79.829876
 30
0.0
  0
VERTEX
  5
621
330
605
100
AcDbEntity
  8
001
 62
   253
370
    50
100
AcDbVertex
100
AcDb2dVertex
 10
47.183451
 20
79.911301
 30
0.0
  0
SEQEND
  5
606
330
605
100
AcDbEntity
  8
001
370
    50
  0
POLYLINE
  5
622
330
1F
100
AcDbEntity
  8
001
 62
   253
370
    50
100
AcDb2dPolyline
 66
     1
 10
0.0
 20
0.0
 30
0.0
  0
VERTEX
  5
624
330
622
100
AcDbEntity
  8
001
 62
   253
370
    50
100
AcDbVertex
100
AcDb2dVertex
 10
47.183451
 20
79.911301
 30
0.0
  0
VERTEX
  5
625
330
622
100
AcDbEntity
  8
001
 62
   253
370
    50
100
AcDbVertex
100
AcDb2dVertex
 10
47.256237
 20
80.631658
 30
0.0
  0
VERTEX
  5
626
330
622
100
AcDbEntity
  8
001
 62
   253
370
    50
100
AcDbVertex
100
AcDb2dVertex
 10
47.301335
 20
81.606113
 30
0.0
  0
VERTEX
  5
627
330
622
100
AcDbEntity
  8
001
 62
   253
370
    50
100
AcDbVertex
100
AcDb2dVertex
 10
47.252043
 20
82.389645
 30
0.0
  0
VERTEX
  5
628
330
622
100
AcDbEntity
  8
001
 62
   253
370
    50
100
AcDbVertex
100
AcDb2dVertex
 10
47.006695
 20
83.158521
 30
0.0
  0
VERTEX
  5
629
330
622
100
AcDbEntity
  8
001
 62
   253
370
    50
100
AcDbVertex
100
AcDb2dVertex
 10
46.816765
 20
83.531848
 30
0.0
  0
VERTEX
  5
62A
330
622
100
AcDbEntity
  8
001
 62
   253
370
    50
100
AcDbVertex
100
AcDb2dVertex
 10
46.660441
 20
83.787906
 30
0.0
  0
SEQEND
  5
623
330
622
100
AcDbEntity
  8
001
370
    50
  0
POLYLINE
  5
62B
330
1F
100
AcDbEntity
  8
001
 62
   253
370
    50
100
AcDb2dPolyline
 66
     1
 10
0.0
 20
0.0
 30
0.0
  0
VERTEX
  5
62D
330
62B
100
AcDbEntity
  8
001
 62
   253
370
    50
100
AcDbVertex
100
AcDb2dVertex
 10
46.826502
 20
84.02972
 30
0.0
  0
VERTEX
  5
62E
330
62B
100
AcDbEntity
  8
001
 62
   253
370
    50
100
AcDbVertex
100
AcDb2dVertex
 10
46.790834
 20
83.982814
 30
0.0
  0
VERTEX
  5
62F
330
62B
100
AcDbEntity
  8
001
 62
   253
370
    50
100
AcDbVertex
100
AcDb2dVertex
 10
46.740693
 20
83.912831
 30
0.0
  0
VERTEX
  5
630
330
62B
100
AcDbEntity
  8
001
 62
   253
370
    50
100
AcDbVertex
100
AcDb2dVertex
 10
46.692207
 20
83.839208
 30
0.0
  0
VERTEX
  5
631
330
62B
100
AcDbEntity
  8
001
 62
   253
370
    50
100
AcDbVertex
100
AcDb2dVertex
 10
46.660441
 20
83.787906
 30
0.0
  0
SEQEND
  5
62C
330
62B
100
AcDbEntity
  8
001
370
    50
  0
LINE
  5
632
330
1F
100
AcDbEntity
  8
001
 62
   253
370
    50
100
AcDbLine
 10
47.120171
 20
84.02972
 30
0.0
 11
46.826502
 21
84.02972
 31
0.0
  0
POLYLINE
  5
633
330
1F
100
AcDbEntity
  8
001
 62
   253
370
    50
100
AcDb2dPolyline
 66
     1
 10
0.0
 20
0.0
 30
0.0
  0
VERTEX
  5
635
330
633
100
AcDbEntity
  8
001
 62
   253
370
    50
100
AcDbVertex
100
AcDb2dVertex
 10
47.120171
 20
84.02972
 30
0.0
  0
VERTEX
  5
636
330
633
100
AcDbEntity
  8
001
 62
   253
370
    50
100
AcDbVertex
100
AcDb2dVertex
 10
47.148626
 20
84.065296
 30
0.0
  0
VERTEX
  5
637
330
633
100
AcDbEntity
  8
001
 62
   253
370
    50
100
AcDbVertex
100
AcDb2dVertex
 10
47.190165
 20
84.11733
 30
0.0
  0
VERTEX
  5
638
330
633
100
AcDbEntity
  8
001
 62
   253
370
    50
100
AcDbVertex
100
AcDb2dVertex
 10
47.22911
 20
84.166248
 30
0.0
  0
VERTEX
  5
639
330
633
100
AcDbEntity
  8
001
 62
   253
370
    50
100
AcDbVertex
100
AcDb2dVertex
 10
47.255723
 20
84.199745
 30
0.0
  0
SEQEND
  5
634
330
633
100
AcDbEntity
  8
001
370
    50
  0
LINE
  5
63A
330
1F
100
AcDbEntity
  8
001
 62
   253
370
    50
100
AcDbLine
 10
51.784944
 20
84.199745
 30
0.0
 11
47.255723
 21
84.199745
 31
0.0
  0
POLYLINE
  5
63B
330
1F
100
AcDbEntity
  8
001
 62
   253
370
    50
100
AcDb2dPolyline
 66
     1
 10
0.0
 20
0.0
 30
0.0
  0
VERTEX
  5
63D
330
63B
100
AcDbEntity
  8
001
 62
   253
370
    50
100
AcDbVertex
100
AcDb2dVertex
 10
51.784944
 20
84.199745
 30
0.0
  0
VERTEX
  5
63E
330
63B
100
AcDbEntity
  8
001
 62
   253
370
    50
100
AcDbVertex
100
AcDb2dVertex
 10
51.778012
 20
84.205501
 30
0.0
  0
VERTEX
  5
63F
330
63B
100
AcDbEntity
  8
001
 62
   253
370
    50
100
AcDbVertex
100
AcDb2dVertex
 10
51.767847
 20
84.213868
 30
0.0
  0
VERTEX
  5
640
330
63B
100
AcDbEntity
  8
001
 62
   253
370
    50
100
AcDbVertex
100
AcDb2dVertex
 10
51.2009
 20
84.550768
 30
0.0
  0
VERTEX
  5
641
330
63B
100
AcDbEntity
  8
001
 62
   253
370
    50
100
AcDbVertex
100
AcDb2dVertex
 10
50.767895
 20
84.700853
 30
0.0
  0
SEQEND
  5
63C
330
63B
100
AcDbEntity
  8
001
370
    50
  0
POLYLINE
  5
642
330
1F
100
AcDbEntity
  8
001
 62
   253
370
    50
100
AcDb2dPolyline
 66
     1
 10
0.0
 20
0.0
 30
0.0
  0
VERTEX
  5
644
330
642
100
AcDbEntity
  8
001
 62
   253
370
    50
100
AcDbVertex
100
AcDb2dVertex
 10
49.871255
 20
84.799458
 30
0.0
  0
VERTEX
  5
645
330
642
100
AcDbEntity
  8
001
 62
   253
370
    50
100
AcDbVertex
100
AcDb2dVertex
 10
49.550601
 20
84.787606
 30
0.0
  0
VERTEX
  5
646
330
642
100
AcDbEntity
  8
001
 62
   253
370
    50
100
AcDbVertex
100
AcDb2dVertex
 10
49.083782
 20
84.747905
 30
0.0
  0
VERTEX
  5
647
330
642
100
AcDbEntity
  8
001
 62
   253
370
    50
100
AcDbVertex
100
AcDb2dVertex
 10
47.999297
 20
84.554363
 30
0.0
  0
VERTEX
  5
648
330
642
100
AcDbEntity
  8
001
 62
   253
370
    50
100
AcDbVertex
100
AcDb2dVertex
 10
47.267538
 20
84.362859
 30
0.0
  0
SEQEND
  5
643
330
642
100
AcDbEntity
  8
001
370
    50
  0
POLYLINE
  5
649
330
1F
100
AcDbEntity
  8
001
 62
   253
370
    50
100
AcDb2dPolyline
 66
     1
 10
0.0
 20
0.0
 30
0.0
  0
VERTEX
  5
64B
330
649
100
AcDbEntity
  8
001
 62
   253
370
    50
100
AcDbVertex
100
AcDb2dVertex
 10
47.267538
 20
84.362859
 30
0.0
  0
VERTEX
  5
64C
330
649
100
AcDbEntity
  8
001
 62
   253
370
    50
100
AcDbVertex
100
AcDb2dVertex
 10
47.210111
 20
84.29995
 30
0.0
  0
VERTEX
  5
64D
330
649
100
AcDbEntity
  8
001
 62
   253
370
    50
100
AcDbVertex
100
AcDb2dVertex
 10
47.126383
 20
84.207821
 30
0.0
  0
VERTEX
  5
64E
330
649
100
AcDbEntity
  8
001
 62
   253
370
    50
100
AcDbVertex
100
AcDb2dVertex
 10
47.030906
 20
84.102151
 30
0.0
  0
VERTEX
  5
64F
330
649
100
AcDbEntity
  8
001
 62
   253
370
    50
100
AcDbVertex
100
AcDb2dVertex
 10
46.965724
 20
84.02972
 30
0.0
  0
SEQEND
  5
64A
330
649
100
AcDbEntity
  8
001
370
    50
  0
LINE
  5
650
330
1F
100
AcDbEntity
  8
001
 62
   253
370
    50
100
AcDbLine
 10
57.833419
 20
48.799458
 30
0.0
 11
57.833419
 21
84.799458
 31
0.0
  0
LINE
  5
651
330
1F
100
AcDbEntity
  8
001
 62
   253
370
    50
100
AcDbLine
 10
57.833419
 20
48.799458
 30
0.0
 11
58.833419
 21
49.799458
 31
0.0
  0
LINE
  5
652
330
1F
100
AcDbEntity
  8
001
 62
   253
370
    50
100
AcDbLine
 10
58.833419
 20
83.799458
 30
0.0
 11
57.833419
 21
84.799458
 31
0.0
  0
LINE
  5
653
330
1F
100
AcDbEntity
  8
001
 62
   253
370
    50
100
AcDbLine
 10
58.833419
 20
49.799458
 30
0.0
 11
58.833419
 21
83.799458
 31
0.0
  0
LINE
  5
654
330
1F
100
AcDbEntity
  8
001
 62
   253
370
    50
100
AcDbLine
 10
47.255723
 20
67.794349
 30
0.0
 11
47.114912
 21
67.856865
 31
0.0
  0
LINE
  5
655
330
1F
100
AcDbEntity
  8
001
 62
   253
370
    50
100
AcDbLine
 10
46.957815
 20
67.171273
 30
0.0
 11
47.114912
 21
67.856865
 31
0.0
  0
POLYLINE
  5
656
330
1F
100
AcDbEntity
  8
001
 62
   253
370
    50
100
AcDb2dPolyline
 66
     1
 10
0.0
 20
0.0
 30
0.0
  0
VERTEX
  5
658
330
656
100
AcDbEntity
  8
001
 62
   253
370
    50
100
AcDbVertex
100
AcDb2dVertex
 10
47.183451
 20
59.12276
 30
0.0
  0
VERTEX
  5
659
330
656
100
AcDbEntity
  8
001
 62
   253
370
    50
100
AcDbVertex
100
AcDb2dVertex
 10
47.156627
 20
59.200531
 30
0.0
  0
VERTEX
  5
65A
330
656
100
AcDbEntity
  8
001
 62
   253
370
    50
100
AcDbVertex
100
AcDb2dVertex
 10
47.11727
 20
59.309862
 30
0.0
  0
VERTEX
  5
65B
330
656
100
AcDbEntity
  8
001
 62
   253
370
    50
100
AcDbVertex
100
AcDb2dVertex
 10
46.954746
 20
59.693959
 30
0.0
  0
VERTEX
  5
65C
330
656
100
AcDbEntity
  8
001
 62
   253
370
    50
100
AcDbVertex
100
AcDb2dVertex
 10
46.733191
 20
60.052549
 30
0.0
  0
VERTEX
  5
65D
330
656
100
AcDbEntity
  8
001
 62
   253
370
    50
100
AcDbVertex
100
AcDb2dVertex
 10
46.690673
 20
60.112871
 30
0.0
  0
VERTEX
  5
65E
330
656
100
AcDbEntity
  8
001
 62
   253
370
    50
100
AcDbVertex
100
AcDb2dVertex
 10
46.660441
 20
60.154746
 30
0.0
  0
SEQEND
  5
657
330
656
100
AcDbEntity
  8
001
370
    50
  0
POLYLINE
  5
65F
330
1F
100
AcDbEntity
  8
001
 62
   253
370
    50
100
AcDb2dPolyline
 66
     1
 10
0.0
 20
0.0
 30
0.0
  0
VERTEX
  5
661
330
65F
100
AcDbEntity
  8
001
 62
   253
370
    50
100
AcDbVertex
100
AcDb2dVertex
 10
46.660441
 20
60.154746
 30
0.0
  0
VERTEX
  5
662
330
65F
100
AcDbEntity
  8
001
 62
   253
370
    50
100
AcDbVertex
100
AcDb2dVertex
 10
46.660441
 20
60.160487
 30
0.0
  0
VERTEX
  5
663
330
65F
100
AcDbEntity
  8
001
 62
   253
370
    50
100
AcDbVertex
100
AcDb2dVertex
 10
46.660441
 20
60.166228
 30
0.0
  0
VERTEX
  5
664
330
65F
100
AcDbEntity
  8
001
 62
   253
370
    50
100
AcDbVertex
100
AcDb2dVertex
 10
46.660441
 20
61.316874
 30
0.0
  0
VERTEX
  5
665
330
65F
100
AcDbEntity
  8
001
 62
   253
370
    50
100
AcDbVertex
100
AcDb2dVertex
 10
46.660441
 20
62.467521
 30
0.0
  0
SEQEND
  5
660
330
65F
100
AcDbEntity
  8
001
370
    50
  0
LINE
  5
666
330
1F
100
AcDbEntity
  8
001
 62
   253
370
    50
100
AcDbLine
 10
46.660441
 20
62.467521
 30
0.0
 11
46.660441
 21
66.391177
 31
0.0
  0
LINE
  5
667
330
1F
100
AcDbEntity
  8
001
 62
   253
370
    50
100
AcDbLine
 10
49.548761
 20
68.607601
 30
0.0
 11
47.719834
 21
68.127377
 31
0.0
  0
LINE
  5
668
330
1F
100
AcDbEntity
  8
001
 62
   253
370
    50
100
AcDbLine
 10
49.548761
 20
68.607601
 30
0.0
 11
51.784944
 21
67.794349
 31
0.0
  0
LINE
  5
669
330
1F
100
AcDbEntity
  8
001
 62
   253
370
    50
100
AcDbLine
 10
47.114912
 20
67.856865
 30
0.0
 11
47.719834
 21
68.127377
 31
0.0
  0
POLYLINE
  5
66A
330
1F
100
AcDbEntity
  8
001
 62
   253
370
    50
100
AcDb2dPolyline
 66
     1
 10
0.0
 20
0.0
 30
0.0
  0
VERTEX
  5
66C
330
66A
100
AcDbEntity
  8
001
 62
   253
370
    50
100
AcDbVertex
100
AcDb2dVertex
 10
47.551484
 20
58.690693
 30
0.0
  0
VERTEX
  5
66D
330
66A
100
AcDbEntity
  8
001
 62
   253
370
    50
100
AcDbVertex
100
AcDb2dVertex
 10
47.572751
 20
58.629375
 30
0.0
  0
VERTEX
  5
66E
330
66A
100
AcDbEntity
  8
001
 62
   253
370
    50
100
AcDbVertex
100
AcDb2dVertex
 10
47.605474
 20
58.540378
 30
0.0
  0
VERTEX
  5
66F
330
66A
100
AcDbEntity
  8
001
 62
   253
370
    50
100
AcDbVertex
100
AcDb2dVertex
 10
47.765941
 20
58.181001
 30
0.0
  0
VERTEX
  5
670
330
66A
100
AcDbEntity
  8
001
 62
   253
370
    50
100
AcDbVertex
100
AcDb2dVertex
 10
47.895367
 20
57.944188
 30
0.0
  0
SEQEND
  5
66B
330
66A
100
AcDbEntity
  8
001
370
    50
  0
LINE
  5
671
330
1F
100
AcDbEntity
  8
001
 62
   253
370
    50
100
AcDbLine
 10
43.681022
 20
72.32517
 30
0.0
 11
42.937634
 21
70.034692
 31
0.0
  0
LINE
  5
672
330
1F
100
AcDbEntity
  8
001
 62
   253
370
    50
100
AcDbLine
 10
43.550099
 20
72.358115
 30
0.0
 11
47.267538
 21
75.974418
 31
0.0
  0
LINE
  5
673
330
1F
100
AcDbEntity
  8
001
 62
   253
370
    50
100
AcDbLine
 10
50.767895
 20
70.541869
 30
0.0
 11
43.550099
 21
72.358115
 31
0.0
  0
POLYLINE
  5
674
330
1F
100
AcDbEntity
  8
001
 62
   253
370
    50
100
AcDb2dPolyline
 66
     1
 10
0.0
 20
0.0
 30
0.0
  0
VERTEX
  5
676
330
674
100
AcDbEntity
  8
001
 62
   253
370
    50
100
AcDbVertex
100
AcDb2dVertex
 10
44.949343
 20
57.332724
 30
0.0
  0
VERTEX
  5
677
330
674
100
AcDbEntity
  8
001
 62
   253
370
    50
100
AcDbVertex
100
AcDb2dVertex
 10
45.122214
 20
57.128409
 30
0.0
  0
VERTEX
  5
678
330
674
100
AcDbEntity
  8
001
 62
   253
370
    50
100
AcDbVertex
100
AcDb2dVertex
 10
45.373312
 20
56.851952
 30
0.0
  0
VERTEX
  5
679
330
674
100
AcDbEntity
  8
001
 62
   253
370
    50
100
AcDbVertex
100
AcDb2dVertex
 10
45.764385
 20
56.488517
 30
0.0
  0
VERTEX
  5
67A
330
674
100
AcDbEntity
  8
001
 62
   253
370
    50
100
AcDbVertex
100
AcDb2dVertex
 10
46.188074
 20
56.239922
 30
0.0
  0
VERTEX
  5
67B
330
674
100
AcDbEntity
  8
001
 62
   253
370
    50
100
AcDbVertex
100
AcDb2dVertex
 10
46.304497
 20
56.195228
 30
0.0
  0
VERTEX
  5
67C
330
674
100
AcDbEntity
  8
001
 62
   253
370
    50
100
AcDbVertex
100
AcDb2dVertex
 10
46.421035
 20
56.160956
 30
0.0
  0
VERTEX
  5
67D
330
674
100
AcDbEntity
  8
001
 62
   253
370
    50
100
AcDbVertex
100
AcDb2dVertex
 10
46.515123
 20
56.145433
 30
0.0
  0
VERTEX
  5
67E
330
674
100
AcDbEntity
  8
001
 62
   253
370
    50
100
AcDbVertex
100
AcDb2dVertex
 10
46.622302
 20
56.150153
 30
0.0
  0
VERTEX
  5
67F
330
674
100
AcDbEntity
  8
001
 62
   253
370
    50
100
AcDbVertex
100
AcDb2dVertex
 10
46.654933
 20
56.155871
 30
0.0
  0
VERTEX
  5
680
330
674
100
AcDbEntity
  8
001
 62
   253
370
    50
100
AcDbVertex
100
AcDb2dVertex
 10
46.67764
 20
56.160849
 30
0.0
  0
SEQEND
  5
675
330
674
100
AcDbEntity
  8
001
370
    50
  0
POLYLINE
  5
681
330
1F
100
AcDbEntity
  8
001
 62
   253
370
    50
100
AcDb2dPolyline
 66
     1
 10
0.0
 20
0.0
 30
0.0
  0
VERTEX
  5
683
330
681
100
AcDbEntity
  8
001
 62
   253
370
    50
100
AcDbVertex
100
AcDb2dVertex
 10
46.67764
 20
56.160849
 30
0.0
  0
VERTEX
  5
684
330
681
100
AcDbEntity
  8
001
 62
   253
370
    50
100
AcDbVertex
100
AcDb2dVertex
 10
46.723382
 20
56.176314
 30
0.0
  0
VERTEX
  5
685
330
681
100
AcDbEntity
  8
001
 62
   253
370
    50
100
AcDbVertex
100
AcDb2dVertex
 10
46.78576
 20
56.207842
 30
0.0
  0
VERTEX
  5
686
330
681
100
AcDbEntity
  8
001
 62
   253
370
    50
100
AcDbVertex
100
AcDb2dVertex
 10
46.826025
 20
56.238062
 30
0.0
  0
VERTEX
  5
687
330
681
100
AcDbEntity
  8
001
 62
   253
370
    50
100
AcDbVertex
100
AcDb2dVertex
 10
46.851442
 20
56.261629
 30
0.0
  0
SEQEND
  5
682
330
681
100
AcDbEntity
  8
001
370
    50
  0
LINE
  5
688
330
1F
100
AcDbEntity
  8
001
 62
   253
370
    50
100
AcDbLine
 10
43.235798
 20
74.068254
 30
0.0
 11
42.242777
 21
72.938526
 31
0.0
  0
POLYLINE
  5
689
330
1F
100
AcDbEntity
  8
001
 62
   253
370
    50
100
AcDb2dPolyline
 66
     1
 10
0.0
 20
0.0
 30
0.0
  0
VERTEX
  5
68B
330
689
100
AcDbEntity
  8
001
 62
   253
370
    50
100
AcDbVertex
100
AcDb2dVertex
 10
44.601623
 20
75.622108
 30
0.0
  0
VERTEX
  5
68C
330
689
100
AcDbEntity
  8
001
 62
   253
370
    50
100
AcDbVertex
100
AcDb2dVertex
 10
44.372189
 20
75.361089
 30
0.0
  0
VERTEX
  5
68D
330
689
100
AcDbEntity
  8
001
 62
   253
370
    50
100
AcDbVertex
100
AcDb2dVertex
 10
44.142756
 20
75.10007
 30
0.0
  0
VERTEX
  5
68E
330
689
100
AcDbEntity
  8
001
 62
   253
370
    50
100
AcDbVertex
100
AcDb2dVertex
 10
43.689277
 20
74.584162
 30
0.0
  0
VERTEX
  5
68F
330
689
100
AcDbEntity
  8
001
 62
   253
370
    50
100
AcDbVertex
100
AcDb2dVertex
 10
43.235798
 20
74.068254
 30
0.0
  0
SEQEND
  5
68A
330
689
100
AcDbEntity
  8
001
370
    50
  0
POLYLINE
  5
690
330
1F
100
AcDbEntity
  8
001
 62
   253
370
    50
100
AcDb2dPolyline
 66
     1
 10
0.0
 20
0.0
 30
0.0
  0
VERTEX
  5
692
330
690
100
AcDbEntity
  8
001
 62
   253
370
    50
100
AcDbVertex
100
AcDb2dVertex
 10
44.601623
 20
75.622108
 30
0.0
  0
VERTEX
  5
693
330
690
100
AcDbEntity
  8
001
 62
   253
370
    50
100
AcDbVertex
100
AcDb2dVertex
 10
44.63217
 20
75.605109
 30
0.0
  0
VERTEX
  5
694
330
690
100
AcDbEntity
  8
001
 62
   253
370
    50
100
AcDbVertex
100
AcDb2dVertex
 10
44.676285
 20
75.582114
 30
0.0
  0
VERTEX
  5
695
330
690
100
AcDbEntity
  8
001
 62
   253
370
    50
100
AcDbVertex
100
AcDb2dVertex
 10
44.813644
 20
75.525643
 30
0.0
  0
VERTEX
  5
696
330
690
100
AcDbEntity
  8
001
 62
   253
370
    50
100
AcDbVertex
100
AcDb2dVertex
 10
44.942096
 20
75.496995
 30
0.0
  0
VERTEX
  5
697
330
690
100
AcDbEntity
  8
001
 62
   253
370
    50
100
AcDbVertex
100
AcDb2dVertex
 10
45.079383
 20
75.485458
 30
0.0
  0
VERTEX
  5
698
330
690
100
AcDbEntity
  8
001
 62
   253
370
    50
100
AcDbVertex
100
AcDb2dVertex
 10
45.221151
 20
75.491538
 30
0.0
  0
VERTEX
  5
699
330
690
100
AcDbEntity
  8
001
 62
   253
370
    50
100
AcDbVertex
100
AcDb2dVertex
 10
45.366079
 20
75.519223
 30
0.0
  0
VERTEX
  5
69A
330
690
100
AcDbEntity
  8
001
 62
   253
370
    50
100
AcDbVertex
100
AcDb2dVertex
 10
45.504969
 20
75.565911
 30
0.0
  0
VERTEX
  5
69B
330
690
100
AcDbEntity
  8
001
 62
   253
370
    50
100
AcDbVertex
100
AcDb2dVertex
 10
45.648772
 20
75.633926
 30
0.0
  0
VERTEX
  5
69C
330
690
100
AcDbEntity
  8
001
 62
   253
370
    50
100
AcDbVertex
100
AcDb2dVertex
 10
45.784927
 20
75.717853
 30
0.0
  0
VERTEX
  5
69D
330
690
100
AcDbEntity
  8
001
 62
   253
370
    50
100
AcDbVertex
100
AcDb2dVertex
 10
46.203874
 20
76.114902
 30
0.0
  0
VERTEX
  5
69E
330
690
100
AcDbEntity
  8
001
 62
   253
370
    50
100
AcDbVertex
100
AcDb2dVertex
 10
46.518704
 20
76.582052
 30
0.0
  0
VERTEX
  5
69F
330
690
100
AcDbEntity
  8
001
 62
   253
370
    50
100
AcDbVertex
100
AcDb2dVertex
 10
46.697564
 20
76.952154
 30
0.0
  0
VERTEX
  5
6A0
330
690
100
AcDbEntity
  8
001
 62
   253
370
    50
100
AcDbVertex
100
AcDb2dVertex
 10
46.847296
 20
77.406715
 30
0.0
  0
VERTEX
  5
6A1
330
690
100
AcDbEntity
  8
001
 62
   253
370
    50
100
AcDbVertex
100
AcDb2dVertex
 10
46.84976
 20
77.415668
 30
0.0
  0
VERTEX
  5
6A2
330
690
100
AcDbEntity
  8
001
 62
   253
370
    50
100
AcDbVertex
100
AcDb2dVertex
 10
46.851442
 20
77.421809
 30
0.0
  0
SEQEND
  5
691
330
690
100
AcDbEntity
  8
001
370
    50
  0
LINE
  5
6A3
330
1F
100
AcDbEntity
  8
001
 62
   253
370
    50
100
AcDbLine
 10
42.242777
 20
72.938526
 30
0.0
 11
43.550099
 21
72.358115
 31
0.0
  0
POLYLINE
  5
6A4
330
1F
100
AcDbEntity
  8
001
 62
   253
370
    50
100
AcDb2dPolyline
 66
     1
 10
0.0
 20
0.0
 30
0.0
  0
VERTEX
  5
6A6
330
6A4
100
AcDbEntity
  8
001
 62
   253
370
    50
100
AcDbVertex
100
AcDb2dVertex
 10
47.183451
 20
79.911301
 30
0.0
  0
VERTEX
  5
6A7
330
6A4
100
AcDbEntity
  8
001
 62
   253
370
    50
100
AcDbVertex
100
AcDb2dVertex
 10
47.182203
 20
79.912194
 30
0.0
  0
VERTEX
  5
6A8
330
6A4
100
AcDbEntity
  8
001
 62
   253
370
    50
100
AcDbVertex
100
AcDb2dVertex
 10
47.180372
 20
79.913489
 30
0.0
  0
VERTEX
  5
6A9
330
6A4
100
AcDbEntity
  8
001
 62
   253
370
    50
100
AcDbVertex
100
AcDb2dVertex
 10
47.178533
 20
79.914773
 30
0.0
  0
VERTEX
  5
6AA
330
6A4
100
AcDbEntity
  8
001
 62
   253
370
    50
100
AcDbVertex
100
AcDb2dVertex
 10
47.177271
 20
79.915645
 30
0.0
  0
SEQEND
  5
6A5
330
6A4
100
AcDbEntity
  8
001
370
    50
  0
LINE
  5
6AB
330
1F
100
AcDbEntity
  8
001
 62
   253
370
    50
100
AcDbLine
 10
47.925152
 20
78.699784
 30
0.0
 11
47.719834
 21
78.840924
 31
0.0
  0
POLYLINE
  5
6AC
330
1F
100
AcDbEntity
  8
001
 62
   253
370
    50
100
AcDb2dPolyline
 66
     1
 10
0.0
 20
0.0
 30
0.0
  0
VERTEX
  5
6AE
330
6AC
100
AcDbEntity
  8
001
 62
   253
370
    50
100
AcDbVertex
100
AcDb2dVertex
 10
47.719834
 20
78.840924
 30
0.0
  0
VERTEX
  5
6AF
330
6AC
100
AcDbEntity
  8
001
 62
   253
370
    50
100
AcDbVertex
100
AcDb2dVertex
 10
47.453994
 20
79.121926
 30
0.0
  0
VERTEX
  5
6B0
330
6AC
100
AcDbEntity
  8
001
 62
   253
370
    50
100
AcDbVertex
100
AcDb2dVertex
 10
47.186251
 20
79.401083
 30
0.0
  0
VERTEX
  5
6B1
330
6AC
100
AcDbEntity
  8
001
 62
   253
370
    50
100
AcDbVertex
100
AcDb2dVertex
 10
46.924236
 20
79.668195
 30
0.0
  0
VERTEX
  5
6B2
330
6AC
100
AcDbEntity
  8
001
 62
   253
370
    50
100
AcDbVertex
100
AcDb2dVertex
 10
46.660441
 20
79.933579
 30
0.0
  0
SEQEND
  5
6AD
330
6AC
100
AcDbEntity
  8
001
370
    50
  0
POLYLINE
  5
6B3
330
1F
100
AcDbEntity
  8
001
 62
   253
370
    50
100
AcDb2dPolyline
 66
     1
 10
0.0
 20
0.0
 30
0.0
  0
VERTEX
  5
6B5
330
6B3
100
AcDbEntity
  8
001
 62
   253
370
    50
100
AcDbVertex
100
AcDb2dVertex
 10
47.177271
 20
79.915645
 30
0.0
  0
VERTEX
  5
6B6
330
6B3
100
AcDbEntity
  8
001
 62
   253
370
    50
100
AcDbVertex
100
AcDb2dVertex
 10
47.11256
 20
79.947194
 30
0.0
  0
VERTEX
  5
6B7
330
6B3
100
AcDbEntity
  8
001
 62
   253
370
    50
100
AcDbVertex
100
AcDb2dVertex
 10
47.019597
 20
79.977944
 30
0.0
  0
VERTEX
  5
6B8
330
6B3
100
AcDbEntity
  8
001
 62
   253
370
    50
100
AcDbVertex
100
AcDb2dVertex
 10
46.922113
 20
79.988875
 30
0.0
  0
VERTEX
  5
6B9
330
6B3
100
AcDbEntity
  8
001
 62
   253
370
    50
100
AcDbVertex
100
AcDb2dVertex
 10
46.823684
 20
79.975753
 30
0.0
  0
VERTEX
  5
6BA
330
6B3
100
AcDbEntity
  8
001
 62
   253
370
    50
100
AcDbVertex
100
AcDb2dVertex
 10
46.728884
 20
79.95333
 30
0.0
  0
VERTEX
  5
6BB
330
6B3
100
AcDbEntity
  8
001
 62
   253
370
    50
100
AcDbVertex
100
AcDb2dVertex
 10
46.660441
 20
79.933579
 30
0.0
  0
SEQEND
  5
6B4
330
6B3
100
AcDbEntity
  8
001
370
    50
  0
LINE
  5
6BC
330
1F
100
AcDbEntity
  8
001
 62
   253
370
    50
100
AcDbLine
 10
43.550099
 20
57.088496
 30
0.0
 11
47.267538
 21
54.906495
 31
0.0
  0
LINE
  5
6BD
330
1F
100
AcDbEntity
  8
001
 62
   253
370
    50
100
AcDbLine
 10
42.848256
 20
58.096844
 30
0.0
 11
43.550099
 21
57.088496
 31
0.0
  0
LINE
  5
6BE
330
1F
100
AcDbEntity
  8
001
 62
   253
370
    50
100
AcDbLine
 10
46.638171
 20
54.57386
 30
0.0
 11
43.550099
 21
57.088496
 31
0.0
  0
LINE
  5
6BF
330
1F
100
AcDbEntity
  8
001
 62
   253
370
    50
100
AcDbLine
 10
40.03513
 20
70.454743
 30
0.0
 11
40.614612
 21
71.297724
 31
0.0
  0
LINE
  5
6C0
330
1F
100
AcDbEntity
  8
001
 62
   253
370
    50
100
AcDbLine
 10
50.767895
 20
84.700853
 30
0.0
 11
50.241589
 21
84.199745
 31
0.0
  0
LINE
  5
6C1
330
1F
100
AcDbEntity
  8
001
 62
   253
370
    50
100
AcDbLine
 10
61.833419
 20
54.299458
 30
0.0
 11
140.833419
 21
54.299458
 31
0.0
  0
LINE
  5
6C2
330
1F
100
AcDbEntity
  8
001
 62
   253
370
    50
100
AcDbLine
 10
140.833419
 20
79.299458
 30
0.0
 11
61.833419
 21
79.299458
 31
0.0
  0
LINE
  5
6C3
330
1F
100
AcDbEntity
  8
001
 62
   253
370
    50
100
AcDbLine
 10
61.833419
 20
54.299458
 30
0.0
 11
61.833419
 21
79.299458
 31
0.0
  0
ARC
  5
6C4
330
1F
100
AcDbEntity
  8
001
 62
   253
370
    50
100
AcDbCircle
 10
140.833419
 20
76.299458
 30
0.0
 40
3.0
100
AcDbArc
 50
0.0
 51
90.0
  0
ARC
  5
6C5
330
1F
100
AcDbEntity
  8
001
 62
   253
370
    50
100
AcDbCircle
 10
140.833419
 20
57.299458
 30
0.0
 40
3.0
100
AcDbArc
 50
270.0
 51
0.0
  0
LINE
  5
6C6
330
1F
100
AcDbEntity
  8
001
 62
   253
370
    50
100
AcDbLine
 10
143.833419
 20
76.299458
 30
0.0
 11
143.833419
 21
57.299458
 31
0.0
  0
LINE
  5
6C7
330
1F
100
AcDbEntity
  8
001
 62
   253
370
    50
100
AcDbLine
 10
46.660441
 20
79.933579
 30
0.0
 11
46.660441
 21
83.787906
 31
0.0
  0
LINE
  5
6C8
330
1F
100
AcDbEntity
  8
001
 62
   253
370
    50
100
AcDbLine
 10
58.833419
 20
54.799458
 30
0.0
 11
61.833419
 21
54.799458
 31
0.0
  0
LINE
  5
6C9
330
1F
100
AcDbEntity
  8
001
 62
   253
370
    50
100
AcDbLine
 10
61.833419
 20
78.799458
 30
0.0
 11
58.833419
 21
78.799458
 31
0.0
  0
LINE
  5
6CA
330
1F
100
AcDbEntity
  8
001
 62
   253
370
    50
100
AcDbLine
 10
47.255723
 20
50.014048
 30
0.0
 11
47.114912
 21
50.216354
 31
0.0
  0
LINE
  5
6CB
330
1F
100
AcDbEntity
  8
001
 62
   253
370
    50
100
AcDbLine
 10
49.283114
 20
52.420067
 30
0.0
 11
47.719834
 21
51.091751
 31
0.0
  0
LINE
  5
6CC
330
1F
100
AcDbEntity
  8
001
 62
   253
370
    50
100
AcDbLine
 10
46.943919
 20
49.968907
 30
0.0
 11
47.120171
 21
49.798991
 31
0.0
  0
LINE
  5
6CD
330
1F
100
AcDbEntity
  8
001
 62
   253
370
    50
100
AcDbLine
 10
46.943919
 20
49.968907
 30
0.0
 11
47.719834
 21
51.091751
 31
0.0
  0
LINE
  5
6CE
330
1F
100
AcDbEntity
  8
001
 62
   253
370
    50
100
AcDbLine
 10
47.255723
 20
84.199745
 30
0.0
 11
47.114912
 21
84.036076
 31
0.0
  0
LINE
  5
6CF
330
1F
100
AcDbEntity
  8
001
 62
   253
370
    50
100
AcDbLine
 10
47.109827
 20
84.02972
 30
0.0
 11
47.114912
 21
84.036076
 31
0.0
  0
LINE
  5
6D0
330
1F
100
AcDbEntity
  8
001
 62
   253
370
    50
100
AcDbLine
 10
50.767895
 20
84.700853
 30
0.0
 11
50.007243
 21
84.199745
 31
0.0
  0
LINE
  5
6D1
330
1F
100
AcDbEntity
  8
001
 62
   253
370
    50
100
AcDbLine
 10
46.987162
 20
84.02972
 30
0.0
 11
47.267538
 21
84.362859
 31
0.0
  0
LINE
  5
6D2
330
1F
100
AcDbEntity
  8
001
 62
   253
370
    50
100
AcDbLine
 10
50.767895
 20
51.211001
 30
0.0
 11
46.638171
 21
54.57386
 31
0.0
  0
LINE
  5
6D3
330
1F
100
AcDbEntity
  8
001
 62
   200
370
    50
100
AcDbLine
 10
46.54273
 20
49.388338
 30
0.0
 11
44.435259
 21
51.868597
 31
0.0
  0
LINE
  5
6D4
330
1F
100
AcDbEntity
  8
001
370
    50
100
AcDbLine
 10
38.833419
 20
66.799458
 30
0.0
 11
35.370864
 21
68.798565
 31
0.0
  0
LINE
  5
6D5
330
1F
100
AcDbEntity
  8
001
370
    50
100
AcDbLine
 10
38.833419
 20
66.799458
 30
0.0
 11
35.370864
 21
64.800352
 31
0.0
  0
LINE
  5
6D6
330
1F
100
AcDbEntity
  8
001
  6
CENTER
 62
   253
370
     9
100
AcDbLine
 10
98.875396
 20
66.799458
 30
0.0
 11
150.634589
 21
66.799458
 31
0.0
  0
LINE
  5
6D7
330
1F
100
AcDbEntity
  8
001
  6
CENTER
 62
   253
370
     9
100
AcDbLine
 10
33.786623
 20
66.799458
 30
0.0
 11
85.47382
 21
66.799458
 31
0.0
  0
LINE
  5
6D8
330
1F
100
AcDbEntity
  8
001
  6
PHANTOM
370
     9
100
AcDbLine
 10
45.345781
 20
49.349458
 30
0.0
 11
45.345781
 21
47.469855
 31
0.0
  0
TEXT
  5
6D9
330
1F
100
AcDbEntity
  8
001
370
    30
100
AcDbText
 10
19.51238
 20
102.769112
 30
0.0
 40
8.0
  1
かめかったぁ　ＫＭＣ２５－３４Ｓ
 41
0.833333
100
AcDbText
  0
LINE
  5
6DA
330
1F
100
AcDbEntity
  8
001
  6
PHANTOM
370
     9
100
AcDbLine
 10
39.023072
 20
56.425495
 30
0.0
 11
39.572506
 21
55.40773
 31
0.0
  0
ARC
  5
6DB
330
1F
100
AcDbEntity
  8
001
  6
PHANTOM
370
     9
100
AcDbCircle
 10
-52.240436
 20
-40.238793
 30
0.0
 40
132.4619586061008
100
AcDbArc
 50
42.547986
 51
44.153538
  0
ARC
  5
6DC
330
1F
100
AcDbEntity
  8
001
  6
PHANTOM
370
     9
100
AcDbCircle
 10
41.776848
 20
56.590537
 30
0.0
 40
2.501629968736928
100
AcDbArc
 50
208.217146
 51
225.722316
  0
ARC
  5
6DD
330
1F
100
AcDbEntity
  8
001
  6
PHANTOM
370
     9
100
AcDbCircle
 10
40.182155
 20
57.127051
 30
0.0
 40
1.354863543414031
100
AcDbArc
 50
185.45118
 51
211.185169
  0
ARC
  5
6DE
330
1F
100
AcDbEntity
  8
001
  6
PHANTOM
370
     9
100
AcDbCircle
 10
46.605629
 20
50.374357
 30
0.0
 40
1.634535040761275
100
AcDbArc
 50
219.577033
 51
240.616618
  0
LINE
  5
6DF
330
1F
100
AcDbEntity
  8
001
  6
PHANTOM
370
     9
100
AcDbLine
 10
46.353078
 20
48.640506
 30
0.0
 11
45.803643
 21
48.950095
 31
0.0
  0
POLYLINE
  5
6E0
330
1F
100
AcDbEntity
  8
001
  6
PHANTOM
370
     9
100
AcDb2dPolyline
 66
     1
 10
0.0
 20
0.0
 30
0.0
  0
VERTEX
  5
6E2
330
6E0
100
AcDbEntity
  8
001
  6
PHANTOM
370
     9
100
AcDbVertex
100
AcDb2dVertex
 10
46.353078
 20
48.640506
 30
0.0
  0
VERTEX
  5
6E3
330
6E0
100
AcDbEntity
  8
001
  6
PHANTOM
370
     9
100
AcDbVertex
100
AcDb2dVertex
 10
46.419058
 20
48.604152
 30
0.0
  0
VERTEX
  5
6E4
330
6E0
100
AcDbEntity
  8
001
  6
PHANTOM
370
     9
100
AcDbVertex
100
AcDb2dVertex
 10
46.489812
 20
48.585287
 30
0.0
  0
VERTEX
  5
6E5
330
6E0
100
AcDbEntity
  8
001
  6
PHANTOM
370
     9
100
AcDbVertex
100
AcDb2dVertex
 10
46.493975
 20
48.585134
 30
0.0
  0
VERTEX
  5
6E6
330
6E0
100
AcDbEntity
  8
001
  6
PHANTOM
370
     9
100
AcDbVertex
100
AcDb2dVertex
 10
46.498039
 20
48.585287
 30
0.0
  0
VERTEX
  5
6E7
330
6E0
100
AcDbEntity
  8
001
  6
PHANTOM
370
     9
100
AcDbVertex
100
AcDb2dVertex
 10
46.523885
 20
48.601768
 30
0.0
  0
VERTEX
  5
6E8
330
6E0
100
AcDbEntity
  8
001
  6
PHANTOM
370
     9
100
AcDbVertex
100
AcDb2dVertex
 10
46.542384
 20
48.634455
 30
0.0
  0
SEQEND
  5
6E1
330
6E0
100
AcDbEntity
  8
001
  6
PHANTOM
370
     9
  0
LINE
  5
6E9
330
1F
100
AcDbEntity
  8
001
370
     9
100
AcDbLine
 10
46.494403
 20
48.585133
 30
0.0
 11
45.099888
 21
48.585133
 31
0.0
  0
LINE
  5
6EA
330
1F
100
AcDbEntity
  8
001
  6
PHANTOM
370
     9
100
AcDbLine
 10
42.797802
 20
52.032025
 30
0.0
 11
40.030368
 21
54.799458
 31
0.0
  0
ENDSEC
  0
SECTION
  2
OBJECTS
  0
DICTIONARY
  5
C
330
0
100
AcDbDictionary
281
     1
  3
ACAD_GROUP
350
D
  3
ACAD_LAYOUT
350
1A
  3
ACAD_MLEADERSTYLE
350
6EE
  3
ACAD_MLINESTYLE
350
17
  3
ACAD_PLOTSETTINGS
350
19
  3
ACAD_PLOTSTYLENAME
350
E
  3
ACAD_SCALELIST
350
3B
  3
ACAD_TABLESTYLE
350
6ED
  3
ACAD_VISUALSTYLE
350
2A
  3
AcDbVariableDictionary
350
6EB
  0
DICTIONARY
  5
D
102
{ACAD_REACTORS
330
C
102
}
330
C
100
AcDbDictionary
281
     1
  0
DICTIONARY
  5
1A
102
{ACAD_REACTORS
330
C
102
}
330
C
100
AcDbDictionary
281
     1
  3
Layout1
350
1E
  3
Layout2
350
26
  3
Model
350
22
  0
DICTIONARY
  5
6EE
102
{ACAD_REACTORS
330
C
102
}
330
C
100
AcDbDictionary
281
     1
  0
DICTIONARY
  5
17
102
{ACAD_REACTORS
330
C
102
}
330
C
100
AcDbDictionary
281
     1
  3
Standard
350
18
  0
DICTIONARY
  5
19
102
{ACAD_REACTORS
330
C
102
}
330
C
100
AcDbDictionary
281
     1
  0
ACDBDICTIONARYWDFLT
  5
E
102
{ACAD_REACTORS
330
C
102
}
330
C
100
AcDbDictionary
281
     1
  3
Normal
350
F
100
AcDbDictionaryWithDefault
340
F
  0
DICTIONARY
  5
3B
102
{ACAD_REACTORS
330
C
102
}
330
C
100
AcDbDictionary
281
     1
  3
A0
350
3C
  3
A1
350
3D
  3
A2
350
3E
  3
A3
350
3F
  3
A4
350
40
  3
A5
350
41
  3
A6
350
42
  3
A7
350
43
  3
A8
350
44
  3
A9
350
45
  3
B0
350
46
  3
B1
350
47
  3
B2
350
48
  3
B3
350
49
  3
B4
350
4A
  3
B5
350
4B
  3
B6
350
4C
  3
B7
350
4D
  3
B8
350
4E
  3
B9
350
4F
  3
C0
350
50
  3
C1
350
51
  3
C2
350
52
  3
C3
350
53
  3
C4
350
54
  3
C5
350
55
  3
C6
350
56
  3
C7
350
57
  3
C8
350
58
  3
C9
350
59
  3
D0
350
5A
  3
D1
350
5B
  3
D2
350
5C
  0
DICTIONARY
  5
6ED
102
{ACAD_REACTORS
330
C
102
}
330
C
100
AcDbDictionary
281
     1
  0
DICTIONARY
  5
2A
102
{ACAD_REACTORS
330
C
102
}
330
C
100
AcDbDictionary
281
     1
  3
2dWireframe
350
2F
  3
3D Hidden
350
31
  3
3dWireframe
350
30
  3
Basic
350
32
  3
Brighten
350
36
  3
ColorChange
350
3A
  3
Conceptual
350
34
  3
Dim
350
35
  3
Facepattern
350
39
  3
Flat
350
2B
  3
FlatWithEdges
350
2C
  3
Gouraud
350
2D
  3
GouraudWithEdges
350
2E
  3
Linepattern
350
38
  3
Realistic
350
33
  3
Thicken
350
37
  0
DICTIONARY
  5
6EB
102
{ACAD_REACTORS
330
C
102
}
330
C
100
AcDbDictionary
281
     1
  3
CANNOSCALE
350
6EC
  3
PSOLHEIGHT
350
6F0
  3
PSOLWIDTH
350
6EF
  0
LAYOUT
  5
1E
102
{ACAD_REACTORS
330
1A
102
}
330
1A
100
AcDbPlotSettings
  1

  2
none_device
  4

  6

 40
0.0
 41
0.0
 42
0.0
 43
0.0
 44
0.0
 45
0.0
 46
0.0
 47
0.0
 48
0.0
 49
0.0
140
0.0
141
0.0
142
1.0
143
1.0
 70
   688
 72
     0
 73
     0
 74
     5
  7

 75
    16
147
1.0
148
0.0
149
0.0
100
AcDbLayout
  1
Layout1
 70
     1
 71
     1
 10
0.0
 20
0.0
 11
12.0
 21
9.0
 12
0.0
 22
0.0
 32
0.0
 14
1.000000E+20
 24
1.000000E+20
 34
0.0
 15
-1.000000E+20
 25
-1.000000E+20
 35
0.0
146
0.0
 13
0.0
 23
0.0
 33
0.0
 16
1.0
 26
0.0
 36
0.0
 17
0.0
 27
1.0
 37
0.0
 76
     0
330
1B
  0
LAYOUT
  5
26
102
{ACAD_REACTORS
330
1A
102
}
330
1A
100
AcDbPlotSettings
  1

  2
none_device
  4

  6

 40
0.0
 41
0.0
 42
0.0
 43
0.0
 44
0.0
 45
0.0
 46
0.0
 47
0.0
 48
0.0
 49
0.0
140
0.0
141
0.0
142
1.0
143
1.0
 70
   688
 72
     0
 73
     0
 74
     5
  7

 75
    16
147
1.0
148
0.0
149
0.0
100
AcDbLayout
  1
Layout2
 70
     1
 71
     2
 10
0.0
 20
0.0
 11
0.0
 21
0.0
 12
0.0
 22
0.0
 32
0.0
 14
0.0
 24
0.0
 34
0.0
 15
0.0
 25
0.0
 35
0.0
146
0.0
 13
0.0
 23
0.0
 33
0.0
 16
1.0
 26
0.0
 36
0.0
 17
0.0
 27
1.0
 37
0.0
 76
     0
330
23
  0
LAYOUT
  5
22
102
{ACAD_REACTORS
330
1A
102
}
330
1A
100
AcDbPlotSettings
  1

  2
none_device
  4

  6

 40
0.0
 41
0.0
 42
0.0
 43
0.0
 44
0.0
 45
0.0
 46
0.0
 47
0.0
 48
0.0
 49
0.0
140
0.0
141
0.0
142
1.0
143
1.0
 70
  1712
 72
     0
 73
     0
 74
     0
  7

 75
     0
147
1.0
148
0.0
149
0.0
100
AcDbLayout
  1
Model
 70
     1
 71
     0
 10
0.0
 20
0.0
 11
12.0
 21
9.0
 12
0.0
 22
0.0
 32
0.0
 14
-6.056396
 24
10.812263
 34
0.0
 15
170.258102
 25
110.769112
 35
0.0
146
0.0
 13
0.0
 23
0.0
 33
0.0
 16
1.0
 26
0.0
 36
0.0
 17
0.0
 27
1.0
 37
0.0
 76
     0
330
1F
331
29
  0
MLINESTYLE
  5
18
102
{ACAD_REACTORS
330
17
102
}
330
17
100
AcDbMlineStyle
  2
Standard
 70
     0
  3

 62
   256
 51
90.0
 52
90.0
 71
     2
 49
0.5
 62
   256
  6
BYLAYER
 49
-0.5
 62
   256
  6
BYLAYER
  0
ACDBPLACEHOLDER
  5
F
102
{ACAD_REACTORS
330
E
102
}
330
E
  0
SCALE
  5
3C
102
{ACAD_REACTORS
330
3B
102
}
330
3B
100
AcDbScale
 70
     0
300
1:1
140
1.0
141
1.0
290
     1
  0
SCALE
  5
3D
102
{ACAD_REACTORS
330
3B
102
}
330
3B
100
AcDbScale
 70
     0
300
1:2
140
1.0
141
2.0
290
     0
  0
SCALE
  5
3E
102
{ACAD_REACTORS
330
3B
102
}
330
3B
100
AcDbScale
 70
     0
300
1:4
140
1.0
141
4.0
290
     0
  0
SCALE
  5
3F
102
{ACAD_REACTORS
330
3B
102
}
330
3B
100
AcDbScale
 70
     0
300
1:5
140
1.0
141
5.0
290
     0
  0
SCALE
  5
40
102
{ACAD_REACTORS
330
3B
102
}
330
3B
100
AcDbScale
 70
     0
300
1:8
140
1.0
141
8.0
290
     0
  0
SCALE
  5
41
102
{ACAD_REACTORS
330
3B
102
}
330
3B
100
AcDbScale
 70
     0
300
1:10
140
1.0
141
10.0
290
     0
  0
SCALE
  5
42
102
{ACAD_REACTORS
330
3B
102
}
330
3B
100
AcDbScale
 70
     0
300
1:16
140
1.0
141
16.0
290
     0
  0
SCALE
  5
43
102
{ACAD_REACTORS
330
3B
102
}
330
3B
100
AcDbScale
 70
     0
300
1:20
140
1.0
141
20.0
290
     0
  0
SCALE
  5
44
102
{ACAD_REACTORS
330
3B
102
}
330
3B
100
AcDbScale
 70
     0
300
1:30
140
1.0
141
30.0
290
     0
  0
SCALE
  5
45
102
{ACAD_REACTORS
330
3B
102
}
330
3B
100
AcDbScale
 70
     0
300
1:40
140
1.0
141
40.0
290
     0
  0
SCALE
  5
46
102
{ACAD_REACTORS
330
3B
102
}
330
3B
100
AcDbScale
 70
     0
300
1:50
140
1.0
141
50.0
290
     0
  0
SCALE
  5
47
102
{ACAD_REACTORS
330
3B
102
}
330
3B
100
AcDbScale
 70
     0
300
1:100
140
1.0
141
100.0
290
     0
  0
SCALE
  5
48
102
{ACAD_REACTORS
330
3B
102
}
330
3B
100
AcDbScale
 70
     0
300
2:1
140
2.0
141
1.0
290
     0
  0
SCALE
  5
49
102
{ACAD_REACTORS
330
3B
102
}
330
3B
100
AcDbScale
 70
     0
300
4:1
140
4.0
141
1.0
290
     0
  0
SCALE
  5
4A
102
{ACAD_REACTORS
330
3B
102
}
330
3B
100
AcDbScale
 70
     0
300
8:1
140
8.0
141
1.0
290
     0
  0
SCALE
  5
4B
102
{ACAD_REACTORS
330
3B
102
}
330
3B
100
AcDbScale
 70
     0
300
10:1
140
10.0
141
1.0
290
     0
  0
SCALE
  5
4C
102
{ACAD_REACTORS
330
3B
102
}
330
3B
100
AcDbScale
 70
     0
300
100:1
140
100.0
141
1.0
290
     0
  0
SCALE
  5
4D
102
{ACAD_REACTORS
330
3B
102
}
330
3B
100
AcDbScale
 70
     0
300
1/128" = 1'-0"
140
0.007812
141
12.0
290
     0
  0
SCALE
  5
4E
102
{ACAD_REACTORS
330
3B
102
}
330
3B
100
AcDbScale
 70
     0
300
1/64" = 1'-0"
140
0.015625
141
12.0
290
     0
  0
SCALE
  5
4F
102
{ACAD_REACTORS
330
3B
102
}
330
3B
100
AcDbScale
 70
     0
300
1/32" = 1'-0"
140
0.03125
141
12.0
290
     0
  0
SCALE
  5
50
102
{ACAD_REACTORS
330
3B
102
}
330
3B
100
AcDbScale
 70
     0
300
1/16" = 1'-0"
140
0.0625
141
12.0
290
     0
  0
SCALE
  5
51
102
{ACAD_REACTORS
330
3B
102
}
330
3B
100
AcDbScale
 70
     0
300
3/32" = 1'-0"
140
0.09375
141
12.0
290
     0
  0
SCALE
  5
52
102
{ACAD_REACTORS
330
3B
102
}
330
3B
100
AcDbScale
 70
     0
300
1/8" = 1'-0"
140
0.125
141
12.0
290
     0
  0
SCALE
  5
53
102
{ACAD_REACTORS
330
3B
102
}
330
3B
100
AcDbScale
 70
     0
300
3/16" = 1'-0"
140
0.1875
141
12.0
290
     0
  0
SCALE
  5
54
102
{ACAD_REACTORS
330
3B
102
}
330
3B
100
AcDbScale
 70
     0
300
1/4" = 1'-0"
140
0.25
141
12.0
290
     0
  0
SCALE
  5
55
102
{ACAD_REACTORS
330
3B
102
}
330
3B
100
AcDbScale
 70
     0
300
3/8" = 1'-0"
140
0.375
141
12.0
290
     0
  0
SCALE
  5
56
102
{ACAD_REACTORS
330
3B
102
}
330
3B
100
AcDbScale
 70
     0
300
1/2" = 1'-0"
140
0.5
141
12.0
290
     0
  0
SCALE
  5
57
102
{ACAD_REACTORS
330
3B
102
}
330
3B
100
AcDbScale
 70
     0
300
3/4" = 1'-0"
140
0.75
141
12.0
290
     0
  0
SCALE
  5
58
102
{ACAD_REACTORS
330
3B
102
}
330
3B
100
AcDbScale
 70
     0
300
1" = 1'-0"
140
1.0
141
12.0
290
     0
  0
SCALE
  5
59
102
{ACAD_REACTORS
330
3B
102
}
330
3B
100
AcDbScale
 70
     0
300
1-1/2" = 1'-0"
140
1.5
141
12.0
290
     0
  0
SCALE
  5
5A
102
{ACAD_REACTORS
330
3B
102
}
330
3B
100
AcDbScale
 70
     0
300
3" = 1'-0"
140
3.0
141
12.0
290
     0
  0
SCALE
  5
5B
102
{ACAD_REACTORS
330
3B
102
}
330
3B
100
AcDbScale
 70
     0
300
6" = 1'-0"
140
6.0
141
12.0
290
     0
  0
SCALE
  5
5C
102
{ACAD_REACTORS
330
3B
102
}
330
3B
100
AcDbScale
 70
     0
300
1'-0" = 1'-0"
140
12.0
141
12.0
290
     0
  0
VISUALSTYLE
  5
2F
102
{ACAD_REACTORS
330
2A
102
}
330
2A
100
AcDbVisualStyle
  2
2dWireframe
 70
     4
 71
     0
 72
     2
 73
     0
 90
        0
 40
-0.6
 41
-30.0
 62
     5
 63
     7
 74
     1
 91
        4
 64
     7
 65
   257
 75
     1
175
     1
 42
1.0
 92
        0
 66
   257
 43
1.0
 76
     1
 77
     6
 78
     2
 67
     7
 79
     5
170
     0
171
     0
290
     0
174
     0
 93
        1
 44
0.0
173
     0
291
     0
 45
0.0
1001
ACAD
1000
AcDbSavedByObjectVersion
1070
     0
  0
VISUALSTYLE
  5
31
102
{ACAD_REACTORS
330
2A
102
}
330
2A
100
AcDbVisualStyle
  2
3D Hidden
 70
     6
 71
     1
 72
     2
 73
     2
 90
        0
 40
-0.6
 41
-30.0
 62
     5
 63
     7
 74
     2
 91
        2
 64
     7
 65
   257
 75
     2
175
     1
 42
40.0
 92
        0
 66
   257
 43
1.0
 76
     1
 77
     6
 78
     2
 67
     7
 79
     3
170
     0
171
     0
290
     0
174
     0
 93
        1
 44
0.0
173
     0
291
     0
 45
0.0
1001
ACAD
1000
AcDbSavedByObjectVersion
1070
     0
  0
VISUALSTYLE
  5
30
102
{ACAD_REACTORS
330
2A
102
}
330
2A
100
AcDbVisualStyle
  2
3dWireframe
 70
     5
 71
     0
 72
     2
 73
     0
 90
        0
 40
-0.6
 41
-30.0
 62
     5
 63
     7
 74
     1
 91
        4
 64
     7
 65
   257
 75
     1
175
     1
 42
1.0
 92
        0
 66
   257
 43
1.0
 76
     1
 77
     6
 78
     2
 67
     7
 79
     5
170
     0
171
     0
290
     0
174
     0
 93
        1
 44
0.0
173
     0
291
     0
 45
0.0
1001
ACAD
1000
AcDbSavedByObjectVersion
1070
     0
  0
VISUALSTYLE
  5
32
102
{ACAD_REACTORS
330
2A
102
}
330
2A
100
AcDbVisualStyle
  2
Basic
 70
     7
 71
     1
 72
     0
 73
     1
 90
        0
 40
-0.6
 41
-30.0
 62
     5
 63
     7
 74
     0
 91
        4
 64
     7
 65
   257
 75
     1
175
     1
 42
1.0
 92
        8
 66
     7
 43
1.0
 76
     1
 77
     6
 78
     2
 67
     7
 79
     5
170
     0
171
     0
290
     0
174
     0
 93
        1
 44
0.0
173
     0
291
     1
 45
0.0
1001
ACAD
1000
AcDbSavedByObjectVersion
1070
     0
  0
VISUALSTYLE
  5
36
102
{ACAD_REACTORS
330
2A
102
}
330
2A
100
AcDbVisualStyle
  2
Brighten
 70
    12
 71
     2
 72
     2
 73
     0
 90
        0
 40
-0.6
 41
-30.0
 62
     5
 63
     7
 74
     1
 91
        4
 64
     7
 65
   257
 75
     1
175
     1
 42
1.0
 92
        8
 66
     7
 43
1.0
 76
     1
 77
     6
 78
     2
 67
     7
 79
     5
170
     0
171
     0
290
     0
174
     0
 93
        1
 44
50.0
173
     0
291
     1
 45
0.0
1001
ACAD
1000
AcDbSavedByObjectVersion
1070
     0
  0
VISUALSTYLE
  5
3A
102
{ACAD_REACTORS
330
2A
102
}
330
2A
100
AcDbVisualStyle
  2
ColorChange
 70
    16
 71
     2
 72
     2
 73
     3
 90
        0
 40
-0.6
 41
-30.0
 62
     5
 63
     8
 74
     1
 91
        4
 64
     7
 65
   257
 75
     1
175
     1
 42
1.0
 92
        8
 66
     8
 43
1.0
 76
     1
 77
     6
 78
     2
 67
     7
 79
     5
170
     0
171
     0
290
     0
174
     0
 93
        1
 44
0.0
173
     0
291
     1
 45
0.0
1001
ACAD
1000
AcDbSavedByObjectVersion
1070
     0
  0
VISUALSTYLE
  5
34
102
{ACAD_REACTORS
330
2A
102
}
330
2A
100
AcDbVisualStyle
  2
Conceptual
 70
     9
 71
     3
 72
     2
 73
     0
 90
        0
 40
-0.6
 41
-30.0
 62
     5
 63
     7
 74
     2
 91
        2
 64
     7
 65
   257
 75
     1
175
     1
 42
40.0
 92
        8
 66
     7
 43
1.0
 76
     1
 77
     6
 78
     2
 67
     7
 79
     3
170
     0
171
     0
290
     0
174
     0
 93
        1
 44
0.0
173
     0
291
     0
 45
0.0
1001
ACAD
1000
AcDbSavedByObjectVersion
1070
     0
  0
VISUALSTYLE
  5
35
102
{ACAD_REACTORS
330
2A
102
}
330
2A
100
AcDbVisualStyle
  2
Dim
 70
    11
 71
     2
 72
     2
 73
     0
 90
        0
 40
-0.6
 41
-30.0
 62
     5
 63
     7
 74
     1
 91
        4
 64
     7
 65
   257
 75
     1
175
     1
 42
1.0
 92
        8
 66
     7
 43
1.0
 76
     1
 77
     6
 78
     2
 67
     7
 79
     5
170
     0
171
     0
290
     0
174
     0
 93
        1
 44
-50.0
173
     0
291
     1
 45
0.0
1001
ACAD
1000
AcDbSavedByObjectVersion
1070
     0
  0
VISUALSTYLE
  5
39
102
{ACAD_REACTORS
330
2A
102
}
330
2A
100
AcDbVisualStyle
  2
Facepattern
 70
    15
 71
     2
 72
     2
 73
     0
 90
        0
 40
-0.6
 41
-30.0
 62
     5
 63
     7
 74
     1
 91
        4
 64
     7
 65
   257
 75
     1
175
     1
 42
1.0
 92
        8
 66
     7
 43
1.0
 76
     1
 77
     6
 78
     2
 67
     7
 79
     5
170
     0
171
     0
290
     0
174
     0
 93
        1
 44
0.0
173
     0
291
     1
 45
0.0
1001
ACAD
1000
AcDbSavedByObjectVersion
1070
     0
  0
VISUALSTYLE
  5
2B
102
{ACAD_REACTORS
330
2A
102
}
330
2A
100
AcDbVisualStyle
  2
Flat
 70
     0
 71
     2
 72
     1
 73
     1
 90
        2
 40
-0.6
 41
30.0
 62
     5
 63
     7
 74
     0
 91
        4
 64
     7
 65
   257
 75
     1
175
     1
 42
1.0
 92
        8
 66
     7
 43
1.0
 76
     1
 77
     6
 78
     2
 67
     7
 79
     5
170
     0
171
     0
290
     0
174
     0
 93
       13
 44
0.0
173
     0
291
     1
 45
0.0
1001
ACAD
1000
AcDbSavedByObjectVersion
1070
     0
  0
VISUALSTYLE
  5
2C
102
{ACAD_REACTORS
330
2A
102
}
330
2A
100
AcDbVisualStyle
  2
FlatWithEdges
 70
     1
 71
     2
 72
     1
 73
     1
 90
        2
 40
-0.6
 41
30.0
 62
     5
 63
     7
 74
     1
 91
        4
 64
     7
 65
   257
 75
     1
175
     1
 42
1.0
 92
        0
 66
   257
 43
1.0
 76
     1
 77
     6
 78
     2
 67
     7
 79
     5
170
     0
171
     0
290
     0
174
     0
 93
       13
 44
0.0
173
     0
291
     1
 45
0.0
1001
ACAD
1000
AcDbSavedByObjectVersion
1070
     0
  0
VISUALSTYLE
  5
2D
102
{ACAD_REACTORS
330
2A
102
}
330
2A
100
AcDbVisualStyle
  2
Gouraud
 70
     2
 71
     2
 72
     2
 73
     1
 90
        2
 40
-0.6
 41
30.0
 62
     5
 63
     7
 74
     0
 91
        4
 64
     7
 65
   257
 75
     1
175
     1
 42
1.0
 92
        0
 66
     7
 43
1.0
 76
     1
 77
     6
 78
     2
 67
     7
 79
     5
170
     0
171
     0
290
     0
174
     0
 93
       13
 44
0.0
173
     0
291
     1
 45
0.0
1001
ACAD
1000
AcDbSavedByObjectVersion
1070
     0
  0
VISUALSTYLE
  5
2E
102
{ACAD_REACTORS
330
2A
102
}
330
2A
100
AcDbVisualStyle
  2
GouraudWithEdges
 70
     3
 71
     2
 72
     2
 73
     1
 90
        2
 40
-0.6
 41
30.0
 62
     5
 63
     7
 74
     1
 91
        4
 64
     7
 65
   257
 75
     1
175
     1
 42
1.0
 92
        0
 66
   257
 43
1.0
 76
     1
 77
     6
 78
     2
 67
     7
 79
     5
170
     0
171
     0
290
     0
174
     0
 93
       13
 44
0.0
173
     0
291
     1
 45
0.0
1001
ACAD
1000
AcDbSavedByObjectVersion
1070
     0
  0
VISUALSTYLE
  5
38
102
{ACAD_REACTORS
330
2A
102
}
330
2A
100
AcDbVisualStyle
  2
Linepattern
 70
    14
 71
     2
 72
     2
 73
     0
 90
        0
 40
-0.6
 41
-30.0
 62
     5
 63
     7
 74
     1
 91
        4
 64
     7
 65
   257
 75
     7
175
     7
 42
1.0
 92
        8
 66
     7
 43
1.0
 76
     1
 77
     6
 78
     2
 67
     7
 79
     5
170
     0
171
     0
290
     0
174
     0
 93
        1
 44
0.0
173
     0
291
     1
 45
0.0
1001
ACAD
1000
AcDbSavedByObjectVersion
1070
     0
  0
VISUALSTYLE
  5
33
102
{ACAD_REACTORS
330
2A
102
}
330
2A
100
AcDbVisualStyle
  2
Realistic
 70
     8
 71
     2
 72
     2
 73
     0
 90
        0
 40
-0.6
 41
-30.0
 62
     5
 63
     7
 74
     1
 91
        0
 64
     7
 65
   257
 75
     1
175
     1
 42
1.0
 92
        8
 66
     8
 43
1.0
 76
     1
 77
     6
 78
     2
 67
     7
 79
     5
170
     0
171
     0
290
     0
174
     0
 93
       13
 44
0.0
173
     0
291
     0
 45
0.0
1001
ACAD
1000
AcDbSavedByObjectVersion
1070
     0
  0
VISUALSTYLE
  5
37
102
{ACAD_REACTORS
330
2A
102
}
330
2A
100
AcDbVisualStyle
  2
Thicken
 70
    13
 71
     2
 72
     2
 73
     0
 90
        0
 40
-0.6
 41
-30.0
 62
     5
 63
     7
 74
     1
 91
        4
 64
     7
 65
   257
 75
     1
175
     1
 42
1.0
 92
       12
 66
     7
 43
1.0
 76
     1
 77
     6
 78
     2
 67
     7
 79
     5
170
     0
171
     0
290
     0
174
     0
 93
        1
 44
0.0
173
     0
291
     1
 45
0.0
1001
ACAD
1000
AcDbSavedByObjectVersion
1070
     0
  0
DICTIONARYVAR
  5
6EC
102
{ACAD_REACTORS
330
6EB
102
}
330
6EB
100
DictionaryVariables
280
     0
  1
1:1
  0
DICTIONARYVAR
  5
6F0
102
{ACAD_REACTORS
330
6EB
102
}
330
6EB
100
DictionaryVariables
280
     0
  1
80.000000
  0
DICTIONARYVAR
  5
6EF
102
{ACAD_REACTORS
330
6EB
102
}
330
6EB
100
DictionaryVariables
280
     0
  1
5.000000
  0
ENDSEC
  0
EOF
