  0
SECTION
  2
HEADER
  9
$ACADVER
  1
AC1015
  9
$ACADMAINTVER
 70
     6
  9
$DWGCODEPAGE
  3
ANSI_932
  9
$INSBASE
 10
0.0
 20
0.0
 30
0.0
  9
$EXTMIN
 10
33.190735
 20
28.976196
 30
0.0
  9
$EXTMAX
 10
344.052338
 20
210.817215
 30
0.0
  9
$LIMMIN
 10
0.0
 20
0.0
  9
$LIMMAX
 10
12.0
 20
9.0
  9
$ORTHOMODE
 70
     0
  9
$REGENMODE
 70
     1
  9
$FILLMODE
 70
     1
  9
$QTEXTMODE
 70
     0
  9
$MIRRTEXT
 70
     1
  9
$LTSCALE
 40
3.601404
  9
$ATTMODE
 70
     1
  9
$TEXTSIZE
 40
3.2
  9
$TRACEWID
 40
1.0
  9
$TEXTSTYLE
  7
Standard
  9
$CLAYER
  8
0
  9
$CELTYPE
  6
ByLayer
  9
$CECOLOR
 62
   256
  9
$CELTSCALE
 40
1.0
  9
$DISPSILH
 70
     0
  9
$DIMSCALE
 40
1.0
  9
$DIMASZ
 40
2.5
  9
$DIMEXO
 40
0.625
  9
$DIMDLI
 40
3.75
  9
$DIMRND
 40
0.0
  9
$DIMDLE
 40
0.0
  9
$DIMEXE
 40
1.25
  9
$DIMTP
 40
0.0
  9
$DIMTM
 40
0.0
  9
$DIMTXT
 40
2.5
  9
$DIMCEN
 40
0.09
  9
$DIMTSZ
 40
0.0
  9
$DIMTOL
 70
     0
  9
$DIMLIM
 70
     0
  9
$DIMTIH
 70
     0
  9
$DIMTOH
 70
     0
  9
$DIMSE1
 70
     0
  9
$DIMSE2
 70
     0
  9
$DIMTAD
 70
     0
  9
$DIMZIN
 70
     8
  9
$DIMBLK
  1

  9
$DIMASO
 70
     1
  9
$DIMSHO
 70
     0
  9
$DIMPOST
  1

  9
$DIMAPOST
  1

  9
$DIMALT
 70
     0
  9
$DIMALTD
 70
     3
  9
$DIMALTF
 40
0.03937
  9
$DIMLFAC
 40
1.0
  9
$DIMTOFL
 70
     1
  9
$DIMTVP
 40
0.0
  9
$DIMTIX
 70
     0
  9
$DIMSOXD
 70
     0
  9
$DIMSAH
 70
     0
  9
$DIMBLK1
  1

  9
$DIMBLK2
  1

  9
$DIMSTYLE
  2
ISO-25
  9
$DIMCLRD
 70
     0
  9
$DIMCLRE
 70
     0
  9
$DIMCLRT
 70
     0
  9
$DIMTFAC
 40
1.0
  9
$DIMGAP
 40
0.625
  9
$DIMJUST
 70
     0
  9
$DIMSD1
 70
     0
  9
$DIMSD2
 70
     0
  9
$DIMTOLJ
 70
     0
  9
$DIMTZIN
 70
     8
  9
$DIMALTZ
 70
     0
  9
$DIMALTTZ
 70
     0
  9
$DIMUPT
 70
     0
  9
$DIMDEC
 70
     2
  9
$DIMTDEC
 70
     2
  9
$DIMALTU
 70
     2
  9
$DIMALTTD
 70
     3
  9
$DIMTXSTY
  7
Standard
  9
$DIMAUNIT
 70
     0
  9
$DIMADEC
 70
     0
  9
$DIMALTRND
 40
0.0
  9
$DIMAZIN
 70
     0
  9
$DIMDSEP
 70
    44
  9
$DIMATFIT
 70
     3
  9
$DIMFRAC
 70
     0
  9
$DIMLDRBLK
  1

  9
$DIMLUNIT
 70
     2
  9
$DIMLWD
 70
    -2
  9
$DIMLWE
 70
    -2
  9
$DIMTMOVE
 70
     0
  9
$LUNITS
 70
     2
  9
$LUPREC
 70
     4
  9
$SKETCHINC
 40
1.0
  9
$FILLETRAD
 40
0.0
  9
$AUNITS
 70
     0
  9
$AUPREC
 70
     0
  9
$MENU
  1
.
  9
$ELEVATION
 40
0.0
  9
$PELEVATION
 40
0.0
  9
$THICKNESS
 40
0.0
  9
$LIMCHECK
 70
     0
  9
$CHAMFERA
 40
10.0
  9
$CHAMFERB
 40
10.0
  9
$CHAMFERC
 40
20.0
  9
$CHAMFERD
 40
0.0
  9
$SKPOLY
 70
     0
  9
$TDCREATE
 40
2454798.649067743
  9
$TDUCREATE
 40
2454798.274067743
  9
$TDUPDATE
 40
2454798.649067755
  9
$TDUUPDATE
 40
2454798.274067755
  9
$TDINDWG
 40
0.0000000116
  9
$TDUSRTIMER
 40
0.0000000116
  9
$USRTIMER
 70
     1
  9
$ANGBASE
 50
0.0
  9
$ANGDIR
 70
     0
  9
$PDMODE
 70
     0
  9
$PDSIZE
 40
0.0
  9
$PLINEWID
 40
0.0
  9
$SPLFRAME
 70
     0
  9
$SPLINETYPE
 70
     6
  9
$SPLINESEGS
 70
     8
  9
$HANDSEED
  5
733
  9
$SURFTAB1
 70
     6
  9
$SURFTAB2
 70
     6
  9
$SURFTYPE
 70
     6
  9
$SURFU
 70
     6
  9
$SURFV
 70
     6
  9
$UCSBASE
  2

  9
$UCSNAME
  2

  9
$UCSORG
 10
0.0
 20
0.0
 30
0.0
  9
$UCSXDIR
 10
1.0
 20
0.0
 30
0.0
  9
$UCSYDIR
 10
0.0
 20
1.0
 30
0.0
  9
$UCSORTHOREF
  2

  9
$UCSORTHOVIEW
 70
     0
  9
$UCSORGTOP
 10
0.0
 20
0.0
 30
0.0
  9
$UCSORGBOTTOM
 10
0.0
 20
0.0
 30
0.0
  9
$UCSORGLEFT
 10
0.0
 20
0.0
 30
0.0
  9
$UCSORGRIGHT
 10
0.0
 20
0.0
 30
0.0
  9
$UCSORGFRONT
 10
0.0
 20
0.0
 30
0.0
  9
$UCSORGBACK
 10
0.0
 20
0.0
 30
0.0
  9
$PUCSBASE
  2

  9
$PUCSNAME
  2

  9
$PUCSORG
 10
0.0
 20
0.0
 30
0.0
  9
$PUCSXDIR
 10
1.0
 20
0.0
 30
0.0
  9
$PUCSYDIR
 10
0.0
 20
1.0
 30
0.0
  9
$PUCSORTHOREF
  2

  9
$PUCSORTHOVIEW
 70
     0
  9
$PUCSORGTOP
 10
0.0
 20
0.0
 30
0.0
  9
$PUCSORGBOTTOM
 10
0.0
 20
0.0
 30
0.0
  9
$PUCSORGLEFT
 10
0.0
 20
0.0
 30
0.0
  9
$PUCSORGRIGHT
 10
0.0
 20
0.0
 30
0.0
  9
$PUCSORGFRONT
 10
0.0
 20
0.0
 30
0.0
  9
$PUCSORGBACK
 10
0.0
 20
0.0
 30
0.0
  9
$USERI1
 70
     0
  9
$USERI2
 70
     0
  9
$USERI3
 70
     0
  9
$USERI4
 70
     0
  9
$USERI5
 70
     0
  9
$USERR1
 40
0.0
  9
$USERR2
 40
0.0
  9
$USERR3
 40
0.0
  9
$USERR4
 40
0.0
  9
$USERR5
 40
0.0
  9
$WORLDVIEW
 70
     1
  9
$SHADEDGE
 70
     3
  9
$SHADEDIF
 70
    70
  9
$TILEMODE
 70
     1
  9
$MAXACTVP
 70
    64
  9
$PINSBASE
 10
0.0
 20
0.0
 30
0.0
  9
$PLIMCHECK
 70
     0
  9
$PEXTMIN
 10
1.000000E+20
 20
1.000000E+20
 30
0.0
  9
$PEXTMAX
 10
-1.000000E+20
 20
-1.000000E+20
 30
0.0
  9
$PLIMMIN
 10
0.0
 20
0.0
  9
$PLIMMAX
 10
12.0
 20
9.0
  9
$UNITMODE
 70
     0
  9
$VISRETAIN
 70
     1
  9
$PLINEGEN
 70
     0
  9
$PSLTSCALE
 70
     1
  9
$TREEDEPTH
 70
  3020
  9
$CMLSTYLE
  2
Standard
  9
$CMLJUST
 70
     0
  9
$CMLSCALE
 40
20.0
  9
$PROXYGRAPHICS
 70
     1
  9
$MEASUREMENT
 70
     1
  9
$CELWEIGHT
370
    -1
  9
$ENDCAPS
280
     0
  9
$JOINSTYLE
280
     0
  9
$LWDISPLAY
290
     0
  9
$INSUNITS
 70
     4
  9
$HYPERLINKBASE
  1

  9
$STYLESHEET
  1

  9
$XEDIT
290
     1
  9
$CEPSNTYPE
380
     0
  9
$PSTYLEMODE
290
     1
  9
$FINGERPRINTGUID
  2
{CF9744CE-AE21-4535-998D-FF39184C698D}
  9
$VERSIONGUID
  2
{FAEB1C32-E019-11D5-929B-00C0DF256EC4}
  9
$EXTNAMES
290
     1
  9
$PSVPSCALE
 40
0.0
  9
$OLESTARTUP
290
     0
  0
ENDSEC
  0
SECTION
  2
CLASSES
  0
CLASS
  1
ACDBDICTIONARYWDFLT
  2
AcDbDictionaryWithDefault
  3
ObjectDBX Classes
 90
        0
280
     0
281
     0
  0
CLASS
  1
VISUALSTYLE
  2
AcDbVisualStyle
  3
ObjectDBX Classes
 90
     4095
280
     0
281
     0
  0
CLASS
  1
SCALE
  2
AcDbScale
  3
ObjectDBX Classes
 90
     1153
280
     0
281
     0
  0
CLASS
  1
DICTIONARYVAR
  2
AcDbDictionaryVar
  3
ObjectDBX Classes
 90
        0
280
     0
281
     0
  0
CLASS
  1
ACDBPLACEHOLDER
  2
AcDbPlaceHolder
  3
ObjectDBX Classes
 90
        0
280
     0
281
     0
  0
CLASS
  1
LAYOUT
  2
AcDbLayout
  3
ObjectDBX Classes
 90
        0
280
     0
281
     0
  0
ENDSEC
  0
SECTION
  2
TABLES
  0
TABLE
  2
VPORT
  5
8
330
0
100
AcDbSymbolTable
 70
     1
  0
VPORT
  5
29
330
8
100
AcDbSymbolTableRecord
100
AcDbViewportTableRecord
  2
*Active
 70
     0
 10
0.0
 20
0.0
 11
1.0
 21
1.0
 12
188.621536
 22
119.896706
 13
0.0
 23
0.0
 14
1.0
 24
1.0
 15
0.0
 25
0.0
 16
0.0
 26
0.0
 36
1.0
 17
0.0
 27
0.0
 37
0.0
 40
185.639713
 41
1.691288
 42
50.0
 43
0.0
 44
0.0
 50
0.0
 51
0.0
 71
     0
 72
   100
 73
     1
 74
     3
 75
     0
 76
     0
 77
     0
 78
     0
281
     0
 65
     1
110
0.0
120
0.0
130
0.0
111
1.0
121
0.0
131
0.0
112
0.0
122
1.0
132
0.0
 79
     0
146
0.0
  0
ENDTAB
  0
TABLE
  2
LTYPE
  5
5
330
0
100
AcDbSymbolTable
 70
     5
  0
LTYPE
  5
14
330
5
100
AcDbSymbolTableRecord
100
AcDbLinetypeTableRecord
  2
ByBlock
 70
     0
  3

 72
    65
 73
     0
 40
0.0
  0
LTYPE
  5
15
330
5
100
AcDbSymbolTableRecord
100
AcDbLinetypeTableRecord
  2
ByLayer
 70
     0
  3

 72
    65
 73
     0
 40
0.0
  0
LTYPE
  5
16
330
5
100
AcDbSymbolTableRecord
100
AcDbLinetypeTableRecord
  2
Continuous
 70
     0
  3
Solid line
 72
    65
 73
     0
 40
0.0
  0
LTYPE
  5
5D
330
5
100
AcDbSymbolTableRecord
100
AcDbLinetypeTableRecord
  2
DASHED
 70
     0
  3
DASHED
 72
    83
 73
     2
 40
0.75
 49
0.5
 74
     0
 49
-0.25
 74
     0
  0
LTYPE
  5
5E
330
5
100
AcDbSymbolTableRecord
100
AcDbLinetypeTableRecord
  2
HIDDEN
 70
     0
  3
HIDDEN
 72
    83
 73
     2
 40
0.375
 49
0.25
 74
     0
 49
-0.125
 74
     0
  0
LTYPE
  5
5F
330
5
100
AcDbSymbolTableRecord
100
AcDbLinetypeTableRecord
  2
CENTER
 70
     0
  3
CENTER
 72
    83
 73
     4
 40
2.0
 49
1.25
 74
     0
 49
-0.25
 74
     0
 49
0.25
 74
     0
 49
-0.25
 74
     0
  0
LTYPE
  5
60
330
5
100
AcDbSymbolTableRecord
100
AcDbLinetypeTableRecord
  2
PHANTOM
 70
     0
  3
PHANTOM
 72
    83
 73
     6
 40
2.5
 49
1.25
 74
     0
 49
-0.25
 74
     0
 49
0.25
 74
     0
 49
-0.25
 74
     0
 49
0.25
 74
     0
 49
-0.25
 74
     0
  0
ENDTAB
  0
TABLE
  2
LAYER
  5
2
330
0
100
AcDbSymbolTable
 70
     2
  0
LAYER
  5
10
330
2
100
AcDbSymbolTableRecord
100
AcDbLayerTableRecord
  2
0
 70
     0
 62
     7
  6
Continuous
370
    -3
390
F
  0
LAYER
  5
61
330
2
100
AcDbSymbolTableRecord
100
AcDbLayerTableRecord
  2
001
 70
     0
 62
     7
  6
Continuous
370
    -3
390
F
  0
ENDTAB
  0
TABLE
  2
STYLE
  5
3
330
0
100
AcDbSymbolTable
 70
     2
  0
STYLE
  5
11
330
3
100
AcDbSymbolTableRecord
100
AcDbTextStyleTableRecord
  2
Standard
 70
     0
 40
0.0
 41
1.0
 50
0.0
 71
     0
 42
0.2
  3
TXT
  4
BIGFONT
  0
STYLE
  5
62
330
3
100
AcDbSymbolTableRecord
100
AcDbTextStyleTableRecord
  2
TATEGAKI
 70
     4
 40
1.0
 41
1.0
 50
0.0
 71
     0
 42
0.2
  3
TXT
  4
BIGFONT
  0
ENDTAB
  0
TABLE
  2
VIEW
  5
6
330
0
100
AcDbSymbolTable
 70
     0
  0
ENDTAB
  0
TABLE
  2
UCS
  5
7
330
0
100
AcDbSymbolTable
 70
     0
  0
ENDTAB
  0
TABLE
  2
APPID
  5
9
330
0
100
AcDbSymbolTable
 70
     1
  0
APPID
  5
12
330
9
100
AcDbSymbolTableRecord
100
AcDbRegAppTableRecord
  2
ACAD
 70
     0
  0
ENDTAB
  0
TABLE
  2
DIMSTYLE
  5
A
330
0
100
AcDbSymbolTable
 70
     2
100
AcDbDimStyleTable
  0
DIMSTYLE
105
27
330
A
100
AcDbSymbolTableRecord
100
AcDbDimStyleTableRecord
  2
ISO-25
 70
     0
 41
2.5
 42
0.625
 43
3.75
 44
1.25
 73
     0
 74
     0
 77
     1
 78
     8
140
2.5
141
2.5
143
0.03937
147
0.625
171
     3
172
     1
271
     2
272
     2
274
     3
278
    44
283
     0
284
     8
340
11
  0
DIMSTYLE
105
63
102
{ACAD_REACTORS
330
17E
330
17F
330
180
330
181
330
182
330
183
330
184
330
185
330
186
330
187
330
188
330
189
330
18A
330
199
102
}
330
A
100
AcDbSymbolTableRecord
100
AcDbDimStyleTableRecord
  2
Standard
 70
     0
 41
1.5
 42
0.0
 44
2.75
 73
     0
 74
     0
 77
     1
 78
     8
 79
     2
140
4.0
146
0.8
147
1.0
172
     1
179
     1
271
     1
340
11
  0
ENDTAB
  0
TABLE
  2
BLOCK_RECORD
  5
1
330
0
100
AcDbSymbolTable
 70
    15
  0
BLOCK_RECORD
  5
1F
330
1
100
AcDbSymbolTableRecord
100
AcDbBlockTableRecord
  2
*Model_Space
340
22
  0
BLOCK_RECORD
  5
1B
330
1
100
AcDbSymbolTableRecord
100
AcDbBlockTableRecord
  2
*Paper_Space
340
1E
  0
BLOCK_RECORD
  5
23
330
1
100
AcDbSymbolTableRecord
100
AcDbBlockTableRecord
  2
*Paper_Space0
340
26
  0
BLOCK_RECORD
  5
64
330
1
100
AcDbSymbolTableRecord
100
AcDbBlockTableRecord
  2
*D1
340
0
  0
BLOCK_RECORD
  5
78
330
1
100
AcDbSymbolTableRecord
100
AcDbBlockTableRecord
  2
*D2
340
0
  0
BLOCK_RECORD
  5
8C
330
1
100
AcDbSymbolTableRecord
100
AcDbBlockTableRecord
  2
*D3
340
0
  0
BLOCK_RECORD
  5
A0
330
1
100
AcDbSymbolTableRecord
100
AcDbBlockTableRecord
  2
*D4
340
0
  0
BLOCK_RECORD
  5
B6
330
1
100
AcDbSymbolTableRecord
100
AcDbBlockTableRecord
  2
*D5
340
0
  0
BLOCK_RECORD
  5
CA
330
1
100
AcDbSymbolTableRecord
100
AcDbBlockTableRecord
  2
*D6
340
0
  0
BLOCK_RECORD
  5
DE
330
1
100
AcDbSymbolTableRecord
100
AcDbBlockTableRecord
  2
*D7
340
0
  0
BLOCK_RECORD
  5
F2
330
1
100
AcDbSymbolTableRecord
100
AcDbBlockTableRecord
  2
*D8
340
0
  0
BLOCK_RECORD
  5
106
330
1
100
AcDbSymbolTableRecord
100
AcDbBlockTableRecord
  2
*D9
340
0
  0
BLOCK_RECORD
  5
11A
330
1
100
AcDbSymbolTableRecord
100
AcDbBlockTableRecord
  2
*D10
340
0
  0
BLOCK_RECORD
  5
12E
330
1
100
AcDbSymbolTableRecord
100
AcDbBlockTableRecord
  2
*D11
340
0
  0
BLOCK_RECORD
  5
142
330
1
100
AcDbSymbolTableRecord
100
AcDbBlockTableRecord
  2
*D12
340
0
  0
BLOCK_RECORD
  5
156
330
1
100
AcDbSymbolTableRecord
100
AcDbBlockTableRecord
  2
*D13
340
0
  0
BLOCK_RECORD
  5
16A
330
1
100
AcDbSymbolTableRecord
100
AcDbBlockTableRecord
  2
*D14
340
0
  0
ENDTAB
  0
ENDSEC
  0
SECTION
  2
BLOCKS
  0
BLOCK
  5
20
330
1F
100
AcDbEntity
  8
0
100
AcDbBlockBegin
  2
*Model_Space
 70
     0
 10
0.0
 20
0.0
 30
0.0
  3
*Model_Space
  1

  0
ENDBLK
  5
21
330
1F
100
AcDbEntity
  8
0
100
AcDbBlockEnd
  0
BLOCK
  5
1C
330
1B
100
AcDbEntity
 67
     1
  8
0
100
AcDbBlockBegin
  2
*Paper_Space
 70
     0
 10
0.0
 20
0.0
 30
0.0
  3
*Paper_Space
  1

  0
ENDBLK
  5
1D
330
1B
100
AcDbEntity
 67
     1
  8
0
100
AcDbBlockEnd
  0
BLOCK
  5
24
330
23
100
AcDbEntity
  8
0
100
AcDbBlockBegin
  2
*Paper_Space0
 70
     0
 10
0.0
 20
0.0
 30
0.0
  3
*Paper_Space0
  1

  0
ENDBLK
  5
25
330
23
100
AcDbEntity
  8
0
100
AcDbBlockEnd
  0
BLOCK
  5
65
330
64
100
AcDbEntity
  8
0
100
AcDbBlockBegin
  2
*D1
 70
     1
 10
0.0
 20
0.0
 30
0.0
  3
*D1
  1

  0
LINE
  5
67
330
64
100
AcDbEntity
  8
001
370
     9
100
AcDbLine
 10
160.943178
 20
170.849534
 30
0.0
 11
136.095138
 21
170.849534
 31
0.0
  0
LINE
  5
68
330
64
100
AcDbEntity
  8
001
370
     9
100
AcDbLine
 10
160.943178
 20
131.849534
 30
0.0
 11
136.095138
 21
131.849534
 31
0.0
  0
LINE
  5
69
330
64
100
AcDbEntity
  8
001
370
     9
100
AcDbLine
 10
138.845138
 20
170.849534
 30
0.0
 11
138.845138
 21
131.849534
 31
0.0
  0
POLYLINE
  5
6A
330
64
100
AcDbEntity
  8
001
370
     9
100
AcDb2dPolyline
 66
     1
 10
0.0
 20
0.0
 30
0.0
  0
VERTEX
  5
6C
330
6A
100
AcDbEntity
  8
001
370
     9
100
AcDbVertex
100
AcDb2dVertex
 10
138.443214
 20
169.349534
 30
0.0
  0
VERTEX
  5
6D
330
6A
100
AcDbEntity
  8
001
370
     9
100
AcDbVertex
100
AcDb2dVertex
 10
138.845138
 20
170.849534
 30
0.0
  0
VERTEX
  5
6E
330
6A
100
AcDbEntity
  8
001
370
     9
100
AcDbVertex
100
AcDb2dVertex
 10
139.247062
 20
169.349534
 30
0.0
  0
SEQEND
  5
6B
330
6A
100
AcDbEntity
  8
001
370
     9
  0
POLYLINE
  5
6F
330
64
100
AcDbEntity
  8
001
370
     9
100
AcDb2dPolyline
 66
     1
 10
0.0
 20
0.0
 30
0.0
  0
VERTEX
  5
71
330
6F
100
AcDbEntity
  8
001
370
     9
100
AcDbVertex
100
AcDb2dVertex
 10
139.247062
 20
133.349534
 30
0.0
  0
VERTEX
  5
72
330
6F
100
AcDbEntity
  8
001
370
     9
100
AcDbVertex
100
AcDb2dVertex
 10
138.845138
 20
131.849534
 30
0.0
  0
VERTEX
  5
73
330
6F
100
AcDbEntity
  8
001
370
     9
100
AcDbVertex
100
AcDb2dVertex
 10
138.443214
 20
133.349534
 30
0.0
  0
SEQEND
  5
70
330
6F
100
AcDbEntity
  8
001
370
     9
  0
TEXT
  5
74
330
64
100
AcDbEntity
  8
001
370
    30
100
AcDbText
 10
137.845138
 20
145.349534
 30
0.0
 40
4.0
  1
%%c３９
 50
90.000003
 41
0.882353
100
AcDbText
  0
POINT
  5
75
330
64
100
AcDbEntity
  8
001
370
     9
100
AcDbPoint
 10
160.943178
 20
170.849534
 30
0.0
  0
POINT
  5
76
330
64
100
AcDbEntity
  8
001
370
     9
100
AcDbPoint
 10
160.943178
 20
131.849534
 30
0.0
  0
POINT
  5
77
330
64
100
AcDbEntity
  8
001
370
     9
100
AcDbPoint
 10
138.845138
 20
131.849534
 30
0.0
  0
ENDBLK
  5
66
330
64
100
AcDbEntity
  8
0
100
AcDbBlockEnd
  0
BLOCK
  5
79
330
78
100
AcDbEntity
  8
0
100
AcDbBlockBegin
  2
*D2
 70
     1
 10
0.0
 20
0.0
 30
0.0
  3
*D2
  1

  0
LINE
  5
7B
330
78
100
AcDbEntity
  8
001
370
     9
100
AcDbLine
 10
184.053256
 20
172.849534
 30
0.0
 11
121.754142
 21
172.849534
 31
0.0
  0
LINE
  5
7C
330
78
100
AcDbEntity
  8
001
370
     9
100
AcDbLine
 10
187.443178
 20
129.849534
 30
0.0
 11
121.754142
 21
129.849534
 31
0.0
  0
LINE
  5
7D
330
78
100
AcDbEntity
  8
001
370
     9
100
AcDbLine
 10
124.504142
 20
172.849534
 30
0.0
 11
124.504142
 21
129.849534
 31
0.0
  0
POLYLINE
  5
7E
330
78
100
AcDbEntity
  8
001
370
     9
100
AcDb2dPolyline
 66
     1
 10
0.0
 20
0.0
 30
0.0
  0
VERTEX
  5
80
330
7E
100
AcDbEntity
  8
001
370
     9
100
AcDbVertex
100
AcDb2dVertex
 10
124.102218
 20
171.349534
 30
0.0
  0
VERTEX
  5
81
330
7E
100
AcDbEntity
  8
001
370
     9
100
AcDbVertex
100
AcDb2dVertex
 10
124.504142
 20
172.849534
 30
0.0
  0
VERTEX
  5
82
330
7E
100
AcDbEntity
  8
001
370
     9
100
AcDbVertex
100
AcDb2dVertex
 10
124.906066
 20
171.349534
 30
0.0
  0
SEQEND
  5
7F
330
7E
100
AcDbEntity
  8
001
370
     9
  0
POLYLINE
  5
83
330
78
100
AcDbEntity
  8
001
370
     9
100
AcDb2dPolyline
 66
     1
 10
0.0
 20
0.0
 30
0.0
  0
VERTEX
  5
85
330
83
100
AcDbEntity
  8
001
370
     9
100
AcDbVertex
100
AcDb2dVertex
 10
124.906066
 20
131.349534
 30
0.0
  0
VERTEX
  5
86
330
83
100
AcDbEntity
  8
001
370
     9
100
AcDbVertex
100
AcDb2dVertex
 10
124.504142
 20
129.849534
 30
0.0
  0
VERTEX
  5
87
330
83
100
AcDbEntity
  8
001
370
     9
100
AcDbVertex
100
AcDb2dVertex
 10
124.102218
 20
131.349534
 30
0.0
  0
SEQEND
  5
84
330
83
100
AcDbEntity
  8
001
370
     9
  0
TEXT
  5
88
330
78
100
AcDbEntity
  8
001
370
    30
100
AcDbText
 10
123.504142
 20
145.349534
 30
0.0
 40
4.0
  1
%%c４３
 50
90.000003
 41
0.882353
100
AcDbText
  0
POINT
  5
89
330
78
100
AcDbEntity
  8
001
370
     9
100
AcDbPoint
 10
184.053256
 20
172.849534
 30
0.0
  0
POINT
  5
8A
330
78
100
AcDbEntity
  8
001
370
     9
100
AcDbPoint
 10
187.443178
 20
129.849534
 30
0.0
  0
POINT
  5
8B
330
78
100
AcDbEntity
  8
001
370
     9
100
AcDbPoint
 10
124.504142
 20
129.849534
 30
0.0
  0
ENDBLK
  5
7A
330
78
100
AcDbEntity
  8
0
100
AcDbBlockEnd
  0
BLOCK
  5
8D
330
8C
100
AcDbEntity
  8
0
100
AcDbBlockBegin
  2
*D3
 70
     1
 10
0.0
 20
0.0
 30
0.0
  3
*D3
  1

  0
LINE
  5
8F
330
8C
100
AcDbEntity
  8
001
370
     9
100
AcDbLine
 10
184.053256
 20
176.449534
 30
0.0
 11
108.181778
 21
176.449534
 31
0.0
  0
LINE
  5
90
330
8C
100
AcDbEntity
  8
001
370
     9
100
AcDbLine
 10
157.812765
 20
126.249534
 30
0.0
 11
108.181778
 21
126.249534
 31
0.0
  0
LINE
  5
91
330
8C
100
AcDbEntity
  8
001
370
     9
100
AcDbLine
 10
110.931778
 20
176.449534
 30
0.0
 11
110.931778
 21
126.249534
 31
0.0
  0
POLYLINE
  5
92
330
8C
100
AcDbEntity
  8
001
370
     9
100
AcDb2dPolyline
 66
     1
 10
0.0
 20
0.0
 30
0.0
  0
VERTEX
  5
94
330
92
100
AcDbEntity
  8
001
370
     9
100
AcDbVertex
100
AcDb2dVertex
 10
110.529855
 20
174.949534
 30
0.0
  0
VERTEX
  5
95
330
92
100
AcDbEntity
  8
001
370
     9
100
AcDbVertex
100
AcDb2dVertex
 10
110.931778
 20
176.449534
 30
0.0
  0
VERTEX
  5
96
330
92
100
AcDbEntity
  8
001
370
     9
100
AcDbVertex
100
AcDb2dVertex
 10
111.333702
 20
174.949534
 30
0.0
  0
SEQEND
  5
93
330
92
100
AcDbEntity
  8
001
370
     9
  0
POLYLINE
  5
97
330
8C
100
AcDbEntity
  8
001
370
     9
100
AcDb2dPolyline
 66
     1
 10
0.0
 20
0.0
 30
0.0
  0
VERTEX
  5
99
330
97
100
AcDbEntity
  8
001
370
     9
100
AcDbVertex
100
AcDb2dVertex
 10
111.333702
 20
127.749534
 30
0.0
  0
VERTEX
  5
9A
330
97
100
AcDbEntity
  8
001
370
     9
100
AcDbVertex
100
AcDb2dVertex
 10
110.931778
 20
126.249534
 30
0.0
  0
VERTEX
  5
9B
330
97
100
AcDbEntity
  8
001
370
     9
100
AcDbVertex
100
AcDb2dVertex
 10
110.529855
 20
127.749534
 30
0.0
  0
SEQEND
  5
98
330
97
100
AcDbEntity
  8
001
370
     9
  0
TEXT
  5
9C
330
8C
100
AcDbEntity
  8
001
370
    30
100
AcDbText
 10
109.931778
 20
141.349534
 30
0.0
 40
4.0
  1
%%c５０．２
 50
90.000003
 41
0.862069
100
AcDbText
  0
POINT
  5
9D
330
8C
100
AcDbEntity
  8
001
370
     9
100
AcDbPoint
 10
184.053256
 20
176.449534
 30
0.0
  0
POINT
  5
9E
330
8C
100
AcDbEntity
  8
001
370
     9
100
AcDbPoint
 10
157.812765
 20
126.249534
 30
0.0
  0
POINT
  5
9F
330
8C
100
AcDbEntity
  8
001
370
     9
100
AcDbPoint
 10
110.931778
 20
126.249534
 30
0.0
  0
ENDBLK
  5
8E
330
8C
100
AcDbEntity
  8
0
100
AcDbBlockEnd
  0
BLOCK
  5
A1
330
A0
100
AcDbEntity
  8
0
100
AcDbBlockBegin
  2
*D4
 70
     1
 10
0.0
 20
0.0
 30
0.0
  3
*D4
  1

  0
LINE
  5
A3
330
A0
100
AcDbEntity
  8
001
370
     9
100
AcDbLine
 10
160.943178
 20
132.643534
 30
0.0
 11
160.943178
 21
100.766457
 31
0.0
  0
LINE
  5
A4
330
A0
100
AcDbEntity
  8
001
370
     9
100
AcDbLine
 10
159.043178
 20
139.249534
 30
0.0
 11
159.043178
 21
100.766457
 31
0.0
  0
LINE
  5
A5
330
A0
100
AcDbEntity
  8
001
370
     9
100
AcDbLine
 10
160.943178
 20
103.516457
 30
0.0
 11
159.043178
 21
103.516457
 31
0.0
  0
POLYLINE
  5
A6
330
A0
100
AcDbEntity
  8
001
370
     9
100
AcDb2dPolyline
 66
     1
 10
0.0
 20
0.0
 30
0.0
  0
VERTEX
  5
A8
330
A6
100
AcDbEntity
  8
001
370
     9
100
AcDbVertex
100
AcDb2dVertex
 10
162.443178
 20
103.114533
 30
0.0
  0
VERTEX
  5
A9
330
A6
100
AcDbEntity
  8
001
370
     9
100
AcDbVertex
100
AcDb2dVertex
 10
160.943178
 20
103.516457
 30
0.0
  0
VERTEX
  5
AA
330
A6
100
AcDbEntity
  8
001
370
     9
100
AcDbVertex
100
AcDb2dVertex
 10
162.443178
 20
103.918381
 30
0.0
  0
SEQEND
  5
A7
330
A6
100
AcDbEntity
  8
001
370
     9
  0
POLYLINE
  5
AB
330
A0
100
AcDbEntity
  8
001
370
     9
100
AcDb2dPolyline
 66
     1
 10
0.0
 20
0.0
 30
0.0
  0
VERTEX
  5
AD
330
AB
100
AcDbEntity
  8
001
370
     9
100
AcDbVertex
100
AcDb2dVertex
 10
157.543178
 20
103.918381
 30
0.0
  0
VERTEX
  5
AE
330
AB
100
AcDbEntity
  8
001
370
     9
100
AcDbVertex
100
AcDb2dVertex
 10
159.043178
 20
103.516457
 30
0.0
  0
VERTEX
  5
AF
330
AB
100
AcDbEntity
  8
001
370
     9
100
AcDbVertex
100
AcDb2dVertex
 10
157.543178
 20
103.114533
 30
0.0
  0
SEQEND
  5
AC
330
AB
100
AcDbEntity
  8
001
370
     9
  0
TEXT
  5
B0
330
A0
100
AcDbEntity
  8
001
370
    30
100
AcDbText
 10
143.543178
 20
104.516457
 30
0.0
 40
4.0
  1
１．９
 41
0.833333
100
AcDbText
  0
POINT
  5
B1
330
A0
100
AcDbEntity
  8
001
370
     9
100
AcDbPoint
 10
160.943178
 20
132.643534
 30
0.0
  0
POINT
  5
B2
330
A0
100
AcDbEntity
  8
001
370
     9
100
AcDbPoint
 10
159.043178
 20
139.249534
 30
0.0
  0
POINT
  5
B3
330
A0
100
AcDbEntity
  8
001
370
     9
100
AcDbPoint
 10
159.043178
 20
103.516457
 30
0.0
  0
LINE
  5
B4
330
A0
100
AcDbEntity
  8
001
370
     9
100
AcDbLine
 10
160.943178
 20
103.516457
 30
0.0
 11
163.443178
 21
103.516457
 31
0.0
  0
LINE
  5
B5
330
A0
100
AcDbEntity
  8
001
370
     9
100
AcDbLine
 10
159.043178
 20
103.516457
 30
0.0
 11
140.543178
 21
103.516457
 31
0.0
  0
ENDBLK
  5
A2
330
A0
100
AcDbEntity
  8
0
100
AcDbBlockEnd
  0
BLOCK
  5
B7
330
B6
100
AcDbEntity
  8
0
100
AcDbBlockBegin
  2
*D5
 70
     1
 10
0.0
 20
0.0
 30
0.0
  3
*D5
  1

  0
LINE
  5
B9
330
B6
100
AcDbEntity
  8
001
370
     9
100
AcDbLine
 10
186.443178
 20
121.349534
 30
0.0
 11
186.443178
 21
100.766457
 31
0.0
  0
LINE
  5
BA
330
B6
100
AcDbEntity
  8
001
370
     9
100
AcDbLine
 10
160.943178
 20
132.643534
 30
0.0
 11
160.943178
 21
100.766457
 31
0.0
  0
LINE
  5
BB
330
B6
100
AcDbEntity
  8
001
370
     9
100
AcDbLine
 10
186.443178
 20
103.516457
 30
0.0
 11
160.943178
 21
103.516457
 31
0.0
  0
POLYLINE
  5
BC
330
B6
100
AcDbEntity
  8
001
370
     9
100
AcDb2dPolyline
 66
     1
 10
0.0
 20
0.0
 30
0.0
  0
VERTEX
  5
BE
330
BC
100
AcDbEntity
  8
001
370
     9
100
AcDbVertex
100
AcDb2dVertex
 10
184.943178
 20
103.918381
 30
0.0
  0
VERTEX
  5
BF
330
BC
100
AcDbEntity
  8
001
370
     9
100
AcDbVertex
100
AcDb2dVertex
 10
186.443178
 20
103.516457
 30
0.0
  0
VERTEX
  5
C0
330
BC
100
AcDbEntity
  8
001
370
     9
100
AcDbVertex
100
AcDb2dVertex
 10
184.943178
 20
103.114533
 30
0.0
  0
SEQEND
  5
BD
330
BC
100
AcDbEntity
  8
001
370
     9
  0
POLYLINE
  5
C1
330
B6
100
AcDbEntity
  8
001
370
     9
100
AcDb2dPolyline
 66
     1
 10
0.0
 20
0.0
 30
0.0
  0
VERTEX
  5
C3
330
C1
100
AcDbEntity
  8
001
370
     9
100
AcDbVertex
100
AcDb2dVertex
 10
162.443178
 20
103.114533
 30
0.0
  0
VERTEX
  5
C4
330
C1
100
AcDbEntity
  8
001
370
     9
100
AcDbVertex
100
AcDb2dVertex
 10
160.943178
 20
103.516457
 30
0.0
  0
VERTEX
  5
C5
330
C1
100
AcDbEntity
  8
001
370
     9
100
AcDbVertex
100
AcDb2dVertex
 10
162.443178
 20
103.918381
 30
0.0
  0
SEQEND
  5
C2
330
C1
100
AcDbEntity
  8
001
370
     9
  0
TEXT
  5
C6
330
B6
100
AcDbEntity
  8
001
370
    30
100
AcDbText
 10
165.693178
 20
104.516457
 30
0.0
 40
4.0
  1
２５．５
 41
0.833333
100
AcDbText
  0
POINT
  5
C7
330
B6
100
AcDbEntity
  8
001
370
     9
100
AcDbPoint
 10
186.443178
 20
121.349534
 30
0.0
  0
POINT
  5
C8
330
B6
100
AcDbEntity
  8
001
370
     9
100
AcDbPoint
 10
160.943178
 20
132.643534
 30
0.0
  0
POINT
  5
C9
330
B6
100
AcDbEntity
  8
001
370
     9
100
AcDbPoint
 10
160.943178
 20
103.516457
 30
0.0
  0
ENDBLK
  5
B8
330
B6
100
AcDbEntity
  8
0
100
AcDbBlockEnd
  0
BLOCK
  5
CB
330
CA
100
AcDbEntity
  8
0
100
AcDbBlockBegin
  2
*D6
 70
     1
 10
0.0
 20
0.0
 30
0.0
  3
*D6
  1

  0
LINE
  5
CD
330
CA
100
AcDbEntity
  8
001
370
     9
100
AcDbLine
 10
237.043178
 20
131.649534
 30
0.0
 11
237.043178
 21
88.820019
 31
0.0
  0
LINE
  5
CE
330
CA
100
AcDbEntity
  8
001
370
     9
100
AcDbLine
 10
159.043178
 20
139.249534
 30
0.0
 11
159.043178
 21
88.820019
 31
0.0
  0
LINE
  5
CF
330
CA
100
AcDbEntity
  8
001
370
     9
100
AcDbLine
 10
237.043178
 20
91.570019
 30
0.0
 11
159.043178
 21
91.570019
 31
0.0
  0
POLYLINE
  5
D0
330
CA
100
AcDbEntity
  8
001
370
     9
100
AcDb2dPolyline
 66
     1
 10
0.0
 20
0.0
 30
0.0
  0
VERTEX
  5
D2
330
D0
100
AcDbEntity
  8
001
370
     9
100
AcDbVertex
100
AcDb2dVertex
 10
235.543178
 20
91.971942
 30
0.0
  0
VERTEX
  5
D3
330
D0
100
AcDbEntity
  8
001
370
     9
100
AcDbVertex
100
AcDb2dVertex
 10
237.043178
 20
91.570019
 30
0.0
  0
VERTEX
  5
D4
330
D0
100
AcDbEntity
  8
001
370
     9
100
AcDbVertex
100
AcDb2dVertex
 10
235.543178
 20
91.168095
 30
0.0
  0
SEQEND
  5
D1
330
D0
100
AcDbEntity
  8
001
370
     9
  0
POLYLINE
  5
D5
330
CA
100
AcDbEntity
  8
001
370
     9
100
AcDb2dPolyline
 66
     1
 10
0.0
 20
0.0
 30
0.0
  0
VERTEX
  5
D7
330
D5
100
AcDbEntity
  8
001
370
     9
100
AcDbVertex
100
AcDb2dVertex
 10
160.543178
 20
91.168095
 30
0.0
  0
VERTEX
  5
D8
330
D5
100
AcDbEntity
  8
001
370
     9
100
AcDbVertex
100
AcDb2dVertex
 10
159.043178
 20
91.570019
 30
0.0
  0
VERTEX
  5
D9
330
D5
100
AcDbEntity
  8
001
370
     9
100
AcDbVertex
100
AcDb2dVertex
 10
160.543178
 20
91.971942
 30
0.0
  0
SEQEND
  5
D6
330
D5
100
AcDbEntity
  8
001
370
     9
  0
TEXT
  5
DA
330
CA
100
AcDbEntity
  8
001
370
    30
100
AcDbText
 10
194.043178
 20
92.570019
 30
0.0
 40
4.0
  1
７８
 41
0.833333
100
AcDbText
  0
POINT
  5
DB
330
CA
100
AcDbEntity
  8
001
370
     9
100
AcDbPoint
 10
237.043178
 20
131.649534
 30
0.0
  0
POINT
  5
DC
330
CA
100
AcDbEntity
  8
001
370
     9
100
AcDbPoint
 10
159.043178
 20
139.249534
 30
0.0
  0
POINT
  5
DD
330
CA
100
AcDbEntity
  8
001
370
     9
100
AcDbPoint
 10
159.043178
 20
91.570019
 30
0.0
  0
ENDBLK
  5
CC
330
CA
100
AcDbEntity
  8
0
100
AcDbBlockEnd
  0
BLOCK
  5
DF
330
DE
100
AcDbEntity
  8
0
100
AcDbBlockBegin
  2
*D7
 70
     1
 10
0.0
 20
0.0
 30
0.0
  3
*D7
  1

  0
LINE
  5
E1
330
DE
100
AcDbEntity
  8
001
370
     9
100
AcDbLine
 10
317.043178
 20
143.349534
 30
0.0
 11
317.043178
 21
88.820019
 31
0.0
  0
LINE
  5
E2
330
DE
100
AcDbEntity
  8
001
370
     9
100
AcDbLine
 10
237.043178
 20
131.649534
 30
0.0
 11
237.043178
 21
88.820019
 31
0.0
  0
LINE
  5
E3
330
DE
100
AcDbEntity
  8
001
370
     9
100
AcDbLine
 10
317.043178
 20
91.570019
 30
0.0
 11
237.043178
 21
91.570019
 31
0.0
  0
POLYLINE
  5
E4
330
DE
100
AcDbEntity
  8
001
370
     9
100
AcDb2dPolyline
 66
     1
 10
0.0
 20
0.0
 30
0.0
  0
VERTEX
  5
E6
330
E4
100
AcDbEntity
  8
001
370
     9
100
AcDbVertex
100
AcDb2dVertex
 10
315.543178
 20
91.971942
 30
0.0
  0
VERTEX
  5
E7
330
E4
100
AcDbEntity
  8
001
370
     9
100
AcDbVertex
100
AcDb2dVertex
 10
317.043178
 20
91.570019
 30
0.0
  0
VERTEX
  5
E8
330
E4
100
AcDbEntity
  8
001
370
     9
100
AcDbVertex
100
AcDb2dVertex
 10
315.543178
 20
91.168095
 30
0.0
  0
SEQEND
  5
E5
330
E4
100
AcDbEntity
  8
001
370
     9
  0
POLYLINE
  5
E9
330
DE
100
AcDbEntity
  8
001
370
     9
100
AcDb2dPolyline
 66
     1
 10
0.0
 20
0.0
 30
0.0
  0
VERTEX
  5
EB
330
E9
100
AcDbEntity
  8
001
370
     9
100
AcDbVertex
100
AcDb2dVertex
 10
238.543178
 20
91.168095
 30
0.0
  0
VERTEX
  5
EC
330
E9
100
AcDbEntity
  8
001
370
     9
100
AcDbVertex
100
AcDb2dVertex
 10
237.043178
 20
91.570019
 30
0.0
  0
VERTEX
  5
ED
330
E9
100
AcDbEntity
  8
001
370
     9
100
AcDbVertex
100
AcDb2dVertex
 10
238.543178
 20
91.971942
 30
0.0
  0
SEQEND
  5
EA
330
E9
100
AcDbEntity
  8
001
370
     9
  0
TEXT
  5
EE
330
DE
100
AcDbEntity
  8
001
370
    30
100
AcDbText
 10
273.043178
 20
92.570019
 30
0.0
 40
4.0
  1
８０
 41
0.833333
100
AcDbText
  0
POINT
  5
EF
330
DE
100
AcDbEntity
  8
001
370
     9
100
AcDbPoint
 10
317.043178
 20
143.349534
 30
0.0
  0
POINT
  5
F0
330
DE
100
AcDbEntity
  8
001
370
     9
100
AcDbPoint
 10
237.043178
 20
131.649534
 30
0.0
  0
POINT
  5
F1
330
DE
100
AcDbEntity
  8
001
370
     9
100
AcDbPoint
 10
237.043178
 20
91.570019
 30
0.0
  0
ENDBLK
  5
E0
330
DE
100
AcDbEntity
  8
0
100
AcDbBlockEnd
  0
BLOCK
  5
F3
330
F2
100
AcDbEntity
  8
0
100
AcDbBlockBegin
  2
*D8
 70
     1
 10
0.0
 20
0.0
 30
0.0
  3
*D8
  1

  0
LINE
  5
F5
330
F2
100
AcDbEntity
  8
001
370
     9
100
AcDbLine
 10
159.043178
 20
139.249534
 30
0.0
 11
159.043178
 21
77.000132
 31
0.0
  0
LINE
  5
F6
330
F2
100
AcDbEntity
  8
001
370
     9
100
AcDbLine
 10
317.043178
 20
143.349534
 30
0.0
 11
317.043178
 21
77.000132
 31
0.0
  0
LINE
  5
F7
330
F2
100
AcDbEntity
  8
001
370
     9
100
AcDbLine
 10
159.043178
 20
79.750132
 30
0.0
 11
317.043178
 21
79.750132
 31
0.0
  0
POLYLINE
  5
F8
330
F2
100
AcDbEntity
  8
001
370
     9
100
AcDb2dPolyline
 66
     1
 10
0.0
 20
0.0
 30
0.0
  0
VERTEX
  5
FA
330
F8
100
AcDbEntity
  8
001
370
     9
100
AcDbVertex
100
AcDb2dVertex
 10
160.543178
 20
79.348209
 30
0.0
  0
VERTEX
  5
FB
330
F8
100
AcDbEntity
  8
001
370
     9
100
AcDbVertex
100
AcDb2dVertex
 10
159.043178
 20
79.750132
 30
0.0
  0
VERTEX
  5
FC
330
F8
100
AcDbEntity
  8
001
370
     9
100
AcDbVertex
100
AcDb2dVertex
 10
160.543178
 20
80.152056
 30
0.0
  0
SEQEND
  5
F9
330
F8
100
AcDbEntity
  8
001
370
     9
  0
POLYLINE
  5
FD
330
F2
100
AcDbEntity
  8
001
370
     9
100
AcDb2dPolyline
 66
     1
 10
0.0
 20
0.0
 30
0.0
  0
VERTEX
  5
FF
330
FD
100
AcDbEntity
  8
001
370
     9
100
AcDbVertex
100
AcDb2dVertex
 10
315.543178
 20
80.152056
 30
0.0
  0
VERTEX
  5
100
330
FD
100
AcDbEntity
  8
001
370
     9
100
AcDbVertex
100
AcDb2dVertex
 10
317.043178
 20
79.750132
 30
0.0
  0
VERTEX
  5
101
330
FD
100
AcDbEntity
  8
001
370
     9
100
AcDbVertex
100
AcDb2dVertex
 10
315.543178
 20
79.348209
 30
0.0
  0
SEQEND
  5
FE
330
FD
100
AcDbEntity
  8
001
370
     9
  0
TEXT
  5
102
330
F2
100
AcDbEntity
  8
001
370
    30
100
AcDbText
 10
232.043178
 20
80.750132
 30
0.0
 40
4.0
  1
１５８
 41
0.833333
100
AcDbText
  0
POINT
  5
103
330
F2
100
AcDbEntity
  8
001
370
     9
100
AcDbPoint
 10
159.043178
 20
139.249534
 30
0.0
  0
POINT
  5
104
330
F2
100
AcDbEntity
  8
001
370
     9
100
AcDbPoint
 10
317.043178
 20
143.349534
 30
0.0
  0
POINT
  5
105
330
F2
100
AcDbEntity
  8
001
370
     9
100
AcDbPoint
 10
317.043178
 20
79.750132
 30
0.0
  0
ENDBLK
  5
F4
330
F2
100
AcDbEntity
  8
0
100
AcDbBlockEnd
  0
BLOCK
  5
107
330
106
100
AcDbEntity
  8
0
100
AcDbBlockBegin
  2
*D9
 70
     1
 10
0.0
 20
0.0
 30
0.0
  3
*D9
  1

  0
LINE
  5
109
330
106
100
AcDbEntity
  8
001
370
     9
100
AcDbLine
 10
187.443178
 20
129.849534
 30
0.0
 11
217.250215
 21
100.042497
 31
0.0
  0
ARC
  5
10A
330
106
100
AcDbEntity
  8
001
370
     9
100
AcDbCircle
 10
165.943178
 20
151.349534
 30
0.0
 40
69.80910776474195
100
AcDbArc
 50
315.0
 51
0.0
  0
POLYLINE
  5
10B
330
106
100
AcDbEntity
  8
001
370
     9
100
AcDb2dPolyline
 66
     1
 10
0.0
 20
0.0
 30
0.0
  0
VERTEX
  5
10D
330
10B
100
AcDbEntity
  8
001
370
     9
100
AcDbVertex
100
AcDb2dVertex
 10
235.33427
 20
149.853938
 30
0.0
  0
VERTEX
  5
10E
330
10B
100
AcDbEntity
  8
001
370
     9
100
AcDbVertex
100
AcDb2dVertex
 10
235.752286
 20
151.349534
 30
0.0
  0
VERTEX
  5
10F
330
10B
100
AcDbEntity
  8
001
370
     9
100
AcDbVertex
100
AcDb2dVertex
 10
236.138072
 20
149.845302
 30
0.0
  0
SEQEND
  5
10C
330
10B
100
AcDbEntity
  8
001
370
     9
  0
POLYLINE
  5
110
330
106
100
AcDbEntity
  8
001
370
     9
100
AcDb2dPolyline
 66
     1
 10
0.0
 20
0.0
 30
0.0
  0
VERTEX
  5
112
330
110
100
AcDbEntity
  8
001
370
     9
100
AcDbVertex
100
AcDb2dVertex
 10
216.642116
 20
102.777901
 30
0.0
  0
VERTEX
  5
113
330
110
100
AcDbEntity
  8
001
370
     9
100
AcDbVertex
100
AcDb2dVertex
 10
215.305672
 20
101.98704
 30
0.0
  0
VERTEX
  5
114
330
110
100
AcDbEntity
  8
001
370
     9
100
AcDbVertex
100
AcDb2dVertex
 10
216.067636
 20
103.340168
 30
0.0
  0
SEQEND
  5
111
330
110
100
AcDbEntity
  8
001
370
     9
  0
TEXT
  5
115
330
106
100
AcDbEntity
  8
001
370
    30
100
AcDbText
 10
222.977839
 20
112.391341
 30
0.0
 40
4.0
  1
４５%%d
 50
60.647975
 41
0.978261
100
AcDbText
  0
POINT
  5
116
330
106
100
AcDbEntity
  8
001
370
     9
100
AcDbPoint
 10
157.812765
 20
151.349534
 30
0.0
  0
POINT
  5
117
330
106
100
AcDbEntity
  8
001
370
     9
100
AcDbPoint
 10
165.943178
 20
151.349534
 30
0.0
  0
POINT
  5
118
330
106
100
AcDbEntity
  8
001
370
     9
100
AcDbPoint
 10
165.943178
 20
151.349534
 30
0.0
  0
POINT
  5
119
330
106
100
AcDbEntity
  8
001
370
     9
100
AcDbPoint
 10
187.443178
 20
129.849534
 30
0.0
  0
ENDBLK
  5
108
330
106
100
AcDbEntity
  8
0
100
AcDbBlockEnd
  0
BLOCK
  5
11B
330
11A
100
AcDbEntity
  8
0
100
AcDbBlockBegin
  2
*D10
 70
     1
 10
0.0
 20
0.0
 30
0.0
  3
*D10
  1

  0
LINE
  5
11D
330
11A
100
AcDbEntity
  8
001
370
     9
100
AcDbLine
 10
160.943178
 20
137.349534
 30
0.0
 11
222.218482
 21
76.07423
 31
0.0
  0
ARC
  5
11E
330
11A
100
AcDbEntity
  8
001
370
     9
100
AcDbCircle
 10
146.943178
 20
151.349534
 30
0.0
 40
103.7053551167499
100
AcDbArc
 50
315.0
 51
0.0
  0
POLYLINE
  5
11F
330
11A
100
AcDbEntity
  8
001
370
     9
100
AcDb2dPolyline
 66
     1
 10
0.0
 20
0.0
 30
0.0
  0
VERTEX
  5
121
330
11F
100
AcDbEntity
  8
001
370
     9
100
AcDbVertex
100
AcDb2dVertex
 10
250.235772
 20
149.85248
 30
0.0
  0
VERTEX
  5
122
330
11F
100
AcDbEntity
  8
001
370
     9
100
AcDbVertex
100
AcDb2dVertex
 10
250.648533
 20
151.349534
 30
0.0
  0
VERTEX
  5
123
330
11F
100
AcDbEntity
  8
001
370
     9
100
AcDbVertex
100
AcDb2dVertex
 10
251.039599
 20
149.846666
 30
0.0
  0
SEQEND
  5
120
330
11F
100
AcDbEntity
  8
001
370
     9
  0
POLYLINE
  5
124
330
11A
100
AcDbEntity
  8
001
370
     9
100
AcDb2dPolyline
 66
     1
 10
0.0
 20
0.0
 30
0.0
  0
VERTEX
  5
126
330
124
100
AcDbEntity
  8
001
370
     9
100
AcDbVertex
100
AcDb2dVertex
 10
221.613151
 20
78.804937
 30
0.0
  0
VERTEX
  5
127
330
124
100
AcDbEntity
  8
001
370
     9
100
AcDbVertex
100
AcDb2dVertex
 10
220.273938
 20
78.018774
 30
0.0
  0
VERTEX
  5
128
330
124
100
AcDbEntity
  8
001
370
     9
100
AcDbVertex
100
AcDb2dVertex
 10
221.040649
 20
79.369217
 30
0.0
  0
SEQEND
  5
125
330
124
100
AcDbEntity
  8
001
370
     9
  0
TEXT
  5
129
330
11A
100
AcDbEntity
  8
001
370
    30
100
AcDbText
 10
244.181341
 20
117.74701
 30
0.0
 40
4.0
  1
４５%%d
 50
74.279817
 41
0.978261
100
AcDbText
  0
POINT
  5
12A
330
11A
100
AcDbEntity
  8
001
370
     9
100
AcDbPoint
 10
247.898533
 20
151.349534
 30
0.0
  0
POINT
  5
12B
330
11A
100
AcDbEntity
  8
001
370
     9
100
AcDbPoint
 10
146.943178
 20
151.349534
 30
0.0
  0
POINT
  5
12C
330
11A
100
AcDbEntity
  8
001
370
     9
100
AcDbPoint
 10
146.943178
 20
151.349534
 30
0.0
  0
POINT
  5
12D
330
11A
100
AcDbEntity
  8
001
370
     9
100
AcDbPoint
 10
160.943178
 20
137.349534
 30
0.0
  0
ENDBLK
  5
11C
330
11A
100
AcDbEntity
  8
0
100
AcDbBlockEnd
  0
BLOCK
  5
12F
330
12E
100
AcDbEntity
  8
0
100
AcDbBlockBegin
  2
*D11
 70
     1
 10
0.0
 20
0.0
 30
0.0
  3
*D11
  1

  0
LINE
  5
131
330
12E
100
AcDbEntity
  8
001
370
     9
100
AcDbLine
 10
76.190748
 20
48.508626
 30
0.0
 11
76.190748
 21
35.821289
 31
0.0
  0
LINE
  5
132
330
12E
100
AcDbEntity
  8
001
370
     9
100
AcDbLine
 10
50.190748
 20
48.508626
 30
0.0
 11
50.190748
 21
35.821289
 31
0.0
  0
LINE
  5
133
330
12E
100
AcDbEntity
  8
001
370
     9
100
AcDbLine
 10
76.190748
 20
38.571289
 30
0.0
 11
50.190748
 21
38.571289
 31
0.0
  0
POLYLINE
  5
134
330
12E
100
AcDbEntity
  8
001
370
     9
100
AcDb2dPolyline
 66
     1
 10
0.0
 20
0.0
 30
0.0
  0
VERTEX
  5
136
330
134
100
AcDbEntity
  8
001
370
     9
100
AcDbVertex
100
AcDb2dVertex
 10
74.690748
 20
38.973213
 30
0.0
  0
VERTEX
  5
137
330
134
100
AcDbEntity
  8
001
370
     9
100
AcDbVertex
100
AcDb2dVertex
 10
76.190748
 20
38.571289
 30
0.0
  0
VERTEX
  5
138
330
134
100
AcDbEntity
  8
001
370
     9
100
AcDbVertex
100
AcDb2dVertex
 10
74.690748
 20
38.169365
 30
0.0
  0
SEQEND
  5
135
330
134
100
AcDbEntity
  8
001
370
     9
  0
POLYLINE
  5
139
330
12E
100
AcDbEntity
  8
001
370
     9
100
AcDb2dPolyline
 66
     1
 10
0.0
 20
0.0
 30
0.0
  0
VERTEX
  5
13B
330
139
100
AcDbEntity
  8
001
370
     9
100
AcDbVertex
100
AcDb2dVertex
 10
51.690748
 20
38.169365
 30
0.0
  0
VERTEX
  5
13C
330
139
100
AcDbEntity
  8
001
370
     9
100
AcDbVertex
100
AcDb2dVertex
 10
50.190748
 20
38.571289
 30
0.0
  0
VERTEX
  5
13D
330
139
100
AcDbEntity
  8
001
370
     9
100
AcDbVertex
100
AcDb2dVertex
 10
51.690748
 20
38.973213
 30
0.0
  0
SEQEND
  5
13A
330
139
100
AcDbEntity
  8
001
370
     9
  0
TEXT
  5
13E
330
12E
100
AcDbEntity
  8
001
370
    30
100
AcDbText
 10
57.190748
 20
39.571289
 30
0.0
 40
4.0
  1
%%c２６
 41
0.882353
100
AcDbText
  0
POINT
  5
13F
330
12E
100
AcDbEntity
  8
001
370
     9
100
AcDbPoint
 10
76.190748
 20
48.508626
 30
0.0
  0
POINT
  5
140
330
12E
100
AcDbEntity
  8
001
370
     9
100
AcDbPoint
 10
50.190748
 20
48.508626
 30
0.0
  0
POINT
  5
141
330
12E
100
AcDbEntity
  8
001
370
     9
100
AcDbPoint
 10
50.190748
 20
38.571289
 30
0.0
  0
ENDBLK
  5
130
330
12E
100
AcDbEntity
  8
0
100
AcDbBlockEnd
  0
BLOCK
  5
143
330
142
100
AcDbEntity
  8
0
100
AcDbBlockBegin
  2
*D12
 70
     1
 10
0.0
 20
0.0
 30
0.0
  3
*D12
  1

  0
LINE
  5
145
330
142
100
AcDbEntity
  8
001
370
     9
100
AcDbLine
 10
82.690748
 20
92.508626
 30
0.0
 11
82.690748
 21
116.037331
 31
0.0
  0
LINE
  5
146
330
142
100
AcDbEntity
  8
001
370
     9
100
AcDbLine
 10
43.690748
 20
92.508626
 30
0.0
 11
43.690748
 21
116.037331
 31
0.0
  0
LINE
  5
147
330
142
100
AcDbEntity
  8
001
370
     9
100
AcDbLine
 10
82.690748
 20
113.287331
 30
0.0
 11
43.690748
 21
113.287331
 31
0.0
  0
POLYLINE
  5
148
330
142
100
AcDbEntity
  8
001
370
     9
100
AcDb2dPolyline
 66
     1
 10
0.0
 20
0.0
 30
0.0
  0
VERTEX
  5
14A
330
148
100
AcDbEntity
  8
001
370
     9
100
AcDbVertex
100
AcDb2dVertex
 10
81.190748
 20
113.689255
 30
0.0
  0
VERTEX
  5
14B
330
148
100
AcDbEntity
  8
001
370
     9
100
AcDbVertex
100
AcDb2dVertex
 10
82.690748
 20
113.287331
 30
0.0
  0
VERTEX
  5
14C
330
148
100
AcDbEntity
  8
001
370
     9
100
AcDbVertex
100
AcDb2dVertex
 10
81.190748
 20
112.885407
 30
0.0
  0
SEQEND
  5
149
330
148
100
AcDbEntity
  8
001
370
     9
  0
POLYLINE
  5
14D
330
142
100
AcDbEntity
  8
001
370
     9
100
AcDb2dPolyline
 66
     1
 10
0.0
 20
0.0
 30
0.0
  0
VERTEX
  5
14F
330
14D
100
AcDbEntity
  8
001
370
     9
100
AcDbVertex
100
AcDb2dVertex
 10
45.190748
 20
112.885407
 30
0.0
  0
VERTEX
  5
150
330
14D
100
AcDbEntity
  8
001
370
     9
100
AcDbVertex
100
AcDb2dVertex
 10
43.690748
 20
113.287331
 30
0.0
  0
VERTEX
  5
151
330
14D
100
AcDbEntity
  8
001
370
     9
100
AcDbVertex
100
AcDb2dVertex
 10
45.190748
 20
113.689255
 30
0.0
  0
SEQEND
  5
14E
330
14D
100
AcDbEntity
  8
001
370
     9
  0
TEXT
  5
152
330
142
100
AcDbEntity
  8
001
370
    30
100
AcDbText
 10
57.190748
 20
114.287331
 30
0.0
 40
4.0
  1
%%c３９
 41
0.882353
100
AcDbText
  0
POINT
  5
153
330
142
100
AcDbEntity
  8
001
370
     9
100
AcDbPoint
 10
82.690748
 20
92.508626
 30
0.0
  0
POINT
  5
154
330
142
100
AcDbEntity
  8
001
370
     9
100
AcDbPoint
 10
43.690748
 20
92.508626
 30
0.0
  0
POINT
  5
155
330
142
100
AcDbEntity
  8
001
370
     9
100
AcDbPoint
 10
43.690748
 20
113.287331
 30
0.0
  0
ENDBLK
  5
144
330
142
100
AcDbEntity
  8
0
100
AcDbBlockEnd
  0
BLOCK
  5
157
330
156
100
AcDbEntity
  8
0
100
AcDbBlockBegin
  2
*D13
 70
     1
 10
0.0
 20
0.0
 30
0.0
  3
*D13
  1

  0
LINE
  5
159
330
156
100
AcDbEntity
  8
001
370
     9
100
AcDbLine
 10
93.190748
 20
93.508626
 30
0.0
 11
101.06655
 21
93.508626
 31
0.0
  0
LINE
  5
15A
330
156
100
AcDbEntity
  8
001
370
     9
100
AcDbLine
 10
82.690748
 20
68.008626
 30
0.0
 11
101.06655
 21
68.008626
 31
0.0
  0
LINE
  5
15B
330
156
100
AcDbEntity
  8
001
370
     9
100
AcDbLine
 10
98.31655
 20
93.508626
 30
0.0
 11
98.31655
 21
68.008626
 31
0.0
  0
POLYLINE
  5
15C
330
156
100
AcDbEntity
  8
001
370
     9
100
AcDb2dPolyline
 66
     1
 10
0.0
 20
0.0
 30
0.0
  0
VERTEX
  5
15E
330
15C
100
AcDbEntity
  8
001
370
     9
100
AcDbVertex
100
AcDb2dVertex
 10
97.914626
 20
92.008626
 30
0.0
  0
VERTEX
  5
15F
330
15C
100
AcDbEntity
  8
001
370
     9
100
AcDbVertex
100
AcDb2dVertex
 10
98.31655
 20
93.508626
 30
0.0
  0
VERTEX
  5
160
330
15C
100
AcDbEntity
  8
001
370
     9
100
AcDbVertex
100
AcDb2dVertex
 10
98.718474
 20
92.008626
 30
0.0
  0
SEQEND
  5
15D
330
15C
100
AcDbEntity
  8
001
370
     9
  0
POLYLINE
  5
161
330
156
100
AcDbEntity
  8
001
370
     9
100
AcDb2dPolyline
 66
     1
 10
0.0
 20
0.0
 30
0.0
  0
VERTEX
  5
163
330
161
100
AcDbEntity
  8
001
370
     9
100
AcDbVertex
100
AcDb2dVertex
 10
98.718474
 20
69.508626
 30
0.0
  0
VERTEX
  5
164
330
161
100
AcDbEntity
  8
001
370
     9
100
AcDbVertex
100
AcDb2dVertex
 10
98.31655
 20
68.008626
 30
0.0
  0
VERTEX
  5
165
330
161
100
AcDbEntity
  8
001
370
     9
100
AcDbVertex
100
AcDb2dVertex
 10
97.914626
 20
69.508626
 30
0.0
  0
SEQEND
  5
162
330
161
100
AcDbEntity
  8
001
370
     9
  0
TEXT
  5
166
330
156
100
AcDbEntity
  8
001
370
    30
100
AcDbText
 10
97.31655
 20
72.758626
 30
0.0
 40
4.0
  1
２５．５
 50
90.000003
 41
0.833333
100
AcDbText
  0
POINT
  5
167
330
156
100
AcDbEntity
  8
001
370
     9
100
AcDbPoint
 10
93.190748
 20
93.508626
 30
0.0
  0
POINT
  5
168
330
156
100
AcDbEntity
  8
001
370
     9
100
AcDbPoint
 10
82.690748
 20
68.008626
 30
0.0
  0
POINT
  5
169
330
156
100
AcDbEntity
  8
001
370
     9
100
AcDbPoint
 10
98.31655
 20
68.008626
 30
0.0
  0
ENDBLK
  5
158
330
156
100
AcDbEntity
  8
0
100
AcDbBlockEnd
  0
BLOCK
  5
16B
330
16A
100
AcDbEntity
  8
0
100
AcDbBlockBegin
  2
*D14
 70
     1
 10
0.0
 20
0.0
 30
0.0
  3
*D14
  1

  0
LINE
  5
16D
330
16A
100
AcDbEntity
  8
001
370
     9
100
AcDbLine
 10
309.043178
 20
135.349534
 30
0.0
 11
344.052329
 21
135.349534
 31
0.0
  0
LINE
  5
16E
330
16A
100
AcDbEntity
  8
001
370
     9
100
AcDbLine
 10
309.043178
 20
167.349534
 30
0.0
 11
344.052329
 21
167.349534
 31
0.0
  0
LINE
  5
16F
330
16A
100
AcDbEntity
  8
001
370
     9
100
AcDbLine
 10
341.302329
 20
135.349534
 30
0.0
 11
341.302329
 21
167.349534
 31
0.0
  0
POLYLINE
  5
170
330
16A
100
AcDbEntity
  8
001
370
     9
100
AcDb2dPolyline
 66
     1
 10
0.0
 20
0.0
 30
0.0
  0
VERTEX
  5
172
330
170
100
AcDbEntity
  8
001
370
     9
100
AcDbVertex
100
AcDb2dVertex
 10
341.704253
 20
136.849534
 30
0.0
  0
VERTEX
  5
173
330
170
100
AcDbEntity
  8
001
370
     9
100
AcDbVertex
100
AcDb2dVertex
 10
341.302329
 20
135.349534
 30
0.0
  0
VERTEX
  5
174
330
170
100
AcDbEntity
  8
001
370
     9
100
AcDbVertex
100
AcDb2dVertex
 10
340.900406
 20
136.849534
 30
0.0
  0
SEQEND
  5
171
330
170
100
AcDbEntity
  8
001
370
     9
  0
POLYLINE
  5
175
330
16A
100
AcDbEntity
  8
001
370
     9
100
AcDb2dPolyline
 66
     1
 10
0.0
 20
0.0
 30
0.0
  0
VERTEX
  5
177
330
175
100
AcDbEntity
  8
001
370
     9
100
AcDbVertex
100
AcDb2dVertex
 10
340.900406
 20
165.849534
 30
0.0
  0
VERTEX
  5
178
330
175
100
AcDbEntity
  8
001
370
     9
100
AcDbVertex
100
AcDb2dVertex
 10
341.302329
 20
167.349534
 30
0.0
  0
VERTEX
  5
179
330
175
100
AcDbEntity
  8
001
370
     9
100
AcDbVertex
100
AcDb2dVertex
 10
341.704253
 20
165.849534
 30
0.0
  0
SEQEND
  5
176
330
175
100
AcDbEntity
  8
001
370
     9
  0
TEXT
  5
17A
330
16A
100
AcDbEntity
  8
001
370
    30
100
AcDbText
 10
340.302329
 20
145.349534
 30
0.0
 40
4.0
  1
%%c３２
 50
90.000003
 41
0.882353
100
AcDbText
  0
POINT
  5
17B
330
16A
100
AcDbEntity
  8
001
370
     9
100
AcDbPoint
 10
309.043178
 20
135.349534
 30
0.0
  0
POINT
  5
17C
330
16A
100
AcDbEntity
  8
001
370
     9
100
AcDbPoint
 10
309.043178
 20
167.349534
 30
0.0
  0
POINT
  5
17D
330
16A
100
AcDbEntity
  8
001
370
     9
100
AcDbPoint
 10
341.302329
 20
167.349534
 30
0.0
  0
ENDBLK
  5
16C
330
16A
100
AcDbEntity
  8
0
100
AcDbBlockEnd
  0
ENDSEC
  0
SECTION
  2
ENTITIES
  0
DIMENSION
  5
17E
330
1F
100
AcDbEntity
  8
001
370
     9
100
AcDbDimension
  2
*D1
 10
138.845138
 20
131.849534
 30
0.0
 11
135.845137
 21
151.349534
 31
0.0
 70
   160
 71
     5
 42
-1.0
  3
Standard
100
AcDbAlignedDimension
 13
160.943178
 23
170.849534
 33
0.0
 14
160.943178
 24
131.849534
 34
0.0
 50
270.0
100
AcDbRotatedDimension
  0
DIMENSION
  5
17F
330
1F
100
AcDbEntity
  8
001
370
     9
100
AcDbDimension
  2
*D2
 10
124.504142
 20
129.849534
 30
0.0
 11
121.504142
 21
151.349534
 31
0.0
 70
   160
 71
     5
 42
-1.0
  3
Standard
100
AcDbAlignedDimension
 13
184.053256
 23
172.849534
 33
0.0
 14
187.443178
 24
129.849534
 34
0.0
 50
270.0
100
AcDbRotatedDimension
  0
DIMENSION
  5
180
330
1F
100
AcDbEntity
  8
001
370
     9
100
AcDbDimension
  2
*D3
 10
110.931778
 20
126.249534
 30
0.0
 11
107.931778
 21
151.349534
 31
0.0
 70
   160
 71
     5
 42
-1.0
  3
Standard
100
AcDbAlignedDimension
 13
184.053256
 23
176.449534
 33
0.0
 14
157.812765
 24
126.249534
 34
0.0
 50
270.0
100
AcDbRotatedDimension
  0
DIMENSION
  5
181
330
1F
100
AcDbEntity
  8
001
370
     9
100
AcDbDimension
  2
*D4
 10
159.043178
 20
103.516457
 30
0.0
 11
149.543178
 21
106.516457
 31
0.0
 70
   160
 71
     5
 42
-1.0
  3
Standard
100
AcDbAlignedDimension
 13
160.943178
 23
132.643534
 33
0.0
 14
159.043178
 24
139.249534
 34
0.0
 50
180.0
100
AcDbRotatedDimension
  0
DIMENSION
  5
182
330
1F
100
AcDbEntity
  8
001
370
     9
100
AcDbDimension
  2
*D5
 10
160.943178
 20
103.516457
 30
0.0
 11
173.693178
 21
106.516457
 31
0.0
 70
   160
 71
     5
 42
-1.0
  3
Standard
100
AcDbAlignedDimension
 13
186.443178
 23
121.349534
 33
0.0
 14
160.943178
 24
132.643534
 34
0.0
 50
180.0
100
AcDbRotatedDimension
  0
DIMENSION
  5
183
330
1F
100
AcDbEntity
  8
001
370
     9
100
AcDbDimension
  2
*D6
 10
159.043178
 20
91.570019
 30
0.0
 11
198.043178
 21
94.570019
 31
0.0
 70
   160
 71
     5
 42
-1.0
  3
Standard
100
AcDbAlignedDimension
 13
237.043178
 23
131.649534
 33
0.0
 14
159.043178
 24
139.249534
 34
0.0
 50
180.0
100
AcDbRotatedDimension
  0
DIMENSION
  5
184
330
1F
100
AcDbEntity
  8
001
370
     9
100
AcDbDimension
  2
*D7
 10
237.043178
 20
91.570019
 30
0.0
 11
277.043178
 21
94.570019
 31
0.0
 70
   160
 71
     5
 42
-1.0
  3
Standard
100
AcDbAlignedDimension
 13
317.043178
 23
143.349534
 33
0.0
 14
237.043178
 24
131.649534
 34
0.0
 50
180.0
100
AcDbRotatedDimension
  0
DIMENSION
  5
185
330
1F
100
AcDbEntity
  8
001
370
     9
100
AcDbDimension
  2
*D8
 10
317.043178
 20
79.750132
 30
0.0
 11
238.043178
 21
82.750132
 31
0.0
 70
   160
 71
     5
 42
-1.0
  3
Standard
100
AcDbAlignedDimension
 13
159.043178
 23
139.249534
 33
0.0
 14
317.043178
 24
143.349534
 34
0.0
100
AcDbRotatedDimension
  0
DIMENSION
  5
186
330
1F
100
AcDbEntity
  8
001
370
     9
100
AcDbDimension
  2
*D9
 10
165.943178
 20
151.349534
 30
0.0
 11
224.175634
 21
118.601436
 31
0.0
 70
    34
 71
     5
 42
-1.0
  3
Standard
100
AcDb2LineAngularDimension
 13
157.812765
 23
151.349534
 33
0.0
 14
165.943178
 24
151.349534
 34
0.0
 15
187.443178
 25
129.849534
 35
0.0
 16
230.438384
 26
124.634745
 36
0.0
  0
DIMENSION
  5
187
330
1F
100
AcDbEntity
  8
001
370
     9
100
AcDbDimension
  2
*D10
 10
146.943178
 20
151.349534
 30
0.0
 11
243.881786
 21
124.064467
 31
0.0
 70
    34
 71
     5
 42
-1.0
  3
Standard
100
AcDb2LineAngularDimension
 13
247.898533
 23
151.349534
 33
0.0
 14
146.943178
 24
151.349534
 34
0.0
 15
160.943178
 25
137.349534
 35
0.0
 16
242.754433
 26
111.663212
 36
0.0
  0
DIMENSION
  5
188
330
1F
100
AcDbEntity
  8
001
370
     9
100
AcDbDimension
  2
*D11
 10
50.190748
 20
38.571289
 30
0.0
 11
63.190748
 21
41.571289
 31
0.0
 70
   160
 71
     5
 42
-1.0
  3
Standard
100
AcDbAlignedDimension
 13
76.190748
 23
48.508626
 33
0.0
 14
50.190748
 24
48.508626
 34
0.0
 50
180.0
100
AcDbRotatedDimension
  0
DIMENSION
  5
189
330
1F
100
AcDbEntity
  8
001
370
     9
100
AcDbDimension
  2
*D12
 10
43.690748
 20
113.287331
 30
0.0
 11
63.190748
 21
116.287331
 31
0.0
 70
   160
 71
     5
 42
-1.0
  3
Standard
100
AcDbAlignedDimension
 13
82.690748
 23
92.508626
 33
0.0
 14
43.690748
 24
92.508626
 34
0.0
 50
180.0
100
AcDbRotatedDimension
  0
DIMENSION
  5
18A
330
1F
100
AcDbEntity
  8
001
370
     9
100
AcDbDimension
  2
*D13
 10
98.31655
 20
68.008626
 30
0.0
 11
95.31655
 21
80.758625
 31
0.0
 70
   160
 71
     5
 42
-1.0
  3
Standard
100
AcDbAlignedDimension
 13
93.190748
 23
93.508626
 33
0.0
 14
82.690748
 24
68.008626
 34
0.0
 50
270.0
100
AcDbRotatedDimension
  0
TEXT
  5
18B
330
1F
100
AcDbEntity
  8
001
370
    30
100
AcDbText
 10
69.266127
 20
76.34746
 30
0.0
 40
4.0
  1
Ｃ１
 50
314.999992
 41
0.833333
100
AcDbText
  0
POLYLINE
  5
18C
330
1F
100
AcDbEntity
  8
001
370
     9
100
AcDb2dPolyline
 66
     1
 10
0.0
 20
0.0
 30
0.0
  0
VERTEX
  5
18E
330
18C
100
AcDbEntity
  8
001
370
     9
100
AcDbVertex
100
AcDb2dVertex
 10
75.914291
 20
68.853489
 30
0.0
  0
VERTEX
  5
18F
330
18C
100
AcDbEntity
  8
001
370
     9
100
AcDbVertex
100
AcDb2dVertex
 10
76.690748
 20
67.508626
 30
0.0
  0
VERTEX
  5
190
330
18C
100
AcDbEntity
  8
001
370
     9
100
AcDbVertex
100
AcDb2dVertex
 10
75.345885
 20
68.285083
 30
0.0
  0
SEQEND
  5
18D
330
18C
100
AcDbEntity
  8
001
370
     9
  0
LINE
  5
191
330
1F
100
AcDbEntity
  8
001
370
     9
100
AcDbLine
 10
76.690748
 20
67.508626
 30
0.0
 11
66.437699
 21
77.761674
 31
0.0
  0
TEXT
  5
192
330
1F
100
AcDbEntity
  8
001
370
    30
100
AcDbText
 10
74.32056
 20
103.293027
 30
0.0
 40
4.0
  1
Ｃ１
 50
314.999992
 41
0.833333
100
AcDbText
  0
POLYLINE
  5
193
330
1F
100
AcDbEntity
  8
001
370
     9
100
AcDb2dPolyline
 66
     1
 10
0.0
 20
0.0
 30
0.0
  0
VERTEX
  5
195
330
193
100
AcDbEntity
  8
001
370
     9
100
AcDbVertex
100
AcDb2dVertex
 10
82.414291
 20
94.353489
 30
0.0
  0
VERTEX
  5
196
330
193
100
AcDbEntity
  8
001
370
     9
100
AcDbVertex
100
AcDb2dVertex
 10
83.190748
 20
93.008626
 30
0.0
  0
VERTEX
  5
197
330
193
100
AcDbEntity
  8
001
370
     9
100
AcDbVertex
100
AcDb2dVertex
 10
81.845885
 20
93.785083
 30
0.0
  0
SEQEND
  5
194
330
193
100
AcDbEntity
  8
001
370
     9
  0
LINE
  5
198
330
1F
100
AcDbEntity
  8
001
370
     9
100
AcDbLine
 10
83.190748
 20
93.008626
 30
0.0
 11
71.492133
 21
104.70724
 31
0.0
  0
DIMENSION
  5
199
330
1F
100
AcDbEntity
  8
001
370
     9
100
AcDbDimension
  2
*D14
 10
341.302329
 20
167.349534
 30
0.0
 11
338.302329
 21
151.349534
 31
0.0
 70
   160
 71
     5
 42
-1.0
  3
Standard
100
AcDbAlignedDimension
 13
309.043178
 23
135.349534
 33
0.0
 14
309.043178
 24
167.349534
 34
0.0
 50
90.0
100
AcDbRotatedDimension
  0
TEXT
  5
19A
330
1F
100
AcDbEntity
  8
001
370
    30
100
AcDbText
 10
64.064595
 20
200.817208
 30
0.0
 40
10.0
  1
イーグルカット　ＥＣ３２－３９ＸＳ－Ｍ２４
 41
0.833333
100
AcDbText
  0
CIRCLE
  5
19B
330
1F
100
AcDbEntity
  8
001
370
    50
100
AcDbCircle
 10
166.798566
 20
139.992203
 30
0.0
 40
3.25
  0
LINE
  5
19C
330
1F
100
AcDbEntity
  8
001
370
    50
100
AcDbLine
 10
167.144976
 20
141.942203
 30
0.0
 11
167.534687
 21
141.267203
 31
0.0
  0
LINE
  5
19D
330
1F
100
AcDbEntity
  8
001
370
    50
100
AcDbLine
 10
166.452156
 20
141.942203
 30
0.0
 11
166.062444
 21
141.267203
 31
0.0
  0
LINE
  5
19E
330
1F
100
AcDbEntity
  8
001
370
    50
100
AcDbLine
 10
165.283021
 20
141.267203
 30
0.0
 11
166.062444
 21
141.267203
 31
0.0
  0
LINE
  5
19F
330
1F
100
AcDbEntity
  8
001
370
    50
100
AcDbLine
 10
164.936611
 20
140.667203
 30
0.0
 11
165.326323
 21
139.992203
 31
0.0
  0
LINE
  5
1A0
330
1F
100
AcDbEntity
  8
001
370
    50
100
AcDbLine
 10
164.936611
 20
139.317203
 30
0.0
 11
165.326323
 21
139.992203
 31
0.0
  0
LINE
  5
1A1
330
1F
100
AcDbEntity
  8
001
370
    50
100
AcDbLine
 10
165.283021
 20
138.717203
 30
0.0
 11
166.062444
 21
138.717203
 31
0.0
  0
LINE
  5
1A2
330
1F
100
AcDbEntity
  8
001
370
    50
100
AcDbLine
 10
166.452156
 20
138.042203
 30
0.0
 11
166.062444
 21
138.717203
 31
0.0
  0
LINE
  5
1A3
330
1F
100
AcDbEntity
  8
001
370
    50
100
AcDbLine
 10
167.144976
 20
138.042203
 30
0.0
 11
167.534687
 21
138.717203
 31
0.0
  0
LINE
  5
1A4
330
1F
100
AcDbEntity
  8
001
370
    50
100
AcDbLine
 10
168.31411
 20
138.717203
 30
0.0
 11
167.534687
 21
138.717203
 31
0.0
  0
LINE
  5
1A5
330
1F
100
AcDbEntity
  8
001
370
    50
100
AcDbLine
 10
168.66052
 20
139.317203
 30
0.0
 11
168.270809
 21
139.992203
 31
0.0
  0
LINE
  5
1A6
330
1F
100
AcDbEntity
  8
001
370
    50
100
AcDbLine
 10
168.66052
 20
140.667203
 30
0.0
 11
168.270809
 21
139.992203
 31
0.0
  0
LINE
  5
1A7
330
1F
100
AcDbEntity
  8
001
370
    50
100
AcDbLine
 10
168.31411
 20
141.267203
 30
0.0
 11
167.534687
 21
141.267203
 31
0.0
  0
ARC
  5
1A8
330
1F
100
AcDbEntity
  8
001
370
    50
100
AcDbCircle
 10
166.798566
 20
141.742203
 30
0.0
 40
0.4
100
AcDbArc
 50
30.0
 51
150.0
  0
ARC
  5
1A9
330
1F
100
AcDbEntity
  8
001
370
    50
100
AcDbCircle
 10
168.31411
 20
140.867203
 30
0.0
 40
0.4
100
AcDbArc
 50
330.0
 51
90.0
  0
ARC
  5
1AA
330
1F
100
AcDbEntity
  8
001
370
    50
100
AcDbCircle
 10
168.31411
 20
139.117203
 30
0.0
 40
0.4
100
AcDbArc
 50
270.0
 51
30.0
  0
ARC
  5
1AB
330
1F
100
AcDbEntity
  8
001
370
    50
100
AcDbCircle
 10
166.798566
 20
138.242203
 30
0.0
 40
0.4
100
AcDbArc
 50
210.0
 51
330.0
  0
ARC
  5
1AC
330
1F
100
AcDbEntity
  8
001
370
    50
100
AcDbCircle
 10
165.283021
 20
139.117203
 30
0.0
 40
0.4
100
AcDbArc
 50
150.0
 51
270.0
  0
ARC
  5
1AD
330
1F
100
AcDbEntity
  8
001
370
    50
100
AcDbCircle
 10
165.283021
 20
140.867203
 30
0.0
 40
0.4
100
AcDbArc
 50
90.0
 51
210.0
  0
POLYLINE
  5
1AE
330
1F
100
AcDbEntity
  8
001
370
    50
100
AcDb2dPolyline
 66
     1
 10
0.0
 20
0.0
 30
0.0
  0
VERTEX
  5
1B0
330
1AE
100
AcDbEntity
  8
001
370
    50
100
AcDbVertex
100
AcDb2dVertex
 10
166.860089
 20
143.751899
 30
0.0
  0
VERTEX
  5
1B1
330
1AE
100
AcDbEntity
  8
001
370
    50
100
AcDbVertex
100
AcDb2dVertex
 10
166.589342
 20
143.737614
 30
0.0
  0
VERTEX
  5
1B2
330
1AE
100
AcDbEntity
  8
001
370
    50
100
AcDbVertex
100
AcDb2dVertex
 10
166.218802
 20
143.694928
 30
0.0
  0
VERTEX
  5
1B3
330
1AE
100
AcDbEntity
  8
001
370
    50
100
AcDbVertex
100
AcDb2dVertex
 10
165.890433
 20
143.624087
 30
0.0
  0
VERTEX
  5
1B4
330
1AE
100
AcDbEntity
  8
001
370
    50
100
AcDbVertex
100
AcDb2dVertex
 10
165.596999
 20
143.525746
 30
0.0
  0
VERTEX
  5
1B5
330
1AE
100
AcDbEntity
  8
001
370
    50
100
AcDbVertex
100
AcDb2dVertex
 10
165.30289
 20
143.400454
 30
0.0
  0
VERTEX
  5
1B6
330
1AE
100
AcDbEntity
  8
001
370
    50
100
AcDbVertex
100
AcDb2dVertex
 10
165.013575
 20
143.249494
 30
0.0
  0
VERTEX
  5
1B7
330
1AE
100
AcDbEntity
  8
001
370
    50
100
AcDbVertex
100
AcDb2dVertex
 10
164.740703
 20
143.073664
 30
0.0
  0
VERTEX
  5
1B8
330
1AE
100
AcDbEntity
  8
001
370
    50
100
AcDbVertex
100
AcDb2dVertex
 10
164.486256
 20
142.874566
 30
0.0
  0
VERTEX
  5
1B9
330
1AE
100
AcDbEntity
  8
001
370
    50
100
AcDbVertex
100
AcDb2dVertex
 10
164.248845
 20
142.653124
 30
0.0
  0
VERTEX
  5
1BA
330
1AE
100
AcDbEntity
  8
001
370
    50
100
AcDbVertex
100
AcDb2dVertex
 10
164.031065
 20
142.412352
 30
0.0
  0
VERTEX
  5
1BB
330
1AE
100
AcDbEntity
  8
001
370
    50
100
AcDbVertex
100
AcDb2dVertex
 10
163.834757
 20
142.15363
 30
0.0
  0
VERTEX
  5
1BC
330
1AE
100
AcDbEntity
  8
001
370
    50
100
AcDbVertex
100
AcDb2dVertex
 10
163.661832
 20
141.876899
 30
0.0
  0
VERTEX
  5
1BD
330
1AE
100
AcDbEntity
  8
001
370
    50
100
AcDbVertex
100
AcDb2dVertex
 10
163.513026
 20
141.582852
 30
0.0
  0
VERTEX
  5
1BE
330
1AE
100
AcDbEntity
  8
001
370
    50
100
AcDbVertex
100
AcDb2dVertex
 10
163.389777
 20
141.284474
 30
0.0
  0
VERTEX
  5
1BF
330
1AE
100
AcDbEntity
  8
001
370
    50
100
AcDbVertex
100
AcDb2dVertex
 10
163.292873
 20
140.986255
 30
0.0
  0
VERTEX
  5
1C0
330
1AE
100
AcDbEntity
  8
001
370
    50
100
AcDbVertex
100
AcDb2dVertex
 10
163.223166
 20
140.65308
 30
0.0
  0
VERTEX
  5
1C1
330
1AE
100
AcDbEntity
  8
001
370
    50
100
AcDbVertex
100
AcDb2dVertex
 10
163.181119
 20
140.276778
 30
0.0
  0
VERTEX
  5
1C2
330
1AE
100
AcDbEntity
  8
001
370
    50
100
AcDbVertex
100
AcDb2dVertex
 10
163.16706
 20
140.001899
 30
0.0
  0
SEQEND
  5
1AF
330
1AE
100
AcDbEntity
  8
001
370
    50
  0
LINE
  5
1C3
330
1F
100
AcDbEntity
  8
001
370
    50
100
AcDbLine
 10
174.677001
 20
140.376465
 30
0.0
 11
172.777001
 21
142.398198
 31
0.0
  0
LINE
  5
1C4
330
1F
100
AcDbEntity
  8
001
370
    50
100
AcDbLine
 10
174.677001
 20
134.78771
 30
0.0
 11
174.677001
 21
140.376465
 31
0.0
  0
POLYLINE
  5
1C5
330
1F
100
AcDbEntity
  8
001
370
    50
100
AcDb2dPolyline
 66
     1
 10
0.0
 20
0.0
 30
0.0
  0
VERTEX
  5
1C7
330
1C5
100
AcDbEntity
  8
001
370
    50
100
AcDbVertex
100
AcDb2dVertex
 10
173.895064
 20
133.99371
 30
0.0
  0
VERTEX
  5
1C8
330
1C5
100
AcDbEntity
  8
001
370
    50
100
AcDbVertex
100
AcDb2dVertex
 10
173.95239
 20
133.996734
 30
0.0
  0
VERTEX
  5
1C9
330
1C5
100
AcDbEntity
  8
001
370
    50
100
AcDbVertex
100
AcDb2dVertex
 10
174.030846
 20
134.005772
 30
0.0
  0
VERTEX
  5
1CA
330
1C5
100
AcDbEntity
  8
001
370
    50
100
AcDbVertex
100
AcDb2dVertex
 10
174.100372
 20
134.020772
 30
0.0
  0
VERTEX
  5
1CB
330
1C5
100
AcDbEntity
  8
001
370
    50
100
AcDbVertex
100
AcDb2dVertex
 10
174.162502
 20
134.041594
 30
0.0
  0
VERTEX
  5
1CC
330
1C5
100
AcDbEntity
  8
001
370
    50
100
AcDbVertex
100
AcDb2dVertex
 10
174.224775
 20
134.068122
 30
0.0
  0
VERTEX
  5
1CD
330
1C5
100
AcDbEntity
  8
001
370
    50
100
AcDbVertex
100
AcDb2dVertex
 10
174.286032
 20
134.100086
 30
0.0
  0
VERTEX
  5
1CE
330
1C5
100
AcDbEntity
  8
001
370
    50
100
AcDbVertex
100
AcDb2dVertex
 10
174.343808
 20
134.137315
 30
0.0
  0
VERTEX
  5
1CF
330
1C5
100
AcDbEntity
  8
001
370
    50
100
AcDbVertex
100
AcDb2dVertex
 10
174.397683
 20
134.179471
 30
0.0
  0
VERTEX
  5
1D0
330
1C5
100
AcDbEntity
  8
001
370
    50
100
AcDbVertex
100
AcDb2dVertex
 10
174.447951
 20
134.226357
 30
0.0
  0
VERTEX
  5
1D1
330
1C5
100
AcDbEntity
  8
001
370
    50
100
AcDbVertex
100
AcDb2dVertex
 10
174.494062
 20
134.277336
 30
0.0
  0
VERTEX
  5
1D2
330
1C5
100
AcDbEntity
  8
001
370
    50
100
AcDbVertex
100
AcDb2dVertex
 10
174.535627
 20
134.332117
 30
0.0
  0
VERTEX
  5
1D3
330
1C5
100
AcDbEntity
  8
001
370
    50
100
AcDbVertex
100
AcDb2dVertex
 10
174.572241
 20
134.39071
 30
0.0
  0
VERTEX
  5
1D4
330
1C5
100
AcDbEntity
  8
001
370
    50
100
AcDbVertex
100
AcDb2dVertex
 10
174.603748
 20
134.452969
 30
0.0
  0
VERTEX
  5
1D5
330
1C5
100
AcDbEntity
  8
001
370
    50
100
AcDbVertex
100
AcDb2dVertex
 10
174.629844
 20
134.516146
 30
0.0
  0
VERTEX
  5
1D6
330
1C5
100
AcDbEntity
  8
001
370
    50
100
AcDbVertex
100
AcDb2dVertex
 10
174.650362
 20
134.579289
 30
0.0
  0
VERTEX
  5
1D7
330
1C5
100
AcDbEntity
  8
001
370
    50
100
AcDbVertex
100
AcDb2dVertex
 10
174.665122
 20
134.649833
 30
0.0
  0
VERTEX
  5
1D8
330
1C5
100
AcDbEntity
  8
001
370
    50
100
AcDbVertex
100
AcDb2dVertex
 10
174.674024
 20
134.729509
 30
0.0
  0
VERTEX
  5
1D9
330
1C5
100
AcDbEntity
  8
001
370
    50
100
AcDbVertex
100
AcDb2dVertex
 10
174.677001
 20
134.78771
 30
0.0
  0
SEQEND
  5
1C6
330
1C5
100
AcDbEntity
  8
001
370
    50
  0
LINE
  5
1DA
330
1F
100
AcDbEntity
  8
001
370
    50
100
AcDbLine
 10
169.219983
 20
133.99371
 30
0.0
 11
173.895064
 21
133.99371
 31
0.0
  0
LINE
  5
1DB
330
1F
100
AcDbEntity
  8
001
370
    50
100
AcDbLine
 10
167.007228
 20
131.849534
 30
0.0
 11
169.219983
 21
133.99371
 31
0.0
  0
LINE
  5
1DC
330
1F
100
AcDbEntity
  8
001
370
    50
100
AcDbLine
 10
167.007228
 20
131.849534
 30
0.0
 11
161.725116
 21
131.849534
 31
0.0
  0
POLYLINE
  5
1DD
330
1F
100
AcDbEntity
  8
001
370
    50
100
AcDb2dPolyline
 66
     1
 10
0.0
 20
0.0
 30
0.0
  0
VERTEX
  5
1DF
330
1DD
100
AcDbEntity
  8
001
370
    50
100
AcDbVertex
100
AcDb2dVertex
 10
160.943178
 20
132.643534
 30
0.0
  0
VERTEX
  5
1E0
330
1DD
100
AcDbEntity
  8
001
370
    50
100
AcDbVertex
100
AcDb2dVertex
 10
160.946944
 20
132.578089
 30
0.0
  0
VERTEX
  5
1E1
330
1DD
100
AcDbEntity
  8
001
370
    50
100
AcDbVertex
100
AcDb2dVertex
 10
160.958203
 20
132.488632
 30
0.0
  0
VERTEX
  5
1E2
330
1DD
100
AcDbEntity
  8
001
370
    50
100
AcDbVertex
100
AcDb2dVertex
 10
160.976846
 20
132.409771
 30
0.0
  0
VERTEX
  5
1E3
330
1DD
100
AcDbEntity
  8
001
370
    50
100
AcDbVertex
100
AcDb2dVertex
 10
161.0027
 20
132.339683
 30
0.0
  0
VERTEX
  5
1E4
330
1DD
100
AcDbEntity
  8
001
370
    50
100
AcDbVertex
100
AcDb2dVertex
 10
161.035472
 20
132.270172
 30
0.0
  0
VERTEX
  5
1E5
330
1DD
100
AcDbEntity
  8
001
370
    50
100
AcDbVertex
100
AcDb2dVertex
 10
161.074959
 20
132.202411
 30
0.0
  0
VERTEX
  5
1E6
330
1DD
100
AcDbEntity
  8
001
370
    50
100
AcDbVertex
100
AcDb2dVertex
 10
161.1207
 20
132.139636
 30
0.0
  0
VERTEX
  5
1E7
330
1DD
100
AcDbEntity
  8
001
370
    50
100
AcDbVertex
100
AcDb2dVertex
 10
161.172202
 20
132.082091
 30
0.0
  0
VERTEX
  5
1E8
330
1DD
100
AcDbEntity
  8
001
370
    50
100
AcDbVertex
100
AcDb2dVertex
 10
161.228782
 20
132.029865
 30
0.0
  0
VERTEX
  5
1E9
330
1DD
100
AcDbEntity
  8
001
370
    50
100
AcDbVertex
100
AcDb2dVertex
 10
161.290695
 20
131.983347
 30
0.0
  0
VERTEX
  5
1EA
330
1DD
100
AcDbEntity
  8
001
370
    50
100
AcDbVertex
100
AcDb2dVertex
 10
161.357352
 20
131.943297
 30
0.0
  0
VERTEX
  5
1EB
330
1DD
100
AcDbEntity
  8
001
370
    50
100
AcDbVertex
100
AcDb2dVertex
 10
161.425881
 20
131.909973
 30
0.0
  0
VERTEX
  5
1EC
330
1DD
100
AcDbEntity
  8
001
370
    50
100
AcDbVertex
100
AcDb2dVertex
 10
161.494829
 20
131.88374
 30
0.0
  0
VERTEX
  5
1ED
330
1DD
100
AcDbEntity
  8
001
370
    50
100
AcDbVertex
100
AcDb2dVertex
 10
161.572567
 20
131.86479
 30
0.0
  0
VERTEX
  5
1EE
330
1DD
100
AcDbEntity
  8
001
370
    50
100
AcDbVertex
100
AcDb2dVertex
 10
161.660652
 20
131.853361
 30
0.0
  0
VERTEX
  5
1EF
330
1DD
100
AcDbEntity
  8
001
370
    50
100
AcDbVertex
100
AcDb2dVertex
 10
161.725116
 20
131.849534
 30
0.0
  0
SEQEND
  5
1DE
330
1DD
100
AcDbEntity
  8
001
370
    50
  0
LINE
  5
1F0
330
1F
100
AcDbEntity
  8
001
370
    50
100
AcDbLine
 10
160.943178
 20
137.349534
 30
0.0
 11
160.943178
 21
132.643534
 31
0.0
  0
LINE
  5
1F1
330
1F
100
AcDbEntity
  8
001
370
    50
100
AcDbLine
 10
159.043178
 20
139.249534
 30
0.0
 11
159.043178
 21
145.216088
 31
0.0
  0
POLYLINE
  5
1F2
330
1F
100
AcDbEntity
  8
001
370
    50
100
AcDb2dPolyline
 66
     1
 10
0.0
 20
0.0
 30
0.0
  0
VERTEX
  5
1F4
330
1F2
100
AcDbEntity
  8
001
370
    50
100
AcDbVertex
100
AcDb2dVertex
 10
159.825115
 20
146.010088
 30
0.0
  0
VERTEX
  5
1F5
330
1F2
100
AcDbEntity
  8
001
370
    50
100
AcDbVertex
100
AcDb2dVertex
 10
159.767789
 20
146.007063
 30
0.0
  0
VERTEX
  5
1F6
330
1F2
100
AcDbEntity
  8
001
370
    50
100
AcDbVertex
100
AcDb2dVertex
 10
159.689333
 20
145.998025
 30
0.0
  0
VERTEX
  5
1F7
330
1F2
100
AcDbEntity
  8
001
370
    50
100
AcDbVertex
100
AcDb2dVertex
 10
159.619807
 20
145.983026
 30
0.0
  0
VERTEX
  5
1F8
330
1F2
100
AcDbEntity
  8
001
370
    50
100
AcDbVertex
100
AcDb2dVertex
 10
159.557677
 20
145.962204
 30
0.0
  0
VERTEX
  5
1F9
330
1F2
100
AcDbEntity
  8
001
370
    50
100
AcDbVertex
100
AcDb2dVertex
 10
159.495404
 20
145.935675
 30
0.0
  0
VERTEX
  5
1FA
330
1F2
100
AcDbEntity
  8
001
370
    50
100
AcDbVertex
100
AcDb2dVertex
 10
159.434147
 20
145.903712
 30
0.0
  0
VERTEX
  5
1FB
330
1F2
100
AcDbEntity
  8
001
370
    50
100
AcDbVertex
100
AcDb2dVertex
 10
159.37637
 20
145.866483
 30
0.0
  0
VERTEX
  5
1FC
330
1F2
100
AcDbEntity
  8
001
370
    50
100
AcDbVertex
100
AcDb2dVertex
 10
159.322496
 20
145.824327
 30
0.0
  0
VERTEX
  5
1FD
330
1F2
100
AcDbEntity
  8
001
370
    50
100
AcDbVertex
100
AcDb2dVertex
 10
159.272228
 20
145.777441
 30
0.0
  0
VERTEX
  5
1FE
330
1F2
100
AcDbEntity
  8
001
370
    50
100
AcDbVertex
100
AcDb2dVertex
 10
159.226117
 20
145.726461
 30
0.0
  0
VERTEX
  5
1FF
330
1F2
100
AcDbEntity
  8
001
370
    50
100
AcDbVertex
100
AcDb2dVertex
 10
159.184552
 20
145.671681
 30
0.0
  0
VERTEX
  5
200
330
1F2
100
AcDbEntity
  8
001
370
    50
100
AcDbVertex
100
AcDb2dVertex
 10
159.147938
 20
145.613088
 30
0.0
  0
VERTEX
  5
201
330
1F2
100
AcDbEntity
  8
001
370
    50
100
AcDbVertex
100
AcDb2dVertex
 10
159.11643
 20
145.550828
 30
0.0
  0
VERTEX
  5
202
330
1F2
100
AcDbEntity
  8
001
370
    50
100
AcDbVertex
100
AcDb2dVertex
 10
159.090335
 20
145.487652
 30
0.0
  0
VERTEX
  5
203
330
1F2
100
AcDbEntity
  8
001
370
    50
100
AcDbVertex
100
AcDb2dVertex
 10
159.069817
 20
145.424509
 30
0.0
  0
VERTEX
  5
204
330
1F2
100
AcDbEntity
  8
001
370
    50
100
AcDbVertex
100
AcDb2dVertex
 10
159.055057
 20
145.353965
 30
0.0
  0
VERTEX
  5
205
330
1F2
100
AcDbEntity
  8
001
370
    50
100
AcDbVertex
100
AcDb2dVertex
 10
159.046155
 20
145.274289
 30
0.0
  0
VERTEX
  5
206
330
1F2
100
AcDbEntity
  8
001
370
    50
100
AcDbVertex
100
AcDb2dVertex
 10
159.043178
 20
145.216088
 30
0.0
  0
SEQEND
  5
1F3
330
1F2
100
AcDbEntity
  8
001
370
    50
  0
LINE
  5
207
330
1F
100
AcDbEntity
  8
001
370
    50
100
AcDbLine
 10
164.500196
 20
146.010088
 30
0.0
 11
159.825115
 21
146.010088
 31
0.0
  0
LINE
  5
208
330
1F
100
AcDbEntity
  8
001
370
    50
100
AcDbLine
 10
166.491214
 20
147.939399
 30
0.0
 11
164.500196
 21
146.010088
 31
0.0
  0
LINE
  5
209
330
1F
100
AcDbEntity
  8
001
370
    50
100
AcDbLine
 10
171.995063
 20
147.939399
 30
0.0
 11
166.491214
 21
147.939399
 31
0.0
  0
POLYLINE
  5
20A
330
1F
100
AcDbEntity
  8
001
370
    50
100
AcDb2dPolyline
 66
     1
 10
0.0
 20
0.0
 30
0.0
  0
VERTEX
  5
20C
330
20A
100
AcDbEntity
  8
001
370
    50
100
AcDbVertex
100
AcDb2dVertex
 10
172.777001
 20
147.145399
 30
0.0
  0
VERTEX
  5
20D
330
20A
100
AcDbEntity
  8
001
370
    50
100
AcDbVertex
100
AcDb2dVertex
 10
172.774024
 20
147.2036
 30
0.0
  0
VERTEX
  5
20E
330
20A
100
AcDbEntity
  8
001
370
    50
100
AcDbVertex
100
AcDb2dVertex
 10
172.765121
 20
147.283276
 30
0.0
  0
VERTEX
  5
20F
330
20A
100
AcDbEntity
  8
001
370
    50
100
AcDbVertex
100
AcDb2dVertex
 10
172.750362
 20
147.35382
 30
0.0
  0
VERTEX
  5
210
330
20A
100
AcDbEntity
  8
001
370
    50
100
AcDbVertex
100
AcDb2dVertex
 10
172.729844
 20
147.416963
 30
0.0
  0
VERTEX
  5
211
330
20A
100
AcDbEntity
  8
001
370
    50
100
AcDbVertex
100
AcDb2dVertex
 10
172.703748
 20
147.480139
 30
0.0
  0
VERTEX
  5
212
330
20A
100
AcDbEntity
  8
001
370
    50
100
AcDbVertex
100
AcDb2dVertex
 10
172.672241
 20
147.542399
 30
0.0
  0
VERTEX
  5
213
330
20A
100
AcDbEntity
  8
001
370
    50
100
AcDbVertex
100
AcDb2dVertex
 10
172.635627
 20
147.600992
 30
0.0
  0
VERTEX
  5
214
330
20A
100
AcDbEntity
  8
001
370
    50
100
AcDbVertex
100
AcDb2dVertex
 10
172.594062
 20
147.655772
 30
0.0
  0
VERTEX
  5
215
330
20A
100
AcDbEntity
  8
001
370
    50
100
AcDbVertex
100
AcDb2dVertex
 10
172.547951
 20
147.706752
 30
0.0
  0
VERTEX
  5
216
330
20A
100
AcDbEntity
  8
001
370
    50
100
AcDbVertex
100
AcDb2dVertex
 10
172.497683
 20
147.753638
 30
0.0
  0
VERTEX
  5
217
330
20A
100
AcDbEntity
  8
001
370
    50
100
AcDbVertex
100
AcDb2dVertex
 10
172.443808
 20
147.795794
 30
0.0
  0
VERTEX
  5
218
330
20A
100
AcDbEntity
  8
001
370
    50
100
AcDbVertex
100
AcDb2dVertex
 10
172.386032
 20
147.833023
 30
0.0
  0
VERTEX
  5
219
330
20A
100
AcDbEntity
  8
001
370
    50
100
AcDbVertex
100
AcDb2dVertex
 10
172.324774
 20
147.864986
 30
0.0
  0
VERTEX
  5
21A
330
20A
100
AcDbEntity
  8
001
370
    50
100
AcDbVertex
100
AcDb2dVertex
 10
172.262502
 20
147.891515
 30
0.0
  0
VERTEX
  5
21B
330
20A
100
AcDbEntity
  8
001
370
    50
100
AcDbVertex
100
AcDb2dVertex
 10
172.200372
 20
147.912337
 30
0.0
  0
VERTEX
  5
21C
330
20A
100
AcDbEntity
  8
001
370
    50
100
AcDbVertex
100
AcDb2dVertex
 10
172.130845
 20
147.927336
 30
0.0
  0
VERTEX
  5
21D
330
20A
100
AcDbEntity
  8
001
370
    50
100
AcDbVertex
100
AcDb2dVertex
 10
172.052389
 20
147.936374
 30
0.0
  0
VERTEX
  5
21E
330
20A
100
AcDbEntity
  8
001
370
    50
100
AcDbVertex
100
AcDb2dVertex
 10
171.995063
 20
147.939399
 30
0.0
  0
SEQEND
  5
20B
330
20A
100
AcDbEntity
  8
001
370
    50
  0
LINE
  5
21F
330
1F
100
AcDbEntity
  8
001
370
    50
100
AcDbLine
 10
172.777001
 20
142.398198
 30
0.0
 11
172.777001
 21
147.145399
 31
0.0
  0
POLYLINE
  5
220
330
1F
100
AcDbEntity
  8
001
370
    50
100
AcDb2dPolyline
 66
     1
 10
0.0
 20
0.0
 30
0.0
  0
VERTEX
  5
222
330
220
100
AcDbEntity
  8
001
370
    50
100
AcDbVertex
100
AcDb2dVertex
 10
163.16706
 20
140.001899
 30
0.0
  0
VERTEX
  5
223
330
220
100
AcDbEntity
  8
001
370
    50
100
AcDbVertex
100
AcDb2dVertex
 10
163.184846
 20
139.69281
 30
0.0
  0
VERTEX
  5
224
330
220
100
AcDbEntity
  8
001
370
    50
100
AcDbVertex
100
AcDb2dVertex
 10
163.238021
 20
139.27031
 30
0.0
  0
VERTEX
  5
225
330
220
100
AcDbEntity
  8
001
370
    50
100
AcDbVertex
100
AcDb2dVertex
 10
163.326071
 20
138.897854
 30
0.0
  0
VERTEX
  5
226
330
220
100
AcDbEntity
  8
001
370
    50
100
AcDbVertex
100
AcDb2dVertex
 10
163.448175
 20
138.566836
 30
0.0
  0
VERTEX
  5
227
330
220
100
AcDbEntity
  8
001
370
    50
100
AcDbVertex
100
AcDb2dVertex
 10
163.602954
 20
138.238541
 30
0.0
  0
VERTEX
  5
228
330
220
100
AcDbEntity
  8
001
370
    50
100
AcDbVertex
100
AcDb2dVertex
 10
163.789448
 20
137.91851
 30
0.0
  0
VERTEX
  5
229
330
220
100
AcDbEntity
  8
001
370
    50
100
AcDbVertex
100
AcDb2dVertex
 10
164.005483
 20
137.622027
 30
0.0
  0
VERTEX
  5
22A
330
220
100
AcDbEntity
  8
001
370
    50
100
AcDbVertex
100
AcDb2dVertex
 10
164.248724
 20
137.350248
 30
0.0
  0
VERTEX
  5
22B
330
220
100
AcDbEntity
  8
001
370
    50
100
AcDbVertex
100
AcDb2dVertex
 10
164.515942
 20
137.10359
 30
0.0
  0
VERTEX
  5
22C
330
220
100
AcDbEntity
  8
001
370
    50
100
AcDbVertex
100
AcDb2dVertex
 10
164.808352
 20
136.883888
 30
0.0
  0
VERTEX
  5
22D
330
220
100
AcDbEntity
  8
001
370
    50
100
AcDbVertex
100
AcDb2dVertex
 10
165.12317
 20
136.694738
 30
0.0
  0
VERTEX
  5
22E
330
220
100
AcDbEntity
  8
001
370
    50
100
AcDbVertex
100
AcDb2dVertex
 10
165.446828
 20
136.537351
 30
0.0
  0
VERTEX
  5
22F
330
220
100
AcDbEntity
  8
001
370
    50
100
AcDbVertex
100
AcDb2dVertex
 10
165.772462
 20
136.413454
 30
0.0
  0
VERTEX
  5
230
330
220
100
AcDbEntity
  8
001
370
    50
100
AcDbVertex
100
AcDb2dVertex
 10
166.139615
 20
136.323954
 30
0.0
  0
VERTEX
  5
231
330
220
100
AcDbEntity
  8
001
370
    50
100
AcDbVertex
100
AcDb2dVertex
 10
166.555634
 20
136.269974
 30
0.0
  0
VERTEX
  5
232
330
220
100
AcDbEntity
  8
001
370
    50
100
AcDbVertex
100
AcDb2dVertex
 10
166.860089
 20
136.251899
 30
0.0
  0
SEQEND
  5
221
330
220
100
AcDbEntity
  8
001
370
    50
  0
POLYLINE
  5
233
330
1F
100
AcDbEntity
  8
001
370
    50
100
AcDb2dPolyline
 66
     1
 10
0.0
 20
0.0
 30
0.0
  0
VERTEX
  5
235
330
233
100
AcDbEntity
  8
001
370
    50
100
AcDbVertex
100
AcDb2dVertex
 10
166.860089
 20
136.251899
 30
0.0
  0
VERTEX
  5
236
330
233
100
AcDbEntity
  8
001
370
    50
100
AcDbVertex
100
AcDb2dVertex
 10
167.130837
 20
136.266182
 30
0.0
  0
VERTEX
  5
237
330
233
100
AcDbEntity
  8
001
370
    50
100
AcDbVertex
100
AcDb2dVertex
 10
167.501377
 20
136.30887
 30
0.0
  0
VERTEX
  5
238
330
233
100
AcDbEntity
  8
001
370
    50
100
AcDbVertex
100
AcDb2dVertex
 10
167.829746
 20
136.379715
 30
0.0
  0
VERTEX
  5
239
330
233
100
AcDbEntity
  8
001
370
    50
100
AcDbVertex
100
AcDb2dVertex
 10
168.12318
 20
136.478052
 30
0.0
  0
VERTEX
  5
23A
330
233
100
AcDbEntity
  8
001
370
    50
100
AcDbVertex
100
AcDb2dVertex
 10
168.417289
 20
136.603325
 30
0.0
  0
VERTEX
  5
23B
330
233
100
AcDbEntity
  8
001
370
    50
100
AcDbVertex
100
AcDb2dVertex
 10
168.706604
 20
136.754304
 30
0.0
  0
VERTEX
  5
23C
330
233
100
AcDbEntity
  8
001
370
    50
100
AcDbVertex
100
AcDb2dVertex
 10
168.979476
 20
136.930204
 30
0.0
  0
VERTEX
  5
23D
330
233
100
AcDbEntity
  8
001
370
    50
100
AcDbVertex
100
AcDb2dVertex
 10
169.233923
 20
137.129232
 30
0.0
  0
VERTEX
  5
23E
330
233
100
AcDbEntity
  8
001
370
    50
100
AcDbVertex
100
AcDb2dVertex
 10
169.471334
 20
137.350409
 30
0.0
  0
VERTEX
  5
23F
330
233
100
AcDbEntity
  8
001
370
    50
100
AcDbVertex
100
AcDb2dVertex
 10
169.689114
 20
137.591445
 30
0.0
  0
VERTEX
  5
240
330
233
100
AcDbEntity
  8
001
370
    50
100
AcDbVertex
100
AcDb2dVertex
 10
169.885421
 20
137.851159
 30
0.0
  0
VERTEX
  5
241
330
233
100
AcDbEntity
  8
001
370
    50
100
AcDbVertex
100
AcDb2dVertex
 10
170.058346
 20
138.126899
 30
0.0
  0
VERTEX
  5
242
330
233
100
AcDbEntity
  8
001
370
    50
100
AcDbVertex
100
AcDb2dVertex
 10
170.207152
 20
138.417234
 30
0.0
  0
VERTEX
  5
243
330
233
100
AcDbEntity
  8
001
370
    50
100
AcDbVertex
100
AcDb2dVertex
 10
170.330402
 20
138.719323
 30
0.0
  0
VERTEX
  5
244
330
233
100
AcDbEntity
  8
001
370
    50
100
AcDbVertex
100
AcDb2dVertex
 10
170.427306
 20
139.031433
 30
0.0
  0
VERTEX
  5
245
330
233
100
AcDbEntity
  8
001
370
    50
100
AcDbVertex
100
AcDb2dVertex
 10
170.497013
 20
139.350718
 30
0.0
  0
VERTEX
  5
246
330
233
100
AcDbEntity
  8
001
370
    50
100
AcDbVertex
100
AcDb2dVertex
 10
170.53906
 20
139.675103
 30
0.0
  0
VERTEX
  5
247
330
233
100
AcDbEntity
  8
001
370
    50
100
AcDbVertex
100
AcDb2dVertex
 10
170.553119
 20
140.001899
 30
0.0
  0
VERTEX
  5
248
330
233
100
AcDbEntity
  8
001
370
    50
100
AcDbVertex
100
AcDb2dVertex
 10
170.53906
 20
140.328695
 30
0.0
  0
VERTEX
  5
249
330
233
100
AcDbEntity
  8
001
370
    50
100
AcDbVertex
100
AcDb2dVertex
 10
170.497013
 20
140.65308
 30
0.0
  0
VERTEX
  5
24A
330
233
100
AcDbEntity
  8
001
370
    50
100
AcDbVertex
100
AcDb2dVertex
 10
170.427306
 20
140.972364
 30
0.0
  0
VERTEX
  5
24B
330
233
100
AcDbEntity
  8
001
370
    50
100
AcDbVertex
100
AcDb2dVertex
 10
170.330402
 20
141.284474
 30
0.0
  0
VERTEX
  5
24C
330
233
100
AcDbEntity
  8
001
370
    50
100
AcDbVertex
100
AcDb2dVertex
 10
170.207152
 20
141.586564
 30
0.0
  0
VERTEX
  5
24D
330
233
100
AcDbEntity
  8
001
370
    50
100
AcDbVertex
100
AcDb2dVertex
 10
170.058346
 20
141.876899
 30
0.0
  0
VERTEX
  5
24E
330
233
100
AcDbEntity
  8
001
370
    50
100
AcDbVertex
100
AcDb2dVertex
 10
169.885421
 20
142.152639
 30
0.0
  0
VERTEX
  5
24F
330
233
100
AcDbEntity
  8
001
370
    50
100
AcDbVertex
100
AcDb2dVertex
 10
169.689114
 20
142.412352
 30
0.0
  0
VERTEX
  5
250
330
233
100
AcDbEntity
  8
001
370
    50
100
AcDbVertex
100
AcDb2dVertex
 10
169.471334
 20
142.653389
 30
0.0
  0
VERTEX
  5
251
330
233
100
AcDbEntity
  8
001
370
    50
100
AcDbVertex
100
AcDb2dVertex
 10
169.233923
 20
142.874566
 30
0.0
  0
VERTEX
  5
252
330
233
100
AcDbEntity
  8
001
370
    50
100
AcDbVertex
100
AcDb2dVertex
 10
168.979476
 20
143.073593
 30
0.0
  0
VERTEX
  5
253
330
233
100
AcDbEntity
  8
001
370
    50
100
AcDbVertex
100
AcDb2dVertex
 10
168.706604
 20
143.249494
 30
0.0
  0
VERTEX
  5
254
330
233
100
AcDbEntity
  8
001
370
    50
100
AcDbVertex
100
AcDb2dVertex
 10
168.417289
 20
143.400473
 30
0.0
  0
VERTEX
  5
255
330
233
100
AcDbEntity
  8
001
370
    50
100
AcDbVertex
100
AcDb2dVertex
 10
168.12318
 20
143.525746
 30
0.0
  0
VERTEX
  5
256
330
233
100
AcDbEntity
  8
001
370
    50
100
AcDbVertex
100
AcDb2dVertex
 10
167.829746
 20
143.624082
 30
0.0
  0
VERTEX
  5
257
330
233
100
AcDbEntity
  8
001
370
    50
100
AcDbVertex
100
AcDb2dVertex
 10
167.501377
 20
143.694928
 30
0.0
  0
VERTEX
  5
258
330
233
100
AcDbEntity
  8
001
370
    50
100
AcDbVertex
100
AcDb2dVertex
 10
167.130837
 20
143.737615
 30
0.0
  0
VERTEX
  5
259
330
233
100
AcDbEntity
  8
001
370
    50
100
AcDbVertex
100
AcDb2dVertex
 10
166.860089
 20
143.751899
 30
0.0
  0
SEQEND
  5
234
330
233
100
AcDbEntity
  8
001
370
    50
  0
ARC
  5
25A
330
1F
100
AcDbEntity
  8
001
370
    50
100
AcDbCircle
 10
233.043178
 20
171.049534
 30
0.0
 40
4.000000000000004
100
AcDbArc
 50
0.0
 51
90.0
  0
ARC
  5
25B
330
1F
100
AcDbEntity
  8
001
370
    50
100
AcDbCircle
 10
233.043178
 20
131.649534
 30
0.0
 40
4.000000000000004
100
AcDbArc
 50
304.667347
 51
0.0
  0
LINE
  5
25C
330
1F
100
AcDbEntity
  8
001
370
    50
100
AcDbLine
 10
237.043178
 20
171.049534
 30
0.0
 11
237.043178
 21
131.649534
 31
0.0
  0
POLYLINE
  5
25D
330
1F
100
AcDbEntity
  8
001
370
    50
100
AcDb2dPolyline
 66
     1
 10
0.0
 20
0.0
 30
0.0
  0
VERTEX
  5
25F
330
25D
100
AcDbEntity
  8
001
370
    50
100
AcDbVertex
100
AcDb2dVertex
 10
233.043178
 20
129.484929
 30
0.0
  0
VERTEX
  5
260
330
25D
100
AcDbEntity
  8
001
370
    50
100
AcDbVertex
100
AcDb2dVertex
 10
233.229458
 20
129.238939
 30
0.0
  0
VERTEX
  5
261
330
25D
100
AcDbEntity
  8
001
370
    50
100
AcDbVertex
100
AcDb2dVertex
 10
233.427183
 20
129.002782
 30
0.0
  0
VERTEX
  5
262
330
25D
100
AcDbEntity
  8
001
370
    50
100
AcDbVertex
100
AcDb2dVertex
 10
233.617069
 20
128.811136
 30
0.0
  0
VERTEX
  5
263
330
25D
100
AcDbEntity
  8
001
370
    50
100
AcDbVertex
100
AcDb2dVertex
 10
233.823017
 20
128.636399
 30
0.0
  0
VERTEX
  5
264
330
25D
100
AcDbEntity
  8
001
370
    50
100
AcDbVertex
100
AcDb2dVertex
 10
234.012273
 20
128.501677
 30
0.0
  0
VERTEX
  5
265
330
25D
100
AcDbEntity
  8
001
370
    50
100
AcDbVertex
100
AcDb2dVertex
 10
234.213572
 20
128.385919
 30
0.0
  0
VERTEX
  5
266
330
25D
100
AcDbEntity
  8
001
370
    50
100
AcDbVertex
100
AcDb2dVertex
 10
234.393575
 20
128.307144
 30
0.0
  0
VERTEX
  5
267
330
25D
100
AcDbEntity
  8
001
370
    50
100
AcDbVertex
100
AcDb2dVertex
 10
234.581738
 20
128.251479
 30
0.0
  0
VERTEX
  5
268
330
25D
100
AcDbEntity
  8
001
370
    50
100
AcDbVertex
100
AcDb2dVertex
 10
234.747123
 20
128.226679
 30
0.0
  0
VERTEX
  5
269
330
25D
100
AcDbEntity
  8
001
370
    50
100
AcDbVertex
100
AcDb2dVertex
 10
234.914637
 20
128.226205
 30
0.0
  0
VERTEX
  5
26A
330
25D
100
AcDbEntity
  8
001
370
    50
100
AcDbVertex
100
AcDb2dVertex
 10
235.056717
 20
128.24777
 30
0.0
  0
VERTEX
  5
26B
330
25D
100
AcDbEntity
  8
001
370
    50
100
AcDbVertex
100
AcDb2dVertex
 10
235.192225
 20
128.292898
 30
0.0
  0
VERTEX
  5
26C
330
25D
100
AcDbEntity
  8
001
370
    50
100
AcDbVertex
100
AcDb2dVertex
 10
235.259329
 20
128.326579
 30
0.0
  0
VERTEX
  5
26D
330
25D
100
AcDbEntity
  8
001
370
    50
100
AcDbVertex
100
AcDb2dVertex
 10
235.324681
 20
128.363998
 30
0.0
  0
SEQEND
  5
25E
330
25D
100
AcDbEntity
  8
001
370
    50
  0
LINE
  5
26E
330
1F
100
AcDbEntity
  8
001
370
    50
100
AcDbLine
 10
233.043178
 20
175.049534
 30
0.0
 11
190.809281
 21
175.049534
 31
0.0
  0
POLYLINE
  5
26F
330
1F
100
AcDbEntity
  8
001
370
    50
100
AcDb2dPolyline
 66
     1
 10
0.0
 20
0.0
 30
0.0
  0
VERTEX
  5
271
330
26F
100
AcDbEntity
  8
001
370
    50
100
AcDbVertex
100
AcDb2dVertex
 10
204.788655
 20
131.31035
 30
0.0
  0
VERTEX
  5
272
330
26F
100
AcDbEntity
  8
001
370
    50
100
AcDbVertex
100
AcDb2dVertex
 10
204.51395
 20
131.259446
 30
0.0
  0
VERTEX
  5
273
330
26F
100
AcDbEntity
  8
001
370
    50
100
AcDbVertex
100
AcDb2dVertex
 10
204.239636
 20
131.20658
 30
0.0
  0
VERTEX
  5
274
330
26F
100
AcDbEntity
  8
001
370
    50
100
AcDbVertex
100
AcDb2dVertex
 10
203.966451
 20
131.150548
 30
0.0
  0
VERTEX
  5
275
330
26F
100
AcDbEntity
  8
001
370
    50
100
AcDbVertex
100
AcDb2dVertex
 10
203.693655
 20
131.092561
 30
0.0
  0
SEQEND
  5
270
330
26F
100
AcDbEntity
  8
001
370
    50
  0
POLYLINE
  5
276
330
1F
100
AcDbEntity
  8
001
370
    50
100
AcDb2dPolyline
 66
     1
 10
0.0
 20
0.0
 30
0.0
  0
VERTEX
  5
278
330
276
100
AcDbEntity
  8
001
370
    50
100
AcDbVertex
100
AcDb2dVertex
 10
205.883655
 20
131.534243
 30
0.0
  0
VERTEX
  5
279
330
276
100
AcDbEntity
  8
001
370
    50
100
AcDbVertex
100
AcDb2dVertex
 10
205.608939
 20
131.48193
 30
0.0
  0
VERTEX
  5
27A
330
276
100
AcDbEntity
  8
001
370
    50
100
AcDbVertex
100
AcDb2dVertex
 10
205.334636
 20
131.427594
 30
0.0
  0
VERTEX
  5
27B
330
276
100
AcDbEntity
  8
001
370
    50
100
AcDbVertex
100
AcDb2dVertex
 10
205.061439
 20
131.36998
 30
0.0
  0
VERTEX
  5
27C
330
276
100
AcDbEntity
  8
001
370
    50
100
AcDbVertex
100
AcDb2dVertex
 10
204.788655
 20
131.31035
 30
0.0
  0
SEQEND
  5
277
330
276
100
AcDbEntity
  8
001
370
    50
  0
POLYLINE
  5
27D
330
1F
100
AcDbEntity
  8
001
370
    50
100
AcDb2dPolyline
 66
     1
 10
0.0
 20
0.0
 30
0.0
  0
VERTEX
  5
27F
330
27D
100
AcDbEntity
  8
001
370
    50
100
AcDbVertex
100
AcDb2dVertex
 10
206.978655
 20
131.764172
 30
0.0
  0
VERTEX
  5
280
330
27D
100
AcDbEntity
  8
001
370
    50
100
AcDbVertex
100
AcDb2dVertex
 10
206.703927
 20
131.710466
 30
0.0
  0
VERTEX
  5
281
330
27D
100
AcDbEntity
  8
001
370
    50
100
AcDbVertex
100
AcDb2dVertex
 10
206.429636
 20
131.654677
 30
0.0
  0
VERTEX
  5
282
330
27D
100
AcDbEntity
  8
001
370
    50
100
AcDbVertex
100
AcDb2dVertex
 10
206.156427
 20
131.595498
 30
0.0
  0
VERTEX
  5
283
330
27D
100
AcDbEntity
  8
001
370
    50
100
AcDbVertex
100
AcDb2dVertex
 10
205.883655
 20
131.534243
 30
0.0
  0
SEQEND
  5
27E
330
27D
100
AcDbEntity
  8
001
370
    50
  0
POLYLINE
  5
284
330
1F
100
AcDbEntity
  8
001
370
    50
100
AcDb2dPolyline
 66
     1
 10
0.0
 20
0.0
 30
0.0
  0
VERTEX
  5
286
330
284
100
AcDbEntity
  8
001
370
    50
100
AcDbVertex
100
AcDb2dVertex
 10
208.073655
 20
132.000067
 30
0.0
  0
VERTEX
  5
287
330
284
100
AcDbEntity
  8
001
370
    50
100
AcDbVertex
100
AcDb2dVertex
 10
207.798915
 20
131.944983
 30
0.0
  0
VERTEX
  5
288
330
284
100
AcDbEntity
  8
001
370
    50
100
AcDbVertex
100
AcDb2dVertex
 10
207.524636
 20
131.887759
 30
0.0
  0
VERTEX
  5
289
330
284
100
AcDbEntity
  8
001
370
    50
100
AcDbVertex
100
AcDb2dVertex
 10
207.251415
 20
131.827034
 30
0.0
  0
VERTEX
  5
28A
330
284
100
AcDbEntity
  8
001
370
    50
100
AcDbVertex
100
AcDb2dVertex
 10
206.978655
 20
131.764172
 30
0.0
  0
SEQEND
  5
285
330
284
100
AcDbEntity
  8
001
370
    50
  0
POLYLINE
  5
28B
330
1F
100
AcDbEntity
  8
001
370
    50
100
AcDb2dPolyline
 66
     1
 10
0.0
 20
0.0
 30
0.0
  0
VERTEX
  5
28D
330
28B
100
AcDbEntity
  8
001
370
    50
100
AcDbVertex
100
AcDb2dVertex
 10
209.168655
 20
132.241856
 30
0.0
  0
VERTEX
  5
28E
330
28B
100
AcDbEntity
  8
001
370
    50
100
AcDbVertex
100
AcDb2dVertex
 10
208.893903
 20
132.185412
 30
0.0
  0
VERTEX
  5
28F
330
28B
100
AcDbEntity
  8
001
370
    50
100
AcDbVertex
100
AcDb2dVertex
 10
208.619636
 20
132.12677
 30
0.0
  0
VERTEX
  5
290
330
28B
100
AcDbEntity
  8
001
370
    50
100
AcDbVertex
100
AcDb2dVertex
 10
208.346403
 20
132.064516
 30
0.0
  0
VERTEX
  5
291
330
28B
100
AcDbEntity
  8
001
370
    50
100
AcDbVertex
100
AcDb2dVertex
 10
208.073655
 20
132.000067
 30
0.0
  0
SEQEND
  5
28C
330
28B
100
AcDbEntity
  8
001
370
    50
  0
POLYLINE
  5
292
330
1F
100
AcDbEntity
  8
001
370
    50
100
AcDb2dPolyline
 66
     1
 10
0.0
 20
0.0
 30
0.0
  0
VERTEX
  5
294
330
292
100
AcDbEntity
  8
001
370
    50
100
AcDbVertex
100
AcDb2dVertex
 10
210.263655
 20
132.489465
 30
0.0
  0
VERTEX
  5
295
330
292
100
AcDbEntity
  8
001
370
    50
100
AcDbVertex
100
AcDb2dVertex
 10
209.98889
 20
132.431678
 30
0.0
  0
VERTEX
  5
296
330
292
100
AcDbEntity
  8
001
370
    50
100
AcDbVertex
100
AcDb2dVertex
 10
209.714636
 20
132.371635
 30
0.0
  0
VERTEX
  5
297
330
292
100
AcDbEntity
  8
001
370
    50
100
AcDbVertex
100
AcDb2dVertex
 10
209.441391
 20
132.307872
 30
0.0
  0
VERTEX
  5
298
330
292
100
AcDbEntity
  8
001
370
    50
100
AcDbVertex
100
AcDb2dVertex
 10
209.168655
 20
132.241856
 30
0.0
  0
SEQEND
  5
293
330
292
100
AcDbEntity
  8
001
370
    50
  0
POLYLINE
  5
299
330
1F
100
AcDbEntity
  8
001
370
    50
100
AcDb2dPolyline
 66
     1
 10
0.0
 20
0.0
 30
0.0
  0
VERTEX
  5
29B
330
299
100
AcDbEntity
  8
001
370
    50
100
AcDbVertex
100
AcDb2dVertex
 10
211.358655
 20
132.742819
 30
0.0
  0
VERTEX
  5
29C
330
299
100
AcDbEntity
  8
001
370
    50
100
AcDbVertex
100
AcDb2dVertex
 10
211.083878
 20
132.683706
 30
0.0
  0
VERTEX
  5
29D
330
299
100
AcDbEntity
  8
001
370
    50
100
AcDbVertex
100
AcDb2dVertex
 10
210.809636
 20
132.622282
 30
0.0
  0
VERTEX
  5
29E
330
299
100
AcDbEntity
  8
001
370
    50
100
AcDbVertex
100
AcDb2dVertex
 10
210.536378
 20
132.557028
 30
0.0
  0
VERTEX
  5
29F
330
299
100
AcDbEntity
  8
001
370
    50
100
AcDbVertex
100
AcDb2dVertex
 10
210.263655
 20
132.489465
 30
0.0
  0
SEQEND
  5
29A
330
299
100
AcDbEntity
  8
001
370
    50
  0
POLYLINE
  5
2A0
330
1F
100
AcDbEntity
  8
001
370
    50
100
AcDb2dPolyline
 66
     1
 10
0.0
 20
0.0
 30
0.0
  0
VERTEX
  5
2A2
330
2A0
100
AcDbEntity
  8
001
370
    50
100
AcDbVertex
100
AcDb2dVertex
 10
212.453655
 20
133.001841
 30
0.0
  0
VERTEX
  5
2A3
330
2A0
100
AcDbEntity
  8
001
370
    50
100
AcDbVertex
100
AcDb2dVertex
 10
212.178866
 20
132.94142
 30
0.0
  0
VERTEX
  5
2A4
330
2A0
100
AcDbEntity
  8
001
370
    50
100
AcDbVertex
100
AcDb2dVertex
 10
211.904636
 20
132.878633
 30
0.0
  0
VERTEX
  5
2A5
330
2A0
100
AcDbEntity
  8
001
370
    50
100
AcDbVertex
100
AcDb2dVertex
 10
211.631366
 20
132.811909
 30
0.0
  0
VERTEX
  5
2A6
330
2A0
100
AcDbEntity
  8
001
370
    50
100
AcDbVertex
100
AcDb2dVertex
 10
211.358655
 20
132.742819
 30
0.0
  0
SEQEND
  5
2A1
330
2A0
100
AcDbEntity
  8
001
370
    50
  0
POLYLINE
  5
2A7
330
1F
100
AcDbEntity
  8
001
370
    50
100
AcDb2dPolyline
 66
     1
 10
0.0
 20
0.0
 30
0.0
  0
VERTEX
  5
2A9
330
2A7
100
AcDbEntity
  8
001
370
    50
100
AcDbVertex
100
AcDb2dVertex
 10
213.548655
 20
133.266452
 30
0.0
  0
VERTEX
  5
2AA
330
2A7
100
AcDbEntity
  8
001
370
    50
100
AcDbVertex
100
AcDb2dVertex
 10
213.273853
 20
133.204741
 30
0.0
  0
VERTEX
  5
2AB
330
2A7
100
AcDbEntity
  8
001
370
    50
100
AcDbVertex
100
AcDb2dVertex
 10
212.999636
 20
133.140611
 30
0.0
  0
VERTEX
  5
2AC
330
2A7
100
AcDbEntity
  8
001
370
    50
100
AcDbVertex
100
AcDb2dVertex
 10
212.726353
 20
133.072436
 30
0.0
  0
VERTEX
  5
2AD
330
2A7
100
AcDbEntity
  8
001
370
    50
100
AcDbVertex
100
AcDb2dVertex
 10
212.453655
 20
133.001841
 30
0.0
  0
SEQEND
  5
2A8
330
2A7
100
AcDbEntity
  8
001
370
    50
  0
POLYLINE
  5
2AE
330
1F
100
AcDbEntity
  8
001
370
    50
100
AcDb2dPolyline
 66
     1
 10
0.0
 20
0.0
 30
0.0
  0
VERTEX
  5
2B0
330
2AE
100
AcDbEntity
  8
001
370
    50
100
AcDbVertex
100
AcDb2dVertex
 10
214.643655
 20
133.536571
 30
0.0
  0
VERTEX
  5
2B1
330
2AE
100
AcDbEntity
  8
001
370
    50
100
AcDbVertex
100
AcDb2dVertex
 10
214.36884
 20
133.473589
 30
0.0
  0
VERTEX
  5
2B2
330
2AE
100
AcDbEntity
  8
001
370
    50
100
AcDbVertex
100
AcDb2dVertex
 10
214.094636
 20
133.408135
 30
0.0
  0
VERTEX
  5
2B3
330
2AE
100
AcDbEntity
  8
001
370
    50
100
AcDbVertex
100
AcDb2dVertex
 10
213.82134
 20
133.338531
 30
0.0
  0
VERTEX
  5
2B4
330
2AE
100
AcDbEntity
  8
001
370
    50
100
AcDbVertex
100
AcDb2dVertex
 10
213.548655
 20
133.266452
 30
0.0
  0
SEQEND
  5
2AF
330
2AE
100
AcDbEntity
  8
001
370
    50
  0
POLYLINE
  5
2B5
330
1F
100
AcDbEntity
  8
001
370
    50
100
AcDb2dPolyline
 66
     1
 10
0.0
 20
0.0
 30
0.0
  0
VERTEX
  5
2B7
330
2B5
100
AcDbEntity
  8
001
370
    50
100
AcDbVertex
100
AcDb2dVertex
 10
215.738655
 20
133.812116
 30
0.0
  0
VERTEX
  5
2B8
330
2B5
100
AcDbEntity
  8
001
370
    50
100
AcDbVertex
100
AcDb2dVertex
 10
215.463828
 20
133.747882
 30
0.0
  0
VERTEX
  5
2B9
330
2B5
100
AcDbEntity
  8
001
370
    50
100
AcDbVertex
100
AcDb2dVertex
 10
215.189636
 20
133.681124
 30
0.0
  0
VERTEX
  5
2BA
330
2B5
100
AcDbEntity
  8
001
370
    50
100
AcDbVertex
100
AcDb2dVertex
 10
214.916327
 20
133.610111
 30
0.0
  0
VERTEX
  5
2BB
330
2B5
100
AcDbEntity
  8
001
370
    50
100
AcDbVertex
100
AcDb2dVertex
 10
214.643655
 20
133.536571
 30
0.0
  0
SEQEND
  5
2B6
330
2B5
100
AcDbEntity
  8
001
370
    50
  0
POLYLINE
  5
2BC
330
1F
100
AcDbEntity
  8
001
370
    50
100
AcDb2dPolyline
 66
     1
 10
0.0
 20
0.0
 30
0.0
  0
VERTEX
  5
2BE
330
2BC
100
AcDbEntity
  8
001
370
    50
100
AcDbVertex
100
AcDb2dVertex
 10
231.615473
 20
132.207616
 30
0.0
  0
VERTEX
  5
2BF
330
2BC
100
AcDbEntity
  8
001
370
    50
100
AcDbVertex
100
AcDb2dVertex
 10
231.566165
 20
132.233783
 30
0.0
  0
VERTEX
  5
2C0
330
2BC
100
AcDbEntity
  8
001
370
    50
100
AcDbVertex
100
AcDb2dVertex
 10
231.516838
 20
132.259916
 30
0.0
  0
VERTEX
  5
2C1
330
2BC
100
AcDbEntity
  8
001
370
    50
100
AcDbVertex
100
AcDb2dVertex
 10
231.086256
 20
132.483616
 30
0.0
  0
VERTEX
  5
2C2
330
2BC
100
AcDbEntity
  8
001
370
    50
100
AcDbVertex
100
AcDb2dVertex
 10
230.651129
 20
132.69828
 30
0.0
  0
VERTEX
  5
2C3
330
2BC
100
AcDbEntity
  8
001
370
    50
100
AcDbVertex
100
AcDb2dVertex
 10
230.194112
 20
132.907859
 30
0.0
  0
VERTEX
  5
2C4
330
2BC
100
AcDbEntity
  8
001
370
    50
100
AcDbVertex
100
AcDb2dVertex
 10
229.731334
 20
133.104507
 30
0.0
  0
VERTEX
  5
2C5
330
2BC
100
AcDbEntity
  8
001
370
    50
100
AcDbVertex
100
AcDb2dVertex
 10
229.250864
 20
133.293933
 30
0.0
  0
VERTEX
  5
2C6
330
2BC
100
AcDbEntity
  8
001
370
    50
100
AcDbVertex
100
AcDb2dVertex
 10
228.765668
 20
133.470849
 30
0.0
  0
VERTEX
  5
2C7
330
2BC
100
AcDbEntity
  8
001
370
    50
100
AcDbVertex
100
AcDb2dVertex
 10
228.2624
 20
133.63974
 30
0.0
  0
VERTEX
  5
2C8
330
2BC
100
AcDbEntity
  8
001
370
    50
100
AcDbVertex
100
AcDb2dVertex
 10
227.754958
 20
133.795673
 30
0.0
  0
VERTEX
  5
2C9
330
2BC
100
AcDbEntity
  8
001
370
    50
100
AcDbVertex
100
AcDb2dVertex
 10
227.23388
 20
133.941434
 30
0.0
  0
VERTEX
  5
2CA
330
2BC
100
AcDbEntity
  8
001
370
    50
100
AcDbVertex
100
AcDb2dVertex
 10
226.709253
 20
134.073849
 30
0.0
  0
VERTEX
  5
2CB
330
2BC
100
AcDbEntity
  8
001
370
    50
100
AcDbVertex
100
AcDb2dVertex
 10
226.17541
 20
134.194062
 30
0.0
  0
VERTEX
  5
2CC
330
2BC
100
AcDbEntity
  8
001
370
    50
100
AcDbVertex
100
AcDb2dVertex
 10
225.638601
 20
134.300244
 30
0.0
  0
VERTEX
  5
2CD
330
2BC
100
AcDbEntity
  8
001
370
    50
100
AcDbVertex
100
AcDb2dVertex
 10
225.053265
 20
134.399352
 30
0.0
  0
VERTEX
  5
2CE
330
2BC
100
AcDbEntity
  8
001
370
    50
100
AcDbVertex
100
AcDb2dVertex
 10
224.465357
 20
134.48192
 30
0.0
  0
VERTEX
  5
2CF
330
2BC
100
AcDbEntity
  8
001
370
    50
100
AcDbVertex
100
AcDb2dVertex
 10
223.869153
 20
134.548838
 30
0.0
  0
VERTEX
  5
2D0
330
2BC
100
AcDbEntity
  8
001
370
    50
100
AcDbVertex
100
AcDb2dVertex
 10
223.271334
 20
134.599294
 30
0.0
  0
VERTEX
  5
2D1
330
2BC
100
AcDbEntity
  8
001
370
    50
100
AcDbVertex
100
AcDb2dVertex
 10
222.669926
 20
134.633476
 30
0.0
  0
VERTEX
  5
2D2
330
2BC
100
AcDbEntity
  8
001
370
    50
100
AcDbVertex
100
AcDb2dVertex
 10
222.067803
 20
134.651089
 30
0.0
  0
VERTEX
  5
2D3
330
2BC
100
AcDbEntity
  8
001
370
    50
100
AcDbVertex
100
AcDb2dVertex
 10
221.466808
 20
134.652017
 30
0.0
  0
VERTEX
  5
2D4
330
2BC
100
AcDbEntity
  8
001
370
    50
100
AcDbVertex
100
AcDb2dVertex
 10
220.866031
 20
134.636025
 30
0.0
  0
VERTEX
  5
2D5
330
2BC
100
AcDbEntity
  8
001
370
    50
100
AcDbVertex
100
AcDb2dVertex
 10
220.228972
 20
134.600307
 30
0.0
  0
VERTEX
  5
2D6
330
2BC
100
AcDbEntity
  8
001
370
    50
100
AcDbVertex
100
AcDb2dVertex
 10
219.593242
 20
134.545679
 30
0.0
  0
VERTEX
  5
2D7
330
2BC
100
AcDbEntity
  8
001
370
    50
100
AcDbVertex
100
AcDb2dVertex
 10
218.960949
 20
134.472845
 30
0.0
  0
VERTEX
  5
2D8
330
2BC
100
AcDbEntity
  8
001
370
    50
100
AcDbVertex
100
AcDb2dVertex
 10
218.331003
 20
134.382001
 30
0.0
  0
VERTEX
  5
2D9
330
2BC
100
AcDbEntity
  8
001
370
    50
100
AcDbVertex
100
AcDb2dVertex
 10
217.709894
 20
134.274532
 30
0.0
  0
VERTEX
  5
2DA
330
2BC
100
AcDbEntity
  8
001
370
    50
100
AcDbVertex
100
AcDb2dVertex
 10
217.091986
 20
134.14986
 30
0.0
  0
VERTEX
  5
2DB
330
2BC
100
AcDbEntity
  8
001
370
    50
100
AcDbVertex
100
AcDb2dVertex
 10
216.488278
 20
134.010599
 30
0.0
  0
VERTEX
  5
2DC
330
2BC
100
AcDbEntity
  8
001
370
    50
100
AcDbVertex
100
AcDb2dVertex
 10
215.888863
 20
133.854127
 30
0.0
  0
VERTEX
  5
2DD
330
2BC
100
AcDbEntity
  8
001
370
    50
100
AcDbVertex
100
AcDb2dVertex
 10
215.813739
 20
133.833193
 30
0.0
  0
VERTEX
  5
2DE
330
2BC
100
AcDbEntity
  8
001
370
    50
100
AcDbVertex
100
AcDb2dVertex
 10
215.738655
 20
133.812116
 30
0.0
  0
SEQEND
  5
2BD
330
2BC
100
AcDbEntity
  8
001
370
    50
  0
POLYLINE
  5
2DF
330
1F
100
AcDbEntity
  8
001
370
    50
100
AcDb2dPolyline
 66
     1
 10
0.0
 20
0.0
 30
0.0
  0
VERTEX
  5
2E1
330
2DF
100
AcDbEntity
  8
001
370
    50
100
AcDbVertex
100
AcDb2dVertex
 10
232.123775
 20
131.188435
 30
0.0
  0
VERTEX
  5
2E2
330
2DF
100
AcDbEntity
  8
001
370
    50
100
AcDbVertex
100
AcDb2dVertex
 10
232.228692
 20
130.950425
 30
0.0
  0
VERTEX
  5
2E3
330
2DF
100
AcDbEntity
  8
001
370
    50
100
AcDbVertex
100
AcDb2dVertex
 10
232.336986
 20
130.713935
 30
0.0
  0
VERTEX
  5
2E4
330
2DF
100
AcDbEntity
  8
001
370
    50
100
AcDbVertex
100
AcDb2dVertex
 10
232.446142
 20
130.491142
 30
0.0
  0
VERTEX
  5
2E5
330
2DF
100
AcDbEntity
  8
001
370
    50
100
AcDbVertex
100
AcDb2dVertex
 10
232.562219
 20
130.271941
 30
0.0
  0
VERTEX
  5
2E6
330
2DF
100
AcDbEntity
  8
001
370
    50
100
AcDbVertex
100
AcDb2dVertex
 10
232.796044
 20
129.874612
 30
0.0
  0
VERTEX
  5
2E7
330
2DF
100
AcDbEntity
  8
001
370
    50
100
AcDbVertex
100
AcDb2dVertex
 10
233.043178
 20
129.484929
 30
0.0
  0
SEQEND
  5
2E0
330
2DF
100
AcDbEntity
  8
001
370
    50
  0
POLYLINE
  5
2E8
330
1F
100
AcDbEntity
  8
001
370
    50
100
AcDb2dPolyline
 66
     1
 10
0.0
 20
0.0
 30
0.0
  0
VERTEX
  5
2EA
330
2E8
100
AcDbEntity
  8
001
370
    50
100
AcDbVertex
100
AcDb2dVertex
 10
222.171523
 20
139.551886
 30
0.0
  0
VERTEX
  5
2EB
330
2E8
100
AcDbEntity
  8
001
370
    50
100
AcDbVertex
100
AcDb2dVertex
 10
222.779009
 20
139.360143
 30
0.0
  0
VERTEX
  5
2EC
330
2E8
100
AcDbEntity
  8
001
370
    50
100
AcDbVertex
100
AcDb2dVertex
 10
223.380587
 20
139.151959
 30
0.0
  0
VERTEX
  5
2ED
330
2E8
100
AcDbEntity
  8
001
370
    50
100
AcDbVertex
100
AcDb2dVertex
 10
223.964507
 20
138.917522
 30
0.0
  0
VERTEX
  5
2EE
330
2E8
100
AcDbEntity
  8
001
370
    50
100
AcDbVertex
100
AcDb2dVertex
 10
224.537325
 20
138.656287
 30
0.0
  0
VERTEX
  5
2EF
330
2E8
100
AcDbEntity
  8
001
370
    50
100
AcDbVertex
100
AcDb2dVertex
 10
225.137182
 20
138.352578
 30
0.0
  0
VERTEX
  5
2F0
330
2E8
100
AcDbEntity
  8
001
370
    50
100
AcDbVertex
100
AcDb2dVertex
 10
225.723875
 20
138.024475
 30
0.0
  0
VERTEX
  5
2F1
330
2E8
100
AcDbEntity
  8
001
370
    50
100
AcDbVertex
100
AcDb2dVertex
 10
226.285382
 20
137.679471
 30
0.0
  0
VERTEX
  5
2F2
330
2E8
100
AcDbEntity
  8
001
370
    50
100
AcDbVertex
100
AcDb2dVertex
 10
226.832856
 20
137.312504
 30
0.0
  0
VERTEX
  5
2F3
330
2E8
100
AcDbEntity
  8
001
370
    50
100
AcDbVertex
100
AcDb2dVertex
 10
227.349771
 20
136.936928
 30
0.0
  0
VERTEX
  5
2F4
330
2E8
100
AcDbEntity
  8
001
370
    50
100
AcDbVertex
100
AcDb2dVertex
 10
227.852369
 20
136.542469
 30
0.0
  0
VERTEX
  5
2F5
330
2E8
100
AcDbEntity
  8
001
370
    50
100
AcDbVertex
100
AcDb2dVertex
 10
228.250882
 20
136.207419
 30
0.0
  0
VERTEX
  5
2F6
330
2E8
100
AcDbEntity
  8
001
370
    50
100
AcDbVertex
100
AcDb2dVertex
 10
228.639196
 20
135.860607
 30
0.0
  0
VERTEX
  5
2F7
330
2E8
100
AcDbEntity
  8
001
370
    50
100
AcDbVertex
100
AcDb2dVertex
 10
229.004993
 20
135.514239
 30
0.0
  0
VERTEX
  5
2F8
330
2E8
100
AcDbEntity
  8
001
370
    50
100
AcDbVertex
100
AcDb2dVertex
 10
229.360699
 20
135.157517
 30
0.0
  0
VERTEX
  5
2F9
330
2E8
100
AcDbEntity
  8
001
370
    50
100
AcDbVertex
100
AcDb2dVertex
 10
229.691871
 20
134.806009
 30
0.0
  0
VERTEX
  5
2FA
330
2E8
100
AcDbEntity
  8
001
370
    50
100
AcDbVertex
100
AcDb2dVertex
 10
230.012941
 20
134.445258
 30
0.0
  0
VERTEX
  5
2FB
330
2E8
100
AcDbEntity
  8
001
370
    50
100
AcDbVertex
100
AcDb2dVertex
 10
230.30754
 20
134.094719
 30
0.0
  0
VERTEX
  5
2FC
330
2E8
100
AcDbEntity
  8
001
370
    50
100
AcDbVertex
100
AcDb2dVertex
 10
230.591985
 20
133.735887
 30
0.0
  0
VERTEX
  5
2FD
330
2E8
100
AcDbEntity
  8
001
370
    50
100
AcDbVertex
100
AcDb2dVertex
 10
230.838764
 20
133.405744
 30
0.0
  0
VERTEX
  5
2FE
330
2E8
100
AcDbEntity
  8
001
370
    50
100
AcDbVertex
100
AcDb2dVertex
 10
231.075974
 20
133.068702
 30
0.0
  0
VERTEX
  5
2FF
330
2E8
100
AcDbEntity
  8
001
370
    50
100
AcDbVertex
100
AcDb2dVertex
 10
231.289644
 20
132.745397
 30
0.0
  0
VERTEX
  5
300
330
2E8
100
AcDbEntity
  8
001
370
    50
100
AcDbVertex
100
AcDb2dVertex
 10
231.493984
 20
132.41603
 30
0.0
  0
VERTEX
  5
301
330
2E8
100
AcDbEntity
  8
001
370
    50
100
AcDbVertex
100
AcDb2dVertex
 10
231.67484
 20
132.1044
 30
0.0
  0
VERTEX
  5
302
330
2E8
100
AcDbEntity
  8
001
370
    50
100
AcDbVertex
100
AcDb2dVertex
 10
231.843942
 20
131.786423
 30
0.0
  0
VERTEX
  5
303
330
2E8
100
AcDbEntity
  8
001
370
    50
100
AcDbVertex
100
AcDb2dVertex
 10
231.98708
 20
131.489025
 30
0.0
  0
VERTEX
  5
304
330
2E8
100
AcDbEntity
  8
001
370
    50
100
AcDbVertex
100
AcDb2dVertex
 10
232.123775
 20
131.188435
 30
0.0
  0
SEQEND
  5
2E9
330
2E8
100
AcDbEntity
  8
001
370
    50
  0
LINE
  5
305
330
1F
100
AcDbEntity
  8
001
370
    50
100
AcDbLine
 10
221.076523
 20
139.912416
 30
0.0
 11
222.171523
 21
139.551886
 31
0.0
  0
LINE
  5
306
330
1F
100
AcDbEntity
  8
001
370
    50
100
AcDbLine
 10
219.981523
 20
140.276429
 30
0.0
 11
221.076523
 21
139.912416
 31
0.0
  0
LINE
  5
307
330
1F
100
AcDbEntity
  8
001
370
    50
100
AcDbLine
 10
218.886523
 20
140.643816
 30
0.0
 11
219.981523
 21
140.276429
 31
0.0
  0
LINE
  5
308
330
1F
100
AcDbEntity
  8
001
370
    50
100
AcDbLine
 10
217.791523
 20
141.014464
 30
0.0
 11
218.886523
 21
140.643816
 31
0.0
  0
LINE
  5
309
330
1F
100
AcDbEntity
  8
001
370
    50
100
AcDbLine
 10
216.696523
 20
141.38826
 30
0.0
 11
217.791523
 21
141.014464
 31
0.0
  0
LINE
  5
30A
330
1F
100
AcDbEntity
  8
001
370
    50
100
AcDbLine
 10
215.601523
 20
141.765091
 30
0.0
 11
216.696523
 21
141.38826
 31
0.0
  0
LINE
  5
30B
330
1F
100
AcDbEntity
  8
001
370
    50
100
AcDbLine
 10
214.506523
 20
142.14484
 30
0.0
 11
215.601523
 21
141.765091
 31
0.0
  0
LINE
  5
30C
330
1F
100
AcDbEntity
  8
001
370
    50
100
AcDbLine
 10
213.411523
 20
142.527394
 30
0.0
 11
214.506523
 21
142.14484
 31
0.0
  0
LINE
  5
30D
330
1F
100
AcDbEntity
  8
001
370
    50
100
AcDbLine
 10
212.316523
 20
142.912635
 30
0.0
 11
213.411523
 21
142.527394
 31
0.0
  0
LINE
  5
30E
330
1F
100
AcDbEntity
  8
001
370
    50
100
AcDbLine
 10
211.221523
 20
143.300446
 30
0.0
 11
212.316523
 21
142.912635
 31
0.0
  0
LINE
  5
30F
330
1F
100
AcDbEntity
  8
001
370
    50
100
AcDbLine
 10
210.126523
 20
143.690709
 30
0.0
 11
211.221523
 21
143.300446
 31
0.0
  0
LINE
  5
310
330
1F
100
AcDbEntity
  8
001
370
    50
100
AcDbLine
 10
209.031523
 20
144.083305
 30
0.0
 11
210.126523
 21
143.690709
 31
0.0
  0
LINE
  5
311
330
1F
100
AcDbEntity
  8
001
370
    50
100
AcDbLine
 10
207.936523
 20
144.478114
 30
0.0
 11
209.031523
 21
144.083305
 31
0.0
  0
LINE
  5
312
330
1F
100
AcDbEntity
  8
001
370
    50
100
AcDbLine
 10
206.841523
 20
144.875016
 30
0.0
 11
207.936523
 21
144.478114
 31
0.0
  0
LINE
  5
313
330
1F
100
AcDbEntity
  8
001
370
    50
100
AcDbLine
 10
205.746523
 20
145.27389
 30
0.0
 11
206.841523
 21
144.875016
 31
0.0
  0
LINE
  5
314
330
1F
100
AcDbEntity
  8
001
370
    50
100
AcDbLine
 10
204.651523
 20
145.674615
 30
0.0
 11
205.746523
 21
145.27389
 31
0.0
  0
LINE
  5
315
330
1F
100
AcDbEntity
  8
001
370
    50
100
AcDbLine
 10
203.556523
 20
146.077069
 30
0.0
 11
204.651523
 21
145.674615
 31
0.0
  0
LINE
  5
316
330
1F
100
AcDbEntity
  8
001
370
    50
100
AcDbLine
 10
202.461523
 20
146.481129
 30
0.0
 11
203.556523
 21
146.077069
 31
0.0
  0
LINE
  5
317
330
1F
100
AcDbEntity
  8
001
370
    50
100
AcDbLine
 10
201.366523
 20
146.886672
 30
0.0
 11
202.461523
 21
146.481129
 31
0.0
  0
LINE
  5
318
330
1F
100
AcDbEntity
  8
001
370
    50
100
AcDbLine
 10
200.271523
 20
147.293574
 30
0.0
 11
201.366523
 21
146.886672
 31
0.0
  0
LINE
  5
319
330
1F
100
AcDbEntity
  8
001
370
    50
100
AcDbLine
 10
199.176523
 20
147.701712
 30
0.0
 11
200.271523
 21
147.293574
 31
0.0
  0
LINE
  5
31A
330
1F
100
AcDbEntity
  8
001
370
    50
100
AcDbLine
 10
198.081523
 20
148.11096
 30
0.0
 11
199.176523
 21
147.701712
 31
0.0
  0
LINE
  5
31B
330
1F
100
AcDbEntity
  8
001
370
    50
100
AcDbLine
 10
196.986523
 20
148.521196
 30
0.0
 11
198.081523
 21
148.11096
 31
0.0
  0
LINE
  5
31C
330
1F
100
AcDbEntity
  8
001
370
    50
100
AcDbLine
 10
195.891523
 20
148.932293
 30
0.0
 11
196.986523
 21
148.521196
 31
0.0
  0
POLYLINE
  5
31D
330
1F
100
AcDbEntity
  8
001
370
    50
100
AcDb2dPolyline
 66
     1
 10
0.0
 20
0.0
 30
0.0
  0
VERTEX
  5
31F
330
31D
100
AcDbEntity
  8
001
370
    50
100
AcDbVertex
100
AcDb2dVertex
 10
194.796523
 20
149.344126
 30
0.0
  0
VERTEX
  5
320
330
31D
100
AcDbEntity
  8
001
370
    50
100
AcDbVertex
100
AcDb2dVertex
 10
194.804899
 20
149.341407
 30
0.0
  0
VERTEX
  5
321
330
31D
100
AcDbEntity
  8
001
370
    50
100
AcDbVertex
100
AcDb2dVertex
 10
194.813274
 20
149.338685
 30
0.0
  0
VERTEX
  5
322
330
31D
100
AcDbEntity
  8
001
370
    50
100
AcDbVertex
100
AcDb2dVertex
 10
195.355662
 20
149.144797
 30
0.0
  0
VERTEX
  5
323
330
31D
100
AcDbEntity
  8
001
370
    50
100
AcDbVertex
100
AcDb2dVertex
 10
195.891523
 20
148.932293
 30
0.0
  0
SEQEND
  5
31E
330
31D
100
AcDbEntity
  8
001
370
    50
  0
LINE
  5
324
330
1F
100
AcDbEntity
  8
001
370
    50
100
AcDbLine
 10
193.701523
 20
149.75657
 30
0.0
 11
194.796523
 21
149.344126
 31
0.0
  0
LINE
  5
325
330
1F
100
AcDbEntity
  8
001
370
    50
100
AcDbLine
 10
192.606523
 20
150.169499
 30
0.0
 11
193.701523
 21
149.75657
 31
0.0
  0
LINE
  5
326
330
1F
100
AcDbEntity
  8
001
370
    50
100
AcDbLine
 10
191.511523
 20
150.582788
 30
0.0
 11
192.606523
 21
150.169499
 31
0.0
  0
LINE
  5
327
330
1F
100
AcDbEntity
  8
001
370
    50
100
AcDbLine
 10
190.809281
 20
150.861303
 30
0.0
 11
191.511523
 21
150.582788
 31
0.0
  0
LINE
  5
328
330
1F
100
AcDbEntity
  8
001
370
    50
100
AcDbLine
 10
190.809281
 20
175.049534
 30
0.0
 11
185.343178
 21
169.349534
 31
0.0
  0
LINE
  5
329
330
1F
100
AcDbEntity
  8
001
370
    50
100
AcDbLine
 10
190.417463
 20
151.319719
 30
0.0
 11
190.809281
 21
150.861303
 31
0.0
  0
POLYLINE
  5
32A
330
1F
100
AcDbEntity
  8
001
370
    50
100
AcDb2dPolyline
 66
     1
 10
0.0
 20
0.0
 30
0.0
  0
VERTEX
  5
32C
330
32A
100
AcDbEntity
  8
001
370
    50
100
AcDbVertex
100
AcDb2dVertex
 10
189.298437
 20
152.530925
 30
0.0
  0
VERTEX
  5
32D
330
32A
100
AcDbEntity
  8
001
370
    50
100
AcDbVertex
100
AcDb2dVertex
 10
189.586104
 20
152.24583
 30
0.0
  0
VERTEX
  5
32E
330
32A
100
AcDbEntity
  8
001
370
    50
100
AcDbVertex
100
AcDb2dVertex
 10
189.866823
 20
151.95431
 30
0.0
  0
VERTEX
  5
32F
330
32A
100
AcDbEntity
  8
001
370
    50
100
AcDbVertex
100
AcDb2dVertex
 10
190.145883
 20
151.640475
 30
0.0
  0
VERTEX
  5
330
330
32A
100
AcDbEntity
  8
001
370
    50
100
AcDbVertex
100
AcDb2dVertex
 10
190.417463
 20
151.319719
 30
0.0
  0
SEQEND
  5
32B
330
32A
100
AcDbEntity
  8
001
370
    50
  0
POLYLINE
  5
331
330
1F
100
AcDbEntity
  8
001
370
    50
100
AcDb2dPolyline
 66
     1
 10
0.0
 20
0.0
 30
0.0
  0
VERTEX
  5
333
330
331
100
AcDbEntity
  8
001
370
    50
100
AcDbVertex
100
AcDb2dVertex
 10
188.140723
 20
153.582711
 30
0.0
  0
VERTEX
  5
334
330
331
100
AcDbEntity
  8
001
370
    50
100
AcDbVertex
100
AcDb2dVertex
 10
188.391208
 20
153.378538
 30
0.0
  0
VERTEX
  5
335
330
331
100
AcDbEntity
  8
001
370
    50
100
AcDbVertex
100
AcDb2dVertex
 10
188.636871
 20
153.168987
 30
0.0
  0
VERTEX
  5
336
330
331
100
AcDbEntity
  8
001
370
    50
100
AcDbVertex
100
AcDb2dVertex
 10
188.972536
 20
152.855399
 30
0.0
  0
VERTEX
  5
337
330
331
100
AcDbEntity
  8
001
370
    50
100
AcDbVertex
100
AcDb2dVertex
 10
189.298437
 20
152.530925
 30
0.0
  0
SEQEND
  5
332
330
331
100
AcDbEntity
  8
001
370
    50
  0
POLYLINE
  5
338
330
1F
100
AcDbEntity
  8
001
370
    50
100
AcDb2dPolyline
 66
     1
 10
0.0
 20
0.0
 30
0.0
  0
VERTEX
  5
33A
330
338
100
AcDbEntity
  8
001
370
    50
100
AcDbVertex
100
AcDb2dVertex
 10
186.944936
 20
154.467503
 30
0.0
  0
VERTEX
  5
33B
330
338
100
AcDbEntity
  8
001
370
    50
100
AcDbVertex
100
AcDb2dVertex
 10
187.250842
 20
154.266586
 30
0.0
  0
VERTEX
  5
33C
330
338
100
AcDbEntity
  8
001
370
    50
100
AcDbVertex
100
AcDb2dVertex
 10
187.550288
 20
154.056925
 30
0.0
  0
VERTEX
  5
33D
330
338
100
AcDbEntity
  8
001
370
    50
100
AcDbVertex
100
AcDb2dVertex
 10
187.848968
 20
153.824504
 30
0.0
  0
VERTEX
  5
33E
330
338
100
AcDbEntity
  8
001
370
    50
100
AcDbVertex
100
AcDb2dVertex
 10
188.140723
 20
153.582711
 30
0.0
  0
SEQEND
  5
339
330
338
100
AcDbEntity
  8
001
370
    50
  0
POLYLINE
  5
33F
330
1F
100
AcDbEntity
  8
001
370
    50
100
AcDb2dPolyline
 66
     1
 10
0.0
 20
0.0
 30
0.0
  0
VERTEX
  5
341
330
33F
100
AcDbEntity
  8
001
370
    50
100
AcDbVertex
100
AcDb2dVertex
 10
185.711659
 20
155.17833
 30
0.0
  0
VERTEX
  5
342
330
33F
100
AcDbEntity
  8
001
370
    50
100
AcDbVertex
100
AcDb2dVertex
 10
186.026235
 20
155.022082
 30
0.0
  0
VERTEX
  5
343
330
33F
100
AcDbEntity
  8
001
370
    50
100
AcDbVertex
100
AcDb2dVertex
 10
186.335029
 20
154.855788
 30
0.0
  0
VERTEX
  5
344
330
33F
100
AcDbEntity
  8
001
370
    50
100
AcDbVertex
100
AcDb2dVertex
 10
186.64305
 20
154.666976
 30
0.0
  0
VERTEX
  5
345
330
33F
100
AcDbEntity
  8
001
370
    50
100
AcDbVertex
100
AcDb2dVertex
 10
186.944936
 20
154.467503
 30
0.0
  0
SEQEND
  5
340
330
33F
100
AcDbEntity
  8
001
370
    50
  0
LINE
  5
346
330
1F
100
AcDbEntity
  8
001
370
    50
100
AcDbLine
 10
185.343178
 20
155.362318
 30
0.0
 11
185.711659
 21
155.17833
 31
0.0
  0
POLYLINE
  5
347
330
1F
100
AcDbEntity
  8
001
  6
DASHED
370
    50
100
AcDb2dPolyline
 66
     1
 10
0.0
 20
0.0
 30
0.0
  0
VERTEX
  5
349
330
347
100
AcDbEntity
  8
001
  6
DASHED
370
    50
100
AcDbVertex
100
AcDb2dVertex
 10
190.468626
 20
151.325791
 30
0.0
  0
VERTEX
  5
34A
330
347
100
AcDbEntity
  8
001
  6
DASHED
370
    50
100
AcDbVertex
100
AcDb2dVertex
 10
190.465085
 20
151.318755
 30
0.0
  0
VERTEX
  5
34B
330
347
100
AcDbEntity
  8
001
  6
DASHED
370
    50
100
AcDbVertex
100
AcDb2dVertex
 10
190.459914
 20
151.308468
 30
0.0
  0
VERTEX
  5
34C
330
347
100
AcDbEntity
  8
001
  6
DASHED
370
    50
100
AcDbVertex
100
AcDb2dVertex
 10
190.454737
 20
151.298151
 30
0.0
  0
VERTEX
  5
34D
330
347
100
AcDbEntity
  8
001
  6
DASHED
370
    50
100
AcDbVertex
100
AcDb2dVertex
 10
190.451199
 20
151.29109
 30
0.0
  0
SEQEND
  5
348
330
347
100
AcDbEntity
  8
001
  6
DASHED
370
    50
  0
LINE
  5
34E
330
1F
100
AcDbEntity
  8
001
370
    50
100
AcDbLine
 10
184.569111
 20
155.568984
 30
0.0
 11
185.343178
 21
155.362318
 31
0.0
  0
LINE
  5
34F
330
1F
100
AcDbEntity
  8
001
370
    50
100
AcDbLine
 10
185.343178
 20
169.349534
 30
0.0
 11
161.543178
 21
169.349534
 31
0.0
  0
LINE
  5
350
330
1F
100
AcDbEntity
  8
001
370
    50
100
AcDbLine
 10
183.474111
 20
155.873732
 30
0.0
 11
184.569111
 21
155.568984
 31
0.0
  0
LINE
  5
351
330
1F
100
AcDbEntity
  8
001
370
    50
100
AcDbLine
 10
182.379111
 20
156.177102
 30
0.0
 11
183.474111
 21
155.873732
 31
0.0
  0
LINE
  5
352
330
1F
100
AcDbEntity
  8
001
370
    50
100
AcDbLine
 10
181.284111
 20
156.479001
 30
0.0
 11
182.379111
 21
156.177102
 31
0.0
  0
LINE
  5
353
330
1F
100
AcDbEntity
  8
001
370
    50
100
AcDbLine
 10
180.189111
 20
156.779337
 30
0.0
 11
181.284111
 21
156.479001
 31
0.0
  0
LINE
  5
354
330
1F
100
AcDbEntity
  8
001
370
    50
100
AcDbLine
 10
179.094111
 20
157.07802
 30
0.0
 11
180.189111
 21
156.779337
 31
0.0
  0
LINE
  5
355
330
1F
100
AcDbEntity
  8
001
370
    50
100
AcDbLine
 10
177.999111
 20
157.374957
 30
0.0
 11
179.094111
 21
157.07802
 31
0.0
  0
LINE
  5
356
330
1F
100
AcDbEntity
  8
001
370
    50
100
AcDbLine
 10
176.904111
 20
157.670059
 30
0.0
 11
177.999111
 21
157.374957
 31
0.0
  0
LINE
  5
357
330
1F
100
AcDbEntity
  8
001
370
    50
100
AcDbLine
 10
175.809111
 20
157.963236
 30
0.0
 11
176.904111
 21
157.670059
 31
0.0
  0
LINE
  5
358
330
1F
100
AcDbEntity
  8
001
370
    50
100
AcDbLine
 10
174.714111
 20
158.254399
 30
0.0
 11
175.809111
 21
157.963236
 31
0.0
  0
LINE
  5
359
330
1F
100
AcDbEntity
  8
001
370
    50
100
AcDbLine
 10
173.619111
 20
158.543458
 30
0.0
 11
174.714111
 21
158.254399
 31
0.0
  0
LINE
  5
35A
330
1F
100
AcDbEntity
  8
001
370
    50
100
AcDbLine
 10
172.524111
 20
158.830325
 30
0.0
 11
173.619111
 21
158.543458
 31
0.0
  0
LINE
  5
35B
330
1F
100
AcDbEntity
  8
001
370
    50
100
AcDbLine
 10
171.429111
 20
159.114914
 30
0.0
 11
172.524111
 21
158.830325
 31
0.0
  0
LINE
  5
35C
330
1F
100
AcDbEntity
  8
001
370
    50
100
AcDbLine
 10
170.334111
 20
159.397138
 30
0.0
 11
171.429111
 21
159.114914
 31
0.0
  0
LINE
  5
35D
330
1F
100
AcDbEntity
  8
001
370
    50
100
AcDbLine
 10
169.239111
 20
159.67691
 30
0.0
 11
170.334111
 21
159.397138
 31
0.0
  0
LINE
  5
35E
330
1F
100
AcDbEntity
  8
001
370
    50
100
AcDbLine
 10
168.144111
 20
159.954146
 30
0.0
 11
169.239111
 21
159.67691
 31
0.0
  0
LINE
  5
35F
330
1F
100
AcDbEntity
  8
001
370
    50
100
AcDbLine
 10
167.049111
 20
160.22876
 30
0.0
 11
168.144111
 21
159.954146
 31
0.0
  0
LINE
  5
360
330
1F
100
AcDbEntity
  8
001
370
    50
100
AcDbLine
 10
165.954111
 20
160.50067
 30
0.0
 11
167.049111
 21
160.22876
 31
0.0
  0
LINE
  5
361
330
1F
100
AcDbEntity
  8
001
370
    50
100
AcDbLine
 10
164.859111
 20
160.769792
 30
0.0
 11
165.954111
 21
160.50067
 31
0.0
  0
LINE
  5
362
330
1F
100
AcDbEntity
  8
001
370
    50
100
AcDbLine
 10
163.764111
 20
161.036045
 30
0.0
 11
164.859111
 21
160.769792
 31
0.0
  0
LINE
  5
363
330
1F
100
AcDbEntity
  8
001
370
    50
100
AcDbLine
 10
162.669111
 20
161.299347
 30
0.0
 11
163.764111
 21
161.036045
 31
0.0
  0
LINE
  5
364
330
1F
100
AcDbEntity
  8
001
370
    50
100
AcDbLine
 10
161.574111
 20
161.559619
 30
0.0
 11
162.669111
 21
161.299347
 31
0.0
  0
LINE
  5
365
330
1F
100
AcDbEntity
  8
001
370
    50
100
AcDbLine
 10
161.543178
 20
161.568
 30
0.0
 11
161.574111
 21
161.559619
 31
0.0
  0
POLYLINE
  5
366
330
1F
100
AcDbEntity
  8
001
370
    50
100
AcDb2dPolyline
 66
     1
 10
0.0
 20
0.0
 30
0.0
  0
VERTEX
  5
368
330
366
100
AcDbEntity
  8
001
370
    50
100
AcDbVertex
100
AcDb2dVertex
 10
172.593499
 20
133.852348
 30
0.0
  0
VERTEX
  5
369
330
366
100
AcDbEntity
  8
001
370
    50
100
AcDbVertex
100
AcDb2dVertex
 10
172.910876
 20
133.703197
 30
0.0
  0
VERTEX
  5
36A
330
366
100
AcDbEntity
  8
001
370
    50
100
AcDbVertex
100
AcDb2dVertex
 10
173.389799
 20
133.526394
 30
0.0
  0
VERTEX
  5
36B
330
366
100
AcDbEntity
  8
001
370
    50
100
AcDbVertex
100
AcDb2dVertex
 10
173.865138
 20
133.414474
 30
0.0
  0
VERTEX
  5
36C
330
366
100
AcDbEntity
  8
001
370
    50
100
AcDbVertex
100
AcDb2dVertex
 10
174.197048
 20
133.3667
 30
0.0
  0
SEQEND
  5
367
330
366
100
AcDbEntity
  8
001
370
    50
  0
LINE
  5
36D
330
1F
100
AcDbEntity
  8
001
370
    50
100
AcDbLine
 10
174.336904
 20
133.368276
 30
0.0
 11
174.197048
 21
133.3667
 31
0.0
  0
LINE
  5
36E
330
1F
100
AcDbEntity
  8
001
370
    50
100
AcDbLine
 10
175.431904
 20
133.385346
 30
0.0
 11
174.336904
 21
133.368276
 31
0.0
  0
LINE
  5
36F
330
1F
100
AcDbEntity
  8
001
370
    50
100
AcDbLine
 10
176.526904
 20
133.407888
 30
0.0
 11
175.431904
 21
133.385346
 31
0.0
  0
LINE
  5
370
330
1F
100
AcDbEntity
  8
001
370
    50
100
AcDbLine
 10
177.621904
 20
133.435896
 30
0.0
 11
176.526904
 21
133.407888
 31
0.0
  0
LINE
  5
371
330
1F
100
AcDbEntity
  8
001
370
    50
100
AcDbLine
 10
178.716904
 20
133.46936
 30
0.0
 11
177.621904
 21
133.435896
 31
0.0
  0
LINE
  5
372
330
1F
100
AcDbEntity
  8
001
370
    50
100
AcDbLine
 10
179.811904
 20
133.508271
 30
0.0
 11
178.716904
 21
133.46936
 31
0.0
  0
POLYLINE
  5
373
330
1F
100
AcDbEntity
  8
001
370
    50
100
AcDb2dPolyline
 66
     1
 10
0.0
 20
0.0
 30
0.0
  0
VERTEX
  5
375
330
373
100
AcDbEntity
  8
001
370
    50
100
AcDbVertex
100
AcDb2dVertex
 10
180.906904
 20
133.552617
 30
0.0
  0
VERTEX
  5
376
330
373
100
AcDbEntity
  8
001
370
    50
100
AcDbVertex
100
AcDb2dVertex
 10
180.556746
 20
133.539083
 30
0.0
  0
VERTEX
  5
377
330
373
100
AcDbEntity
  8
001
370
    50
100
AcDbVertex
100
AcDb2dVertex
 10
180.206609
 20
133.525033
 30
0.0
  0
VERTEX
  5
378
330
373
100
AcDbEntity
  8
001
370
    50
100
AcDbVertex
100
AcDb2dVertex
 10
180.009253
 20
133.516734
 30
0.0
  0
VERTEX
  5
379
330
373
100
AcDbEntity
  8
001
370
    50
100
AcDbVertex
100
AcDb2dVertex
 10
179.811904
 20
133.508271
 30
0.0
  0
SEQEND
  5
374
330
373
100
AcDbEntity
  8
001
370
    50
  0
POLYLINE
  5
37A
330
1F
100
AcDbEntity
  8
001
370
    50
100
AcDb2dPolyline
 66
     1
 10
0.0
 20
0.0
 30
0.0
  0
VERTEX
  5
37C
330
37A
100
AcDbEntity
  8
001
370
    50
100
AcDbVertex
100
AcDb2dVertex
 10
175.89895
 20
145.646093
 30
0.0
  0
VERTEX
  5
37D
330
37A
100
AcDbEntity
  8
001
370
    50
100
AcDbVertex
100
AcDb2dVertex
 10
175.920332
 20
145.899922
 30
0.0
  0
VERTEX
  5
37E
330
37A
100
AcDbEntity
  8
001
370
    50
100
AcDbVertex
100
AcDb2dVertex
 10
175.928304
 20
146.153836
 30
0.0
  0
VERTEX
  5
37F
330
37A
100
AcDbEntity
  8
001
370
    50
100
AcDbVertex
100
AcDb2dVertex
 10
175.911944
 20
146.411575
 30
0.0
  0
VERTEX
  5
380
330
37A
100
AcDbEntity
  8
001
370
    50
100
AcDbVertex
100
AcDb2dVertex
 10
175.872312
 20
146.667418
 30
0.0
  0
VERTEX
  5
381
330
37A
100
AcDbEntity
  8
001
370
    50
100
AcDbVertex
100
AcDb2dVertex
 10
175.82765
 20
146.862802
 30
0.0
  0
VERTEX
  5
382
330
37A
100
AcDbEntity
  8
001
370
    50
100
AcDbVertex
100
AcDb2dVertex
 10
175.769061
 20
147.053983
 30
0.0
  0
VERTEX
  5
383
330
37A
100
AcDbEntity
  8
001
370
    50
100
AcDbVertex
100
AcDb2dVertex
 10
175.695019
 20
147.241605
 30
0.0
  0
VERTEX
  5
384
330
37A
100
AcDbEntity
  8
001
370
    50
100
AcDbVertex
100
AcDb2dVertex
 10
175.612559
 20
147.426158
 30
0.0
  0
SEQEND
  5
37B
330
37A
100
AcDbEntity
  8
001
370
    50
  0
LINE
  5
385
330
1F
100
AcDbEntity
  8
001
370
    50
100
AcDbLine
 10
175.612559
 20
147.426158
 30
0.0
 11
175.545395
 21
147.548711
 31
0.0
  0
POLYLINE
  5
386
330
1F
100
AcDbEntity
  8
001
370
    50
100
AcDb2dPolyline
 66
     1
 10
0.0
 20
0.0
 30
0.0
  0
VERTEX
  5
388
330
386
100
AcDbEntity
  8
001
370
    50
100
AcDbVertex
100
AcDb2dVertex
 10
174.571668
 20
148.537967
 30
0.0
  0
VERTEX
  5
389
330
386
100
AcDbEntity
  8
001
370
    50
100
AcDbVertex
100
AcDb2dVertex
 10
174.310752
 20
148.67082
 30
0.0
  0
VERTEX
  5
38A
330
386
100
AcDbEntity
  8
001
370
    50
100
AcDbVertex
100
AcDb2dVertex
 10
174.041888
 20
148.782765
 30
0.0
  0
VERTEX
  5
38B
330
386
100
AcDbEntity
  8
001
370
    50
100
AcDbVertex
100
AcDb2dVertex
 10
173.9418
 20
148.81455
 30
0.0
  0
VERTEX
  5
38C
330
386
100
AcDbEntity
  8
001
370
    50
100
AcDbVertex
100
AcDb2dVertex
 10
173.840681
 20
148.843623
 30
0.0
  0
SEQEND
  5
387
330
386
100
AcDbEntity
  8
001
370
    50
  0
POLYLINE
  5
38D
330
1F
100
AcDbEntity
  8
001
370
    50
100
AcDb2dPolyline
 66
     1
 10
0.0
 20
0.0
 30
0.0
  0
VERTEX
  5
38F
330
38D
100
AcDbEntity
  8
001
370
    50
100
AcDbVertex
100
AcDb2dVertex
 10
173.840681
 20
148.843623
 30
0.0
  0
VERTEX
  5
390
330
38D
100
AcDbEntity
  8
001
370
    50
100
AcDbVertex
100
AcDb2dVertex
 10
173.67096
 20
148.880409
 30
0.0
  0
VERTEX
  5
391
330
38D
100
AcDbEntity
  8
001
370
    50
100
AcDbVertex
100
AcDb2dVertex
 10
173.500183
 20
148.910963
 30
0.0
  0
VERTEX
  5
392
330
38D
100
AcDbEntity
  8
001
370
    50
100
AcDbVertex
100
AcDb2dVertex
 10
173.32494
 20
148.93054
 30
0.0
  0
VERTEX
  5
393
330
38D
100
AcDbEntity
  8
001
370
    50
100
AcDbVertex
100
AcDb2dVertex
 10
173.148728
 20
148.938743
 30
0.0
  0
VERTEX
  5
394
330
38D
100
AcDbEntity
  8
001
370
    50
100
AcDbVertex
100
AcDb2dVertex
 10
173.117115
 20
148.93915
 30
0.0
  0
VERTEX
  5
395
330
38D
100
AcDbEntity
  8
001
370
    50
100
AcDbVertex
100
AcDb2dVertex
 10
173.085506
 20
148.939399
 30
0.0
  0
SEQEND
  5
38E
330
38D
100
AcDbEntity
  8
001
370
    50
  0
POLYLINE
  5
396
330
1F
100
AcDbEntity
  8
001
370
    50
100
AcDb2dPolyline
 66
     1
 10
0.0
 20
0.0
 30
0.0
  0
VERTEX
  5
398
330
396
100
AcDbEntity
  8
001
370
    50
100
AcDbVertex
100
AcDb2dVertex
 10
175.809111
 20
157.963236
 30
0.0
  0
VERTEX
  5
399
330
396
100
AcDbEntity
  8
001
370
    50
100
AcDbVertex
100
AcDb2dVertex
 10
175.807218
 20
157.963743
 30
0.0
  0
VERTEX
  5
39A
330
396
100
AcDbEntity
  8
001
370
    50
100
AcDbVertex
100
AcDb2dVertex
 10
175.804444
 20
157.964456
 30
0.0
  0
VERTEX
  5
39B
330
396
100
AcDbEntity
  8
001
370
    50
100
AcDbVertex
100
AcDb2dVertex
 10
175.80166
 20
157.96513
 30
0.0
  0
VERTEX
  5
39C
330
396
100
AcDbEntity
  8
001
370
    50
100
AcDbVertex
100
AcDb2dVertex
 10
175.79975
 20
157.965572
 30
0.0
  0
SEQEND
  5
397
330
396
100
AcDbEntity
  8
001
370
    50
  0
POLYLINE
  5
39D
330
1F
100
AcDbEntity
  8
001
370
    50
100
AcDb2dPolyline
 66
     1
 10
0.0
 20
0.0
 30
0.0
  0
VERTEX
  5
39F
330
39D
100
AcDbEntity
  8
001
370
    50
100
AcDbVertex
100
AcDb2dVertex
 10
172.755413
 20
148.921581
 30
0.0
  0
VERTEX
  5
3A0
330
39D
100
AcDbEntity
  8
001
370
    50
100
AcDbVertex
100
AcDb2dVertex
 10
172.484341
 20
148.876292
 30
0.0
  0
VERTEX
  5
3A1
330
39D
100
AcDbEntity
  8
001
370
    50
100
AcDbVertex
100
AcDb2dVertex
 10
172.21669
 20
148.816516
 30
0.0
  0
VERTEX
  5
3A2
330
39D
100
AcDbEntity
  8
001
370
    50
100
AcDbVertex
100
AcDb2dVertex
 10
172.037473
 20
148.760776
 30
0.0
  0
VERTEX
  5
3A3
330
39D
100
AcDbEntity
  8
001
370
    50
100
AcDbVertex
100
AcDb2dVertex
 10
171.862631
 20
148.692362
 30
0.0
  0
VERTEX
  5
3A4
330
39D
100
AcDbEntity
  8
001
370
    50
100
AcDbVertex
100
AcDb2dVertex
 10
171.690604
 20
148.611931
 30
0.0
  0
VERTEX
  5
3A5
330
39D
100
AcDbEntity
  8
001
370
    50
100
AcDbVertex
100
AcDb2dVertex
 10
171.521423
 20
148.525447
 30
0.0
  0
SEQEND
  5
39E
330
39D
100
AcDbEntity
  8
001
370
    50
  0
POLYLINE
  5
3A6
330
1F
100
AcDbEntity
  8
001
370
    50
100
AcDb2dPolyline
 66
     1
 10
0.0
 20
0.0
 30
0.0
  0
VERTEX
  5
3A8
330
3A6
100
AcDbEntity
  8
001
370
    50
100
AcDbVertex
100
AcDb2dVertex
 10
171.521423
 20
148.525447
 30
0.0
  0
VERTEX
  5
3A9
330
3A6
100
AcDbEntity
  8
001
370
    50
100
AcDbVertex
100
AcDb2dVertex
 10
171.483513
 20
148.503855
 30
0.0
  0
VERTEX
  5
3AA
330
3A6
100
AcDbEntity
  8
001
370
    50
100
AcDbVertex
100
AcDb2dVertex
 10
171.445831
 20
148.481886
 30
0.0
  0
VERTEX
  5
3AB
330
3A6
100
AcDbEntity
  8
001
370
    50
100
AcDbVertex
100
AcDb2dVertex
 10
171.379485
 20
148.441092
 30
0.0
  0
VERTEX
  5
3AC
330
3A6
100
AcDbEntity
  8
001
370
    50
100
AcDbVertex
100
AcDb2dVertex
 10
171.313864
 20
148.399094
 30
0.0
  0
SEQEND
  5
3A7
330
3A6
100
AcDbEntity
  8
001
370
    50
  0
POLYLINE
  5
3AD
330
1F
100
AcDbEntity
  8
001
370
    50
100
AcDb2dPolyline
 66
     1
 10
0.0
 20
0.0
 30
0.0
  0
VERTEX
  5
3AF
330
3AD
100
AcDbEntity
  8
001
370
    50
100
AcDbVertex
100
AcDb2dVertex
 10
170.361778
 20
148.361373
 30
0.0
  0
VERTEX
  5
3B0
330
3AD
100
AcDbEntity
  8
001
370
    50
100
AcDbVertex
100
AcDb2dVertex
 10
170.555133
 20
148.367589
 30
0.0
  0
VERTEX
  5
3B1
330
3AD
100
AcDbEntity
  8
001
370
    50
100
AcDbVertex
100
AcDb2dVertex
 10
170.837683
 20
148.377916
 30
0.0
  0
VERTEX
  5
3B2
330
3AD
100
AcDbEntity
  8
001
370
    50
100
AcDbVertex
100
AcDb2dVertex
 10
171.120437
 20
148.389985
 30
0.0
  0
VERTEX
  5
3B3
330
3AD
100
AcDbEntity
  8
001
370
    50
100
AcDbVertex
100
AcDb2dVertex
 10
171.313864
 20
148.399094
 30
0.0
  0
SEQEND
  5
3AE
330
3AD
100
AcDbEntity
  8
001
370
    50
  0
POLYLINE
  5
3B4
330
1F
100
AcDbEntity
  8
001
370
    50
100
AcDb2dPolyline
 66
     1
 10
0.0
 20
0.0
 30
0.0
  0
VERTEX
  5
3B6
330
3B4
100
AcDbEntity
  8
001
370
    50
100
AcDbVertex
100
AcDb2dVertex
 10
169.23895
 20
148.315828
 30
0.0
  0
VERTEX
  5
3B7
330
3B4
100
AcDbEntity
  8
001
370
    50
100
AcDbVertex
100
AcDb2dVertex
 10
169.466992
 20
148.323098
 30
0.0
  0
VERTEX
  5
3B8
330
3B4
100
AcDbEntity
  8
001
370
    50
100
AcDbVertex
100
AcDb2dVertex
 10
169.800221
 20
148.335427
 30
0.0
  0
VERTEX
  5
3B9
330
3B4
100
AcDbEntity
  8
001
370
    50
100
AcDbVertex
100
AcDb2dVertex
 10
170.133676
 20
148.350141
 30
0.0
  0
VERTEX
  5
3BA
330
3B4
100
AcDbEntity
  8
001
370
    50
100
AcDbVertex
100
AcDb2dVertex
 10
170.361778
 20
148.361373
 30
0.0
  0
SEQEND
  5
3B5
330
3B4
100
AcDbEntity
  8
001
370
    50
  0
POLYLINE
  5
3BB
330
1F
100
AcDbEntity
  8
001
370
    50
100
AcDb2dPolyline
 66
     1
 10
0.0
 20
0.0
 30
0.0
  0
VERTEX
  5
3BD
330
3BB
100
AcDbEntity
  8
001
370
    50
100
AcDbVertex
100
AcDb2dVertex
 10
168.116463
 20
148.271167
 30
0.0
  0
VERTEX
  5
3BE
330
3BB
100
AcDbEntity
  8
001
370
    50
100
AcDbVertex
100
AcDb2dVertex
 10
168.34442
 20
148.278286
 30
0.0
  0
VERTEX
  5
3BF
330
3BB
100
AcDbEntity
  8
001
370
    50
100
AcDbVertex
100
AcDb2dVertex
 10
168.677528
 20
148.290369
 30
0.0
  0
VERTEX
  5
3C0
330
3BB
100
AcDbEntity
  8
001
370
    50
100
AcDbVertex
100
AcDb2dVertex
 10
169.010902
 20
148.304803
 30
0.0
  0
VERTEX
  5
3C1
330
3BB
100
AcDbEntity
  8
001
370
    50
100
AcDbVertex
100
AcDb2dVertex
 10
169.23895
 20
148.315828
 30
0.0
  0
SEQEND
  5
3BC
330
3BB
100
AcDbEntity
  8
001
370
    50
  0
POLYLINE
  5
3C2
330
1F
100
AcDbEntity
  8
001
370
    50
100
AcDb2dPolyline
 66
     1
 10
0.0
 20
0.0
 30
0.0
  0
VERTEX
  5
3C4
330
3C2
100
AcDbEntity
  8
001
370
    50
100
AcDbVertex
100
AcDb2dVertex
 10
166.994271
 20
148.227365
 30
0.0
  0
VERTEX
  5
3C5
330
3C2
100
AcDbEntity
  8
001
370
    50
100
AcDbVertex
100
AcDb2dVertex
 10
167.222155
 20
148.234337
 30
0.0
  0
VERTEX
  5
3C6
330
3C2
100
AcDbEntity
  8
001
370
    50
100
AcDbVertex
100
AcDb2dVertex
 10
167.555156
 20
148.24618
 30
0.0
  0
VERTEX
  5
3C7
330
3C2
100
AcDbEntity
  8
001
370
    50
100
AcDbVertex
100
AcDb2dVertex
 10
167.88846
 20
148.260344
 30
0.0
  0
VERTEX
  5
3C8
330
3C2
100
AcDbEntity
  8
001
370
    50
100
AcDbVertex
100
AcDb2dVertex
 10
168.116463
 20
148.271167
 30
0.0
  0
SEQEND
  5
3C3
330
3C2
100
AcDbEntity
  8
001
370
    50
  0
POLYLINE
  5
3C9
330
1F
100
AcDbEntity
  8
001
370
    50
100
AcDb2dPolyline
 66
     1
 10
0.0
 20
0.0
 30
0.0
  0
VERTEX
  5
3CB
330
3C9
100
AcDbEntity
  8
001
370
    50
100
AcDbVertex
100
AcDb2dVertex
 10
166.073905
 20
148.190325
 30
0.0
  0
VERTEX
  5
3CC
330
3C9
100
AcDbEntity
  8
001
370
    50
100
AcDbVertex
100
AcDb2dVertex
 10
166.260829
 20
148.196571
 30
0.0
  0
VERTEX
  5
3CD
330
3C9
100
AcDbEntity
  8
001
370
    50
100
AcDbVertex
100
AcDb2dVertex
 10
166.533986
 20
148.206798
 30
0.0
  0
VERTEX
  5
3CE
330
3C9
100
AcDbEntity
  8
001
370
    50
100
AcDbVertex
100
AcDb2dVertex
 10
166.8073
 20
148.218564
 30
0.0
  0
VERTEX
  5
3CF
330
3C9
100
AcDbEntity
  8
001
370
    50
100
AcDbVertex
100
AcDb2dVertex
 10
166.994271
 20
148.227365
 30
0.0
  0
SEQEND
  5
3CA
330
3C9
100
AcDbEntity
  8
001
370
    50
  0
LINE
  5
3D0
330
1F
100
AcDbEntity
  8
001
370
    50
100
AcDbLine
 10
166.073905
 20
148.190325
 30
0.0
 11
165.870707
 21
148.178936
 31
0.0
  0
POLYLINE
  5
3D1
330
1F
100
AcDbEntity
  8
001
370
    50
100
AcDb2dPolyline
 66
     1
 10
0.0
 20
0.0
 30
0.0
  0
VERTEX
  5
3D3
330
3D1
100
AcDbEntity
  8
001
370
    50
100
AcDbVertex
100
AcDb2dVertex
 10
165.870707
 20
148.178936
 30
0.0
  0
VERTEX
  5
3D4
330
3D1
100
AcDbEntity
  8
001
370
    50
100
AcDbVertex
100
AcDb2dVertex
 10
165.573017
 20
148.134508
 30
0.0
  0
VERTEX
  5
3D5
330
3D1
100
AcDbEntity
  8
001
370
    50
100
AcDbVertex
100
AcDb2dVertex
 10
165.278098
 20
148.076763
 30
0.0
  0
VERTEX
  5
3D6
330
3D1
100
AcDbEntity
  8
001
370
    50
100
AcDbVertex
100
AcDb2dVertex
 10
164.98249
 20
147.993393
 30
0.0
  0
VERTEX
  5
3D7
330
3D1
100
AcDbEntity
  8
001
370
    50
100
AcDbVertex
100
AcDb2dVertex
 10
164.694171
 20
147.887062
 30
0.0
  0
VERTEX
  5
3D8
330
3D1
100
AcDbEntity
  8
001
370
    50
100
AcDbVertex
100
AcDb2dVertex
 10
164.683441
 20
147.882662
 30
0.0
  0
VERTEX
  5
3D9
330
3D1
100
AcDbEntity
  8
001
370
    50
100
AcDbVertex
100
AcDb2dVertex
 10
164.672718
 20
147.878248
 30
0.0
  0
SEQEND
  5
3D2
330
3D1
100
AcDbEntity
  8
001
370
    50
  0
LINE
  5
3DA
330
1F
100
AcDbEntity
  8
001
370
    50
100
AcDbLine
 10
240.043178
 20
167.349534
 30
0.0
 11
309.043178
 21
167.349534
 31
0.0
  0
LINE
  5
3DB
330
1F
100
AcDbEntity
  8
001
370
    50
100
AcDbLine
 10
240.043178
 20
135.349534
 30
0.0
 11
309.043178
 21
135.349534
 31
0.0
  0
ARC
  5
3DC
330
1F
100
AcDbEntity
  8
001
370
    50
100
AcDbCircle
 10
309.043178
 20
159.349534
 30
0.0
 40
8.000000000000007
100
AcDbArc
 50
0.0
 51
90.0
  0
ARC
  5
3DD
330
1F
100
AcDbEntity
  8
001
370
    50
100
AcDbCircle
 10
309.043178
 20
143.349534
 30
0.0
 40
8.000000000000007
100
AcDbArc
 50
270.0
 51
0.0
  0
LINE
  5
3DE
330
1F
100
AcDbEntity
  8
001
370
    50
100
AcDbLine
 10
317.043178
 20
159.349534
 30
0.0
 11
317.043178
 21
143.349534
 31
0.0
  0
POLYLINE
  5
3DF
330
1F
100
AcDbEntity
  8
001
370
    50
100
AcDb2dPolyline
 66
     1
 10
0.0
 20
0.0
 30
0.0
  0
VERTEX
  5
3E1
330
3DF
100
AcDbEntity
  8
001
370
    50
100
AcDbVertex
100
AcDb2dVertex
 10
164.672718
 20
147.878248
 30
0.0
  0
VERTEX
  5
3E2
330
3DF
100
AcDbEntity
  8
001
370
    50
100
AcDbVertex
100
AcDb2dVertex
 10
164.318199
 20
147.69938
 30
0.0
  0
VERTEX
  5
3E3
330
3DF
100
AcDbEntity
  8
001
370
    50
100
AcDbVertex
100
AcDb2dVertex
 10
163.976091
 20
147.49996
 30
0.0
  0
VERTEX
  5
3E4
330
3DF
100
AcDbEntity
  8
001
370
    50
100
AcDbVertex
100
AcDb2dVertex
 10
163.807883
 20
147.382602
 30
0.0
  0
VERTEX
  5
3E5
330
3DF
100
AcDbEntity
  8
001
370
    50
100
AcDbVertex
100
AcDb2dVertex
 10
163.646966
 20
147.255285
 30
0.0
  0
VERTEX
  5
3E6
330
3DF
100
AcDbEntity
  8
001
370
    50
100
AcDbVertex
100
AcDb2dVertex
 10
163.491689
 20
147.118202
 30
0.0
  0
VERTEX
  5
3E7
330
3DF
100
AcDbEntity
  8
001
370
    50
100
AcDbVertex
100
AcDb2dVertex
 10
163.340463
 20
146.97657
 30
0.0
  0
SEQEND
  5
3E0
330
3DF
100
AcDbEntity
  8
001
370
    50
  0
POLYLINE
  5
3E8
330
1F
100
AcDbEntity
  8
001
370
    50
100
AcDb2dPolyline
 66
     1
 10
0.0
 20
0.0
 30
0.0
  0
VERTEX
  5
3EA
330
3E8
100
AcDbEntity
  8
001
370
    50
100
AcDbVertex
100
AcDb2dVertex
 10
163.286819
 20
146.922693
 30
0.0
  0
VERTEX
  5
3EB
330
3E8
100
AcDbEntity
  8
001
370
    50
100
AcDbVertex
100
AcDb2dVertex
 10
163.297718
 20
146.933634
 30
0.0
  0
VERTEX
  5
3EC
330
3E8
100
AcDbEntity
  8
001
370
    50
100
AcDbVertex
100
AcDb2dVertex
 10
163.313646
 20
146.949626
 30
0.0
  0
VERTEX
  5
3ED
330
3E8
100
AcDbEntity
  8
001
370
    50
100
AcDbVertex
100
AcDb2dVertex
 10
163.32957
 20
146.965623
 30
0.0
  0
VERTEX
  5
3EE
330
3E8
100
AcDbEntity
  8
001
370
    50
100
AcDbVertex
100
AcDb2dVertex
 10
163.340463
 20
146.97657
 30
0.0
  0
SEQEND
  5
3E9
330
3E8
100
AcDbEntity
  8
001
370
    50
  0
POLYLINE
  5
3EF
330
1F
100
AcDbEntity
  8
001
370
    50
100
AcDb2dPolyline
 66
     1
 10
0.0
 20
0.0
 30
0.0
  0
VERTEX
  5
3F1
330
3EF
100
AcDbEntity
  8
001
370
    50
100
AcDbVertex
100
AcDb2dVertex
 10
162.449035
 20
146.082495
 30
0.0
  0
VERTEX
  5
3F2
330
3EF
100
AcDbEntity
  8
001
370
    50
100
AcDbVertex
100
AcDb2dVertex
 10
162.619934
 20
146.252408
 30
0.0
  0
VERTEX
  5
3F3
330
3EF
100
AcDbEntity
  8
001
370
    50
100
AcDbVertex
100
AcDb2dVertex
 10
162.869074
 20
146.501377
 30
0.0
  0
VERTEX
  5
3F4
330
3EF
100
AcDbEntity
  8
001
370
    50
100
AcDbVertex
100
AcDb2dVertex
 10
163.117369
 20
146.751276
 30
0.0
  0
VERTEX
  5
3F5
330
3EF
100
AcDbEntity
  8
001
370
    50
100
AcDbVertex
100
AcDb2dVertex
 10
163.286819
 20
146.922693
 30
0.0
  0
SEQEND
  5
3F0
330
3EF
100
AcDbEntity
  8
001
370
    50
  0
POLYLINE
  5
3F6
330
1F
100
AcDbEntity
  8
001
370
    50
100
AcDb2dPolyline
 66
     1
 10
0.0
 20
0.0
 30
0.0
  0
VERTEX
  5
3F8
330
3F6
100
AcDbEntity
  8
001
370
    50
100
AcDbVertex
100
AcDb2dVertex
 10
161.942447
 20
146.072644
 30
0.0
  0
VERTEX
  5
3F9
330
3F6
100
AcDbEntity
  8
001
370
    50
100
AcDbVertex
100
AcDb2dVertex
 10
162.045264
 20
146.074283
 30
0.0
  0
VERTEX
  5
3FA
330
3F6
100
AcDbEntity
  8
001
370
    50
100
AcDbVertex
100
AcDb2dVertex
 10
162.19553
 20
146.076988
 30
0.0
  0
VERTEX
  5
3FB
330
3F6
100
AcDbEntity
  8
001
370
    50
100
AcDbVertex
100
AcDb2dVertex
 10
162.346051
 20
146.080132
 30
0.0
  0
VERTEX
  5
3FC
330
3F6
100
AcDbEntity
  8
001
370
    50
100
AcDbVertex
100
AcDb2dVertex
 10
162.449035
 20
146.082495
 30
0.0
  0
SEQEND
  5
3F7
330
3F6
100
AcDbEntity
  8
001
370
    50
  0
POLYLINE
  5
3FD
330
1F
100
AcDbEntity
  8
001
370
    50
100
AcDb2dPolyline
 66
     1
 10
0.0
 20
0.0
 30
0.0
  0
VERTEX
  5
3FF
330
3FD
100
AcDbEntity
  8
001
370
    50
100
AcDbVertex
100
AcDb2dVertex
 10
160.835462
 20
146.045652
 30
0.0
  0
VERTEX
  5
400
330
3FD
100
AcDbEntity
  8
001
370
    50
100
AcDbVertex
100
AcDb2dVertex
 10
160.916624
 20
146.046904
 30
0.0
  0
VERTEX
  5
401
330
3FD
100
AcDbEntity
  8
001
370
    50
100
AcDbVertex
100
AcDb2dVertex
 10
161.035243
 20
146.048925
 30
0.0
  0
VERTEX
  5
402
330
3FD
100
AcDbEntity
  8
001
370
    50
100
AcDbVertex
100
AcDb2dVertex
 10
161.154029
 20
146.051217
 30
0.0
  0
VERTEX
  5
403
330
3FD
100
AcDbEntity
  8
001
370
    50
100
AcDbVertex
100
AcDb2dVertex
 10
161.2353
 20
146.052918
 30
0.0
  0
SEQEND
  5
3FE
330
3FD
100
AcDbEntity
  8
001
370
    50
  0
LINE
  5
404
330
1F
100
AcDbEntity
  8
001
370
    50
100
AcDbLine
 10
160.578934
 20
159.288815
 30
0.0
 11
161.543178
 21
159.730005
 31
0.0
  0
POLYLINE
  5
405
330
1F
100
AcDbEntity
  8
001
370
    50
100
AcDb2dPolyline
 66
     1
 10
0.0
 20
0.0
 30
0.0
  0
VERTEX
  5
407
330
405
100
AcDbEntity
  8
001
370
    50
100
AcDbVertex
100
AcDb2dVertex
 10
161.574111
 20
161.559619
 30
0.0
  0
VERTEX
  5
408
330
405
100
AcDbEntity
  8
001
370
    50
100
AcDbVertex
100
AcDb2dVertex
 10
161.56786
 20
161.549197
 30
0.0
  0
VERTEX
  5
409
330
405
100
AcDbEntity
  8
001
370
    50
100
AcDbVertex
100
AcDb2dVertex
 10
161.558791
 20
161.533926
 30
0.0
  0
VERTEX
  5
40A
330
405
100
AcDbEntity
  8
001
370
    50
100
AcDbVertex
100
AcDb2dVertex
 10
161.549493
 20
161.51805
 30
0.0
  0
VERTEX
  5
40B
330
405
100
AcDbEntity
  8
001
370
    50
100
AcDbVertex
100
AcDb2dVertex
 10
161.543178
 20
161.507161
 30
0.0
  0
SEQEND
  5
406
330
405
100
AcDbEntity
  8
001
370
    50
  0
LINE
  5
40C
330
1F
100
AcDbEntity
  8
001
370
    50
100
AcDbLine
 10
161.543178
 20
164.651347
 30
0.0
 11
159.643178
 21
162.599534
 31
0.0
  0
LINE
  5
40D
330
1F
100
AcDbEntity
  8
001
370
    50
100
AcDbLine
 10
159.643178
 20
158.7964
 30
0.0
 11
160.578934
 21
159.288815
 31
0.0
  0
POLYLINE
  5
40E
330
1F
100
AcDbEntity
  8
001
370
    50
100
AcDb2dPolyline
 66
     1
 10
0.0
 20
0.0
 30
0.0
  0
VERTEX
  5
410
330
40E
100
AcDbEntity
  8
001
370
    50
100
AcDbVertex
100
AcDb2dVertex
 10
159.643178
 20
146.016408
 30
0.0
  0
VERTEX
  5
411
330
40E
100
AcDbEntity
  8
001
370
    50
100
AcDbVertex
100
AcDb2dVertex
 10
159.661482
 20
146.016986
 30
0.0
  0
VERTEX
  5
412
330
40E
100
AcDbEntity
  8
001
370
    50
100
AcDbVertex
100
AcDb2dVertex
 10
159.688233
 20
146.01784
 30
0.0
  0
VERTEX
  5
413
330
40E
100
AcDbEntity
  8
001
370
    50
100
AcDbVertex
100
AcDb2dVertex
 10
159.714985
 20
146.018707
 30
0.0
  0
VERTEX
  5
414
330
40E
100
AcDbEntity
  8
001
370
    50
100
AcDbVertex
100
AcDb2dVertex
 10
159.73329
 20
146.019306
 30
0.0
  0
SEQEND
  5
40F
330
40E
100
AcDbEntity
  8
001
370
    50
  0
POLYLINE
  5
415
330
1F
100
AcDbEntity
  8
001
370
    50
100
AcDb2dPolyline
 66
     1
 10
0.0
 20
0.0
 30
0.0
  0
VERTEX
  5
417
330
415
100
AcDbEntity
  8
001
370
    50
100
AcDbVertex
100
AcDb2dVertex
 10
159.73329
 20
146.019306
 30
0.0
  0
VERTEX
  5
418
330
415
100
AcDbEntity
  8
001
370
    50
100
AcDbVertex
100
AcDb2dVertex
 10
159.957014
 20
146.023009
 30
0.0
  0
VERTEX
  5
419
330
415
100
AcDbEntity
  8
001
370
    50
100
AcDbVertex
100
AcDb2dVertex
 10
160.283966
 20
146.029837
 30
0.0
  0
VERTEX
  5
41A
330
415
100
AcDbEntity
  8
001
370
    50
100
AcDbVertex
100
AcDb2dVertex
 10
160.611432
 20
146.038652
 30
0.0
  0
VERTEX
  5
41B
330
415
100
AcDbEntity
  8
001
370
    50
100
AcDbVertex
100
AcDb2dVertex
 10
160.835462
 20
146.045652
 30
0.0
  0
SEQEND
  5
416
330
415
100
AcDbEntity
  8
001
370
    50
  0
POLYLINE
  5
41C
330
1F
100
AcDbEntity
  8
001
370
    50
100
AcDb2dPolyline
 66
     1
 10
0.0
 20
0.0
 30
0.0
  0
VERTEX
  5
41E
330
41C
100
AcDbEntity
  8
001
370
    50
100
AcDbVertex
100
AcDb2dVertex
 10
161.2353
 20
146.052918
 30
0.0
  0
VERTEX
  5
41F
330
41C
100
AcDbEntity
  8
001
370
    50
100
AcDbVertex
100
AcDb2dVertex
 10
161.378908
 20
146.056245
 30
0.0
  0
VERTEX
  5
420
330
41C
100
AcDbEntity
  8
001
370
    50
100
AcDbVertex
100
AcDb2dVertex
 10
161.58878
 20
146.061692
 30
0.0
  0
VERTEX
  5
421
330
41C
100
AcDbEntity
  8
001
370
    50
100
AcDbVertex
100
AcDb2dVertex
 10
161.798777
 20
146.067957
 30
0.0
  0
VERTEX
  5
422
330
41C
100
AcDbEntity
  8
001
370
    50
100
AcDbVertex
100
AcDb2dVertex
 10
161.942447
 20
146.072644
 30
0.0
  0
SEQEND
  5
41D
330
41C
100
AcDbEntity
  8
001
370
    50
  0
LINE
  5
423
330
1F
100
AcDbEntity
  8
001
370
    50
100
AcDbLine
 10
173.085506
 20
148.939399
 30
0.0
 11
172.755413
 21
148.921581
 31
0.0
  0
POLYLINE
  5
424
330
1F
100
AcDbEntity
  8
001
370
    50
100
AcDb2dPolyline
 66
     1
 10
0.0
 20
0.0
 30
0.0
  0
VERTEX
  5
426
330
424
100
AcDbEntity
  8
001
370
    50
100
AcDbVertex
100
AcDb2dVertex
 10
175.119934
 20
143.979455
 30
0.0
  0
VERTEX
  5
427
330
424
100
AcDbEntity
  8
001
370
    50
100
AcDbVertex
100
AcDb2dVertex
 10
175.261939
 20
144.154357
 30
0.0
  0
VERTEX
  5
428
330
424
100
AcDbEntity
  8
001
370
    50
100
AcDbVertex
100
AcDb2dVertex
 10
175.395683
 20
144.33506
 30
0.0
  0
VERTEX
  5
429
330
424
100
AcDbEntity
  8
001
370
    50
100
AcDbVertex
100
AcDb2dVertex
 10
175.516454
 20
144.529166
 30
0.0
  0
VERTEX
  5
42A
330
424
100
AcDbEntity
  8
001
370
    50
100
AcDbVertex
100
AcDb2dVertex
 10
175.622303
 20
144.732374
 30
0.0
  0
VERTEX
  5
42B
330
424
100
AcDbEntity
  8
001
370
    50
100
AcDbVertex
100
AcDb2dVertex
 10
175.717497
 20
144.950179
 30
0.0
  0
VERTEX
  5
42C
330
424
100
AcDbEntity
  8
001
370
    50
100
AcDbVertex
100
AcDb2dVertex
 10
175.794564
 20
145.174433
 30
0.0
  0
VERTEX
  5
42D
330
424
100
AcDbEntity
  8
001
370
    50
100
AcDbVertex
100
AcDb2dVertex
 10
175.852592
 20
145.408654
 30
0.0
  0
VERTEX
  5
42E
330
424
100
AcDbEntity
  8
001
370
    50
100
AcDbVertex
100
AcDb2dVertex
 10
175.89895
 20
145.646093
 30
0.0
  0
SEQEND
  5
425
330
424
100
AcDbEntity
  8
001
370
    50
  0
LINE
  5
42F
330
1F
100
AcDbEntity
  8
001
  6
DASHED
370
    50
100
AcDbLine
 10
205.707728
 20
145.267377
 30
0.0
 11
205.709599
 21
145.288053
 31
0.0
  0
LINE
  5
430
330
1F
100
AcDbEntity
  8
001
370
    50
100
AcDbLine
 10
161.543178
 20
159.730005
 30
0.0
 11
161.543178
 21
169.349534
 31
0.0
  0
LINE
  5
431
330
1F
100
AcDbEntity
  8
001
370
    50
100
AcDbLine
 10
159.643178
 20
145.989032
 30
0.0
 11
159.643178
 21
162.599534
 31
0.0
  0
ARC
  5
432
330
1F
100
AcDbEntity
  8
001
370
    50
100
AcDbCircle
 10
173.343415
 20
146.355145
 30
0.0
 40
2.504658581410214
100
AcDbArc
 50
28.459554
 51
60.63477
  0
POLYLINE
  5
433
330
1F
100
AcDbEntity
  8
001
370
    50
100
AcDb2dPolyline
 66
     1
 10
0.0
 20
0.0
 30
0.0
  0
VERTEX
  5
435
330
433
100
AcDbEntity
  8
001
370
    50
100
AcDbVertex
100
AcDb2dVertex
 10
171.313864
 20
148.399094
 30
0.0
  0
VERTEX
  5
436
330
433
100
AcDbEntity
  8
001
370
    50
100
AcDbVertex
100
AcDb2dVertex
 10
171.046846
 20
148.259487
 30
0.0
  0
VERTEX
  5
437
330
433
100
AcDbEntity
  8
001
370
    50
100
AcDbVertex
100
AcDb2dVertex
 10
170.684673
 20
148.053206
 30
0.0
  0
VERTEX
  5
438
330
433
100
AcDbEntity
  8
001
370
    50
100
AcDbVertex
100
AcDb2dVertex
 10
170.59115
 20
147.995787
 30
0.0
  0
VERTEX
  5
439
330
433
100
AcDbEntity
  8
001
370
    50
100
AcDbVertex
100
AcDb2dVertex
 10
170.502794
 20
147.939399
 30
0.0
  0
SEQEND
  5
434
330
433
100
AcDbEntity
  8
001
370
    50
  0
LINE
  5
43A
330
1F
100
AcDbEntity
  8
001
370
    50
100
AcDbLine
 10
165.174429
 20
146.663425
 30
0.0
 11
165.084376
 21
146.663425
 31
0.0
  0
POLYLINE
  5
43B
330
1F
100
AcDbEntity
  8
001
370
    50
100
AcDb2dPolyline
 66
     1
 10
0.0
 20
0.0
 30
0.0
  0
VERTEX
  5
43D
330
43B
100
AcDbEntity
  8
001
370
    50
100
AcDbVertex
100
AcDb2dVertex
 10
165.084376
 20
146.663425
 30
0.0
  0
VERTEX
  5
43E
330
43B
100
AcDbEntity
  8
001
370
    50
100
AcDbVertex
100
AcDb2dVertex
 10
164.887798
 20
146.652443
 30
0.0
  0
VERTEX
  5
43F
330
43B
100
AcDbEntity
  8
001
370
    50
100
AcDbVertex
100
AcDb2dVertex
 10
164.618186
 20
146.618198
 30
0.0
  0
VERTEX
  5
440
330
43B
100
AcDbEntity
  8
001
370
    50
100
AcDbVertex
100
AcDb2dVertex
 10
164.37843
 20
146.56019
 30
0.0
  0
VERTEX
  5
441
330
43B
100
AcDbEntity
  8
001
370
    50
100
AcDbVertex
100
AcDb2dVertex
 10
164.168864
 20
146.484153
 30
0.0
  0
VERTEX
  5
442
330
43B
100
AcDbEntity
  8
001
370
    50
100
AcDbVertex
100
AcDb2dVertex
 10
163.96533
 20
146.392088
 30
0.0
  0
VERTEX
  5
443
330
43B
100
AcDbEntity
  8
001
370
    50
100
AcDbVertex
100
AcDb2dVertex
 10
163.752667
 20
146.26614
 30
0.0
  0
VERTEX
  5
444
330
43B
100
AcDbEntity
  8
001
370
    50
100
AcDbVertex
100
AcDb2dVertex
 10
163.572041
 20
146.132263
 30
0.0
  0
VERTEX
  5
445
330
43B
100
AcDbEntity
  8
001
370
    50
100
AcDbVertex
100
AcDb2dVertex
 10
163.425991
 20
146.010088
 30
0.0
  0
SEQEND
  5
43C
330
43B
100
AcDbEntity
  8
001
370
    50
  0
LINE
  5
446
330
1F
100
AcDbEntity
  8
001
370
    50
100
AcDbLine
 10
162.449035
 20
146.082495
 30
0.0
 11
162.430674
 21
146.010088
 31
0.0
  0
POLYLINE
  5
447
330
1F
100
AcDbEntity
  8
001
370
    50
100
AcDb2dPolyline
 66
     1
 10
0.0
 20
0.0
 30
0.0
  0
VERTEX
  5
449
330
447
100
AcDbEntity
  8
001
370
    50
100
AcDbVertex
100
AcDb2dVertex
 10
172.777001
 20
143.08428
 30
0.0
  0
VERTEX
  5
44A
330
447
100
AcDbEntity
  8
001
370
    50
100
AcDbVertex
100
AcDb2dVertex
 10
172.933884
 20
143.139997
 30
0.0
  0
VERTEX
  5
44B
330
447
100
AcDbEntity
  8
001
370
    50
100
AcDbVertex
100
AcDb2dVertex
 10
173.093821
 20
143.204072
 30
0.0
  0
VERTEX
  5
44C
330
447
100
AcDbEntity
  8
001
370
    50
100
AcDbVertex
100
AcDb2dVertex
 10
173.341446
 20
143.328341
 30
0.0
  0
VERTEX
  5
44D
330
447
100
AcDbEntity
  8
001
370
    50
100
AcDbVertex
100
AcDb2dVertex
 10
173.55517
 20
143.467923
 30
0.0
  0
VERTEX
  5
44E
330
447
100
AcDbEntity
  8
001
370
    50
100
AcDbVertex
100
AcDb2dVertex
 10
173.763714
 20
143.629627
 30
0.0
  0
VERTEX
  5
44F
330
447
100
AcDbEntity
  8
001
370
    50
100
AcDbVertex
100
AcDb2dVertex
 10
173.962728
 20
143.811158
 30
0.0
  0
VERTEX
  5
450
330
447
100
AcDbEntity
  8
001
370
    50
100
AcDbVertex
100
AcDb2dVertex
 10
174.143069
 20
144.009534
 30
0.0
  0
VERTEX
  5
451
330
447
100
AcDbEntity
  8
001
370
    50
100
AcDbVertex
100
AcDb2dVertex
 10
174.303404
 20
144.222751
 30
0.0
  0
VERTEX
  5
452
330
447
100
AcDbEntity
  8
001
370
    50
100
AcDbVertex
100
AcDb2dVertex
 10
174.445005
 20
144.450212
 30
0.0
  0
VERTEX
  5
453
330
447
100
AcDbEntity
  8
001
370
    50
100
AcDbVertex
100
AcDb2dVertex
 10
174.566257
 20
144.689483
 30
0.0
  0
VERTEX
  5
454
330
447
100
AcDbEntity
  8
001
370
    50
100
AcDbVertex
100
AcDb2dVertex
 10
174.665844
 20
144.939022
 30
0.0
  0
VERTEX
  5
455
330
447
100
AcDbEntity
  8
001
370
    50
100
AcDbVertex
100
AcDb2dVertex
 10
174.742843
 20
145.196362
 30
0.0
  0
VERTEX
  5
456
330
447
100
AcDbEntity
  8
001
370
    50
100
AcDbVertex
100
AcDb2dVertex
 10
174.796885
 20
145.459859
 30
0.0
  0
VERTEX
  5
457
330
447
100
AcDbEntity
  8
001
370
    50
100
AcDbVertex
100
AcDb2dVertex
 10
174.82749
 20
145.727106
 30
0.0
  0
VERTEX
  5
458
330
447
100
AcDbEntity
  8
001
370
    50
100
AcDbVertex
100
AcDb2dVertex
 10
174.83437
 20
145.99611
 30
0.0
  0
VERTEX
  5
459
330
447
100
AcDbEntity
  8
001
370
    50
100
AcDbVertex
100
AcDb2dVertex
 10
174.817479
 20
146.26467
 30
0.0
  0
VERTEX
  5
45A
330
447
100
AcDbEntity
  8
001
370
    50
100
AcDbVertex
100
AcDb2dVertex
 10
174.776949
 20
146.530539
 30
0.0
  0
VERTEX
  5
45B
330
447
100
AcDbEntity
  8
001
370
    50
100
AcDbVertex
100
AcDb2dVertex
 10
174.713133
 20
146.791786
 30
0.0
  0
VERTEX
  5
45C
330
447
100
AcDbEntity
  8
001
370
    50
100
AcDbVertex
100
AcDb2dVertex
 10
174.626612
 20
147.045976
 30
0.0
  0
VERTEX
  5
45D
330
447
100
AcDbEntity
  8
001
370
    50
100
AcDbVertex
100
AcDb2dVertex
 10
174.517802
 20
147.291524
 30
0.0
  0
VERTEX
  5
45E
330
447
100
AcDbEntity
  8
001
370
    50
100
AcDbVertex
100
AcDb2dVertex
 10
174.387732
 20
147.525963
 30
0.0
  0
VERTEX
  5
45F
330
447
100
AcDbEntity
  8
001
370
    50
100
AcDbVertex
100
AcDb2dVertex
 10
174.23776
 20
147.747831
 30
0.0
  0
VERTEX
  5
460
330
447
100
AcDbEntity
  8
001
370
    50
100
AcDbVertex
100
AcDb2dVertex
 10
174.069602
 20
147.95474
 30
0.0
  0
VERTEX
  5
461
330
447
100
AcDbEntity
  8
001
370
    50
100
AcDbVertex
100
AcDb2dVertex
 10
173.882003
 20
148.146052
 30
0.0
  0
VERTEX
  5
462
330
447
100
AcDbEntity
  8
001
370
    50
100
AcDbVertex
100
AcDb2dVertex
 10
173.676372
 20
148.319816
 30
0.0
  0
VERTEX
  5
463
330
447
100
AcDbEntity
  8
001
370
    50
100
AcDbVertex
100
AcDb2dVertex
 10
173.461958
 20
148.473396
 30
0.0
  0
VERTEX
  5
464
330
447
100
AcDbEntity
  8
001
370
    50
100
AcDbVertex
100
AcDb2dVertex
 10
173.24318
 20
148.604678
 30
0.0
  0
VERTEX
  5
465
330
447
100
AcDbEntity
  8
001
370
    50
100
AcDbVertex
100
AcDb2dVertex
 10
172.991115
 20
148.719349
 30
0.0
  0
VERTEX
  5
466
330
447
100
AcDbEntity
  8
001
370
    50
100
AcDbVertex
100
AcDb2dVertex
 10
172.885163
 20
148.758131
 30
0.0
  0
VERTEX
  5
467
330
447
100
AcDbEntity
  8
001
370
    50
100
AcDbVertex
100
AcDb2dVertex
 10
172.777001
 20
148.794126
 30
0.0
  0
SEQEND
  5
448
330
447
100
AcDbEntity
  8
001
370
    50
  0
POLYLINE
  5
468
330
1F
100
AcDbEntity
  8
001
370
    50
100
AcDb2dPolyline
 66
     1
 10
0.0
 20
0.0
 30
0.0
  0
VERTEX
  5
46A
330
468
100
AcDbEntity
  8
001
370
    50
100
AcDbVertex
100
AcDb2dVertex
 10
172.777001
 20
143.061443
 30
0.0
  0
VERTEX
  5
46B
330
468
100
AcDbEntity
  8
001
370
    50
100
AcDbVertex
100
AcDb2dVertex
 10
173.141307
 20
143.139538
 30
0.0
  0
VERTEX
  5
46C
330
468
100
AcDbEntity
  8
001
370
    50
100
AcDbVertex
100
AcDb2dVertex
 10
173.536602
 20
143.236467
 30
0.0
  0
VERTEX
  5
46D
330
468
100
AcDbEntity
  8
001
370
    50
100
AcDbVertex
100
AcDb2dVertex
 10
173.971625
 20
143.372275
 30
0.0
  0
VERTEX
  5
46E
330
468
100
AcDbEntity
  8
001
370
    50
100
AcDbVertex
100
AcDb2dVertex
 10
174.390673
 20
143.558084
 30
0.0
  0
VERTEX
  5
46F
330
468
100
AcDbEntity
  8
001
370
    50
100
AcDbVertex
100
AcDb2dVertex
 10
174.816498
 20
143.791058
 30
0.0
  0
VERTEX
  5
470
330
468
100
AcDbEntity
  8
001
370
    50
100
AcDbVertex
100
AcDb2dVertex
 10
175.119934
 20
143.979455
 30
0.0
  0
SEQEND
  5
469
330
468
100
AcDbEntity
  8
001
370
    50
  0
POLYLINE
  5
471
330
1F
100
AcDbEntity
  8
001
370
    50
100
AcDb2dPolyline
 66
     1
 10
0.0
 20
0.0
 30
0.0
  0
VERTEX
  5
473
330
471
100
AcDbEntity
  8
001
370
    50
100
AcDbVertex
100
AcDb2dVertex
 10
175.119934
 20
143.979455
 30
0.0
  0
VERTEX
  5
474
330
471
100
AcDbEntity
  8
001
370
    50
100
AcDbVertex
100
AcDb2dVertex
 10
175.006256
 20
142.802077
 30
0.0
  0
VERTEX
  5
475
330
471
100
AcDbEntity
  8
001
370
    50
100
AcDbVertex
100
AcDb2dVertex
 10
174.845103
 20
141.080826
 30
0.0
  0
VERTEX
  5
476
330
471
100
AcDbEntity
  8
001
370
    50
100
AcDbVertex
100
AcDb2dVertex
 10
174.756193
 20
140.097136
 30
0.0
  0
VERTEX
  5
477
330
471
100
AcDbEntity
  8
001
370
    50
100
AcDbVertex
100
AcDb2dVertex
 10
174.677001
 20
139.201485
 30
0.0
  0
SEQEND
  5
472
330
471
100
AcDbEntity
  8
001
370
    50
  0
POLYLINE
  5
478
330
1F
100
AcDbEntity
  8
001
370
    50
100
AcDb2dPolyline
 66
     1
 10
0.0
 20
0.0
 30
0.0
  0
VERTEX
  5
47A
330
478
100
AcDbEntity
  8
001
370
    50
100
AcDbVertex
100
AcDb2dVertex
 10
174.252374
 20
134.081704
 30
0.0
  0
VERTEX
  5
47B
330
478
100
AcDbEntity
  8
001
370
    50
100
AcDbVertex
100
AcDb2dVertex
 10
174.220248
 20
133.66816
 30
0.0
  0
VERTEX
  5
47C
330
478
100
AcDbEntity
  8
001
370
    50
100
AcDbVertex
100
AcDb2dVertex
 10
174.197048
 20
133.3667
 30
0.0
  0
SEQEND
  5
479
330
478
100
AcDbEntity
  8
001
370
    50
  0
LINE
  5
47D
330
1F
100
AcDbEntity
  8
001
370
    50
100
AcDbLine
 10
172.593499
 20
133.852348
 30
0.0
 11
172.593499
 21
133.99371
 31
0.0
  0
POLYLINE
  5
47E
330
1F
100
AcDbEntity
  8
001
370
    50
100
AcDb2dPolyline
 66
     1
 10
0.0
 20
0.0
 30
0.0
  0
VERTEX
  5
480
330
47E
100
AcDbEntity
  8
001
370
    50
100
AcDbVertex
100
AcDb2dVertex
 10
168.926408
 20
133.709233
 30
0.0
  0
VERTEX
  5
481
330
47E
100
AcDbEntity
  8
001
370
    50
100
AcDbVertex
100
AcDb2dVertex
 10
171.108653
 20
133.791732
 30
0.0
  0
VERTEX
  5
482
330
47E
100
AcDbEntity
  8
001
370
    50
100
AcDbVertex
100
AcDb2dVertex
 10
172.593499
 20
133.852348
 30
0.0
  0
SEQEND
  5
47F
330
47E
100
AcDbEntity
  8
001
370
    50
  0
LINE
  5
483
330
1F
100
AcDbEntity
  8
001
370
    50
100
AcDbLine
 10
185.343178
 20
155.362318
 30
0.0
 11
185.343178
 21
169.349534
 31
0.0
  0
LINE
  5
484
330
1F
100
AcDbEntity
  8
001
370
    50
100
AcDbLine
 10
190.809281
 20
150.861303
 30
0.0
 11
190.809281
 21
175.049534
 31
0.0
  0
LINE
  5
485
330
1F
100
AcDbEntity
  8
001
  6
CENTER
370
     9
100
AcDbLine
 10
157.812765
 20
151.349534
 30
0.0
 11
319.94832
 21
151.349534
 31
0.0
  0
LINE
  5
486
330
1F
100
AcDbEntity
  8
001
370
    50
100
AcDbLine
 10
240.043178
 20
135.349534
 30
0.0
 11
240.043178
 21
167.349534
 31
0.0
  0
LINE
  5
487
330
1F
100
AcDbEntity
  8
001
370
    50
100
AcDbLine
 10
240.043178
 20
166.849534
 30
0.0
 11
237.043178
 21
166.849534
 31
0.0
  0
LINE
  5
488
330
1F
100
AcDbEntity
  8
001
370
    50
100
AcDbLine
 10
237.043178
 20
135.849534
 30
0.0
 11
240.043178
 21
135.849534
 31
0.0
  0
LINE
  5
489
330
1F
100
AcDbEntity
  8
001
370
    50
100
AcDbLine
 10
317.043178
 20
151.349534
 30
0.0
 11
320.50728
 21
153.349534
 31
0.0
  0
LINE
  5
48A
330
1F
100
AcDbEntity
  8
001
370
    50
100
AcDbLine
 10
317.043178
 20
151.349534
 30
0.0
 11
320.50728
 21
149.349534
 31
0.0
  0
LINE
  5
48B
330
1F
100
AcDbEntity
  8
001
  6
PHANTOM
370
     9
100
AcDbLine
 10
186.443178
 20
130.849534
 30
0.0
 11
186.443178
 21
121.349534
 31
0.0
  0
LINE
  5
48C
330
1F
100
AcDbEntity
  8
001
  6
PHANTOM
370
     9
100
AcDbLine
 10
185.443178
 20
131.849534
 30
0.0
 11
160.943178
 21
131.849534
 31
0.0
  0
LINE
  5
48D
330
1F
100
AcDbEntity
  8
001
  6
PHANTOM
370
     9
100
AcDbLine
 10
160.943178
 20
137.349534
 30
0.0
 11
160.943178
 21
131.849534
 31
0.0
  0
LINE
  5
48E
330
1F
100
AcDbEntity
  8
001
  6
PHANTOM
370
     9
100
AcDbLine
 10
160.943178
 20
137.349534
 30
0.0
 11
159.943178
 21
138.349534
 31
0.0
  0
LINE
  5
48F
330
1F
100
AcDbEntity
  8
001
  6
PHANTOM
370
     9
100
AcDbLine
 10
186.443178
 20
130.849534
 30
0.0
 11
185.443178
 21
131.849534
 31
0.0
  0
CIRCLE
  5
490
330
1F
100
AcDbEntity
  8
001
370
    50
100
AcDbCircle
 10
192.800636
 20
135.785323
 30
0.0
 40
3.25
  0
LINE
  5
491
330
1F
100
AcDbEntity
  8
001
370
    50
100
AcDbLine
 10
193.147046
 20
137.735323
 30
0.0
 11
193.536757
 21
137.060323
 31
0.0
  0
LINE
  5
492
330
1F
100
AcDbEntity
  8
001
370
    50
100
AcDbLine
 10
192.454225
 20
137.735323
 30
0.0
 11
192.064514
 21
137.060323
 31
0.0
  0
LINE
  5
493
330
1F
100
AcDbEntity
  8
001
370
    50
100
AcDbLine
 10
191.285091
 20
137.060323
 30
0.0
 11
192.064514
 21
137.060323
 31
0.0
  0
LINE
  5
494
330
1F
100
AcDbEntity
  8
001
370
    50
100
AcDbLine
 10
190.938681
 20
136.460323
 30
0.0
 11
191.328392
 21
135.785323
 31
0.0
  0
LINE
  5
495
330
1F
100
AcDbEntity
  8
001
370
    50
100
AcDbLine
 10
190.938681
 20
135.110323
 30
0.0
 11
191.328392
 21
135.785323
 31
0.0
  0
LINE
  5
496
330
1F
100
AcDbEntity
  8
001
370
    50
100
AcDbLine
 10
191.285091
 20
134.510323
 30
0.0
 11
192.064514
 21
134.510323
 31
0.0
  0
LINE
  5
497
330
1F
100
AcDbEntity
  8
001
370
    50
100
AcDbLine
 10
192.454225
 20
133.835323
 30
0.0
 11
192.064514
 21
134.510323
 31
0.0
  0
LINE
  5
498
330
1F
100
AcDbEntity
  8
001
370
    50
100
AcDbLine
 10
193.147046
 20
133.835323
 30
0.0
 11
193.536757
 21
134.510323
 31
0.0
  0
LINE
  5
499
330
1F
100
AcDbEntity
  8
001
370
    50
100
AcDbLine
 10
194.31618
 20
134.510323
 30
0.0
 11
193.536757
 21
134.510323
 31
0.0
  0
LINE
  5
49A
330
1F
100
AcDbEntity
  8
001
370
    50
100
AcDbLine
 10
194.66259
 20
135.110323
 30
0.0
 11
194.272879
 21
135.785323
 31
0.0
  0
LINE
  5
49B
330
1F
100
AcDbEntity
  8
001
370
    50
100
AcDbLine
 10
194.66259
 20
136.460323
 30
0.0
 11
194.272879
 21
135.785323
 31
0.0
  0
LINE
  5
49C
330
1F
100
AcDbEntity
  8
001
370
    50
100
AcDbLine
 10
194.31618
 20
137.060323
 30
0.0
 11
193.536757
 21
137.060323
 31
0.0
  0
ARC
  5
49D
330
1F
100
AcDbEntity
  8
001
370
    50
100
AcDbCircle
 10
192.800636
 20
137.535323
 30
0.0
 40
0.4
100
AcDbArc
 50
30.0
 51
150.0
  0
ARC
  5
49E
330
1F
100
AcDbEntity
  8
001
370
    50
100
AcDbCircle
 10
194.31618
 20
136.660323
 30
0.0
 40
0.4
100
AcDbArc
 50
330.0
 51
90.0
  0
ARC
  5
49F
330
1F
100
AcDbEntity
  8
001
370
    50
100
AcDbCircle
 10
194.31618
 20
134.910323
 30
0.0
 40
0.4
100
AcDbArc
 50
270.0
 51
30.0
  0
ARC
  5
4A0
330
1F
100
AcDbEntity
  8
001
370
    50
100
AcDbCircle
 10
192.800636
 20
134.035323
 30
0.0
 40
0.4
100
AcDbArc
 50
210.0
 51
330.0
  0
ARC
  5
4A1
330
1F
100
AcDbEntity
  8
001
370
    50
100
AcDbCircle
 10
191.285091
 20
134.910323
 30
0.0
 40
0.4
100
AcDbArc
 50
150.0
 51
270.0
  0
ARC
  5
4A2
330
1F
100
AcDbEntity
  8
001
370
    50
100
AcDbCircle
 10
191.285091
 20
136.660323
 30
0.0
 40
0.4
100
AcDbArc
 50
90.0
 51
210.0
  0
POLYLINE
  5
4A3
330
1F
100
AcDbEntity
  8
001
370
    50
100
AcDb2dPolyline
 66
     1
 10
0.0
 20
0.0
 30
0.0
  0
VERTEX
  5
4A5
330
4A3
100
AcDbEntity
  8
001
370
    50
100
AcDbVertex
100
AcDb2dVertex
 10
192.797236
 20
139.563466
 30
0.0
  0
VERTEX
  5
4A6
330
4A3
100
AcDbEntity
  8
001
370
    50
100
AcDbVertex
100
AcDb2dVertex
 10
192.526489
 20
139.549182
 30
0.0
  0
VERTEX
  5
4A7
330
4A3
100
AcDbEntity
  8
001
370
    50
100
AcDbVertex
100
AcDb2dVertex
 10
192.155949
 20
139.506495
 30
0.0
  0
VERTEX
  5
4A8
330
4A3
100
AcDbEntity
  8
001
370
    50
100
AcDbVertex
100
AcDb2dVertex
 10
191.82758
 20
139.435655
 30
0.0
  0
VERTEX
  5
4A9
330
4A3
100
AcDbEntity
  8
001
370
    50
100
AcDbVertex
100
AcDb2dVertex
 10
191.534146
 20
139.337314
 30
0.0
  0
VERTEX
  5
4AA
330
4A3
100
AcDbEntity
  8
001
370
    50
100
AcDbVertex
100
AcDb2dVertex
 10
191.240037
 20
139.212022
 30
0.0
  0
VERTEX
  5
4AB
330
4A3
100
AcDbEntity
  8
001
370
    50
100
AcDbVertex
100
AcDb2dVertex
 10
190.950722
 20
139.061062
 30
0.0
  0
VERTEX
  5
4AC
330
4A3
100
AcDbEntity
  8
001
370
    50
100
AcDbVertex
100
AcDb2dVertex
 10
190.67785
 20
138.885231
 30
0.0
  0
VERTEX
  5
4AD
330
4A3
100
AcDbEntity
  8
001
370
    50
100
AcDbVertex
100
AcDb2dVertex
 10
190.423403
 20
138.686133
 30
0.0
  0
VERTEX
  5
4AE
330
4A3
100
AcDbEntity
  8
001
370
    50
100
AcDbVertex
100
AcDb2dVertex
 10
190.185992
 20
138.464692
 30
0.0
  0
VERTEX
  5
4AF
330
4A3
100
AcDbEntity
  8
001
370
    50
100
AcDbVertex
100
AcDb2dVertex
 10
189.968212
 20
138.22392
 30
0.0
  0
VERTEX
  5
4B0
330
4A3
100
AcDbEntity
  8
001
370
    50
100
AcDbVertex
100
AcDb2dVertex
 10
189.771904
 20
137.965198
 30
0.0
  0
VERTEX
  5
4B1
330
4A3
100
AcDbEntity
  8
001
370
    50
100
AcDbVertex
100
AcDb2dVertex
 10
189.598979
 20
137.688466
 30
0.0
  0
VERTEX
  5
4B2
330
4A3
100
AcDbEntity
  8
001
370
    50
100
AcDbVertex
100
AcDb2dVertex
 10
189.450173
 20
137.394419
 30
0.0
  0
VERTEX
  5
4B3
330
4A3
100
AcDbEntity
  8
001
370
    50
100
AcDbVertex
100
AcDb2dVertex
 10
189.326924
 20
137.096042
 30
0.0
  0
VERTEX
  5
4B4
330
4A3
100
AcDbEntity
  8
001
370
    50
100
AcDbVertex
100
AcDb2dVertex
 10
189.23002
 20
136.797823
 30
0.0
  0
VERTEX
  5
4B5
330
4A3
100
AcDbEntity
  8
001
370
    50
100
AcDbVertex
100
AcDb2dVertex
 10
189.160313
 20
136.464647
 30
0.0
  0
VERTEX
  5
4B6
330
4A3
100
AcDbEntity
  8
001
370
    50
100
AcDbVertex
100
AcDb2dVertex
 10
189.118266
 20
136.088345
 30
0.0
  0
VERTEX
  5
4B7
330
4A3
100
AcDbEntity
  8
001
370
    50
100
AcDbVertex
100
AcDb2dVertex
 10
189.104207
 20
135.813466
 30
0.0
  0
SEQEND
  5
4A4
330
4A3
100
AcDbEntity
  8
001
370
    50
  0
POLYLINE
  5
4B8
330
1F
100
AcDbEntity
  8
001
370
    50
100
AcDb2dPolyline
 66
     1
 10
0.0
 20
0.0
 30
0.0
  0
VERTEX
  5
4BA
330
4B8
100
AcDbEntity
  8
001
370
    50
100
AcDbVertex
100
AcDb2dVertex
 10
183.633956
 20
134.788759
 30
0.0
  0
VERTEX
  5
4BB
330
4B8
100
AcDbEntity
  8
001
370
    50
100
AcDbVertex
100
AcDb2dVertex
 10
183.590711
 20
134.740027
 30
0.0
  0
VERTEX
  5
4BC
330
4B8
100
AcDbEntity
  8
001
370
    50
100
AcDbVertex
100
AcDb2dVertex
 10
183.535949
 20
134.669079
 30
0.0
  0
VERTEX
  5
4BD
330
4B8
100
AcDbEntity
  8
001
370
    50
100
AcDbVertex
100
AcDb2dVertex
 10
183.49372
 20
134.600115
 30
0.0
  0
VERTEX
  5
4BE
330
4B8
100
AcDbEntity
  8
001
370
    50
100
AcDbVertex
100
AcDb2dVertex
 10
183.462819
 20
134.532284
 30
0.0
  0
VERTEX
  5
4BF
330
4B8
100
AcDbEntity
  8
001
370
    50
100
AcDbVertex
100
AcDb2dVertex
 10
183.437111
 20
134.4597
 30
0.0
  0
VERTEX
  5
4C0
330
4B8
100
AcDbEntity
  8
001
370
    50
100
AcDbVertex
100
AcDb2dVertex
 10
183.417376
 20
134.38363
 30
0.0
  0
VERTEX
  5
4C1
330
4B8
100
AcDbEntity
  8
001
370
    50
100
AcDbVertex
100
AcDb2dVertex
 10
183.405504
 20
134.306402
 30
0.0
  0
VERTEX
  5
4C2
330
4B8
100
AcDbEntity
  8
001
370
    50
100
AcDbVertex
100
AcDb2dVertex
 10
183.401366
 20
134.22883
 30
0.0
  0
VERTEX
  5
4C3
330
4B8
100
AcDbEntity
  8
001
370
    50
100
AcDbVertex
100
AcDb2dVertex
 10
183.404517
 20
134.151208
 30
0.0
  0
VERTEX
  5
4C4
330
4B8
100
AcDbEntity
  8
001
370
    50
100
AcDbVertex
100
AcDb2dVertex
 10
183.415406
 20
134.073833
 30
0.0
  0
VERTEX
  5
4C5
330
4B8
100
AcDbEntity
  8
001
370
    50
100
AcDbVertex
100
AcDb2dVertex
 10
183.434172
 20
133.997509
 30
0.0
  0
VERTEX
  5
4C6
330
4B8
100
AcDbEntity
  8
001
370
    50
100
AcDbVertex
100
AcDb2dVertex
 10
183.458954
 20
133.924595
 30
0.0
  0
VERTEX
  5
4C7
330
4B8
100
AcDbEntity
  8
001
370
    50
100
AcDbVertex
100
AcDb2dVertex
 10
183.488991
 20
133.856363
 30
0.0
  0
VERTEX
  5
4C8
330
4B8
100
AcDbEntity
  8
001
370
    50
100
AcDbVertex
100
AcDb2dVertex
 10
183.530338
 20
133.786852
 30
0.0
  0
VERTEX
  5
4C9
330
4B8
100
AcDbEntity
  8
001
370
    50
100
AcDbVertex
100
AcDb2dVertex
 10
183.584194
 20
133.715192
 30
0.0
  0
VERTEX
  5
4CA
330
4B8
100
AcDbEntity
  8
001
370
    50
100
AcDbVertex
100
AcDb2dVertex
 10
183.626815
 20
133.665897
 30
0.0
  0
SEQEND
  5
4B9
330
4B8
100
AcDbEntity
  8
001
370
    50
  0
LINE
  5
4CB
330
1F
100
AcDbEntity
  8
001
370
    50
100
AcDbLine
 10
186.961016
 20
138.12379
 30
0.0
 11
183.633956
 21
134.788759
 31
0.0
  0
LINE
  5
4CC
330
1F
100
AcDbEntity
  8
001
370
    50
100
AcDbLine
 10
190.960001
 20
145.125356
 30
0.0
 11
187.043141
 21
141.199112
 31
0.0
  0
POLYLINE
  5
4CD
330
1F
100
AcDbEntity
  8
001
370
    50
100
AcDb2dPolyline
 66
     1
 10
0.0
 20
0.0
 30
0.0
  0
VERTEX
  5
4CF
330
4CD
100
AcDbEntity
  8
001
370
    50
100
AcDbVertex
100
AcDb2dVertex
 10
192.065805
 20
145.118105
 30
0.0
  0
VERTEX
  5
4D0
330
4CD
100
AcDbEntity
  8
001
370
    50
100
AcDbVertex
100
AcDb2dVertex
 10
192.023438
 20
145.157386
 30
0.0
  0
VERTEX
  5
4D1
330
4CD
100
AcDbEntity
  8
001
370
    50
100
AcDbVertex
100
AcDb2dVertex
 10
191.96196
 20
145.207752
 30
0.0
  0
VERTEX
  5
4D2
330
4CD
100
AcDbEntity
  8
001
370
    50
100
AcDbVertex
100
AcDb2dVertex
 10
191.902673
 20
145.24741
 30
0.0
  0
VERTEX
  5
4D3
330
4CD
100
AcDbEntity
  8
001
370
    50
100
AcDbVertex
100
AcDb2dVertex
 10
191.844363
 20
145.277726
 30
0.0
  0
VERTEX
  5
4D4
330
4CD
100
AcDbEntity
  8
001
370
    50
100
AcDbVertex
100
AcDb2dVertex
 10
191.782076
 20
145.304074
 30
0.0
  0
VERTEX
  5
4D5
330
4CD
100
AcDbEntity
  8
001
370
    50
100
AcDbVertex
100
AcDb2dVertex
 10
191.716586
 20
145.325902
 30
0.0
  0
VERTEX
  5
4D6
330
4CD
100
AcDbEntity
  8
001
370
    50
100
AcDbVertex
100
AcDb2dVertex
 10
191.649966
 20
145.341485
 30
0.0
  0
VERTEX
  5
4D7
330
4CD
100
AcDbEntity
  8
001
370
    50
100
AcDbVertex
100
AcDb2dVertex
 10
191.582512
 20
145.350815
 30
0.0
  0
VERTEX
  5
4D8
330
4CD
100
AcDbEntity
  8
001
370
    50
100
AcDbVertex
100
AcDb2dVertex
 10
191.514382
 20
145.354202
 30
0.0
  0
VERTEX
  5
4D9
330
4CD
100
AcDbEntity
  8
001
370
    50
100
AcDbVertex
100
AcDb2dVertex
 10
191.446214
 20
145.351709
 30
0.0
  0
VERTEX
  5
4DA
330
4CD
100
AcDbEntity
  8
001
370
    50
100
AcDbVertex
100
AcDb2dVertex
 10
191.378648
 20
145.343264
 30
0.0
  0
VERTEX
  5
4DB
330
4CD
100
AcDbEntity
  8
001
370
    50
100
AcDbVertex
100
AcDb2dVertex
 10
191.311834
 20
145.328556
 30
0.0
  0
VERTEX
  5
4DC
330
4CD
100
AcDbEntity
  8
001
370
    50
100
AcDbVertex
100
AcDb2dVertex
 10
191.246072
 20
145.307589
 30
0.0
  0
VERTEX
  5
4DD
330
4CD
100
AcDbEntity
  8
001
370
    50
100
AcDbVertex
100
AcDb2dVertex
 10
191.183455
 20
145.28206
 30
0.0
  0
VERTEX
  5
4DE
330
4CD
100
AcDbEntity
  8
001
370
    50
100
AcDbVertex
100
AcDb2dVertex
 10
191.124765
 20
145.252511
 30
0.0
  0
VERTEX
  5
4DF
330
4CD
100
AcDbEntity
  8
001
370
    50
100
AcDbVertex
100
AcDb2dVertex
 10
191.064977
 20
145.213634
 30
0.0
  0
VERTEX
  5
4E0
330
4CD
100
AcDbEntity
  8
001
370
    50
100
AcDbVertex
100
AcDb2dVertex
 10
191.002864
 20
145.164079
 30
0.0
  0
VERTEX
  5
4E1
330
4CD
100
AcDbEntity
  8
001
370
    50
100
AcDbVertex
100
AcDb2dVertex
 10
190.960001
 20
145.125356
 30
0.0
  0
SEQEND
  5
4CE
330
4CD
100
AcDbEntity
  8
001
370
    50
  0
LINE
  5
4E2
330
1F
100
AcDbEntity
  8
001
370
    50
100
AcDbLine
 10
195.350169
 20
141.73972
 30
0.0
 11
192.065805
 21
145.118105
 31
0.0
  0
LINE
  5
4E3
330
1F
100
AcDbEntity
  8
001
370
    50
100
AcDbLine
 10
198.101062
 20
141.656328
 30
0.0
 11
195.350169
 21
141.73972
 31
0.0
  0
LINE
  5
4E4
330
1F
100
AcDbEntity
  8
001
370
    50
100
AcDbLine
 10
201.967658
 20
137.679044
 30
0.0
 11
198.101062
 21
141.656328
 31
0.0
  0
POLYLINE
  5
4E5
330
1F
100
AcDbEntity
  8
001
370
    50
100
AcDb2dPolyline
 66
     1
 10
0.0
 20
0.0
 30
0.0
  0
VERTEX
  5
4E7
330
4E5
100
AcDbEntity
  8
001
370
    50
100
AcDbVertex
100
AcDb2dVertex
 10
201.960517
 20
136.556182
 30
0.0
  0
VERTEX
  5
4E8
330
4E5
100
AcDbEntity
  8
001
370
    50
100
AcDbVertex
100
AcDb2dVertex
 10
202.003762
 20
136.604914
 30
0.0
  0
VERTEX
  5
4E9
330
4E5
100
AcDbEntity
  8
001
370
    50
100
AcDbVertex
100
AcDb2dVertex
 10
202.058524
 20
136.675862
 30
0.0
  0
VERTEX
  5
4EA
330
4E5
100
AcDbEntity
  8
001
370
    50
100
AcDbVertex
100
AcDb2dVertex
 10
202.100753
 20
136.744825
 30
0.0
  0
VERTEX
  5
4EB
330
4E5
100
AcDbEntity
  8
001
370
    50
100
AcDbVertex
100
AcDb2dVertex
 10
202.131654
 20
136.812657
 30
0.0
  0
VERTEX
  5
4EC
330
4E5
100
AcDbEntity
  8
001
370
    50
100
AcDbVertex
100
AcDb2dVertex
 10
202.157362
 20
136.885241
 30
0.0
  0
VERTEX
  5
4ED
330
4E5
100
AcDbEntity
  8
001
370
    50
100
AcDbVertex
100
AcDb2dVertex
 10
202.177097
 20
136.961311
 30
0.0
  0
VERTEX
  5
4EE
330
4E5
100
AcDbEntity
  8
001
370
    50
100
AcDbVertex
100
AcDb2dVertex
 10
202.188969
 20
137.038539
 30
0.0
  0
VERTEX
  5
4EF
330
4E5
100
AcDbEntity
  8
001
370
    50
100
AcDbVertex
100
AcDb2dVertex
 10
202.193107
 20
137.116111
 30
0.0
  0
VERTEX
  5
4F0
330
4E5
100
AcDbEntity
  8
001
370
    50
100
AcDbVertex
100
AcDb2dVertex
 10
202.189956
 20
137.193733
 30
0.0
  0
VERTEX
  5
4F1
330
4E5
100
AcDbEntity
  8
001
370
    50
100
AcDbVertex
100
AcDb2dVertex
 10
202.179067
 20
137.271108
 30
0.0
  0
VERTEX
  5
4F2
330
4E5
100
AcDbEntity
  8
001
370
    50
100
AcDbVertex
100
AcDb2dVertex
 10
202.160301
 20
137.347432
 30
0.0
  0
VERTEX
  5
4F3
330
4E5
100
AcDbEntity
  8
001
370
    50
100
AcDbVertex
100
AcDb2dVertex
 10
202.135519
 20
137.420346
 30
0.0
  0
VERTEX
  5
4F4
330
4E5
100
AcDbEntity
  8
001
370
    50
100
AcDbVertex
100
AcDb2dVertex
 10
202.105482
 20
137.488578
 30
0.0
  0
VERTEX
  5
4F5
330
4E5
100
AcDbEntity
  8
001
370
    50
100
AcDbVertex
100
AcDb2dVertex
 10
202.064135
 20
137.558089
 30
0.0
  0
VERTEX
  5
4F6
330
4E5
100
AcDbEntity
  8
001
370
    50
100
AcDbVertex
100
AcDb2dVertex
 10
202.010279
 20
137.629749
 30
0.0
  0
VERTEX
  5
4F7
330
4E5
100
AcDbEntity
  8
001
370
    50
100
AcDbVertex
100
AcDb2dVertex
 10
201.967658
 20
137.679044
 30
0.0
  0
SEQEND
  5
4E6
330
4E5
100
AcDbEntity
  8
001
370
    50
  0
LINE
  5
4F8
330
1F
100
AcDbEntity
  8
001
370
    50
100
AcDbLine
 10
198.633457
 20
133.22115
 30
0.0
 11
201.960517
 21
136.556182
 31
0.0
  0
LINE
  5
4F9
330
1F
100
AcDbEntity
  8
001
370
    50
100
AcDbLine
 10
198.551332
 20
130.427821
 30
0.0
 11
198.633457
 21
133.22115
 31
0.0
  0
LINE
  5
4FA
330
1F
100
AcDbEntity
  8
001
370
    50
100
AcDbLine
 10
194.593789
 20
126.460796
 30
0.0
 11
198.551332
 21
130.427821
 31
0.0
  0
LINE
  5
4FB
330
1F
100
AcDbEntity
  8
001
370
    50
100
AcDbLine
 10
193.56893
 20
126.467414
 30
0.0
 11
190.280934
 21
129.849534
 31
0.0
  0
POLYLINE
  5
4FC
330
1F
100
AcDbEntity
  8
001
370
    50
100
AcDb2dPolyline
 66
     1
 10
0.0
 20
0.0
 30
0.0
  0
VERTEX
  5
4FE
330
4FC
100
AcDbEntity
  8
001
370
    50
100
AcDbVertex
100
AcDb2dVertex
 10
189.104207
 20
135.813466
 30
0.0
  0
VERTEX
  5
4FF
330
4FC
100
AcDbEntity
  8
001
370
    50
100
AcDbVertex
100
AcDb2dVertex
 10
189.121993
 20
135.504378
 30
0.0
  0
VERTEX
  5
500
330
4FC
100
AcDbEntity
  8
001
370
    50
100
AcDbVertex
100
AcDb2dVertex
 10
189.175168
 20
135.081878
 30
0.0
  0
VERTEX
  5
501
330
4FC
100
AcDbEntity
  8
001
370
    50
100
AcDbVertex
100
AcDb2dVertex
 10
189.263218
 20
134.709422
 30
0.0
  0
VERTEX
  5
502
330
4FC
100
AcDbEntity
  8
001
370
    50
100
AcDbVertex
100
AcDb2dVertex
 10
189.385323
 20
134.378404
 30
0.0
  0
VERTEX
  5
503
330
4FC
100
AcDbEntity
  8
001
370
    50
100
AcDbVertex
100
AcDb2dVertex
 10
189.540101
 20
134.050108
 30
0.0
  0
VERTEX
  5
504
330
4FC
100
AcDbEntity
  8
001
370
    50
100
AcDbVertex
100
AcDb2dVertex
 10
189.726595
 20
133.730078
 30
0.0
  0
VERTEX
  5
505
330
4FC
100
AcDbEntity
  8
001
370
    50
100
AcDbVertex
100
AcDb2dVertex
 10
189.94263
 20
133.433595
 30
0.0
  0
VERTEX
  5
506
330
4FC
100
AcDbEntity
  8
001
370
    50
100
AcDbVertex
100
AcDb2dVertex
 10
190.185871
 20
133.161816
 30
0.0
  0
VERTEX
  5
507
330
4FC
100
AcDbEntity
  8
001
370
    50
100
AcDbVertex
100
AcDb2dVertex
 10
190.453089
 20
132.915157
 30
0.0
  0
VERTEX
  5
508
330
4FC
100
AcDbEntity
  8
001
370
    50
100
AcDbVertex
100
AcDb2dVertex
 10
190.745499
 20
132.695455
 30
0.0
  0
VERTEX
  5
509
330
4FC
100
AcDbEntity
  8
001
370
    50
100
AcDbVertex
100
AcDb2dVertex
 10
191.060317
 20
132.506305
 30
0.0
  0
VERTEX
  5
50A
330
4FC
100
AcDbEntity
  8
001
370
    50
100
AcDbVertex
100
AcDb2dVertex
 10
191.383975
 20
132.348918
 30
0.0
  0
VERTEX
  5
50B
330
4FC
100
AcDbEntity
  8
001
370
    50
100
AcDbVertex
100
AcDb2dVertex
 10
191.709609
 20
132.225021
 30
0.0
  0
VERTEX
  5
50C
330
4FC
100
AcDbEntity
  8
001
370
    50
100
AcDbVertex
100
AcDb2dVertex
 10
192.076762
 20
132.135522
 30
0.0
  0
VERTEX
  5
50D
330
4FC
100
AcDbEntity
  8
001
370
    50
100
AcDbVertex
100
AcDb2dVertex
 10
192.492781
 20
132.081541
 30
0.0
  0
VERTEX
  5
50E
330
4FC
100
AcDbEntity
  8
001
370
    50
100
AcDbVertex
100
AcDb2dVertex
 10
192.797236
 20
132.063466
 30
0.0
  0
SEQEND
  5
4FD
330
4FC
100
AcDbEntity
  8
001
370
    50
  0
POLYLINE
  5
50F
330
1F
100
AcDbEntity
  8
001
370
    50
100
AcDb2dPolyline
 66
     1
 10
0.0
 20
0.0
 30
0.0
  0
VERTEX
  5
511
330
50F
100
AcDbEntity
  8
001
370
    50
100
AcDbVertex
100
AcDb2dVertex
 10
192.797236
 20
132.063466
 30
0.0
  0
VERTEX
  5
512
330
50F
100
AcDbEntity
  8
001
370
    50
100
AcDbVertex
100
AcDb2dVertex
 10
193.067984
 20
132.07775
 30
0.0
  0
VERTEX
  5
513
330
50F
100
AcDbEntity
  8
001
370
    50
100
AcDbVertex
100
AcDb2dVertex
 10
193.438524
 20
132.120437
 30
0.0
  0
VERTEX
  5
514
330
50F
100
AcDbEntity
  8
001
370
    50
100
AcDbVertex
100
AcDb2dVertex
 10
193.766893
 20
132.191283
 30
0.0
  0
VERTEX
  5
515
330
50F
100
AcDbEntity
  8
001
370
    50
100
AcDbVertex
100
AcDb2dVertex
 10
194.060327
 20
132.289619
 30
0.0
  0
VERTEX
  5
516
330
50F
100
AcDbEntity
  8
001
370
    50
100
AcDbVertex
100
AcDb2dVertex
 10
194.354436
 20
132.414892
 30
0.0
  0
VERTEX
  5
517
330
50F
100
AcDbEntity
  8
001
370
    50
100
AcDbVertex
100
AcDb2dVertex
 10
194.643751
 20
132.565871
 30
0.0
  0
VERTEX
  5
518
330
50F
100
AcDbEntity
  8
001
370
    50
100
AcDbVertex
100
AcDb2dVertex
 10
194.916623
 20
132.741772
 30
0.0
  0
VERTEX
  5
519
330
50F
100
AcDbEntity
  8
001
370
    50
100
AcDbVertex
100
AcDb2dVertex
 10
195.17107
 20
132.9408
 30
0.0
  0
VERTEX
  5
51A
330
50F
100
AcDbEntity
  8
001
370
    50
100
AcDbVertex
100
AcDb2dVertex
 10
195.408481
 20
133.161976
 30
0.0
  0
VERTEX
  5
51B
330
50F
100
AcDbEntity
  8
001
370
    50
100
AcDbVertex
100
AcDb2dVertex
 10
195.626261
 20
133.403013
 30
0.0
  0
VERTEX
  5
51C
330
50F
100
AcDbEntity
  8
001
370
    50
100
AcDbVertex
100
AcDb2dVertex
 10
195.822568
 20
133.662726
 30
0.0
  0
VERTEX
  5
51D
330
50F
100
AcDbEntity
  8
001
370
    50
100
AcDbVertex
100
AcDb2dVertex
 10
195.995493
 20
133.938466
 30
0.0
  0
VERTEX
  5
51E
330
50F
100
AcDbEntity
  8
001
370
    50
100
AcDbVertex
100
AcDb2dVertex
 10
196.1443
 20
134.228801
 30
0.0
  0
VERTEX
  5
51F
330
50F
100
AcDbEntity
  8
001
370
    50
100
AcDbVertex
100
AcDb2dVertex
 10
196.267549
 20
134.530891
 30
0.0
  0
VERTEX
  5
520
330
50F
100
AcDbEntity
  8
001
370
    50
100
AcDbVertex
100
AcDb2dVertex
 10
196.364453
 20
134.843001
 30
0.0
  0
VERTEX
  5
521
330
50F
100
AcDbEntity
  8
001
370
    50
100
AcDbVertex
100
AcDb2dVertex
 10
196.43416
 20
135.162286
 30
0.0
  0
VERTEX
  5
522
330
50F
100
AcDbEntity
  8
001
370
    50
100
AcDbVertex
100
AcDb2dVertex
 10
196.476207
 20
135.48667
 30
0.0
  0
VERTEX
  5
523
330
50F
100
AcDbEntity
  8
001
370
    50
100
AcDbVertex
100
AcDb2dVertex
 10
196.490266
 20
135.813466
 30
0.0
  0
VERTEX
  5
524
330
50F
100
AcDbEntity
  8
001
370
    50
100
AcDbVertex
100
AcDb2dVertex
 10
196.476207
 20
136.140263
 30
0.0
  0
VERTEX
  5
525
330
50F
100
AcDbEntity
  8
001
370
    50
100
AcDbVertex
100
AcDb2dVertex
 10
196.43416
 20
136.464647
 30
0.0
  0
VERTEX
  5
526
330
50F
100
AcDbEntity
  8
001
370
    50
100
AcDbVertex
100
AcDb2dVertex
 10
196.364453
 20
136.783932
 30
0.0
  0
VERTEX
  5
527
330
50F
100
AcDbEntity
  8
001
370
    50
100
AcDbVertex
100
AcDb2dVertex
 10
196.267549
 20
137.096042
 30
0.0
  0
VERTEX
  5
528
330
50F
100
AcDbEntity
  8
001
370
    50
100
AcDbVertex
100
AcDb2dVertex
 10
196.1443
 20
137.398132
 30
0.0
  0
VERTEX
  5
529
330
50F
100
AcDbEntity
  8
001
370
    50
100
AcDbVertex
100
AcDb2dVertex
 10
195.995493
 20
137.688466
 30
0.0
  0
VERTEX
  5
52A
330
50F
100
AcDbEntity
  8
001
370
    50
100
AcDbVertex
100
AcDb2dVertex
 10
195.822568
 20
137.964206
 30
0.0
  0
VERTEX
  5
52B
330
50F
100
AcDbEntity
  8
001
370
    50
100
AcDbVertex
100
AcDb2dVertex
 10
195.626261
 20
138.22392
 30
0.0
  0
VERTEX
  5
52C
330
50F
100
AcDbEntity
  8
001
370
    50
100
AcDbVertex
100
AcDb2dVertex
 10
195.408481
 20
138.464956
 30
0.0
  0
VERTEX
  5
52D
330
50F
100
AcDbEntity
  8
001
370
    50
100
AcDbVertex
100
AcDb2dVertex
 10
195.17107
 20
138.686133
 30
0.0
  0
VERTEX
  5
52E
330
50F
100
AcDbEntity
  8
001
370
    50
100
AcDbVertex
100
AcDb2dVertex
 10
194.916623
 20
138.885161
 30
0.0
  0
VERTEX
  5
52F
330
50F
100
AcDbEntity
  8
001
370
    50
100
AcDbVertex
100
AcDb2dVertex
 10
194.643751
 20
139.061062
 30
0.0
  0
VERTEX
  5
530
330
50F
100
AcDbEntity
  8
001
370
    50
100
AcDbVertex
100
AcDb2dVertex
 10
194.354436
 20
139.21204
 30
0.0
  0
VERTEX
  5
531
330
50F
100
AcDbEntity
  8
001
370
    50
100
AcDbVertex
100
AcDb2dVertex
 10
194.060327
 20
139.337314
 30
0.0
  0
VERTEX
  5
532
330
50F
100
AcDbEntity
  8
001
370
    50
100
AcDbVertex
100
AcDb2dVertex
 10
193.766893
 20
139.43565
 30
0.0
  0
VERTEX
  5
533
330
50F
100
AcDbEntity
  8
001
370
    50
100
AcDbVertex
100
AcDb2dVertex
 10
193.438524
 20
139.506495
 30
0.0
  0
VERTEX
  5
534
330
50F
100
AcDbEntity
  8
001
370
    50
100
AcDbVertex
100
AcDb2dVertex
 10
193.067984
 20
139.549183
 30
0.0
  0
VERTEX
  5
535
330
50F
100
AcDbEntity
  8
001
370
    50
100
AcDbVertex
100
AcDb2dVertex
 10
192.797236
 20
139.563466
 30
0.0
  0
SEQEND
  5
510
330
50F
100
AcDbEntity
  8
001
370
    50
  0
POLYLINE
  5
536
330
1F
100
AcDbEntity
  8
001
370
    50
100
AcDb2dPolyline
 66
     1
 10
0.0
 20
0.0
 30
0.0
  0
VERTEX
  5
538
330
536
100
AcDbEntity
  8
001
370
    50
100
AcDbVertex
100
AcDb2dVertex
 10
204.788655
 20
128.106593
 30
0.0
  0
VERTEX
  5
539
330
536
100
AcDbEntity
  8
001
370
    50
100
AcDbVertex
100
AcDb2dVertex
 10
204.514128
 20
128.088117
 30
0.0
  0
VERTEX
  5
53A
330
536
100
AcDbEntity
  8
001
370
    50
100
AcDbVertex
100
AcDb2dVertex
 10
204.239636
 20
128.069149
 30
0.0
  0
VERTEX
  5
53B
330
536
100
AcDbEntity
  8
001
370
    50
100
AcDbVertex
100
AcDb2dVertex
 10
203.966628
 20
128.049465
 30
0.0
  0
VERTEX
  5
53C
330
536
100
AcDbEntity
  8
001
370
    50
100
AcDbVertex
100
AcDb2dVertex
 10
203.693655
 20
128.029293
 30
0.0
  0
SEQEND
  5
537
330
536
100
AcDbEntity
  8
001
370
    50
  0
POLYLINE
  5
53D
330
1F
100
AcDbEntity
  8
001
370
    50
100
AcDb2dPolyline
 66
     1
 10
0.0
 20
0.0
 30
0.0
  0
VERTEX
  5
53F
330
53D
100
AcDbEntity
  8
001
370
    50
100
AcDbVertex
100
AcDb2dVertex
 10
202.698489
 20
128.235628
 30
0.0
  0
VERTEX
  5
540
330
53D
100
AcDbEntity
  8
001
370
    50
100
AcDbVertex
100
AcDb2dVertex
 10
202.808275
 20
128.183684
 30
0.0
  0
VERTEX
  5
541
330
53D
100
AcDbEntity
  8
001
370
    50
100
AcDbVertex
100
AcDb2dVertex
 10
202.970278
 20
128.111225
 30
0.0
  0
VERTEX
  5
542
330
53D
100
AcDbEntity
  8
001
370
    50
100
AcDbVertex
100
AcDb2dVertex
 10
203.131885
 20
128.044669
 30
0.0
  0
VERTEX
  5
543
330
53D
100
AcDbEntity
  8
001
370
    50
100
AcDbVertex
100
AcDb2dVertex
 10
203.24344
 20
128.001518
 30
0.0
  0
SEQEND
  5
53E
330
53D
100
AcDbEntity
  8
001
370
    50
  0
LINE
  5
544
330
1F
100
AcDbEntity
  8
001
370
    50
100
AcDbLine
 10
203.693655
 20
128.029293
 30
0.0
 11
203.24344
 21
128.001518
 31
0.0
  0
POLYLINE
  5
545
330
1F
100
AcDbEntity
  8
001
370
    50
100
AcDb2dPolyline
 66
     1
 10
0.0
 20
0.0
 30
0.0
  0
VERTEX
  5
547
330
545
100
AcDbEntity
  8
001
370
    50
100
AcDbVertex
100
AcDb2dVertex
 10
195.562271
 20
145.723583
 30
0.0
  0
VERTEX
  5
548
330
545
100
AcDbEntity
  8
001
370
    50
100
AcDbVertex
100
AcDb2dVertex
 10
195.442165
 20
145.917596
 30
0.0
  0
VERTEX
  5
549
330
545
100
AcDbEntity
  8
001
370
    50
100
AcDbVertex
100
AcDb2dVertex
 10
195.311591
 20
146.103452
 30
0.0
  0
VERTEX
  5
54A
330
545
100
AcDbEntity
  8
001
370
    50
100
AcDbVertex
100
AcDb2dVertex
 10
195.160512
 20
146.278937
 30
0.0
  0
VERTEX
  5
54B
330
545
100
AcDbEntity
  8
001
370
    50
100
AcDbVertex
100
AcDb2dVertex
 10
194.998553
 20
146.445944
 30
0.0
  0
SEQEND
  5
546
330
545
100
AcDbEntity
  8
001
370
    50
  0
POLYLINE
  5
54C
330
1F
100
AcDbEntity
  8
001
370
    50
100
AcDb2dPolyline
 66
     1
 10
0.0
 20
0.0
 30
0.0
  0
VERTEX
  5
54E
330
54C
100
AcDbEntity
  8
001
370
    50
100
AcDbVertex
100
AcDb2dVertex
 10
194.998553
 20
146.445944
 30
0.0
  0
VERTEX
  5
54F
330
54C
100
AcDbEntity
  8
001
370
    50
100
AcDbVertex
100
AcDb2dVertex
 10
194.935796
 20
146.501075
 30
0.0
  0
VERTEX
  5
550
330
54C
100
AcDbEntity
  8
001
370
    50
100
AcDbVertex
100
AcDb2dVertex
 10
194.872194
 20
146.555275
 30
0.0
  0
VERTEX
  5
551
330
54C
100
AcDbEntity
  8
001
370
    50
100
AcDbVertex
100
AcDb2dVertex
 10
194.687481
 20
146.695813
 30
0.0
  0
VERTEX
  5
552
330
54C
100
AcDbEntity
  8
001
370
    50
100
AcDbVertex
100
AcDb2dVertex
 10
194.49093
 20
146.818952
 30
0.0
  0
VERTEX
  5
553
330
54C
100
AcDbEntity
  8
001
370
    50
100
AcDbVertex
100
AcDb2dVertex
 10
194.279166
 20
146.92623
 30
0.0
  0
VERTEX
  5
554
330
54C
100
AcDbEntity
  8
001
370
    50
100
AcDbVertex
100
AcDb2dVertex
 10
194.0618
 20
147.022761
 30
0.0
  0
SEQEND
  5
54D
330
54C
100
AcDbEntity
  8
001
370
    50
  0
POLYLINE
  5
555
330
1F
100
AcDbEntity
  8
001
370
    50
100
AcDb2dPolyline
 66
     1
 10
0.0
 20
0.0
 30
0.0
  0
VERTEX
  5
557
330
555
100
AcDbEntity
  8
001
370
    50
100
AcDbVertex
100
AcDb2dVertex
 10
194.0618
 20
147.022761
 30
0.0
  0
VERTEX
  5
558
330
555
100
AcDbEntity
  8
001
370
    50
100
AcDbVertex
100
AcDb2dVertex
 10
193.865983
 20
147.086186
 30
0.0
  0
VERTEX
  5
559
330
555
100
AcDbEntity
  8
001
370
    50
100
AcDbVertex
100
AcDb2dVertex
 10
193.667871
 20
147.139246
 30
0.0
  0
VERTEX
  5
55A
330
555
100
AcDbEntity
  8
001
370
    50
100
AcDbVertex
100
AcDb2dVertex
 10
193.461911
 20
147.175562
 30
0.0
  0
VERTEX
  5
55B
330
555
100
AcDbEntity
  8
001
370
    50
100
AcDbVertex
100
AcDb2dVertex
 10
193.253566
 20
147.201099
 30
0.0
  0
SEQEND
  5
556
330
555
100
AcDbEntity
  8
001
370
    50
  0
POLYLINE
  5
55C
330
1F
100
AcDbEntity
  8
001
370
    50
100
AcDb2dPolyline
 66
     1
 10
0.0
 20
0.0
 30
0.0
  0
VERTEX
  5
55E
330
55C
100
AcDbEntity
  8
001
370
    50
100
AcDbVertex
100
AcDb2dVertex
 10
192.842417
 20
147.205005
 30
0.0
  0
VERTEX
  5
55F
330
55C
100
AcDbEntity
  8
001
370
    50
100
AcDbVertex
100
AcDb2dVertex
 10
192.660616
 20
147.186845
 30
0.0
  0
VERTEX
  5
560
330
55C
100
AcDbEntity
  8
001
370
    50
100
AcDbVertex
100
AcDb2dVertex
 10
192.479724
 20
147.162191
 30
0.0
  0
VERTEX
  5
561
330
55C
100
AcDbEntity
  8
001
370
    50
100
AcDbVertex
100
AcDb2dVertex
 10
192.298111
 20
147.125083
 30
0.0
  0
VERTEX
  5
562
330
55C
100
AcDbEntity
  8
001
370
    50
100
AcDbVertex
100
AcDb2dVertex
 10
192.119591
 20
147.075098
 30
0.0
  0
VERTEX
  5
563
330
55C
100
AcDbEntity
  8
001
370
    50
100
AcDbVertex
100
AcDb2dVertex
 10
191.975936
 20
147.025464
 30
0.0
  0
VERTEX
  5
564
330
55C
100
AcDbEntity
  8
001
370
    50
100
AcDbVertex
100
AcDb2dVertex
 10
191.833734
 20
146.97166
 30
0.0
  0
SEQEND
  5
55D
330
55C
100
AcDbEntity
  8
001
370
    50
  0
POLYLINE
  5
565
330
1F
100
AcDbEntity
  8
001
370
    50
100
AcDb2dPolyline
 66
     1
 10
0.0
 20
0.0
 30
0.0
  0
VERTEX
  5
567
330
565
100
AcDbEntity
  8
001
370
    50
100
AcDbVertex
100
AcDb2dVertex
 10
191.833734
 20
146.97166
 30
0.0
  0
VERTEX
  5
568
330
565
100
AcDbEntity
  8
001
370
    50
100
AcDbVertex
100
AcDb2dVertex
 10
191.622719
 20
146.871354
 30
0.0
  0
VERTEX
  5
569
330
565
100
AcDbEntity
  8
001
370
    50
100
AcDbVertex
100
AcDb2dVertex
 10
191.417304
 20
146.761231
 30
0.0
  0
VERTEX
  5
56A
330
565
100
AcDbEntity
  8
001
370
    50
100
AcDbVertex
100
AcDb2dVertex
 10
191.217503
 20
146.630475
 30
0.0
  0
VERTEX
  5
56B
330
565
100
AcDbEntity
  8
001
370
    50
100
AcDbVertex
100
AcDb2dVertex
 10
191.028771
 20
146.483201
 30
0.0
  0
VERTEX
  5
56C
330
565
100
AcDbEntity
  8
001
370
    50
100
AcDbVertex
100
AcDb2dVertex
 10
190.850746
 20
146.322049
 30
0.0
  0
VERTEX
  5
56D
330
565
100
AcDbEntity
  8
001
370
    50
100
AcDbVertex
100
AcDb2dVertex
 10
190.687462
 20
146.146855
 30
0.0
  0
VERTEX
  5
56E
330
565
100
AcDbEntity
  8
001
370
    50
100
AcDbVertex
100
AcDb2dVertex
 10
190.537229
 20
145.952453
 30
0.0
  0
VERTEX
  5
56F
330
565
100
AcDbEntity
  8
001
370
    50
100
AcDbVertex
100
AcDb2dVertex
 10
190.397019
 20
145.749853
 30
0.0
  0
SEQEND
  5
566
330
565
100
AcDbEntity
  8
001
370
    50
  0
POLYLINE
  5
570
330
1F
100
AcDbEntity
  8
001
370
    50
100
AcDb2dPolyline
 66
     1
 10
0.0
 20
0.0
 30
0.0
  0
VERTEX
  5
572
330
570
100
AcDbEntity
  8
001
370
    50
100
AcDbVertex
100
AcDb2dVertex
 10
182.202208
 20
133.193395
 30
0.0
  0
VERTEX
  5
573
330
570
100
AcDbEntity
  8
001
370
    50
100
AcDbVertex
100
AcDb2dVertex
 10
182.217873
 20
133.076293
 30
0.0
  0
VERTEX
  5
574
330
570
100
AcDbEntity
  8
001
370
    50
100
AcDbVertex
100
AcDb2dVertex
 10
182.289185
 20
132.937347
 30
0.0
  0
VERTEX
  5
575
330
570
100
AcDbEntity
  8
001
370
    50
100
AcDbVertex
100
AcDb2dVertex
 10
182.427388
 20
132.866915
 30
0.0
  0
VERTEX
  5
576
330
570
100
AcDbEntity
  8
001
370
    50
100
AcDbVertex
100
AcDb2dVertex
 10
182.543626
 20
132.851726
 30
0.0
  0
SEQEND
  5
571
330
570
100
AcDbEntity
  8
001
370
    50
  0
POLYLINE
  5
577
330
1F
100
AcDbEntity
  8
001
370
    50
100
AcDb2dPolyline
 66
     1
 10
0.0
 20
0.0
 30
0.0
  0
VERTEX
  5
579
330
577
100
AcDbEntity
  8
001
370
    50
100
AcDbVertex
100
AcDb2dVertex
 10
182.543626
 20
132.851726
 30
0.0
  0
VERTEX
  5
57A
330
577
100
AcDbEntity
  8
001
370
    50
100
AcDbVertex
100
AcDb2dVertex
 10
182.621234
 20
132.856827
 30
0.0
  0
VERTEX
  5
57B
330
577
100
AcDbEntity
  8
001
370
    50
100
AcDbVertex
100
AcDb2dVertex
 10
182.733535
 20
132.873263
 30
0.0
  0
VERTEX
  5
57C
330
577
100
AcDbEntity
  8
001
370
    50
100
AcDbVertex
100
AcDb2dVertex
 10
182.871595
 20
132.907801
 30
0.0
  0
VERTEX
  5
57D
330
577
100
AcDbEntity
  8
001
370
    50
100
AcDbVertex
100
AcDb2dVertex
 10
182.964505
 20
132.937823
 30
0.0
  0
SEQEND
  5
578
330
577
100
AcDbEntity
  8
001
370
    50
  0
POLYLINE
  5
57E
330
1F
100
AcDbEntity
  8
001
370
    50
100
AcDb2dPolyline
 66
     1
 10
0.0
 20
0.0
 30
0.0
  0
VERTEX
  5
580
330
57E
100
AcDbEntity
  8
001
370
    50
100
AcDbVertex
100
AcDb2dVertex
 10
182.202208
 20
133.193395
 30
0.0
  0
VERTEX
  5
581
330
57E
100
AcDbEntity
  8
001
370
    50
100
AcDbVertex
100
AcDb2dVertex
 10
182.392363
 20
133.37737
 30
0.0
  0
VERTEX
  5
582
330
57E
100
AcDbEntity
  8
001
370
    50
100
AcDbVertex
100
AcDb2dVertex
 10
182.669702
 20
133.646852
 30
0.0
  0
VERTEX
  5
583
330
57E
100
AcDbEntity
  8
001
370
    50
100
AcDbVertex
100
AcDb2dVertex
 10
182.949988
 20
133.920821
 30
0.0
  0
VERTEX
  5
584
330
57E
100
AcDbEntity
  8
001
370
    50
100
AcDbVertex
100
AcDb2dVertex
 10
183.141363
 20
134.10868
 30
0.0
  0
SEQEND
  5
57F
330
57E
100
AcDbEntity
  8
001
370
    50
  0
POLYLINE
  5
585
330
1F
100
AcDbEntity
  8
001
370
    50
100
AcDb2dPolyline
 66
     1
 10
0.0
 20
0.0
 30
0.0
  0
VERTEX
  5
587
330
585
100
AcDbEntity
  8
001
370
    50
100
AcDbVertex
100
AcDb2dVertex
 10
186.630782
 20
140.779725
 30
0.0
  0
VERTEX
  5
588
330
585
100
AcDbEntity
  8
001
370
    50
100
AcDbVertex
100
AcDb2dVertex
 10
186.662026
 20
140.811452
 30
0.0
  0
VERTEX
  5
589
330
585
100
AcDbEntity
  8
001
370
    50
100
AcDbVertex
100
AcDb2dVertex
 10
186.707674
 20
140.857836
 30
0.0
  0
VERTEX
  5
58A
330
585
100
AcDbEntity
  8
001
370
    50
100
AcDbVertex
100
AcDb2dVertex
 10
186.75336
 20
140.904299
 30
0.0
  0
VERTEX
  5
58B
330
585
100
AcDbEntity
  8
001
370
    50
100
AcDbVertex
100
AcDb2dVertex
 10
186.784609
 20
140.9361
 30
0.0
  0
SEQEND
  5
586
330
585
100
AcDbEntity
  8
001
370
    50
  0
POLYLINE
  5
58C
330
1F
100
AcDbEntity
  8
001
370
    50
100
AcDb2dPolyline
 66
     1
 10
0.0
 20
0.0
 30
0.0
  0
VERTEX
  5
58E
330
58C
100
AcDbEntity
  8
001
370
    50
100
AcDbVertex
100
AcDb2dVertex
 10
186.630782
 20
140.779725
 30
0.0
  0
VERTEX
  5
58F
330
58C
100
AcDbEntity
  8
001
370
    50
100
AcDbVertex
100
AcDb2dVertex
 10
186.396776
 20
140.510091
 30
0.0
  0
VERTEX
  5
590
330
58C
100
AcDbEntity
  8
001
370
    50
100
AcDbVertex
100
AcDb2dVertex
 10
186.179674
 20
140.228033
 30
0.0
  0
VERTEX
  5
591
330
58C
100
AcDbEntity
  8
001
370
    50
100
AcDbVertex
100
AcDb2dVertex
 10
185.986928
 20
139.912682
 30
0.0
  0
VERTEX
  5
592
330
58C
100
AcDbEntity
  8
001
370
    50
100
AcDbVertex
100
AcDb2dVertex
 10
185.828138
 20
139.578006
 30
0.0
  0
VERTEX
  5
593
330
58C
100
AcDbEntity
  8
001
370
    50
100
AcDbVertex
100
AcDb2dVertex
 10
185.716721
 20
139.277799
 30
0.0
  0
VERTEX
  5
594
330
58C
100
AcDbEntity
  8
001
370
    50
100
AcDbVertex
100
AcDb2dVertex
 10
185.630175
 20
138.96975
 30
0.0
  0
VERTEX
  5
595
330
58C
100
AcDbEntity
  8
001
370
    50
100
AcDbVertex
100
AcDb2dVertex
 10
185.568272
 20
138.645137
 30
0.0
  0
VERTEX
  5
596
330
58C
100
AcDbEntity
  8
001
370
    50
100
AcDbVertex
100
AcDb2dVertex
 10
185.53569
 20
138.316479
 30
0.0
  0
VERTEX
  5
597
330
58C
100
AcDbEntity
  8
001
370
    50
100
AcDbVertex
100
AcDb2dVertex
 10
185.533222
 20
138.263457
 30
0.0
  0
VERTEX
  5
598
330
58C
100
AcDbEntity
  8
001
370
    50
100
AcDbVertex
100
AcDb2dVertex
 10
185.531153
 20
138.210422
 30
0.0
  0
SEQEND
  5
58D
330
58C
100
AcDbEntity
  8
001
370
    50
  0
POLYLINE
  5
599
330
1F
100
AcDbEntity
  8
001
370
    50
100
AcDb2dPolyline
 66
     1
 10
0.0
 20
0.0
 30
0.0
  0
VERTEX
  5
59B
330
599
100
AcDbEntity
  8
001
370
    50
100
AcDbVertex
100
AcDb2dVertex
 10
186.686306
 20
139.877357
 30
0.0
  0
VERTEX
  5
59C
330
599
100
AcDbEntity
  8
001
370
    50
100
AcDbVertex
100
AcDb2dVertex
 10
186.553957
 20
139.729243
 30
0.0
  0
VERTEX
  5
59D
330
599
100
AcDbEntity
  8
001
370
    50
100
AcDbVertex
100
AcDb2dVertex
 10
186.385829
 20
139.512608
 30
0.0
  0
VERTEX
  5
59E
330
599
100
AcDbEntity
  8
001
370
    50
100
AcDbVertex
100
AcDb2dVertex
 10
186.255286
 20
139.300217
 30
0.0
  0
VERTEX
  5
59F
330
599
100
AcDbEntity
  8
001
370
    50
100
AcDbVertex
100
AcDb2dVertex
 10
186.158804
 20
139.096684
 30
0.0
  0
VERTEX
  5
5A0
330
599
100
AcDbEntity
  8
001
370
    50
100
AcDbVertex
100
AcDb2dVertex
 10
186.077671
 20
138.88605
 30
0.0
  0
VERTEX
  5
5A1
330
599
100
AcDbEntity
  8
001
370
    50
100
AcDbVertex
100
AcDb2dVertex
 10
186.013447
 20
138.644633
 30
0.0
  0
VERTEX
  5
5A2
330
599
100
AcDbEntity
  8
001
370
    50
100
AcDbVertex
100
AcDb2dVertex
 10
185.971673
 20
138.371954
 30
0.0
  0
VERTEX
  5
5A3
330
599
100
AcDbEntity
  8
001
370
    50
100
AcDbVertex
100
AcDb2dVertex
 10
185.955015
 20
138.172813
 30
0.0
  0
SEQEND
  5
59A
330
599
100
AcDbEntity
  8
001
370
    50
  0
POLYLINE
  5
5A4
330
1F
100
AcDbEntity
  8
001
370
    50
100
AcDb2dPolyline
 66
     1
 10
0.0
 20
0.0
 30
0.0
  0
VERTEX
  5
5A6
330
5A4
100
AcDbEntity
  8
001
370
    50
100
AcDbVertex
100
AcDb2dVertex
 10
186.784609
 20
140.9361
 30
0.0
  0
VERTEX
  5
5A7
330
5A4
100
AcDbEntity
  8
001
370
    50
100
AcDbVertex
100
AcDb2dVertex
 10
187.022644
 20
141.175759
 30
0.0
  0
VERTEX
  5
5A8
330
5A4
100
AcDbEntity
  8
001
370
    50
100
AcDbVertex
100
AcDb2dVertex
 10
187.369679
 20
141.526883
 30
0.0
  0
VERTEX
  5
5A9
330
5A4
100
AcDbEntity
  8
001
370
    50
100
AcDbVertex
100
AcDb2dVertex
 10
187.719161
 20
141.882906
 30
0.0
  0
VERTEX
  5
5AA
330
5A4
100
AcDbEntity
  8
001
370
    50
100
AcDbVertex
100
AcDb2dVertex
 10
187.957685
 20
142.127085
 30
0.0
  0
SEQEND
  5
5A5
330
5A4
100
AcDbEntity
  8
001
370
    50
  0
POLYLINE
  5
5AB
330
1F
100
AcDbEntity
  8
001
370
    50
100
AcDb2dPolyline
 66
     1
 10
0.0
 20
0.0
 30
0.0
  0
VERTEX
  5
5AD
330
5AB
100
AcDbEntity
  8
001
370
    50
100
AcDbVertex
100
AcDb2dVertex
 10
192.948339
 20
147.210122
 30
0.0
  0
VERTEX
  5
5AE
330
5AB
100
AcDbEntity
  8
001
370
    50
100
AcDbVertex
100
AcDb2dVertex
 10
192.946264
 20
147.210144
 30
0.0
  0
VERTEX
  5
5AF
330
5AB
100
AcDbEntity
  8
001
370
    50
100
AcDbVertex
100
AcDb2dVertex
 10
192.943232
 20
147.210169
 30
0.0
  0
VERTEX
  5
5B0
330
5AB
100
AcDbEntity
  8
001
370
    50
100
AcDbVertex
100
AcDb2dVertex
 10
192.94019
 20
147.210181
 30
0.0
  0
VERTEX
  5
5B1
330
5AB
100
AcDbEntity
  8
001
370
    50
100
AcDbVertex
100
AcDb2dVertex
 10
192.938109
 20
147.210184
 30
0.0
  0
SEQEND
  5
5AC
330
5AB
100
AcDbEntity
  8
001
370
    50
  0
POLYLINE
  5
5B2
330
1F
100
AcDbEntity
  8
001
370
    50
100
AcDb2dPolyline
 66
     1
 10
0.0
 20
0.0
 30
0.0
  0
VERTEX
  5
5B4
330
5B2
100
AcDbEntity
  8
001
370
    50
100
AcDbVertex
100
AcDb2dVertex
 10
192.938109
 20
147.210184
 30
0.0
  0
VERTEX
  5
5B5
330
5B2
100
AcDbEntity
  8
001
370
    50
100
AcDbVertex
100
AcDb2dVertex
 10
192.918896
 20
147.209933
 30
0.0
  0
VERTEX
  5
5B6
330
5B2
100
AcDbEntity
  8
001
370
    50
100
AcDbVertex
100
AcDb2dVertex
 10
192.89084
 20
147.208889
 30
0.0
  0
VERTEX
  5
5B7
330
5B2
100
AcDbEntity
  8
001
370
    50
100
AcDbVertex
100
AcDb2dVertex
 10
192.862069
 20
147.206859
 30
0.0
  0
VERTEX
  5
5B8
330
5B2
100
AcDbEntity
  8
001
370
    50
100
AcDbVertex
100
AcDb2dVertex
 10
192.842417
 20
147.205005
 30
0.0
  0
SEQEND
  5
5B3
330
5B2
100
AcDbEntity
  8
001
370
    50
  0
POLYLINE
  5
5B9
330
1F
100
AcDbEntity
  8
001
370
    50
100
AcDb2dPolyline
 66
     1
 10
0.0
 20
0.0
 30
0.0
  0
VERTEX
  5
5BB
330
5B9
100
AcDbEntity
  8
001
370
    50
100
AcDbVertex
100
AcDb2dVertex
 10
193.253566
 20
147.201099
 30
0.0
  0
VERTEX
  5
5BC
330
5B9
100
AcDbEntity
  8
001
370
    50
100
AcDbVertex
100
AcDb2dVertex
 10
193.191983
 20
147.20413
 30
0.0
  0
VERTEX
  5
5BD
330
5B9
100
AcDbEntity
  8
001
370
    50
100
AcDbVertex
100
AcDb2dVertex
 10
193.101938
 20
147.20752
 30
0.0
  0
VERTEX
  5
5BE
330
5B9
100
AcDbEntity
  8
001
370
    50
100
AcDbVertex
100
AcDb2dVertex
 10
193.010748
 20
147.209489
 30
0.0
  0
VERTEX
  5
5BF
330
5B9
100
AcDbEntity
  8
001
370
    50
100
AcDbVertex
100
AcDb2dVertex
 10
192.948339
 20
147.210122
 30
0.0
  0
SEQEND
  5
5BA
330
5B9
100
AcDbEntity
  8
001
370
    50
  0
POLYLINE
  5
5C0
330
1F
100
AcDbEntity
  8
001
370
    50
100
AcDb2dPolyline
 66
     1
 10
0.0
 20
0.0
 30
0.0
  0
VERTEX
  5
5C2
330
5C0
100
AcDbEntity
  8
001
370
    50
100
AcDbVertex
100
AcDb2dVertex
 10
195.834001
 20
145.041232
 30
0.0
  0
VERTEX
  5
5C3
330
5C0
100
AcDbEntity
  8
001
370
    50
100
AcDbVertex
100
AcDb2dVertex
 10
195.781459
 20
145.2164
 30
0.0
  0
VERTEX
  5
5C4
330
5C0
100
AcDbEntity
  8
001
370
    50
100
AcDbVertex
100
AcDb2dVertex
 10
195.720902
 20
145.388381
 30
0.0
  0
VERTEX
  5
5C5
330
5C0
100
AcDbEntity
  8
001
370
    50
100
AcDbVertex
100
AcDb2dVertex
 10
195.645721
 20
145.557626
 30
0.0
  0
VERTEX
  5
5C6
330
5C0
100
AcDbEntity
  8
001
370
    50
100
AcDbVertex
100
AcDb2dVertex
 10
195.562271
 20
145.723583
 30
0.0
  0
SEQEND
  5
5C1
330
5C0
100
AcDbEntity
  8
001
370
    50
  0
POLYLINE
  5
5C7
330
1F
100
AcDbEntity
  8
001
370
    50
100
AcDb2dPolyline
 66
     1
 10
0.0
 20
0.0
 30
0.0
  0
VERTEX
  5
5C9
330
5C7
100
AcDbEntity
  8
001
370
    50
100
AcDbVertex
100
AcDb2dVertex
 10
195.924988
 20
144.284385
 30
0.0
  0
VERTEX
  5
5CA
330
5C7
100
AcDbEntity
  8
001
370
    50
100
AcDbVertex
100
AcDb2dVertex
 10
195.910328
 20
144.569653
 30
0.0
  0
VERTEX
  5
5CB
330
5C7
100
AcDbEntity
  8
001
370
    50
100
AcDbVertex
100
AcDb2dVertex
 10
195.875453
 20
144.851839
 30
0.0
  0
VERTEX
  5
5CC
330
5C7
100
AcDbEntity
  8
001
370
    50
100
AcDbVertex
100
AcDb2dVertex
 10
195.855898
 20
144.946714
 30
0.0
  0
VERTEX
  5
5CD
330
5C7
100
AcDbEntity
  8
001
370
    50
100
AcDbVertex
100
AcDb2dVertex
 10
195.834001
 20
145.041232
 30
0.0
  0
SEQEND
  5
5C8
330
5C7
100
AcDbEntity
  8
001
370
    50
  0
POLYLINE
  5
5CE
330
1F
100
AcDbEntity
  8
001
370
    50
100
AcDb2dPolyline
 66
     1
 10
0.0
 20
0.0
 30
0.0
  0
VERTEX
  5
5D0
330
5CE
100
AcDbEntity
  8
001
370
    50
100
AcDbVertex
100
AcDb2dVertex
 10
194.545361
 20
142.646966
 30
0.0
  0
VERTEX
  5
5D1
330
5CE
100
AcDbEntity
  8
001
370
    50
100
AcDbVertex
100
AcDb2dVertex
 10
194.804565
 20
142.859576
 30
0.0
  0
VERTEX
  5
5D2
330
5CE
100
AcDbEntity
  8
001
370
    50
100
AcDbVertex
100
AcDb2dVertex
 10
195.141257
 20
143.161341
 30
0.0
  0
VERTEX
  5
5D3
330
5CE
100
AcDbEntity
  8
001
370
    50
100
AcDbVertex
100
AcDb2dVertex
 10
195.391261
 20
143.421279
 30
0.0
  0
VERTEX
  5
5D4
330
5CE
100
AcDbEntity
  8
001
370
    50
100
AcDbVertex
100
AcDb2dVertex
 10
195.606773
 20
143.713842
 30
0.0
  0
VERTEX
  5
5D5
330
5CE
100
AcDbEntity
  8
001
370
    50
100
AcDbVertex
100
AcDb2dVertex
 10
195.79935
 20
144.037649
 30
0.0
  0
VERTEX
  5
5D6
330
5CE
100
AcDbEntity
  8
001
370
    50
100
AcDbVertex
100
AcDb2dVertex
 10
195.924988
 20
144.284385
 30
0.0
  0
SEQEND
  5
5CF
330
5CE
100
AcDbEntity
  8
001
370
    50
  0
POLYLINE
  5
5D7
330
1F
100
AcDbEntity
  8
001
370
    50
100
AcDb2dPolyline
 66
     1
 10
0.0
 20
0.0
 30
0.0
  0
VERTEX
  5
5D9
330
5D7
100
AcDbEntity
  8
001
370
    50
100
AcDbVertex
100
AcDb2dVertex
 10
190.397019
 20
145.749853
 30
0.0
  0
VERTEX
  5
5DA
330
5D7
100
AcDbEntity
  8
001
370
    50
100
AcDbVertex
100
AcDb2dVertex
 10
190.293546
 20
145.563144
 30
0.0
  0
VERTEX
  5
5DB
330
5D7
100
AcDbEntity
  8
001
370
    50
100
AcDbVertex
100
AcDb2dVertex
 10
190.198833
 20
145.372339
 30
0.0
  0
VERTEX
  5
5DC
330
5D7
100
AcDbEntity
  8
001
370
    50
100
AcDbVertex
100
AcDb2dVertex
 10
190.118338
 20
145.170331
 30
0.0
  0
VERTEX
  5
5DD
330
5D7
100
AcDbEntity
  8
001
370
    50
100
AcDbVertex
100
AcDb2dVertex
 10
190.053522
 20
144.96229
 30
0.0
  0
VERTEX
  5
5DE
330
5D7
100
AcDbEntity
  8
001
370
    50
100
AcDbVertex
100
AcDb2dVertex
 10
190.006469
 20
144.767981
 30
0.0
  0
VERTEX
  5
5DF
330
5D7
100
AcDbEntity
  8
001
370
    50
100
AcDbVertex
100
AcDb2dVertex
 10
189.973408
 20
144.571214
 30
0.0
  0
VERTEX
  5
5E0
330
5D7
100
AcDbEntity
  8
001
370
    50
100
AcDbVertex
100
AcDb2dVertex
 10
189.955196
 20
144.369135
 30
0.0
  0
VERTEX
  5
5E1
330
5D7
100
AcDbEntity
  8
001
370
    50
100
AcDbVertex
100
AcDb2dVertex
 10
189.945749
 20
144.166053
 30
0.0
  0
SEQEND
  5
5D8
330
5D7
100
AcDbEntity
  8
001
370
    50
  0
POLYLINE
  5
5E2
330
1F
100
AcDbEntity
  8
001
370
    50
100
AcDb2dPolyline
 66
     1
 10
0.0
 20
0.0
 30
0.0
  0
VERTEX
  5
5E4
330
5E2
100
AcDbEntity
  8
001
370
    50
100
AcDbVertex
100
AcDb2dVertex
 10
187.957685
 20
142.127085
 30
0.0
  0
VERTEX
  5
5E5
330
5E2
100
AcDbEntity
  8
001
370
    50
100
AcDbVertex
100
AcDb2dVertex
 10
188.196521
 20
142.369528
 30
0.0
  0
VERTEX
  5
5E6
330
5E2
100
AcDbEntity
  8
001
370
    50
100
AcDbVertex
100
AcDb2dVertex
 10
188.54472
 20
142.72472
 30
0.0
  0
VERTEX
  5
5E7
330
5E2
100
AcDbEntity
  8
001
370
    50
100
AcDbVertex
100
AcDb2dVertex
 10
188.895004
 20
143.08447
 30
0.0
  0
VERTEX
  5
5E8
330
5E2
100
AcDbEntity
  8
001
370
    50
100
AcDbVertex
100
AcDb2dVertex
 10
189.134074
 20
143.331196
 30
0.0
  0
SEQEND
  5
5E3
330
5E2
100
AcDbEntity
  8
001
370
    50
  0
POLYLINE
  5
5E9
330
1F
100
AcDbEntity
  8
001
370
    50
100
AcDb2dPolyline
 66
     1
 10
0.0
 20
0.0
 30
0.0
  0
VERTEX
  5
5EB
330
5E9
100
AcDbEntity
  8
001
370
    50
100
AcDbVertex
100
AcDb2dVertex
 10
189.134074
 20
143.331196
 30
0.0
  0
VERTEX
  5
5EC
330
5E9
100
AcDbEntity
  8
001
370
    50
100
AcDbVertex
100
AcDb2dVertex
 10
189.298914
 20
143.499778
 30
0.0
  0
VERTEX
  5
5ED
330
5E9
100
AcDbEntity
  8
001
370
    50
100
AcDbVertex
100
AcDb2dVertex
 10
189.539419
 20
143.746572
 30
0.0
  0
VERTEX
  5
5EE
330
5E9
100
AcDbEntity
  8
001
370
    50
100
AcDbVertex
100
AcDb2dVertex
 10
189.780847
 20
143.995475
 30
0.0
  0
VERTEX
  5
5EF
330
5E9
100
AcDbEntity
  8
001
370
    50
100
AcDbVertex
100
AcDb2dVertex
 10
189.945749
 20
144.166053
 30
0.0
  0
SEQEND
  5
5EA
330
5E9
100
AcDbEntity
  8
001
370
    50
  0
POLYLINE
  5
5F0
330
1F
100
AcDbEntity
  8
001
370
    50
100
AcDb2dPolyline
 66
     1
 10
0.0
 20
0.0
 30
0.0
  0
VERTEX
  5
5F2
330
5F0
100
AcDbEntity
  8
001
370
    50
100
AcDbVertex
100
AcDb2dVertex
 10
195.924988
 20
144.284385
 30
0.0
  0
VERTEX
  5
5F3
330
5F0
100
AcDbEntity
  8
001
370
    50
100
AcDbVertex
100
AcDb2dVertex
 10
196.104727
 20
144.083129
 30
0.0
  0
VERTEX
  5
5F4
330
5F0
100
AcDbEntity
  8
001
370
    50
100
AcDbVertex
100
AcDb2dVertex
 10
196.368114
 20
143.789605
 30
0.0
  0
VERTEX
  5
5F5
330
5F0
100
AcDbEntity
  8
001
370
    50
100
AcDbVertex
100
AcDb2dVertex
 10
196.630705
 20
143.498896
 30
0.0
  0
VERTEX
  5
5F6
330
5F0
100
AcDbEntity
  8
001
370
    50
100
AcDbVertex
100
AcDb2dVertex
 10
196.810842
 20
143.300416
 30
0.0
  0
SEQEND
  5
5F1
330
5F0
100
AcDbEntity
  8
001
370
    50
  0
POLYLINE
  5
5F7
330
1F
100
AcDbEntity
  8
001
370
    50
100
AcDb2dPolyline
 66
     1
 10
0.0
 20
0.0
 30
0.0
  0
VERTEX
  5
5F9
330
5F7
100
AcDbEntity
  8
001
370
    50
100
AcDbVertex
100
AcDb2dVertex
 10
196.810842
 20
143.300416
 30
0.0
  0
VERTEX
  5
5FA
330
5F7
100
AcDbEntity
  8
001
370
    50
100
AcDbVertex
100
AcDb2dVertex
 10
197.017464
 20
143.06384
 30
0.0
  0
VERTEX
  5
5FB
330
5F7
100
AcDbEntity
  8
001
370
    50
100
AcDbVertex
100
AcDb2dVertex
 10
197.320367
 20
142.718881
 30
0.0
  0
VERTEX
  5
5FC
330
5F7
100
AcDbEntity
  8
001
370
    50
100
AcDbVertex
100
AcDb2dVertex
 10
197.62235
 20
142.377529
 30
0.0
  0
VERTEX
  5
5FD
330
5F7
100
AcDbEntity
  8
001
370
    50
100
AcDbVertex
100
AcDb2dVertex
 10
197.829594
 20
142.144524
 30
0.0
  0
SEQEND
  5
5F8
330
5F7
100
AcDbEntity
  8
001
370
    50
  0
POLYLINE
  5
5FE
330
1F
100
AcDbEntity
  8
001
370
    50
100
AcDb2dPolyline
 66
     1
 10
0.0
 20
0.0
 30
0.0
  0
VERTEX
  5
600
330
5FE
100
AcDbEntity
  8
001
370
    50
100
AcDbVertex
100
AcDb2dVertex
 10
197.829594
 20
142.144524
 30
0.0
  0
VERTEX
  5
601
330
5FE
100
AcDbEntity
  8
001
370
    50
100
AcDbVertex
100
AcDb2dVertex
 10
198.036179
 20
141.903242
 30
0.0
  0
VERTEX
  5
602
330
5FE
100
AcDbEntity
  8
001
370
    50
100
AcDbVertex
100
AcDb2dVertex
 10
198.339028
 20
141.551389
 30
0.0
  0
VERTEX
  5
603
330
5FE
100
AcDbEntity
  8
001
370
    50
100
AcDbVertex
100
AcDb2dVertex
 10
198.641066
 20
141.203053
 30
0.0
  0
VERTEX
  5
604
330
5FE
100
AcDbEntity
  8
001
370
    50
100
AcDbVertex
100
AcDb2dVertex
 10
198.848349
 20
140.96526
 30
0.0
  0
SEQEND
  5
5FF
330
5FE
100
AcDbEntity
  8
001
370
    50
  0
POLYLINE
  5
605
330
1F
100
AcDbEntity
  8
001
370
    50
100
AcDb2dPolyline
 66
     1
 10
0.0
 20
0.0
 30
0.0
  0
VERTEX
  5
607
330
605
100
AcDbEntity
  8
001
370
    50
100
AcDbVertex
100
AcDb2dVertex
 10
202.930838
 20
135.986304
 30
0.0
  0
VERTEX
  5
608
330
605
100
AcDbEntity
  8
001
370
    50
100
AcDbVertex
100
AcDb2dVertex
 10
202.987213
 20
135.91302
 30
0.0
  0
VERTEX
  5
609
330
605
100
AcDbEntity
  8
001
370
    50
100
AcDbVertex
100
AcDb2dVertex
 10
203.069675
 20
135.805967
 30
0.0
  0
VERTEX
  5
60A
330
605
100
AcDbEntity
  8
001
370
    50
100
AcDbVertex
100
AcDb2dVertex
 10
203.152129
 20
135.699123
 30
0.0
  0
VERTEX
  5
60B
330
605
100
AcDbEntity
  8
001
370
    50
100
AcDbVertex
100
AcDb2dVertex
 10
203.208592
 20
135.626056
 30
0.0
  0
SEQEND
  5
606
330
605
100
AcDbEntity
  8
001
370
    50
  0
POLYLINE
  5
60C
330
1F
100
AcDbEntity
  8
001
370
    50
100
AcDb2dPolyline
 66
     1
 10
0.0
 20
0.0
 30
0.0
  0
VERTEX
  5
60E
330
60C
100
AcDbEntity
  8
001
370
    50
100
AcDbVertex
100
AcDb2dVertex
 10
203.846552
 20
133.234351
 30
0.0
  0
VERTEX
  5
60F
330
60C
100
AcDbEntity
  8
001
370
    50
100
AcDbVertex
100
AcDb2dVertex
 10
203.718829
 20
132.17725
 30
0.0
  0
VERTEX
  5
610
330
60C
100
AcDbEntity
  8
001
370
    50
100
AcDbVertex
100
AcDb2dVertex
 10
203.537157
 20
130.63167
 30
0.0
  0
VERTEX
  5
611
330
60C
100
AcDbEntity
  8
001
370
    50
100
AcDbVertex
100
AcDb2dVertex
 10
203.360725
 20
129.070247
 30
0.0
  0
VERTEX
  5
612
330
60C
100
AcDbEntity
  8
001
370
    50
100
AcDbVertex
100
AcDb2dVertex
 10
203.24344
 20
128.001518
 30
0.0
  0
SEQEND
  5
60D
330
60C
100
AcDbEntity
  8
001
370
    50
  0
POLYLINE
  5
613
330
1F
100
AcDbEntity
  8
001
370
    50
100
AcDb2dPolyline
 66
     1
 10
0.0
 20
0.0
 30
0.0
  0
VERTEX
  5
615
330
613
100
AcDbEntity
  8
001
370
    50
100
AcDbVertex
100
AcDb2dVertex
 10
203.846552
 20
133.234351
 30
0.0
  0
VERTEX
  5
616
330
613
100
AcDbEntity
  8
001
370
    50
100
AcDbVertex
100
AcDb2dVertex
 10
203.864821
 20
133.491301
 30
0.0
  0
VERTEX
  5
617
330
613
100
AcDbEntity
  8
001
370
    50
100
AcDbVertex
100
AcDb2dVertex
 10
203.870847
 20
133.748334
 30
0.0
  0
VERTEX
  5
618
330
613
100
AcDbEntity
  8
001
370
    50
100
AcDbVertex
100
AcDb2dVertex
 10
203.852333
 20
134.027896
 30
0.0
  0
VERTEX
  5
619
330
613
100
AcDbEntity
  8
001
370
    50
100
AcDbVertex
100
AcDb2dVertex
 10
203.808054
 20
134.305
 30
0.0
  0
VERTEX
  5
61A
330
613
100
AcDbEntity
  8
001
370
    50
100
AcDbVertex
100
AcDb2dVertex
 10
203.739331
 20
134.58203
 30
0.0
  0
VERTEX
  5
61B
330
613
100
AcDbEntity
  8
001
370
    50
100
AcDbVertex
100
AcDb2dVertex
 10
203.647441
 20
134.852197
 30
0.0
  0
VERTEX
  5
61C
330
613
100
AcDbEntity
  8
001
370
    50
100
AcDbVertex
100
AcDb2dVertex
 10
203.559876
 20
135.05609
 30
0.0
  0
VERTEX
  5
61D
330
613
100
AcDbEntity
  8
001
370
    50
100
AcDbVertex
100
AcDb2dVertex
 10
203.4569
 20
135.252298
 30
0.0
  0
VERTEX
  5
61E
330
613
100
AcDbEntity
  8
001
370
    50
100
AcDbVertex
100
AcDb2dVertex
 10
203.337085
 20
135.441812
 30
0.0
  0
VERTEX
  5
61F
330
613
100
AcDbEntity
  8
001
370
    50
100
AcDbVertex
100
AcDb2dVertex
 10
203.208592
 20
135.626056
 30
0.0
  0
SEQEND
  5
614
330
613
100
AcDbEntity
  8
001
370
    50
  0
POLYLINE
  5
620
330
1F
100
AcDbEntity
  8
001
370
    50
100
AcDb2dPolyline
 66
     1
 10
0.0
 20
0.0
 30
0.0
  0
VERTEX
  5
622
330
620
100
AcDbEntity
  8
001
370
    50
100
AcDbVertex
100
AcDb2dVertex
 10
202.698489
 20
133.234351
 30
0.0
  0
VERTEX
  5
623
330
620
100
AcDbEntity
  8
001
370
    50
100
AcDbVertex
100
AcDb2dVertex
 10
202.687204
 20
133.438335
 30
0.0
  0
VERTEX
  5
624
330
620
100
AcDbEntity
  8
001
370
    50
100
AcDbVertex
100
AcDb2dVertex
 10
202.651955
 20
133.718117
 30
0.0
  0
VERTEX
  5
625
330
620
100
AcDbEntity
  8
001
370
    50
100
AcDbVertex
100
AcDb2dVertex
 10
202.59232
 20
133.966441
 30
0.0
  0
VERTEX
  5
626
330
620
100
AcDbEntity
  8
001
370
    50
100
AcDbVertex
100
AcDb2dVertex
 10
202.51411
 20
134.183597
 30
0.0
  0
VERTEX
  5
627
330
620
100
AcDbEntity
  8
001
370
    50
100
AcDbVertex
100
AcDb2dVertex
 10
202.419699
 20
134.393692
 30
0.0
  0
VERTEX
  5
628
330
620
100
AcDbEntity
  8
001
370
    50
100
AcDbVertex
100
AcDb2dVertex
 10
202.290165
 20
134.613192
 30
0.0
  0
VERTEX
  5
629
330
620
100
AcDbEntity
  8
001
370
    50
100
AcDbVertex
100
AcDb2dVertex
 10
202.121755
 20
134.837331
 30
0.0
  0
VERTEX
  5
62A
330
620
100
AcDbEntity
  8
001
370
    50
100
AcDbVertex
100
AcDb2dVertex
 10
201.988587
 20
134.990665
 30
0.0
  0
SEQEND
  5
621
330
620
100
AcDbEntity
  8
001
370
    50
  0
LINE
  5
62B
330
1F
100
AcDbEntity
  8
001
370
    50
100
AcDbLine
 10
202.698489
 20
128.235628
 30
0.0
 11
202.698489
 21
133.234351
 31
0.0
  0
LINE
  5
62C
330
1F
100
AcDbEntity
  8
001
370
    50
100
AcDbLine
 10
187.013937
 20
140.205772
 30
0.0
 11
186.686306
 21
139.877357
 31
0.0
  0
POLYLINE
  5
62D
330
1F
100
AcDbEntity
  8
001
370
    50
100
AcDb2dPolyline
 66
     1
 10
0.0
 20
0.0
 30
0.0
  0
VERTEX
  5
62F
330
62D
100
AcDbEntity
  8
001
370
    50
100
AcDbVertex
100
AcDb2dVertex
 10
189.945749
 20
144.166053
 30
0.0
  0
VERTEX
  5
630
330
62D
100
AcDbEntity
  8
001
370
    50
100
AcDbVertex
100
AcDb2dVertex
 10
189.925182
 20
144.120202
 30
0.0
  0
VERTEX
  5
631
330
62D
100
AcDbEntity
  8
001
370
    50
100
AcDbVertex
100
AcDb2dVertex
 10
189.900009
 20
144.062824
 30
0.0
  0
SEQEND
  5
62E
330
62D
100
AcDbEntity
  8
001
370
    50
  0
POLYLINE
  5
632
330
1F
100
AcDbEntity
  8
001
370
    50
100
AcDb2dPolyline
 66
     1
 10
0.0
 20
0.0
 30
0.0
  0
VERTEX
  5
634
330
632
100
AcDbEntity
  8
001
370
    50
100
AcDbVertex
100
AcDb2dVertex
 10
194.545361
 20
142.646966
 30
0.0
  0
VERTEX
  5
635
330
632
100
AcDbEntity
  8
001
370
    50
100
AcDbVertex
100
AcDb2dVertex
 10
194.65096
 20
142.845655
 30
0.0
  0
VERTEX
  5
636
330
632
100
AcDbEntity
  8
001
370
    50
100
AcDbVertex
100
AcDb2dVertex
 10
194.779031
 20
143.127479
 30
0.0
  0
VERTEX
  5
637
330
632
100
AcDbEntity
  8
001
370
    50
100
AcDbVertex
100
AcDb2dVertex
 10
194.869151
 20
143.391569
 30
0.0
  0
VERTEX
  5
638
330
632
100
AcDbEntity
  8
001
370
    50
100
AcDbVertex
100
AcDb2dVertex
 10
194.924778
 20
143.642541
 30
0.0
  0
VERTEX
  5
639
330
632
100
AcDbEntity
  8
001
370
    50
100
AcDbVertex
100
AcDb2dVertex
 10
194.961532
 20
143.905334
 30
0.0
  0
VERTEX
  5
63A
330
632
100
AcDbEntity
  8
001
370
    50
100
AcDbVertex
100
AcDb2dVertex
 10
194.977953
 20
144.175717
 30
0.0
  0
VERTEX
  5
63B
330
632
100
AcDbEntity
  8
001
370
    50
100
AcDbVertex
100
AcDb2dVertex
 10
194.969599
 20
144.444462
 30
0.0
  0
VERTEX
  5
63C
330
632
100
AcDbEntity
  8
001
370
    50
100
AcDbVertex
100
AcDb2dVertex
 10
194.936857
 20
144.709992
 30
0.0
  0
VERTEX
  5
63D
330
632
100
AcDbEntity
  8
001
370
    50
100
AcDbVertex
100
AcDb2dVertex
 10
194.881137
 20
144.971928
 30
0.0
  0
VERTEX
  5
63E
330
632
100
AcDbEntity
  8
001
370
    50
100
AcDbVertex
100
AcDb2dVertex
 10
194.802803
 20
145.228319
 30
0.0
  0
VERTEX
  5
63F
330
632
100
AcDbEntity
  8
001
370
    50
100
AcDbVertex
100
AcDb2dVertex
 10
194.70228
 20
145.476211
 30
0.0
  0
VERTEX
  5
640
330
632
100
AcDbEntity
  8
001
370
    50
100
AcDbVertex
100
AcDb2dVertex
 10
194.580067
 20
145.714157
 30
0.0
  0
VERTEX
  5
641
330
632
100
AcDbEntity
  8
001
370
    50
100
AcDbVertex
100
AcDb2dVertex
 10
194.437427
 20
145.939869
 30
0.0
  0
VERTEX
  5
642
330
632
100
AcDbEntity
  8
001
370
    50
100
AcDbVertex
100
AcDb2dVertex
 10
194.275759
 20
146.152003
 30
0.0
  0
VERTEX
  5
643
330
632
100
AcDbEntity
  8
001
370
    50
100
AcDbVertex
100
AcDb2dVertex
 10
194.096886
 20
146.348235
 30
0.0
  0
VERTEX
  5
644
330
632
100
AcDbEntity
  8
001
370
    50
100
AcDbVertex
100
AcDb2dVertex
 10
193.899587
 20
146.527884
 30
0.0
  0
VERTEX
  5
645
330
632
100
AcDbEntity
  8
001
370
    50
100
AcDbVertex
100
AcDb2dVertex
 10
193.685361
 20
146.689112
 30
0.0
  0
VERTEX
  5
646
330
632
100
AcDbEntity
  8
001
370
    50
100
AcDbVertex
100
AcDb2dVertex
 10
193.463556
 20
146.829808
 30
0.0
  0
VERTEX
  5
647
330
632
100
AcDbEntity
  8
001
370
    50
100
AcDbVertex
100
AcDb2dVertex
 10
193.238645
 20
146.948134
 30
0.0
  0
VERTEX
  5
648
330
632
100
AcDbEntity
  8
001
370
    50
100
AcDbVertex
100
AcDb2dVertex
 10
192.98158
 20
147.048139
 30
0.0
  0
VERTEX
  5
649
330
632
100
AcDbEntity
  8
001
370
    50
100
AcDbVertex
100
AcDb2dVertex
 10
192.72754
 20
147.12003
 30
0.0
  0
VERTEX
  5
64A
330
632
100
AcDbEntity
  8
001
370
    50
100
AcDbVertex
100
AcDb2dVertex
 10
192.514891
 20
147.167816
 30
0.0
  0
SEQEND
  5
633
330
632
100
AcDbEntity
  8
001
370
    50
  0
LINE
  5
64B
330
1F
100
AcDbEntity
  8
001
370
    50
100
AcDbLine
 10
195.429702
 20
141.737309
 30
0.0
 11
194.545361
 21
142.646966
 31
0.0
  0
LINE
  5
64C
330
1F
100
AcDbEntity
  8
001
370
    50
100
AcDbLine
 10
201.988587
 20
134.990665
 30
0.0
 11
201.203931
 21
135.797783
 31
0.0
  0
POLYLINE
  5
64D
330
1F
100
AcDbEntity
  8
001
370
    50
100
AcDb2dPolyline
 66
     1
 10
0.0
 20
0.0
 30
0.0
  0
VERTEX
  5
64F
330
64D
100
AcDbEntity
  8
001
370
    50
100
AcDbVertex
100
AcDb2dVertex
 10
202.172063
 20
136.938777
 30
0.0
  0
VERTEX
  5
650
330
64D
100
AcDbEntity
  8
001
370
    50
100
AcDbVertex
100
AcDb2dVertex
 10
202.292482
 20
136.786547
 30
0.0
  0
VERTEX
  5
651
330
64D
100
AcDbEntity
  8
001
370
    50
100
AcDbVertex
100
AcDb2dVertex
 10
202.4192
 20
136.626785
 30
0.0
  0
VERTEX
  5
652
330
64D
100
AcDbEntity
  8
001
370
    50
100
AcDbVertex
100
AcDb2dVertex
 10
202.722608
 20
136.246198
 30
0.0
  0
VERTEX
  5
653
330
64D
100
AcDbEntity
  8
001
370
    50
100
AcDbVertex
100
AcDb2dVertex
 10
202.930838
 20
135.986304
 30
0.0
  0
SEQEND
  5
64E
330
64D
100
AcDbEntity
  8
001
370
    50
  0
POLYLINE
  5
654
330
1F
100
AcDbEntity
  8
001
370
    50
100
AcDb2dPolyline
 66
     1
 10
0.0
 20
0.0
 30
0.0
  0
VERTEX
  5
656
330
654
100
AcDbEntity
  8
001
370
    50
100
AcDbVertex
100
AcDb2dVertex
 10
198.848349
 20
140.96526
 30
0.0
  0
VERTEX
  5
657
330
654
100
AcDbEntity
  8
001
370
    50
100
AcDbVertex
100
AcDb2dVertex
 10
199.044867
 20
140.731017
 30
0.0
  0
VERTEX
  5
658
330
654
100
AcDbEntity
  8
001
370
    50
100
AcDbVertex
100
AcDb2dVertex
 10
199.333859
 20
140.38824
 30
0.0
  0
SEQEND
  5
655
330
654
100
AcDbEntity
  8
001
370
    50
  0
POLYLINE
  5
659
330
1F
100
AcDbEntity
  8
001
370
    50
100
AcDb2dPolyline
 66
     1
 10
0.0
 20
0.0
 30
0.0
  0
VERTEX
  5
65B
330
659
100
AcDbEntity
  8
001
370
    50
100
AcDbVertex
100
AcDb2dVertex
 10
196.132786
 20
128.003481
 30
0.0
  0
VERTEX
  5
65C
330
659
100
AcDbEntity
  8
001
370
    50
100
AcDbVertex
100
AcDb2dVertex
 10
196.454989
 20
128.01344
 30
0.0
  0
VERTEX
  5
65D
330
659
100
AcDbEntity
  8
001
370
    50
100
AcDbVertex
100
AcDb2dVertex
 10
196.777913
 20
128.023595
 30
0.0
  0
VERTEX
  5
65E
330
659
100
AcDbEntity
  8
001
370
    50
100
AcDbVertex
100
AcDb2dVertex
 10
200.293438
 20
128.144178
 30
0.0
  0
VERTEX
  5
65F
330
659
100
AcDbEntity
  8
001
370
    50
100
AcDbVertex
100
AcDb2dVertex
 10
202.698489
 20
128.235628
 30
0.0
  0
SEQEND
  5
65A
330
659
100
AcDbEntity
  8
001
370
    50
  0
POLYLINE
  5
660
330
1F
100
AcDbEntity
  8
001
370
    50
100
AcDb2dPolyline
 66
     1
 10
0.0
 20
0.0
 30
0.0
  0
VERTEX
  5
662
330
660
100
AcDbEntity
  8
001
370
    50
100
AcDbVertex
100
AcDb2dVertex
 10
190.809281
 20
127.858688
 30
0.0
  0
VERTEX
  5
663
330
660
100
AcDbEntity
  8
001
370
    50
100
AcDbVertex
100
AcDb2dVertex
 10
191.399072
 20
127.872951
 30
0.0
  0
VERTEX
  5
664
330
660
100
AcDbEntity
  8
001
370
    50
100
AcDbVertex
100
AcDb2dVertex
 10
192.183292
 20
127.892718
 30
0.0
  0
SEQEND
  5
661
330
660
100
AcDbEntity
  8
001
370
    50
  0
POLYLINE
  5
665
330
1F
100
AcDbEntity
  8
001
370
    50
100
AcDb2dPolyline
 66
     1
 10
0.0
 20
0.0
 30
0.0
  0
VERTEX
  5
667
330
665
100
AcDbEntity
  8
001
370
    50
100
AcDbVertex
100
AcDb2dVertex
 10
235.105156
 20
128.221962
 30
0.0
  0
VERTEX
  5
668
330
665
100
AcDbEntity
  8
001
370
    50
100
AcDbVertex
100
AcDb2dVertex
 10
235.017
 20
128.175096
 30
0.0
  0
VERTEX
  5
669
330
665
100
AcDbEntity
  8
001
370
    50
100
AcDbVertex
100
AcDb2dVertex
 10
234.927232
 20
128.131792
 30
0.0
  0
VERTEX
  5
66A
330
665
100
AcDbEntity
  8
001
370
    50
100
AcDbVertex
100
AcDb2dVertex
 10
234.774568
 20
128.07477
 30
0.0
  0
VERTEX
  5
66B
330
665
100
AcDbEntity
  8
001
370
    50
100
AcDbVertex
100
AcDb2dVertex
 10
234.61655
 20
128.033086
 30
0.0
  0
VERTEX
  5
66C
330
665
100
AcDbEntity
  8
001
370
    50
100
AcDbVertex
100
AcDb2dVertex
 10
234.42409
 20
127.999006
 30
0.0
  0
VERTEX
  5
66D
330
665
100
AcDbEntity
  8
001
370
    50
100
AcDbVertex
100
AcDb2dVertex
 10
234.22974
 20
127.980272
 30
0.0
  0
VERTEX
  5
66E
330
665
100
AcDbEntity
  8
001
370
    50
100
AcDbVertex
100
AcDb2dVertex
 10
233.9947
 20
127.975963
 30
0.0
  0
VERTEX
  5
66F
330
665
100
AcDbEntity
  8
001
370
    50
100
AcDbVertex
100
AcDb2dVertex
 10
233.759778
 20
127.988462
 30
0.0
  0
VERTEX
  5
670
330
665
100
AcDbEntity
  8
001
370
    50
100
AcDbVertex
100
AcDb2dVertex
 10
233.589386
 20
128.006487
 30
0.0
  0
VERTEX
  5
671
330
665
100
AcDbEntity
  8
001
370
    50
100
AcDbVertex
100
AcDb2dVertex
 10
233.42011
 20
128.032138
 30
0.0
  0
VERTEX
  5
672
330
665
100
AcDbEntity
  8
001
370
    50
100
AcDbVertex
100
AcDb2dVertex
 10
233.231166
 20
128.069813
 30
0.0
  0
VERTEX
  5
673
330
665
100
AcDbEntity
  8
001
370
    50
100
AcDbVertex
100
AcDb2dVertex
 10
233.043178
 20
128.112658
 30
0.0
  0
SEQEND
  5
666
330
665
100
AcDbEntity
  8
001
370
    50
  0
POLYLINE
  5
674
330
1F
100
AcDbEntity
  8
001
370
    50
100
AcDb2dPolyline
 66
     1
 10
0.0
 20
0.0
 30
0.0
  0
VERTEX
  5
676
330
674
100
AcDbEntity
  8
001
370
    50
100
AcDbVertex
100
AcDb2dVertex
 10
210.263655
 20
128.598747
 30
0.0
  0
VERTEX
  5
677
330
674
100
AcDbEntity
  8
001
370
    50
100
AcDbVertex
100
AcDb2dVertex
 10
209.989101
 20
128.572163
 30
0.0
  0
VERTEX
  5
678
330
674
100
AcDbEntity
  8
001
370
    50
100
AcDbVertex
100
AcDb2dVertex
 10
209.714636
 20
128.544711
 30
0.0
  0
VERTEX
  5
679
330
674
100
AcDbEntity
  8
001
370
    50
100
AcDbVertex
100
AcDb2dVertex
 10
209.441601
 20
128.515948
 30
0.0
  0
VERTEX
  5
67A
330
674
100
AcDbEntity
  8
001
370
    50
100
AcDbVertex
100
AcDb2dVertex
 10
209.168655
 20
128.486326
 30
0.0
  0
SEQEND
  5
675
330
674
100
AcDbEntity
  8
001
370
    50
  0
POLYLINE
  5
67B
330
1F
100
AcDbEntity
  8
001
370
    50
100
AcDb2dPolyline
 66
     1
 10
0.0
 20
0.0
 30
0.0
  0
VERTEX
  5
67D
330
67B
100
AcDbEntity
  8
001
370
    50
100
AcDbVertex
100
AcDb2dVertex
 10
211.358655
 20
128.718099
 30
0.0
  0
VERTEX
  5
67E
330
67B
100
AcDbEntity
  8
001
370
    50
100
AcDbVertex
100
AcDb2dVertex
 10
211.084094
 20
128.689915
 30
0.0
  0
VERTEX
  5
67F
330
67B
100
AcDbEntity
  8
001
370
    50
100
AcDbVertex
100
AcDb2dVertex
 10
210.809636
 20
128.660789
 30
0.0
  0
VERTEX
  5
680
330
67B
100
AcDbEntity
  8
001
370
    50
100
AcDbVertex
100
AcDb2dVertex
 10
210.536595
 20
128.630235
 30
0.0
  0
VERTEX
  5
681
330
67B
100
AcDbEntity
  8
001
370
    50
100
AcDbVertex
100
AcDb2dVertex
 10
210.263655
 20
128.598747
 30
0.0
  0
SEQEND
  5
67C
330
67B
100
AcDbEntity
  8
001
370
    50
  0
POLYLINE
  5
682
330
1F
100
AcDbEntity
  8
001
370
    50
100
AcDb2dPolyline
 66
     1
 10
0.0
 20
0.0
 30
0.0
  0
VERTEX
  5
684
330
682
100
AcDbEntity
  8
001
370
    50
100
AcDbVertex
100
AcDb2dVertex
 10
212.453655
 20
128.844345
 30
0.0
  0
VERTEX
  5
685
330
682
100
AcDbEntity
  8
001
370
    50
100
AcDbVertex
100
AcDb2dVertex
 10
212.179087
 20
128.81457
 30
0.0
  0
VERTEX
  5
686
330
682
100
AcDbEntity
  8
001
370
    50
100
AcDbVertex
100
AcDb2dVertex
 10
211.904636
 20
128.783779
 30
0.0
  0
VERTEX
  5
687
330
682
100
AcDbEntity
  8
001
370
    50
100
AcDbVertex
100
AcDb2dVertex
 10
211.631587
 20
128.751442
 30
0.0
  0
VERTEX
  5
688
330
682
100
AcDbEntity
  8
001
370
    50
100
AcDbVertex
100
AcDb2dVertex
 10
211.358655
 20
128.718099
 30
0.0
  0
SEQEND
  5
683
330
682
100
AcDbEntity
  8
001
370
    50
  0
POLYLINE
  5
689
330
1F
100
AcDbEntity
  8
001
370
    50
100
AcDb2dPolyline
 66
     1
 10
0.0
 20
0.0
 30
0.0
  0
VERTEX
  5
68B
330
689
100
AcDbEntity
  8
001
370
    50
100
AcDbVertex
100
AcDb2dVertex
 10
213.548655
 20
128.977445
 30
0.0
  0
VERTEX
  5
68C
330
689
100
AcDbEntity
  8
001
370
    50
100
AcDbVertex
100
AcDb2dVertex
 10
213.274079
 20
128.946088
 30
0.0
  0
VERTEX
  5
68D
330
689
100
AcDbEntity
  8
001
370
    50
100
AcDbVertex
100
AcDb2dVertex
 10
212.999636
 20
128.913642
 30
0.0
  0
VERTEX
  5
68E
330
689
100
AcDbEntity
  8
001
370
    50
100
AcDbVertex
100
AcDb2dVertex
 10
212.72658
 20
128.879533
 30
0.0
  0
VERTEX
  5
68F
330
689
100
AcDbEntity
  8
001
370
    50
100
AcDbVertex
100
AcDb2dVertex
 10
212.453655
 20
128.844345
 30
0.0
  0
SEQEND
  5
68A
330
689
100
AcDbEntity
  8
001
370
    50
  0
POLYLINE
  5
690
330
1F
100
AcDbEntity
  8
001
370
    50
100
AcDb2dPolyline
 66
     1
 10
0.0
 20
0.0
 30
0.0
  0
VERTEX
  5
692
330
690
100
AcDbEntity
  8
001
370
    50
100
AcDbVertex
100
AcDb2dVertex
 10
214.643655
 20
129.117361
 30
0.0
  0
VERTEX
  5
693
330
690
100
AcDbEntity
  8
001
370
    50
100
AcDbVertex
100
AcDb2dVertex
 10
214.369071
 20
129.084431
 30
0.0
  0
VERTEX
  5
694
330
690
100
AcDbEntity
  8
001
370
    50
100
AcDbVertex
100
AcDb2dVertex
 10
214.094636
 20
129.05034
 30
0.0
  0
VERTEX
  5
695
330
690
100
AcDbEntity
  8
001
370
    50
100
AcDbVertex
100
AcDb2dVertex
 10
213.821572
 20
129.014468
 30
0.0
  0
VERTEX
  5
696
330
690
100
AcDbEntity
  8
001
370
    50
100
AcDbVertex
100
AcDb2dVertex
 10
213.548655
 20
128.977445
 30
0.0
  0
SEQEND
  5
691
330
690
100
AcDbEntity
  8
001
370
    50
  0
POLYLINE
  5
697
330
1F
100
AcDbEntity
  8
001
370
    50
100
AcDb2dPolyline
 66
     1
 10
0.0
 20
0.0
 30
0.0
  0
VERTEX
  5
699
330
697
100
AcDbEntity
  8
001
370
    50
100
AcDbVertex
100
AcDb2dVertex
 10
215.738655
 20
129.264049
 30
0.0
  0
VERTEX
  5
69A
330
697
100
AcDbEntity
  8
001
370
    50
100
AcDbVertex
100
AcDb2dVertex
 10
215.464063
 20
129.229555
 30
0.0
  0
VERTEX
  5
69B
330
697
100
AcDbEntity
  8
001
370
    50
100
AcDbVertex
100
AcDb2dVertex
 10
215.189636
 20
129.19383
 30
0.0
  0
VERTEX
  5
69C
330
697
100
AcDbEntity
  8
001
370
    50
100
AcDbVertex
100
AcDb2dVertex
 10
214.916564
 20
129.156206
 30
0.0
  0
VERTEX
  5
69D
330
697
100
AcDbEntity
  8
001
370
    50
100
AcDbVertex
100
AcDb2dVertex
 10
214.643655
 20
129.117361
 30
0.0
  0
SEQEND
  5
698
330
697
100
AcDbEntity
  8
001
370
    50
  0
POLYLINE
  5
69E
330
1F
100
AcDbEntity
  8
001
370
    50
100
AcDb2dPolyline
 66
     1
 10
0.0
 20
0.0
 30
0.0
  0
VERTEX
  5
6A0
330
69E
100
AcDbEntity
  8
001
370
    50
100
AcDbVertex
100
AcDb2dVertex
 10
233.043178
 20
128.112658
 30
0.0
  0
VERTEX
  5
6A1
330
69E
100
AcDbEntity
  8
001
370
    50
100
AcDbVertex
100
AcDb2dVertex
 10
232.680547
 20
128.205103
 30
0.0
  0
VERTEX
  5
6A2
330
69E
100
AcDbEntity
  8
001
370
    50
100
AcDbVertex
100
AcDb2dVertex
 10
232.317756
 20
128.296914
 30
0.0
  0
VERTEX
  5
6A3
330
69E
100
AcDbEntity
  8
001
370
    50
100
AcDbVertex
100
AcDb2dVertex
 10
231.917538
 20
128.396683
 30
0.0
  0
VERTEX
  5
6A4
330
69E
100
AcDbEntity
  8
001
370
    50
100
AcDbVertex
100
AcDb2dVertex
 10
231.516838
 20
128.494495
 30
0.0
  0
VERTEX
  5
6A5
330
69E
100
AcDbEntity
  8
001
370
    50
100
AcDbVertex
100
AcDb2dVertex
 10
231.084353
 20
128.597263
 30
0.0
  0
VERTEX
  5
6A6
330
69E
100
AcDbEntity
  8
001
370
    50
100
AcDbVertex
100
AcDb2dVertex
 10
230.651129
 20
128.696869
 30
0.0
  0
VERTEX
  5
6A7
330
69E
100
AcDbEntity
  8
001
370
    50
100
AcDbVertex
100
AcDb2dVertex
 10
230.19171
 20
128.798407
 30
0.0
  0
VERTEX
  5
6A8
330
69E
100
AcDbEntity
  8
001
370
    50
100
AcDbVertex
100
AcDb2dVertex
 10
229.731334
 20
128.895505
 30
0.0
  0
VERTEX
  5
6A9
330
69E
100
AcDbEntity
  8
001
370
    50
100
AcDbVertex
100
AcDb2dVertex
 10
229.249022
 20
128.991856
 30
0.0
  0
VERTEX
  5
6AA
330
69E
100
AcDbEntity
  8
001
370
    50
100
AcDbVertex
100
AcDb2dVertex
 10
228.765668
 20
129.082835
 30
0.0
  0
VERTEX
  5
6AB
330
69E
100
AcDbEntity
  8
001
370
    50
100
AcDbVertex
100
AcDb2dVertex
 10
228.260822
 20
129.171894
 30
0.0
  0
VERTEX
  5
6AC
330
69E
100
AcDbEntity
  8
001
370
    50
100
AcDbVertex
100
AcDb2dVertex
 10
227.754958
 20
129.254972
 30
0.0
  0
VERTEX
  5
6AD
330
69E
100
AcDbEntity
  8
001
370
    50
100
AcDbVertex
100
AcDb2dVertex
 10
227.232591
 20
129.334206
 30
0.0
  0
VERTEX
  5
6AE
330
69E
100
AcDbEntity
  8
001
370
    50
100
AcDbVertex
100
AcDb2dVertex
 10
226.709253
 20
129.40676
 30
0.0
  0
VERTEX
  5
6AF
330
69E
100
AcDbEntity
  8
001
370
    50
100
AcDbVertex
100
AcDb2dVertex
 10
226.17437
 20
129.473662
 30
0.0
  0
VERTEX
  5
6B0
330
69E
100
AcDbEntity
  8
001
370
    50
100
AcDbVertex
100
AcDb2dVertex
 10
225.638601
 20
129.533042
 30
0.0
  0
VERTEX
  5
6B1
330
69E
100
AcDbEntity
  8
001
370
    50
100
AcDbVertex
100
AcDb2dVertex
 10
225.052385
 20
129.589005
 30
0.0
  0
VERTEX
  5
6B2
330
69E
100
AcDbEntity
  8
001
370
    50
100
AcDbVertex
100
AcDb2dVertex
 10
224.465357
 20
129.635747
 30
0.0
  0
VERTEX
  5
6B3
330
69E
100
AcDbEntity
  8
001
370
    50
100
AcDbVertex
100
AcDb2dVertex
 10
223.868606
 20
129.673935
 30
0.0
  0
VERTEX
  5
6B4
330
69E
100
AcDbEntity
  8
001
370
    50
100
AcDbVertex
100
AcDb2dVertex
 10
223.271334
 20
129.702844
 30
0.0
  0
VERTEX
  5
6B5
330
69E
100
AcDbEntity
  8
001
370
    50
100
AcDbVertex
100
AcDb2dVertex
 10
222.669687
 20
129.722595
 30
0.0
  0
VERTEX
  5
6B6
330
69E
100
AcDbEntity
  8
001
370
    50
100
AcDbVertex
100
AcDb2dVertex
 10
222.067803
 20
129.732877
 30
0.0
  0
VERTEX
  5
6B7
330
69E
100
AcDbEntity
  8
001
370
    50
100
AcDbVertex
100
AcDb2dVertex
 10
221.46688
 20
129.733553
 30
0.0
  0
VERTEX
  5
6B8
330
69E
100
AcDbEntity
  8
001
370
    50
100
AcDbVertex
100
AcDb2dVertex
 10
220.866031
 20
129.724389
 30
0.0
  0
VERTEX
  5
6B9
330
69E
100
AcDbEntity
  8
001
370
    50
100
AcDbVertex
100
AcDb2dVertex
 10
220.229415
 20
129.703744
 30
0.0
  0
VERTEX
  5
6BA
330
69E
100
AcDbEntity
  8
001
370
    50
100
AcDbVertex
100
AcDb2dVertex
 10
219.593242
 20
129.672193
 30
0.0
  0
VERTEX
  5
6BB
330
69E
100
AcDbEntity
  8
001
370
    50
100
AcDbVertex
100
AcDb2dVertex
 10
218.96175
 20
129.630487
 30
0.0
  0
VERTEX
  5
6BC
330
69E
100
AcDbEntity
  8
001
370
    50
100
AcDbVertex
100
AcDb2dVertex
 10
218.331003
 20
129.578773
 30
0.0
  0
VERTEX
  5
6BD
330
69E
100
AcDbEntity
  8
001
370
    50
100
AcDbVertex
100
AcDb2dVertex
 10
217.711014
 20
129.518367
 30
0.0
  0
VERTEX
  5
6BE
330
69E
100
AcDbEntity
  8
001
370
    50
100
AcDbVertex
100
AcDb2dVertex
 10
217.091986
 20
129.448751
 30
0.0
  0
VERTEX
  5
6BF
330
69E
100
AcDbEntity
  8
001
370
    50
100
AcDbVertex
100
AcDb2dVertex
 10
216.489822
 20
129.372173
 30
0.0
  0
VERTEX
  5
6C0
330
69E
100
AcDbEntity
  8
001
370
    50
100
AcDbVertex
100
AcDb2dVertex
 10
215.888863
 20
129.28675
 30
0.0
  0
VERTEX
  5
6C1
330
69E
100
AcDbEntity
  8
001
370
    50
100
AcDbVertex
100
AcDb2dVertex
 10
215.813753
 20
129.275435
 30
0.0
  0
VERTEX
  5
6C2
330
69E
100
AcDbEntity
  8
001
370
    50
100
AcDbVertex
100
AcDb2dVertex
 10
215.738655
 20
129.264049
 30
0.0
  0
SEQEND
  5
69F
330
69E
100
AcDbEntity
  8
001
370
    50
  0
ARC
  5
6C3
330
1F
100
AcDbEntity
  8
001
  6
DASHED
370
    50
100
AcDbCircle
 10
233.043178
 20
131.649534
 30
0.0
 40
4.000000000000004
100
AcDbArc
 50
300.902605
 51
306.691709
  0
POLYLINE
  5
6C4
330
1F
100
AcDbEntity
  8
001
370
    50
100
AcDb2dPolyline
 66
     1
 10
0.0
 20
0.0
 30
0.0
  0
VERTEX
  5
6C6
330
6C4
100
AcDbEntity
  8
001
370
    50
100
AcDbVertex
100
AcDb2dVertex
 10
204.788655
 20
128.106593
 30
0.0
  0
VERTEX
  5
6C7
330
6C4
100
AcDbEntity
  8
001
370
    50
100
AcDbVertex
100
AcDb2dVertex
 10
204.514128
 20
128.088117
 30
0.0
  0
VERTEX
  5
6C8
330
6C4
100
AcDbEntity
  8
001
370
    50
100
AcDbVertex
100
AcDb2dVertex
 10
204.239636
 20
128.069149
 30
0.0
  0
VERTEX
  5
6C9
330
6C4
100
AcDbEntity
  8
001
370
    50
100
AcDbVertex
100
AcDb2dVertex
 10
203.966628
 20
128.049465
 30
0.0
  0
VERTEX
  5
6CA
330
6C4
100
AcDbEntity
  8
001
370
    50
100
AcDbVertex
100
AcDb2dVertex
 10
203.693655
 20
128.029293
 30
0.0
  0
SEQEND
  5
6C5
330
6C4
100
AcDbEntity
  8
001
370
    50
  0
POLYLINE
  5
6CB
330
1F
100
AcDbEntity
  8
001
370
    50
100
AcDb2dPolyline
 66
     1
 10
0.0
 20
0.0
 30
0.0
  0
VERTEX
  5
6CD
330
6CB
100
AcDbEntity
  8
001
370
    50
100
AcDbVertex
100
AcDb2dVertex
 10
205.883655
 20
128.190973
 30
0.0
  0
VERTEX
  5
6CE
330
6CB
100
AcDbEntity
  8
001
370
    50
100
AcDbVertex
100
AcDb2dVertex
 10
205.609124
 20
128.170863
 30
0.0
  0
VERTEX
  5
6CF
330
6CB
100
AcDbEntity
  8
001
370
    50
100
AcDbVertex
100
AcDb2dVertex
 10
205.334636
 20
128.150184
 30
0.0
  0
VERTEX
  5
6D0
330
6CB
100
AcDbEntity
  8
001
370
    50
100
AcDbVertex
100
AcDb2dVertex
 10
205.061624
 20
128.12867
 30
0.0
  0
VERTEX
  5
6D1
330
6CB
100
AcDbEntity
  8
001
370
    50
100
AcDbVertex
100
AcDb2dVertex
 10
204.788655
 20
128.106593
 30
0.0
  0
SEQEND
  5
6CC
330
6CB
100
AcDbEntity
  8
001
370
    50
  0
POLYLINE
  5
6D2
330
1F
100
AcDbEntity
  8
001
370
    50
100
AcDb2dPolyline
 66
     1
 10
0.0
 20
0.0
 30
0.0
  0
VERTEX
  5
6D4
330
6D2
100
AcDbEntity
  8
001
370
    50
100
AcDbVertex
100
AcDb2dVertex
 10
206.978655
 20
128.282407
 30
0.0
  0
VERTEX
  5
6D5
330
6D2
100
AcDbEntity
  8
001
370
    50
100
AcDbVertex
100
AcDb2dVertex
 10
206.704119
 20
128.260668
 30
0.0
  0
VERTEX
  5
6D6
330
6D2
100
AcDbEntity
  8
001
370
    50
100
AcDbVertex
100
AcDb2dVertex
 10
206.429636
 20
128.238285
 30
0.0
  0
VERTEX
  5
6D7
330
6D2
100
AcDbEntity
  8
001
370
    50
100
AcDbVertex
100
AcDb2dVertex
 10
206.156619
 20
128.214948
 30
0.0
  0
VERTEX
  5
6D8
330
6D2
100
AcDbEntity
  8
001
370
    50
100
AcDbVertex
100
AcDb2dVertex
 10
205.883655
 20
128.190973
 30
0.0
  0
SEQEND
  5
6D3
330
6D2
100
AcDbEntity
  8
001
370
    50
  0
POLYLINE
  5
6D9
330
1F
100
AcDbEntity
  8
001
370
    50
100
AcDb2dPolyline
 66
     1
 10
0.0
 20
0.0
 30
0.0
  0
VERTEX
  5
6DB
330
6D9
100
AcDbEntity
  8
001
370
    50
100
AcDbVertex
100
AcDb2dVertex
 10
208.073655
 20
128.380868
 30
0.0
  0
VERTEX
  5
6DC
330
6D9
100
AcDbEntity
  8
001
370
    50
100
AcDbVertex
100
AcDb2dVertex
 10
207.799113
 20
128.357507
 30
0.0
  0
VERTEX
  5
6DD
330
6D9
100
AcDbEntity
  8
001
370
    50
100
AcDbVertex
100
AcDb2dVertex
 10
207.524636
 20
128.333426
 30
0.0
  0
VERTEX
  5
6DE
330
6D9
100
AcDbEntity
  8
001
370
    50
100
AcDbVertex
100
AcDb2dVertex
 10
207.251613
 20
128.308273
 30
0.0
  0
VERTEX
  5
6DF
330
6D9
100
AcDbEntity
  8
001
370
    50
100
AcDbVertex
100
AcDb2dVertex
 10
206.978655
 20
128.282407
 30
0.0
  0
SEQEND
  5
6DA
330
6D9
100
AcDbEntity
  8
001
370
    50
  0
POLYLINE
  5
6E0
330
1F
100
AcDbEntity
  8
001
370
    50
100
AcDb2dPolyline
 66
     1
 10
0.0
 20
0.0
 30
0.0
  0
VERTEX
  5
6E2
330
6E0
100
AcDbEntity
  8
001
370
    50
100
AcDbVertex
100
AcDb2dVertex
 10
209.168655
 20
128.486326
 30
0.0
  0
VERTEX
  5
6E3
330
6E0
100
AcDbEntity
  8
001
370
    50
100
AcDbVertex
100
AcDb2dVertex
 10
208.894107
 20
128.461349
 30
0.0
  0
VERTEX
  5
6E4
330
6E0
100
AcDbEntity
  8
001
370
    50
100
AcDbVertex
100
AcDb2dVertex
 10
208.619636
 20
128.435579
 30
0.0
  0
VERTEX
  5
6E5
330
6E0
100
AcDbEntity
  8
001
370
    50
100
AcDbVertex
100
AcDb2dVertex
 10
208.346608
 20
128.408617
 30
0.0
  0
VERTEX
  5
6E6
330
6E0
100
AcDbEntity
  8
001
370
    50
100
AcDbVertex
100
AcDb2dVertex
 10
208.073655
 20
128.380868
 30
0.0
  0
SEQEND
  5
6E1
330
6E0
100
AcDbEntity
  8
001
370
    50
  0
POLYLINE
  5
6E7
330
1F
100
AcDbEntity
  8
001
370
    50
100
AcDb2dPolyline
 66
     1
 10
0.0
 20
0.0
 30
0.0
  0
VERTEX
  5
6E9
330
6E7
100
AcDbEntity
  8
001
370
    50
100
AcDbVertex
100
AcDb2dVertex
 10
210.263655
 20
128.598747
 30
0.0
  0
VERTEX
  5
6EA
330
6E7
100
AcDbEntity
  8
001
370
    50
100
AcDbVertex
100
AcDb2dVertex
 10
209.989101
 20
128.572163
 30
0.0
  0
VERTEX
  5
6EB
330
6E7
100
AcDbEntity
  8
001
370
    50
100
AcDbVertex
100
AcDb2dVertex
 10
209.714636
 20
128.544711
 30
0.0
  0
VERTEX
  5
6EC
330
6E7
100
AcDbEntity
  8
001
370
    50
100
AcDbVertex
100
AcDb2dVertex
 10
209.441601
 20
128.515948
 30
0.0
  0
VERTEX
  5
6ED
330
6E7
100
AcDbEntity
  8
001
370
    50
100
AcDbVertex
100
AcDb2dVertex
 10
209.168655
 20
128.486326
 30
0.0
  0
SEQEND
  5
6E8
330
6E7
100
AcDbEntity
  8
001
370
    50
  0
POLYLINE
  5
6EE
330
1F
100
AcDbEntity
  8
001
370
    50
100
AcDb2dPolyline
 66
     1
 10
0.0
 20
0.0
 30
0.0
  0
VERTEX
  5
6F0
330
6EE
100
AcDbEntity
  8
001
370
    50
100
AcDbVertex
100
AcDb2dVertex
 10
211.358655
 20
128.718099
 30
0.0
  0
VERTEX
  5
6F1
330
6EE
100
AcDbEntity
  8
001
370
    50
100
AcDbVertex
100
AcDb2dVertex
 10
211.084094
 20
128.689915
 30
0.0
  0
VERTEX
  5
6F2
330
6EE
100
AcDbEntity
  8
001
370
    50
100
AcDbVertex
100
AcDb2dVertex
 10
210.809636
 20
128.660789
 30
0.0
  0
VERTEX
  5
6F3
330
6EE
100
AcDbEntity
  8
001
370
    50
100
AcDbVertex
100
AcDb2dVertex
 10
210.536595
 20
128.630235
 30
0.0
  0
VERTEX
  5
6F4
330
6EE
100
AcDbEntity
  8
001
370
    50
100
AcDbVertex
100
AcDb2dVertex
 10
210.263655
 20
128.598747
 30
0.0
  0
SEQEND
  5
6EF
330
6EE
100
AcDbEntity
  8
001
370
    50
  0
POLYLINE
  5
6F5
330
1F
100
AcDbEntity
  8
001
370
    50
100
AcDb2dPolyline
 66
     1
 10
0.0
 20
0.0
 30
0.0
  0
VERTEX
  5
6F7
330
6F5
100
AcDbEntity
  8
001
370
    50
100
AcDbVertex
100
AcDb2dVertex
 10
183.141363
 20
134.10868
 30
0.0
  0
VERTEX
  5
6F8
330
6F5
100
AcDbEntity
  8
001
370
    50
100
AcDbVertex
100
AcDb2dVertex
 10
183.253901
 20
134.217901
 30
0.0
  0
VERTEX
  5
6F9
330
6F5
100
AcDbEntity
  8
001
370
    50
100
AcDbVertex
100
AcDb2dVertex
 10
183.415707
 20
134.375349
 30
0.0
  0
SEQEND
  5
6F6
330
6F5
100
AcDbEntity
  8
001
370
    50
  0
LINE
  5
6FA
330
1F
100
AcDbEntity
  8
001
370
    50
100
AcDbLine
 10
183.658413
 20
133.633394
 30
0.0
 11
182.964505
 21
132.937823
 31
0.0
  0
POLYLINE
  5
6FB
330
1F
100
AcDbEntity
  8
001
370
    50
100
AcDb2dPolyline
 66
     1
 10
0.0
 20
0.0
 30
0.0
  0
VERTEX
  5
6FD
330
6FB
100
AcDbEntity
  8
001
370
    50
100
AcDbVertex
100
AcDb2dVertex
 10
182.964505
 20
132.937823
 30
0.0
  0
VERTEX
  5
6FE
330
6FB
100
AcDbEntity
  8
001
370
    50
100
AcDbVertex
100
AcDb2dVertex
 10
183.426827
 20
132.94604
 30
0.0
  0
VERTEX
  5
6FF
330
6FB
100
AcDbEntity
  8
001
370
    50
100
AcDbVertex
100
AcDb2dVertex
 10
184.104525
 20
132.958696
 30
0.0
  0
VERTEX
  5
700
330
6FB
100
AcDbEntity
  8
001
370
    50
100
AcDbVertex
100
AcDb2dVertex
 10
184.207499
 20
132.960682
 30
0.0
  0
VERTEX
  5
701
330
6FB
100
AcDbEntity
  8
001
370
    50
100
AcDbVertex
100
AcDb2dVertex
 10
184.310473
 20
132.962668
 30
0.0
  0
SEQEND
  5
6FC
330
6FB
100
AcDbEntity
  8
001
370
    50
  0
LINE
  5
702
330
1F
100
AcDbEntity
  8
001
  6
PHANTOM
370
     9
100
AcDbLine
 10
186.443178
 20
171.849534
 30
0.0
 11
186.443178
 21
181.349534
 31
0.0
  0
LINE
  5
703
330
1F
100
AcDbEntity
  8
001
  6
PHANTOM
370
     9
100
AcDbLine
 10
185.443178
 20
170.849534
 30
0.0
 11
160.943178
 21
170.849534
 31
0.0
  0
LINE
  5
704
330
1F
100
AcDbEntity
  8
001
  6
PHANTOM
370
     9
100
AcDbLine
 10
160.943178
 20
165.349534
 30
0.0
 11
160.943178
 21
170.849534
 31
0.0
  0
LINE
  5
705
330
1F
100
AcDbEntity
  8
001
  6
PHANTOM
370
     9
100
AcDbLine
 10
160.943178
 20
165.349534
 30
0.0
 11
159.943178
 21
164.349534
 31
0.0
  0
LINE
  5
706
330
1F
100
AcDbEntity
  8
001
  6
PHANTOM
370
     9
100
AcDbLine
 10
186.443178
 20
171.849534
 30
0.0
 11
185.443178
 21
170.849534
 31
0.0
  0
LINE
  5
707
330
1F
100
AcDbEntity
  8
001
370
    50
100
AcDbLine
 10
160.943178
 20
137.349534
 30
0.0
 11
159.043178
 21
139.249534
 31
0.0
  0
LINE
  5
708
330
1F
100
AcDbEntity
  8
001
370
    50
100
AcDbLine
 10
187.443178
 20
129.849534
 30
0.0
 11
183.626815
 21
133.665897
 31
0.0
  0
LINE
  5
709
330
1F
100
AcDbEntity
  8
001
370
    50
100
AcDbLine
 10
182.202208
 20
133.193395
 30
0.0
 11
180.906904
 21
133.552617
 31
0.0
  0
POLYLINE
  5
70A
330
1F
100
AcDbEntity
  8
001
370
    50
100
AcDb2dPolyline
 66
     1
 10
0.0
 20
0.0
 30
0.0
  0
VERTEX
  5
70C
330
70A
100
AcDbEntity
  8
001
370
    50
100
AcDbVertex
100
AcDb2dVertex
 10
185.485771
 20
136.645011
 30
0.0
  0
VERTEX
  5
70D
330
70A
100
AcDbEntity
  8
001
370
    50
100
AcDbVertex
100
AcDb2dVertex
 10
185.490002
 20
136.790247
 30
0.0
  0
VERTEX
  5
70E
330
70A
100
AcDbEntity
  8
001
370
    50
100
AcDbVertex
100
AcDb2dVertex
 10
185.494232
 20
136.935484
 30
0.0
  0
VERTEX
  5
70F
330
70A
100
AcDbEntity
  8
001
370
    50
100
AcDbVertex
100
AcDb2dVertex
 10
185.501837
 20
137.196931
 30
0.0
  0
VERTEX
  5
710
330
70A
100
AcDbEntity
  8
001
370
    50
100
AcDbVertex
100
AcDb2dVertex
 10
185.512523
 20
137.565226
 30
0.0
  0
VERTEX
  5
711
330
70A
100
AcDbEntity
  8
001
370
    50
100
AcDbVertex
100
AcDb2dVertex
 10
185.523597
 20
137.948311
 30
0.0
  0
VERTEX
  5
712
330
70A
100
AcDbEntity
  8
001
370
    50
100
AcDbVertex
100
AcDb2dVertex
 10
185.531153
 20
138.210422
 30
0.0
  0
SEQEND
  5
70B
330
70A
100
AcDbEntity
  8
001
370
    50
  0
LINE
  5
713
330
1F
100
AcDbEntity
  8
001
370
    50
100
AcDbLine
 10
185.955015
 20
138.172813
 30
0.0
 11
185.922982
 21
137.083269
 31
0.0
  0
LINE
  5
714
330
1F
100
AcDbEntity
  8
001
370
    50
100
AcDbLine
 10
187.043141
 20
141.199112
 30
0.0
 11
186.952474
 21
138.115227
 31
0.0
  0
LINE
  5
715
330
1F
100
AcDbEntity
  8
001
370
    50
100
AcDbLine
 10
190.280934
 20
129.849534
 30
0.0
 11
187.443178
 21
129.849534
 31
0.0
  0
LINE
  5
716
330
1F
100
AcDbEntity
  8
001
370
    50
100
AcDbLine
 10
190.809281
 20
127.858688
 30
0.0
 11
188.874014
 21
129.849534
 31
0.0
  0
ARC
  5
717
330
1F
100
AcDbEntity
  8
001
370
    50
100
AcDbCircle
 10
194.084618
 20
126.96875
 30
0.0
 40
0.7192167386624133
100
AcDbArc
 50
224.191531
 51
315.068555
  0
LINE
  5
718
330
1F
100
AcDbEntity
  8
001
  6
CENTER
370
     9
100
AcDbLine
 10
157.812765
 20
126.249534
 30
0.0
 11
194.079974
 21
126.249534
 31
0.0
  0
LINE
  5
719
330
1F
100
AcDbEntity
  8
001
  6
PHANTOM
370
     9
100
AcDbLine
 10
159.943178
 20
164.349534
 30
0.0
 11
155.305524
 21
164.349534
 31
0.0
  0
LINE
  5
71A
330
1F
100
AcDbEntity
  8
001
  6
PHANTOM
370
     9
100
AcDbLine
 10
159.943178
 20
138.349534
 30
0.0
 11
155.305524
 21
138.349534
 31
0.0
  0
LINE
  5
71B
330
1F
100
AcDbEntity
  8
001
  6
PHANTOM
370
     9
100
AcDbLine
 10
190.280934
 20
172.849534
 30
0.0
 11
184.053256
 21
172.849534
 31
0.0
  0
LINE
  5
71C
330
1F
100
AcDbEntity
  8
001
  6
CENTER
370
     9
100
AcDbLine
 10
184.053256
 20
176.449534
 30
0.0
 11
194.079974
 21
176.449534
 31
0.0
  0
LINE
  5
71D
330
1F
100
AcDbEntity
  8
001
370
     9
100
AcDbLine
 10
71.757664
 20
28.976192
 30
0.0
 11
54.434615
 21
28.976192
 31
0.0
  0
LINE
  5
71E
330
1F
100
AcDbEntity
  8
001
370
    50
100
AcDbLine
 10
33.190748
 20
93.508626
 30
0.0
 11
93.190748
 21
93.508626
 31
0.0
  0
LINE
  5
71F
330
1F
100
AcDbEntity
  8
001
370
    50
100
AcDbLine
 10
82.690748
 20
92.508626
 30
0.0
 11
82.690748
 21
68.008626
 31
0.0
  0
LINE
  5
720
330
1F
100
AcDbEntity
  8
001
370
    50
100
AcDbLine
 10
43.690748
 20
92.508626
 30
0.0
 11
43.690748
 21
68.008626
 31
0.0
  0
LINE
  5
721
330
1F
100
AcDbEntity
  8
001
370
    50
100
AcDbLine
 10
43.690748
 20
68.008626
 30
0.0
 11
82.690748
 21
68.008626
 31
0.0
  0
LINE
  5
722
330
1F
100
AcDbEntity
  8
001
370
    50
100
AcDbLine
 10
33.190748
 20
48.508626
 30
0.0
 11
93.190748
 21
48.508626
 31
0.0
  0
LINE
  5
723
330
1F
100
AcDbEntity
  8
001
370
    50
100
AcDbLine
 10
76.190748
 20
67.008626
 30
0.0
 11
76.190748
 21
48.508626
 31
0.0
  0
LINE
  5
724
330
1F
100
AcDbEntity
  8
001
370
    50
100
AcDbLine
 10
50.190748
 20
67.008626
 30
0.0
 11
50.190748
 21
48.508626
 31
0.0
  0
LINE
  5
725
330
1F
100
AcDbEntity
  8
001
  6
CENTER
370
     9
100
AcDbLine
 10
63.190748
 20
95.998936
 30
0.0
 11
63.190748
 21
46.731425
 31
0.0
  0
LINE
  5
726
330
1F
100
AcDbEntity
  8
001
370
    50
100
AcDbLine
 10
43.690748
 20
92.508626
 30
0.0
 11
42.690748
 21
93.508626
 31
0.0
  0
LINE
  5
727
330
1F
100
AcDbEntity
  8
001
370
    50
100
AcDbLine
 10
76.190748
 20
67.008626
 30
0.0
 11
77.190748
 21
68.008626
 31
0.0
  0
LINE
  5
728
330
1F
100
AcDbEntity
  8
001
370
    50
100
AcDbLine
 10
50.190748
 20
67.008626
 30
0.0
 11
49.190748
 21
68.008626
 31
0.0
  0
LINE
  5
729
330
1F
100
AcDbEntity
  8
001
370
    50
100
AcDbLine
 10
43.690748
 20
92.508626
 30
0.0
 11
82.690748
 21
92.508626
 31
0.0
  0
LINE
  5
72A
330
1F
100
AcDbEntity
  8
001
370
    50
100
AcDbLine
 10
50.190748
 20
67.008626
 30
0.0
 11
76.190748
 21
67.008626
 31
0.0
  0
LINE
  5
72B
330
1F
100
AcDbEntity
  8
001
370
    50
100
AcDbLine
 10
82.690748
 20
92.508626
 30
0.0
 11
83.690748
 21
93.508626
 31
0.0
  0
TEXT
  5
72C
330
1F
100
AcDbEntity
  8
001
370
    30
100
AcDbText
 10
55.044264
 20
29.424879
 30
0.0
 40
4.0
  1
加工形状
 41
0.833333
100
AcDbText
  0
ENDSEC
  0
SECTION
  2
OBJECTS
  0
DICTIONARY
  5
C
330
0
100
AcDbDictionary
281
     1
  3
ACAD_GROUP
350
D
  3
ACAD_LAYOUT
350
1A
  3
ACAD_MLEADERSTYLE
350
730
  3
ACAD_MLINESTYLE
350
17
  3
ACAD_PLOTSETTINGS
350
19
  3
ACAD_PLOTSTYLENAME
350
E
  3
ACAD_SCALELIST
350
3B
  3
ACAD_TABLESTYLE
350
72F
  3
ACAD_VISUALSTYLE
350
2A
  3
AcDbVariableDictionary
350
72D
  0
DICTIONARY
  5
D
102
{ACAD_REACTORS
330
C
102
}
330
C
100
AcDbDictionary
281
     1
  0
DICTIONARY
  5
1A
102
{ACAD_REACTORS
330
C
102
}
330
C
100
AcDbDictionary
281
     1
  3
Layout1
350
1E
  3
Layout2
350
26
  3
Model
350
22
  0
DICTIONARY
  5
730
102
{ACAD_REACTORS
330
C
102
}
330
C
100
AcDbDictionary
281
     1
  0
DICTIONARY
  5
17
102
{ACAD_REACTORS
330
C
102
}
330
C
100
AcDbDictionary
281
     1
  3
Standard
350
18
  0
DICTIONARY
  5
19
102
{ACAD_REACTORS
330
C
102
}
330
C
100
AcDbDictionary
281
     1
  0
ACDBDICTIONARYWDFLT
  5
E
102
{ACAD_REACTORS
330
C
102
}
330
C
100
AcDbDictionary
281
     1
  3
Normal
350
F
100
AcDbDictionaryWithDefault
340
F
  0
DICTIONARY
  5
3B
102
{ACAD_REACTORS
330
C
102
}
330
C
100
AcDbDictionary
281
     1
  3
A0
350
3C
  3
A1
350
3D
  3
A2
350
3E
  3
A3
350
3F
  3
A4
350
40
  3
A5
350
41
  3
A6
350
42
  3
A7
350
43
  3
A8
350
44
  3
A9
350
45
  3
B0
350
46
  3
B1
350
47
  3
B2
350
48
  3
B3
350
49
  3
B4
350
4A
  3
B5
350
4B
  3
B6
350
4C
  3
B7
350
4D
  3
B8
350
4E
  3
B9
350
4F
  3
C0
350
50
  3
C1
350
51
  3
C2
350
52
  3
C3
350
53
  3
C4
350
54
  3
C5
350
55
  3
C6
350
56
  3
C7
350
57
  3
C8
350
58
  3
C9
350
59
  3
D0
350
5A
  3
D1
350
5B
  3
D2
350
5C
  0
DICTIONARY
  5
72F
102
{ACAD_REACTORS
330
C
102
}
330
C
100
AcDbDictionary
281
     1
  0
DICTIONARY
  5
2A
102
{ACAD_REACTORS
330
C
102
}
330
C
100
AcDbDictionary
281
     1
  3
2dWireframe
350
2F
  3
3D Hidden
350
31
  3
3dWireframe
350
30
  3
Basic
350
32
  3
Brighten
350
36
  3
ColorChange
350
3A
  3
Conceptual
350
34
  3
Dim
350
35
  3
Facepattern
350
39
  3
Flat
350
2B
  3
FlatWithEdges
350
2C
  3
Gouraud
350
2D
  3
GouraudWithEdges
350
2E
  3
Linepattern
350
38
  3
Realistic
350
33
  3
Thicken
350
37
  0
DICTIONARY
  5
72D
102
{ACAD_REACTORS
330
C
102
}
330
C
100
AcDbDictionary
281
     1
  3
CANNOSCALE
350
72E
  3
PSOLHEIGHT
350
732
  3
PSOLWIDTH
350
731
  0
LAYOUT
  5
1E
102
{ACAD_REACTORS
330
1A
102
}
330
1A
100
AcDbPlotSettings
  1

  2
none_device
  4

  6

 40
0.0
 41
0.0
 42
0.0
 43
0.0
 44
0.0
 45
0.0
 46
0.0
 47
0.0
 48
0.0
 49
0.0
140
0.0
141
0.0
142
1.0
143
1.0
 70
   688
 72
     0
 73
     0
 74
     5
  7

 75
    16
147
1.0
148
0.0
149
0.0
100
AcDbLayout
  1
Layout1
 70
     1
 71
     1
 10
0.0
 20
0.0
 11
12.0
 21
9.0
 12
0.0
 22
0.0
 32
0.0
 14
1.000000E+20
 24
1.000000E+20
 34
0.0
 15
-1.000000E+20
 25
-1.000000E+20
 35
0.0
146
0.0
 13
0.0
 23
0.0
 33
0.0
 16
1.0
 26
0.0
 36
0.0
 17
0.0
 27
1.0
 37
0.0
 76
     0
330
1B
  0
LAYOUT
  5
26
102
{ACAD_REACTORS
330
1A
102
}
330
1A
100
AcDbPlotSettings
  1

  2
none_device
  4

  6

 40
0.0
 41
0.0
 42
0.0
 43
0.0
 44
0.0
 45
0.0
 46
0.0
 47
0.0
 48
0.0
 49
0.0
140
0.0
141
0.0
142
1.0
143
1.0
 70
   688
 72
     0
 73
     0
 74
     5
  7

 75
    16
147
1.0
148
0.0
149
0.0
100
AcDbLayout
  1
Layout2
 70
     1
 71
     2
 10
0.0
 20
0.0
 11
0.0
 21
0.0
 12
0.0
 22
0.0
 32
0.0
 14
0.0
 24
0.0
 34
0.0
 15
0.0
 25
0.0
 35
0.0
146
0.0
 13
0.0
 23
0.0
 33
0.0
 16
1.0
 26
0.0
 36
0.0
 17
0.0
 27
1.0
 37
0.0
 76
     0
330
23
  0
LAYOUT
  5
22
102
{ACAD_REACTORS
330
1A
102
}
330
1A
100
AcDbPlotSettings
  1

  2
none_device
  4

  6

 40
0.0
 41
0.0
 42
0.0
 43
0.0
 44
0.0
 45
0.0
 46
0.0
 47
0.0
 48
0.0
 49
0.0
140
0.0
141
0.0
142
1.0
143
1.0
 70
  1712
 72
     0
 73
     0
 74
     0
  7

 75
     0
147
1.0
148
0.0
149
0.0
100
AcDbLayout
  1
Model
 70
     1
 71
     0
 10
0.0
 20
0.0
 11
12.0
 21
9.0
 12
0.0
 22
0.0
 32
0.0
 14
33.190735
 24
28.976196
 34
0.0
 15
344.052338
 25
210.817215
 35
0.0
146
0.0
 13
0.0
 23
0.0
 33
0.0
 16
1.0
 26
0.0
 36
0.0
 17
0.0
 27
1.0
 37
0.0
 76
     0
330
1F
331
29
  0
MLINESTYLE
  5
18
102
{ACAD_REACTORS
330
17
102
}
330
17
100
AcDbMlineStyle
  2
Standard
 70
     0
  3

 62
   256
 51
90.0
 52
90.0
 71
     2
 49
0.5
 62
   256
  6
BYLAYER
 49
-0.5
 62
   256
  6
BYLAYER
  0
ACDBPLACEHOLDER
  5
F
102
{ACAD_REACTORS
330
E
102
}
330
E
  0
SCALE
  5
3C
102
{ACAD_REACTORS
330
3B
102
}
330
3B
100
AcDbScale
 70
     0
300
1:1
140
1.0
141
1.0
290
     1
  0
SCALE
  5
3D
102
{ACAD_REACTORS
330
3B
102
}
330
3B
100
AcDbScale
 70
     0
300
1:2
140
1.0
141
2.0
290
     0
  0
SCALE
  5
3E
102
{ACAD_REACTORS
330
3B
102
}
330
3B
100
AcDbScale
 70
     0
300
1:4
140
1.0
141
4.0
290
     0
  0
SCALE
  5
3F
102
{ACAD_REACTORS
330
3B
102
}
330
3B
100
AcDbScale
 70
     0
300
1:5
140
1.0
141
5.0
290
     0
  0
SCALE
  5
40
102
{ACAD_REACTORS
330
3B
102
}
330
3B
100
AcDbScale
 70
     0
300
1:8
140
1.0
141
8.0
290
     0
  0
SCALE
  5
41
102
{ACAD_REACTORS
330
3B
102
}
330
3B
100
AcDbScale
 70
     0
300
1:10
140
1.0
141
10.0
290
     0
  0
SCALE
  5
42
102
{ACAD_REACTORS
330
3B
102
}
330
3B
100
AcDbScale
 70
     0
300
1:16
140
1.0
141
16.0
290
     0
  0
SCALE
  5
43
102
{ACAD_REACTORS
330
3B
102
}
330
3B
100
AcDbScale
 70
     0
300
1:20
140
1.0
141
20.0
290
     0
  0
SCALE
  5
44
102
{ACAD_REACTORS
330
3B
102
}
330
3B
100
AcDbScale
 70
     0
300
1:30
140
1.0
141
30.0
290
     0
  0
SCALE
  5
45
102
{ACAD_REACTORS
330
3B
102
}
330
3B
100
AcDbScale
 70
     0
300
1:40
140
1.0
141
40.0
290
     0
  0
SCALE
  5
46
102
{ACAD_REACTORS
330
3B
102
}
330
3B
100
AcDbScale
 70
     0
300
1:50
140
1.0
141
50.0
290
     0
  0
SCALE
  5
47
102
{ACAD_REACTORS
330
3B
102
}
330
3B
100
AcDbScale
 70
     0
300
1:100
140
1.0
141
100.0
290
     0
  0
SCALE
  5
48
102
{ACAD_REACTORS
330
3B
102
}
330
3B
100
AcDbScale
 70
     0
300
2:1
140
2.0
141
1.0
290
     0
  0
SCALE
  5
49
102
{ACAD_REACTORS
330
3B
102
}
330
3B
100
AcDbScale
 70
     0
300
4:1
140
4.0
141
1.0
290
     0
  0
SCALE
  5
4A
102
{ACAD_REACTORS
330
3B
102
}
330
3B
100
AcDbScale
 70
     0
300
8:1
140
8.0
141
1.0
290
     0
  0
SCALE
  5
4B
102
{ACAD_REACTORS
330
3B
102
}
330
3B
100
AcDbScale
 70
     0
300
10:1
140
10.0
141
1.0
290
     0
  0
SCALE
  5
4C
102
{ACAD_REACTORS
330
3B
102
}
330
3B
100
AcDbScale
 70
     0
300
100:1
140
100.0
141
1.0
290
     0
  0
SCALE
  5
4D
102
{ACAD_REACTORS
330
3B
102
}
330
3B
100
AcDbScale
 70
     0
300
1/128" = 1'-0"
140
0.007812
141
12.0
290
     0
  0
SCALE
  5
4E
102
{ACAD_REACTORS
330
3B
102
}
330
3B
100
AcDbScale
 70
     0
300
1/64" = 1'-0"
140
0.015625
141
12.0
290
     0
  0
SCALE
  5
4F
102
{ACAD_REACTORS
330
3B
102
}
330
3B
100
AcDbScale
 70
     0
300
1/32" = 1'-0"
140
0.03125
141
12.0
290
     0
  0
SCALE
  5
50
102
{ACAD_REACTORS
330
3B
102
}
330
3B
100
AcDbScale
 70
     0
300
1/16" = 1'-0"
140
0.0625
141
12.0
290
     0
  0
SCALE
  5
51
102
{ACAD_REACTORS
330
3B
102
}
330
3B
100
AcDbScale
 70
     0
300
3/32" = 1'-0"
140
0.09375
141
12.0
290
     0
  0
SCALE
  5
52
102
{ACAD_REACTORS
330
3B
102
}
330
3B
100
AcDbScale
 70
     0
300
1/8" = 1'-0"
140
0.125
141
12.0
290
     0
  0
SCALE
  5
53
102
{ACAD_REACTORS
330
3B
102
}
330
3B
100
AcDbScale
 70
     0
300
3/16" = 1'-0"
140
0.1875
141
12.0
290
     0
  0
SCALE
  5
54
102
{ACAD_REACTORS
330
3B
102
}
330
3B
100
AcDbScale
 70
     0
300
1/4" = 1'-0"
140
0.25
141
12.0
290
     0
  0
SCALE
  5
55
102
{ACAD_REACTORS
330
3B
102
}
330
3B
100
AcDbScale
 70
     0
300
3/8" = 1'-0"
140
0.375
141
12.0
290
     0
  0
SCALE
  5
56
102
{ACAD_REACTORS
330
3B
102
}
330
3B
100
AcDbScale
 70
     0
300
1/2" = 1'-0"
140
0.5
141
12.0
290
     0
  0
SCALE
  5
57
102
{ACAD_REACTORS
330
3B
102
}
330
3B
100
AcDbScale
 70
     0
300
3/4" = 1'-0"
140
0.75
141
12.0
290
     0
  0
SCALE
  5
58
102
{ACAD_REACTORS
330
3B
102
}
330
3B
100
AcDbScale
 70
     0
300
1" = 1'-0"
140
1.0
141
12.0
290
     0
  0
SCALE
  5
59
102
{ACAD_REACTORS
330
3B
102
}
330
3B
100
AcDbScale
 70
     0
300
1-1/2" = 1'-0"
140
1.5
141
12.0
290
     0
  0
SCALE
  5
5A
102
{ACAD_REACTORS
330
3B
102
}
330
3B
100
AcDbScale
 70
     0
300
3" = 1'-0"
140
3.0
141
12.0
290
     0
  0
SCALE
  5
5B
102
{ACAD_REACTORS
330
3B
102
}
330
3B
100
AcDbScale
 70
     0
300
6" = 1'-0"
140
6.0
141
12.0
290
     0
  0
SCALE
  5
5C
102
{ACAD_REACTORS
330
3B
102
}
330
3B
100
AcDbScale
 70
     0
300
1'-0" = 1'-0"
140
12.0
141
12.0
290
     0
  0
VISUALSTYLE
  5
2F
102
{ACAD_REACTORS
330
2A
102
}
330
2A
100
AcDbVisualStyle
  2
2dWireframe
 70
     4
 71
     0
 72
     2
 73
     0
 90
        0
 40
-0.6
 41
-30.0
 62
     5
 63
     7
 74
     1
 91
        4
 64
     7
 65
   257
 75
     1
175
     1
 42
1.0
 92
        0
 66
   257
 43
1.0
 76
     1
 77
     6
 78
     2
 67
     7
 79
     5
170
     0
171
     0
290
     0
174
     0
 93
        1
 44
0.0
173
     0
291
     0
 45
0.0
1001
ACAD
1000
AcDbSavedByObjectVersion
1070
     0
  0
VISUALSTYLE
  5
31
102
{ACAD_REACTORS
330
2A
102
}
330
2A
100
AcDbVisualStyle
  2
3D Hidden
 70
     6
 71
     1
 72
     2
 73
     2
 90
        0
 40
-0.6
 41
-30.0
 62
     5
 63
     7
 74
     2
 91
        2
 64
     7
 65
   257
 75
     2
175
     1
 42
40.0
 92
        0
 66
   257
 43
1.0
 76
     1
 77
     6
 78
     2
 67
     7
 79
     3
170
     0
171
     0
290
     0
174
     0
 93
        1
 44
0.0
173
     0
291
     0
 45
0.0
1001
ACAD
1000
AcDbSavedByObjectVersion
1070
     0
  0
VISUALSTYLE
  5
30
102
{ACAD_REACTORS
330
2A
102
}
330
2A
100
AcDbVisualStyle
  2
3dWireframe
 70
     5
 71
     0
 72
     2
 73
     0
 90
        0
 40
-0.6
 41
-30.0
 62
     5
 63
     7
 74
     1
 91
        4
 64
     7
 65
   257
 75
     1
175
     1
 42
1.0
 92
        0
 66
   257
 43
1.0
 76
     1
 77
     6
 78
     2
 67
     7
 79
     5
170
     0
171
     0
290
     0
174
     0
 93
        1
 44
0.0
173
     0
291
     0
 45
0.0
1001
ACAD
1000
AcDbSavedByObjectVersion
1070
     0
  0
VISUALSTYLE
  5
32
102
{ACAD_REACTORS
330
2A
102
}
330
2A
100
AcDbVisualStyle
  2
Basic
 70
     7
 71
     1
 72
     0
 73
     1
 90
        0
 40
-0.6
 41
-30.0
 62
     5
 63
     7
 74
     0
 91
        4
 64
     7
 65
   257
 75
     1
175
     1
 42
1.0
 92
        8
 66
     7
 43
1.0
 76
     1
 77
     6
 78
     2
 67
     7
 79
     5
170
     0
171
     0
290
     0
174
     0
 93
        1
 44
0.0
173
     0
291
     1
 45
0.0
1001
ACAD
1000
AcDbSavedByObjectVersion
1070
     0
  0
VISUALSTYLE
  5
36
102
{ACAD_REACTORS
330
2A
102
}
330
2A
100
AcDbVisualStyle
  2
Brighten
 70
    12
 71
     2
 72
     2
 73
     0
 90
        0
 40
-0.6
 41
-30.0
 62
     5
 63
     7
 74
     1
 91
        4
 64
     7
 65
   257
 75
     1
175
     1
 42
1.0
 92
        8
 66
     7
 43
1.0
 76
     1
 77
     6
 78
     2
 67
     7
 79
     5
170
     0
171
     0
290
     0
174
     0
 93
        1
 44
50.0
173
     0
291
     1
 45
0.0
1001
ACAD
1000
AcDbSavedByObjectVersion
1070
     0
  0
VISUALSTYLE
  5
3A
102
{ACAD_REACTORS
330
2A
102
}
330
2A
100
AcDbVisualStyle
  2
ColorChange
 70
    16
 71
     2
 72
     2
 73
     3
 90
        0
 40
-0.6
 41
-30.0
 62
     5
 63
     8
 74
     1
 91
        4
 64
     7
 65
   257
 75
     1
175
     1
 42
1.0
 92
        8
 66
     8
 43
1.0
 76
     1
 77
     6
 78
     2
 67
     7
 79
     5
170
     0
171
     0
290
     0
174
     0
 93
        1
 44
0.0
173
     0
291
     1
 45
0.0
1001
ACAD
1000
AcDbSavedByObjectVersion
1070
     0
  0
VISUALSTYLE
  5
34
102
{ACAD_REACTORS
330
2A
102
}
330
2A
100
AcDbVisualStyle
  2
Conceptual
 70
     9
 71
     3
 72
     2
 73
     0
 90
        0
 40
-0.6
 41
-30.0
 62
     5
 63
     7
 74
     2
 91
        2
 64
     7
 65
   257
 75
     1
175
     1
 42
40.0
 92
        8
 66
     7
 43
1.0
 76
     1
 77
     6
 78
     2
 67
     7
 79
     3
170
     0
171
     0
290
     0
174
     0
 93
        1
 44
0.0
173
     0
291
     0
 45
0.0
1001
ACAD
1000
AcDbSavedByObjectVersion
1070
     0
  0
VISUALSTYLE
  5
35
102
{ACAD_REACTORS
330
2A
102
}
330
2A
100
AcDbVisualStyle
  2
Dim
 70
    11
 71
     2
 72
     2
 73
     0
 90
        0
 40
-0.6
 41
-30.0
 62
     5
 63
     7
 74
     1
 91
        4
 64
     7
 65
   257
 75
     1
175
     1
 42
1.0
 92
        8
 66
     7
 43
1.0
 76
     1
 77
     6
 78
     2
 67
     7
 79
     5
170
     0
171
     0
290
     0
174
     0
 93
        1
 44
-50.0
173
     0
291
     1
 45
0.0
1001
ACAD
1000
AcDbSavedByObjectVersion
1070
     0
  0
VISUALSTYLE
  5
39
102
{ACAD_REACTORS
330
2A
102
}
330
2A
100
AcDbVisualStyle
  2
Facepattern
 70
    15
 71
     2
 72
     2
 73
     0
 90
        0
 40
-0.6
 41
-30.0
 62
     5
 63
     7
 74
     1
 91
        4
 64
     7
 65
   257
 75
     1
175
     1
 42
1.0
 92
        8
 66
     7
 43
1.0
 76
     1
 77
     6
 78
     2
 67
     7
 79
     5
170
     0
171
     0
290
     0
174
     0
 93
        1
 44
0.0
173
     0
291
     1
 45
0.0
1001
ACAD
1000
AcDbSavedByObjectVersion
1070
     0
  0
VISUALSTYLE
  5
2B
102
{ACAD_REACTORS
330
2A
102
}
330
2A
100
AcDbVisualStyle
  2
Flat
 70
     0
 71
     2
 72
     1
 73
     1
 90
        2
 40
-0.6
 41
30.0
 62
     5
 63
     7
 74
     0
 91
        4
 64
     7
 65
   257
 75
     1
175
     1
 42
1.0
 92
        8
 66
     7
 43
1.0
 76
     1
 77
     6
 78
     2
 67
     7
 79
     5
170
     0
171
     0
290
     0
174
     0
 93
       13
 44
0.0
173
     0
291
     1
 45
0.0
1001
ACAD
1000
AcDbSavedByObjectVersion
1070
     0
  0
VISUALSTYLE
  5
2C
102
{ACAD_REACTORS
330
2A
102
}
330
2A
100
AcDbVisualStyle
  2
FlatWithEdges
 70
     1
 71
     2
 72
     1
 73
     1
 90
        2
 40
-0.6
 41
30.0
 62
     5
 63
     7
 74
     1
 91
        4
 64
     7
 65
   257
 75
     1
175
     1
 42
1.0
 92
        0
 66
   257
 43
1.0
 76
     1
 77
     6
 78
     2
 67
     7
 79
     5
170
     0
171
     0
290
     0
174
     0
 93
       13
 44
0.0
173
     0
291
     1
 45
0.0
1001
ACAD
1000
AcDbSavedByObjectVersion
1070
     0
  0
VISUALSTYLE
  5
2D
102
{ACAD_REACTORS
330
2A
102
}
330
2A
100
AcDbVisualStyle
  2
Gouraud
 70
     2
 71
     2
 72
     2
 73
     1
 90
        2
 40
-0.6
 41
30.0
 62
     5
 63
     7
 74
     0
 91
        4
 64
     7
 65
   257
 75
     1
175
     1
 42
1.0
 92
        0
 66
     7
 43
1.0
 76
     1
 77
     6
 78
     2
 67
     7
 79
     5
170
     0
171
     0
290
     0
174
     0
 93
       13
 44
0.0
173
     0
291
     1
 45
0.0
1001
ACAD
1000
AcDbSavedByObjectVersion
1070
     0
  0
VISUALSTYLE
  5
2E
102
{ACAD_REACTORS
330
2A
102
}
330
2A
100
AcDbVisualStyle
  2
GouraudWithEdges
 70
     3
 71
     2
 72
     2
 73
     1
 90
        2
 40
-0.6
 41
30.0
 62
     5
 63
     7
 74
     1
 91
        4
 64
     7
 65
   257
 75
     1
175
     1
 42
1.0
 92
        0
 66
   257
 43
1.0
 76
     1
 77
     6
 78
     2
 67
     7
 79
     5
170
     0
171
     0
290
     0
174
     0
 93
       13
 44
0.0
173
     0
291
     1
 45
0.0
1001
ACAD
1000
AcDbSavedByObjectVersion
1070
     0
  0
VISUALSTYLE
  5
38
102
{ACAD_REACTORS
330
2A
102
}
330
2A
100
AcDbVisualStyle
  2
Linepattern
 70
    14
 71
     2
 72
     2
 73
     0
 90
        0
 40
-0.6
 41
-30.0
 62
     5
 63
     7
 74
     1
 91
        4
 64
     7
 65
   257
 75
     7
175
     7
 42
1.0
 92
        8
 66
     7
 43
1.0
 76
     1
 77
     6
 78
     2
 67
     7
 79
     5
170
     0
171
     0
290
     0
174
     0
 93
        1
 44
0.0
173
     0
291
     1
 45
0.0
1001
ACAD
1000
AcDbSavedByObjectVersion
1070
     0
  0
VISUALSTYLE
  5
33
102
{ACAD_REACTORS
330
2A
102
}
330
2A
100
AcDbVisualStyle
  2
Realistic
 70
     8
 71
     2
 72
     2
 73
     0
 90
        0
 40
-0.6
 41
-30.0
 62
     5
 63
     7
 74
     1
 91
        0
 64
     7
 65
   257
 75
     1
175
     1
 42
1.0
 92
        8
 66
     8
 43
1.0
 76
     1
 77
     6
 78
     2
 67
     7
 79
     5
170
     0
171
     0
290
     0
174
     0
 93
       13
 44
0.0
173
     0
291
     0
 45
0.0
1001
ACAD
1000
AcDbSavedByObjectVersion
1070
     0
  0
VISUALSTYLE
  5
37
102
{ACAD_REACTORS
330
2A
102
}
330
2A
100
AcDbVisualStyle
  2
Thicken
 70
    13
 71
     2
 72
     2
 73
     0
 90
        0
 40
-0.6
 41
-30.0
 62
     5
 63
     7
 74
     1
 91
        4
 64
     7
 65
   257
 75
     1
175
     1
 42
1.0
 92
       12
 66
     7
 43
1.0
 76
     1
 77
     6
 78
     2
 67
     7
 79
     5
170
     0
171
     0
290
     0
174
     0
 93
        1
 44
0.0
173
     0
291
     1
 45
0.0
1001
ACAD
1000
AcDbSavedByObjectVersion
1070
     0
  0
DICTIONARYVAR
  5
72E
102
{ACAD_REACTORS
330
72D
102
}
330
72D
100
DictionaryVariables
280
     0
  1
1:1
  0
DICTIONARYVAR
  5
732
102
{ACAD_REACTORS
330
72D
102
}
330
72D
100
DictionaryVariables
280
     0
  1
80.000000
  0
DICTIONARYVAR
  5
731
102
{ACAD_REACTORS
330
72D
102
}
330
72D
100
DictionaryVariables
280
     0
  1
5.000000
  0
ENDSEC
  0
EOF
