  0
SECTION
  2
HEADER
  9
$ACADVER
  1
AC1015
  9
$ACADMAINTVER
 70
     6
  9
$DWGCODEPAGE
  3
ANSI_932
  9
$INSBASE
 10
0.0
 20
0.0
 30
0.0
  9
$EXTMIN
 10
25.891144
 20
20.388199
 30
0.0
  9
$EXTMAX
 10
302.277222
 20
210.817215
 30
0.0
  9
$LIMMIN
 10
0.0
 20
0.0
  9
$LIMMAX
 10
12.0
 20
9.0
  9
$ORTHOMODE
 70
     0
  9
$REGENMODE
 70
     1
  9
$FILLMODE
 70
     1
  9
$QTEXTMODE
 70
     0
  9
$MIRRTEXT
 70
     1
  9
$LTSCALE
 40
3.356374
  9
$ATTMODE
 70
     1
  9
$TEXTSIZE
 40
3.2
  9
$TRACEWID
 40
1.0
  9
$TEXTSTYLE
  7
Standard
  9
$CLAYER
  8
0
  9
$CELTYPE
  6
ByLayer
  9
$CECOLOR
 62
   256
  9
$CELTSCALE
 40
1.0
  9
$DISPSILH
 70
     0
  9
$DIMSCALE
 40
1.0
  9
$DIMASZ
 40
2.5
  9
$DIMEXO
 40
0.625
  9
$DIMDLI
 40
3.75
  9
$DIMRND
 40
0.0
  9
$DIMDLE
 40
0.0
  9
$DIMEXE
 40
1.25
  9
$DIMTP
 40
0.0
  9
$DIMTM
 40
0.0
  9
$DIMTXT
 40
2.5
  9
$DIMCEN
 40
0.09
  9
$DIMTSZ
 40
0.0
  9
$DIMTOL
 70
     0
  9
$DIMLIM
 70
     0
  9
$DIMTIH
 70
     0
  9
$DIMTOH
 70
     0
  9
$DIMSE1
 70
     0
  9
$DIMSE2
 70
     0
  9
$DIMTAD
 70
     0
  9
$DIMZIN
 70
     8
  9
$DIMBLK
  1

  9
$DIMASO
 70
     1
  9
$DIMSHO
 70
     0
  9
$DIMPOST
  1

  9
$DIMAPOST
  1

  9
$DIMALT
 70
     0
  9
$DIMALTD
 70
     3
  9
$DIMALTF
 40
0.03937
  9
$DIMLFAC
 40
1.0
  9
$DIMTOFL
 70
     1
  9
$DIMTVP
 40
0.0
  9
$DIMTIX
 70
     0
  9
$DIMSOXD
 70
     0
  9
$DIMSAH
 70
     0
  9
$DIMBLK1
  1

  9
$DIMBLK2
  1

  9
$DIMSTYLE
  2
ISO-25
  9
$DIMCLRD
 70
     0
  9
$DIMCLRE
 70
     0
  9
$DIMCLRT
 70
     0
  9
$DIMTFAC
 40
1.0
  9
$DIMGAP
 40
0.625
  9
$DIMJUST
 70
     0
  9
$DIMSD1
 70
     0
  9
$DIMSD2
 70
     0
  9
$DIMTOLJ
 70
     0
  9
$DIMTZIN
 70
     8
  9
$DIMALTZ
 70
     0
  9
$DIMALTTZ
 70
     0
  9
$DIMUPT
 70
     0
  9
$DIMDEC
 70
     2
  9
$DIMTDEC
 70
     2
  9
$DIMALTU
 70
     2
  9
$DIMALTTD
 70
     3
  9
$DIMTXSTY
  7
Standard
  9
$DIMAUNIT
 70
     0
  9
$DIMADEC
 70
     0
  9
$DIMALTRND
 40
0.0
  9
$DIMAZIN
 70
     0
  9
$DIMDSEP
 70
    44
  9
$DIMATFIT
 70
     3
  9
$DIMFRAC
 70
     0
  9
$DIMLDRBLK
  1

  9
$DIMLUNIT
 70
     2
  9
$DIMLWD
 70
    -2
  9
$DIMLWE
 70
    -2
  9
$DIMTMOVE
 70
     0
  9
$LUNITS
 70
     2
  9
$LUPREC
 70
     4
  9
$SKETCHINC
 40
1.0
  9
$FILLETRAD
 40
0.0
  9
$AUNITS
 70
     0
  9
$AUPREC
 70
     0
  9
$MENU
  1
.
  9
$ELEVATION
 40
0.0
  9
$PELEVATION
 40
0.0
  9
$THICKNESS
 40
0.0
  9
$LIMCHECK
 70
     0
  9
$CHAMFERA
 40
10.0
  9
$CHAMFERB
 40
10.0
  9
$CHAMFERC
 40
20.0
  9
$CHAMFERD
 40
0.0
  9
$SKPOLY
 70
     0
  9
$TDCREATE
 40
2454798.617880127
  9
$TDUCREATE
 40
2454798.242880127
  9
$TDUPDATE
 40
2454798.617880139
  9
$TDUUPDATE
 40
2454798.242880139
  9
$TDINDWG
 40
0.0000000116
  9
$TDUSRTIMER
 40
0.0000000116
  9
$USRTIMER
 70
     1
  9
$ANGBASE
 50
0.0
  9
$ANGDIR
 70
     0
  9
$PDMODE
 70
     0
  9
$PDSIZE
 40
0.0
  9
$PLINEWID
 40
0.0
  9
$SPLFRAME
 70
     0
  9
$SPLINETYPE
 70
     6
  9
$SPLINESEGS
 70
     8
  9
$HANDSEED
  5
675
  9
$SURFTAB1
 70
     6
  9
$SURFTAB2
 70
     6
  9
$SURFTYPE
 70
     6
  9
$SURFU
 70
     6
  9
$SURFV
 70
     6
  9
$UCSBASE
  2

  9
$UCSNAME
  2

  9
$UCSORG
 10
0.0
 20
0.0
 30
0.0
  9
$UCSXDIR
 10
1.0
 20
0.0
 30
0.0
  9
$UCSYDIR
 10
0.0
 20
1.0
 30
0.0
  9
$UCSORTHOREF
  2

  9
$UCSORTHOVIEW
 70
     0
  9
$UCSORGTOP
 10
0.0
 20
0.0
 30
0.0
  9
$UCSORGBOTTOM
 10
0.0
 20
0.0
 30
0.0
  9
$UCSORGLEFT
 10
0.0
 20
0.0
 30
0.0
  9
$UCSORGRIGHT
 10
0.0
 20
0.0
 30
0.0
  9
$UCSORGFRONT
 10
0.0
 20
0.0
 30
0.0
  9
$UCSORGBACK
 10
0.0
 20
0.0
 30
0.0
  9
$PUCSBASE
  2

  9
$PUCSNAME
  2

  9
$PUCSORG
 10
0.0
 20
0.0
 30
0.0
  9
$PUCSXDIR
 10
1.0
 20
0.0
 30
0.0
  9
$PUCSYDIR
 10
0.0
 20
1.0
 30
0.0
  9
$PUCSORTHOREF
  2

  9
$PUCSORTHOVIEW
 70
     0
  9
$PUCSORGTOP
 10
0.0
 20
0.0
 30
0.0
  9
$PUCSORGBOTTOM
 10
0.0
 20
0.0
 30
0.0
  9
$PUCSORGLEFT
 10
0.0
 20
0.0
 30
0.0
  9
$PUCSORGRIGHT
 10
0.0
 20
0.0
 30
0.0
  9
$PUCSORGFRONT
 10
0.0
 20
0.0
 30
0.0
  9
$PUCSORGBACK
 10
0.0
 20
0.0
 30
0.0
  9
$USERI1
 70
     0
  9
$USERI2
 70
     0
  9
$USERI3
 70
     0
  9
$USERI4
 70
     0
  9
$USERI5
 70
     0
  9
$USERR1
 40
0.0
  9
$USERR2
 40
0.0
  9
$USERR3
 40
0.0
  9
$USERR4
 40
0.0
  9
$USERR5
 40
0.0
  9
$WORLDVIEW
 70
     1
  9
$SHADEDGE
 70
     3
  9
$SHADEDIF
 70
    70
  9
$TILEMODE
 70
     1
  9
$MAXACTVP
 70
    64
  9
$PINSBASE
 10
0.0
 20
0.0
 30
0.0
  9
$PLIMCHECK
 70
     0
  9
$PEXTMIN
 10
1.000000E+20
 20
1.000000E+20
 30
0.0
  9
$PEXTMAX
 10
-1.000000E+20
 20
-1.000000E+20
 30
0.0
  9
$PLIMMIN
 10
0.0
 20
0.0
  9
$PLIMMAX
 10
12.0
 20
9.0
  9
$UNITMODE
 70
     0
  9
$VISRETAIN
 70
     1
  9
$PLINEGEN
 70
     0
  9
$PSLTSCALE
 70
     1
  9
$TREEDEPTH
 70
  3020
  9
$CMLSTYLE
  2
Standard
  9
$CMLJUST
 70
     0
  9
$CMLSCALE
 40
20.0
  9
$PROXYGRAPHICS
 70
     1
  9
$MEASUREMENT
 70
     1
  9
$CELWEIGHT
370
    -1
  9
$ENDCAPS
280
     0
  9
$JOINSTYLE
280
     0
  9
$LWDISPLAY
290
     0
  9
$INSUNITS
 70
     4
  9
$HYPERLINKBASE
  1

  9
$STYLESHEET
  1

  9
$XEDIT
290
     1
  9
$CEPSNTYPE
380
     0
  9
$PSTYLEMODE
290
     1
  9
$FINGERPRINTGUID
  2
{B807FDBD-E00C-4B3F-97EC-D3CEF8CD6037}
  9
$VERSIONGUID
  2
{FAEB1C32-E019-11D5-929B-00C0DF256EC4}
  9
$EXTNAMES
290
     1
  9
$PSVPSCALE
 40
0.0
  9
$OLESTARTUP
290
     0
  0
ENDSEC
  0
SECTION
  2
CLASSES
  0
CLASS
  1
ACDBDICTIONARYWDFLT
  2
AcDbDictionaryWithDefault
  3
ObjectDBX Classes
 90
        0
280
     0
281
     0
  0
CLASS
  1
VISUALSTYLE
  2
AcDbVisualStyle
  3
ObjectDBX Classes
 90
     4095
280
     0
281
     0
  0
CLASS
  1
SCALE
  2
AcDbScale
  3
ObjectDBX Classes
 90
     1153
280
     0
281
     0
  0
CLASS
  1
DICTIONARYVAR
  2
AcDbDictionaryVar
  3
ObjectDBX Classes
 90
        0
280
     0
281
     0
  0
CLASS
  1
ACDBPLACEHOLDER
  2
AcDbPlaceHolder
  3
ObjectDBX Classes
 90
        0
280
     0
281
     0
  0
CLASS
  1
LAYOUT
  2
AcDbLayout
  3
ObjectDBX Classes
 90
        0
280
     0
281
     0
  0
ENDSEC
  0
SECTION
  2
TABLES
  0
TABLE
  2
VPORT
  5
8
330
0
100
AcDbSymbolTable
 70
     1
  0
VPORT
  5
29
330
8
100
AcDbSymbolTableRecord
100
AcDbViewportTableRecord
  2
*Active
 70
     0
 10
0.0
 20
0.0
 11
1.0
 21
1.0
 12
164.084183
 22
115.602707
 13
0.0
 23
0.0
 14
1.0
 24
1.0
 15
0.0
 25
0.0
 16
0.0
 26
0.0
 36
1.0
 17
0.0
 27
0.0
 37
0.0
 40
192.333306
 41
1.691288
 42
50.0
 43
0.0
 44
0.0
 50
0.0
 51
0.0
 71
     0
 72
   100
 73
     1
 74
     3
 75
     0
 76
     0
 77
     0
 78
     0
281
     0
 65
     1
110
0.0
120
0.0
130
0.0
111
1.0
121
0.0
131
0.0
112
0.0
122
1.0
132
0.0
 79
     0
146
0.0
  0
ENDTAB
  0
TABLE
  2
LTYPE
  5
5
330
0
100
AcDbSymbolTable
 70
     5
  0
LTYPE
  5
14
330
5
100
AcDbSymbolTableRecord
100
AcDbLinetypeTableRecord
  2
ByBlock
 70
     0
  3

 72
    65
 73
     0
 40
0.0
  0
LTYPE
  5
15
330
5
100
AcDbSymbolTableRecord
100
AcDbLinetypeTableRecord
  2
ByLayer
 70
     0
  3

 72
    65
 73
     0
 40
0.0
  0
LTYPE
  5
16
330
5
100
AcDbSymbolTableRecord
100
AcDbLinetypeTableRecord
  2
Continuous
 70
     0
  3
Solid line
 72
    65
 73
     0
 40
0.0
  0
LTYPE
  5
5D
330
5
100
AcDbSymbolTableRecord
100
AcDbLinetypeTableRecord
  2
DASHED
 70
     0
  3
DASHED
 72
    83
 73
     2
 40
0.75
 49
0.5
 74
     0
 49
-0.25
 74
     0
  0
LTYPE
  5
5E
330
5
100
AcDbSymbolTableRecord
100
AcDbLinetypeTableRecord
  2
HIDDEN
 70
     0
  3
HIDDEN
 72
    83
 73
     2
 40
0.375
 49
0.25
 74
     0
 49
-0.125
 74
     0
  0
LTYPE
  5
5F
330
5
100
AcDbSymbolTableRecord
100
AcDbLinetypeTableRecord
  2
CENTER
 70
     0
  3
CENTER
 72
    83
 73
     4
 40
2.0
 49
1.25
 74
     0
 49
-0.25
 74
     0
 49
0.25
 74
     0
 49
-0.25
 74
     0
  0
LTYPE
  5
60
330
5
100
AcDbSymbolTableRecord
100
AcDbLinetypeTableRecord
  2
PHANTOM
 70
     0
  3
PHANTOM
 72
    83
 73
     6
 40
2.5
 49
1.25
 74
     0
 49
-0.25
 74
     0
 49
0.25
 74
     0
 49
-0.25
 74
     0
 49
0.25
 74
     0
 49
-0.25
 74
     0
  0
ENDTAB
  0
TABLE
  2
LAYER
  5
2
330
0
100
AcDbSymbolTable
 70
     2
  0
LAYER
  5
10
330
2
100
AcDbSymbolTableRecord
100
AcDbLayerTableRecord
  2
0
 70
     0
 62
     7
  6
Continuous
370
    -3
390
F
  0
LAYER
  5
61
330
2
100
AcDbSymbolTableRecord
100
AcDbLayerTableRecord
  2
001
 70
     0
 62
     7
  6
Continuous
370
    -3
390
F
  0
ENDTAB
  0
TABLE
  2
STYLE
  5
3
330
0
100
AcDbSymbolTable
 70
     2
  0
STYLE
  5
11
330
3
100
AcDbSymbolTableRecord
100
AcDbTextStyleTableRecord
  2
Standard
 70
     0
 40
0.0
 41
1.0
 50
0.0
 71
     0
 42
0.2
  3
TXT
  4
BIGFONT
  0
STYLE
  5
62
330
3
100
AcDbSymbolTableRecord
100
AcDbTextStyleTableRecord
  2
TATEGAKI
 70
     4
 40
1.0
 41
1.0
 50
0.0
 71
     0
 42
0.2
  3
TXT
  4
BIGFONT
  0
ENDTAB
  0
TABLE
  2
VIEW
  5
6
330
0
100
AcDbSymbolTable
 70
     0
  0
ENDTAB
  0
TABLE
  2
UCS
  5
7
330
0
100
AcDbSymbolTable
 70
     0
  0
ENDTAB
  0
TABLE
  2
APPID
  5
9
330
0
100
AcDbSymbolTable
 70
     1
  0
APPID
  5
12
330
9
100
AcDbSymbolTableRecord
100
AcDbRegAppTableRecord
  2
ACAD
 70
     0
  0
ENDTAB
  0
TABLE
  2
DIMSTYLE
  5
A
330
0
100
AcDbSymbolTable
 70
     2
100
AcDbDimStyleTable
  0
DIMSTYLE
105
27
330
A
100
AcDbSymbolTableRecord
100
AcDbDimStyleTableRecord
  2
ISO-25
 70
     0
 41
2.5
 42
0.625
 43
3.75
 44
1.25
 73
     0
 74
     0
 77
     1
 78
     8
140
2.5
141
2.5
143
0.03937
147
0.625
171
     3
172
     1
271
     2
272
     2
274
     3
278
    44
283
     0
284
     8
340
11
  0
DIMSTYLE
105
63
102
{ACAD_REACTORS
330
17E
330
17F
330
180
330
18F
330
190
330
191
330
192
330
193
330
194
330
195
330
196
330
197
330
198
330
199
102
}
330
A
100
AcDbSymbolTableRecord
100
AcDbDimStyleTableRecord
  2
Standard
 70
     0
 41
1.5
 42
0.0
 44
2.75
 73
     0
 74
     0
 77
     1
 78
     8
 79
     2
140
4.0
146
0.8
147
1.0
172
     1
179
     1
271
     1
340
11
  0
ENDTAB
  0
TABLE
  2
BLOCK_RECORD
  5
1
330
0
100
AcDbSymbolTable
 70
    15
  0
BLOCK_RECORD
  5
1F
330
1
100
AcDbSymbolTableRecord
100
AcDbBlockTableRecord
  2
*Model_Space
340
22
  0
BLOCK_RECORD
  5
1B
330
1
100
AcDbSymbolTableRecord
100
AcDbBlockTableRecord
  2
*Paper_Space
340
1E
  0
BLOCK_RECORD
  5
23
330
1
100
AcDbSymbolTableRecord
100
AcDbBlockTableRecord
  2
*Paper_Space0
340
26
  0
BLOCK_RECORD
  5
64
330
1
100
AcDbSymbolTableRecord
100
AcDbBlockTableRecord
  2
*D1
340
0
  0
BLOCK_RECORD
  5
78
330
1
100
AcDbSymbolTableRecord
100
AcDbBlockTableRecord
  2
*D2
340
0
  0
BLOCK_RECORD
  5
8C
330
1
100
AcDbSymbolTableRecord
100
AcDbBlockTableRecord
  2
*D3
340
0
  0
BLOCK_RECORD
  5
A0
330
1
100
AcDbSymbolTableRecord
100
AcDbBlockTableRecord
  2
*D4
340
0
  0
BLOCK_RECORD
  5
B4
330
1
100
AcDbSymbolTableRecord
100
AcDbBlockTableRecord
  2
*D5
340
0
  0
BLOCK_RECORD
  5
C8
330
1
100
AcDbSymbolTableRecord
100
AcDbBlockTableRecord
  2
*D6
340
0
  0
BLOCK_RECORD
  5
DE
330
1
100
AcDbSymbolTableRecord
100
AcDbBlockTableRecord
  2
*D7
340
0
  0
BLOCK_RECORD
  5
F2
330
1
100
AcDbSymbolTableRecord
100
AcDbBlockTableRecord
  2
*D8
340
0
  0
BLOCK_RECORD
  5
106
330
1
100
AcDbSymbolTableRecord
100
AcDbBlockTableRecord
  2
*D9
340
0
  0
BLOCK_RECORD
  5
11A
330
1
100
AcDbSymbolTableRecord
100
AcDbBlockTableRecord
  2
*D10
340
0
  0
BLOCK_RECORD
  5
12E
330
1
100
AcDbSymbolTableRecord
100
AcDbBlockTableRecord
  2
*D11
340
0
  0
BLOCK_RECORD
  5
142
330
1
100
AcDbSymbolTableRecord
100
AcDbBlockTableRecord
  2
*D12
340
0
  0
BLOCK_RECORD
  5
156
330
1
100
AcDbSymbolTableRecord
100
AcDbBlockTableRecord
  2
*D13
340
0
  0
BLOCK_RECORD
  5
16A
330
1
100
AcDbSymbolTableRecord
100
AcDbBlockTableRecord
  2
*D14
340
0
  0
ENDTAB
  0
ENDSEC
  0
SECTION
  2
BLOCKS
  0
BLOCK
  5
20
330
1F
100
AcDbEntity
  8
0
100
AcDbBlockBegin
  2
*Model_Space
 70
     0
 10
0.0
 20
0.0
 30
0.0
  3
*Model_Space
  1

  0
ENDBLK
  5
21
330
1F
100
AcDbEntity
  8
0
100
AcDbBlockEnd
  0
BLOCK
  5
1C
330
1B
100
AcDbEntity
 67
     1
  8
0
100
AcDbBlockBegin
  2
*Paper_Space
 70
     0
 10
0.0
 20
0.0
 30
0.0
  3
*Paper_Space
  1

  0
ENDBLK
  5
1D
330
1B
100
AcDbEntity
 67
     1
  8
0
100
AcDbBlockEnd
  0
BLOCK
  5
24
330
23
100
AcDbEntity
  8
0
100
AcDbBlockBegin
  2
*Paper_Space0
 70
     0
 10
0.0
 20
0.0
 30
0.0
  3
*Paper_Space0
  1

  0
ENDBLK
  5
25
330
23
100
AcDbEntity
  8
0
100
AcDbBlockEnd
  0
BLOCK
  5
65
330
64
100
AcDbEntity
  8
0
100
AcDbBlockBegin
  2
*D1
 70
     1
 10
0.0
 20
0.0
 30
0.0
  3
*D1
  1

  0
LINE
  5
67
330
64
100
AcDbEntity
  8
001
370
     9
100
AcDbLine
 10
65.391132
 20
43.716381
 30
0.0
 11
65.391132
 21
29.106058
 31
0.0
  0
LINE
  5
68
330
64
100
AcDbEntity
  8
001
370
     9
100
AcDbLine
 10
41.391132
 20
43.716381
 30
0.0
 11
41.391132
 21
29.106058
 31
0.0
  0
LINE
  5
69
330
64
100
AcDbEntity
  8
001
370
     9
100
AcDbLine
 10
65.391132
 20
31.856058
 30
0.0
 11
41.391132
 21
31.856058
 31
0.0
  0
POLYLINE
  5
6A
330
64
100
AcDbEntity
  8
001
370
     9
100
AcDb2dPolyline
 66
     1
 10
0.0
 20
0.0
 30
0.0
  0
VERTEX
  5
6C
330
6A
100
AcDbEntity
  8
001
370
     9
100
AcDbVertex
100
AcDb2dVertex
 10
63.891132
 20
32.257982
 30
0.0
  0
VERTEX
  5
6D
330
6A
100
AcDbEntity
  8
001
370
     9
100
AcDbVertex
100
AcDb2dVertex
 10
65.391132
 20
31.856058
 30
0.0
  0
VERTEX
  5
6E
330
6A
100
AcDbEntity
  8
001
370
     9
100
AcDbVertex
100
AcDb2dVertex
 10
63.891132
 20
31.454134
 30
0.0
  0
SEQEND
  5
6B
330
6A
100
AcDbEntity
  8
001
370
     9
  0
POLYLINE
  5
6F
330
64
100
AcDbEntity
  8
001
370
     9
100
AcDb2dPolyline
 66
     1
 10
0.0
 20
0.0
 30
0.0
  0
VERTEX
  5
71
330
6F
100
AcDbEntity
  8
001
370
     9
100
AcDbVertex
100
AcDb2dVertex
 10
42.891132
 20
31.454134
 30
0.0
  0
VERTEX
  5
72
330
6F
100
AcDbEntity
  8
001
370
     9
100
AcDbVertex
100
AcDb2dVertex
 10
41.391132
 20
31.856058
 30
0.0
  0
VERTEX
  5
73
330
6F
100
AcDbEntity
  8
001
370
     9
100
AcDbVertex
100
AcDb2dVertex
 10
42.891132
 20
32.257982
 30
0.0
  0
SEQEND
  5
70
330
6F
100
AcDbEntity
  8
001
370
     9
  0
TEXT
  5
74
330
64
100
AcDbEntity
  8
001
370
    30
100
AcDbText
 10
47.391132
 20
32.856058
 30
0.0
 40
4.0
  1
%%c２４
 41
0.882353
100
AcDbText
  0
POINT
  5
75
330
64
100
AcDbEntity
  8
001
370
     9
100
AcDbPoint
 10
65.391132
 20
43.716381
 30
0.0
  0
POINT
  5
76
330
64
100
AcDbEntity
  8
001
370
     9
100
AcDbPoint
 10
41.391132
 20
43.716381
 30
0.0
  0
POINT
  5
77
330
64
100
AcDbEntity
  8
001
370
     9
100
AcDbPoint
 10
41.391132
 20
31.856058
 30
0.0
  0
ENDBLK
  5
66
330
64
100
AcDbEntity
  8
0
100
AcDbBlockEnd
  0
BLOCK
  5
79
330
78
100
AcDbEntity
  8
0
100
AcDbBlockBegin
  2
*D2
 70
     1
 10
0.0
 20
0.0
 30
0.0
  3
*D2
  1

  0
LINE
  5
7B
330
78
100
AcDbEntity
  8
001
370
     9
100
AcDbLine
 10
35.891132
 20
82.716381
 30
0.0
 11
35.891132
 21
105.726267
 31
0.0
  0
LINE
  5
7C
330
78
100
AcDbEntity
  8
001
370
     9
100
AcDbLine
 10
70.891132
 20
82.716381
 30
0.0
 11
70.891132
 21
105.726267
 31
0.0
  0
LINE
  5
7D
330
78
100
AcDbEntity
  8
001
370
     9
100
AcDbLine
 10
35.891132
 20
102.976267
 30
0.0
 11
70.891132
 21
102.976267
 31
0.0
  0
POLYLINE
  5
7E
330
78
100
AcDbEntity
  8
001
370
     9
100
AcDb2dPolyline
 66
     1
 10
0.0
 20
0.0
 30
0.0
  0
VERTEX
  5
80
330
7E
100
AcDbEntity
  8
001
370
     9
100
AcDbVertex
100
AcDb2dVertex
 10
37.391132
 20
102.574343
 30
0.0
  0
VERTEX
  5
81
330
7E
100
AcDbEntity
  8
001
370
     9
100
AcDbVertex
100
AcDb2dVertex
 10
35.891132
 20
102.976267
 30
0.0
  0
VERTEX
  5
82
330
7E
100
AcDbEntity
  8
001
370
     9
100
AcDbVertex
100
AcDb2dVertex
 10
37.391132
 20
103.378191
 30
0.0
  0
SEQEND
  5
7F
330
7E
100
AcDbEntity
  8
001
370
     9
  0
POLYLINE
  5
83
330
78
100
AcDbEntity
  8
001
370
     9
100
AcDb2dPolyline
 66
     1
 10
0.0
 20
0.0
 30
0.0
  0
VERTEX
  5
85
330
83
100
AcDbEntity
  8
001
370
     9
100
AcDbVertex
100
AcDb2dVertex
 10
69.391132
 20
103.378191
 30
0.0
  0
VERTEX
  5
86
330
83
100
AcDbEntity
  8
001
370
     9
100
AcDbVertex
100
AcDb2dVertex
 10
70.891132
 20
102.976267
 30
0.0
  0
VERTEX
  5
87
330
83
100
AcDbEntity
  8
001
370
     9
100
AcDbVertex
100
AcDb2dVertex
 10
69.391132
 20
102.574343
 30
0.0
  0
SEQEND
  5
84
330
83
100
AcDbEntity
  8
001
370
     9
  0
TEXT
  5
88
330
78
100
AcDbEntity
  8
001
370
    30
100
AcDbText
 10
47.391132
 20
103.976267
 30
0.0
 40
4.0
  1
%%c３５
 41
0.882353
100
AcDbText
  0
POINT
  5
89
330
78
100
AcDbEntity
  8
001
370
     9
100
AcDbPoint
 10
35.891132
 20
82.716381
 30
0.0
  0
POINT
  5
8A
330
78
100
AcDbEntity
  8
001
370
     9
100
AcDbPoint
 10
70.891132
 20
82.716381
 30
0.0
  0
POINT
  5
8B
330
78
100
AcDbEntity
  8
001
370
     9
100
AcDbPoint
 10
70.891132
 20
102.976267
 30
0.0
  0
ENDBLK
  5
7A
330
78
100
AcDbEntity
  8
0
100
AcDbBlockEnd
  0
BLOCK
  5
8D
330
8C
100
AcDbEntity
  8
0
100
AcDbBlockBegin
  2
*D3
 70
     1
 10
0.0
 20
0.0
 30
0.0
  3
*D3
  1

  0
LINE
  5
8F
330
8C
100
AcDbEntity
  8
001
370
     9
100
AcDbLine
 10
80.891132
 20
83.716381
 30
0.0
 11
90.085075
 21
83.716381
 31
0.0
  0
LINE
  5
90
330
8C
100
AcDbEntity
  8
001
370
     9
100
AcDbLine
 10
70.891132
 20
60.216381
 30
0.0
 11
90.085075
 21
60.216381
 31
0.0
  0
LINE
  5
91
330
8C
100
AcDbEntity
  8
001
370
     9
100
AcDbLine
 10
87.335075
 20
83.716381
 30
0.0
 11
87.335075
 21
60.216381
 31
0.0
  0
POLYLINE
  5
92
330
8C
100
AcDbEntity
  8
001
370
     9
100
AcDb2dPolyline
 66
     1
 10
0.0
 20
0.0
 30
0.0
  0
VERTEX
  5
94
330
92
100
AcDbEntity
  8
001
370
     9
100
AcDbVertex
100
AcDb2dVertex
 10
86.933151
 20
82.216381
 30
0.0
  0
VERTEX
  5
95
330
92
100
AcDbEntity
  8
001
370
     9
100
AcDbVertex
100
AcDb2dVertex
 10
87.335075
 20
83.716381
 30
0.0
  0
VERTEX
  5
96
330
92
100
AcDbEntity
  8
001
370
     9
100
AcDbVertex
100
AcDb2dVertex
 10
87.736999
 20
82.216381
 30
0.0
  0
SEQEND
  5
93
330
92
100
AcDbEntity
  8
001
370
     9
  0
POLYLINE
  5
97
330
8C
100
AcDbEntity
  8
001
370
     9
100
AcDb2dPolyline
 66
     1
 10
0.0
 20
0.0
 30
0.0
  0
VERTEX
  5
99
330
97
100
AcDbEntity
  8
001
370
     9
100
AcDbVertex
100
AcDb2dVertex
 10
87.736999
 20
61.716381
 30
0.0
  0
VERTEX
  5
9A
330
97
100
AcDbEntity
  8
001
370
     9
100
AcDbVertex
100
AcDb2dVertex
 10
87.335075
 20
60.216381
 30
0.0
  0
VERTEX
  5
9B
330
97
100
AcDbEntity
  8
001
370
     9
100
AcDbVertex
100
AcDb2dVertex
 10
86.933151
 20
61.716381
 30
0.0
  0
SEQEND
  5
98
330
97
100
AcDbEntity
  8
001
370
     9
  0
TEXT
  5
9C
330
8C
100
AcDbEntity
  8
001
370
    30
100
AcDbText
 10
86.335075
 20
63.966381
 30
0.0
 40
4.0
  1
２３．５
 50
90.000003
 41
0.833333
100
AcDbText
  0
POINT
  5
9D
330
8C
100
AcDbEntity
  8
001
370
     9
100
AcDbPoint
 10
80.891132
 20
83.716381
 30
0.0
  0
POINT
  5
9E
330
8C
100
AcDbEntity
  8
001
370
     9
100
AcDbPoint
 10
70.891132
 20
60.216381
 30
0.0
  0
POINT
  5
9F
330
8C
100
AcDbEntity
  8
001
370
     9
100
AcDbPoint
 10
87.335075
 20
60.216381
 30
0.0
  0
ENDBLK
  5
8E
330
8C
100
AcDbEntity
  8
0
100
AcDbBlockEnd
  0
BLOCK
  5
A1
330
A0
100
AcDbEntity
  8
0
100
AcDbBlockBegin
  2
*D4
 70
     1
 10
0.0
 20
0.0
 30
0.0
  3
*D4
  1

  0
LINE
  5
A3
330
A0
100
AcDbEntity
  8
001
370
     9
100
AcDbLine
 10
153.73597
 20
123.953223
 30
0.0
 11
194.700359
 21
82.988834
 31
0.0
  0
ARC
  5
A4
330
A0
100
AcDbEntity
  8
001
370
     9
100
AcDbCircle
 10
134.23597
 20
143.453223
 30
0.0
 40
82.75955911521811
100
AcDbArc
 50
315.0
 51
0.0
  0
POLYLINE
  5
A5
330
A0
100
AcDbEntity
  8
001
370
     9
100
AcDb2dPolyline
 66
     1
 10
0.0
 20
0.0
 30
0.0
  0
VERTEX
  5
A7
330
A5
100
AcDbEntity
  8
001
370
     9
100
AcDbVertex
100
AcDb2dVertex
 10
216.580029
 20
141.956927
 30
0.0
  0
VERTEX
  5
A8
330
A5
100
AcDbEntity
  8
001
370
     9
100
AcDbVertex
100
AcDb2dVertex
 10
216.995529
 20
143.453223
 30
0.0
  0
VERTEX
  5
A9
330
A5
100
AcDbEntity
  8
001
370
     9
100
AcDbVertex
100
AcDb2dVertex
 10
217.383843
 20
141.949642
 30
0.0
  0
SEQEND
  5
A6
330
A5
100
AcDbEntity
  8
001
370
     9
  0
POLYLINE
  5
AA
330
A0
100
AcDbEntity
  8
001
370
     9
100
AcDb2dPolyline
 66
     1
 10
0.0
 20
0.0
 30
0.0
  0
VERTEX
  5
AC
330
AA
100
AcDbEntity
  8
001
370
     9
100
AcDbVertex
100
AcDb2dVertex
 10
194.093587
 20
85.72199
 30
0.0
  0
VERTEX
  5
AD
330
AA
100
AcDbEntity
  8
001
370
     9
100
AcDbVertex
100
AcDb2dVertex
 10
192.755816
 20
84.933377
 30
0.0
  0
VERTEX
  5
AE
330
AA
100
AcDbEntity
  8
001
370
     9
100
AcDbVertex
100
AcDb2dVertex
 10
193.520053
 20
86.285222
 30
0.0
  0
SEQEND
  5
AB
330
AA
100
AcDbEntity
  8
001
370
     9
  0
TEXT
  5
AF
330
A0
100
AcDbEntity
  8
001
370
    30
100
AcDbText
 10
207.475853
 20
106.621917
 30
0.0
 40
4.0
  1
４５%%d
 50
67.5
 41
0.978261
100
AcDbText
  0
POINT
  5
B0
330
A0
100
AcDbEntity
  8
001
370
     9
100
AcDbPoint
 10
214.245529
 20
143.453223
 30
0.0
  0
POINT
  5
B1
330
A0
100
AcDbEntity
  8
001
370
     9
100
AcDbPoint
 10
134.23597
 20
143.453223
 30
0.0
  0
POINT
  5
B2
330
A0
100
AcDbEntity
  8
001
370
     9
100
AcDbPoint
 10
134.23597
 20
143.453223
 30
0.0
  0
POINT
  5
B3
330
A0
100
AcDbEntity
  8
001
370
     9
100
AcDbPoint
 10
153.73597
 20
123.953223
 30
0.0
  0
ENDBLK
  5
A2
330
A0
100
AcDbEntity
  8
0
100
AcDbBlockEnd
  0
BLOCK
  5
B5
330
B4
100
AcDbEntity
  8
0
100
AcDbBlockBegin
  2
*D5
 70
     1
 10
0.0
 20
0.0
 30
0.0
  3
*D5
  1

  0
LINE
  5
B7
330
B4
100
AcDbEntity
  8
001
370
     9
100
AcDbLine
 10
129.23597
 20
130.453223
 30
0.0
 11
195.424239
 21
64.264954
 31
0.0
  0
ARC
  5
B8
330
B4
100
AcDbEntity
  8
001
370
     9
100
AcDbCircle
 10
116.23597
 20
143.453223
 30
0.0
 40
109.2391233953167
100
AcDbArc
 50
315.0
 51
0.0
  0
POLYLINE
  5
B9
330
B4
100
AcDbEntity
  8
001
370
     9
100
AcDb2dPolyline
 66
     1
 10
0.0
 20
0.0
 30
0.0
  0
VERTEX
  5
BB
330
B9
100
AcDbEntity
  8
001
370
     9
100
AcDbVertex
100
AcDb2dVertex
 10
225.062881
 20
141.956018
 30
0.0
  0
VERTEX
  5
BC
330
B9
100
AcDbEntity
  8
001
370
     9
100
AcDbVertex
100
AcDb2dVertex
 10
225.475094
 20
143.453223
 30
0.0
  0
VERTEX
  5
BD
330
B9
100
AcDbEntity
  8
001
370
     9
100
AcDbVertex
100
AcDb2dVertex
 10
225.866709
 20
141.950499
 30
0.0
  0
SEQEND
  5
BA
330
B9
100
AcDbEntity
  8
001
370
     9
  0
POLYLINE
  5
BE
330
B4
100
AcDbEntity
  8
001
370
     9
100
AcDb2dPolyline
 66
     1
 10
0.0
 20
0.0
 30
0.0
  0
VERTEX
  5
C0
330
BE
100
AcDbEntity
  8
001
370
     9
100
AcDbVertex
100
AcDb2dVertex
 10
194.819196
 20
66.99517
 30
0.0
  0
VERTEX
  5
C1
330
BE
100
AcDbEntity
  8
001
370
     9
100
AcDbVertex
100
AcDb2dVertex
 10
193.479695
 20
66.209498
 30
0.0
  0
VERTEX
  5
C2
330
BE
100
AcDbEntity
  8
001
370
     9
100
AcDbVertex
100
AcDb2dVertex
 10
194.246901
 20
67.55966
 30
0.0
  0
SEQEND
  5
BF
330
BE
100
AcDbEntity
  8
001
370
     9
  0
TEXT
  5
C3
330
B4
100
AcDbEntity
  8
001
370
    30
100
AcDbText
 10
213.93978
 20
96.488627
 30
0.0
 40
4.0
  1
４５%%d
 50
67.5
 41
0.978261
100
AcDbText
  0
POINT
  5
C4
330
B4
100
AcDbEntity
  8
001
370
     9
100
AcDbPoint
 10
222.725094
 20
143.453223
 30
0.0
  0
POINT
  5
C5
330
B4
100
AcDbEntity
  8
001
370
     9
100
AcDbPoint
 10
116.23597
 20
143.453223
 30
0.0
  0
POINT
  5
C6
330
B4
100
AcDbEntity
  8
001
370
     9
100
AcDbPoint
 10
116.23597
 20
143.453223
 30
0.0
  0
POINT
  5
C7
330
B4
100
AcDbEntity
  8
001
370
     9
100
AcDbPoint
 10
129.23597
 20
130.453223
 30
0.0
  0
ENDBLK
  5
B6
330
B4
100
AcDbEntity
  8
0
100
AcDbBlockEnd
  0
BLOCK
  5
C9
330
C8
100
AcDbEntity
  8
0
100
AcDbBlockBegin
  2
*D6
 70
     1
 10
0.0
 20
0.0
 30
0.0
  3
*D6
  1

  0
LINE
  5
CB
330
C8
100
AcDbEntity
  8
001
370
     9
100
AcDbLine
 10
129.23597
 20
126.746906
 30
0.0
 11
129.23597
 21
74.697755
 31
0.0
  0
LINE
  5
CC
330
C8
100
AcDbEntity
  8
001
370
     9
100
AcDbLine
 10
127.63597
 20
132.053223
 30
0.0
 11
127.63597
 21
74.697755
 31
0.0
  0
LINE
  5
CD
330
C8
100
AcDbEntity
  8
001
370
     9
100
AcDbLine
 10
129.23597
 20
77.447755
 30
0.0
 11
127.63597
 21
77.447755
 31
0.0
  0
POLYLINE
  5
CE
330
C8
100
AcDbEntity
  8
001
370
     9
100
AcDb2dPolyline
 66
     1
 10
0.0
 20
0.0
 30
0.0
  0
VERTEX
  5
D0
330
CE
100
AcDbEntity
  8
001
370
     9
100
AcDbVertex
100
AcDb2dVertex
 10
130.73597
 20
77.045831
 30
0.0
  0
VERTEX
  5
D1
330
CE
100
AcDbEntity
  8
001
370
     9
100
AcDbVertex
100
AcDb2dVertex
 10
129.23597
 20
77.447755
 30
0.0
  0
VERTEX
  5
D2
330
CE
100
AcDbEntity
  8
001
370
     9
100
AcDbVertex
100
AcDb2dVertex
 10
130.73597
 20
77.849679
 30
0.0
  0
SEQEND
  5
CF
330
CE
100
AcDbEntity
  8
001
370
     9
  0
POLYLINE
  5
D3
330
C8
100
AcDbEntity
  8
001
370
     9
100
AcDb2dPolyline
 66
     1
 10
0.0
 20
0.0
 30
0.0
  0
VERTEX
  5
D5
330
D3
100
AcDbEntity
  8
001
370
     9
100
AcDbVertex
100
AcDb2dVertex
 10
126.13597
 20
77.849679
 30
0.0
  0
VERTEX
  5
D6
330
D3
100
AcDbEntity
  8
001
370
     9
100
AcDbVertex
100
AcDb2dVertex
 10
127.63597
 20
77.447755
 30
0.0
  0
VERTEX
  5
D7
330
D3
100
AcDbEntity
  8
001
370
     9
100
AcDbVertex
100
AcDb2dVertex
 10
126.13597
 20
77.045831
 30
0.0
  0
SEQEND
  5
D4
330
D3
100
AcDbEntity
  8
001
370
     9
  0
TEXT
  5
D8
330
C8
100
AcDbEntity
  8
001
370
    30
100
AcDbText
 10
112.13597
 20
78.447755
 30
0.0
 40
4.0
  1
１．６
 41
0.833333
100
AcDbText
  0
POINT
  5
D9
330
C8
100
AcDbEntity
  8
001
370
     9
100
AcDbPoint
 10
129.23597
 20
126.746906
 30
0.0
  0
POINT
  5
DA
330
C8
100
AcDbEntity
  8
001
370
     9
100
AcDbPoint
 10
127.63597
 20
132.053223
 30
0.0
  0
POINT
  5
DB
330
C8
100
AcDbEntity
  8
001
370
     9
100
AcDbPoint
 10
127.63597
 20
77.447755
 30
0.0
  0
LINE
  5
DC
330
C8
100
AcDbEntity
  8
001
370
     9
100
AcDbLine
 10
129.23597
 20
77.447755
 30
0.0
 11
131.73597
 21
77.447755
 31
0.0
  0
LINE
  5
DD
330
C8
100
AcDbEntity
  8
001
370
     9
100
AcDbLine
 10
127.63597
 20
77.447755
 30
0.0
 11
109.13597
 21
77.447755
 31
0.0
  0
ENDBLK
  5
CA
330
C8
100
AcDbEntity
  8
0
100
AcDbBlockEnd
  0
BLOCK
  5
DF
330
DE
100
AcDbEntity
  8
0
100
AcDbBlockBegin
  2
*D7
 70
     1
 10
0.0
 20
0.0
 30
0.0
  3
*D7
  1

  0
LINE
  5
E1
330
DE
100
AcDbEntity
  8
001
370
     9
100
AcDbLine
 10
152.73597
 20
115.953223
 30
0.0
 11
152.73597
 21
74.697755
 31
0.0
  0
LINE
  5
E2
330
DE
100
AcDbEntity
  8
001
370
     9
100
AcDbLine
 10
129.23597
 20
126.746906
 30
0.0
 11
129.23597
 21
74.697755
 31
0.0
  0
LINE
  5
E3
330
DE
100
AcDbEntity
  8
001
370
     9
100
AcDbLine
 10
152.73597
 20
77.447755
 30
0.0
 11
129.23597
 21
77.447755
 31
0.0
  0
POLYLINE
  5
E4
330
DE
100
AcDbEntity
  8
001
370
     9
100
AcDb2dPolyline
 66
     1
 10
0.0
 20
0.0
 30
0.0
  0
VERTEX
  5
E6
330
E4
100
AcDbEntity
  8
001
370
     9
100
AcDbVertex
100
AcDb2dVertex
 10
151.23597
 20
77.849679
 30
0.0
  0
VERTEX
  5
E7
330
E4
100
AcDbEntity
  8
001
370
     9
100
AcDbVertex
100
AcDb2dVertex
 10
152.73597
 20
77.447755
 30
0.0
  0
VERTEX
  5
E8
330
E4
100
AcDbEntity
  8
001
370
     9
100
AcDbVertex
100
AcDb2dVertex
 10
151.23597
 20
77.045831
 30
0.0
  0
SEQEND
  5
E5
330
E4
100
AcDbEntity
  8
001
370
     9
  0
POLYLINE
  5
E9
330
DE
100
AcDbEntity
  8
001
370
     9
100
AcDb2dPolyline
 66
     1
 10
0.0
 20
0.0
 30
0.0
  0
VERTEX
  5
EB
330
E9
100
AcDbEntity
  8
001
370
     9
100
AcDbVertex
100
AcDb2dVertex
 10
130.73597
 20
77.045831
 30
0.0
  0
VERTEX
  5
EC
330
E9
100
AcDbEntity
  8
001
370
     9
100
AcDbVertex
100
AcDb2dVertex
 10
129.23597
 20
77.447755
 30
0.0
  0
VERTEX
  5
ED
330
E9
100
AcDbEntity
  8
001
370
     9
100
AcDbVertex
100
AcDb2dVertex
 10
130.73597
 20
77.849679
 30
0.0
  0
SEQEND
  5
EA
330
E9
100
AcDbEntity
  8
001
370
     9
  0
TEXT
  5
EE
330
DE
100
AcDbEntity
  8
001
370
    30
100
AcDbText
 10
132.98597
 20
78.447755
 30
0.0
 40
4.0
  1
２３．５
 41
0.833333
100
AcDbText
  0
POINT
  5
EF
330
DE
100
AcDbEntity
  8
001
370
     9
100
AcDbPoint
 10
152.73597
 20
115.953223
 30
0.0
  0
POINT
  5
F0
330
DE
100
AcDbEntity
  8
001
370
     9
100
AcDbPoint
 10
129.23597
 20
126.746906
 30
0.0
  0
POINT
  5
F1
330
DE
100
AcDbEntity
  8
001
370
     9
100
AcDbPoint
 10
129.23597
 20
77.447755
 30
0.0
  0
ENDBLK
  5
E0
330
DE
100
AcDbEntity
  8
0
100
AcDbBlockEnd
  0
BLOCK
  5
F3
330
F2
100
AcDbEntity
  8
0
100
AcDbBlockBegin
  2
*D8
 70
     1
 10
0.0
 20
0.0
 30
0.0
  3
*D8
  1

  0
LINE
  5
F5
330
F2
100
AcDbEntity
  8
001
370
     9
100
AcDbLine
 10
129.23597
 20
160.953223
 30
0.0
 11
99.226078
 21
160.953223
 31
0.0
  0
LINE
  5
F6
330
F2
100
AcDbEntity
  8
001
370
     9
100
AcDbLine
 10
129.23597
 20
125.953223
 30
0.0
 11
99.226078
 21
125.953223
 31
0.0
  0
LINE
  5
F7
330
F2
100
AcDbEntity
  8
001
370
     9
100
AcDbLine
 10
101.976078
 20
160.953223
 30
0.0
 11
101.976078
 21
125.953223
 31
0.0
  0
POLYLINE
  5
F8
330
F2
100
AcDbEntity
  8
001
370
     9
100
AcDb2dPolyline
 66
     1
 10
0.0
 20
0.0
 30
0.0
  0
VERTEX
  5
FA
330
F8
100
AcDbEntity
  8
001
370
     9
100
AcDbVertex
100
AcDb2dVertex
 10
101.574154
 20
159.453223
 30
0.0
  0
VERTEX
  5
FB
330
F8
100
AcDbEntity
  8
001
370
     9
100
AcDbVertex
100
AcDb2dVertex
 10
101.976078
 20
160.953223
 30
0.0
  0
VERTEX
  5
FC
330
F8
100
AcDbEntity
  8
001
370
     9
100
AcDbVertex
100
AcDb2dVertex
 10
102.378002
 20
159.453223
 30
0.0
  0
SEQEND
  5
F9
330
F8
100
AcDbEntity
  8
001
370
     9
  0
POLYLINE
  5
FD
330
F2
100
AcDbEntity
  8
001
370
     9
100
AcDb2dPolyline
 66
     1
 10
0.0
 20
0.0
 30
0.0
  0
VERTEX
  5
FF
330
FD
100
AcDbEntity
  8
001
370
     9
100
AcDbVertex
100
AcDb2dVertex
 10
102.378002
 20
127.453223
 30
0.0
  0
VERTEX
  5
100
330
FD
100
AcDbEntity
  8
001
370
     9
100
AcDbVertex
100
AcDb2dVertex
 10
101.976078
 20
125.953223
 30
0.0
  0
VERTEX
  5
101
330
FD
100
AcDbEntity
  8
001
370
     9
100
AcDbVertex
100
AcDb2dVertex
 10
101.574154
 20
127.453223
 30
0.0
  0
SEQEND
  5
FE
330
FD
100
AcDbEntity
  8
001
370
     9
  0
TEXT
  5
102
330
F2
100
AcDbEntity
  8
001
370
    30
100
AcDbText
 10
100.976078
 20
137.453223
 30
0.0
 40
4.0
  1
%%c３５
 50
90.000003
 41
0.882353
100
AcDbText
  0
POINT
  5
103
330
F2
100
AcDbEntity
  8
001
370
     9
100
AcDbPoint
 10
129.23597
 20
160.953223
 30
0.0
  0
POINT
  5
104
330
F2
100
AcDbEntity
  8
001
370
     9
100
AcDbPoint
 10
129.23597
 20
125.953223
 30
0.0
  0
POINT
  5
105
330
F2
100
AcDbEntity
  8
001
370
     9
100
AcDbPoint
 10
101.976078
 20
125.953223
 30
0.0
  0
ENDBLK
  5
F4
330
F2
100
AcDbEntity
  8
0
100
AcDbBlockEnd
  0
BLOCK
  5
107
330
106
100
AcDbEntity
  8
0
100
AcDbBlockBegin
  2
*D9
 70
     1
 10
0.0
 20
0.0
 30
0.0
  3
*D9
  1

  0
LINE
  5
109
330
106
100
AcDbEntity
  8
001
370
     9
100
AcDbLine
 10
153.73597
 20
162.953223
 30
0.0
 11
83.95771
 21
162.953223
 31
0.0
  0
LINE
  5
10A
330
106
100
AcDbEntity
  8
001
370
     9
100
AcDbLine
 10
153.73597
 20
123.953223
 30
0.0
 11
83.95771
 21
123.953223
 31
0.0
  0
LINE
  5
10B
330
106
100
AcDbEntity
  8
001
370
     9
100
AcDbLine
 10
86.70771
 20
162.953223
 30
0.0
 11
86.70771
 21
123.953223
 31
0.0
  0
POLYLINE
  5
10C
330
106
100
AcDbEntity
  8
001
370
     9
100
AcDb2dPolyline
 66
     1
 10
0.0
 20
0.0
 30
0.0
  0
VERTEX
  5
10E
330
10C
100
AcDbEntity
  8
001
370
     9
100
AcDbVertex
100
AcDb2dVertex
 10
86.305786
 20
161.453223
 30
0.0
  0
VERTEX
  5
10F
330
10C
100
AcDbEntity
  8
001
370
     9
100
AcDbVertex
100
AcDb2dVertex
 10
86.70771
 20
162.953223
 30
0.0
  0
VERTEX
  5
110
330
10C
100
AcDbEntity
  8
001
370
     9
100
AcDbVertex
100
AcDb2dVertex
 10
87.109633
 20
161.453223
 30
0.0
  0
SEQEND
  5
10D
330
10C
100
AcDbEntity
  8
001
370
     9
  0
POLYLINE
  5
111
330
106
100
AcDbEntity
  8
001
370
     9
100
AcDb2dPolyline
 66
     1
 10
0.0
 20
0.0
 30
0.0
  0
VERTEX
  5
113
330
111
100
AcDbEntity
  8
001
370
     9
100
AcDbVertex
100
AcDb2dVertex
 10
87.109633
 20
125.453223
 30
0.0
  0
VERTEX
  5
114
330
111
100
AcDbEntity
  8
001
370
     9
100
AcDbVertex
100
AcDb2dVertex
 10
86.70771
 20
123.953223
 30
0.0
  0
VERTEX
  5
115
330
111
100
AcDbEntity
  8
001
370
     9
100
AcDbVertex
100
AcDb2dVertex
 10
86.305786
 20
125.453223
 30
0.0
  0
SEQEND
  5
112
330
111
100
AcDbEntity
  8
001
370
     9
  0
TEXT
  5
116
330
106
100
AcDbEntity
  8
001
370
    30
100
AcDbText
 10
85.70771
 20
137.453223
 30
0.0
 40
4.0
  1
%%c３９
 50
90.000003
 41
0.882353
100
AcDbText
  0
POINT
  5
117
330
106
100
AcDbEntity
  8
001
370
     9
100
AcDbPoint
 10
153.73597
 20
162.953223
 30
0.0
  0
POINT
  5
118
330
106
100
AcDbEntity
  8
001
370
     9
100
AcDbPoint
 10
153.73597
 20
123.953223
 30
0.0
  0
POINT
  5
119
330
106
100
AcDbEntity
  8
001
370
     9
100
AcDbPoint
 10
86.70771
 20
123.953223
 30
0.0
  0
ENDBLK
  5
108
330
106
100
AcDbEntity
  8
0
100
AcDbBlockEnd
  0
BLOCK
  5
11B
330
11A
100
AcDbEntity
  8
0
100
AcDbBlockBegin
  2
*D10
 70
     1
 10
0.0
 20
0.0
 30
0.0
  3
*D10
  1

  0
LINE
  5
11D
330
11A
100
AcDbEntity
  8
001
370
     9
100
AcDbLine
 10
156.57097
 20
121.118223
 30
0.0
 11
68.729245
 21
121.118223
 31
0.0
  0
LINE
  5
11E
330
11A
100
AcDbEntity
  8
001
370
     9
100
AcDbLine
 10
155.490452
 20
165.788223
 30
0.0
 11
68.729245
 21
165.788223
 31
0.0
  0
LINE
  5
11F
330
11A
100
AcDbEntity
  8
001
370
     9
100
AcDbLine
 10
71.479245
 20
121.118223
 30
0.0
 11
71.479245
 21
165.788223
 31
0.0
  0
POLYLINE
  5
120
330
11A
100
AcDbEntity
  8
001
370
     9
100
AcDb2dPolyline
 66
     1
 10
0.0
 20
0.0
 30
0.0
  0
VERTEX
  5
122
330
120
100
AcDbEntity
  8
001
370
     9
100
AcDbVertex
100
AcDb2dVertex
 10
71.881169
 20
122.618223
 30
0.0
  0
VERTEX
  5
123
330
120
100
AcDbEntity
  8
001
370
     9
100
AcDbVertex
100
AcDb2dVertex
 10
71.479245
 20
121.118223
 30
0.0
  0
VERTEX
  5
124
330
120
100
AcDbEntity
  8
001
370
     9
100
AcDbVertex
100
AcDb2dVertex
 10
71.077322
 20
122.618223
 30
0.0
  0
SEQEND
  5
121
330
120
100
AcDbEntity
  8
001
370
     9
  0
POLYLINE
  5
125
330
11A
100
AcDbEntity
  8
001
370
     9
100
AcDb2dPolyline
 66
     1
 10
0.0
 20
0.0
 30
0.0
  0
VERTEX
  5
127
330
125
100
AcDbEntity
  8
001
370
     9
100
AcDbVertex
100
AcDb2dVertex
 10
71.077322
 20
164.288223
 30
0.0
  0
VERTEX
  5
128
330
125
100
AcDbEntity
  8
001
370
     9
100
AcDbVertex
100
AcDb2dVertex
 10
71.479245
 20
165.788223
 30
0.0
  0
VERTEX
  5
129
330
125
100
AcDbEntity
  8
001
370
     9
100
AcDbVertex
100
AcDb2dVertex
 10
71.881169
 20
164.288223
 30
0.0
  0
SEQEND
  5
126
330
125
100
AcDbEntity
  8
001
370
     9
  0
TEXT
  5
12A
330
11A
100
AcDbEntity
  8
001
370
    30
100
AcDbText
 10
70.479245
 20
133.453223
 30
0.0
 40
4.0
  1
%%c４４．７
 50
90.000003
 41
0.862069
100
AcDbText
  0
POINT
  5
12B
330
11A
100
AcDbEntity
  8
001
370
     9
100
AcDbPoint
 10
156.57097
 20
121.118223
 30
0.0
  0
POINT
  5
12C
330
11A
100
AcDbEntity
  8
001
370
     9
100
AcDbPoint
 10
155.490452
 20
165.788223
 30
0.0
  0
POINT
  5
12D
330
11A
100
AcDbEntity
  8
001
370
     9
100
AcDbPoint
 10
71.479245
 20
165.788223
 30
0.0
  0
ENDBLK
  5
11C
330
11A
100
AcDbEntity
  8
0
100
AcDbBlockEnd
  0
BLOCK
  5
12F
330
12E
100
AcDbEntity
  8
0
100
AcDbBlockBegin
  2
*D11
 70
     1
 10
0.0
 20
0.0
 30
0.0
  3
*D11
  1

  0
LINE
  5
131
330
12E
100
AcDbEntity
  8
001
370
     9
100
AcDbLine
 10
197.63597
 20
125.003223
 30
0.0
 11
197.63597
 21
57.595384
 31
0.0
  0
LINE
  5
132
330
12E
100
AcDbEntity
  8
001
370
     9
100
AcDbLine
 10
127.63597
 20
132.053223
 30
0.0
 11
127.63597
 21
57.595384
 31
0.0
  0
LINE
  5
133
330
12E
100
AcDbEntity
  8
001
370
     9
100
AcDbLine
 10
197.63597
 20
60.345384
 30
0.0
 11
127.63597
 21
60.345384
 31
0.0
  0
POLYLINE
  5
134
330
12E
100
AcDbEntity
  8
001
370
     9
100
AcDb2dPolyline
 66
     1
 10
0.0
 20
0.0
 30
0.0
  0
VERTEX
  5
136
330
134
100
AcDbEntity
  8
001
370
     9
100
AcDbVertex
100
AcDb2dVertex
 10
196.13597
 20
60.747307
 30
0.0
  0
VERTEX
  5
137
330
134
100
AcDbEntity
  8
001
370
     9
100
AcDbVertex
100
AcDb2dVertex
 10
197.63597
 20
60.345384
 30
0.0
  0
VERTEX
  5
138
330
134
100
AcDbEntity
  8
001
370
     9
100
AcDbVertex
100
AcDb2dVertex
 10
196.13597
 20
59.94346
 30
0.0
  0
SEQEND
  5
135
330
134
100
AcDbEntity
  8
001
370
     9
  0
POLYLINE
  5
139
330
12E
100
AcDbEntity
  8
001
370
     9
100
AcDb2dPolyline
 66
     1
 10
0.0
 20
0.0
 30
0.0
  0
VERTEX
  5
13B
330
139
100
AcDbEntity
  8
001
370
     9
100
AcDbVertex
100
AcDb2dVertex
 10
129.13597
 20
59.94346
 30
0.0
  0
VERTEX
  5
13C
330
139
100
AcDbEntity
  8
001
370
     9
100
AcDbVertex
100
AcDb2dVertex
 10
127.63597
 20
60.345384
 30
0.0
  0
VERTEX
  5
13D
330
139
100
AcDbEntity
  8
001
370
     9
100
AcDbVertex
100
AcDb2dVertex
 10
129.13597
 20
60.747307
 30
0.0
  0
SEQEND
  5
13A
330
139
100
AcDbEntity
  8
001
370
     9
  0
TEXT
  5
13E
330
12E
100
AcDbEntity
  8
001
370
    30
100
AcDbText
 10
158.63597
 20
61.345384
 30
0.0
 40
4.0
  1
７０
 41
0.833333
100
AcDbText
  0
POINT
  5
13F
330
12E
100
AcDbEntity
  8
001
370
     9
100
AcDbPoint
 10
197.63597
 20
125.003223
 30
0.0
  0
POINT
  5
140
330
12E
100
AcDbEntity
  8
001
370
     9
100
AcDbPoint
 10
127.63597
 20
132.053223
 30
0.0
  0
POINT
  5
141
330
12E
100
AcDbEntity
  8
001
370
     9
100
AcDbPoint
 10
127.63597
 20
60.345384
 30
0.0
  0
ENDBLK
  5
130
330
12E
100
AcDbEntity
  8
0
100
AcDbBlockEnd
  0
BLOCK
  5
143
330
142
100
AcDbEntity
  8
0
100
AcDbBlockBegin
  2
*D12
 70
     1
 10
0.0
 20
0.0
 30
0.0
  3
*D12
  1

  0
LINE
  5
145
330
142
100
AcDbEntity
  8
001
370
     9
100
AcDbLine
 10
277.63597
 20
135.453223
 30
0.0
 11
277.63597
 21
57.595384
 31
0.0
  0
LINE
  5
146
330
142
100
AcDbEntity
  8
001
370
     9
100
AcDbLine
 10
197.63597
 20
125.003223
 30
0.0
 11
197.63597
 21
57.595384
 31
0.0
  0
LINE
  5
147
330
142
100
AcDbEntity
  8
001
370
     9
100
AcDbLine
 10
277.63597
 20
60.345384
 30
0.0
 11
197.63597
 21
60.345384
 31
0.0
  0
POLYLINE
  5
148
330
142
100
AcDbEntity
  8
001
370
     9
100
AcDb2dPolyline
 66
     1
 10
0.0
 20
0.0
 30
0.0
  0
VERTEX
  5
14A
330
148
100
AcDbEntity
  8
001
370
     9
100
AcDbVertex
100
AcDb2dVertex
 10
276.13597
 20
60.747307
 30
0.0
  0
VERTEX
  5
14B
330
148
100
AcDbEntity
  8
001
370
     9
100
AcDbVertex
100
AcDb2dVertex
 10
277.63597
 20
60.345384
 30
0.0
  0
VERTEX
  5
14C
330
148
100
AcDbEntity
  8
001
370
     9
100
AcDbVertex
100
AcDb2dVertex
 10
276.13597
 20
59.94346
 30
0.0
  0
SEQEND
  5
149
330
148
100
AcDbEntity
  8
001
370
     9
  0
POLYLINE
  5
14D
330
142
100
AcDbEntity
  8
001
370
     9
100
AcDb2dPolyline
 66
     1
 10
0.0
 20
0.0
 30
0.0
  0
VERTEX
  5
14F
330
14D
100
AcDbEntity
  8
001
370
     9
100
AcDbVertex
100
AcDb2dVertex
 10
199.13597
 20
59.94346
 30
0.0
  0
VERTEX
  5
150
330
14D
100
AcDbEntity
  8
001
370
     9
100
AcDbVertex
100
AcDb2dVertex
 10
197.63597
 20
60.345384
 30
0.0
  0
VERTEX
  5
151
330
14D
100
AcDbEntity
  8
001
370
     9
100
AcDbVertex
100
AcDb2dVertex
 10
199.13597
 20
60.747307
 30
0.0
  0
SEQEND
  5
14E
330
14D
100
AcDbEntity
  8
001
370
     9
  0
TEXT
  5
152
330
142
100
AcDbEntity
  8
001
370
    30
100
AcDbText
 10
233.63597
 20
61.345384
 30
0.0
 40
4.0
  1
８０
 41
0.833333
100
AcDbText
  0
POINT
  5
153
330
142
100
AcDbEntity
  8
001
370
     9
100
AcDbPoint
 10
277.63597
 20
135.453223
 30
0.0
  0
POINT
  5
154
330
142
100
AcDbEntity
  8
001
370
     9
100
AcDbPoint
 10
197.63597
 20
125.003223
 30
0.0
  0
POINT
  5
155
330
142
100
AcDbEntity
  8
001
370
     9
100
AcDbPoint
 10
197.63597
 20
60.345384
 30
0.0
  0
ENDBLK
  5
144
330
142
100
AcDbEntity
  8
0
100
AcDbBlockEnd
  0
BLOCK
  5
157
330
156
100
AcDbEntity
  8
0
100
AcDbBlockBegin
  2
*D13
 70
     1
 10
0.0
 20
0.0
 30
0.0
  3
*D13
  1

  0
LINE
  5
159
330
156
100
AcDbEntity
  8
001
370
     9
100
AcDbLine
 10
127.63597
 20
132.053223
 30
0.0
 11
127.63597
 21
42.146215
 31
0.0
  0
LINE
  5
15A
330
156
100
AcDbEntity
  8
001
370
     9
100
AcDbLine
 10
277.63597
 20
135.453223
 30
0.0
 11
277.63597
 21
42.146215
 31
0.0
  0
LINE
  5
15B
330
156
100
AcDbEntity
  8
001
370
     9
100
AcDbLine
 10
127.63597
 20
44.896215
 30
0.0
 11
277.63597
 21
44.896215
 31
0.0
  0
POLYLINE
  5
15C
330
156
100
AcDbEntity
  8
001
370
     9
100
AcDb2dPolyline
 66
     1
 10
0.0
 20
0.0
 30
0.0
  0
VERTEX
  5
15E
330
15C
100
AcDbEntity
  8
001
370
     9
100
AcDbVertex
100
AcDb2dVertex
 10
129.13597
 20
44.494291
 30
0.0
  0
VERTEX
  5
15F
330
15C
100
AcDbEntity
  8
001
370
     9
100
AcDbVertex
100
AcDb2dVertex
 10
127.63597
 20
44.896215
 30
0.0
  0
VERTEX
  5
160
330
15C
100
AcDbEntity
  8
001
370
     9
100
AcDbVertex
100
AcDb2dVertex
 10
129.13597
 20
45.298139
 30
0.0
  0
SEQEND
  5
15D
330
15C
100
AcDbEntity
  8
001
370
     9
  0
POLYLINE
  5
161
330
156
100
AcDbEntity
  8
001
370
     9
100
AcDb2dPolyline
 66
     1
 10
0.0
 20
0.0
 30
0.0
  0
VERTEX
  5
163
330
161
100
AcDbEntity
  8
001
370
     9
100
AcDbVertex
100
AcDb2dVertex
 10
276.13597
 20
45.298139
 30
0.0
  0
VERTEX
  5
164
330
161
100
AcDbEntity
  8
001
370
     9
100
AcDbVertex
100
AcDb2dVertex
 10
277.63597
 20
44.896215
 30
0.0
  0
VERTEX
  5
165
330
161
100
AcDbEntity
  8
001
370
     9
100
AcDbVertex
100
AcDb2dVertex
 10
276.13597
 20
44.494291
 30
0.0
  0
SEQEND
  5
162
330
161
100
AcDbEntity
  8
001
370
     9
  0
TEXT
  5
166
330
156
100
AcDbEntity
  8
001
370
    30
100
AcDbText
 10
196.63597
 20
45.896215
 30
0.0
 40
4.0
  1
１５０
 41
0.833333
100
AcDbText
  0
POINT
  5
167
330
156
100
AcDbEntity
  8
001
370
     9
100
AcDbPoint
 10
127.63597
 20
132.053223
 30
0.0
  0
POINT
  5
168
330
156
100
AcDbEntity
  8
001
370
     9
100
AcDbPoint
 10
277.63597
 20
135.453223
 30
0.0
  0
POINT
  5
169
330
156
100
AcDbEntity
  8
001
370
     9
100
AcDbPoint
 10
277.63597
 20
44.896215
 30
0.0
  0
ENDBLK
  5
158
330
156
100
AcDbEntity
  8
0
100
AcDbBlockEnd
  0
BLOCK
  5
16B
330
16A
100
AcDbEntity
  8
0
100
AcDbBlockBegin
  2
*D14
 70
     1
 10
0.0
 20
0.0
 30
0.0
  3
*D14
  1

  0
LINE
  5
16D
330
16A
100
AcDbEntity
  8
001
370
     9
100
AcDbLine
 10
269.63597
 20
127.453223
 30
0.0
 11
302.27721
 21
127.453223
 31
0.0
  0
LINE
  5
16E
330
16A
100
AcDbEntity
  8
001
370
     9
100
AcDbLine
 10
269.63597
 20
159.453223
 30
0.0
 11
302.27721
 21
159.453223
 31
0.0
  0
LINE
  5
16F
330
16A
100
AcDbEntity
  8
001
370
     9
100
AcDbLine
 10
299.52721
 20
127.453223
 30
0.0
 11
299.52721
 21
159.453223
 31
0.0
  0
POLYLINE
  5
170
330
16A
100
AcDbEntity
  8
001
370
     9
100
AcDb2dPolyline
 66
     1
 10
0.0
 20
0.0
 30
0.0
  0
VERTEX
  5
172
330
170
100
AcDbEntity
  8
001
370
     9
100
AcDbVertex
100
AcDb2dVertex
 10
299.929134
 20
128.953223
 30
0.0
  0
VERTEX
  5
173
330
170
100
AcDbEntity
  8
001
370
     9
100
AcDbVertex
100
AcDb2dVertex
 10
299.52721
 20
127.453223
 30
0.0
  0
VERTEX
  5
174
330
170
100
AcDbEntity
  8
001
370
     9
100
AcDbVertex
100
AcDb2dVertex
 10
299.125286
 20
128.953223
 30
0.0
  0
SEQEND
  5
171
330
170
100
AcDbEntity
  8
001
370
     9
  0
POLYLINE
  5
175
330
16A
100
AcDbEntity
  8
001
370
     9
100
AcDb2dPolyline
 66
     1
 10
0.0
 20
0.0
 30
0.0
  0
VERTEX
  5
177
330
175
100
AcDbEntity
  8
001
370
     9
100
AcDbVertex
100
AcDb2dVertex
 10
299.125286
 20
157.953223
 30
0.0
  0
VERTEX
  5
178
330
175
100
AcDbEntity
  8
001
370
     9
100
AcDbVertex
100
AcDb2dVertex
 10
299.52721
 20
159.453223
 30
0.0
  0
VERTEX
  5
179
330
175
100
AcDbEntity
  8
001
370
     9
100
AcDbVertex
100
AcDb2dVertex
 10
299.929134
 20
157.953223
 30
0.0
  0
SEQEND
  5
176
330
175
100
AcDbEntity
  8
001
370
     9
  0
TEXT
  5
17A
330
16A
100
AcDbEntity
  8
001
370
    30
100
AcDbText
 10
298.52721
 20
137.453223
 30
0.0
 40
4.0
  1
%%c３２
 50
90.000003
 41
0.882353
100
AcDbText
  0
POINT
  5
17B
330
16A
100
AcDbEntity
  8
001
370
     9
100
AcDbPoint
 10
269.63597
 20
127.453223
 30
0.0
  0
POINT
  5
17C
330
16A
100
AcDbEntity
  8
001
370
     9
100
AcDbPoint
 10
269.63597
 20
159.453223
 30
0.0
  0
POINT
  5
17D
330
16A
100
AcDbEntity
  8
001
370
     9
100
AcDbPoint
 10
299.52721
 20
159.453223
 30
0.0
  0
ENDBLK
  5
16C
330
16A
100
AcDbEntity
  8
0
100
AcDbBlockEnd
  0
ENDSEC
  0
SECTION
  2
ENTITIES
  0
DIMENSION
  5
17E
330
1F
100
AcDbEntity
  8
001
370
     9
100
AcDbDimension
  2
*D1
 10
41.391132
 20
31.856058
 30
0.0
 11
53.391132
 21
34.856058
 31
0.0
 70
   160
 71
     5
 42
-1.0
  3
Standard
100
AcDbAlignedDimension
 13
65.391132
 23
43.716381
 33
0.0
 14
41.391132
 24
43.716381
 34
0.0
 50
180.0
100
AcDbRotatedDimension
  0
DIMENSION
  5
17F
330
1F
100
AcDbEntity
  8
001
370
     9
100
AcDbDimension
  2
*D2
 10
70.891132
 20
102.976267
 30
0.0
 11
53.391132
 21
105.976267
 31
0.0
 70
   160
 71
     5
 42
-1.0
  3
Standard
100
AcDbAlignedDimension
 13
35.891132
 23
82.716381
 33
0.0
 14
70.891132
 24
82.716381
 34
0.0
100
AcDbRotatedDimension
  0
DIMENSION
  5
180
330
1F
100
AcDbEntity
  8
001
370
     9
100
AcDbDimension
  2
*D3
 10
87.335075
 20
60.216381
 30
0.0
 11
84.335075
 21
71.966381
 31
0.0
 70
   160
 71
     5
 42
-1.0
  3
Standard
100
AcDbAlignedDimension
 13
80.891132
 23
83.716381
 33
0.0
 14
70.891132
 24
60.216381
 34
0.0
 50
270.0
100
AcDbRotatedDimension
  0
TEXT
  5
181
330
1F
100
AcDbEntity
  8
001
370
    30
100
AcDbText
 10
60.176709
 20
66.845017
 30
0.0
 40
4.0
  1
Ｃ１
 50
314.999992
 41
0.833333
100
AcDbText
  0
POLYLINE
  5
182
330
1F
100
AcDbEntity
  8
001
370
     9
100
AcDb2dPolyline
 66
     1
 10
0.0
 20
0.0
 30
0.0
  0
VERTEX
  5
184
330
182
100
AcDbEntity
  8
001
370
     9
100
AcDbVertex
100
AcDb2dVertex
 10
65.114675
 20
61.061244
 30
0.0
  0
VERTEX
  5
185
330
182
100
AcDbEntity
  8
001
370
     9
100
AcDbVertex
100
AcDb2dVertex
 10
65.891132
 20
59.716381
 30
0.0
  0
VERTEX
  5
186
330
182
100
AcDbEntity
  8
001
370
     9
100
AcDbVertex
100
AcDb2dVertex
 10
64.546269
 20
60.492838
 30
0.0
  0
SEQEND
  5
183
330
182
100
AcDbEntity
  8
001
370
     9
  0
LINE
  5
187
330
1F
100
AcDbEntity
  8
001
370
     9
100
AcDbLine
 10
65.891132
 20
59.716381
 30
0.0
 11
57.348282
 21
68.259231
 31
0.0
  0
TEXT
  5
188
330
1F
100
AcDbEntity
  8
001
370
    30
100
AcDbText
 10
56.438507
 20
99.58322
 30
0.0
 40
4.0
  1
Ｃ１
 50
314.999992
 41
0.833333
100
AcDbText
  0
POLYLINE
  5
189
330
1F
100
AcDbEntity
  8
001
370
     9
100
AcDb2dPolyline
 66
     1
 10
0.0
 20
0.0
 30
0.0
  0
VERTEX
  5
18B
330
189
100
AcDbEntity
  8
001
370
     9
100
AcDbVertex
100
AcDb2dVertex
 10
70.614675
 20
84.561244
 30
0.0
  0
VERTEX
  5
18C
330
189
100
AcDbEntity
  8
001
370
     9
100
AcDbVertex
100
AcDb2dVertex
 10
71.391132
 20
83.216381
 30
0.0
  0
VERTEX
  5
18D
330
189
100
AcDbEntity
  8
001
370
     9
100
AcDbVertex
100
AcDb2dVertex
 10
70.046269
 20
83.992838
 30
0.0
  0
SEQEND
  5
18A
330
189
100
AcDbEntity
  8
001
370
     9
  0
LINE
  5
18E
330
1F
100
AcDbEntity
  8
001
370
     9
100
AcDbLine
 10
71.391132
 20
83.216381
 30
0.0
 11
53.610079
 21
100.997434
 31
0.0
  0
DIMENSION
  5
18F
330
1F
100
AcDbEntity
  8
001
370
     9
100
AcDbDimension
  2
*D4
 10
134.23597
 20
143.453223
 30
0.0
 11
207.924194
 21
112.930561
 31
0.0
 70
    34
 71
     5
 42
-1.0
  3
Standard
100
AcDb2LineAngularDimension
 13
214.245529
 23
143.453223
 33
0.0
 14
134.23597
 24
143.453223
 34
0.0
 15
153.73597
 25
123.953223
 35
0.0
 16
210.695833
 26
111.782511
 36
0.0
  0
DIMENSION
  5
190
330
1F
100
AcDbEntity
  8
001
370
     9
100
AcDbDimension
  2
*D5
 10
116.23597
 20
143.453223
 30
0.0
 11
214.388122
 21
102.797271
 31
0.0
 70
    34
 71
     5
 42
-1.0
  3
Standard
100
AcDb2LineAngularDimension
 13
222.725094
 23
143.453223
 33
0.0
 14
116.23597
 24
143.453223
 34
0.0
 15
129.23597
 25
130.453223
 35
0.0
 16
217.15976
 26
101.64922
 36
0.0
  0
DIMENSION
  5
191
330
1F
100
AcDbEntity
  8
001
370
     9
100
AcDbDimension
  2
*D6
 10
127.63597
 20
77.447755
 30
0.0
 11
118.13597
 21
80.447755
 31
0.0
 70
   160
 71
     5
 42
-1.0
  3
Standard
100
AcDbAlignedDimension
 13
129.23597
 23
126.746906
 33
0.0
 14
127.63597
 24
132.053223
 34
0.0
 50
180.0
100
AcDbRotatedDimension
  0
DIMENSION
  5
192
330
1F
100
AcDbEntity
  8
001
370
     9
100
AcDbDimension
  2
*D7
 10
129.23597
 20
77.447755
 30
0.0
 11
140.98597
 21
80.447755
 31
0.0
 70
   160
 71
     5
 42
-1.0
  3
Standard
100
AcDbAlignedDimension
 13
152.73597
 23
115.953223
 33
0.0
 14
129.23597
 24
126.746906
 34
0.0
 50
180.0
100
AcDbRotatedDimension
  0
DIMENSION
  5
193
330
1F
100
AcDbEntity
  8
001
370
     9
100
AcDbDimension
  2
*D8
 10
101.976078
 20
125.953223
 30
0.0
 11
98.976078
 21
143.453223
 31
0.0
 70
   160
 71
     5
 42
-1.0
  3
Standard
100
AcDbAlignedDimension
 13
129.23597
 23
160.953223
 33
0.0
 14
129.23597
 24
125.953223
 34
0.0
 50
270.0
100
AcDbRotatedDimension
  0
DIMENSION
  5
194
330
1F
100
AcDbEntity
  8
001
370
     9
100
AcDbDimension
  2
*D9
 10
86.70771
 20
123.953223
 30
0.0
 11
83.707709
 21
143.453223
 31
0.0
 70
   160
 71
     5
 42
-1.0
  3
Standard
100
AcDbAlignedDimension
 13
153.73597
 23
162.953223
 33
0.0
 14
153.73597
 24
123.953223
 34
0.0
 50
270.0
100
AcDbRotatedDimension
  0
DIMENSION
  5
195
330
1F
100
AcDbEntity
  8
001
370
     9
100
AcDbDimension
  2
*D10
 10
71.479245
 20
165.788223
 30
0.0
 11
68.479245
 21
143.453223
 31
0.0
 70
   160
 71
     5
 42
-1.0
  3
Standard
100
AcDbAlignedDimension
 13
156.57097
 23
121.118223
 33
0.0
 14
155.490452
 24
165.788223
 34
0.0
 50
90.0
100
AcDbRotatedDimension
  0
DIMENSION
  5
196
330
1F
100
AcDbEntity
  8
001
370
     9
100
AcDbDimension
  2
*D11
 10
127.63597
 20
60.345384
 30
0.0
 11
162.63597
 21
63.345384
 31
0.0
 70
   160
 71
     5
 42
-1.0
  3
Standard
100
AcDbAlignedDimension
 13
197.63597
 23
125.003223
 33
0.0
 14
127.63597
 24
132.053223
 34
0.0
 50
180.0
100
AcDbRotatedDimension
  0
DIMENSION
  5
197
330
1F
100
AcDbEntity
  8
001
370
     9
100
AcDbDimension
  2
*D12
 10
197.63597
 20
60.345384
 30
0.0
 11
237.63597
 21
63.345384
 31
0.0
 70
   160
 71
     5
 42
-1.0
  3
Standard
100
AcDbAlignedDimension
 13
277.63597
 23
135.453223
 33
0.0
 14
197.63597
 24
125.003223
 34
0.0
 50
180.0
100
AcDbRotatedDimension
  0
DIMENSION
  5
198
330
1F
100
AcDbEntity
  8
001
370
     9
100
AcDbDimension
  2
*D13
 10
277.63597
 20
44.896215
 30
0.0
 11
202.63597
 21
47.896215
 31
0.0
 70
   160
 71
     5
 42
-1.0
  3
Standard
100
AcDbAlignedDimension
 13
127.63597
 23
132.053223
 33
0.0
 14
277.63597
 24
135.453223
 34
0.0
100
AcDbRotatedDimension
  0
DIMENSION
  5
199
330
1F
100
AcDbEntity
  8
001
370
     9
100
AcDbDimension
  2
*D14
 10
299.52721
 20
159.453223
 30
0.0
 11
296.52721
 21
143.453223
 31
0.0
 70
   160
 71
     5
 42
-1.0
  3
Standard
100
AcDbAlignedDimension
 13
269.63597
 23
127.453223
 33
0.0
 14
269.63597
 24
159.453223
 34
0.0
 50
90.0
100
AcDbRotatedDimension
  0
TEXT
  5
19A
330
1F
100
AcDbEntity
  8
001
370
    30
100
AcDbText
 10
64.064595
 20
200.817208
 30
0.0
 40
10.0
  1
イーグルカット　ＥＣ３２－３５ＸＳ－Ｍ２２
 41
0.833333
100
AcDbText
  0
CIRCLE
  5
19B
330
1F
100
AcDbEntity
  8
001
370
    50
100
AcDbCircle
 10
133.900014
 20
132.427066
 30
0.0
 40
3.25
  0
LINE
  5
19C
330
1F
100
AcDbEntity
  8
001
370
    50
100
AcDbLine
 10
134.636136
 20
133.702066
 30
0.0
 11
134.333027
 21
134.227066
 31
0.0
  0
LINE
  5
19D
330
1F
100
AcDbEntity
  8
001
370
    50
100
AcDbLine
 10
133.163893
 20
133.702066
 30
0.0
 11
133.467002
 21
134.227066
 31
0.0
  0
ARC
  5
19E
330
1F
100
AcDbEntity
  8
001
370
    50
100
AcDbCircle
 10
133.900014
 20
133.977066
 30
0.0
 40
0.5
100
AcDbArc
 50
30.0
 51
150.0
  0
LINE
  5
19F
330
1F
100
AcDbEntity
  8
001
370
    50
100
AcDbLine
 10
133.163893
 20
133.702066
 30
0.0
 11
132.557675
 21
133.702066
 31
0.0
  0
LINE
  5
1A0
330
1F
100
AcDbEntity
  8
001
370
    50
100
AcDbLine
 10
132.427771
 20
132.427066
 30
0.0
 11
132.124662
 21
132.952066
 31
0.0
  0
ARC
  5
1A1
330
1F
100
AcDbEntity
  8
001
370
    50
100
AcDbCircle
 10
132.557675
 20
133.202066
 30
0.0
 40
0.5
100
AcDbArc
 50
90.0
 51
210.0
  0
LINE
  5
1A2
330
1F
100
AcDbEntity
  8
001
370
    50
100
AcDbLine
 10
132.427771
 20
132.427066
 30
0.0
 11
132.124662
 21
131.902066
 31
0.0
  0
LINE
  5
1A3
330
1F
100
AcDbEntity
  8
001
370
    50
100
AcDbLine
 10
133.163893
 20
131.152066
 30
0.0
 11
132.557675
 21
131.152066
 31
0.0
  0
ARC
  5
1A4
330
1F
100
AcDbEntity
  8
001
370
    50
100
AcDbCircle
 10
132.557675
 20
131.652066
 30
0.0
 40
0.5
100
AcDbArc
 50
150.0
 51
270.0
  0
LINE
  5
1A5
330
1F
100
AcDbEntity
  8
001
370
    50
100
AcDbLine
 10
133.163893
 20
131.152066
 30
0.0
 11
133.467002
 21
130.627066
 31
0.0
  0
LINE
  5
1A6
330
1F
100
AcDbEntity
  8
001
370
    50
100
AcDbLine
 10
134.636136
 20
131.152066
 30
0.0
 11
134.333027
 21
130.627066
 31
0.0
  0
ARC
  5
1A7
330
1F
100
AcDbEntity
  8
001
370
    50
100
AcDbCircle
 10
133.900014
 20
130.877066
 30
0.0
 40
0.5
100
AcDbArc
 50
210.0
 51
330.0
  0
LINE
  5
1A8
330
1F
100
AcDbEntity
  8
001
370
    50
100
AcDbLine
 10
134.636136
 20
131.152066
 30
0.0
 11
135.242354
 21
131.152066
 31
0.0
  0
LINE
  5
1A9
330
1F
100
AcDbEntity
  8
001
370
    50
100
AcDbLine
 10
135.372257
 20
132.427066
 30
0.0
 11
135.675366
 21
131.902066
 31
0.0
  0
ARC
  5
1AA
330
1F
100
AcDbEntity
  8
001
370
    50
100
AcDbCircle
 10
135.242354
 20
131.652066
 30
0.0
 40
0.5
100
AcDbArc
 50
270.0
 51
30.0
  0
LINE
  5
1AB
330
1F
100
AcDbEntity
  8
001
370
    50
100
AcDbLine
 10
135.372257
 20
132.427066
 30
0.0
 11
135.675366
 21
132.952066
 31
0.0
  0
LINE
  5
1AC
330
1F
100
AcDbEntity
  8
001
370
    50
100
AcDbLine
 10
134.636136
 20
133.702066
 30
0.0
 11
135.242354
 21
133.702066
 31
0.0
  0
ARC
  5
1AD
330
1F
100
AcDbEntity
  8
001
370
    50
100
AcDbCircle
 10
135.242354
 20
133.202066
 30
0.0
 40
0.5
100
AcDbArc
 50
330.0
 51
90.0
  0
POLYLINE
  5
1AE
330
1F
100
AcDbEntity
  8
001
370
    50
100
AcDb2dPolyline
 66
     1
 10
0.0
 20
0.0
 30
0.0
  0
VERTEX
  5
1B0
330
1AE
100
AcDbEntity
  8
001
370
    50
100
AcDbVertex
100
AcDb2dVertex
 10
133.889499
 20
136.174902
 30
0.0
  0
VERTEX
  5
1B1
330
1AE
100
AcDbEntity
  8
001
370
    50
100
AcDbVertex
100
AcDb2dVertex
 10
133.618752
 20
136.160617
 30
0.0
  0
VERTEX
  5
1B2
330
1AE
100
AcDbEntity
  8
001
370
    50
100
AcDbVertex
100
AcDb2dVertex
 10
133.248211
 20
136.117931
 30
0.0
  0
VERTEX
  5
1B3
330
1AE
100
AcDbEntity
  8
001
370
    50
100
AcDbVertex
100
AcDb2dVertex
 10
132.919842
 20
136.04709
 30
0.0
  0
VERTEX
  5
1B4
330
1AE
100
AcDbEntity
  8
001
370
    50
100
AcDbVertex
100
AcDb2dVertex
 10
132.626409
 20
135.948749
 30
0.0
  0
VERTEX
  5
1B5
330
1AE
100
AcDbEntity
  8
001
370
    50
100
AcDbVertex
100
AcDb2dVertex
 10
132.3323
 20
135.823457
 30
0.0
  0
VERTEX
  5
1B6
330
1AE
100
AcDbEntity
  8
001
370
    50
100
AcDbVertex
100
AcDb2dVertex
 10
132.042984
 20
135.672497
 30
0.0
  0
VERTEX
  5
1B7
330
1AE
100
AcDbEntity
  8
001
370
    50
100
AcDbVertex
100
AcDb2dVertex
 10
131.770112
 20
135.496667
 30
0.0
  0
VERTEX
  5
1B8
330
1AE
100
AcDbEntity
  8
001
370
    50
100
AcDbVertex
100
AcDb2dVertex
 10
131.515666
 20
135.297568
 30
0.0
  0
VERTEX
  5
1B9
330
1AE
100
AcDbEntity
  8
001
370
    50
100
AcDbVertex
100
AcDb2dVertex
 10
131.278255
 20
135.076127
 30
0.0
  0
VERTEX
  5
1BA
330
1AE
100
AcDbEntity
  8
001
370
    50
100
AcDbVertex
100
AcDb2dVertex
 10
131.060475
 20
134.835355
 30
0.0
  0
VERTEX
  5
1BB
330
1AE
100
AcDbEntity
  8
001
370
    50
100
AcDbVertex
100
AcDb2dVertex
 10
130.864167
 20
134.576633
 30
0.0
  0
VERTEX
  5
1BC
330
1AE
100
AcDbEntity
  8
001
370
    50
100
AcDbVertex
100
AcDb2dVertex
 10
130.691242
 20
134.299902
 30
0.0
  0
VERTEX
  5
1BD
330
1AE
100
AcDbEntity
  8
001
370
    50
100
AcDbVertex
100
AcDb2dVertex
 10
130.542436
 20
134.005855
 30
0.0
  0
VERTEX
  5
1BE
330
1AE
100
AcDbEntity
  8
001
370
    50
100
AcDbVertex
100
AcDb2dVertex
 10
130.419187
 20
133.707477
 30
0.0
  0
VERTEX
  5
1BF
330
1AE
100
AcDbEntity
  8
001
370
    50
100
AcDbVertex
100
AcDb2dVertex
 10
130.322282
 20
133.409258
 30
0.0
  0
VERTEX
  5
1C0
330
1AE
100
AcDbEntity
  8
001
370
    50
100
AcDbVertex
100
AcDb2dVertex
 10
130.252575
 20
133.076082
 30
0.0
  0
VERTEX
  5
1C1
330
1AE
100
AcDbEntity
  8
001
370
    50
100
AcDbVertex
100
AcDb2dVertex
 10
130.210529
 20
132.699781
 30
0.0
  0
VERTEX
  5
1C2
330
1AE
100
AcDbEntity
  8
001
370
    50
100
AcDbVertex
100
AcDb2dVertex
 10
130.19647
 20
132.424902
 30
0.0
  0
SEQEND
  5
1AF
330
1AE
100
AcDbEntity
  8
001
370
    50
  0
LINE
  5
1C3
330
1F
100
AcDbEntity
  8
001
370
    50
100
AcDbLine
 10
133.697591
 20
138.774902
 30
0.0
 11
132.060298
 21
137.150219
 31
0.0
  0
LINE
  5
1C4
330
1F
100
AcDbEntity
  8
001
370
    50
100
AcDbLine
 10
137.76109
 20
138.774902
 30
0.0
 11
133.697591
 21
138.774902
 31
0.0
  0
POLYLINE
  5
1C5
330
1F
100
AcDbEntity
  8
001
370
    50
100
AcDb2dPolyline
 66
     1
 10
0.0
 20
0.0
 30
0.0
  0
VERTEX
  5
1C7
330
1C5
100
AcDbEntity
  8
001
370
    50
100
AcDbVertex
100
AcDb2dVertex
 10
138.543028
 20
137.980902
 30
0.0
  0
VERTEX
  5
1C8
330
1C5
100
AcDbEntity
  8
001
370
    50
100
AcDbVertex
100
AcDb2dVertex
 10
138.540051
 20
138.039103
 30
0.0
  0
VERTEX
  5
1C9
330
1C5
100
AcDbEntity
  8
001
370
    50
100
AcDbVertex
100
AcDb2dVertex
 10
138.531148
 20
138.118778
 30
0.0
  0
VERTEX
  5
1CA
330
1C5
100
AcDbEntity
  8
001
370
    50
100
AcDbVertex
100
AcDb2dVertex
 10
138.516389
 20
138.189323
 30
0.0
  0
VERTEX
  5
1CB
330
1C5
100
AcDbEntity
  8
001
370
    50
100
AcDbVertex
100
AcDb2dVertex
 10
138.495871
 20
138.252466
 30
0.0
  0
VERTEX
  5
1CC
330
1C5
100
AcDbEntity
  8
001
370
    50
100
AcDbVertex
100
AcDb2dVertex
 10
138.469775
 20
138.315642
 30
0.0
  0
VERTEX
  5
1CD
330
1C5
100
AcDbEntity
  8
001
370
    50
100
AcDbVertex
100
AcDb2dVertex
 10
138.438268
 20
138.377902
 30
0.0
  0
VERTEX
  5
1CE
330
1C5
100
AcDbEntity
  8
001
370
    50
100
AcDbVertex
100
AcDb2dVertex
 10
138.401654
 20
138.436495
 30
0.0
  0
VERTEX
  5
1CF
330
1C5
100
AcDbEntity
  8
001
370
    50
100
AcDbVertex
100
AcDb2dVertex
 10
138.360089
 20
138.491275
 30
0.0
  0
VERTEX
  5
1D0
330
1C5
100
AcDbEntity
  8
001
370
    50
100
AcDbVertex
100
AcDb2dVertex
 10
138.313978
 20
138.542254
 30
0.0
  0
VERTEX
  5
1D1
330
1C5
100
AcDbEntity
  8
001
370
    50
100
AcDbVertex
100
AcDb2dVertex
 10
138.26371
 20
138.589141
 30
0.0
  0
VERTEX
  5
1D2
330
1C5
100
AcDbEntity
  8
001
370
    50
100
AcDbVertex
100
AcDb2dVertex
 10
138.209835
 20
138.631297
 30
0.0
  0
VERTEX
  5
1D3
330
1C5
100
AcDbEntity
  8
001
370
    50
100
AcDbVertex
100
AcDb2dVertex
 10
138.152059
 20
138.668526
 30
0.0
  0
VERTEX
  5
1D4
330
1C5
100
AcDbEntity
  8
001
370
    50
100
AcDbVertex
100
AcDb2dVertex
 10
138.090801
 20
138.700489
 30
0.0
  0
VERTEX
  5
1D5
330
1C5
100
AcDbEntity
  8
001
370
    50
100
AcDbVertex
100
AcDb2dVertex
 10
138.028529
 20
138.727018
 30
0.0
  0
VERTEX
  5
1D6
330
1C5
100
AcDbEntity
  8
001
370
    50
100
AcDbVertex
100
AcDb2dVertex
 10
137.966399
 20
138.74784
 30
0.0
  0
VERTEX
  5
1D7
330
1C5
100
AcDbEntity
  8
001
370
    50
100
AcDbVertex
100
AcDb2dVertex
 10
137.896872
 20
138.762839
 30
0.0
  0
VERTEX
  5
1D8
330
1C5
100
AcDbEntity
  8
001
370
    50
100
AcDbVertex
100
AcDb2dVertex
 10
137.818416
 20
138.771877
 30
0.0
  0
VERTEX
  5
1D9
330
1C5
100
AcDbEntity
  8
001
370
    50
100
AcDbVertex
100
AcDb2dVertex
 10
137.76109
 20
138.774902
 30
0.0
  0
SEQEND
  5
1C6
330
1C5
100
AcDbEntity
  8
001
370
    50
  0
LINE
  5
1DA
330
1F
100
AcDbEntity
  8
001
370
    50
100
AcDbLine
 10
138.543028
 20
134.282321
 30
0.0
 11
138.543028
 21
137.980902
 31
0.0
  0
LINE
  5
1DB
330
1F
100
AcDbEntity
  8
001
370
    50
100
AcDbLine
 10
140.143028
 20
132.619771
 30
0.0
 11
138.543028
 21
134.282321
 31
0.0
  0
LINE
  5
1DC
330
1F
100
AcDbEntity
  8
001
370
    50
100
AcDbLine
 10
140.143028
 20
128.493585
 30
0.0
 11
140.143028
 21
132.619771
 31
0.0
  0
POLYLINE
  5
1DD
330
1F
100
AcDbEntity
  8
001
370
    50
100
AcDb2dPolyline
 66
     1
 10
0.0
 20
0.0
 30
0.0
  0
VERTEX
  5
1DF
330
1DD
100
AcDbEntity
  8
001
370
    50
100
AcDbVertex
100
AcDb2dVertex
 10
139.361091
 20
127.699585
 30
0.0
  0
VERTEX
  5
1E0
330
1DD
100
AcDbEntity
  8
001
370
    50
100
AcDbVertex
100
AcDb2dVertex
 10
139.418417
 20
127.702609
 30
0.0
  0
VERTEX
  5
1E1
330
1DD
100
AcDbEntity
  8
001
370
    50
100
AcDbVertex
100
AcDb2dVertex
 10
139.496873
 20
127.711647
 30
0.0
  0
VERTEX
  5
1E2
330
1DD
100
AcDbEntity
  8
001
370
    50
100
AcDbVertex
100
AcDb2dVertex
 10
139.5664
 20
127.726647
 30
0.0
  0
VERTEX
  5
1E3
330
1DD
100
AcDbEntity
  8
001
370
    50
100
AcDbVertex
100
AcDb2dVertex
 10
139.628529
 20
127.747469
 30
0.0
  0
VERTEX
  5
1E4
330
1DD
100
AcDbEntity
  8
001
370
    50
100
AcDbVertex
100
AcDb2dVertex
 10
139.690802
 20
127.773997
 30
0.0
  0
VERTEX
  5
1E5
330
1DD
100
AcDbEntity
  8
001
370
    50
100
AcDbVertex
100
AcDb2dVertex
 10
139.75206
 20
127.80596
 30
0.0
  0
VERTEX
  5
1E6
330
1DD
100
AcDbEntity
  8
001
370
    50
100
AcDbVertex
100
AcDb2dVertex
 10
139.809836
 20
127.84319
 30
0.0
  0
VERTEX
  5
1E7
330
1DD
100
AcDbEntity
  8
001
370
    50
100
AcDbVertex
100
AcDb2dVertex
 10
139.86371
 20
127.885345
 30
0.0
  0
VERTEX
  5
1E8
330
1DD
100
AcDbEntity
  8
001
370
    50
100
AcDbVertex
100
AcDb2dVertex
 10
139.913978
 20
127.932232
 30
0.0
  0
VERTEX
  5
1E9
330
1DD
100
AcDbEntity
  8
001
370
    50
100
AcDbVertex
100
AcDb2dVertex
 10
139.96009
 20
127.983211
 30
0.0
  0
VERTEX
  5
1EA
330
1DD
100
AcDbEntity
  8
001
370
    50
100
AcDbVertex
100
AcDb2dVertex
 10
140.001654
 20
128.037991
 30
0.0
  0
VERTEX
  5
1EB
330
1DD
100
AcDbEntity
  8
001
370
    50
100
AcDbVertex
100
AcDb2dVertex
 10
140.038268
 20
128.096585
 30
0.0
  0
VERTEX
  5
1EC
330
1DD
100
AcDbEntity
  8
001
370
    50
100
AcDbVertex
100
AcDb2dVertex
 10
140.069776
 20
128.158844
 30
0.0
  0
VERTEX
  5
1ED
330
1DD
100
AcDbEntity
  8
001
370
    50
100
AcDbVertex
100
AcDb2dVertex
 10
140.095872
 20
128.222021
 30
0.0
  0
VERTEX
  5
1EE
330
1DD
100
AcDbEntity
  8
001
370
    50
100
AcDbVertex
100
AcDb2dVertex
 10
140.11639
 20
128.285164
 30
0.0
  0
VERTEX
  5
1EF
330
1DD
100
AcDbEntity
  8
001
370
    50
100
AcDbVertex
100
AcDb2dVertex
 10
140.131149
 20
128.355708
 30
0.0
  0
VERTEX
  5
1F0
330
1DD
100
AcDbEntity
  8
001
370
    50
100
AcDbVertex
100
AcDb2dVertex
 10
140.140051
 20
128.435384
 30
0.0
  0
VERTEX
  5
1F1
330
1DD
100
AcDbEntity
  8
001
370
    50
100
AcDbVertex
100
AcDb2dVertex
 10
140.143028
 20
128.493585
 30
0.0
  0
SEQEND
  5
1DE
330
1DD
100
AcDbEntity
  8
001
370
    50
  0
LINE
  5
1F2
330
1F
100
AcDbEntity
  8
001
370
    50
100
AcDbLine
 10
135.7187
 20
127.699585
 30
0.0
 11
139.361091
 21
127.699585
 31
0.0
  0
LINE
  5
1F3
330
1F
100
AcDbEntity
  8
001
370
    50
100
AcDbLine
 10
133.958784
 20
125.953223
 30
0.0
 11
135.7187
 21
127.699585
 31
0.0
  0
LINE
  5
1F4
330
1F
100
AcDbEntity
  8
001
370
    50
100
AcDbLine
 10
133.958784
 20
125.953223
 30
0.0
 11
130.017907
 21
125.953223
 31
0.0
  0
LINE
  5
1F5
330
1F
100
AcDbEntity
  8
001
370
    50
100
AcDbLine
 10
129.23597
 20
126.746906
 30
0.0
 11
129.23597
 21
130.453223
 31
0.0
  0
LINE
  5
1F6
330
1F
100
AcDbEntity
  8
001
370
    50
100
AcDbLine
 10
127.63597
 20
132.053223
 30
0.0
 11
127.63597
 21
136.356219
 31
0.0
  0
POLYLINE
  5
1F7
330
1F
100
AcDbEntity
  8
001
370
    50
100
AcDb2dPolyline
 66
     1
 10
0.0
 20
0.0
 30
0.0
  0
VERTEX
  5
1F9
330
1F7
100
AcDbEntity
  8
001
370
    50
100
AcDbVertex
100
AcDb2dVertex
 10
128.417907
 20
137.150219
 30
0.0
  0
VERTEX
  5
1FA
330
1F7
100
AcDbEntity
  8
001
370
    50
100
AcDbVertex
100
AcDb2dVertex
 10
128.360581
 20
137.147194
 30
0.0
  0
VERTEX
  5
1FB
330
1F7
100
AcDbEntity
  8
001
370
    50
100
AcDbVertex
100
AcDb2dVertex
 10
128.282125
 20
137.138156
 30
0.0
  0
VERTEX
  5
1FC
330
1F7
100
AcDbEntity
  8
001
370
    50
100
AcDbVertex
100
AcDb2dVertex
 10
128.212598
 20
137.123157
 30
0.0
  0
VERTEX
  5
1FD
330
1F7
100
AcDbEntity
  8
001
370
    50
100
AcDbVertex
100
AcDb2dVertex
 10
128.150469
 20
137.102335
 30
0.0
  0
VERTEX
  5
1FE
330
1F7
100
AcDbEntity
  8
001
370
    50
100
AcDbVertex
100
AcDb2dVertex
 10
128.088196
 20
137.075806
 30
0.0
  0
VERTEX
  5
1FF
330
1F7
100
AcDbEntity
  8
001
370
    50
100
AcDbVertex
100
AcDb2dVertex
 10
128.026938
 20
137.043843
 30
0.0
  0
VERTEX
  5
200
330
1F7
100
AcDbEntity
  8
001
370
    50
100
AcDbVertex
100
AcDb2dVertex
 10
127.969162
 20
137.006614
 30
0.0
  0
VERTEX
  5
201
330
1F7
100
AcDbEntity
  8
001
370
    50
100
AcDbVertex
100
AcDb2dVertex
 10
127.915287
 20
136.964458
 30
0.0
  0
VERTEX
  5
202
330
1F7
100
AcDbEntity
  8
001
370
    50
100
AcDbVertex
100
AcDb2dVertex
 10
127.86502
 20
136.917571
 30
0.0
  0
VERTEX
  5
203
330
1F7
100
AcDbEntity
  8
001
370
    50
100
AcDbVertex
100
AcDb2dVertex
 10
127.818908
 20
136.866592
 30
0.0
  0
VERTEX
  5
204
330
1F7
100
AcDbEntity
  8
001
370
    50
100
AcDbVertex
100
AcDb2dVertex
 10
127.777343
 20
136.811812
 30
0.0
  0
VERTEX
  5
205
330
1F7
100
AcDbEntity
  8
001
370
    50
100
AcDbVertex
100
AcDb2dVertex
 10
127.740729
 20
136.753219
 30
0.0
  0
VERTEX
  5
206
330
1F7
100
AcDbEntity
  8
001
370
    50
100
AcDbVertex
100
AcDb2dVertex
 10
127.709222
 20
136.690959
 30
0.0
  0
VERTEX
  5
207
330
1F7
100
AcDbEntity
  8
001
370
    50
100
AcDbVertex
100
AcDb2dVertex
 10
127.683126
 20
136.627783
 30
0.0
  0
VERTEX
  5
208
330
1F7
100
AcDbEntity
  8
001
370
    50
100
AcDbVertex
100
AcDb2dVertex
 10
127.662608
 20
136.56464
 30
0.0
  0
VERTEX
  5
209
330
1F7
100
AcDbEntity
  8
001
370
    50
100
AcDbVertex
100
AcDb2dVertex
 10
127.647849
 20
136.494095
 30
0.0
  0
VERTEX
  5
20A
330
1F7
100
AcDbEntity
  8
001
370
    50
100
AcDbVertex
100
AcDb2dVertex
 10
127.638946
 20
136.41442
 30
0.0
  0
VERTEX
  5
20B
330
1F7
100
AcDbEntity
  8
001
370
    50
100
AcDbVertex
100
AcDb2dVertex
 10
127.63597
 20
136.356219
 30
0.0
  0
SEQEND
  5
1F8
330
1F7
100
AcDbEntity
  8
001
370
    50
  0
LINE
  5
20C
330
1F
100
AcDbEntity
  8
001
370
    50
100
AcDbLine
 10
132.060298
 20
137.150219
 30
0.0
 11
128.417907
 21
137.150219
 31
0.0
  0
POLYLINE
  5
20D
330
1F
100
AcDbEntity
  8
001
370
    50
100
AcDb2dPolyline
 66
     1
 10
0.0
 20
0.0
 30
0.0
  0
VERTEX
  5
20F
330
20D
100
AcDbEntity
  8
001
370
    50
100
AcDbVertex
100
AcDb2dVertex
 10
130.19647
 20
132.424902
 30
0.0
  0
VERTEX
  5
210
330
20D
100
AcDbEntity
  8
001
370
    50
100
AcDbVertex
100
AcDb2dVertex
 10
130.214256
 20
132.115813
 30
0.0
  0
VERTEX
  5
211
330
20D
100
AcDbEntity
  8
001
370
    50
100
AcDbVertex
100
AcDb2dVertex
 10
130.26743
 20
131.693313
 30
0.0
  0
VERTEX
  5
212
330
20D
100
AcDbEntity
  8
001
370
    50
100
AcDbVertex
100
AcDb2dVertex
 10
130.355481
 20
131.320857
 30
0.0
  0
VERTEX
  5
213
330
20D
100
AcDbEntity
  8
001
370
    50
100
AcDbVertex
100
AcDb2dVertex
 10
130.477585
 20
130.989839
 30
0.0
  0
VERTEX
  5
214
330
20D
100
AcDbEntity
  8
001
370
    50
100
AcDbVertex
100
AcDb2dVertex
 10
130.632364
 20
130.661544
 30
0.0
  0
VERTEX
  5
215
330
20D
100
AcDbEntity
  8
001
370
    50
100
AcDbVertex
100
AcDb2dVertex
 10
130.818858
 20
130.341513
 30
0.0
  0
VERTEX
  5
216
330
20D
100
AcDbEntity
  8
001
370
    50
100
AcDbVertex
100
AcDb2dVertex
 10
131.034892
 20
130.04503
 30
0.0
  0
VERTEX
  5
217
330
20D
100
AcDbEntity
  8
001
370
    50
100
AcDbVertex
100
AcDb2dVertex
 10
131.278133
 20
129.773251
 30
0.0
  0
VERTEX
  5
218
330
20D
100
AcDbEntity
  8
001
370
    50
100
AcDbVertex
100
AcDb2dVertex
 10
131.545351
 20
129.526593
 30
0.0
  0
VERTEX
  5
219
330
20D
100
AcDbEntity
  8
001
370
    50
100
AcDbVertex
100
AcDb2dVertex
 10
131.837762
 20
129.306891
 30
0.0
  0
VERTEX
  5
21A
330
20D
100
AcDbEntity
  8
001
370
    50
100
AcDbVertex
100
AcDb2dVertex
 10
132.152579
 20
129.11774
 30
0.0
  0
VERTEX
  5
21B
330
20D
100
AcDbEntity
  8
001
370
    50
100
AcDbVertex
100
AcDb2dVertex
 10
132.476238
 20
128.960353
 30
0.0
  0
VERTEX
  5
21C
330
20D
100
AcDbEntity
  8
001
370
    50
100
AcDbVertex
100
AcDb2dVertex
 10
132.801871
 20
128.836457
 30
0.0
  0
VERTEX
  5
21D
330
20D
100
AcDbEntity
  8
001
370
    50
100
AcDbVertex
100
AcDb2dVertex
 10
133.169025
 20
128.746957
 30
0.0
  0
VERTEX
  5
21E
330
20D
100
AcDbEntity
  8
001
370
    50
100
AcDbVertex
100
AcDb2dVertex
 10
133.585044
 20
128.692977
 30
0.0
  0
VERTEX
  5
21F
330
20D
100
AcDbEntity
  8
001
370
    50
100
AcDbVertex
100
AcDb2dVertex
 10
133.889499
 20
128.674902
 30
0.0
  0
SEQEND
  5
20E
330
20D
100
AcDbEntity
  8
001
370
    50
  0
POLYLINE
  5
220
330
1F
100
AcDbEntity
  8
001
370
    50
100
AcDb2dPolyline
 66
     1
 10
0.0
 20
0.0
 30
0.0
  0
VERTEX
  5
222
330
220
100
AcDbEntity
  8
001
370
    50
100
AcDbVertex
100
AcDb2dVertex
 10
133.889499
 20
128.674902
 30
0.0
  0
VERTEX
  5
223
330
220
100
AcDbEntity
  8
001
370
    50
100
AcDbVertex
100
AcDb2dVertex
 10
134.160246
 20
128.689185
 30
0.0
  0
VERTEX
  5
224
330
220
100
AcDbEntity
  8
001
370
    50
100
AcDbVertex
100
AcDb2dVertex
 10
134.530787
 20
128.731873
 30
0.0
  0
VERTEX
  5
225
330
220
100
AcDbEntity
  8
001
370
    50
100
AcDbVertex
100
AcDb2dVertex
 10
134.859156
 20
128.802718
 30
0.0
  0
VERTEX
  5
226
330
220
100
AcDbEntity
  8
001
370
    50
100
AcDbVertex
100
AcDb2dVertex
 10
135.152589
 20
128.901054
 30
0.0
  0
VERTEX
  5
227
330
220
100
AcDbEntity
  8
001
370
    50
100
AcDbVertex
100
AcDb2dVertex
 10
135.446698
 20
129.026328
 30
0.0
  0
VERTEX
  5
228
330
220
100
AcDbEntity
  8
001
370
    50
100
AcDbVertex
100
AcDb2dVertex
 10
135.736013
 20
129.177306
 30
0.0
  0
VERTEX
  5
229
330
220
100
AcDbEntity
  8
001
370
    50
100
AcDbVertex
100
AcDb2dVertex
 10
136.008886
 20
129.353207
 30
0.0
  0
VERTEX
  5
22A
330
220
100
AcDbEntity
  8
001
370
    50
100
AcDbVertex
100
AcDb2dVertex
 10
136.263332
 20
129.552235
 30
0.0
  0
VERTEX
  5
22B
330
220
100
AcDbEntity
  8
001
370
    50
100
AcDbVertex
100
AcDb2dVertex
 10
136.500743
 20
129.773412
 30
0.0
  0
VERTEX
  5
22C
330
220
100
AcDbEntity
  8
001
370
    50
100
AcDbVertex
100
AcDb2dVertex
 10
136.718523
 20
130.014448
 30
0.0
  0
VERTEX
  5
22D
330
220
100
AcDbEntity
  8
001
370
    50
100
AcDbVertex
100
AcDb2dVertex
 10
136.914831
 20
130.274162
 30
0.0
  0
VERTEX
  5
22E
330
220
100
AcDbEntity
  8
001
370
    50
100
AcDbVertex
100
AcDb2dVertex
 10
137.087756
 20
130.549902
 30
0.0
  0
VERTEX
  5
22F
330
220
100
AcDbEntity
  8
001
370
    50
100
AcDbVertex
100
AcDb2dVertex
 10
137.236562
 20
130.840236
 30
0.0
  0
VERTEX
  5
230
330
220
100
AcDbEntity
  8
001
370
    50
100
AcDbVertex
100
AcDb2dVertex
 10
137.359811
 20
131.142326
 30
0.0
  0
VERTEX
  5
231
330
220
100
AcDbEntity
  8
001
370
    50
100
AcDbVertex
100
AcDb2dVertex
 10
137.456716
 20
131.454436
 30
0.0
  0
VERTEX
  5
232
330
220
100
AcDbEntity
  8
001
370
    50
100
AcDbVertex
100
AcDb2dVertex
 10
137.526423
 20
131.773721
 30
0.0
  0
VERTEX
  5
233
330
220
100
AcDbEntity
  8
001
370
    50
100
AcDbVertex
100
AcDb2dVertex
 10
137.568469
 20
132.098105
 30
0.0
  0
VERTEX
  5
234
330
220
100
AcDbEntity
  8
001
370
    50
100
AcDbVertex
100
AcDb2dVertex
 10
137.582528
 20
132.424902
 30
0.0
  0
VERTEX
  5
235
330
220
100
AcDbEntity
  8
001
370
    50
100
AcDbVertex
100
AcDb2dVertex
 10
137.568469
 20
132.751698
 30
0.0
  0
VERTEX
  5
236
330
220
100
AcDbEntity
  8
001
370
    50
100
AcDbVertex
100
AcDb2dVertex
 10
137.526423
 20
133.076082
 30
0.0
  0
VERTEX
  5
237
330
220
100
AcDbEntity
  8
001
370
    50
100
AcDbVertex
100
AcDb2dVertex
 10
137.456716
 20
133.395367
 30
0.0
  0
VERTEX
  5
238
330
220
100
AcDbEntity
  8
001
370
    50
100
AcDbVertex
100
AcDb2dVertex
 10
137.359811
 20
133.707477
 30
0.0
  0
VERTEX
  5
239
330
220
100
AcDbEntity
  8
001
370
    50
100
AcDbVertex
100
AcDb2dVertex
 10
137.236562
 20
134.009567
 30
0.0
  0
VERTEX
  5
23A
330
220
100
AcDbEntity
  8
001
370
    50
100
AcDbVertex
100
AcDb2dVertex
 10
137.087756
 20
134.299902
 30
0.0
  0
VERTEX
  5
23B
330
220
100
AcDbEntity
  8
001
370
    50
100
AcDbVertex
100
AcDb2dVertex
 10
136.914831
 20
134.575642
 30
0.0
  0
VERTEX
  5
23C
330
220
100
AcDbEntity
  8
001
370
    50
100
AcDbVertex
100
AcDb2dVertex
 10
136.718523
 20
134.835355
 30
0.0
  0
VERTEX
  5
23D
330
220
100
AcDbEntity
  8
001
370
    50
100
AcDbVertex
100
AcDb2dVertex
 10
136.500743
 20
135.076392
 30
0.0
  0
VERTEX
  5
23E
330
220
100
AcDbEntity
  8
001
370
    50
100
AcDbVertex
100
AcDb2dVertex
 10
136.263332
 20
135.297568
 30
0.0
  0
VERTEX
  5
23F
330
220
100
AcDbEntity
  8
001
370
    50
100
AcDbVertex
100
AcDb2dVertex
 10
136.008886
 20
135.496596
 30
0.0
  0
VERTEX
  5
240
330
220
100
AcDbEntity
  8
001
370
    50
100
AcDbVertex
100
AcDb2dVertex
 10
135.736013
 20
135.672497
 30
0.0
  0
VERTEX
  5
241
330
220
100
AcDbEntity
  8
001
370
    50
100
AcDbVertex
100
AcDb2dVertex
 10
135.446698
 20
135.823476
 30
0.0
  0
VERTEX
  5
242
330
220
100
AcDbEntity
  8
001
370
    50
100
AcDbVertex
100
AcDb2dVertex
 10
135.152589
 20
135.948749
 30
0.0
  0
VERTEX
  5
243
330
220
100
AcDbEntity
  8
001
370
    50
100
AcDbVertex
100
AcDb2dVertex
 10
134.859156
 20
136.047085
 30
0.0
  0
VERTEX
  5
244
330
220
100
AcDbEntity
  8
001
370
    50
100
AcDbVertex
100
AcDb2dVertex
 10
134.530787
 20
136.117931
 30
0.0
  0
VERTEX
  5
245
330
220
100
AcDbEntity
  8
001
370
    50
100
AcDbVertex
100
AcDb2dVertex
 10
134.160246
 20
136.160618
 30
0.0
  0
VERTEX
  5
246
330
220
100
AcDbEntity
  8
001
370
    50
100
AcDbVertex
100
AcDb2dVertex
 10
133.889499
 20
136.174902
 30
0.0
  0
SEQEND
  5
221
330
220
100
AcDbEntity
  8
001
370
    50
  0
LINE
  5
247
330
1F
100
AcDbEntity
  8
001
370
    50
100
AcDbLine
 10
194.63597
 20
164.903223
 30
0.0
 11
156.581307
 21
164.903223
 31
0.0
  0
POLYLINE
  5
248
330
1F
100
AcDbEntity
  8
001
370
    50
100
AcDb2dPolyline
 66
     1
 10
0.0
 20
0.0
 30
0.0
  0
VERTEX
  5
24A
330
248
100
AcDbEntity
  8
001
370
    50
100
AcDbVertex
100
AcDb2dVertex
 10
191.875049
 20
125.939642
 30
0.0
  0
VERTEX
  5
24B
330
248
100
AcDbEntity
  8
001
370
    50
100
AcDbVertex
100
AcDb2dVertex
 10
192.00711
 20
125.598953
 30
0.0
  0
VERTEX
  5
24C
330
248
100
AcDbEntity
  8
001
370
    50
100
AcDbVertex
100
AcDb2dVertex
 10
192.144921
 20
125.260647
 30
0.0
  0
VERTEX
  5
24D
330
248
100
AcDbEntity
  8
001
370
    50
100
AcDbVertex
100
AcDb2dVertex
 10
192.282643
 20
124.949327
 30
0.0
  0
VERTEX
  5
24E
330
248
100
AcDbEntity
  8
001
370
    50
100
AcDbVertex
100
AcDb2dVertex
 10
192.429457
 20
124.642121
 30
0.0
  0
VERTEX
  5
24F
330
248
100
AcDbEntity
  8
001
370
    50
100
AcDbVertex
100
AcDb2dVertex
 10
192.572643
 20
124.362068
 30
0.0
  0
VERTEX
  5
250
330
248
100
AcDbEntity
  8
001
370
    50
100
AcDbVertex
100
AcDb2dVertex
 10
192.72363
 20
124.086182
 30
0.0
  0
VERTEX
  5
251
330
248
100
AcDbEntity
  8
001
370
    50
100
AcDbVertex
100
AcDb2dVertex
 10
192.873642
 20
123.830708
 30
0.0
  0
VERTEX
  5
252
330
248
100
AcDbEntity
  8
001
370
    50
100
AcDbVertex
100
AcDb2dVertex
 10
193.031544
 20
123.580004
 30
0.0
  0
VERTEX
  5
253
330
248
100
AcDbEntity
  8
001
370
    50
100
AcDbVertex
100
AcDb2dVertex
 10
193.181204
 20
123.358152
 30
0.0
  0
VERTEX
  5
254
330
248
100
AcDbEntity
  8
001
370
    50
100
AcDbVertex
100
AcDb2dVertex
 10
193.33804
 20
123.141385
 30
0.0
  0
VERTEX
  5
255
330
248
100
AcDbEntity
  8
001
370
    50
100
AcDbVertex
100
AcDb2dVertex
 10
193.483448
 20
122.954212
 30
0.0
  0
VERTEX
  5
256
330
248
100
AcDbEntity
  8
001
370
    50
100
AcDbVertex
100
AcDb2dVertex
 10
193.635431
 20
122.772156
 30
0.0
  0
VERTEX
  5
257
330
248
100
AcDbEntity
  8
001
370
    50
100
AcDbVertex
100
AcDb2dVertex
 10
193.787096
 20
122.604182
 30
0.0
  0
VERTEX
  5
258
330
248
100
AcDbEntity
  8
001
370
    50
100
AcDbVertex
100
AcDb2dVertex
 10
193.946525
 20
122.444161
 30
0.0
  0
VERTEX
  5
259
330
248
100
AcDbEntity
  8
001
370
    50
100
AcDbVertex
100
AcDb2dVertex
 10
194.082518
 20
122.321648
 30
0.0
  0
VERTEX
  5
25A
330
248
100
AcDbEntity
  8
001
370
    50
100
AcDbVertex
100
AcDb2dVertex
 10
194.224992
 20
122.205178
 30
0.0
  0
VERTEX
  5
25B
330
248
100
AcDbEntity
  8
001
370
    50
100
AcDbVertex
100
AcDb2dVertex
 10
194.33927
 20
122.121957
 30
0.0
  0
VERTEX
  5
25C
330
248
100
AcDbEntity
  8
001
370
    50
100
AcDbVertex
100
AcDb2dVertex
 10
194.462129
 20
122.055465
 30
0.0
  0
VERTEX
  5
25D
330
248
100
AcDbEntity
  8
001
370
    50
100
AcDbVertex
100
AcDb2dVertex
 10
194.547679
 20
122.026161
 30
0.0
  0
VERTEX
  5
25E
330
248
100
AcDbEntity
  8
001
370
    50
100
AcDbVertex
100
AcDb2dVertex
 10
194.63597
 20
122.003257
 30
0.0
  0
SEQEND
  5
249
330
248
100
AcDbEntity
  8
001
370
    50
  0
POLYLINE
  5
25F
330
1F
100
AcDbEntity
  8
001
370
    50
100
AcDb2dPolyline
 66
     1
 10
0.0
 20
0.0
 30
0.0
  0
VERTEX
  5
261
330
25F
100
AcDbEntity
  8
001
370
    50
100
AcDbVertex
100
AcDb2dVertex
 10
181.642674
 20
135.281394
 30
0.0
  0
VERTEX
  5
262
330
25F
100
AcDbEntity
  8
001
370
    50
100
AcDbVertex
100
AcDb2dVertex
 10
182.260145
 20
135.07247
 30
0.0
  0
VERTEX
  5
263
330
25F
100
AcDbEntity
  8
001
370
    50
100
AcDbVertex
100
AcDb2dVertex
 10
182.870987
 20
134.846268
 30
0.0
  0
VERTEX
  5
264
330
25F
100
AcDbEntity
  8
001
370
    50
100
AcDbVertex
100
AcDb2dVertex
 10
183.465373
 20
134.591428
 30
0.0
  0
VERTEX
  5
265
330
25F
100
AcDbEntity
  8
001
370
    50
100
AcDbVertex
100
AcDb2dVertex
 10
184.047306
 20
134.308506
 30
0.0
  0
VERTEX
  5
266
330
25F
100
AcDbEntity
  8
001
370
    50
100
AcDbVertex
100
AcDb2dVertex
 10
184.517874
 20
134.057832
 30
0.0
  0
VERTEX
  5
267
330
25F
100
AcDbEntity
  8
001
370
    50
100
AcDbVertex
100
AcDb2dVertex
 10
184.979851
 20
133.791928
 30
0.0
  0
VERTEX
  5
268
330
25F
100
AcDbEntity
  8
001
370
    50
100
AcDbVertex
100
AcDb2dVertex
 10
185.428985
 20
133.51321
 30
0.0
  0
VERTEX
  5
269
330
25F
100
AcDbEntity
  8
001
370
    50
100
AcDbVertex
100
AcDb2dVertex
 10
185.869005
 20
133.220236
 30
0.0
  0
VERTEX
  5
26A
330
25F
100
AcDbEntity
  8
001
370
    50
100
AcDbVertex
100
AcDb2dVertex
 10
186.293825
 20
132.91819
 30
0.0
  0
VERTEX
  5
26B
330
25F
100
AcDbEntity
  8
001
370
    50
100
AcDbVertex
100
AcDb2dVertex
 10
186.709384
 20
132.603551
 30
0.0
  0
VERTEX
  5
26C
330
25F
100
AcDbEntity
  8
001
370
    50
100
AcDbVertex
100
AcDb2dVertex
 10
187.107216
 20
132.283474
 30
0.0
  0
VERTEX
  5
26D
330
25F
100
AcDbEntity
  8
001
370
    50
100
AcDbVertex
100
AcDb2dVertex
 10
187.495606
 20
131.951995
 30
0.0
  0
VERTEX
  5
26E
330
25F
100
AcDbEntity
  8
001
370
    50
100
AcDbVertex
100
AcDb2dVertex
 10
187.907206
 20
131.57874
 30
0.0
  0
VERTEX
  5
26F
330
25F
100
AcDbEntity
  8
001
370
    50
100
AcDbVertex
100
AcDb2dVertex
 10
188.307098
 20
131.192958
 30
0.0
  0
VERTEX
  5
270
330
25F
100
AcDbEntity
  8
001
370
    50
100
AcDbVertex
100
AcDb2dVertex
 10
188.685019
 20
130.805817
 30
0.0
  0
VERTEX
  5
271
330
25F
100
AcDbEntity
  8
001
370
    50
100
AcDbVertex
100
AcDb2dVertex
 10
189.051352
 20
130.407696
 30
0.0
  0
VERTEX
  5
272
330
25F
100
AcDbEntity
  8
001
370
    50
100
AcDbVertex
100
AcDb2dVertex
 10
189.393332
 20
130.013638
 30
0.0
  0
VERTEX
  5
273
330
25F
100
AcDbEntity
  8
001
370
    50
100
AcDbVertex
100
AcDb2dVertex
 10
189.723724
 20
129.60982
 30
0.0
  0
VERTEX
  5
274
330
25F
100
AcDbEntity
  8
001
370
    50
100
AcDbVertex
100
AcDb2dVertex
 10
190.027484
 20
129.215747
 30
0.0
  0
VERTEX
  5
275
330
25F
100
AcDbEntity
  8
001
370
    50
100
AcDbVertex
100
AcDb2dVertex
 10
190.319568
 20
128.812937
 30
0.0
  0
VERTEX
  5
276
330
25F
100
AcDbEntity
  8
001
370
    50
100
AcDbVertex
100
AcDb2dVertex
 10
190.572871
 20
128.441388
 30
0.0
  0
VERTEX
  5
277
330
25F
100
AcDbEntity
  8
001
370
    50
100
AcDbVertex
100
AcDb2dVertex
 10
190.815223
 20
128.062647
 30
0.0
  0
VERTEX
  5
278
330
25F
100
AcDbEntity
  8
001
370
    50
100
AcDbVertex
100
AcDb2dVertex
 10
191.033678
 20
127.69782
 30
0.0
  0
VERTEX
  5
279
330
25F
100
AcDbEntity
  8
001
370
    50
100
AcDbVertex
100
AcDb2dVertex
 10
191.24148
 20
127.326728
 30
0.0
  0
VERTEX
  5
27A
330
25F
100
AcDbEntity
  8
001
370
    50
100
AcDbVertex
100
AcDb2dVertex
 10
191.425247
 20
126.974385
 30
0.0
  0
VERTEX
  5
27B
330
25F
100
AcDbEntity
  8
001
370
    50
100
AcDbVertex
100
AcDb2dVertex
 10
191.595651
 20
126.61559
 30
0.0
  0
VERTEX
  5
27C
330
25F
100
AcDbEntity
  8
001
370
    50
100
AcDbVertex
100
AcDb2dVertex
 10
191.739028
 20
126.279234
 30
0.0
  0
VERTEX
  5
27D
330
25F
100
AcDbEntity
  8
001
370
    50
100
AcDbVertex
100
AcDb2dVertex
 10
191.875049
 20
125.939642
 30
0.0
  0
SEQEND
  5
260
330
25F
100
AcDbEntity
  8
001
370
    50
  0
LINE
  5
27E
330
1F
100
AcDbEntity
  8
001
370
    50
100
AcDbLine
 10
180.641674
 20
135.628762
 30
0.0
 11
181.642674
 21
135.281394
 31
0.0
  0
LINE
  5
27F
330
1F
100
AcDbEntity
  8
001
370
    50
100
AcDbLine
 10
179.640674
 20
135.978513
 30
0.0
 11
180.641674
 21
135.628762
 31
0.0
  0
LINE
  5
280
330
1F
100
AcDbEntity
  8
001
370
    50
100
AcDbLine
 10
178.639674
 20
136.330541
 30
0.0
 11
179.640674
 21
135.978513
 31
0.0
  0
LINE
  5
281
330
1F
100
AcDbEntity
  8
001
370
    50
100
AcDbLine
 10
177.638674
 20
136.684738
 30
0.0
 11
178.639674
 21
136.330541
 31
0.0
  0
LINE
  5
282
330
1F
100
AcDbEntity
  8
001
370
    50
100
AcDbLine
 10
176.637674
 20
137.040997
 30
0.0
 11
177.638674
 21
136.684738
 31
0.0
  0
LINE
  5
283
330
1F
100
AcDbEntity
  8
001
370
    50
100
AcDbLine
 10
175.636674
 20
137.39921
 30
0.0
 11
176.637674
 21
137.040997
 31
0.0
  0
LINE
  5
284
330
1F
100
AcDbEntity
  8
001
370
    50
100
AcDbLine
 10
174.635674
 20
137.759266
 30
0.0
 11
175.636674
 21
137.39921
 31
0.0
  0
LINE
  5
285
330
1F
100
AcDbEntity
  8
001
370
    50
100
AcDbLine
 10
173.634674
 20
138.121057
 30
0.0
 11
174.635674
 21
137.759266
 31
0.0
  0
LINE
  5
286
330
1F
100
AcDbEntity
  8
001
370
    50
100
AcDbLine
 10
172.633674
 20
138.484472
 30
0.0
 11
173.634674
 21
138.121057
 31
0.0
  0
LINE
  5
287
330
1F
100
AcDbEntity
  8
001
370
    50
100
AcDbLine
 10
171.632674
 20
138.849401
 30
0.0
 11
172.633674
 21
138.484472
 31
0.0
  0
LINE
  5
288
330
1F
100
AcDbEntity
  8
001
370
    50
100
AcDbLine
 10
170.631674
 20
139.215732
 30
0.0
 11
171.632674
 21
138.849401
 31
0.0
  0
LINE
  5
289
330
1F
100
AcDbEntity
  8
001
370
    50
100
AcDbLine
 10
169.630674
 20
139.583354
 30
0.0
 11
170.631674
 21
139.215732
 31
0.0
  0
LINE
  5
28A
330
1F
100
AcDbEntity
  8
001
370
    50
100
AcDbLine
 10
168.629674
 20
139.952155
 30
0.0
 11
169.630674
 21
139.583354
 31
0.0
  0
LINE
  5
28B
330
1F
100
AcDbEntity
  8
001
370
    50
100
AcDbLine
 10
167.628674
 20
140.322022
 30
0.0
 11
168.629674
 21
139.952155
 31
0.0
  0
LINE
  5
28C
330
1F
100
AcDbEntity
  8
001
370
    50
100
AcDbLine
 10
166.627674
 20
140.692843
 30
0.0
 11
167.628674
 21
140.322022
 31
0.0
  0
LINE
  5
28D
330
1F
100
AcDbEntity
  8
001
370
    50
100
AcDbLine
 10
165.626674
 20
141.064505
 30
0.0
 11
166.627674
 21
140.692843
 31
0.0
  0
LINE
  5
28E
330
1F
100
AcDbEntity
  8
001
370
    50
100
AcDbLine
 10
164.625674
 20
141.436894
 30
0.0
 11
165.626674
 21
141.064505
 31
0.0
  0
LINE
  5
28F
330
1F
100
AcDbEntity
  8
001
370
    50
100
AcDbLine
 10
163.624674
 20
141.809898
 30
0.0
 11
164.625674
 21
141.436894
 31
0.0
  0
LINE
  5
290
330
1F
100
AcDbEntity
  8
001
370
    50
100
AcDbLine
 10
162.623674
 20
142.183402
 30
0.0
 11
163.624674
 21
141.809898
 31
0.0
  0
LINE
  5
291
330
1F
100
AcDbEntity
  8
001
370
    50
100
AcDbLine
 10
161.622674
 20
142.557293
 30
0.0
 11
162.623674
 21
142.183402
 31
0.0
  0
POLYLINE
  5
292
330
1F
100
AcDbEntity
  8
001
370
    50
100
AcDb2dPolyline
 66
     1
 10
0.0
 20
0.0
 30
0.0
  0
VERTEX
  5
294
330
292
100
AcDbEntity
  8
001
370
    50
100
AcDbVertex
100
AcDb2dVertex
 10
160.621674
 20
142.931457
 30
0.0
  0
VERTEX
  5
295
330
292
100
AcDbEntity
  8
001
370
    50
100
AcDbVertex
100
AcDb2dVertex
 10
160.676737
 20
142.913237
 30
0.0
  0
VERTEX
  5
296
330
292
100
AcDbEntity
  8
001
370
    50
100
AcDbVertex
100
AcDb2dVertex
 10
160.731735
 20
142.894835
 30
0.0
  0
VERTEX
  5
297
330
292
100
AcDbEntity
  8
001
370
    50
100
AcDbVertex
100
AcDb2dVertex
 10
161.179389
 20
142.732206
 30
0.0
  0
VERTEX
  5
298
330
292
100
AcDbEntity
  8
001
370
    50
100
AcDbVertex
100
AcDb2dVertex
 10
161.622674
 20
142.557293
 30
0.0
  0
SEQEND
  5
293
330
292
100
AcDbEntity
  8
001
370
    50
  0
LINE
  5
299
330
1F
100
AcDbEntity
  8
001
370
    50
100
AcDbLine
 10
159.620674
 20
143.30578
 30
0.0
 11
160.621674
 21
142.931457
 31
0.0
  0
LINE
  5
29A
330
1F
100
AcDbEntity
  8
001
370
    50
100
AcDbLine
 10
158.619674
 20
143.680147
 30
0.0
 11
159.620674
 21
143.30578
 31
0.0
  0
LINE
  5
29B
330
1F
100
AcDbEntity
  8
001
370
    50
100
AcDbLine
 10
157.618674
 20
144.054446
 30
0.0
 11
158.619674
 21
143.680147
 31
0.0
  0
LINE
  5
29C
330
1F
100
AcDbEntity
  8
001
370
    50
100
AcDbLine
 10
156.617674
 20
144.428561
 30
0.0
 11
157.618674
 21
144.054446
 31
0.0
  0
LINE
  5
29D
330
1F
100
AcDbEntity
  8
001
370
    50
100
AcDbLine
 10
156.581307
 20
144.443795
 30
0.0
 11
156.617674
 21
144.428561
 31
0.0
  0
ARC
  5
29E
330
1F
100
AcDbEntity
  8
001
370
    50
100
AcDbCircle
 10
194.63597
 20
161.903223
 30
0.0
 40
3.000000000000003
100
AcDbArc
 50
0.0
 51
90.0
  0
ARC
  5
29F
330
1F
100
AcDbEntity
  8
001
370
    50
100
AcDbCircle
 10
194.63597
 20
125.003223
 30
0.0
 40
3.000000000000003
100
AcDbArc
 50
270.050262
 51
0.0
  0
LINE
  5
2A0
330
1F
100
AcDbEntity
  8
001
370
    50
100
AcDbLine
 10
197.63597
 20
161.903223
 30
0.0
 11
197.63597
 21
125.003223
 31
0.0
  0
LINE
  5
2A1
330
1F
100
AcDbEntity
  8
001
370
    50
100
AcDbLine
 10
194.63597
 20
122.003257
 30
0.0
 11
194.639519
 21
122.003225
 31
0.0
  0
POLYLINE
  5
2A2
330
1F
100
AcDbEntity
  8
001
370
    50
100
AcDb2dPolyline
 66
     1
 10
0.0
 20
0.0
 30
0.0
  0
VERTEX
  5
2A4
330
2A2
100
AcDbEntity
  8
001
370
    50
100
AcDbVertex
100
AcDb2dVertex
 10
155.563168
 20
145.446192
 30
0.0
  0
VERTEX
  5
2A5
330
2A2
100
AcDbEntity
  8
001
370
    50
100
AcDbVertex
100
AcDb2dVertex
 10
155.82387
 20
145.210297
 30
0.0
  0
VERTEX
  5
2A6
330
2A2
100
AcDbEntity
  8
001
370
    50
100
AcDbVertex
100
AcDb2dVertex
 10
156.079045
 20
144.968783
 30
0.0
  0
VERTEX
  5
2A7
330
2A2
100
AcDbEntity
  8
001
370
    50
100
AcDbVertex
100
AcDb2dVertex
 10
156.333129
 20
144.709291
 30
0.0
  0
VERTEX
  5
2A8
330
2A2
100
AcDbEntity
  8
001
370
    50
100
AcDbVertex
100
AcDb2dVertex
 10
156.581307
 20
144.443795
 30
0.0
  0
SEQEND
  5
2A3
330
2A2
100
AcDbEntity
  8
001
370
    50
  0
LINE
  5
2A9
330
1F
100
AcDbEntity
  8
001
370
    50
100
AcDbLine
 10
156.581307
 20
164.903223
 30
0.0
 11
151.73597
 21
159.903223
 31
0.0
  0
POLYLINE
  5
2AA
330
1F
100
AcDbEntity
  8
001
370
    50
100
AcDb2dPolyline
 66
     1
 10
0.0
 20
0.0
 30
0.0
  0
VERTEX
  5
2AC
330
2AA
100
AcDbEntity
  8
001
370
    50
100
AcDbVertex
100
AcDb2dVertex
 10
154.473381
 20
146.348697
 30
0.0
  0
VERTEX
  5
2AD
330
2AA
100
AcDbEntity
  8
001
370
    50
100
AcDbVertex
100
AcDb2dVertex
 10
154.752115
 20
146.140004
 30
0.0
  0
VERTEX
  5
2AE
330
2AA
100
AcDbEntity
  8
001
370
    50
100
AcDbVertex
100
AcDb2dVertex
 10
155.025065
 20
145.924319
 30
0.0
  0
VERTEX
  5
2AF
330
2AA
100
AcDbEntity
  8
001
370
    50
100
AcDbVertex
100
AcDb2dVertex
 10
155.29721
 20
145.688995
 30
0.0
  0
VERTEX
  5
2B0
330
2AA
100
AcDbEntity
  8
001
370
    50
100
AcDbVertex
100
AcDb2dVertex
 10
155.563168
 20
145.446192
 30
0.0
  0
SEQEND
  5
2AB
330
2AA
100
AcDbEntity
  8
001
370
    50
  0
POLYLINE
  5
2B1
330
1F
100
AcDbEntity
  8
001
370
    50
100
AcDb2dPolyline
 66
     1
 10
0.0
 20
0.0
 30
0.0
  0
VERTEX
  5
2B3
330
2B1
100
AcDbEntity
  8
001
370
    50
100
AcDbVertex
100
AcDb2dVertex
 10
153.350088
 20
147.102489
 30
0.0
  0
VERTEX
  5
2B4
330
2B1
100
AcDbEntity
  8
001
370
    50
100
AcDbVertex
100
AcDb2dVertex
 10
153.63674
 20
146.932023
 30
0.0
  0
VERTEX
  5
2B5
330
2B1
100
AcDbEntity
  8
001
370
    50
100
AcDbVertex
100
AcDb2dVertex
 10
153.917992
 20
146.753502
 30
0.0
  0
VERTEX
  5
2B6
330
2B1
100
AcDbEntity
  8
001
370
    50
100
AcDbVertex
100
AcDb2dVertex
 10
154.198556
 20
146.555381
 30
0.0
  0
VERTEX
  5
2B7
330
2B1
100
AcDbEntity
  8
001
370
    50
100
AcDbVertex
100
AcDb2dVertex
 10
154.473381
 20
146.348697
 30
0.0
  0
SEQEND
  5
2B2
330
2B1
100
AcDbEntity
  8
001
370
    50
  0
POLYLINE
  5
2B8
330
1F
100
AcDbEntity
  8
001
370
    50
100
AcDb2dPolyline
 66
     1
 10
0.0
 20
0.0
 30
0.0
  0
VERTEX
  5
2BA
330
2B8
100
AcDbEntity
  8
001
370
    50
100
AcDbVertex
100
AcDb2dVertex
 10
152.193704
 20
147.701344
 30
0.0
  0
VERTEX
  5
2BB
330
2B8
100
AcDbEntity
  8
001
370
    50
100
AcDbVertex
100
AcDb2dVertex
 10
152.488018
 20
147.570572
 30
0.0
  0
VERTEX
  5
2BC
330
2B8
100
AcDbEntity
  8
001
370
    50
100
AcDbVertex
100
AcDb2dVertex
 10
152.777603
 20
147.430656
 30
0.0
  0
VERTEX
  5
2BD
330
2B8
100
AcDbEntity
  8
001
370
    50
100
AcDbVertex
100
AcDb2dVertex
 10
153.066331
 20
147.271378
 30
0.0
  0
VERTEX
  5
2BE
330
2B8
100
AcDbEntity
  8
001
370
    50
100
AcDbVertex
100
AcDb2dVertex
 10
153.350088
 20
147.102489
 30
0.0
  0
SEQEND
  5
2B9
330
2B8
100
AcDbEntity
  8
001
370
    50
  0
LINE
  5
2BF
330
1F
100
AcDbEntity
  8
001
370
    50
100
AcDbLine
 10
151.73597
 20
147.899849
 30
0.0
 11
152.193704
 21
147.701344
 31
0.0
  0
LINE
  5
2C0
330
1F
100
AcDbEntity
  8
001
370
    50
100
AcDbLine
 10
151.123566
 20
148.059752
 30
0.0
 11
151.73597
 21
147.899849
 31
0.0
  0
ARC
  5
2C1
330
1F
100
AcDbEntity
  8
001
370
    50
100
AcDbCircle
 10
269.63597
 20
151.453223
 30
0.0
 40
8.000000000000007
100
AcDbArc
 50
0.0
 51
90.0
  0
ARC
  5
2C2
330
1F
100
AcDbEntity
  8
001
370
    50
100
AcDbCircle
 10
269.63597
 20
135.453223
 30
0.0
 40
8.000000000000007
100
AcDbArc
 50
270.0
 51
0.0
  0
LINE
  5
2C3
330
1F
100
AcDbEntity
  8
001
370
    50
100
AcDbLine
 10
277.63597
 20
151.453223
 30
0.0
 11
277.63597
 21
135.453223
 31
0.0
  0
LINE
  5
2C4
330
1F
100
AcDbEntity
  8
001
370
    50
100
AcDbLine
 10
200.63597
 20
159.453223
 30
0.0
 11
269.63597
 21
159.453223
 31
0.0
  0
LINE
  5
2C5
330
1F
100
AcDbEntity
  8
001
370
    50
100
AcDbLine
 10
200.63597
 20
127.453223
 30
0.0
 11
269.63597
 21
127.453223
 31
0.0
  0
LINE
  5
2C6
330
1F
100
AcDbEntity
  8
001
370
    50
100
AcDbLine
 10
151.73597
 20
159.903223
 30
0.0
 11
129.73597
 21
159.903223
 31
0.0
  0
LINE
  5
2C7
330
1F
100
AcDbEntity
  8
001
370
    50
100
AcDbLine
 10
150.122566
 20
148.334656
 30
0.0
 11
151.123566
 21
148.059752
 31
0.0
  0
LINE
  5
2C8
330
1F
100
AcDbEntity
  8
001
370
    50
100
AcDbLine
 10
149.121566
 20
148.608073
 30
0.0
 11
150.122566
 21
148.334656
 31
0.0
  0
LINE
  5
2C9
330
1F
100
AcDbEntity
  8
001
370
    50
100
AcDbLine
 10
148.120566
 20
148.87992
 30
0.0
 11
149.121566
 21
148.608073
 31
0.0
  0
LINE
  5
2CA
330
1F
100
AcDbEntity
  8
001
370
    50
100
AcDbLine
 10
147.119566
 20
149.150114
 30
0.0
 11
148.120566
 21
148.87992
 31
0.0
  0
LINE
  5
2CB
330
1F
100
AcDbEntity
  8
001
370
    50
100
AcDbLine
 10
146.118566
 20
149.418573
 30
0.0
 11
147.119566
 21
149.150114
 31
0.0
  0
LINE
  5
2CC
330
1F
100
AcDbEntity
  8
001
370
    50
100
AcDbLine
 10
145.117566
 20
149.685214
 30
0.0
 11
146.118566
 21
149.418573
 31
0.0
  0
LINE
  5
2CD
330
1F
100
AcDbEntity
  8
001
370
    50
100
AcDbLine
 10
144.116566
 20
149.949957
 30
0.0
 11
145.117566
 21
149.685214
 31
0.0
  0
LINE
  5
2CE
330
1F
100
AcDbEntity
  8
001
370
    50
100
AcDbLine
 10
143.115566
 20
150.212721
 30
0.0
 11
144.116566
 21
149.949957
 31
0.0
  0
LINE
  5
2CF
330
1F
100
AcDbEntity
  8
001
370
    50
100
AcDbLine
 10
142.114566
 20
150.473427
 30
0.0
 11
143.115566
 21
150.212721
 31
0.0
  0
LINE
  5
2D0
330
1F
100
AcDbEntity
  8
001
370
    50
100
AcDbLine
 10
141.113566
 20
150.731993
 30
0.0
 11
142.114566
 21
150.473427
 31
0.0
  0
LINE
  5
2D1
330
1F
100
AcDbEntity
  8
001
370
    50
100
AcDbLine
 10
140.112566
 20
150.988343
 30
0.0
 11
141.113566
 21
150.731993
 31
0.0
  0
LINE
  5
2D2
330
1F
100
AcDbEntity
  8
001
370
    50
100
AcDbLine
 10
139.111566
 20
151.242397
 30
0.0
 11
140.112566
 21
150.988343
 31
0.0
  0
LINE
  5
2D3
330
1F
100
AcDbEntity
  8
001
370
    50
100
AcDbLine
 10
138.110566
 20
151.494079
 30
0.0
 11
139.111566
 21
151.242397
 31
0.0
  0
LINE
  5
2D4
330
1F
100
AcDbEntity
  8
001
370
    50
100
AcDbLine
 10
137.109566
 20
151.743311
 30
0.0
 11
138.110566
 21
151.494079
 31
0.0
  0
LINE
  5
2D5
330
1F
100
AcDbEntity
  8
001
370
    50
100
AcDbLine
 10
136.108566
 20
151.990019
 30
0.0
 11
137.109566
 21
151.743311
 31
0.0
  0
LINE
  5
2D6
330
1F
100
AcDbEntity
  8
001
370
    50
100
AcDbLine
 10
135.107566
 20
152.234125
 30
0.0
 11
136.108566
 21
151.990019
 31
0.0
  0
LINE
  5
2D7
330
1F
100
AcDbEntity
  8
001
370
    50
100
AcDbLine
 10
134.106566
 20
152.475557
 30
0.0
 11
135.107566
 21
152.234125
 31
0.0
  0
LINE
  5
2D8
330
1F
100
AcDbEntity
  8
001
370
    50
100
AcDbLine
 10
133.105566
 20
152.714241
 30
0.0
 11
134.106566
 21
152.475557
 31
0.0
  0
LINE
  5
2D9
330
1F
100
AcDbEntity
  8
001
370
    50
100
AcDbLine
 10
132.104566
 20
152.950104
 30
0.0
 11
133.105566
 21
152.714241
 31
0.0
  0
LINE
  5
2DA
330
1F
100
AcDbEntity
  8
001
370
    50
100
AcDbLine
 10
131.103566
 20
153.183073
 30
0.0
 11
132.104566
 21
152.950104
 31
0.0
  0
LINE
  5
2DB
330
1F
100
AcDbEntity
  8
001
370
    50
100
AcDbLine
 10
130.102566
 20
153.413079
 30
0.0
 11
131.103566
 21
153.183073
 31
0.0
  0
LINE
  5
2DC
330
1F
100
AcDbEntity
  8
001
370
    50
100
AcDbLine
 10
129.73597
 20
153.503778
 30
0.0
 11
130.102566
 21
153.413079
 31
0.0
  0
POLYLINE
  5
2DD
330
1F
100
AcDbEntity
  8
001
370
    50
100
AcDb2dPolyline
 66
     1
 10
0.0
 20
0.0
 30
0.0
  0
VERTEX
  5
2DF
330
2DD
100
AcDbEntity
  8
001
370
    50
100
AcDbVertex
100
AcDb2dVertex
 10
138.753881
 20
127.314378
 30
0.0
  0
VERTEX
  5
2E0
330
2DD
100
AcDbEntity
  8
001
370
    50
100
AcDbVertex
100
AcDb2dVertex
 10
138.947699
 20
127.23851
 30
0.0
  0
VERTEX
  5
2E1
330
2DD
100
AcDbEntity
  8
001
370
    50
100
AcDbVertex
100
AcDb2dVertex
 10
139.23639
 20
127.14428
 30
0.0
  0
VERTEX
  5
2E2
330
2DD
100
AcDbEntity
  8
001
370
    50
100
AcDbVertex
100
AcDb2dVertex
 10
139.523675
 20
127.075769
 30
0.0
  0
VERTEX
  5
2E3
330
2DD
100
AcDbEntity
  8
001
370
    50
100
AcDbVertex
100
AcDb2dVertex
 10
139.722973
 20
127.040455
 30
0.0
  0
SEQEND
  5
2DE
330
2DD
100
AcDbEntity
  8
001
370
    50
  0
LINE
  5
2E4
330
1F
100
AcDbEntity
  8
001
370
    50
100
AcDbLine
 10
139.992801
 20
127.045329
 30
0.0
 11
139.722973
 21
127.040455
 31
0.0
  0
LINE
  5
2E5
330
1F
100
AcDbEntity
  8
001
370
    50
100
AcDbLine
 10
140.993801
 20
127.068356
 30
0.0
 11
139.992801
 21
127.045329
 31
0.0
  0
POLYLINE
  5
2E6
330
1F
100
AcDbEntity
  8
001
370
    50
100
AcDb2dPolyline
 66
     1
 10
0.0
 20
0.0
 30
0.0
  0
VERTEX
  5
2E8
330
2E6
100
AcDbEntity
  8
001
370
    50
100
AcDbVertex
100
AcDb2dVertex
 10
141.994801
 20
127.096374
 30
0.0
  0
VERTEX
  5
2E9
330
2E6
100
AcDbEntity
  8
001
370
    50
100
AcDbVertex
100
AcDb2dVertex
 10
141.903226
 20
127.093912
 30
0.0
  0
VERTEX
  5
2EA
330
2E6
100
AcDbEntity
  8
001
370
    50
100
AcDbVertex
100
AcDb2dVertex
 10
141.811652
 20
127.091434
 30
0.0
  0
VERTEX
  5
2EB
330
2E6
100
AcDbEntity
  8
001
370
    50
100
AcDbVertex
100
AcDb2dVertex
 10
141.402722
 20
127.08005
 30
0.0
  0
VERTEX
  5
2EC
330
2E6
100
AcDbEntity
  8
001
370
    50
100
AcDbVertex
100
AcDb2dVertex
 10
140.993801
 20
127.068356
 30
0.0
  0
SEQEND
  5
2E7
330
2E6
100
AcDbEntity
  8
001
370
    50
  0
LINE
  5
2ED
330
1F
100
AcDbEntity
  8
001
370
    50
100
AcDbLine
 10
142.995801
 20
127.129374
 30
0.0
 11
141.994801
 21
127.096374
 31
0.0
  0
LINE
  5
2EE
330
1F
100
AcDbEntity
  8
001
370
    50
100
AcDbLine
 10
143.996801
 20
127.167347
 30
0.0
 11
142.995801
 21
127.129374
 31
0.0
  0
LINE
  5
2EF
330
1F
100
AcDbEntity
  8
001
370
    50
100
AcDbLine
 10
144.997801
 20
127.210281
 30
0.0
 11
143.996801
 21
127.167347
 31
0.0
  0
LINE
  5
2F0
330
1F
100
AcDbEntity
  8
001
370
    50
100
AcDbLine
 10
146.388396
 20
127.276798
 30
0.0
 11
144.997801
 21
127.210281
 31
0.0
  0
POLYLINE
  5
2F1
330
1F
100
AcDbEntity
  8
001
370
    50
100
AcDb2dPolyline
 66
     1
 10
0.0
 20
0.0
 30
0.0
  0
VERTEX
  5
2F3
330
2F1
100
AcDbEntity
  8
001
370
    50
100
AcDbVertex
100
AcDb2dVertex
 10
141.228698
 20
137.89735
 30
0.0
  0
VERTEX
  5
2F4
330
2F1
100
AcDbEntity
  8
001
370
    50
100
AcDbVertex
100
AcDb2dVertex
 10
141.191529
 20
138.041101
 30
0.0
  0
VERTEX
  5
2F5
330
2F1
100
AcDbEntity
  8
001
370
    50
100
AcDbVertex
100
AcDb2dVertex
 10
141.148088
 20
138.182666
 30
0.0
  0
VERTEX
  5
2F6
330
2F1
100
AcDbEntity
  8
001
370
    50
100
AcDbVertex
100
AcDb2dVertex
 10
141.09371
 20
138.321694
 30
0.0
  0
VERTEX
  5
2F7
330
2F1
100
AcDbEntity
  8
001
370
    50
100
AcDbVertex
100
AcDb2dVertex
 10
141.032957
 20
138.458499
 30
0.0
  0
SEQEND
  5
2F2
330
2F1
100
AcDbEntity
  8
001
370
    50
  0
LINE
  5
2F8
330
1F
100
AcDbEntity
  8
001
370
    50
100
AcDbLine
 10
140.55435
 20
139.111453
 30
0.0
 11
140.291892
 21
139.330743
 31
0.0
  0
POLYLINE
  5
2F9
330
1F
100
AcDbEntity
  8
001
370
    50
100
AcDb2dPolyline
 66
     1
 10
0.0
 20
0.0
 30
0.0
  0
VERTEX
  5
2FB
330
2F9
100
AcDbEntity
  8
001
370
    50
100
AcDbVertex
100
AcDb2dVertex
 10
141.032957
 20
138.458499
 30
0.0
  0
VERTEX
  5
2FC
330
2F9
100
AcDbEntity
  8
001
370
    50
100
AcDbVertex
100
AcDb2dVertex
 10
140.920655
 20
138.653741
 30
0.0
  0
VERTEX
  5
2FD
330
2F9
100
AcDbEntity
  8
001
370
    50
100
AcDbVertex
100
AcDb2dVertex
 10
140.795573
 20
138.839818
 30
0.0
  0
VERTEX
  5
2FE
330
2F9
100
AcDbEntity
  8
001
370
    50
100
AcDbVertex
100
AcDb2dVertex
 10
140.739856
 20
138.909638
 30
0.0
  0
VERTEX
  5
2FF
330
2F9
100
AcDbEntity
  8
001
370
    50
100
AcDbVertex
100
AcDb2dVertex
 10
140.682115
 20
138.978006
 30
0.0
  0
SEQEND
  5
2FA
330
2F9
100
AcDbEntity
  8
001
370
    50
  0
POLYLINE
  5
300
330
1F
100
AcDbEntity
  8
001
370
    50
100
AcDb2dPolyline
 66
     1
 10
0.0
 20
0.0
 30
0.0
  0
VERTEX
  5
302
330
300
100
AcDbEntity
  8
001
370
    50
100
AcDbVertex
100
AcDb2dVertex
 10
140.291892
 20
139.330743
 30
0.0
  0
VERTEX
  5
303
330
300
100
AcDbEntity
  8
001
370
    50
100
AcDbVertex
100
AcDb2dVertex
 10
140.227304
 20
139.374244
 30
0.0
  0
VERTEX
  5
304
330
300
100
AcDbEntity
  8
001
370
    50
100
AcDbVertex
100
AcDb2dVertex
 10
140.161952
 20
139.41664
 30
0.0
  0
VERTEX
  5
305
330
300
100
AcDbEntity
  8
001
370
    50
100
AcDbVertex
100
AcDb2dVertex
 10
139.986389
 20
139.516129
 30
0.0
  0
VERTEX
  5
306
330
300
100
AcDbEntity
  8
001
370
    50
100
AcDbVertex
100
AcDb2dVertex
 10
139.802254
 20
139.598331
 30
0.0
  0
VERTEX
  5
307
330
300
100
AcDbEntity
  8
001
370
    50
100
AcDbVertex
100
AcDb2dVertex
 10
139.605504
 20
139.664552
 30
0.0
  0
VERTEX
  5
308
330
300
100
AcDbEntity
  8
001
370
    50
100
AcDbVertex
100
AcDb2dVertex
 10
139.405081
 20
139.72026
 30
0.0
  0
SEQEND
  5
301
330
300
100
AcDbEntity
  8
001
370
    50
  0
LINE
  5
309
330
1F
100
AcDbEntity
  8
001
370
    50
100
AcDbLine
 10
139.405081
 20
139.72026
 30
0.0
 11
138.883783
 21
139.774902
 31
0.0
  0
POLYLINE
  5
30A
330
1F
100
AcDbEntity
  8
001
370
    50
100
AcDb2dPolyline
 66
     1
 10
0.0
 20
0.0
 30
0.0
  0
VERTEX
  5
30C
330
30A
100
AcDbEntity
  8
001
370
    50
100
AcDbVertex
100
AcDb2dVertex
 10
138.399589
 20
139.72819
 30
0.0
  0
VERTEX
  5
30D
330
30A
100
AcDbEntity
  8
001
370
    50
100
AcDbVertex
100
AcDb2dVertex
 10
138.22428
 20
139.685771
 30
0.0
  0
VERTEX
  5
30E
330
30A
100
AcDbEntity
  8
001
370
    50
100
AcDbVertex
100
AcDb2dVertex
 10
138.051286
 20
139.6359
 30
0.0
  0
VERTEX
  5
30F
330
30A
100
AcDbEntity
  8
001
370
    50
100
AcDbVertex
100
AcDb2dVertex
 10
137.850425
 20
139.558891
 30
0.0
  0
VERTEX
  5
310
330
30A
100
AcDbEntity
  8
001
370
    50
100
AcDbVertex
100
AcDb2dVertex
 10
137.656798
 20
139.464133
 30
0.0
  0
VERTEX
  5
311
330
30A
100
AcDbEntity
  8
001
370
    50
100
AcDbVertex
100
AcDb2dVertex
 10
137.466229
 20
139.35114
 30
0.0
  0
VERTEX
  5
312
330
30A
100
AcDbEntity
  8
001
370
    50
100
AcDbVertex
100
AcDb2dVertex
 10
137.286381
 20
139.222358
 30
0.0
  0
VERTEX
  5
313
330
30A
100
AcDbEntity
  8
001
370
    50
100
AcDbVertex
100
AcDb2dVertex
 10
137.253647
 20
139.19615
 30
0.0
  0
VERTEX
  5
314
330
30A
100
AcDbEntity
  8
001
370
    50
100
AcDbVertex
100
AcDb2dVertex
 10
137.221149
 20
139.169645
 30
0.0
  0
SEQEND
  5
30B
330
30A
100
AcDbEntity
  8
001
370
    50
  0
LINE
  5
315
330
1F
100
AcDbEntity
  8
001
370
    50
100
AcDbLine
 10
137.221149
 20
139.169645
 30
0.0
 11
137.044716
 21
139.009399
 31
0.0
  0
POLYLINE
  5
316
330
1F
100
AcDbEntity
  8
001
370
    50
100
AcDb2dPolyline
 66
     1
 10
0.0
 20
0.0
 30
0.0
  0
VERTEX
  5
318
330
316
100
AcDbEntity
  8
001
370
    50
100
AcDbVertex
100
AcDb2dVertex
 10
136.158032
 20
138.985118
 30
0.0
  0
VERTEX
  5
319
330
316
100
AcDbEntity
  8
001
370
    50
100
AcDbVertex
100
AcDb2dVertex
 10
136.337963
 20
138.988875
 30
0.0
  0
VERTEX
  5
31A
330
316
100
AcDbEntity
  8
001
370
    50
100
AcDbVertex
100
AcDb2dVertex
 10
136.600913
 20
138.995374
 30
0.0
  0
VERTEX
  5
31B
330
316
100
AcDbEntity
  8
001
370
    50
100
AcDbVertex
100
AcDb2dVertex
 10
136.864433
 20
139.003292
 30
0.0
  0
VERTEX
  5
31C
330
316
100
AcDbEntity
  8
001
370
    50
100
AcDbVertex
100
AcDb2dVertex
 10
137.044716
 20
139.009399
 30
0.0
  0
SEQEND
  5
317
330
316
100
AcDbEntity
  8
001
370
    50
  0
POLYLINE
  5
31D
330
1F
100
AcDbEntity
  8
001
370
    50
100
AcDb2dPolyline
 66
     1
 10
0.0
 20
0.0
 30
0.0
  0
VERTEX
  5
31F
330
31D
100
AcDbEntity
  8
001
370
    50
100
AcDbVertex
100
AcDb2dVertex
 10
135.141549
 20
138.956421
 30
0.0
  0
VERTEX
  5
320
330
31D
100
AcDbEntity
  8
001
370
    50
100
AcDbVertex
100
AcDb2dVertex
 10
135.347804
 20
138.960722
 30
0.0
  0
VERTEX
  5
321
330
31D
100
AcDbEntity
  8
001
370
    50
100
AcDbVertex
100
AcDb2dVertex
 10
135.649222
 20
138.968319
 30
0.0
  0
VERTEX
  5
322
330
31D
100
AcDbEntity
  8
001
370
    50
100
AcDbVertex
100
AcDb2dVertex
 10
135.951345
 20
138.977761
 30
0.0
  0
VERTEX
  5
323
330
31D
100
AcDbEntity
  8
001
370
    50
100
AcDbVertex
100
AcDb2dVertex
 10
136.158032
 20
138.985118
 30
0.0
  0
SEQEND
  5
31E
330
31D
100
AcDbEntity
  8
001
370
    50
  0
POLYLINE
  5
324
330
1F
100
AcDbEntity
  8
001
370
    50
100
AcDb2dPolyline
 66
     1
 10
0.0
 20
0.0
 30
0.0
  0
VERTEX
  5
326
330
324
100
AcDbEntity
  8
001
370
    50
100
AcDbVertex
100
AcDb2dVertex
 10
134.124873
 20
138.928115
 30
0.0
  0
VERTEX
  5
327
330
324
100
AcDbEntity
  8
001
370
    50
100
AcDbVertex
100
AcDb2dVertex
 10
134.331164
 20
138.93235
 30
0.0
  0
VERTEX
  5
328
330
324
100
AcDbEntity
  8
001
370
    50
100
AcDbVertex
100
AcDb2dVertex
 10
134.632633
 20
138.939838
 30
0.0
  0
VERTEX
  5
329
330
324
100
AcDbEntity
  8
001
370
    50
100
AcDbVertex
100
AcDb2dVertex
 10
134.934818
 20
138.949157
 30
0.0
  0
VERTEX
  5
32A
330
324
100
AcDbEntity
  8
001
370
    50
100
AcDbVertex
100
AcDb2dVertex
 10
135.141549
 20
138.956421
 30
0.0
  0
SEQEND
  5
325
330
324
100
AcDbEntity
  8
001
370
    50
  0
LINE
  5
32B
330
1F
100
AcDbEntity
  8
001
370
    50
100
AcDbLine
 10
133.235448
 20
138.902652
 30
0.0
 11
133.107139
 21
138.897313
 31
0.0
  0
POLYLINE
  5
32C
330
1F
100
AcDbEntity
  8
001
370
    50
100
AcDb2dPolyline
 66
     1
 10
0.0
 20
0.0
 30
0.0
  0
VERTEX
  5
32E
330
32C
100
AcDbEntity
  8
001
370
    50
100
AcDbVertex
100
AcDb2dVertex
 10
133.235448
 20
138.902652
 30
0.0
  0
VERTEX
  5
32F
330
32C
100
AcDbEntity
  8
001
370
    50
100
AcDbVertex
100
AcDb2dVertex
 10
133.415954
 20
138.906675
 30
0.0
  0
VERTEX
  5
330
330
32C
100
AcDbEntity
  8
001
370
    50
100
AcDbVertex
100
AcDb2dVertex
 10
133.679744
 20
138.913541
 30
0.0
  0
VERTEX
  5
331
330
32C
100
AcDbEntity
  8
001
370
    50
100
AcDbVertex
100
AcDb2dVertex
 10
133.944052
 20
138.921794
 30
0.0
  0
VERTEX
  5
332
330
32C
100
AcDbEntity
  8
001
370
    50
100
AcDbVertex
100
AcDb2dVertex
 10
134.124873
 20
138.928115
 30
0.0
  0
SEQEND
  5
32D
330
32C
100
AcDbEntity
  8
001
370
    50
  0
POLYLINE
  5
333
330
1F
100
AcDbEntity
  8
001
370
    50
100
AcDb2dPolyline
 66
     1
 10
0.0
 20
0.0
 30
0.0
  0
VERTEX
  5
335
330
333
100
AcDbEntity
  8
001
370
    50
100
AcDbVertex
100
AcDb2dVertex
 10
133.107139
 20
138.897313
 30
0.0
  0
VERTEX
  5
336
330
333
100
AcDbEntity
  8
001
370
    50
100
AcDbVertex
100
AcDb2dVertex
 10
132.904352
 20
138.871616
 30
0.0
  0
VERTEX
  5
337
330
333
100
AcDbEntity
  8
001
370
    50
100
AcDbVertex
100
AcDb2dVertex
 10
132.702942
 20
138.837886
 30
0.0
  0
VERTEX
  5
338
330
333
100
AcDbEntity
  8
001
370
    50
100
AcDbVertex
100
AcDb2dVertex
 10
132.500888
 20
138.78856
 30
0.0
  0
VERTEX
  5
339
330
333
100
AcDbEntity
  8
001
370
    50
100
AcDbVertex
100
AcDb2dVertex
 10
132.303365
 20
138.723322
 30
0.0
  0
VERTEX
  5
33A
330
333
100
AcDbEntity
  8
001
370
    50
100
AcDbVertex
100
AcDb2dVertex
 10
132.156188
 20
138.663917
 30
0.0
  0
VERTEX
  5
33B
330
333
100
AcDbEntity
  8
001
370
    50
100
AcDbVertex
100
AcDb2dVertex
 10
132.010822
 20
138.600083
 30
0.0
  0
SEQEND
  5
334
330
333
100
AcDbEntity
  8
001
370
    50
  0
POLYLINE
  5
33C
330
1F
100
AcDbEntity
  8
001
370
    50
100
AcDb2dPolyline
 66
     1
 10
0.0
 20
0.0
 30
0.0
  0
VERTEX
  5
33E
330
33C
100
AcDbEntity
  8
001
370
    50
100
AcDbVertex
100
AcDb2dVertex
 10
132.010822
 20
138.600083
 30
0.0
  0
VERTEX
  5
33F
330
33C
100
AcDbEntity
  8
001
370
    50
100
AcDbVertex
100
AcDb2dVertex
 10
131.843835
 20
138.508266
 30
0.0
  0
VERTEX
  5
340
330
33C
100
AcDbEntity
  8
001
370
    50
100
AcDbVertex
100
AcDb2dVertex
 10
131.680658
 20
138.410225
 30
0.0
  0
VERTEX
  5
341
330
33C
100
AcDbEntity
  8
001
370
    50
100
AcDbVertex
100
AcDb2dVertex
 10
131.522188
 20
138.299308
 30
0.0
  0
VERTEX
  5
342
330
33C
100
AcDbEntity
  8
001
370
    50
100
AcDbVertex
100
AcDb2dVertex
 10
131.371899
 20
138.177419
 30
0.0
  0
VERTEX
  5
343
330
33C
100
AcDbEntity
  8
001
370
    50
100
AcDbVertex
100
AcDb2dVertex
 10
131.332403
 20
138.142642
 30
0.0
  0
VERTEX
  5
344
330
33C
100
AcDbEntity
  8
001
370
    50
100
AcDbVertex
100
AcDb2dVertex
 10
131.293222
 20
138.107527
 30
0.0
  0
SEQEND
  5
33D
330
33C
100
AcDbEntity
  8
001
370
    50
  0
LINE
  5
345
330
1F
100
AcDbEntity
  8
001
370
    50
100
AcDbLine
 10
129.297036
 20
151.679429
 30
0.0
 11
129.73597
 21
151.869148
 31
0.0
  0
LINE
  5
346
330
1F
100
AcDbEntity
  8
001
370
    50
100
AcDbLine
 10
129.73597
 20
156.039271
 30
0.0
 11
128.13597
 21
154.353223
 31
0.0
  0
POLYLINE
  5
347
330
1F
100
AcDbEntity
  8
001
370
    50
100
AcDb2dPolyline
 66
     1
 10
0.0
 20
0.0
 30
0.0
  0
VERTEX
  5
349
330
347
100
AcDbEntity
  8
001
370
    50
100
AcDbVertex
100
AcDb2dVertex
 10
128.13597
 20
151.114224
 30
0.0
  0
VERTEX
  5
34A
330
347
100
AcDbEntity
  8
001
370
    50
100
AcDbVertex
100
AcDb2dVertex
 10
128.425785
 20
151.268864
 30
0.0
  0
VERTEX
  5
34B
330
347
100
AcDbEntity
  8
001
370
    50
100
AcDbVertex
100
AcDb2dVertex
 10
128.718581
 20
151.417377
 30
0.0
  0
VERTEX
  5
34C
330
347
100
AcDbEntity
  8
001
370
    50
100
AcDbVertex
100
AcDb2dVertex
 10
129.006416
 20
151.551268
 30
0.0
  0
VERTEX
  5
34D
330
347
100
AcDbEntity
  8
001
370
    50
100
AcDbVertex
100
AcDb2dVertex
 10
129.297036
 20
151.679429
 30
0.0
  0
SEQEND
  5
348
330
347
100
AcDbEntity
  8
001
370
    50
  0
POLYLINE
  5
34E
330
1F
100
AcDbEntity
  8
001
370
    50
100
AcDb2dPolyline
 66
     1
 10
0.0
 20
0.0
 30
0.0
  0
VERTEX
  5
350
330
34E
100
AcDbEntity
  8
001
370
    50
100
AcDbVertex
100
AcDb2dVertex
 10
128.13597
 20
137.149377
 30
0.0
  0
VERTEX
  5
351
330
34E
100
AcDbEntity
  8
001
370
    50
100
AcDbVertex
100
AcDb2dVertex
 10
128.264817
 20
137.151473
 30
0.0
  0
VERTEX
  5
352
330
34E
100
AcDbEntity
  8
001
370
    50
100
AcDbVertex
100
AcDb2dVertex
 10
128.453123
 20
137.155009
 30
0.0
  0
VERTEX
  5
353
330
34E
100
AcDbEntity
  8
001
370
    50
100
AcDbVertex
100
AcDb2dVertex
 10
128.641649
 20
137.159204
 30
0.0
  0
VERTEX
  5
354
330
34E
100
AcDbEntity
  8
001
370
    50
100
AcDbVertex
100
AcDb2dVertex
 10
128.770634
 20
137.162396
 30
0.0
  0
SEQEND
  5
34F
330
34E
100
AcDbEntity
  8
001
370
    50
  0
POLYLINE
  5
355
330
1F
100
AcDbEntity
  8
001
370
    50
100
AcDb2dPolyline
 66
     1
 10
0.0
 20
0.0
 30
0.0
  0
VERTEX
  5
357
330
355
100
AcDbEntity
  8
001
370
    50
100
AcDbVertex
100
AcDb2dVertex
 10
128.770634
 20
137.162396
 30
0.0
  0
VERTEX
  5
358
330
355
100
AcDbEntity
  8
001
370
    50
100
AcDbVertex
100
AcDb2dVertex
 10
128.974653
 20
137.164608
 30
0.0
  0
VERTEX
  5
359
330
355
100
AcDbEntity
  8
001
370
    50
100
AcDbVertex
100
AcDb2dVertex
 10
129.272817
 20
137.169028
 30
0.0
  0
VERTEX
  5
35A
330
355
100
AcDbEntity
  8
001
370
    50
100
AcDbVertex
100
AcDb2dVertex
 10
129.571613
 20
137.175114
 30
0.0
  0
VERTEX
  5
35B
330
355
100
AcDbEntity
  8
001
370
    50
100
AcDbVertex
100
AcDb2dVertex
 10
129.776037
 20
137.180092
 30
0.0
  0
SEQEND
  5
356
330
355
100
AcDbEntity
  8
001
370
    50
  0
POLYLINE
  5
35C
330
1F
100
AcDbEntity
  8
001
370
    50
100
AcDb2dPolyline
 66
     1
 10
0.0
 20
0.0
 30
0.0
  0
VERTEX
  5
35E
330
35C
100
AcDbEntity
  8
001
370
    50
100
AcDbVertex
100
AcDb2dVertex
 10
129.776037
 20
137.180092
 30
0.0
  0
VERTEX
  5
35F
330
35C
100
AcDbEntity
  8
001
370
    50
100
AcDbVertex
100
AcDb2dVertex
 10
129.898816
 20
137.181357
 30
0.0
  0
VERTEX
  5
360
330
35C
100
AcDbEntity
  8
001
370
    50
100
AcDbVertex
100
AcDb2dVertex
 10
130.078257
 20
137.183638
 30
0.0
  0
VERTEX
  5
361
330
35C
100
AcDbEntity
  8
001
370
    50
100
AcDbVertex
100
AcDb2dVertex
 10
130.257959
 20
137.186526
 30
0.0
  0
VERTEX
  5
362
330
35C
100
AcDbEntity
  8
001
370
    50
100
AcDbVertex
100
AcDb2dVertex
 10
130.380909
 20
137.188798
 30
0.0
  0
SEQEND
  5
35D
330
35C
100
AcDbEntity
  8
001
370
    50
  0
POLYLINE
  5
363
330
1F
100
AcDbEntity
  8
001
370
    50
100
AcDb2dPolyline
 66
     1
 10
0.0
 20
0.0
 30
0.0
  0
VERTEX
  5
365
330
363
100
AcDbEntity
  8
001
370
    50
100
AcDbVertex
100
AcDb2dVertex
 10
130.380909
 20
137.188798
 30
0.0
  0
VERTEX
  5
366
330
363
100
AcDbEntity
  8
001
370
    50
100
AcDbVertex
100
AcDb2dVertex
 10
130.470272
 20
137.279184
 30
0.0
  0
VERTEX
  5
367
330
363
100
AcDbEntity
  8
001
370
    50
100
AcDbVertex
100
AcDb2dVertex
 10
130.600762
 20
137.411404
 30
0.0
  0
VERTEX
  5
368
330
363
100
AcDbEntity
  8
001
370
    50
100
AcDbVertex
100
AcDb2dVertex
 10
130.731449
 20
137.544153
 30
0.0
  0
VERTEX
  5
369
330
363
100
AcDbEntity
  8
001
370
    50
100
AcDbVertex
100
AcDb2dVertex
 10
130.820786
 20
137.635061
 30
0.0
  0
SEQEND
  5
364
330
363
100
AcDbEntity
  8
001
370
    50
  0
POLYLINE
  5
36A
330
1F
100
AcDbEntity
  8
001
370
    50
100
AcDb2dPolyline
 66
     1
 10
0.0
 20
0.0
 30
0.0
  0
VERTEX
  5
36C
330
36A
100
AcDbEntity
  8
001
370
    50
100
AcDbVertex
100
AcDb2dVertex
 10
132.601324
 20
137.924163
 30
0.0
  0
VERTEX
  5
36D
330
36A
100
AcDbEntity
  8
001
370
    50
100
AcDbVertex
100
AcDb2dVertex
 10
132.441619
 20
137.915101
 30
0.0
  0
VERTEX
  5
36E
330
36A
100
AcDbEntity
  8
001
370
    50
100
AcDbVertex
100
AcDb2dVertex
 10
132.222636
 20
137.886849
 30
0.0
  0
VERTEX
  5
36F
330
36A
100
AcDbEntity
  8
001
370
    50
100
AcDbVertex
100
AcDb2dVertex
 10
132.028029
 20
137.839005
 30
0.0
  0
VERTEX
  5
370
330
36A
100
AcDbEntity
  8
001
370
    50
100
AcDbVertex
100
AcDb2dVertex
 10
131.858078
 20
137.776299
 30
0.0
  0
VERTEX
  5
371
330
36A
100
AcDbEntity
  8
001
370
    50
100
AcDbVertex
100
AcDb2dVertex
 10
131.693181
 20
137.700396
 30
0.0
  0
VERTEX
  5
372
330
36A
100
AcDbEntity
  8
001
370
    50
100
AcDbVertex
100
AcDb2dVertex
 10
131.521254
 20
137.596639
 30
0.0
  0
VERTEX
  5
373
330
36A
100
AcDbEntity
  8
001
370
    50
100
AcDbVertex
100
AcDb2dVertex
 10
131.345099
 20
137.461375
 30
0.0
  0
VERTEX
  5
374
330
36A
100
AcDbEntity
  8
001
370
    50
100
AcDbVertex
100
AcDb2dVertex
 10
131.224731
 20
137.354573
 30
0.0
  0
SEQEND
  5
36B
330
36A
100
AcDbEntity
  8
001
370
    50
  0
LINE
  5
375
330
1F
100
AcDbEntity
  8
001
370
    50
100
AcDbLine
 10
131.293222
 20
138.107527
 30
0.0
 11
131.188084
 21
138.006029
 31
0.0
  0
POLYLINE
  5
376
330
1F
100
AcDbEntity
  8
001
370
    50
100
AcDb2dPolyline
 66
     1
 10
0.0
 20
0.0
 30
0.0
  0
VERTEX
  5
378
330
376
100
AcDbEntity
  8
001
370
    50
100
AcDbVertex
100
AcDb2dVertex
 10
130.820786
 20
137.635061
 30
0.0
  0
VERTEX
  5
379
330
376
100
AcDbEntity
  8
001
370
    50
100
AcDbVertex
100
AcDb2dVertex
 10
130.895386
 20
137.710213
 30
0.0
  0
VERTEX
  5
37A
330
376
100
AcDbEntity
  8
001
370
    50
100
AcDbVertex
100
AcDb2dVertex
 10
131.004335
 20
137.820134
 30
0.0
  0
VERTEX
  5
37B
330
376
100
AcDbEntity
  8
001
370
    50
100
AcDbVertex
100
AcDb2dVertex
 10
131.11347
 20
137.930475
 30
0.0
  0
VERTEX
  5
37C
330
376
100
AcDbEntity
  8
001
370
    50
100
AcDbVertex
100
AcDb2dVertex
 10
131.188084
 20
138.006029
 30
0.0
  0
SEQEND
  5
377
330
376
100
AcDbEntity
  8
001
370
    50
  0
LINE
  5
37D
330
1F
100
AcDbEntity
  8
001
370
    50
100
AcDbLine
 10
138.883783
 20
139.774902
 30
0.0
 11
138.399589
 21
139.72819
 31
0.0
  0
POLYLINE
  5
37E
330
1F
100
AcDbEntity
  8
001
370
    50
100
AcDb2dPolyline
 66
     1
 10
0.0
 20
0.0
 30
0.0
  0
VERTEX
  5
380
330
37E
100
AcDbEntity
  8
001
370
    50
100
AcDbVertex
100
AcDb2dVertex
 10
140.672347
 20
135.69688
 30
0.0
  0
VERTEX
  5
381
330
37E
100
AcDbEntity
  8
001
370
    50
100
AcDbVertex
100
AcDb2dVertex
 10
140.790905
 20
135.854045
 30
0.0
  0
VERTEX
  5
382
330
37E
100
AcDbEntity
  8
001
370
    50
100
AcDbVertex
100
AcDb2dVertex
 10
140.901749
 20
136.016258
 30
0.0
  0
VERTEX
  5
383
330
37E
100
AcDbEntity
  8
001
370
    50
100
AcDbVertex
100
AcDb2dVertex
 10
141.000498
 20
136.190901
 30
0.0
  0
VERTEX
  5
384
330
37E
100
AcDbEntity
  8
001
370
    50
100
AcDbVertex
100
AcDb2dVertex
 10
141.084578
 20
136.373449
 30
0.0
  0
VERTEX
  5
385
330
37E
100
AcDbEntity
  8
001
370
    50
100
AcDbVertex
100
AcDb2dVertex
 10
141.157724
 20
136.569977
 30
0.0
  0
VERTEX
  5
386
330
37E
100
AcDbEntity
  8
001
370
    50
100
AcDbVertex
100
AcDb2dVertex
 10
141.215075
 20
136.771473
 30
0.0
  0
VERTEX
  5
387
330
37E
100
AcDbEntity
  8
001
370
    50
100
AcDbVertex
100
AcDb2dVertex
 10
141.256309
 20
136.981625
 30
0.0
  0
VERTEX
  5
388
330
37E
100
AcDbEntity
  8
001
370
    50
100
AcDbVertex
100
AcDb2dVertex
 10
141.28015
 20
137.194644
 30
0.0
  0
VERTEX
  5
389
330
37E
100
AcDbEntity
  8
001
370
    50
100
AcDbVertex
100
AcDb2dVertex
 10
141.28666
 20
137.369917
 30
0.0
  0
VERTEX
  5
38A
330
37E
100
AcDbEntity
  8
001
370
    50
100
AcDbVertex
100
AcDb2dVertex
 10
141.279683
 20
137.544869
 30
0.0
  0
VERTEX
  5
38B
330
37E
100
AcDbEntity
  8
001
370
    50
100
AcDbVertex
100
AcDb2dVertex
 10
141.258241
 20
137.721515
 30
0.0
  0
VERTEX
  5
38C
330
37E
100
AcDbEntity
  8
001
370
    50
100
AcDbVertex
100
AcDb2dVertex
 10
141.228698
 20
137.89735
 30
0.0
  0
SEQEND
  5
37F
330
37E
100
AcDbEntity
  8
001
370
    50
  0
POLYLINE
  5
38D
330
1F
100
AcDbEntity
  8
001
370
    50
100
AcDb2dPolyline
 66
     1
 10
0.0
 20
0.0
 30
0.0
  0
VERTEX
  5
38F
330
38D
100
AcDbEntity
  8
001
370
    50
100
AcDbVertex
100
AcDb2dVertex
 10
140.352202
 20
135.377724
 30
0.0
  0
VERTEX
  5
390
330
38D
100
AcDbEntity
  8
001
370
    50
100
AcDbVertex
100
AcDb2dVertex
 10
140.409955
 20
135.42805
 30
0.0
  0
VERTEX
  5
391
330
38D
100
AcDbEntity
  8
001
370
    50
100
AcDbVertex
100
AcDb2dVertex
 10
140.466556
 20
135.479563
 30
0.0
  0
VERTEX
  5
392
330
38D
100
AcDbEntity
  8
001
370
    50
100
AcDbVertex
100
AcDb2dVertex
 10
140.57165
 20
135.585956
 30
0.0
  0
VERTEX
  5
393
330
38D
100
AcDbEntity
  8
001
370
    50
100
AcDbVertex
100
AcDb2dVertex
 10
140.672347
 20
135.69688
 30
0.0
  0
SEQEND
  5
38E
330
38D
100
AcDbEntity
  8
001
370
    50
  0
POLYLINE
  5
394
330
1F
100
AcDbEntity
  8
001
370
    50
100
AcDb2dPolyline
 66
     1
 10
0.0
 20
0.0
 30
0.0
  0
VERTEX
  5
396
330
394
100
AcDbEntity
  8
001
370
    50
100
AcDbVertex
100
AcDb2dVertex
 10
138.753881
 20
134.860681
 30
0.0
  0
VERTEX
  5
397
330
394
100
AcDbEntity
  8
001
370
    50
100
AcDbVertex
100
AcDb2dVertex
 10
139.101667
 20
134.929126
 30
0.0
  0
VERTEX
  5
398
330
394
100
AcDbEntity
  8
001
370
    50
100
AcDbVertex
100
AcDb2dVertex
 10
139.600359
 20
135.064343
 30
0.0
  0
VERTEX
  5
399
330
394
100
AcDbEntity
  8
001
370
    50
100
AcDbVertex
100
AcDb2dVertex
 10
140.05204
 20
135.236858
 30
0.0
  0
VERTEX
  5
39A
330
394
100
AcDbEntity
  8
001
370
    50
100
AcDbVertex
100
AcDb2dVertex
 10
140.352202
 20
135.377724
 30
0.0
  0
SEQEND
  5
395
330
394
100
AcDbEntity
  8
001
370
    50
  0
LINE
  5
39B
330
1F
100
AcDbEntity
  8
001
370
    50
100
AcDbLine
 10
128.13597
 20
137.096626
 30
0.0
 11
128.13597
 21
154.353223
 31
0.0
  0
LINE
  5
39C
330
1F
100
AcDbEntity
  8
001
370
    50
100
AcDbLine
 10
129.73597
 20
151.869148
 30
0.0
 11
129.73597
 21
159.903223
 31
0.0
  0
LINE
  5
39D
330
1F
100
AcDbEntity
  8
001
370
    50
100
AcDbLine
 10
131.224731
 20
137.354573
 30
0.0
 11
131.018791
 21
137.150219
 31
0.0
  0
LINE
  5
39E
330
1F
100
AcDbEntity
  8
001
370
    50
100
AcDbLine
 10
130.380909
 20
137.188798
 30
0.0
 11
130.371388
 21
137.150219
 31
0.0
  0
LINE
  5
39F
330
1F
100
AcDbEntity
  8
001
370
    50
100
AcDbLine
 10
132.840249
 20
137.924163
 30
0.0
 11
132.601325
 21
137.924163
 31
0.0
  0
POLYLINE
  5
3A0
330
1F
100
AcDbEntity
  8
001
370
    50
100
AcDb2dPolyline
 66
     1
 10
0.0
 20
0.0
 30
0.0
  0
VERTEX
  5
3A2
330
3A0
100
AcDbEntity
  8
001
370
    50
100
AcDbVertex
100
AcDb2dVertex
 10
138.753881
 20
134.860681
 30
0.0
  0
VERTEX
  5
3A3
330
3A0
100
AcDbEntity
  8
001
370
    50
100
AcDbVertex
100
AcDb2dVertex
 10
138.93355
 20
134.920541
 30
0.0
  0
VERTEX
  5
3A4
330
3A0
100
AcDbEntity
  8
001
370
    50
100
AcDbVertex
100
AcDb2dVertex
 10
139.174891
 20
135.018671
 30
0.0
  0
VERTEX
  5
3A5
330
3A0
100
AcDbEntity
  8
001
370
    50
100
AcDbVertex
100
AcDb2dVertex
 10
139.382399
 20
135.128824
 30
0.0
  0
VERTEX
  5
3A6
330
3A0
100
AcDbEntity
  8
001
370
    50
100
AcDbVertex
100
AcDb2dVertex
 10
139.560658
 20
135.251648
 30
0.0
  0
VERTEX
  5
3A7
330
3A0
100
AcDbEntity
  8
001
370
    50
100
AcDbVertex
100
AcDb2dVertex
 10
139.733878
 20
135.393355
 30
0.0
  0
VERTEX
  5
3A8
330
3A0
100
AcDbEntity
  8
001
370
    50
100
AcDbVertex
100
AcDb2dVertex
 10
139.89836
 20
135.551868
 30
0.0
  0
VERTEX
  5
3A9
330
3A0
100
AcDbEntity
  8
001
370
    50
100
AcDbVertex
100
AcDb2dVertex
 10
140.046367
 20
135.724463
 30
0.0
  0
VERTEX
  5
3AA
330
3A0
100
AcDbEntity
  8
001
370
    50
100
AcDbVertex
100
AcDb2dVertex
 10
140.176775
 20
135.909353
 30
0.0
  0
VERTEX
  5
3AB
330
3A0
100
AcDbEntity
  8
001
370
    50
100
AcDbVertex
100
AcDb2dVertex
 10
140.290646
 20
136.105991
 30
0.0
  0
VERTEX
  5
3AC
330
3A0
100
AcDbEntity
  8
001
370
    50
100
AcDbVertex
100
AcDb2dVertex
 10
140.386649
 20
136.312224
 30
0.0
  0
VERTEX
  5
3AD
330
3A0
100
AcDbEntity
  8
001
370
    50
100
AcDbVertex
100
AcDb2dVertex
 10
140.463676
 20
136.526641
 30
0.0
  0
VERTEX
  5
3AE
330
3A0
100
AcDbEntity
  8
001
370
    50
100
AcDbVertex
100
AcDb2dVertex
 10
140.521007
 20
136.747089
 30
0.0
  0
VERTEX
  5
3AF
330
3A0
100
AcDbEntity
  8
001
370
    50
100
AcDbVertex
100
AcDb2dVertex
 10
140.558353
 20
136.972066
 30
0.0
  0
VERTEX
  5
3B0
330
3A0
100
AcDbEntity
  8
001
370
    50
100
AcDbVertex
100
AcDb2dVertex
 10
140.575383
 20
137.199496
 30
0.0
  0
VERTEX
  5
3B1
330
3A0
100
AcDbEntity
  8
001
370
    50
100
AcDbVertex
100
AcDb2dVertex
 10
140.571909
 20
137.427569
 30
0.0
  0
VERTEX
  5
3B2
330
3A0
100
AcDbEntity
  8
001
370
    50
100
AcDbVertex
100
AcDb2dVertex
 10
140.54797
 20
137.654409
 30
0.0
  0
VERTEX
  5
3B3
330
3A0
100
AcDbEntity
  8
001
370
    50
100
AcDbVertex
100
AcDb2dVertex
 10
140.503769
 20
137.877999
 30
0.0
  0
VERTEX
  5
3B4
330
3A0
100
AcDbEntity
  8
001
370
    50
100
AcDbVertex
100
AcDb2dVertex
 10
140.43968
 20
138.096709
 30
0.0
  0
VERTEX
  5
3B5
330
3A0
100
AcDbEntity
  8
001
370
    50
100
AcDbVertex
100
AcDb2dVertex
 10
140.35632
 20
138.308388
 30
0.0
  0
VERTEX
  5
3B6
330
3A0
100
AcDbEntity
  8
001
370
    50
100
AcDbVertex
100
AcDb2dVertex
 10
140.254111
 20
138.511696
 30
0.0
  0
VERTEX
  5
3B7
330
3A0
100
AcDbEntity
  8
001
370
    50
100
AcDbVertex
100
AcDb2dVertex
 10
140.134071
 20
138.70449
 30
0.0
  0
VERTEX
  5
3B8
330
3A0
100
AcDbEntity
  8
001
370
    50
100
AcDbVertex
100
AcDb2dVertex
 10
139.99743
 20
138.885578
 30
0.0
  0
VERTEX
  5
3B9
330
3A0
100
AcDbEntity
  8
001
370
    50
100
AcDbVertex
100
AcDb2dVertex
 10
139.845797
 20
139.052941
 30
0.0
  0
VERTEX
  5
3BA
330
3A0
100
AcDbEntity
  8
001
370
    50
100
AcDbVertex
100
AcDb2dVertex
 10
139.67817
 20
139.205928
 30
0.0
  0
VERTEX
  5
3BB
330
3A0
100
AcDbEntity
  8
001
370
    50
100
AcDbVertex
100
AcDb2dVertex
 10
139.495879
 20
139.3429
 30
0.0
  0
VERTEX
  5
3BC
330
3A0
100
AcDbEntity
  8
001
370
    50
100
AcDbVertex
100
AcDb2dVertex
 10
139.306939
 20
139.462101
 30
0.0
  0
VERTEX
  5
3BD
330
3A0
100
AcDbEntity
  8
001
370
    50
100
AcDbVertex
100
AcDb2dVertex
 10
139.115233
 20
139.561949
 30
0.0
  0
VERTEX
  5
3BE
330
3A0
100
AcDbEntity
  8
001
370
    50
100
AcDbVertex
100
AcDb2dVertex
 10
138.896077
 20
139.64558
 30
0.0
  0
VERTEX
  5
3BF
330
3A0
100
AcDbEntity
  8
001
370
    50
100
AcDbVertex
100
AcDb2dVertex
 10
138.695247
 20
139.701076
 30
0.0
  0
VERTEX
  5
3C0
330
3A0
100
AcDbEntity
  8
001
370
    50
100
AcDbVertex
100
AcDb2dVertex
 10
138.519772
 20
139.739784
 30
0.0
  0
SEQEND
  5
3A1
330
3A0
100
AcDbEntity
  8
001
370
    50
  0
POLYLINE
  5
3C1
330
1F
100
AcDbEntity
  8
001
370
    50
100
AcDb2dPolyline
 66
     1
 10
0.0
 20
0.0
 30
0.0
  0
VERTEX
  5
3C3
330
3C1
100
AcDbEntity
  8
001
370
    50
100
AcDbVertex
100
AcDb2dVertex
 10
137.044716
 20
139.009399
 30
0.0
  0
VERTEX
  5
3C4
330
3C1
100
AcDbEntity
  8
001
370
    50
100
AcDbVertex
100
AcDb2dVertex
 10
136.901093
 20
138.91588
 30
0.0
  0
VERTEX
  5
3C5
330
3C1
100
AcDbEntity
  8
001
370
    50
100
AcDbVertex
100
AcDb2dVertex
 10
136.698195
 20
138.774902
 30
0.0
  0
SEQEND
  5
3C2
330
3C1
100
AcDbEntity
  8
001
370
    50
  0
LINE
  5
3C6
330
1F
100
AcDbEntity
  8
001
370
    50
100
AcDbLine
 10
140.55435
 20
139.111453
 30
0.0
 11
140.682115
 21
138.978006
 31
0.0
  0
POLYLINE
  5
3C7
330
1F
100
AcDbEntity
  8
001
370
    50
100
AcDb2dPolyline
 66
     1
 10
0.0
 20
0.0
 30
0.0
  0
VERTEX
  5
3C9
330
3C7
100
AcDbEntity
  8
001
370
    50
100
AcDbVertex
100
AcDb2dVertex
 10
135.219269
 20
127.204
 30
0.0
  0
VERTEX
  5
3CA
330
3C7
100
AcDbEntity
  8
001
370
    50
100
AcDbVertex
100
AcDb2dVertex
 10
137.325286
 20
127.267135
 30
0.0
  0
VERTEX
  5
3CB
330
3C7
100
AcDbEntity
  8
001
370
    50
100
AcDbVertex
100
AcDb2dVertex
 10
138.753881
 20
127.314378
 30
0.0
  0
SEQEND
  5
3C8
330
3C7
100
AcDbEntity
  8
001
370
    50
  0
LINE
  5
3CC
330
1F
100
AcDbEntity
  8
001
370
    50
100
AcDbLine
 10
138.753881
 20
134.063225
 30
0.0
 11
138.753881
 21
134.860681
 31
0.0
  0
POLYLINE
  5
3CD
330
1F
100
AcDbEntity
  8
001
370
    50
100
AcDb2dPolyline
 66
     1
 10
0.0
 20
0.0
 30
0.0
  0
VERTEX
  5
3CF
330
3CD
100
AcDbEntity
  8
001
370
    50
100
AcDbVertex
100
AcDb2dVertex
 10
140.352202
 20
135.377724
 30
0.0
  0
VERTEX
  5
3D0
330
3CD
100
AcDbEntity
  8
001
370
    50
100
AcDbVertex
100
AcDb2dVertex
 10
140.260847
 20
134.266232
 30
0.0
  0
VERTEX
  5
3D1
330
3CD
100
AcDbEntity
  8
001
370
    50
100
AcDbVertex
100
AcDb2dVertex
 10
140.130542
 20
132.632745
 30
0.0
  0
SEQEND
  5
3CE
330
3CD
100
AcDbEntity
  8
001
370
    50
  0
POLYLINE
  5
3D2
330
1F
100
AcDbEntity
  8
001
370
    50
100
AcDb2dPolyline
 66
     1
 10
0.0
 20
0.0
 30
0.0
  0
VERTEX
  5
3D4
330
3D2
100
AcDbEntity
  8
001
370
    50
100
AcDbVertex
100
AcDb2dVertex
 10
139.776478
 20
127.820762
 30
0.0
  0
VERTEX
  5
3D5
330
3D2
100
AcDbEntity
  8
001
370
    50
100
AcDbVertex
100
AcDb2dVertex
 10
139.74614
 20
127.38061
 30
0.0
  0
VERTEX
  5
3D6
330
3D2
100
AcDbEntity
  8
001
370
    50
100
AcDbVertex
100
AcDb2dVertex
 10
139.722973
 20
127.040455
 30
0.0
  0
SEQEND
  5
3D3
330
3D2
100
AcDbEntity
  8
001
370
    50
  0
LINE
  5
3D7
330
1F
100
AcDbEntity
  8
001
370
    50
100
AcDbLine
 10
138.753881
 20
127.314378
 30
0.0
 11
138.753881
 21
127.699585
 31
0.0
  0
LINE
  5
3D8
330
1F
100
AcDbEntity
  8
001
370
    50
100
AcDbLine
 10
156.581307
 20
144.428561
 30
0.0
 11
156.581307
 21
164.903223
 31
0.0
  0
LINE
  5
3D9
330
1F
100
AcDbEntity
  8
001
370
    50
100
AcDbLine
 10
151.73597
 20
147.899849
 30
0.0
 11
151.73597
 21
159.903223
 31
0.0
  0
LINE
  5
3DA
330
1F
100
AcDbEntity
  8
001
370
    50
100
AcDbLine
 10
200.63597
 20
127.453223
 30
0.0
 11
200.63597
 21
159.453223
 31
0.0
  0
LINE
  5
3DB
330
1F
100
AcDbEntity
  8
001
370
    50
100
AcDbLine
 10
200.63597
 20
158.953223
 30
0.0
 11
197.63597
 21
158.953223
 31
0.0
  0
LINE
  5
3DC
330
1F
100
AcDbEntity
  8
001
370
    50
100
AcDbLine
 10
197.63597
 20
127.953223
 30
0.0
 11
200.63597
 21
127.953223
 31
0.0
  0
LINE
  5
3DD
330
1F
100
AcDbEntity
  8
001
370
    50
100
AcDbLine
 10
277.63597
 20
143.453223
 30
0.0
 11
281.100071
 21
145.453223
 31
0.0
  0
LINE
  5
3DE
330
1F
100
AcDbEntity
  8
001
370
    50
100
AcDbLine
 10
277.63597
 20
143.453223
 30
0.0
 11
281.100071
 21
141.453223
 31
0.0
  0
LINE
  5
3DF
330
1F
100
AcDbEntity
  8
001
  6
CENTER
370
     9
100
AcDbLine
 10
126.234694
 20
143.453223
 30
0.0
 11
281.492151
 21
143.453223
 31
0.0
  0
CIRCLE
  5
3E0
330
1F
100
AcDbEntity
  8
001
370
    50
100
AcDbCircle
 10
158.096486
 20
128.63678
 30
0.0
 40
3.25
  0
LINE
  5
3E1
330
1F
100
AcDbEntity
  8
001
370
    50
100
AcDbLine
 10
158.832608
 20
129.91178
 30
0.0
 11
158.529499
 21
130.43678
 31
0.0
  0
LINE
  5
3E2
330
1F
100
AcDbEntity
  8
001
370
    50
100
AcDbLine
 10
157.360365
 20
129.91178
 30
0.0
 11
157.663473
 21
130.43678
 31
0.0
  0
ARC
  5
3E3
330
1F
100
AcDbEntity
  8
001
370
    50
100
AcDbCircle
 10
158.096486
 20
130.18678
 30
0.0
 40
0.5
100
AcDbArc
 50
30.0
 51
150.0
  0
LINE
  5
3E4
330
1F
100
AcDbEntity
  8
001
370
    50
100
AcDbLine
 10
157.360365
 20
129.91178
 30
0.0
 11
156.754147
 21
129.91178
 31
0.0
  0
LINE
  5
3E5
330
1F
100
AcDbEntity
  8
001
370
    50
100
AcDbLine
 10
156.624243
 20
128.63678
 30
0.0
 11
156.321134
 21
129.16178
 31
0.0
  0
ARC
  5
3E6
330
1F
100
AcDbEntity
  8
001
370
    50
100
AcDbCircle
 10
156.754147
 20
129.41178
 30
0.0
 40
0.5
100
AcDbArc
 50
90.0
 51
210.0
  0
LINE
  5
3E7
330
1F
100
AcDbEntity
  8
001
370
    50
100
AcDbLine
 10
156.624243
 20
128.63678
 30
0.0
 11
156.321134
 21
128.11178
 31
0.0
  0
LINE
  5
3E8
330
1F
100
AcDbEntity
  8
001
370
    50
100
AcDbLine
 10
157.360365
 20
127.36178
 30
0.0
 11
156.754147
 21
127.36178
 31
0.0
  0
ARC
  5
3E9
330
1F
100
AcDbEntity
  8
001
370
    50
100
AcDbCircle
 10
156.754147
 20
127.86178
 30
0.0
 40
0.5
100
AcDbArc
 50
150.0
 51
270.0
  0
LINE
  5
3EA
330
1F
100
AcDbEntity
  8
001
370
    50
100
AcDbLine
 10
157.360365
 20
127.36178
 30
0.0
 11
157.663473
 21
126.83678
 31
0.0
  0
LINE
  5
3EB
330
1F
100
AcDbEntity
  8
001
370
    50
100
AcDbLine
 10
158.832608
 20
127.36178
 30
0.0
 11
158.529499
 21
126.83678
 31
0.0
  0
ARC
  5
3EC
330
1F
100
AcDbEntity
  8
001
370
    50
100
AcDbCircle
 10
158.096486
 20
127.08678
 30
0.0
 40
0.5
100
AcDbArc
 50
210.0
 51
330.0
  0
LINE
  5
3ED
330
1F
100
AcDbEntity
  8
001
370
    50
100
AcDbLine
 10
158.832608
 20
127.36178
 30
0.0
 11
159.438825
 21
127.36178
 31
0.0
  0
LINE
  5
3EE
330
1F
100
AcDbEntity
  8
001
370
    50
100
AcDbLine
 10
159.568729
 20
128.63678
 30
0.0
 11
159.871838
 21
128.11178
 31
0.0
  0
ARC
  5
3EF
330
1F
100
AcDbEntity
  8
001
370
    50
100
AcDbCircle
 10
159.438825
 20
127.86178
 30
0.0
 40
0.5
100
AcDbArc
 50
270.0
 51
30.0
  0
LINE
  5
3F0
330
1F
100
AcDbEntity
  8
001
370
    50
100
AcDbLine
 10
159.568729
 20
128.63678
 30
0.0
 11
159.871838
 21
129.16178
 31
0.0
  0
LINE
  5
3F1
330
1F
100
AcDbEntity
  8
001
370
    50
100
AcDbLine
 10
158.832608
 20
129.91178
 30
0.0
 11
159.438825
 21
129.91178
 31
0.0
  0
ARC
  5
3F2
330
1F
100
AcDbEntity
  8
001
370
    50
100
AcDbCircle
 10
159.438825
 20
129.41178
 30
0.0
 40
0.5
100
AcDbArc
 50
330.0
 51
90.0
  0
POLYLINE
  5
3F3
330
1F
100
AcDbEntity
  8
001
370
    50
100
AcDb2dPolyline
 66
     1
 10
0.0
 20
0.0
 30
0.0
  0
VERTEX
  5
3F5
330
3F3
100
AcDbEntity
  8
001
370
    50
100
AcDbVertex
100
AcDb2dVertex
 10
158.081779
 20
132.376317
 30
0.0
  0
VERTEX
  5
3F6
330
3F3
100
AcDbEntity
  8
001
370
    50
100
AcDbVertex
100
AcDb2dVertex
 10
157.811032
 20
132.362032
 30
0.0
  0
VERTEX
  5
3F7
330
3F3
100
AcDbEntity
  8
001
370
    50
100
AcDbVertex
100
AcDb2dVertex
 10
157.440491
 20
132.319346
 30
0.0
  0
VERTEX
  5
3F8
330
3F3
100
AcDbEntity
  8
001
370
    50
100
AcDbVertex
100
AcDb2dVertex
 10
157.112122
 20
132.248505
 30
0.0
  0
VERTEX
  5
3F9
330
3F3
100
AcDbEntity
  8
001
370
    50
100
AcDbVertex
100
AcDb2dVertex
 10
156.818689
 20
132.150164
 30
0.0
  0
VERTEX
  5
3FA
330
3F3
100
AcDbEntity
  8
001
370
    50
100
AcDbVertex
100
AcDb2dVertex
 10
156.52458
 20
132.024872
 30
0.0
  0
VERTEX
  5
3FB
330
3F3
100
AcDbEntity
  8
001
370
    50
100
AcDbVertex
100
AcDb2dVertex
 10
156.235265
 20
131.873912
 30
0.0
  0
VERTEX
  5
3FC
330
3F3
100
AcDbEntity
  8
001
370
    50
100
AcDbVertex
100
AcDb2dVertex
 10
155.962392
 20
131.698082
 30
0.0
  0
VERTEX
  5
3FD
330
3F3
100
AcDbEntity
  8
001
370
    50
100
AcDbVertex
100
AcDb2dVertex
 10
155.707946
 20
131.498983
 30
0.0
  0
VERTEX
  5
3FE
330
3F3
100
AcDbEntity
  8
001
370
    50
100
AcDbVertex
100
AcDb2dVertex
 10
155.470535
 20
131.277542
 30
0.0
  0
VERTEX
  5
3FF
330
3F3
100
AcDbEntity
  8
001
370
    50
100
AcDbVertex
100
AcDb2dVertex
 10
155.252755
 20
131.03677
 30
0.0
  0
VERTEX
  5
400
330
3F3
100
AcDbEntity
  8
001
370
    50
100
AcDbVertex
100
AcDb2dVertex
 10
155.056447
 20
130.778048
 30
0.0
  0
VERTEX
  5
401
330
3F3
100
AcDbEntity
  8
001
370
    50
100
AcDbVertex
100
AcDb2dVertex
 10
154.883522
 20
130.501317
 30
0.0
  0
VERTEX
  5
402
330
3F3
100
AcDbEntity
  8
001
370
    50
100
AcDbVertex
100
AcDb2dVertex
 10
154.734716
 20
130.20727
 30
0.0
  0
VERTEX
  5
403
330
3F3
100
AcDbEntity
  8
001
370
    50
100
AcDbVertex
100
AcDb2dVertex
 10
154.611467
 20
129.908892
 30
0.0
  0
VERTEX
  5
404
330
3F3
100
AcDbEntity
  8
001
370
    50
100
AcDbVertex
100
AcDb2dVertex
 10
154.514562
 20
129.610673
 30
0.0
  0
VERTEX
  5
405
330
3F3
100
AcDbEntity
  8
001
370
    50
100
AcDbVertex
100
AcDb2dVertex
 10
154.444855
 20
129.277497
 30
0.0
  0
VERTEX
  5
406
330
3F3
100
AcDbEntity
  8
001
370
    50
100
AcDbVertex
100
AcDb2dVertex
 10
154.402809
 20
128.901196
 30
0.0
  0
VERTEX
  5
407
330
3F3
100
AcDbEntity
  8
001
370
    50
100
AcDbVertex
100
AcDb2dVertex
 10
154.38875
 20
128.626317
 30
0.0
  0
SEQEND
  5
3F4
330
3F3
100
AcDbEntity
  8
001
370
    50
  0
LINE
  5
408
330
1F
100
AcDbEntity
  8
001
370
    50
100
AcDbLine
 10
153.499804
 20
130.500948
 30
0.0
 11
150.921042
 21
127.89335
 31
0.0
  0
LINE
  5
409
330
1F
100
AcDbEntity
  8
001
370
    50
100
AcDbLine
 10
153.499804
 20
130.500948
 30
0.0
 11
153.533153
 21
132.988335
 31
0.0
  0
LINE
  5
40A
330
1F
100
AcDbEntity
  8
001
370
    50
100
AcDbLine
 10
156.412493
 20
135.899872
 30
0.0
 11
153.533153
 21
132.988335
 31
0.0
  0
POLYLINE
  5
40B
330
1F
100
AcDbEntity
  8
001
370
    50
100
AcDb2dPolyline
 66
     1
 10
0.0
 20
0.0
 30
0.0
  0
VERTEX
  5
40D
330
40B
100
AcDbEntity
  8
001
370
    50
100
AcDbVertex
100
AcDb2dVertex
 10
157.518317
 20
135.89752
 30
0.0
  0
VERTEX
  5
40E
330
40B
100
AcDbEntity
  8
001
370
    50
100
AcDbVertex
100
AcDb2dVertex
 10
157.470194
 20
135.941177
 30
0.0
  0
VERTEX
  5
40F
330
40B
100
AcDbEntity
  8
001
370
    50
100
AcDbVertex
100
AcDb2dVertex
 10
157.400029
 20
135.996516
 30
0.0
  0
VERTEX
  5
410
330
40B
100
AcDbEntity
  8
001
370
    50
100
AcDbVertex
100
AcDb2dVertex
 10
157.332041
 20
136.039021
 30
0.0
  0
VERTEX
  5
411
330
40B
100
AcDbEntity
  8
001
370
    50
100
AcDbVertex
100
AcDb2dVertex
 10
157.264994
 20
136.070176
 30
0.0
  0
VERTEX
  5
412
330
40B
100
AcDbEntity
  8
001
370
    50
100
AcDbVertex
100
AcDb2dVertex
 10
157.193452
 20
136.095955
 30
0.0
  0
VERTEX
  5
413
330
40B
100
AcDbEntity
  8
001
370
    50
100
AcDbVertex
100
AcDb2dVertex
 10
157.118402
 20
136.115672
 30
0.0
  0
VERTEX
  5
414
330
40B
100
AcDbEntity
  8
001
370
    50
100
AcDbVertex
100
AcDb2dVertex
 10
157.042324
 20
136.127384
 30
0.0
  0
VERTEX
  5
415
330
40B
100
AcDbEntity
  8
001
370
    50
100
AcDbVertex
100
AcDb2dVertex
 10
156.965885
 20
136.131252
 30
0.0
  0
VERTEX
  5
416
330
40B
100
AcDbEntity
  8
001
370
    50
100
AcDbVertex
100
AcDb2dVertex
 10
156.889432
 20
136.127709
 30
0.0
  0
VERTEX
  5
417
330
40B
100
AcDbEntity
  8
001
370
    50
100
AcDbVertex
100
AcDb2dVertex
 10
156.813305
 20
136.11632
 30
0.0
  0
VERTEX
  5
418
330
40B
100
AcDbEntity
  8
001
370
    50
100
AcDbVertex
100
AcDb2dVertex
 10
156.738175
 20
136.096924
 30
0.0
  0
VERTEX
  5
419
330
40B
100
AcDbEntity
  8
001
370
    50
100
AcDbVertex
100
AcDb2dVertex
 10
156.666527
 20
136.071449
 30
0.0
  0
VERTEX
  5
41A
330
40B
100
AcDbEntity
  8
001
370
    50
100
AcDbVertex
100
AcDb2dVertex
 10
156.599352
 20
136.040579
 30
0.0
  0
VERTEX
  5
41B
330
40B
100
AcDbEntity
  8
001
370
    50
100
AcDbVertex
100
AcDb2dVertex
 10
156.531189
 20
135.998363
 30
0.0
  0
VERTEX
  5
41C
330
40B
100
AcDbEntity
  8
001
370
    50
100
AcDbVertex
100
AcDb2dVertex
 10
156.460796
 20
135.943324
 30
0.0
  0
VERTEX
  5
41D
330
40B
100
AcDbEntity
  8
001
370
    50
100
AcDbVertex
100
AcDb2dVertex
 10
156.412493
 20
135.899872
 30
0.0
  0
SEQEND
  5
40C
330
40B
100
AcDbEntity
  8
001
370
    50
  0
LINE
  5
41E
330
1F
100
AcDbEntity
  8
001
370
    50
100
AcDbLine
 10
160.088476
 20
133.276757
 30
0.0
 11
157.518317
 21
135.89752
 31
0.0
  0
LINE
  5
41F
330
1F
100
AcDbEntity
  8
001
370
    50
100
AcDbLine
 10
162.377528
 20
133.245112
 30
0.0
 11
160.088476
 21
133.276757
 31
0.0
  0
LINE
  5
420
330
1F
100
AcDbEntity
  8
001
370
    50
100
AcDbLine
 10
165.244832
 20
130.321354
 30
0.0
 11
162.377528
 21
133.245112
 31
0.0
  0
POLYLINE
  5
421
330
1F
100
AcDbEntity
  8
001
370
    50
100
AcDb2dPolyline
 66
     1
 10
0.0
 20
0.0
 30
0.0
  0
VERTEX
  5
423
330
421
100
AcDbEntity
  8
001
370
    50
100
AcDbVertex
100
AcDb2dVertex
 10
165.242516
 20
129.198471
 30
0.0
  0
VERTEX
  5
424
330
421
100
AcDbEntity
  8
001
370
    50
100
AcDbVertex
100
AcDb2dVertex
 10
165.281049
 20
129.241707
 30
0.0
  0
VERTEX
  5
425
330
421
100
AcDbEntity
  8
001
370
    50
100
AcDbVertex
100
AcDb2dVertex
 10
165.330347
 20
129.304307
 30
0.0
  0
VERTEX
  5
426
330
421
100
AcDbEntity
  8
001
370
    50
100
AcDbVertex
100
AcDb2dVertex
 10
165.369205
 20
129.364773
 30
0.0
  0
VERTEX
  5
427
330
421
100
AcDbEntity
  8
001
370
    50
100
AcDbVertex
100
AcDb2dVertex
 10
165.398745
 20
129.424023
 30
0.0
  0
VERTEX
  5
428
330
421
100
AcDbEntity
  8
001
370
    50
100
AcDbVertex
100
AcDb2dVertex
 10
165.424432
 20
129.487432
 30
0.0
  0
VERTEX
  5
429
330
421
100
AcDbEntity
  8
001
370
    50
100
AcDbVertex
100
AcDb2dVertex
 10
165.44563
 20
129.55398
 30
0.0
  0
VERTEX
  5
42A
330
421
100
AcDbEntity
  8
001
370
    50
100
AcDbVertex
100
AcDb2dVertex
 10
165.460695
 20
129.62173
 30
0.0
  0
VERTEX
  5
42B
330
421
100
AcDbEntity
  8
001
370
    50
100
AcDbVertex
100
AcDb2dVertex
 10
165.46958
 20
129.69023
 30
0.0
  0
VERTEX
  5
42C
330
421
100
AcDbEntity
  8
001
370
    50
100
AcDbVertex
100
AcDb2dVertex
 10
165.472617
 20
129.759425
 30
0.0
  0
VERTEX
  5
42D
330
421
100
AcDbEntity
  8
001
370
    50
100
AcDbVertex
100
AcDb2dVertex
 10
165.469865
 20
129.828633
 30
0.0
  0
VERTEX
  5
42E
330
421
100
AcDbEntity
  8
001
370
    50
100
AcDbVertex
100
AcDb2dVertex
 10
165.461263
 20
129.897171
 30
0.0
  0
VERTEX
  5
42F
330
421
100
AcDbEntity
  8
001
370
    50
100
AcDbVertex
100
AcDb2dVertex
 10
165.446478
 20
129.964984
 30
0.0
  0
VERTEX
  5
430
330
421
100
AcDbEntity
  8
001
370
    50
100
AcDbVertex
100
AcDb2dVertex
 10
165.425554
 20
130.031622
 30
0.0
  0
VERTEX
  5
431
330
421
100
AcDbEntity
  8
001
370
    50
100
AcDbVertex
100
AcDb2dVertex
 10
165.400129
 20
130.095139
 30
0.0
  0
VERTEX
  5
432
330
421
100
AcDbEntity
  8
001
370
    50
100
AcDbVertex
100
AcDb2dVertex
 10
165.370834
 20
130.154514
 30
0.0
  0
VERTEX
  5
433
330
421
100
AcDbEntity
  8
001
370
    50
100
AcDbVertex
100
AcDb2dVertex
 10
165.332226
 20
130.215145
 30
0.0
  0
VERTEX
  5
434
330
421
100
AcDbEntity
  8
001
370
    50
100
AcDbVertex
100
AcDb2dVertex
 10
165.283186
 20
130.277954
 30
0.0
  0
VERTEX
  5
435
330
421
100
AcDbEntity
  8
001
370
    50
100
AcDbVertex
100
AcDb2dVertex
 10
165.244832
 20
130.321354
 30
0.0
  0
SEQEND
  5
422
330
421
100
AcDbEntity
  8
001
370
    50
  0
LINE
  5
436
330
1F
100
AcDbEntity
  8
001
370
    50
100
AcDbLine
 10
162.661569
 20
126.588663
 30
0.0
 11
165.242516
 21
129.198471
 31
0.0
  0
LINE
  5
437
330
1F
100
AcDbEntity
  8
001
370
    50
100
AcDbLine
 10
162.630405
 20
124.264298
 30
0.0
 11
162.661569
 21
126.588663
 31
0.0
  0
LINE
  5
438
330
1F
100
AcDbEntity
  8
001
370
    50
100
AcDbLine
 10
159.744019
 20
121.345637
 30
0.0
 11
162.630405
 21
124.264298
 31
0.0
  0
LINE
  5
439
330
1F
100
AcDbEntity
  8
001
370
    50
100
AcDbLine
 10
156.097298
 20
123.953223
 30
0.0
 11
158.652292
 21
121.347923
 31
0.0
  0
POLYLINE
  5
43A
330
1F
100
AcDbEntity
  8
001
370
    50
100
AcDb2dPolyline
 66
     1
 10
0.0
 20
0.0
 30
0.0
  0
VERTEX
  5
43C
330
43A
100
AcDbEntity
  8
001
370
    50
100
AcDbVertex
100
AcDb2dVertex
 10
154.38875
 20
128.626317
 30
0.0
  0
VERTEX
  5
43D
330
43A
100
AcDbEntity
  8
001
370
    50
100
AcDbVertex
100
AcDb2dVertex
 10
154.406536
 20
128.317228
 30
0.0
  0
VERTEX
  5
43E
330
43A
100
AcDbEntity
  8
001
370
    50
100
AcDbVertex
100
AcDb2dVertex
 10
154.459711
 20
127.894728
 30
0.0
  0
VERTEX
  5
43F
330
43A
100
AcDbEntity
  8
001
370
    50
100
AcDbVertex
100
AcDb2dVertex
 10
154.547761
 20
127.522272
 30
0.0
  0
VERTEX
  5
440
330
43A
100
AcDbEntity
  8
001
370
    50
100
AcDbVertex
100
AcDb2dVertex
 10
154.669865
 20
127.191254
 30
0.0
  0
VERTEX
  5
441
330
43A
100
AcDbEntity
  8
001
370
    50
100
AcDbVertex
100
AcDb2dVertex
 10
154.824644
 20
126.862959
 30
0.0
  0
VERTEX
  5
442
330
43A
100
AcDbEntity
  8
001
370
    50
100
AcDbVertex
100
AcDb2dVertex
 10
155.011138
 20
126.542928
 30
0.0
  0
VERTEX
  5
443
330
43A
100
AcDbEntity
  8
001
370
    50
100
AcDbVertex
100
AcDb2dVertex
 10
155.227173
 20
126.246445
 30
0.0
  0
VERTEX
  5
444
330
43A
100
AcDbEntity
  8
001
370
    50
100
AcDbVertex
100
AcDb2dVertex
 10
155.470413
 20
125.974666
 30
0.0
  0
VERTEX
  5
445
330
43A
100
AcDbEntity
  8
001
370
    50
100
AcDbVertex
100
AcDb2dVertex
 10
155.737632
 20
125.728008
 30
0.0
  0
VERTEX
  5
446
330
43A
100
AcDbEntity
  8
001
370
    50
100
AcDbVertex
100
AcDb2dVertex
 10
156.030042
 20
125.508306
 30
0.0
  0
VERTEX
  5
447
330
43A
100
AcDbEntity
  8
001
370
    50
100
AcDbVertex
100
AcDb2dVertex
 10
156.344859
 20
125.319155
 30
0.0
  0
VERTEX
  5
448
330
43A
100
AcDbEntity
  8
001
370
    50
100
AcDbVertex
100
AcDb2dVertex
 10
156.668518
 20
125.161768
 30
0.0
  0
VERTEX
  5
449
330
43A
100
AcDbEntity
  8
001
370
    50
100
AcDbVertex
100
AcDb2dVertex
 10
156.994152
 20
125.037872
 30
0.0
  0
VERTEX
  5
44A
330
43A
100
AcDbEntity
  8
001
370
    50
100
AcDbVertex
100
AcDb2dVertex
 10
157.361305
 20
124.948372
 30
0.0
  0
VERTEX
  5
44B
330
43A
100
AcDbEntity
  8
001
370
    50
100
AcDbVertex
100
AcDb2dVertex
 10
157.777324
 20
124.894392
 30
0.0
  0
VERTEX
  5
44C
330
43A
100
AcDbEntity
  8
001
370
    50
100
AcDbVertex
100
AcDb2dVertex
 10
158.081779
 20
124.876317
 30
0.0
  0
SEQEND
  5
43B
330
43A
100
AcDbEntity
  8
001
370
    50
  0
POLYLINE
  5
44D
330
1F
100
AcDbEntity
  8
001
370
    50
100
AcDb2dPolyline
 66
     1
 10
0.0
 20
0.0
 30
0.0
  0
VERTEX
  5
44F
330
44D
100
AcDbEntity
  8
001
370
    50
100
AcDbVertex
100
AcDb2dVertex
 10
158.081779
 20
124.876317
 30
0.0
  0
VERTEX
  5
450
330
44D
100
AcDbEntity
  8
001
370
    50
100
AcDbVertex
100
AcDb2dVertex
 10
158.352526
 20
124.8906
 30
0.0
  0
VERTEX
  5
451
330
44D
100
AcDbEntity
  8
001
370
    50
100
AcDbVertex
100
AcDb2dVertex
 10
158.723067
 20
124.933287
 30
0.0
  0
VERTEX
  5
452
330
44D
100
AcDbEntity
  8
001
370
    50
100
AcDbVertex
100
AcDb2dVertex
 10
159.051436
 20
125.004133
 30
0.0
  0
VERTEX
  5
453
330
44D
100
AcDbEntity
  8
001
370
    50
100
AcDbVertex
100
AcDb2dVertex
 10
159.344869
 20
125.102469
 30
0.0
  0
VERTEX
  5
454
330
44D
100
AcDbEntity
  8
001
370
    50
100
AcDbVertex
100
AcDb2dVertex
 10
159.638978
 20
125.227742
 30
0.0
  0
VERTEX
  5
455
330
44D
100
AcDbEntity
  8
001
370
    50
100
AcDbVertex
100
AcDb2dVertex
 10
159.928294
 20
125.378721
 30
0.0
  0
VERTEX
  5
456
330
44D
100
AcDbEntity
  8
001
370
    50
100
AcDbVertex
100
AcDb2dVertex
 10
160.201166
 20
125.554622
 30
0.0
  0
VERTEX
  5
457
330
44D
100
AcDbEntity
  8
001
370
    50
100
AcDbVertex
100
AcDb2dVertex
 10
160.455612
 20
125.75365
 30
0.0
  0
VERTEX
  5
458
330
44D
100
AcDbEntity
  8
001
370
    50
100
AcDbVertex
100
AcDb2dVertex
 10
160.693023
 20
125.974826
 30
0.0
  0
VERTEX
  5
459
330
44D
100
AcDbEntity
  8
001
370
    50
100
AcDbVertex
100
AcDb2dVertex
 10
160.910803
 20
126.215863
 30
0.0
  0
VERTEX
  5
45A
330
44D
100
AcDbEntity
  8
001
370
    50
100
AcDbVertex
100
AcDb2dVertex
 10
161.107111
 20
126.475577
 30
0.0
  0
VERTEX
  5
45B
330
44D
100
AcDbEntity
  8
001
370
    50
100
AcDbVertex
100
AcDb2dVertex
 10
161.280036
 20
126.751317
 30
0.0
  0
VERTEX
  5
45C
330
44D
100
AcDbEntity
  8
001
370
    50
100
AcDbVertex
100
AcDb2dVertex
 10
161.428842
 20
127.041651
 30
0.0
  0
VERTEX
  5
45D
330
44D
100
AcDbEntity
  8
001
370
    50
100
AcDbVertex
100
AcDb2dVertex
 10
161.552091
 20
127.343741
 30
0.0
  0
VERTEX
  5
45E
330
44D
100
AcDbEntity
  8
001
370
    50
100
AcDbVertex
100
AcDb2dVertex
 10
161.648996
 20
127.655851
 30
0.0
  0
VERTEX
  5
45F
330
44D
100
AcDbEntity
  8
001
370
    50
100
AcDbVertex
100
AcDb2dVertex
 10
161.718703
 20
127.975136
 30
0.0
  0
VERTEX
  5
460
330
44D
100
AcDbEntity
  8
001
370
    50
100
AcDbVertex
100
AcDb2dVertex
 10
161.760749
 20
128.29952
 30
0.0
  0
VERTEX
  5
461
330
44D
100
AcDbEntity
  8
001
370
    50
100
AcDbVertex
100
AcDb2dVertex
 10
161.774808
 20
128.626317
 30
0.0
  0
VERTEX
  5
462
330
44D
100
AcDbEntity
  8
001
370
    50
100
AcDbVertex
100
AcDb2dVertex
 10
161.760749
 20
128.953113
 30
0.0
  0
VERTEX
  5
463
330
44D
100
AcDbEntity
  8
001
370
    50
100
AcDbVertex
100
AcDb2dVertex
 10
161.718703
 20
129.277497
 30
0.0
  0
VERTEX
  5
464
330
44D
100
AcDbEntity
  8
001
370
    50
100
AcDbVertex
100
AcDb2dVertex
 10
161.648996
 20
129.596782
 30
0.0
  0
VERTEX
  5
465
330
44D
100
AcDbEntity
  8
001
370
    50
100
AcDbVertex
100
AcDb2dVertex
 10
161.552091
 20
129.908892
 30
0.0
  0
VERTEX
  5
466
330
44D
100
AcDbEntity
  8
001
370
    50
100
AcDbVertex
100
AcDb2dVertex
 10
161.428842
 20
130.210982
 30
0.0
  0
VERTEX
  5
467
330
44D
100
AcDbEntity
  8
001
370
    50
100
AcDbVertex
100
AcDb2dVertex
 10
161.280036
 20
130.501317
 30
0.0
  0
VERTEX
  5
468
330
44D
100
AcDbEntity
  8
001
370
    50
100
AcDbVertex
100
AcDb2dVertex
 10
161.107111
 20
130.777057
 30
0.0
  0
VERTEX
  5
469
330
44D
100
AcDbEntity
  8
001
370
    50
100
AcDbVertex
100
AcDb2dVertex
 10
160.910803
 20
131.03677
 30
0.0
  0
VERTEX
  5
46A
330
44D
100
AcDbEntity
  8
001
370
    50
100
AcDbVertex
100
AcDb2dVertex
 10
160.693023
 20
131.277807
 30
0.0
  0
VERTEX
  5
46B
330
44D
100
AcDbEntity
  8
001
370
    50
100
AcDbVertex
100
AcDb2dVertex
 10
160.455612
 20
131.498983
 30
0.0
  0
VERTEX
  5
46C
330
44D
100
AcDbEntity
  8
001
370
    50
100
AcDbVertex
100
AcDb2dVertex
 10
160.201166
 20
131.698011
 30
0.0
  0
VERTEX
  5
46D
330
44D
100
AcDbEntity
  8
001
370
    50
100
AcDbVertex
100
AcDb2dVertex
 10
159.928294
 20
131.873912
 30
0.0
  0
VERTEX
  5
46E
330
44D
100
AcDbEntity
  8
001
370
    50
100
AcDbVertex
100
AcDb2dVertex
 10
159.638978
 20
132.024891
 30
0.0
  0
VERTEX
  5
46F
330
44D
100
AcDbEntity
  8
001
370
    50
100
AcDbVertex
100
AcDb2dVertex
 10
159.344869
 20
132.150164
 30
0.0
  0
VERTEX
  5
470
330
44D
100
AcDbEntity
  8
001
370
    50
100
AcDbVertex
100
AcDb2dVertex
 10
159.051436
 20
132.2485
 30
0.0
  0
VERTEX
  5
471
330
44D
100
AcDbEntity
  8
001
370
    50
100
AcDbVertex
100
AcDb2dVertex
 10
158.723067
 20
132.319346
 30
0.0
  0
VERTEX
  5
472
330
44D
100
AcDbEntity
  8
001
370
    50
100
AcDbVertex
100
AcDb2dVertex
 10
158.352526
 20
132.362033
 30
0.0
  0
VERTEX
  5
473
330
44D
100
AcDbEntity
  8
001
370
    50
100
AcDbVertex
100
AcDb2dVertex
 10
158.081779
 20
132.376317
 30
0.0
  0
SEQEND
  5
44E
330
44D
100
AcDbEntity
  8
001
370
    50
  0
POLYLINE
  5
474
330
1F
100
AcDbEntity
  8
001
370
    50
100
AcDb2dPolyline
 66
     1
 10
0.0
 20
0.0
 30
0.0
  0
VERTEX
  5
476
330
474
100
AcDbEntity
  8
001
370
    50
100
AcDbVertex
100
AcDb2dVertex
 10
166.02419
 20
122.365881
 30
0.0
  0
VERTEX
  5
477
330
474
100
AcDbEntity
  8
001
370
    50
100
AcDbVertex
100
AcDb2dVertex
 10
166.030291
 20
122.363449
 30
0.0
  0
VERTEX
  5
478
330
474
100
AcDbEntity
  8
001
370
    50
100
AcDbVertex
100
AcDb2dVertex
 10
166.039213
 20
122.359906
 30
0.0
  0
VERTEX
  5
479
330
474
100
AcDbEntity
  8
001
370
    50
100
AcDbVertex
100
AcDb2dVertex
 10
166.048134
 20
122.356382
 30
0.0
  0
VERTEX
  5
47A
330
474
100
AcDbEntity
  8
001
370
    50
100
AcDbVertex
100
AcDb2dVertex
 10
166.054241
 20
122.35398
 30
0.0
  0
SEQEND
  5
475
330
474
100
AcDbEntity
  8
001
370
    50
  0
LINE
  5
47B
330
1F
100
AcDbEntity
  8
001
370
    50
100
AcDbLine
 10
166.739178
 20
122.399989
 30
0.0
 11
166.054241
 21
122.35398
 31
0.0
  0
POLYLINE
  5
47C
330
1F
100
AcDbEntity
  8
001
370
    50
100
AcDb2dPolyline
 66
     1
 10
0.0
 20
0.0
 30
0.0
  0
VERTEX
  5
47E
330
47C
100
AcDbEntity
  8
001
370
    50
100
AcDbVertex
100
AcDb2dVertex
 10
167.740178
 20
122.474865
 30
0.0
  0
VERTEX
  5
47F
330
47C
100
AcDbEntity
  8
001
370
    50
100
AcDbVertex
100
AcDb2dVertex
 10
167.384883
 20
122.449186
 30
0.0
  0
VERTEX
  5
480
330
47C
100
AcDbEntity
  8
001
370
    50
100
AcDbVertex
100
AcDb2dVertex
 10
167.029654
 20
122.422653
 30
0.0
  0
VERTEX
  5
481
330
47C
100
AcDbEntity
  8
001
370
    50
100
AcDbVertex
100
AcDb2dVertex
 10
166.88441
 20
122.411393
 30
0.0
  0
VERTEX
  5
482
330
47C
100
AcDbEntity
  8
001
370
    50
100
AcDbVertex
100
AcDb2dVertex
 10
166.739178
 20
122.399989
 30
0.0
  0
SEQEND
  5
47D
330
47C
100
AcDbEntity
  8
001
370
    50
  0
POLYLINE
  5
483
330
1F
100
AcDbEntity
  8
001
370
    50
100
AcDb2dPolyline
 66
     1
 10
0.0
 20
0.0
 30
0.0
  0
VERTEX
  5
485
330
483
100
AcDbEntity
  8
001
370
    50
100
AcDbVertex
100
AcDb2dVertex
 10
168.741178
 20
122.556131
 30
0.0
  0
VERTEX
  5
486
330
483
100
AcDbEntity
  8
001
370
    50
100
AcDbVertex
100
AcDb2dVertex
 10
168.385875
 20
122.528318
 30
0.0
  0
VERTEX
  5
487
330
483
100
AcDbEntity
  8
001
370
    50
100
AcDbVertex
100
AcDb2dVertex
 10
168.030654
 20
122.499524
 30
0.0
  0
VERTEX
  5
488
330
483
100
AcDbEntity
  8
001
370
    50
100
AcDbVertex
100
AcDb2dVertex
 10
167.885409
 20
122.487277
 30
0.0
  0
VERTEX
  5
489
330
483
100
AcDbEntity
  8
001
370
    50
100
AcDbVertex
100
AcDb2dVertex
 10
167.740178
 20
122.474865
 30
0.0
  0
SEQEND
  5
484
330
483
100
AcDbEntity
  8
001
370
    50
  0
LINE
  5
48A
330
1F
100
AcDbEntity
  8
001
370
    50
100
AcDbLine
 10
158.900397
 20
137.871613
 30
0.0
 11
158.885277
 21
137.876352
 31
0.0
  0
LINE
  5
48B
330
1F
100
AcDbEntity
  8
001
370
    50
100
AcDbLine
 10
158.357447
 20
137.977205
 30
0.0
 11
158.158067
 21
137.985237
 31
0.0
  0
POLYLINE
  5
48C
330
1F
100
AcDbEntity
  8
001
370
    50
100
AcDb2dPolyline
 66
     1
 10
0.0
 20
0.0
 30
0.0
  0
VERTEX
  5
48E
330
48C
100
AcDbEntity
  8
001
370
    50
100
AcDbVertex
100
AcDb2dVertex
 10
150.027927
 20
127.121381
 30
0.0
  0
VERTEX
  5
48F
330
48C
100
AcDbEntity
  8
001
370
    50
100
AcDbVertex
100
AcDb2dVertex
 10
150.06502
 20
127.079107
 30
0.0
  0
VERTEX
  5
490
330
48C
100
AcDbEntity
  8
001
370
    50
100
AcDbVertex
100
AcDb2dVertex
 10
150.130523
 20
127.032789
 30
0.0
  0
VERTEX
  5
491
330
48C
100
AcDbEntity
  8
001
370
    50
100
AcDbVertex
100
AcDb2dVertex
 10
150.222621
 20
127.006981
 30
0.0
  0
VERTEX
  5
492
330
48C
100
AcDbEntity
  8
001
370
    50
100
AcDbVertex
100
AcDb2dVertex
 10
150.290207
 20
127.003223
 30
0.0
  0
SEQEND
  5
48D
330
48C
100
AcDbEntity
  8
001
370
    50
  0
LINE
  5
493
330
1F
100
AcDbEntity
  8
001
370
    50
100
AcDbLine
 10
146.388396
 20
127.276798
 30
0.0
 11
148.000801
 21
127.201268
 31
0.0
  0
LINE
  5
494
330
1F
100
AcDbEntity
  8
001
370
    50
100
AcDbLine
 10
149.001801
 20
127.159329
 30
0.0
 11
148.000801
 21
127.201268
 31
0.0
  0
LINE
  5
495
330
1F
100
AcDbEntity
  8
001
370
    50
100
AcDbLine
 10
150.002801
 20
127.122353
 30
0.0
 11
149.001801
 21
127.159329
 31
0.0
  0
LINE
  5
496
330
1F
100
AcDbEntity
  8
001
370
    50
100
AcDbLine
 10
150.027927
 20
127.121381
 30
0.0
 11
150.002801
 21
127.122353
 31
0.0
  0
POLYLINE
  5
497
330
1F
100
AcDbEntity
  8
001
370
    50
100
AcDb2dPolyline
 66
     1
 10
0.0
 20
0.0
 30
0.0
  0
VERTEX
  5
499
330
497
100
AcDbEntity
  8
001
370
    50
100
AcDbVertex
100
AcDb2dVertex
 10
150.290207
 20
127.003223
 30
0.0
  0
VERTEX
  5
49A
330
497
100
AcDbEntity
  8
001
370
    50
100
AcDbVertex
100
AcDb2dVertex
 10
150.341214
 20
127.005713
 30
0.0
  0
VERTEX
  5
49B
330
497
100
AcDbEntity
  8
001
370
    50
100
AcDbVertex
100
AcDb2dVertex
 10
150.415268
 20
127.014204
 30
0.0
  0
VERTEX
  5
49C
330
497
100
AcDbEntity
  8
001
370
    50
100
AcDbVertex
100
AcDb2dVertex
 10
150.502286
 20
127.031714
 30
0.0
  0
VERTEX
  5
49D
330
497
100
AcDbEntity
  8
001
370
    50
100
AcDbVertex
100
AcDb2dVertex
 10
150.561151
 20
127.047131
 30
0.0
  0
SEQEND
  5
498
330
497
100
AcDbEntity
  8
001
370
    50
  0
POLYLINE
  5
49E
330
1F
100
AcDbEntity
  8
001
370
    50
100
AcDb2dPolyline
 66
     1
 10
0.0
 20
0.0
 30
0.0
  0
VERTEX
  5
4A0
330
49E
100
AcDbEntity
  8
001
370
    50
100
AcDbVertex
100
AcDb2dVertex
 10
153.150712
 20
132.542052
 30
0.0
  0
VERTEX
  5
4A1
330
49E
100
AcDbEntity
  8
001
370
    50
100
AcDbVertex
100
AcDb2dVertex
 10
153.20789
 20
132.600402
 30
0.0
  0
VERTEX
  5
4A2
330
49E
100
AcDbEntity
  8
001
370
    50
100
AcDbVertex
100
AcDb2dVertex
 10
153.291407
 20
132.685731
 30
0.0
  0
VERTEX
  5
4A3
330
49E
100
AcDbEntity
  8
001
370
    50
100
AcDbVertex
100
AcDb2dVertex
 10
153.375071
 20
132.771351
 30
0.0
  0
VERTEX
  5
4A4
330
49E
100
AcDbEntity
  8
001
370
    50
100
AcDbVertex
100
AcDb2dVertex
 10
153.432281
 20
132.829967
 30
0.0
  0
SEQEND
  5
49F
330
49E
100
AcDbEntity
  8
001
370
    50
  0
POLYLINE
  5
4A5
330
1F
100
AcDbEntity
  8
001
370
    50
100
AcDb2dPolyline
 66
     1
 10
0.0
 20
0.0
 30
0.0
  0
VERTEX
  5
4A7
330
4A5
100
AcDbEntity
  8
001
370
    50
100
AcDbVertex
100
AcDb2dVertex
 10
153.150712
 20
132.542052
 30
0.0
  0
VERTEX
  5
4A8
330
4A5
100
AcDbEntity
  8
001
370
    50
100
AcDbVertex
100
AcDb2dVertex
 10
153.005248
 20
132.376838
 30
0.0
  0
VERTEX
  5
4A9
330
4A5
100
AcDbEntity
  8
001
370
    50
100
AcDbVertex
100
AcDb2dVertex
 10
152.868437
 20
132.204994
 30
0.0
  0
VERTEX
  5
4AA
330
4A5
100
AcDbEntity
  8
001
370
    50
100
AcDbVertex
100
AcDb2dVertex
 10
152.744285
 20
132.016449
 30
0.0
  0
VERTEX
  5
4AB
330
4A5
100
AcDbEntity
  8
001
370
    50
100
AcDbVertex
100
AcDb2dVertex
 10
152.637157
 20
131.81732
 30
0.0
  0
VERTEX
  5
4AC
330
4A5
100
AcDbEntity
  8
001
370
    50
100
AcDbVertex
100
AcDb2dVertex
 10
152.543527
 20
131.604007
 30
0.0
  0
VERTEX
  5
4AD
330
4A5
100
AcDbEntity
  8
001
370
    50
100
AcDbVertex
100
AcDb2dVertex
 10
152.467201
 20
131.383934
 30
0.0
  0
VERTEX
  5
4AE
330
4A5
100
AcDbEntity
  8
001
370
    50
100
AcDbVertex
100
AcDb2dVertex
 10
152.407536
 20
131.150975
 30
0.0
  0
VERTEX
  5
4AF
330
4A5
100
AcDbEntity
  8
001
370
    50
100
AcDbVertex
100
AcDb2dVertex
 10
152.369758
 20
130.913779
 30
0.0
  0
VERTEX
  5
4B0
330
4A5
100
AcDbEntity
  8
001
370
    50
100
AcDbVertex
100
AcDb2dVertex
 10
152.357675
 20
130.764857
 30
0.0
  0
VERTEX
  5
4B1
330
4A5
100
AcDbEntity
  8
001
370
    50
100
AcDbVertex
100
AcDb2dVertex
 10
152.350404
 20
130.615503
 30
0.0
  0
SEQEND
  5
4A6
330
4A5
100
AcDbEntity
  8
001
370
    50
  0
POLYLINE
  5
4B2
330
1F
100
AcDbEntity
  8
001
370
    50
100
AcDb2dPolyline
 66
     1
 10
0.0
 20
0.0
 30
0.0
  0
VERTEX
  5
4B4
330
4B2
100
AcDbEntity
  8
001
370
    50
100
AcDbVertex
100
AcDb2dVertex
 10
153.18687
 20
131.995063
 30
0.0
  0
VERTEX
  5
4B5
330
4B2
100
AcDbEntity
  8
001
370
    50
100
AcDbVertex
100
AcDb2dVertex
 10
153.079962
 20
131.874157
 30
0.0
  0
VERTEX
  5
4B6
330
4B2
100
AcDbEntity
  8
001
370
    50
100
AcDbVertex
100
AcDb2dVertex
 10
152.944467
 20
131.697289
 30
0.0
  0
VERTEX
  5
4B7
330
4B2
100
AcDbEntity
  8
001
370
    50
100
AcDbVertex
100
AcDb2dVertex
 10
152.839778
 20
131.523888
 30
0.0
  0
VERTEX
  5
4B8
330
4B2
100
AcDbEntity
  8
001
370
    50
100
AcDbVertex
100
AcDb2dVertex
 10
152.762967
 20
131.357746
 30
0.0
  0
VERTEX
  5
4B9
330
4B2
100
AcDbEntity
  8
001
370
    50
100
AcDbVertex
100
AcDb2dVertex
 10
152.698884
 20
131.185881
 30
0.0
  0
VERTEX
  5
4BA
330
4B2
100
AcDbEntity
  8
001
370
    50
100
AcDbVertex
100
AcDb2dVertex
 10
152.649145
 20
130.989104
 30
0.0
  0
VERTEX
  5
4BB
330
4B2
100
AcDbEntity
  8
001
370
    50
100
AcDbVertex
100
AcDb2dVertex
 10
152.618329
 20
130.767107
 30
0.0
  0
VERTEX
  5
4BC
330
4B2
100
AcDbEntity
  8
001
370
    50
100
AcDbVertex
100
AcDb2dVertex
 10
152.607246
 20
130.605117
 30
0.0
  0
SEQEND
  5
4B3
330
4B2
100
AcDbEntity
  8
001
370
    50
  0
POLYLINE
  5
4BD
330
1F
100
AcDbEntity
  8
001
370
    50
100
AcDb2dPolyline
 66
     1
 10
0.0
 20
0.0
 30
0.0
  0
VERTEX
  5
4BF
330
4BD
100
AcDbEntity
  8
001
370
    50
100
AcDbVertex
100
AcDb2dVertex
 10
155.720969
 20
136.14749
 30
0.0
  0
VERTEX
  5
4C0
330
4BD
100
AcDbEntity
  8
001
370
    50
100
AcDbVertex
100
AcDb2dVertex
 10
155.678839
 20
135.968653
 30
0.0
  0
VERTEX
  5
4C1
330
4BD
100
AcDbEntity
  8
001
370
    50
100
AcDbVertex
100
AcDb2dVertex
 10
155.64475
 20
135.788346
 30
0.0
  0
VERTEX
  5
4C2
330
4BD
100
AcDbEntity
  8
001
370
    50
100
AcDbVertex
100
AcDb2dVertex
 10
155.625094
 20
135.601773
 30
0.0
  0
VERTEX
  5
4C3
330
4BD
100
AcDbEntity
  8
001
370
    50
100
AcDbVertex
100
AcDb2dVertex
 10
155.621764
 20
135.414133
 30
0.0
  0
VERTEX
  5
4C4
330
4BD
100
AcDbEntity
  8
001
370
    50
100
AcDbVertex
100
AcDb2dVertex
 10
155.627284
 20
135.296994
 30
0.0
  0
VERTEX
  5
4C5
330
4BD
100
AcDbEntity
  8
001
370
    50
100
AcDbVertex
100
AcDb2dVertex
 10
155.635911
 20
135.180037
 30
0.0
  0
SEQEND
  5
4BE
330
4BD
100
AcDbEntity
  8
001
370
    50
  0
LINE
  5
4C6
330
1F
100
AcDbEntity
  8
001
370
    50
100
AcDbLine
 10
158.158067
 20
137.985237
 30
0.0
 11
157.89483
 21
137.971245
 31
0.0
  0
POLYLINE
  5
4C7
330
1F
100
AcDbEntity
  8
001
370
    50
100
AcDb2dPolyline
 66
     1
 10
0.0
 20
0.0
 30
0.0
  0
VERTEX
  5
4C9
330
4C7
100
AcDbEntity
  8
001
370
    50
100
AcDbVertex
100
AcDb2dVertex
 10
156.856641
 20
137.622835
 30
0.0
  0
VERTEX
  5
4CA
330
4C7
100
AcDbEntity
  8
001
370
    50
100
AcDbVertex
100
AcDb2dVertex
 10
156.719448
 20
137.532407
 30
0.0
  0
VERTEX
  5
4CB
330
4C7
100
AcDbEntity
  8
001
370
    50
100
AcDbVertex
100
AcDb2dVertex
 10
156.586253
 20
137.436597
 30
0.0
  0
VERTEX
  5
4CC
330
4C7
100
AcDbEntity
  8
001
370
    50
100
AcDbVertex
100
AcDb2dVertex
 10
156.458242
 20
137.329325
 30
0.0
  0
VERTEX
  5
4CD
330
4C7
100
AcDbEntity
  8
001
370
    50
100
AcDbVertex
100
AcDb2dVertex
 10
156.338255
 20
137.212876
 30
0.0
  0
VERTEX
  5
4CE
330
4C7
100
AcDbEntity
  8
001
370
    50
100
AcDbVertex
100
AcDb2dVertex
 10
156.198319
 20
137.05564
 30
0.0
  0
VERTEX
  5
4CF
330
4C7
100
AcDbEntity
  8
001
370
    50
100
AcDbVertex
100
AcDb2dVertex
 10
156.071271
 20
136.887729
 30
0.0
  0
VERTEX
  5
4D0
330
4C7
100
AcDbEntity
  8
001
370
    50
100
AcDbVertex
100
AcDb2dVertex
 10
155.955067
 20
136.7046
 30
0.0
  0
VERTEX
  5
4D1
330
4C7
100
AcDbEntity
  8
001
370
    50
100
AcDbVertex
100
AcDb2dVertex
 10
155.856653
 20
136.511739
 30
0.0
  0
VERTEX
  5
4D2
330
4C7
100
AcDbEntity
  8
001
370
    50
100
AcDbVertex
100
AcDb2dVertex
 10
155.78451
 20
136.331424
 30
0.0
  0
VERTEX
  5
4D3
330
4C7
100
AcDbEntity
  8
001
370
    50
100
AcDbVertex
100
AcDb2dVertex
 10
155.720969
 20
136.14749
 30
0.0
  0
SEQEND
  5
4C8
330
4C7
100
AcDbEntity
  8
001
370
    50
  0
POLYLINE
  5
4D4
330
1F
100
AcDbEntity
  8
001
370
    50
100
AcDb2dPolyline
 66
     1
 10
0.0
 20
0.0
 30
0.0
  0
VERTEX
  5
4D6
330
4D4
100
AcDbEntity
  8
001
370
    50
100
AcDbVertex
100
AcDb2dVertex
 10
157.89483
 20
137.971245
 30
0.0
  0
VERTEX
  5
4D7
330
4D4
100
AcDbEntity
  8
001
370
    50
100
AcDbVertex
100
AcDb2dVertex
 10
157.707254
 20
137.941455
 30
0.0
  0
VERTEX
  5
4D8
330
4D4
100
AcDbEntity
  8
001
370
    50
100
AcDbVertex
100
AcDb2dVertex
 10
157.521442
 20
137.903236
 30
0.0
  0
VERTEX
  5
4D9
330
4D4
100
AcDbEntity
  8
001
370
    50
100
AcDbVertex
100
AcDb2dVertex
 10
157.335004
 20
137.848254
 30
0.0
  0
VERTEX
  5
4DA
330
4D4
100
AcDbEntity
  8
001
370
    50
100
AcDbVertex
100
AcDb2dVertex
 10
157.154343
 20
137.776476
 30
0.0
  0
VERTEX
  5
4DB
330
4D4
100
AcDbEntity
  8
001
370
    50
100
AcDbVertex
100
AcDb2dVertex
 10
157.00403
 20
137.70262
 30
0.0
  0
VERTEX
  5
4DC
330
4D4
100
AcDbEntity
  8
001
370
    50
100
AcDbVertex
100
AcDb2dVertex
 10
156.856641
 20
137.622835
 30
0.0
  0
SEQEND
  5
4D5
330
4D4
100
AcDbEntity
  8
001
370
    50
  0
LINE
  5
4DD
330
1F
100
AcDbEntity
  8
001
370
    50
100
AcDbLine
 10
158.885277
 20
137.876352
 30
0.0
 11
158.357447
 21
137.977205
 31
0.0
  0
POLYLINE
  5
4DE
330
1F
100
AcDbEntity
  8
001
370
    50
100
AcDb2dPolyline
 66
     1
 10
0.0
 20
0.0
 30
0.0
  0
VERTEX
  5
4E0
330
4DE
100
AcDbEntity
  8
001
370
    50
100
AcDbVertex
100
AcDb2dVertex
 10
159.836535
 20
137.319789
 30
0.0
  0
VERTEX
  5
4E1
330
4DE
100
AcDbEntity
  8
001
370
    50
100
AcDbVertex
100
AcDb2dVertex
 10
159.711212
 20
137.427638
 30
0.0
  0
VERTEX
  5
4E2
330
4DE
100
AcDbEntity
  8
001
370
    50
100
AcDbVertex
100
AcDb2dVertex
 10
159.581732
 20
137.53026
 30
0.0
  0
VERTEX
  5
4E3
330
4DE
100
AcDbEntity
  8
001
370
    50
100
AcDbVertex
100
AcDb2dVertex
 10
159.424699
 20
137.6355
 30
0.0
  0
VERTEX
  5
4E4
330
4DE
100
AcDbEntity
  8
001
370
    50
100
AcDbVertex
100
AcDb2dVertex
 10
159.25864
 20
137.725763
 30
0.0
  0
VERTEX
  5
4E5
330
4DE
100
AcDbEntity
  8
001
370
    50
100
AcDbVertex
100
AcDb2dVertex
 10
159.081407
 20
137.802964
 30
0.0
  0
VERTEX
  5
4E6
330
4DE
100
AcDbEntity
  8
001
370
    50
100
AcDbVertex
100
AcDb2dVertex
 10
158.900397
 20
137.871613
 30
0.0
  0
SEQEND
  5
4DF
330
4DE
100
AcDbEntity
  8
001
370
    50
  0
POLYLINE
  5
4E7
330
1F
100
AcDbEntity
  8
001
370
    50
100
AcDb2dPolyline
 66
     1
 10
0.0
 20
0.0
 30
0.0
  0
VERTEX
  5
4E9
330
4E7
100
AcDbEntity
  8
001
370
    50
100
AcDbVertex
100
AcDb2dVertex
 10
160.545425
 20
135.146112
 30
0.0
  0
VERTEX
  5
4EA
330
4E7
100
AcDbEntity
  8
001
370
    50
100
AcDbVertex
100
AcDb2dVertex
 10
160.564874
 20
135.305938
 30
0.0
  0
VERTEX
  5
4EB
330
4E7
100
AcDbEntity
  8
001
370
    50
100
AcDbVertex
100
AcDb2dVertex
 10
160.577899
 20
135.46618
 30
0.0
  0
VERTEX
  5
4EC
330
4E7
100
AcDbEntity
  8
001
370
    50
100
AcDbVertex
100
AcDb2dVertex
 10
160.579399
 20
135.626598
 30
0.0
  0
VERTEX
  5
4ED
330
4E7
100
AcDbEntity
  8
001
370
    50
100
AcDbVertex
100
AcDb2dVertex
 10
160.569548
 20
135.786925
 30
0.0
  0
VERTEX
  5
4EE
330
4E7
100
AcDbEntity
  8
001
370
    50
100
AcDbVertex
100
AcDb2dVertex
 10
160.540778
 20
135.998228
 30
0.0
  0
VERTEX
  5
4EF
330
4E7
100
AcDbEntity
  8
001
370
    50
100
AcDbVertex
100
AcDb2dVertex
 10
160.494298
 20
136.206296
 30
0.0
  0
VERTEX
  5
4F0
330
4E7
100
AcDbEntity
  8
001
370
    50
100
AcDbVertex
100
AcDb2dVertex
 10
160.43013
 20
136.409198
 30
0.0
  0
VERTEX
  5
4F1
330
4E7
100
AcDbEntity
  8
001
370
    50
100
AcDbVertex
100
AcDb2dVertex
 10
160.348384
 20
136.605654
 30
0.0
  0
VERTEX
  5
4F2
330
4E7
100
AcDbEntity
  8
001
370
    50
100
AcDbVertex
100
AcDb2dVertex
 10
160.251052
 20
136.791301
 30
0.0
  0
VERTEX
  5
4F3
330
4E7
100
AcDbEntity
  8
001
370
    50
100
AcDbVertex
100
AcDb2dVertex
 10
160.138023
 20
136.967933
 30
0.0
  0
VERTEX
  5
4F4
330
4E7
100
AcDbEntity
  8
001
370
    50
100
AcDbVertex
100
AcDb2dVertex
 10
160.010449
 20
137.134156
 30
0.0
  0
VERTEX
  5
4F5
330
4E7
100
AcDbEntity
  8
001
370
    50
100
AcDbVertex
100
AcDb2dVertex
 10
159.868771
 20
137.288253
 30
0.0
  0
VERTEX
  5
4F6
330
4E7
100
AcDbEntity
  8
001
370
    50
100
AcDbVertex
100
AcDb2dVertex
 10
159.852693
 20
137.304062
 30
0.0
  0
VERTEX
  5
4F7
330
4E7
100
AcDbEntity
  8
001
370
    50
100
AcDbVertex
100
AcDb2dVertex
 10
159.836535
 20
137.319789
 30
0.0
  0
SEQEND
  5
4E8
330
4E7
100
AcDbEntity
  8
001
370
    50
  0
POLYLINE
  5
4F8
330
1F
100
AcDbEntity
  8
001
370
    50
100
AcDb2dPolyline
 66
     1
 10
0.0
 20
0.0
 30
0.0
  0
VERTEX
  5
4FA
330
4F8
100
AcDbEntity
  8
001
370
    50
100
AcDbVertex
100
AcDb2dVertex
 10
159.675313
 20
134.232689
 30
0.0
  0
VERTEX
  5
4FB
330
4F8
100
AcDbEntity
  8
001
370
    50
100
AcDbVertex
100
AcDb2dVertex
 10
159.883349
 20
134.403657
 30
0.0
  0
VERTEX
  5
4FC
330
4F8
100
AcDbEntity
  8
001
370
    50
100
AcDbVertex
100
AcDb2dVertex
 10
160.167677
 20
134.674129
 30
0.0
  0
VERTEX
  5
4FD
330
4F8
100
AcDbEntity
  8
001
370
    50
100
AcDbVertex
100
AcDb2dVertex
 10
160.400611
 20
134.947108
 30
0.0
  0
VERTEX
  5
4FE
330
4F8
100
AcDbEntity
  8
001
370
    50
100
AcDbVertex
100
AcDb2dVertex
 10
160.545425
 20
135.146112
 30
0.0
  0
SEQEND
  5
4F9
330
4F8
100
AcDbEntity
  8
001
370
    50
  0
POLYLINE
  5
4FF
330
1F
100
AcDbEntity
  8
001
370
    50
100
AcDb2dPolyline
 66
     1
 10
0.0
 20
0.0
 30
0.0
  0
VERTEX
  5
501
330
4FF
100
AcDbEntity
  8
001
370
    50
100
AcDbVertex
100
AcDb2dVertex
 10
159.675313
 20
134.232689
 30
0.0
  0
VERTEX
  5
502
330
4FF
100
AcDbEntity
  8
001
370
    50
100
AcDbVertex
100
AcDb2dVertex
 10
159.758329
 20
134.397668
 30
0.0
  0
VERTEX
  5
503
330
4FF
100
AcDbEntity
  8
001
370
    50
100
AcDbVertex
100
AcDb2dVertex
 10
159.858493
 20
134.631187
 30
0.0
  0
VERTEX
  5
504
330
4FF
100
AcDbEntity
  8
001
370
    50
100
AcDbVertex
100
AcDb2dVertex
 10
159.928151
 20
134.849357
 30
0.0
  0
VERTEX
  5
505
330
4FF
100
AcDbEntity
  8
001
370
    50
100
AcDbVertex
100
AcDb2dVertex
 10
159.970071
 20
135.056112
 30
0.0
  0
VERTEX
  5
506
330
4FF
100
AcDbEntity
  8
001
370
    50
100
AcDbVertex
100
AcDb2dVertex
 10
159.996593
 20
135.27224
 30
0.0
  0
VERTEX
  5
507
330
4FF
100
AcDbEntity
  8
001
370
    50
100
AcDbVertex
100
AcDb2dVertex
 10
160.006596
 20
135.494316
 30
0.0
  0
VERTEX
  5
508
330
4FF
100
AcDbEntity
  8
001
370
    50
100
AcDbVertex
100
AcDb2dVertex
 10
159.996602
 20
135.714722
 30
0.0
  0
VERTEX
  5
509
330
4FF
100
AcDbEntity
  8
001
370
    50
100
AcDbVertex
100
AcDb2dVertex
 10
159.966938
 20
135.93224
 30
0.0
  0
VERTEX
  5
50A
330
4FF
100
AcDbEntity
  8
001
370
    50
100
AcDbVertex
100
AcDb2dVertex
 10
159.918744
 20
136.146622
 30
0.0
  0
VERTEX
  5
50B
330
4FF
100
AcDbEntity
  8
001
370
    50
100
AcDbVertex
100
AcDb2dVertex
 10
159.852323
 20
136.356331
 30
0.0
  0
VERTEX
  5
50C
330
4FF
100
AcDbEntity
  8
001
370
    50
100
AcDbVertex
100
AcDb2dVertex
 10
159.768041
 20
136.55899
 30
0.0
  0
VERTEX
  5
50D
330
4FF
100
AcDbEntity
  8
001
370
    50
100
AcDbVertex
100
AcDb2dVertex
 10
159.666298
 20
136.753467
 30
0.0
  0
VERTEX
  5
50E
330
4FF
100
AcDbEntity
  8
001
370
    50
100
AcDbVertex
100
AcDb2dVertex
 10
159.548115
 20
136.937945
 30
0.0
  0
VERTEX
  5
50F
330
4FF
100
AcDbEntity
  8
001
370
    50
100
AcDbVertex
100
AcDb2dVertex
 10
159.41462
 20
137.11136
 30
0.0
  0
VERTEX
  5
510
330
4FF
100
AcDbEntity
  8
001
370
    50
100
AcDbVertex
100
AcDb2dVertex
 10
159.267283
 20
137.27186
 30
0.0
  0
VERTEX
  5
511
330
4FF
100
AcDbEntity
  8
001
370
    50
100
AcDbVertex
100
AcDb2dVertex
 10
159.105076
 20
137.418934
 30
0.0
  0
VERTEX
  5
512
330
4FF
100
AcDbEntity
  8
001
370
    50
100
AcDbVertex
100
AcDb2dVertex
 10
158.929187
 20
137.551122
 30
0.0
  0
VERTEX
  5
513
330
4FF
100
AcDbEntity
  8
001
370
    50
100
AcDbVertex
100
AcDb2dVertex
 10
158.747245
 20
137.666673
 30
0.0
  0
VERTEX
  5
514
330
4FF
100
AcDbEntity
  8
001
370
    50
100
AcDbVertex
100
AcDb2dVertex
 10
158.562866
 20
137.764098
 30
0.0
  0
VERTEX
  5
515
330
4FF
100
AcDbEntity
  8
001
370
    50
100
AcDbVertex
100
AcDb2dVertex
 10
158.352199
 20
137.846909
 30
0.0
  0
VERTEX
  5
516
330
4FF
100
AcDbEntity
  8
001
370
    50
100
AcDbVertex
100
AcDb2dVertex
 10
158.110564
 20
137.915365
 30
0.0
  0
VERTEX
  5
517
330
4FF
100
AcDbEntity
  8
001
370
    50
100
AcDbVertex
100
AcDb2dVertex
 10
157.932163
 20
137.954067
 30
0.0
  0
SEQEND
  5
500
330
4FF
100
AcDbEntity
  8
001
370
    50
  0
POLYLINE
  5
518
330
1F
100
AcDbEntity
  8
001
370
    50
100
AcDb2dPolyline
 66
     1
 10
0.0
 20
0.0
 30
0.0
  0
VERTEX
  5
51A
330
518
100
AcDbEntity
  8
001
370
    50
100
AcDbVertex
100
AcDb2dVertex
 10
160.545425
 20
135.146112
 30
0.0
  0
VERTEX
  5
51B
330
518
100
AcDbEntity
  8
001
370
    50
100
AcDbVertex
100
AcDb2dVertex
 10
160.563524
 20
135.126375
 30
0.0
  0
VERTEX
  5
51C
330
518
100
AcDbEntity
  8
001
370
    50
100
AcDbVertex
100
AcDb2dVertex
 10
160.589983
 20
135.097536
 30
0.0
  0
VERTEX
  5
51D
330
518
100
AcDbEntity
  8
001
370
    50
100
AcDbVertex
100
AcDb2dVertex
 10
160.616434
 20
135.068725
 30
0.0
  0
VERTEX
  5
51E
330
518
100
AcDbEntity
  8
001
370
    50
100
AcDbVertex
100
AcDb2dVertex
 10
160.634537
 20
135.049016
 30
0.0
  0
SEQEND
  5
519
330
518
100
AcDbEntity
  8
001
370
    50
  0
POLYLINE
  5
51F
330
1F
100
AcDbEntity
  8
001
370
    50
100
AcDb2dPolyline
 66
     1
 10
0.0
 20
0.0
 30
0.0
  0
VERTEX
  5
521
330
51F
100
AcDbEntity
  8
001
370
    50
100
AcDbVertex
100
AcDb2dVertex
 10
160.634537
 20
135.049016
 30
0.0
  0
VERTEX
  5
522
330
51F
100
AcDbEntity
  8
001
370
    50
100
AcDbVertex
100
AcDb2dVertex
 10
160.819552
 20
134.839817
 30
0.0
  0
VERTEX
  5
523
330
51F
100
AcDbEntity
  8
001
370
    50
100
AcDbVertex
100
AcDb2dVertex
 10
161.090689
 20
134.534711
 30
0.0
  0
VERTEX
  5
524
330
51F
100
AcDbEntity
  8
001
370
    50
100
AcDbVertex
100
AcDb2dVertex
 10
161.361268
 20
134.232272
 30
0.0
  0
VERTEX
  5
525
330
51F
100
AcDbEntity
  8
001
370
    50
100
AcDbVertex
100
AcDb2dVertex
 10
161.546898
 20
134.025785
 30
0.0
  0
SEQEND
  5
520
330
51F
100
AcDbEntity
  8
001
370
    50
  0
LINE
  5
526
330
1F
100
AcDbEntity
  8
001
370
    50
100
AcDbLine
 10
166.113705
 20
128.583672
 30
0.0
 11
166.053882
 21
128.660575
 31
0.0
  0
POLYLINE
  5
527
330
1F
100
AcDbEntity
  8
001
370
    50
100
AcDb2dPolyline
 66
     1
 10
0.0
 20
0.0
 30
0.0
  0
VERTEX
  5
529
330
527
100
AcDbEntity
  8
001
370
    50
100
AcDbVertex
100
AcDb2dVertex
 10
166.53237
 20
126.932835
 30
0.0
  0
VERTEX
  5
52A
330
527
100
AcDbEntity
  8
001
370
    50
100
AcDbVertex
100
AcDb2dVertex
 10
166.431443
 20
126.006391
 30
0.0
  0
VERTEX
  5
52B
330
527
100
AcDbEntity
  8
001
370
    50
100
AcDbVertex
100
AcDb2dVertex
 10
166.2875
 20
124.651978
 30
0.0
  0
VERTEX
  5
52C
330
527
100
AcDbEntity
  8
001
370
    50
100
AcDbVertex
100
AcDb2dVertex
 10
166.14755
 20
123.28769
 30
0.0
  0
VERTEX
  5
52D
330
527
100
AcDbEntity
  8
001
370
    50
100
AcDbVertex
100
AcDb2dVertex
 10
166.054241
 20
122.35398
 30
0.0
  0
SEQEND
  5
528
330
527
100
AcDbEntity
  8
001
370
    50
  0
POLYLINE
  5
52E
330
1F
100
AcDbEntity
  8
001
370
    50
100
AcDb2dPolyline
 66
     1
 10
0.0
 20
0.0
 30
0.0
  0
VERTEX
  5
530
330
52E
100
AcDbEntity
  8
001
370
    50
100
AcDbVertex
100
AcDb2dVertex
 10
166.53237
 20
126.932835
 30
0.0
  0
VERTEX
  5
531
330
52E
100
AcDbEntity
  8
001
370
    50
100
AcDbVertex
100
AcDb2dVertex
 10
166.543346
 20
127.135241
 30
0.0
  0
VERTEX
  5
532
330
52E
100
AcDbEntity
  8
001
370
    50
100
AcDbVertex
100
AcDb2dVertex
 10
166.543927
 20
127.337489
 30
0.0
  0
VERTEX
  5
533
330
52E
100
AcDbEntity
  8
001
370
    50
100
AcDbVertex
100
AcDb2dVertex
 10
166.526179
 20
127.536705
 30
0.0
  0
VERTEX
  5
534
330
52E
100
AcDbEntity
  8
001
370
    50
100
AcDbVertex
100
AcDb2dVertex
 10
166.490428
 20
127.733814
 30
0.0
  0
VERTEX
  5
535
330
52E
100
AcDbEntity
  8
001
370
    50
100
AcDbVertex
100
AcDb2dVertex
 10
166.437345
 20
127.93114
 30
0.0
  0
VERTEX
  5
536
330
52E
100
AcDbEntity
  8
001
370
    50
100
AcDbVertex
100
AcDb2dVertex
 10
166.367982
 20
128.123305
 30
0.0
  0
VERTEX
  5
537
330
52E
100
AcDbEntity
  8
001
370
    50
100
AcDbVertex
100
AcDb2dVertex
 10
166.283242
 20
128.307172
 30
0.0
  0
VERTEX
  5
538
330
52E
100
AcDbEntity
  8
001
370
    50
100
AcDbVertex
100
AcDb2dVertex
 10
166.182065
 20
128.482297
 30
0.0
  0
VERTEX
  5
539
330
52E
100
AcDbEntity
  8
001
370
    50
100
AcDbVertex
100
AcDb2dVertex
 10
166.148274
 20
128.533244
 30
0.0
  0
VERTEX
  5
53A
330
52E
100
AcDbEntity
  8
001
370
    50
100
AcDbVertex
100
AcDb2dVertex
 10
166.113705
 20
128.583672
 30
0.0
  0
SEQEND
  5
52F
330
52E
100
AcDbEntity
  8
001
370
    50
  0
POLYLINE
  5
53B
330
1F
100
AcDbEntity
  8
001
370
    50
100
AcDb2dPolyline
 66
     1
 10
0.0
 20
0.0
 30
0.0
  0
VERTEX
  5
53D
330
53B
100
AcDbEntity
  8
001
370
    50
100
AcDbVertex
100
AcDb2dVertex
 10
166.02419
 20
126.932835
 30
0.0
  0
VERTEX
  5
53E
330
53B
100
AcDbEntity
  8
001
370
    50
100
AcDbVertex
100
AcDb2dVertex
 10
166.015059
 20
127.096934
 30
0.0
  0
VERTEX
  5
53F
330
53B
100
AcDbEntity
  8
001
370
    50
100
AcDbVertex
100
AcDb2dVertex
 10
165.986545
 20
127.321989
 30
0.0
  0
VERTEX
  5
540
330
53B
100
AcDbEntity
  8
001
370
    50
100
AcDbVertex
100
AcDb2dVertex
 10
165.938309
 20
127.521688
 30
0.0
  0
VERTEX
  5
541
330
53B
100
AcDbEntity
  8
001
370
    50
100
AcDbVertex
100
AcDb2dVertex
 10
165.87505
 20
127.696267
 30
0.0
  0
VERTEX
  5
542
330
53B
100
AcDbEntity
  8
001
370
    50
100
AcDbVertex
100
AcDb2dVertex
 10
165.798697
 20
127.865104
 30
0.0
  0
VERTEX
  5
543
330
53B
100
AcDbEntity
  8
001
370
    50
100
AcDbVertex
100
AcDb2dVertex
 10
165.693966
 20
128.041362
 30
0.0
  0
VERTEX
  5
544
330
53B
100
AcDbEntity
  8
001
370
    50
100
AcDbVertex
100
AcDb2dVertex
 10
165.557839
 20
128.22117
 30
0.0
  0
VERTEX
  5
545
330
53B
100
AcDbEntity
  8
001
370
    50
100
AcDbVertex
100
AcDb2dVertex
 10
165.450217
 20
128.344084
 30
0.0
  0
SEQEND
  5
53C
330
53B
100
AcDbEntity
  8
001
370
    50
  0
LINE
  5
546
330
1F
100
AcDbEntity
  8
001
370
    50
100
AcDbLine
 10
166.02419
 20
122.365881
 30
0.0
 11
166.02419
 21
126.932835
 31
0.0
  0
POLYLINE
  5
547
330
1F
100
AcDbEntity
  8
001
370
    50
100
AcDb2dPolyline
 66
     1
 10
0.0
 20
0.0
 30
0.0
  0
VERTEX
  5
549
330
547
100
AcDbEntity
  8
001
370
    50
100
AcDbVertex
100
AcDb2dVertex
 10
157.932163
 20
137.954067
 30
0.0
  0
VERTEX
  5
54A
330
547
100
AcDbEntity
  8
001
370
    50
100
AcDbVertex
100
AcDb2dVertex
 10
157.906111
 20
137.958119
 30
0.0
  0
VERTEX
  5
54B
330
547
100
AcDbEntity
  8
001
370
    50
100
AcDbVertex
100
AcDb2dVertex
 10
157.867969
 20
137.963579
 30
0.0
  0
VERTEX
  5
54C
330
547
100
AcDbEntity
  8
001
370
    50
100
AcDbVertex
100
AcDb2dVertex
 10
157.861582
 20
137.964427
 30
0.0
  0
VERTEX
  5
54D
330
547
100
AcDbEntity
  8
001
370
    50
100
AcDbVertex
100
AcDb2dVertex
 10
157.855241
 20
137.96525
 30
0.0
  0
SEQEND
  5
548
330
547
100
AcDbEntity
  8
001
370
    50
  0
POLYLINE
  5
54E
330
1F
100
AcDbEntity
  8
001
370
    50
100
AcDb2dPolyline
 66
     1
 10
0.0
 20
0.0
 30
0.0
  0
VERTEX
  5
550
330
54E
100
AcDbEntity
  8
001
370
    50
100
AcDbVertex
100
AcDb2dVertex
 10
153.432281
 20
132.829967
 30
0.0
  0
VERTEX
  5
551
330
54E
100
AcDbEntity
  8
001
370
    50
100
AcDbVertex
100
AcDb2dVertex
 10
153.475976
 20
132.874245
 30
0.0
  0
VERTEX
  5
552
330
54E
100
AcDbEntity
  8
001
370
    50
100
AcDbVertex
100
AcDb2dVertex
 10
153.532391
 20
132.931479
 30
0.0
  0
SEQEND
  5
54F
330
54E
100
AcDbEntity
  8
001
370
    50
  0
LINE
  5
553
330
1F
100
AcDbEntity
  8
001
370
    50
100
AcDbLine
 10
155.635911
 20
135.180037
 30
0.0
 11
155.642964
 21
135.121737
 31
0.0
  0
LINE
  5
554
330
1F
100
AcDbEntity
  8
001
370
    50
100
AcDbLine
 10
153.524412
 20
132.336379
 30
0.0
 11
153.18687
 21
131.995063
 31
0.0
  0
POLYLINE
  5
555
330
1F
100
AcDbEntity
  8
001
370
    50
100
AcDb2dPolyline
 66
     1
 10
0.0
 20
0.0
 30
0.0
  0
VERTEX
  5
557
330
555
100
AcDbEntity
  8
001
370
    50
100
AcDbVertex
100
AcDb2dVertex
 10
160.598873
 20
122.21005
 30
0.0
  0
VERTEX
  5
558
330
555
100
AcDbEntity
  8
001
370
    50
100
AcDbVertex
100
AcDb2dVertex
 10
160.956775
 20
122.218918
 30
0.0
  0
VERTEX
  5
559
330
555
100
AcDbEntity
  8
001
370
    50
100
AcDbVertex
100
AcDb2dVertex
 10
161.316266
 20
122.228053
 30
0.0
  0
VERTEX
  5
55A
330
555
100
AcDbEntity
  8
001
370
    50
100
AcDbVertex
100
AcDb2dVertex
 10
164.111698
 20
122.306244
 30
0.0
  0
VERTEX
  5
55B
330
555
100
AcDbEntity
  8
001
370
    50
100
AcDbVertex
100
AcDb2dVertex
 10
166.02419
 20
122.365881
 30
0.0
  0
SEQEND
  5
556
330
555
100
AcDbEntity
  8
001
370
    50
  0
POLYLINE
  5
55C
330
1F
100
AcDbEntity
  8
001
370
    50
100
AcDb2dPolyline
 66
     1
 10
0.0
 20
0.0
 30
0.0
  0
VERTEX
  5
55E
330
55C
100
AcDbEntity
  8
001
370
    50
100
AcDbVertex
100
AcDb2dVertex
 10
156.581307
 20
122.122892
 30
0.0
  0
VERTEX
  5
55F
330
55C
100
AcDbEntity
  8
001
370
    50
100
AcDbVertex
100
AcDb2dVertex
 10
157.126925
 20
122.133422
 30
0.0
  0
VERTEX
  5
560
330
55C
100
AcDbEntity
  8
001
370
    50
100
AcDbVertex
100
AcDb2dVertex
 10
157.867221
 20
122.148451
 30
0.0
  0
SEQEND
  5
55D
330
55C
100
AcDbEntity
  8
001
370
    50
  0
POLYLINE
  5
561
330
1F
100
AcDbEntity
  8
001
370
    50
100
AcDb2dPolyline
 66
     1
 10
0.0
 20
0.0
 30
0.0
  0
VERTEX
  5
563
330
561
100
AcDbEntity
  8
001
370
    50
100
AcDbVertex
100
AcDb2dVertex
 10
161.546898
 20
134.025785
 30
0.0
  0
VERTEX
  5
564
330
561
100
AcDbEntity
  8
001
370
    50
100
AcDbVertex
100
AcDb2dVertex
 10
161.731869
 20
133.812559
 30
0.0
  0
VERTEX
  5
565
330
561
100
AcDbEntity
  8
001
370
    50
100
AcDbVertex
100
AcDb2dVertex
 10
162.002943
 20
133.501559
 30
0.0
  0
VERTEX
  5
566
330
561
100
AcDbEntity
  8
001
370
    50
100
AcDbVertex
100
AcDb2dVertex
 10
162.117227
 20
133.371077
 30
0.0
  0
VERTEX
  5
567
330
561
100
AcDbEntity
  8
001
370
    50
100
AcDbVertex
100
AcDb2dVertex
 10
162.226002
 20
133.247207
 30
0.0
  0
SEQEND
  5
562
330
561
100
AcDbEntity
  8
001
370
    50
  0
LINE
  5
568
330
1F
100
AcDbEntity
  8
001
370
    50
100
AcDbLine
 10
160.619993
 20
133.269409
 30
0.0
 11
159.675313
 21
134.232689
 31
0.0
  0
POLYLINE
  5
569
330
1F
100
AcDbEntity
  8
001
370
    50
100
AcDb2dPolyline
 66
     1
 10
0.0
 20
0.0
 30
0.0
  0
VERTEX
  5
56B
330
569
100
AcDbEntity
  8
001
370
    50
100
AcDbVertex
100
AcDb2dVertex
 10
165.412044
 20
129.455243
 30
0.0
  0
VERTEX
  5
56C
330
569
100
AcDbEntity
  8
001
370
    50
100
AcDbVertex
100
AcDb2dVertex
 10
165.516056
 20
129.325688
 30
0.0
  0
VERTEX
  5
56D
330
569
100
AcDbEntity
  8
001
370
    50
100
AcDbVertex
100
AcDb2dVertex
 10
165.625918
 20
129.189168
 30
0.0
  0
VERTEX
  5
56E
330
569
100
AcDbEntity
  8
001
370
    50
100
AcDbVertex
100
AcDb2dVertex
 10
165.879757
 20
128.875102
 30
0.0
  0
VERTEX
  5
56F
330
569
100
AcDbEntity
  8
001
370
    50
100
AcDbVertex
100
AcDb2dVertex
 10
166.053882
 20
128.660575
 30
0.0
  0
SEQEND
  5
56A
330
569
100
AcDbEntity
  8
001
370
    50
  0
LINE
  5
570
330
1F
100
AcDbEntity
  8
001
370
    50
100
AcDbLine
 10
165.450217
 20
128.344084
 30
0.0
 11
164.926102
 21
128.878518
 31
0.0
  0
POLYLINE
  5
571
330
1F
100
AcDbEntity
  8
001
370
    50
100
AcDb2dPolyline
 66
     1
 10
0.0
 20
0.0
 30
0.0
  0
VERTEX
  5
573
330
571
100
AcDbEntity
  8
001
370
    50
100
AcDbVertex
100
AcDb2dVertex
 10
193.709525
 20
122.003223
 30
0.0
  0
VERTEX
  5
574
330
571
100
AcDbEntity
  8
001
370
    50
100
AcDbVertex
100
AcDb2dVertex
 10
193.68895
 20
122.003316
 30
0.0
  0
VERTEX
  5
575
330
571
100
AcDbEntity
  8
001
370
    50
100
AcDbVertex
100
AcDb2dVertex
 10
193.668375
 20
122.003467
 30
0.0
  0
VERTEX
  5
576
330
571
100
AcDbEntity
  8
001
370
    50
100
AcDbVertex
100
AcDb2dVertex
 10
193.458551
 20
122.011079
 30
0.0
  0
VERTEX
  5
577
330
571
100
AcDbEntity
  8
001
370
    50
100
AcDbVertex
100
AcDb2dVertex
 10
193.249138
 20
122.027555
 30
0.0
  0
VERTEX
  5
578
330
571
100
AcDbEntity
  8
001
370
    50
100
AcDbVertex
100
AcDb2dVertex
 10
193.002743
 20
122.054413
 30
0.0
  0
VERTEX
  5
579
330
571
100
AcDbEntity
  8
001
370
    50
100
AcDbVertex
100
AcDb2dVertex
 10
192.757101
 20
122.087147
 30
0.0
  0
VERTEX
  5
57A
330
571
100
AcDbEntity
  8
001
370
    50
100
AcDbVertex
100
AcDb2dVertex
 10
192.4769
 20
122.129766
 30
0.0
  0
VERTEX
  5
57B
330
571
100
AcDbEntity
  8
001
370
    50
100
AcDbVertex
100
AcDb2dVertex
 10
192.197335
 20
122.176457
 30
0.0
  0
VERTEX
  5
57C
330
571
100
AcDbEntity
  8
001
370
    50
100
AcDbVertex
100
AcDb2dVertex
 10
191.885904
 20
122.231873
 30
0.0
  0
VERTEX
  5
57D
330
571
100
AcDbEntity
  8
001
370
    50
100
AcDbVertex
100
AcDb2dVertex
 10
191.574915
 20
122.289698
 30
0.0
  0
VERTEX
  5
57E
330
571
100
AcDbEntity
  8
001
370
    50
100
AcDbVertex
100
AcDb2dVertex
 10
191.243838
 20
122.352938
 30
0.0
  0
VERTEX
  5
57F
330
571
100
AcDbEntity
  8
001
370
    50
100
AcDbVertex
100
AcDb2dVertex
 10
190.912936
 20
122.417096
 30
0.0
  0
VERTEX
  5
580
330
571
100
AcDbEntity
  8
001
370
    50
100
AcDbVertex
100
AcDb2dVertex
 10
190.555124
 20
122.486785
 30
0.0
  0
VERTEX
  5
581
330
571
100
AcDbEntity
  8
001
370
    50
100
AcDbVertex
100
AcDb2dVertex
 10
190.197273
 20
122.556275
 30
0.0
  0
VERTEX
  5
582
330
571
100
AcDbEntity
  8
001
370
    50
100
AcDbVertex
100
AcDb2dVertex
 10
189.8163
 20
122.629513
 30
0.0
  0
VERTEX
  5
583
330
571
100
AcDbEntity
  8
001
370
    50
100
AcDbVertex
100
AcDb2dVertex
 10
189.435104
 20
122.701587
 30
0.0
  0
VERTEX
  5
584
330
571
100
AcDbEntity
  8
001
370
    50
100
AcDbVertex
100
AcDb2dVertex
 10
189.034551
 20
122.775564
 30
0.0
  0
VERTEX
  5
585
330
571
100
AcDbEntity
  8
001
370
    50
100
AcDbVertex
100
AcDb2dVertex
 10
188.633606
 20
122.847387
 30
0.0
  0
VERTEX
  5
586
330
571
100
AcDbEntity
  8
001
370
    50
100
AcDbVertex
100
AcDb2dVertex
 10
188.170531
 20
122.927094
 30
0.0
  0
VERTEX
  5
587
330
571
100
AcDbEntity
  8
001
370
    50
100
AcDbVertex
100
AcDb2dVertex
 10
187.706847
 20
123.003186
 30
0.0
  0
VERTEX
  5
588
330
571
100
AcDbEntity
  8
001
370
    50
100
AcDbVertex
100
AcDb2dVertex
 10
187.223449
 20
123.078354
 30
0.0
  0
VERTEX
  5
589
330
571
100
AcDbEntity
  8
001
370
    50
100
AcDbVertex
100
AcDb2dVertex
 10
186.739395
 20
123.149183
 30
0.0
  0
VERTEX
  5
58A
330
571
100
AcDbEntity
  8
001
370
    50
100
AcDbVertex
100
AcDb2dVertex
 10
186.240017
 20
123.217396
 30
0.0
  0
VERTEX
  5
58B
330
571
100
AcDbEntity
  8
001
370
    50
100
AcDbVertex
100
AcDb2dVertex
 10
185.73997
 20
123.280523
 30
0.0
  0
VERTEX
  5
58C
330
571
100
AcDbEntity
  8
001
370
    50
100
AcDbVertex
100
AcDb2dVertex
 10
185.228955
 20
123.339414
 30
0.0
  0
VERTEX
  5
58D
330
571
100
AcDbEntity
  8
001
370
    50
100
AcDbVertex
100
AcDb2dVertex
 10
184.71729
 20
123.392349
 30
0.0
  0
VERTEX
  5
58E
330
571
100
AcDbEntity
  8
001
370
    50
100
AcDbVertex
100
AcDb2dVertex
 10
184.128615
 20
123.445436
 30
0.0
  0
VERTEX
  5
58F
330
571
100
AcDbEntity
  8
001
370
    50
100
AcDbVertex
100
AcDb2dVertex
 10
183.539249
 20
123.49025
 30
0.0
  0
VERTEX
  5
590
330
571
100
AcDbEntity
  8
001
370
    50
100
AcDbVertex
100
AcDb2dVertex
 10
182.939556
 20
123.52741
 30
0.0
  0
VERTEX
  5
591
330
571
100
AcDbEntity
  8
001
370
    50
100
AcDbVertex
100
AcDb2dVertex
 10
182.339399
 20
123.556125
 30
0.0
  0
VERTEX
  5
592
330
571
100
AcDbEntity
  8
001
370
    50
100
AcDbVertex
100
AcDb2dVertex
 10
181.734367
 20
123.576492
 30
0.0
  0
VERTEX
  5
593
330
571
100
AcDbEntity
  8
001
370
    50
100
AcDbVertex
100
AcDb2dVertex
 10
181.129103
 20
123.588137
 30
0.0
  0
VERTEX
  5
594
330
571
100
AcDbEntity
  8
001
370
    50
100
AcDbVertex
100
AcDb2dVertex
 10
180.524396
 20
123.590883
 30
0.0
  0
VERTEX
  5
595
330
571
100
AcDbEntity
  8
001
370
    50
100
AcDbVertex
100
AcDb2dVertex
 10
179.919721
 20
123.584451
 30
0.0
  0
VERTEX
  5
596
330
571
100
AcDbEntity
  8
001
370
    50
100
AcDbVertex
100
AcDb2dVertex
 10
179.279646
 20
123.567428
 30
0.0
  0
VERTEX
  5
597
330
571
100
AcDbEntity
  8
001
370
    50
100
AcDbVertex
100
AcDb2dVertex
 10
178.639917
 20
123.540264
 30
0.0
  0
VERTEX
  5
598
330
571
100
AcDbEntity
  8
001
370
    50
100
AcDbVertex
100
AcDb2dVertex
 10
178.004569
 20
123.503698
 30
0.0
  0
VERTEX
  5
599
330
571
100
AcDbEntity
  8
001
370
    50
100
AcDbVertex
100
AcDb2dVertex
 10
177.369817
 20
123.457958
 30
0.0
  0
VERTEX
  5
59A
330
571
100
AcDbEntity
  8
001
370
    50
100
AcDbVertex
100
AcDb2dVertex
 10
176.74568
 20
123.404292
 30
0.0
  0
VERTEX
  5
59B
330
571
100
AcDbEntity
  8
001
370
    50
100
AcDbVertex
100
AcDb2dVertex
 10
176.122308
 20
123.342324
 30
0.0
  0
VERTEX
  5
59C
330
571
100
AcDbEntity
  8
001
370
    50
100
AcDbVertex
100
AcDb2dVertex
 10
175.51582
 20
123.274146
 30
0.0
  0
VERTEX
  5
59D
330
571
100
AcDbEntity
  8
001
370
    50
100
AcDbVertex
100
AcDb2dVertex
 10
174.910274
 20
123.198153
 30
0.0
  0
VERTEX
  5
59E
330
571
100
AcDbEntity
  8
001
370
    50
100
AcDbVertex
100
AcDb2dVertex
 10
174.828721
 20
123.187313
 30
0.0
  0
VERTEX
  5
59F
330
571
100
AcDbEntity
  8
001
370
    50
100
AcDbVertex
100
AcDb2dVertex
 10
174.747178
 20
123.176401
 30
0.0
  0
SEQEND
  5
572
330
571
100
AcDbEntity
  8
001
370
    50
  0
POLYLINE
  5
5A0
330
1F
100
AcDbEntity
  8
001
370
    50
100
AcDb2dPolyline
 66
     1
 10
0.0
 20
0.0
 30
0.0
  0
VERTEX
  5
5A2
330
5A0
100
AcDbEntity
  8
001
370
    50
100
AcDbVertex
100
AcDb2dVertex
 10
193.709525
 20
122.003223
 30
0.0
  0
VERTEX
  5
5A3
330
5A0
100
AcDbEntity
  8
001
370
    50
100
AcDbVertex
100
AcDb2dVertex
 10
193.68895
 20
122.003316
 30
0.0
  0
VERTEX
  5
5A4
330
5A0
100
AcDbEntity
  8
001
370
    50
100
AcDbVertex
100
AcDb2dVertex
 10
193.668375
 20
122.003467
 30
0.0
  0
VERTEX
  5
5A5
330
5A0
100
AcDbEntity
  8
001
370
    50
100
AcDbVertex
100
AcDb2dVertex
 10
193.458551
 20
122.011079
 30
0.0
  0
VERTEX
  5
5A6
330
5A0
100
AcDbEntity
  8
001
370
    50
100
AcDbVertex
100
AcDb2dVertex
 10
193.249138
 20
122.027555
 30
0.0
  0
VERTEX
  5
5A7
330
5A0
100
AcDbEntity
  8
001
370
    50
100
AcDbVertex
100
AcDb2dVertex
 10
193.002743
 20
122.054413
 30
0.0
  0
VERTEX
  5
5A8
330
5A0
100
AcDbEntity
  8
001
370
    50
100
AcDbVertex
100
AcDb2dVertex
 10
192.757101
 20
122.087147
 30
0.0
  0
VERTEX
  5
5A9
330
5A0
100
AcDbEntity
  8
001
370
    50
100
AcDbVertex
100
AcDb2dVertex
 10
192.4769
 20
122.129766
 30
0.0
  0
VERTEX
  5
5AA
330
5A0
100
AcDbEntity
  8
001
370
    50
100
AcDbVertex
100
AcDb2dVertex
 10
192.197335
 20
122.176457
 30
0.0
  0
VERTEX
  5
5AB
330
5A0
100
AcDbEntity
  8
001
370
    50
100
AcDbVertex
100
AcDb2dVertex
 10
191.885904
 20
122.231873
 30
0.0
  0
VERTEX
  5
5AC
330
5A0
100
AcDbEntity
  8
001
370
    50
100
AcDbVertex
100
AcDb2dVertex
 10
191.574915
 20
122.289698
 30
0.0
  0
VERTEX
  5
5AD
330
5A0
100
AcDbEntity
  8
001
370
    50
100
AcDbVertex
100
AcDb2dVertex
 10
191.243838
 20
122.352938
 30
0.0
  0
VERTEX
  5
5AE
330
5A0
100
AcDbEntity
  8
001
370
    50
100
AcDbVertex
100
AcDb2dVertex
 10
190.912936
 20
122.417096
 30
0.0
  0
VERTEX
  5
5AF
330
5A0
100
AcDbEntity
  8
001
370
    50
100
AcDbVertex
100
AcDb2dVertex
 10
190.555124
 20
122.486785
 30
0.0
  0
VERTEX
  5
5B0
330
5A0
100
AcDbEntity
  8
001
370
    50
100
AcDbVertex
100
AcDb2dVertex
 10
190.197273
 20
122.556275
 30
0.0
  0
VERTEX
  5
5B1
330
5A0
100
AcDbEntity
  8
001
370
    50
100
AcDbVertex
100
AcDb2dVertex
 10
189.8163
 20
122.629513
 30
0.0
  0
VERTEX
  5
5B2
330
5A0
100
AcDbEntity
  8
001
370
    50
100
AcDbVertex
100
AcDb2dVertex
 10
189.435104
 20
122.701587
 30
0.0
  0
VERTEX
  5
5B3
330
5A0
100
AcDbEntity
  8
001
370
    50
100
AcDbVertex
100
AcDb2dVertex
 10
189.034551
 20
122.775564
 30
0.0
  0
VERTEX
  5
5B4
330
5A0
100
AcDbEntity
  8
001
370
    50
100
AcDbVertex
100
AcDb2dVertex
 10
188.633606
 20
122.847387
 30
0.0
  0
VERTEX
  5
5B5
330
5A0
100
AcDbEntity
  8
001
370
    50
100
AcDbVertex
100
AcDb2dVertex
 10
188.170531
 20
122.927094
 30
0.0
  0
VERTEX
  5
5B6
330
5A0
100
AcDbEntity
  8
001
370
    50
100
AcDbVertex
100
AcDb2dVertex
 10
187.706847
 20
123.003186
 30
0.0
  0
VERTEX
  5
5B7
330
5A0
100
AcDbEntity
  8
001
370
    50
100
AcDbVertex
100
AcDb2dVertex
 10
187.223449
 20
123.078354
 30
0.0
  0
VERTEX
  5
5B8
330
5A0
100
AcDbEntity
  8
001
370
    50
100
AcDbVertex
100
AcDb2dVertex
 10
186.739395
 20
123.149183
 30
0.0
  0
VERTEX
  5
5B9
330
5A0
100
AcDbEntity
  8
001
370
    50
100
AcDbVertex
100
AcDb2dVertex
 10
186.240017
 20
123.217396
 30
0.0
  0
VERTEX
  5
5BA
330
5A0
100
AcDbEntity
  8
001
370
    50
100
AcDbVertex
100
AcDb2dVertex
 10
185.73997
 20
123.280523
 30
0.0
  0
VERTEX
  5
5BB
330
5A0
100
AcDbEntity
  8
001
370
    50
100
AcDbVertex
100
AcDb2dVertex
 10
185.228955
 20
123.339414
 30
0.0
  0
VERTEX
  5
5BC
330
5A0
100
AcDbEntity
  8
001
370
    50
100
AcDbVertex
100
AcDb2dVertex
 10
184.71729
 20
123.392349
 30
0.0
  0
VERTEX
  5
5BD
330
5A0
100
AcDbEntity
  8
001
370
    50
100
AcDbVertex
100
AcDb2dVertex
 10
184.128615
 20
123.445436
 30
0.0
  0
VERTEX
  5
5BE
330
5A0
100
AcDbEntity
  8
001
370
    50
100
AcDbVertex
100
AcDb2dVertex
 10
183.539249
 20
123.49025
 30
0.0
  0
VERTEX
  5
5BF
330
5A0
100
AcDbEntity
  8
001
370
    50
100
AcDbVertex
100
AcDb2dVertex
 10
182.939556
 20
123.52741
 30
0.0
  0
VERTEX
  5
5C0
330
5A0
100
AcDbEntity
  8
001
370
    50
100
AcDbVertex
100
AcDb2dVertex
 10
182.339399
 20
123.556125
 30
0.0
  0
VERTEX
  5
5C1
330
5A0
100
AcDbEntity
  8
001
370
    50
100
AcDbVertex
100
AcDb2dVertex
 10
181.734367
 20
123.576492
 30
0.0
  0
VERTEX
  5
5C2
330
5A0
100
AcDbEntity
  8
001
370
    50
100
AcDbVertex
100
AcDb2dVertex
 10
181.129103
 20
123.588137
 30
0.0
  0
VERTEX
  5
5C3
330
5A0
100
AcDbEntity
  8
001
370
    50
100
AcDbVertex
100
AcDb2dVertex
 10
180.524396
 20
123.590883
 30
0.0
  0
VERTEX
  5
5C4
330
5A0
100
AcDbEntity
  8
001
370
    50
100
AcDbVertex
100
AcDb2dVertex
 10
179.919721
 20
123.584451
 30
0.0
  0
VERTEX
  5
5C5
330
5A0
100
AcDbEntity
  8
001
370
    50
100
AcDbVertex
100
AcDb2dVertex
 10
179.279646
 20
123.567428
 30
0.0
  0
VERTEX
  5
5C6
330
5A0
100
AcDbEntity
  8
001
370
    50
100
AcDbVertex
100
AcDb2dVertex
 10
178.639917
 20
123.540264
 30
0.0
  0
VERTEX
  5
5C7
330
5A0
100
AcDbEntity
  8
001
370
    50
100
AcDbVertex
100
AcDb2dVertex
 10
178.004569
 20
123.503698
 30
0.0
  0
VERTEX
  5
5C8
330
5A0
100
AcDbEntity
  8
001
370
    50
100
AcDbVertex
100
AcDb2dVertex
 10
177.369817
 20
123.457958
 30
0.0
  0
VERTEX
  5
5C9
330
5A0
100
AcDbEntity
  8
001
370
    50
100
AcDbVertex
100
AcDb2dVertex
 10
176.74568
 20
123.404292
 30
0.0
  0
VERTEX
  5
5CA
330
5A0
100
AcDbEntity
  8
001
370
    50
100
AcDbVertex
100
AcDb2dVertex
 10
176.122308
 20
123.342324
 30
0.0
  0
VERTEX
  5
5CB
330
5A0
100
AcDbEntity
  8
001
370
    50
100
AcDbVertex
100
AcDb2dVertex
 10
175.51582
 20
123.274146
 30
0.0
  0
VERTEX
  5
5CC
330
5A0
100
AcDbEntity
  8
001
370
    50
100
AcDbVertex
100
AcDb2dVertex
 10
174.910274
 20
123.198153
 30
0.0
  0
VERTEX
  5
5CD
330
5A0
100
AcDbEntity
  8
001
370
    50
100
AcDbVertex
100
AcDb2dVertex
 10
174.828721
 20
123.187313
 30
0.0
  0
VERTEX
  5
5CE
330
5A0
100
AcDbEntity
  8
001
370
    50
100
AcDbVertex
100
AcDb2dVertex
 10
174.747178
 20
123.176401
 30
0.0
  0
SEQEND
  5
5A1
330
5A0
100
AcDbEntity
  8
001
370
    50
  0
LINE
  5
5CF
330
1F
100
AcDbEntity
  8
001
370
    50
100
AcDbLine
 10
193.705994
 20
122.003223
 30
0.0
 11
194.63597
 21
122.003223
 31
0.0
  0
POLYLINE
  5
5D0
330
1F
100
AcDbEntity
  8
001
370
    50
100
AcDb2dPolyline
 66
     1
 10
0.0
 20
0.0
 30
0.0
  0
VERTEX
  5
5D2
330
5D0
100
AcDbEntity
  8
001
370
    50
100
AcDbVertex
100
AcDb2dVertex
 10
167.740178
 20
122.474865
 30
0.0
  0
VERTEX
  5
5D3
330
5D0
100
AcDbEntity
  8
001
370
    50
100
AcDbVertex
100
AcDb2dVertex
 10
167.384883
 20
122.449186
 30
0.0
  0
VERTEX
  5
5D4
330
5D0
100
AcDbEntity
  8
001
370
    50
100
AcDbVertex
100
AcDb2dVertex
 10
167.029654
 20
122.422653
 30
0.0
  0
VERTEX
  5
5D5
330
5D0
100
AcDbEntity
  8
001
370
    50
100
AcDbVertex
100
AcDb2dVertex
 10
166.88441
 20
122.411393
 30
0.0
  0
VERTEX
  5
5D6
330
5D0
100
AcDbEntity
  8
001
370
    50
100
AcDbVertex
100
AcDb2dVertex
 10
166.739178
 20
122.399989
 30
0.0
  0
SEQEND
  5
5D1
330
5D0
100
AcDbEntity
  8
001
370
    50
  0
POLYLINE
  5
5D7
330
1F
100
AcDbEntity
  8
001
370
    50
100
AcDb2dPolyline
 66
     1
 10
0.0
 20
0.0
 30
0.0
  0
VERTEX
  5
5D9
330
5D7
100
AcDbEntity
  8
001
370
    50
100
AcDbVertex
100
AcDb2dVertex
 10
168.741178
 20
122.556131
 30
0.0
  0
VERTEX
  5
5DA
330
5D7
100
AcDbEntity
  8
001
370
    50
100
AcDbVertex
100
AcDb2dVertex
 10
168.385875
 20
122.528318
 30
0.0
  0
VERTEX
  5
5DB
330
5D7
100
AcDbEntity
  8
001
370
    50
100
AcDbVertex
100
AcDb2dVertex
 10
168.030654
 20
122.499524
 30
0.0
  0
VERTEX
  5
5DC
330
5D7
100
AcDbEntity
  8
001
370
    50
100
AcDbVertex
100
AcDb2dVertex
 10
167.885409
 20
122.487277
 30
0.0
  0
VERTEX
  5
5DD
330
5D7
100
AcDbEntity
  8
001
370
    50
100
AcDbVertex
100
AcDb2dVertex
 10
167.740178
 20
122.474865
 30
0.0
  0
SEQEND
  5
5D8
330
5D7
100
AcDbEntity
  8
001
370
    50
  0
POLYLINE
  5
5DE
330
1F
100
AcDbEntity
  8
001
370
    50
100
AcDb2dPolyline
 66
     1
 10
0.0
 20
0.0
 30
0.0
  0
VERTEX
  5
5E0
330
5DE
100
AcDbEntity
  8
001
370
    50
100
AcDbVertex
100
AcDb2dVertex
 10
169.742178
 20
122.643763
 30
0.0
  0
VERTEX
  5
5E1
330
5DE
100
AcDbEntity
  8
001
370
    50
100
AcDbVertex
100
AcDb2dVertex
 10
169.386867
 20
122.613825
 30
0.0
  0
VERTEX
  5
5E2
330
5DE
100
AcDbEntity
  8
001
370
    50
100
AcDbVertex
100
AcDb2dVertex
 10
169.031654
 20
122.582778
 30
0.0
  0
VERTEX
  5
5E3
330
5DE
100
AcDbEntity
  8
001
370
    50
100
AcDbVertex
100
AcDb2dVertex
 10
168.886407
 20
122.569548
 30
0.0
  0
VERTEX
  5
5E4
330
5DE
100
AcDbEntity
  8
001
370
    50
100
AcDbVertex
100
AcDb2dVertex
 10
168.741178
 20
122.556131
 30
0.0
  0
SEQEND
  5
5DF
330
5DE
100
AcDbEntity
  8
001
370
    50
  0
POLYLINE
  5
5E5
330
1F
100
AcDbEntity
  8
001
370
    50
100
AcDb2dPolyline
 66
     1
 10
0.0
 20
0.0
 30
0.0
  0
VERTEX
  5
5E7
330
5E5
100
AcDbEntity
  8
001
370
    50
100
AcDbVertex
100
AcDb2dVertex
 10
170.743178
 20
122.737733
 30
0.0
  0
VERTEX
  5
5E8
330
5E5
100
AcDbEntity
  8
001
370
    50
100
AcDbVertex
100
AcDb2dVertex
 10
170.387857
 20
122.705678
 30
0.0
  0
VERTEX
  5
5E9
330
5E5
100
AcDbEntity
  8
001
370
    50
100
AcDbVertex
100
AcDb2dVertex
 10
170.032654
 20
122.67239
 30
0.0
  0
VERTEX
  5
5EA
330
5E5
100
AcDbEntity
  8
001
370
    50
100
AcDbVertex
100
AcDb2dVertex
 10
169.887406
 20
122.65818
 30
0.0
  0
VERTEX
  5
5EB
330
5E5
100
AcDbEntity
  8
001
370
    50
100
AcDbVertex
100
AcDb2dVertex
 10
169.742178
 20
122.643763
 30
0.0
  0
SEQEND
  5
5E6
330
5E5
100
AcDbEntity
  8
001
370
    50
  0
POLYLINE
  5
5EC
330
1F
100
AcDbEntity
  8
001
370
    50
100
AcDb2dPolyline
 66
     1
 10
0.0
 20
0.0
 30
0.0
  0
VERTEX
  5
5EE
330
5EC
100
AcDbEntity
  8
001
370
    50
100
AcDbVertex
100
AcDb2dVertex
 10
171.744178
 20
122.838014
 30
0.0
  0
VERTEX
  5
5EF
330
5EC
100
AcDbEntity
  8
001
370
    50
100
AcDbVertex
100
AcDb2dVertex
 10
171.388847
 20
122.803852
 30
0.0
  0
VERTEX
  5
5F0
330
5EC
100
AcDbEntity
  8
001
370
    50
100
AcDbVertex
100
AcDb2dVertex
 10
171.033654
 20
122.768331
 30
0.0
  0
VERTEX
  5
5F1
330
5EC
100
AcDbEntity
  8
001
370
    50
100
AcDbVertex
100
AcDb2dVertex
 10
170.888404
 20
122.753146
 30
0.0
  0
VERTEX
  5
5F2
330
5EC
100
AcDbEntity
  8
001
370
    50
100
AcDbVertex
100
AcDb2dVertex
 10
170.743178
 20
122.737733
 30
0.0
  0
SEQEND
  5
5ED
330
5EC
100
AcDbEntity
  8
001
370
    50
  0
POLYLINE
  5
5F3
330
1F
100
AcDbEntity
  8
001
370
    50
100
AcDb2dPolyline
 66
     1
 10
0.0
 20
0.0
 30
0.0
  0
VERTEX
  5
5F5
330
5F3
100
AcDbEntity
  8
001
370
    50
100
AcDbVertex
100
AcDb2dVertex
 10
172.745178
 20
122.944574
 30
0.0
  0
VERTEX
  5
5F6
330
5F3
100
AcDbEntity
  8
001
370
    50
100
AcDbVertex
100
AcDb2dVertex
 10
172.389835
 20
122.908315
 30
0.0
  0
VERTEX
  5
5F7
330
5F3
100
AcDbEntity
  8
001
370
    50
100
AcDbVertex
100
AcDb2dVertex
 10
172.034654
 20
122.870573
 30
0.0
  0
VERTEX
  5
5F8
330
5F3
100
AcDbEntity
  8
001
370
    50
100
AcDbVertex
100
AcDb2dVertex
 10
171.889402
 20
122.854418
 30
0.0
  0
VERTEX
  5
5F9
330
5F3
100
AcDbEntity
  8
001
370
    50
100
AcDbVertex
100
AcDb2dVertex
 10
171.744178
 20
122.838014
 30
0.0
  0
SEQEND
  5
5F4
330
5F3
100
AcDbEntity
  8
001
370
    50
  0
POLYLINE
  5
5FA
330
1F
100
AcDbEntity
  8
001
370
    50
100
AcDb2dPolyline
 66
     1
 10
0.0
 20
0.0
 30
0.0
  0
VERTEX
  5
5FC
330
5FA
100
AcDbEntity
  8
001
370
    50
100
AcDbVertex
100
AcDb2dVertex
 10
173.746178
 20
123.057381
 30
0.0
  0
VERTEX
  5
5FD
330
5FA
100
AcDbEntity
  8
001
370
    50
100
AcDbVertex
100
AcDb2dVertex
 10
173.390824
 20
123.019037
 30
0.0
  0
VERTEX
  5
5FE
330
5FA
100
AcDbEntity
  8
001
370
    50
100
AcDbVertex
100
AcDb2dVertex
 10
173.035654
 20
122.979085
 30
0.0
  0
VERTEX
  5
5FF
330
5FA
100
AcDbEntity
  8
001
370
    50
100
AcDbVertex
100
AcDb2dVertex
 10
172.8904
 20
122.961964
 30
0.0
  0
VERTEX
  5
600
330
5FA
100
AcDbEntity
  8
001
370
    50
100
AcDbVertex
100
AcDb2dVertex
 10
172.745178
 20
122.944574
 30
0.0
  0
SEQEND
  5
5FB
330
5FA
100
AcDbEntity
  8
001
370
    50
  0
POLYLINE
  5
601
330
1F
100
AcDbEntity
  8
001
370
    50
100
AcDb2dPolyline
 66
     1
 10
0.0
 20
0.0
 30
0.0
  0
VERTEX
  5
603
330
601
100
AcDbEntity
  8
001
370
    50
100
AcDbVertex
100
AcDb2dVertex
 10
174.747178
 20
123.176401
 30
0.0
  0
VERTEX
  5
604
330
601
100
AcDbEntity
  8
001
370
    50
100
AcDbVertex
100
AcDb2dVertex
 10
174.391811
 20
123.135982
 30
0.0
  0
VERTEX
  5
605
330
601
100
AcDbEntity
  8
001
370
    50
100
AcDbVertex
100
AcDb2dVertex
 10
174.036654
 20
123.093834
 30
0.0
  0
VERTEX
  5
606
330
601
100
AcDbEntity
  8
001
370
    50
100
AcDbVertex
100
AcDb2dVertex
 10
173.891398
 20
123.075752
 30
0.0
  0
VERTEX
  5
607
330
601
100
AcDbEntity
  8
001
370
    50
100
AcDbVertex
100
AcDb2dVertex
 10
173.746178
 20
123.057381
 30
0.0
  0
SEQEND
  5
602
330
601
100
AcDbEntity
  8
001
370
    50
  0
ARC
  5
608
330
1F
100
AcDbEntity
  8
001
370
    50
100
AcDbCircle
 10
194.63597
 20
125.003223
 30
0.0
 40
3.000000000000003
100
AcDbArc
 50
270.0
 51
0.0
  0
LINE
  5
609
330
1F
100
AcDbEntity
  8
001
370
    50
100
AcDbLine
 10
25.891132
 20
83.716381
 30
0.0
 11
80.891132
 21
83.716381
 31
0.0
  0
LINE
  5
60A
330
1F
100
AcDbEntity
  8
001
370
    50
100
AcDbLine
 10
70.891132
 20
82.716381
 30
0.0
 11
70.891132
 21
60.216381
 31
0.0
  0
LINE
  5
60B
330
1F
100
AcDbEntity
  8
001
370
    50
100
AcDbLine
 10
35.891132
 20
82.716381
 30
0.0
 11
35.891132
 21
60.216381
 31
0.0
  0
LINE
  5
60C
330
1F
100
AcDbEntity
  8
001
370
    50
100
AcDbLine
 10
35.891132
 20
60.216381
 30
0.0
 11
70.891132
 21
60.216381
 31
0.0
  0
LINE
  5
60D
330
1F
100
AcDbEntity
  8
001
370
    50
100
AcDbLine
 10
80.891132
 20
43.716381
 30
0.0
 11
25.891132
 21
43.716381
 31
0.0
  0
LINE
  5
60E
330
1F
100
AcDbEntity
  8
001
370
    50
100
AcDbLine
 10
65.391132
 20
59.216381
 30
0.0
 11
66.391132
 21
60.216381
 31
0.0
  0
LINE
  5
60F
330
1F
100
AcDbEntity
  8
001
370
    50
100
AcDbLine
 10
41.391132
 20
59.216381
 30
0.0
 11
40.391132
 21
60.216381
 31
0.0
  0
LINE
  5
610
330
1F
100
AcDbEntity
  8
001
370
    50
100
AcDbLine
 10
35.891132
 20
82.716381
 30
0.0
 11
34.891132
 21
83.716381
 31
0.0
  0
LINE
  5
611
330
1F
100
AcDbEntity
  8
001
370
    50
100
AcDbLine
 10
65.391132
 20
59.216381
 30
0.0
 11
65.391132
 21
43.716381
 31
0.0
  0
LINE
  5
612
330
1F
100
AcDbEntity
  8
001
370
    50
100
AcDbLine
 10
41.391132
 20
59.216381
 30
0.0
 11
41.391132
 21
43.716381
 31
0.0
  0
LINE
  5
613
330
1F
100
AcDbEntity
  8
001
  6
CENTER
370
     9
100
AcDbLine
 10
53.391132
 20
86.230716
 30
0.0
 11
53.391132
 21
38.458346
 31
0.0
  0
LINE
  5
614
330
1F
100
AcDbEntity
  8
001
370
    50
100
AcDbLine
 10
35.891132
 20
82.716381
 30
0.0
 11
70.891132
 21
82.716381
 31
0.0
  0
LINE
  5
615
330
1F
100
AcDbEntity
  8
001
370
    50
100
AcDbLine
 10
41.391132
 20
59.216381
 30
0.0
 11
65.391132
 21
59.216381
 31
0.0
  0
LINE
  5
616
330
1F
100
AcDbEntity
  8
001
370
    50
100
AcDbLine
 10
70.891132
 20
82.716381
 30
0.0
 11
71.891132
 21
83.716381
 31
0.0
  0
LINE
  5
617
330
1F
100
AcDbEntity
  8
001
370
     9
100
AcDbLine
 10
64.052428
 20
20.388193
 30
0.0
 11
46.729379
 21
20.388193
 31
0.0
  0
TEXT
  5
618
330
1F
100
AcDbEntity
  8
001
370
    30
100
AcDbText
 10
47.339028
 20
20.83688
 30
0.0
 40
4.0
  1
加工形状
 41
0.833333
100
AcDbText
  0
LINE
  5
619
330
1F
100
AcDbEntity
  8
001
  6
PHANTOM
370
     9
100
AcDbLine
 10
152.73597
 20
124.953223
 30
0.0
 11
152.73597
 21
115.953223
 31
0.0
  0
LINE
  5
61A
330
1F
100
AcDbEntity
  8
001
  6
PHANTOM
370
     9
100
AcDbLine
 10
151.73597
 20
125.953223
 30
0.0
 11
129.23597
 21
125.953223
 31
0.0
  0
LINE
  5
61B
330
1F
100
AcDbEntity
  8
001
  6
PHANTOM
370
     9
100
AcDbLine
 10
129.23597
 20
130.453223
 30
0.0
 11
129.23597
 21
125.953223
 31
0.0
  0
LINE
  5
61C
330
1F
100
AcDbEntity
  8
001
  6
PHANTOM
370
     9
100
AcDbLine
 10
129.23597
 20
130.453223
 30
0.0
 11
128.23597
 21
131.453223
 31
0.0
  0
LINE
  5
61D
330
1F
100
AcDbEntity
  8
001
  6
PHANTOM
370
     9
100
AcDbLine
 10
152.73597
 20
124.953223
 30
0.0
 11
151.73597
 21
125.953223
 31
0.0
  0
LINE
  5
61E
330
1F
100
AcDbEntity
  8
001
  6
PHANTOM
370
     9
100
AcDbLine
 10
152.73597
 20
161.953223
 30
0.0
 11
152.73597
 21
170.953223
 31
0.0
  0
LINE
  5
61F
330
1F
100
AcDbEntity
  8
001
  6
PHANTOM
370
     9
100
AcDbLine
 10
151.73597
 20
160.953223
 30
0.0
 11
129.23597
 21
160.953223
 31
0.0
  0
LINE
  5
620
330
1F
100
AcDbEntity
  8
001
  6
PHANTOM
370
     9
100
AcDbLine
 10
129.23597
 20
156.453223
 30
0.0
 11
129.23597
 21
160.953223
 31
0.0
  0
LINE
  5
621
330
1F
100
AcDbEntity
  8
001
  6
PHANTOM
370
     9
100
AcDbLine
 10
129.23597
 20
156.453223
 30
0.0
 11
128.23597
 21
155.453223
 31
0.0
  0
LINE
  5
622
330
1F
100
AcDbEntity
  8
001
  6
PHANTOM
370
     9
100
AcDbLine
 10
152.73597
 20
161.953223
 30
0.0
 11
151.73597
 21
160.953223
 31
0.0
  0
LINE
  5
623
330
1F
100
AcDbEntity
  8
001
370
    50
100
AcDbLine
 10
129.23597
 20
130.453223
 30
0.0
 11
127.63597
 21
132.053223
 31
0.0
  0
POLYLINE
  5
624
330
1F
100
AcDbEntity
  8
001
370
    50
100
AcDb2dPolyline
 66
     1
 10
0.0
 20
0.0
 30
0.0
  0
VERTEX
  5
626
330
624
100
AcDbEntity
  8
001
370
    50
100
AcDbVertex
100
AcDb2dVertex
 10
129.23597
 20
126.746905
 30
0.0
  0
VERTEX
  5
627
330
624
100
AcDbEntity
  8
001
370
    50
100
AcDbVertex
100
AcDb2dVertex
 10
129.239767
 20
126.681435
 30
0.0
  0
VERTEX
  5
628
330
624
100
AcDbEntity
  8
001
370
    50
100
AcDbVertex
100
AcDb2dVertex
 10
129.250995
 20
126.592321
 30
0.0
  0
VERTEX
  5
629
330
624
100
AcDbEntity
  8
001
370
    50
100
AcDbVertex
100
AcDb2dVertex
 10
129.269638
 20
126.51346
 30
0.0
  0
VERTEX
  5
62A
330
624
100
AcDbEntity
  8
001
370
    50
100
AcDbVertex
100
AcDb2dVertex
 10
129.295492
 20
126.443372
 30
0.0
  0
VERTEX
  5
62B
330
624
100
AcDbEntity
  8
001
370
    50
100
AcDbVertex
100
AcDb2dVertex
 10
129.328263
 20
126.373861
 30
0.0
  0
VERTEX
  5
62C
330
624
100
AcDbEntity
  8
001
370
    50
100
AcDbVertex
100
AcDb2dVertex
 10
129.36775
 20
126.3061
 30
0.0
  0
VERTEX
  5
62D
330
624
100
AcDbEntity
  8
001
370
    50
100
AcDbVertex
100
AcDb2dVertex
 10
129.413492
 20
126.243325
 30
0.0
  0
VERTEX
  5
62E
330
624
100
AcDbEntity
  8
001
370
    50
100
AcDbVertex
100
AcDb2dVertex
 10
129.464994
 20
126.18578
 30
0.0
  0
VERTEX
  5
62F
330
624
100
AcDbEntity
  8
001
370
    50
100
AcDbVertex
100
AcDb2dVertex
 10
129.521573
 20
126.133554
 30
0.0
  0
VERTEX
  5
630
330
624
100
AcDbEntity
  8
001
370
    50
100
AcDbVertex
100
AcDb2dVertex
 10
129.583486
 20
126.087036
 30
0.0
  0
VERTEX
  5
631
330
624
100
AcDbEntity
  8
001
370
    50
100
AcDbVertex
100
AcDb2dVertex
 10
129.650144
 20
126.046987
 30
0.0
  0
VERTEX
  5
632
330
624
100
AcDbEntity
  8
001
370
    50
100
AcDbVertex
100
AcDb2dVertex
 10
129.718673
 20
126.013663
 30
0.0
  0
VERTEX
  5
633
330
624
100
AcDbEntity
  8
001
370
    50
100
AcDbVertex
100
AcDb2dVertex
 10
129.787621
 20
125.98743
 30
0.0
  0
VERTEX
  5
634
330
624
100
AcDbEntity
  8
001
370
    50
100
AcDbVertex
100
AcDb2dVertex
 10
129.865359
 20
125.968479
 30
0.0
  0
VERTEX
  5
635
330
624
100
AcDbEntity
  8
001
370
    50
100
AcDbVertex
100
AcDb2dVertex
 10
129.953444
 20
125.95705
 30
0.0
  0
VERTEX
  5
636
330
624
100
AcDbEntity
  8
001
370
    50
100
AcDbVertex
100
AcDb2dVertex
 10
130.017907
 20
125.953223
 30
0.0
  0
SEQEND
  5
625
330
624
100
AcDbEntity
  8
001
370
    50
  0
LINE
  5
637
330
1F
100
AcDbEntity
  8
001
370
    50
100
AcDbLine
 10
153.73597
 20
123.953223
 30
0.0
 11
150.918726
 21
126.770467
 31
0.0
  0
POLYLINE
  5
638
330
1F
100
AcDbEntity
  8
001
370
    50
100
AcDb2dPolyline
 66
     1
 10
0.0
 20
0.0
 30
0.0
  0
VERTEX
  5
63A
330
638
100
AcDbEntity
  8
001
370
    50
100
AcDbVertex
100
AcDb2dVertex
 10
150.921042
 20
127.89335
 30
0.0
  0
VERTEX
  5
63B
330
638
100
AcDbEntity
  8
001
370
    50
100
AcDbVertex
100
AcDb2dVertex
 10
150.882509
 20
127.850114
 30
0.0
  0
VERTEX
  5
63C
330
638
100
AcDbEntity
  8
001
370
    50
100
AcDbVertex
100
AcDb2dVertex
 10
150.833211
 20
127.787514
 30
0.0
  0
VERTEX
  5
63D
330
638
100
AcDbEntity
  8
001
370
    50
100
AcDbVertex
100
AcDb2dVertex
 10
150.794353
 20
127.727048
 30
0.0
  0
VERTEX
  5
63E
330
638
100
AcDbEntity
  8
001
370
    50
100
AcDbVertex
100
AcDb2dVertex
 10
150.764813
 20
127.667798
 30
0.0
  0
VERTEX
  5
63F
330
638
100
AcDbEntity
  8
001
370
    50
100
AcDbVertex
100
AcDb2dVertex
 10
150.739127
 20
127.60439
 30
0.0
  0
VERTEX
  5
640
330
638
100
AcDbEntity
  8
001
370
    50
100
AcDbVertex
100
AcDb2dVertex
 10
150.717928
 20
127.537841
 30
0.0
  0
VERTEX
  5
641
330
638
100
AcDbEntity
  8
001
370
    50
100
AcDbVertex
100
AcDb2dVertex
 10
150.702863
 20
127.470091
 30
0.0
  0
VERTEX
  5
642
330
638
100
AcDbEntity
  8
001
370
    50
100
AcDbVertex
100
AcDb2dVertex
 10
150.693978
 20
127.401591
 30
0.0
  0
VERTEX
  5
643
330
638
100
AcDbEntity
  8
001
370
    50
100
AcDbVertex
100
AcDb2dVertex
 10
150.690942
 20
127.332396
 30
0.0
  0
VERTEX
  5
644
330
638
100
AcDbEntity
  8
001
370
    50
100
AcDbVertex
100
AcDb2dVertex
 10
150.693693
 20
127.263188
 30
0.0
  0
VERTEX
  5
645
330
638
100
AcDbEntity
  8
001
370
    50
100
AcDbVertex
100
AcDb2dVertex
 10
150.702295
 20
127.19465
 30
0.0
  0
VERTEX
  5
646
330
638
100
AcDbEntity
  8
001
370
    50
100
AcDbVertex
100
AcDb2dVertex
 10
150.71708
 20
127.126837
 30
0.0
  0
VERTEX
  5
647
330
638
100
AcDbEntity
  8
001
370
    50
100
AcDbVertex
100
AcDb2dVertex
 10
150.738004
 20
127.060199
 30
0.0
  0
VERTEX
  5
648
330
638
100
AcDbEntity
  8
001
370
    50
100
AcDbVertex
100
AcDb2dVertex
 10
150.763429
 20
126.996682
 30
0.0
  0
VERTEX
  5
649
330
638
100
AcDbEntity
  8
001
370
    50
100
AcDbVertex
100
AcDb2dVertex
 10
150.792724
 20
126.937307
 30
0.0
  0
VERTEX
  5
64A
330
638
100
AcDbEntity
  8
001
370
    50
100
AcDbVertex
100
AcDb2dVertex
 10
150.831332
 20
126.876677
 30
0.0
  0
VERTEX
  5
64B
330
638
100
AcDbEntity
  8
001
370
    50
100
AcDbVertex
100
AcDb2dVertex
 10
150.880372
 20
126.813867
 30
0.0
  0
VERTEX
  5
64C
330
638
100
AcDbEntity
  8
001
370
    50
100
AcDbVertex
100
AcDb2dVertex
 10
150.918726
 20
126.770467
 30
0.0
  0
SEQEND
  5
639
330
638
100
AcDbEntity
  8
001
370
    50
  0
POLYLINE
  5
64D
330
1F
100
AcDbEntity
  8
001
370
    50
100
AcDb2dPolyline
 66
     1
 10
0.0
 20
0.0
 30
0.0
  0
VERTEX
  5
64F
330
64D
100
AcDbEntity
  8
001
370
    50
100
AcDbVertex
100
AcDb2dVertex
 10
152.336713
 20
129.409434
 30
0.0
  0
VERTEX
  5
650
330
64D
100
AcDbEntity
  8
001
370
    50
100
AcDbVertex
100
AcDb2dVertex
 10
152.337155
 20
129.447996
 30
0.0
  0
VERTEX
  5
651
330
64D
100
AcDbEntity
  8
001
370
    50
100
AcDbVertex
100
AcDb2dVertex
 10
152.337597
 20
129.486558
 30
0.0
  0
VERTEX
  5
652
330
64D
100
AcDbEntity
  8
001
370
    50
100
AcDbVertex
100
AcDb2dVertex
 10
152.340273
 20
129.720441
 30
0.0
  0
VERTEX
  5
653
330
64D
100
AcDbEntity
  8
001
370
    50
100
AcDbVertex
100
AcDb2dVertex
 10
152.343615
 20
130.013854
 30
0.0
  0
VERTEX
  5
654
330
64D
100
AcDbEntity
  8
001
370
    50
100
AcDbVertex
100
AcDb2dVertex
 10
152.347655
 20
130.371083
 30
0.0
  0
VERTEX
  5
655
330
64D
100
AcDbEntity
  8
001
370
    50
100
AcDbVertex
100
AcDb2dVertex
 10
152.350404
 20
130.615503
 30
0.0
  0
SEQEND
  5
64E
330
64D
100
AcDbEntity
  8
001
370
    50
  0
POLYLINE
  5
656
330
1F
100
AcDbEntity
  8
001
370
    50
100
AcDb2dPolyline
 66
     1
 10
0.0
 20
0.0
 30
0.0
  0
VERTEX
  5
658
330
656
100
AcDbEntity
  8
001
370
    50
100
AcDbVertex
100
AcDb2dVertex
 10
150.027927
 20
127.121381
 30
0.0
  0
VERTEX
  5
659
330
656
100
AcDbEntity
  8
001
370
    50
100
AcDbVertex
100
AcDb2dVertex
 10
150.239818
 20
127.329194
 30
0.0
  0
VERTEX
  5
65A
330
656
100
AcDbEntity
  8
001
370
    50
100
AcDbVertex
100
AcDb2dVertex
 10
150.548778
 20
127.633658
 30
0.0
  0
VERTEX
  5
65B
330
656
100
AcDbEntity
  8
001
370
    50
100
AcDbVertex
100
AcDb2dVertex
 10
150.667871
 20
127.75157
 30
0.0
  0
VERTEX
  5
65C
330
656
100
AcDbEntity
  8
001
370
    50
100
AcDbVertex
100
AcDb2dVertex
 10
150.782064
 20
127.864902
 30
0.0
  0
VERTEX
  5
65D
330
656
100
AcDbEntity
  8
001
370
    50
100
AcDbVertex
100
AcDb2dVertex
 10
151.559389
 20
128.637168
 30
0.0
  0
VERTEX
  5
65E
330
656
100
AcDbEntity
  8
001
370
    50
100
AcDbVertex
100
AcDb2dVertex
 10
152.336713
 20
129.409434
 30
0.0
  0
SEQEND
  5
657
330
656
100
AcDbEntity
  8
001
370
    50
  0
LINE
  5
65F
330
1F
100
AcDbEntity
  8
001
370
    50
100
AcDbLine
 10
152.607246
 20
130.605117
 30
0.0
 11
152.593563
 21
129.584574
 31
0.0
  0
LINE
  5
660
330
1F
100
AcDbEntity
  8
001
370
    50
100
AcDbLine
 10
152.336713
 20
129.409434
 30
0.0
 11
152.420359
 21
129.409434
 31
0.0
  0
LINE
  5
661
330
1F
100
AcDbEntity
  8
001
370
    50
100
AcDbLine
 10
150.703002
 20
127.190569
 30
0.0
 11
150.561151
 21
127.047131
 31
0.0
  0
POLYLINE
  5
662
330
1F
100
AcDbEntity
  8
001
370
    50
100
AcDb2dPolyline
 66
     1
 10
0.0
 20
0.0
 30
0.0
  0
VERTEX
  5
664
330
662
100
AcDbEntity
  8
001
370
    50
100
AcDbVertex
100
AcDb2dVertex
 10
150.561151
 20
127.047131
 30
0.0
  0
VERTEX
  5
665
330
662
100
AcDbEntity
  8
001
370
    50
100
AcDbVertex
100
AcDb2dVertex
 10
150.637204
 20
127.048121
 30
0.0
  0
VERTEX
  5
666
330
662
100
AcDbEntity
  8
001
370
    50
100
AcDbVertex
100
AcDb2dVertex
 10
150.741921
 20
127.049503
 30
0.0
  0
SEQEND
  5
663
330
662
100
AcDbEntity
  8
001
370
    50
  0
LINE
  5
667
330
1F
100
AcDbEntity
  8
001
  6
CENTER
370
     9
100
AcDbLine
 10
155.490452
 20
121.118223
 30
0.0
 11
159.28209
 21
121.118223
 31
0.0
  0
ARC
  5
668
330
1F
100
AcDbEntity
  8
001
370
    50
100
AcDbCircle
 10
159.199281
 20
121.884351
 30
0.0
 40
0.7661275694772014
100
AcDbArc
 50
224.441469
 51
315.318559
  0
LINE
  5
669
330
1F
100
AcDbEntity
  8
001
370
    50
100
AcDbLine
 10
156.097298
 20
123.953223
 30
0.0
 11
153.73597
 21
123.953223
 31
0.0
  0
LINE
  5
66A
330
1F
100
AcDbEntity
  8
001
370
    50
100
AcDbLine
 10
156.581307
 20
122.122892
 30
0.0
 11
154.786312
 21
123.953223
 31
0.0
  0
LINE
  5
66B
330
1F
100
AcDbEntity
  8
001
  6
CENTER
370
     9
100
AcDbLine
 10
155.490452
 20
165.788223
 30
0.0
 11
159.28209
 21
165.788223
 31
0.0
  0
LINE
  5
66C
330
1F
100
AcDbEntity
  8
001
  6
PHANTOM
370
     9
100
AcDbLine
 10
156.097298
 20
162.953223
 30
0.0
 11
153.73597
 21
162.953223
 31
0.0
  0
LINE
  5
66D
330
1F
100
AcDbEntity
  8
001
  6
PHANTOM
370
     9
100
AcDbLine
 10
128.23597
 20
155.453223
 30
0.0
 11
120.294378
 21
155.453223
 31
0.0
  0
LINE
  5
66E
330
1F
100
AcDbEntity
  8
001
  6
PHANTOM
370
     9
100
AcDbLine
 10
128.23597
 20
131.453223
 30
0.0
 11
120.294378
 21
131.453223
 31
0.0
  0
ENDSEC
  0
SECTION
  2
OBJECTS
  0
DICTIONARY
  5
C
330
0
100
AcDbDictionary
281
     1
  3
ACAD_GROUP
350
D
  3
ACAD_LAYOUT
350
1A
  3
ACAD_MLEADERSTYLE
350
672
  3
ACAD_MLINESTYLE
350
17
  3
ACAD_PLOTSETTINGS
350
19
  3
ACAD_PLOTSTYLENAME
350
E
  3
ACAD_SCALELIST
350
3B
  3
ACAD_TABLESTYLE
350
671
  3
ACAD_VISUALSTYLE
350
2A
  3
AcDbVariableDictionary
350
66F
  0
DICTIONARY
  5
D
102
{ACAD_REACTORS
330
C
102
}
330
C
100
AcDbDictionary
281
     1
  0
DICTIONARY
  5
1A
102
{ACAD_REACTORS
330
C
102
}
330
C
100
AcDbDictionary
281
     1
  3
Layout1
350
1E
  3
Layout2
350
26
  3
Model
350
22
  0
DICTIONARY
  5
672
102
{ACAD_REACTORS
330
C
102
}
330
C
100
AcDbDictionary
281
     1
  0
DICTIONARY
  5
17
102
{ACAD_REACTORS
330
C
102
}
330
C
100
AcDbDictionary
281
     1
  3
Standard
350
18
  0
DICTIONARY
  5
19
102
{ACAD_REACTORS
330
C
102
}
330
C
100
AcDbDictionary
281
     1
  0
ACDBDICTIONARYWDFLT
  5
E
102
{ACAD_REACTORS
330
C
102
}
330
C
100
AcDbDictionary
281
     1
  3
Normal
350
F
100
AcDbDictionaryWithDefault
340
F
  0
DICTIONARY
  5
3B
102
{ACAD_REACTORS
330
C
102
}
330
C
100
AcDbDictionary
281
     1
  3
A0
350
3C
  3
A1
350
3D
  3
A2
350
3E
  3
A3
350
3F
  3
A4
350
40
  3
A5
350
41
  3
A6
350
42
  3
A7
350
43
  3
A8
350
44
  3
A9
350
45
  3
B0
350
46
  3
B1
350
47
  3
B2
350
48
  3
B3
350
49
  3
B4
350
4A
  3
B5
350
4B
  3
B6
350
4C
  3
B7
350
4D
  3
B8
350
4E
  3
B9
350
4F
  3
C0
350
50
  3
C1
350
51
  3
C2
350
52
  3
C3
350
53
  3
C4
350
54
  3
C5
350
55
  3
C6
350
56
  3
C7
350
57
  3
C8
350
58
  3
C9
350
59
  3
D0
350
5A
  3
D1
350
5B
  3
D2
350
5C
  0
DICTIONARY
  5
671
102
{ACAD_REACTORS
330
C
102
}
330
C
100
AcDbDictionary
281
     1
  0
DICTIONARY
  5
2A
102
{ACAD_REACTORS
330
C
102
}
330
C
100
AcDbDictionary
281
     1
  3
2dWireframe
350
2F
  3
3D Hidden
350
31
  3
3dWireframe
350
30
  3
Basic
350
32
  3
Brighten
350
36
  3
ColorChange
350
3A
  3
Conceptual
350
34
  3
Dim
350
35
  3
Facepattern
350
39
  3
Flat
350
2B
  3
FlatWithEdges
350
2C
  3
Gouraud
350
2D
  3
GouraudWithEdges
350
2E
  3
Linepattern
350
38
  3
Realistic
350
33
  3
Thicken
350
37
  0
DICTIONARY
  5
66F
102
{ACAD_REACTORS
330
C
102
}
330
C
100
AcDbDictionary
281
     1
  3
CANNOSCALE
350
670
  3
PSOLHEIGHT
350
674
  3
PSOLWIDTH
350
673
  0
LAYOUT
  5
1E
102
{ACAD_REACTORS
330
1A
102
}
330
1A
100
AcDbPlotSettings
  1

  2
none_device
  4

  6

 40
0.0
 41
0.0
 42
0.0
 43
0.0
 44
0.0
 45
0.0
 46
0.0
 47
0.0
 48
0.0
 49
0.0
140
0.0
141
0.0
142
1.0
143
1.0
 70
   688
 72
     0
 73
     0
 74
     5
  7

 75
    16
147
1.0
148
0.0
149
0.0
100
AcDbLayout
  1
Layout1
 70
     1
 71
     1
 10
0.0
 20
0.0
 11
12.0
 21
9.0
 12
0.0
 22
0.0
 32
0.0
 14
1.000000E+20
 24
1.000000E+20
 34
0.0
 15
-1.000000E+20
 25
-1.000000E+20
 35
0.0
146
0.0
 13
0.0
 23
0.0
 33
0.0
 16
1.0
 26
0.0
 36
0.0
 17
0.0
 27
1.0
 37
0.0
 76
     0
330
1B
  0
LAYOUT
  5
26
102
{ACAD_REACTORS
330
1A
102
}
330
1A
100
AcDbPlotSettings
  1

  2
none_device
  4

  6

 40
0.0
 41
0.0
 42
0.0
 43
0.0
 44
0.0
 45
0.0
 46
0.0
 47
0.0
 48
0.0
 49
0.0
140
0.0
141
0.0
142
1.0
143
1.0
 70
   688
 72
     0
 73
     0
 74
     5
  7

 75
    16
147
1.0
148
0.0
149
0.0
100
AcDbLayout
  1
Layout2
 70
     1
 71
     2
 10
0.0
 20
0.0
 11
0.0
 21
0.0
 12
0.0
 22
0.0
 32
0.0
 14
0.0
 24
0.0
 34
0.0
 15
0.0
 25
0.0
 35
0.0
146
0.0
 13
0.0
 23
0.0
 33
0.0
 16
1.0
 26
0.0
 36
0.0
 17
0.0
 27
1.0
 37
0.0
 76
     0
330
23
  0
LAYOUT
  5
22
102
{ACAD_REACTORS
330
1A
102
}
330
1A
100
AcDbPlotSettings
  1

  2
none_device
  4

  6

 40
0.0
 41
0.0
 42
0.0
 43
0.0
 44
0.0
 45
0.0
 46
0.0
 47
0.0
 48
0.0
 49
0.0
140
0.0
141
0.0
142
1.0
143
1.0
 70
  1712
 72
     0
 73
     0
 74
     0
  7

 75
     0
147
1.0
148
0.0
149
0.0
100
AcDbLayout
  1
Model
 70
     1
 71
     0
 10
0.0
 20
0.0
 11
12.0
 21
9.0
 12
0.0
 22
0.0
 32
0.0
 14
25.891144
 24
20.388199
 34
0.0
 15
302.277222
 25
210.817215
 35
0.0
146
0.0
 13
0.0
 23
0.0
 33
0.0
 16
1.0
 26
0.0
 36
0.0
 17
0.0
 27
1.0
 37
0.0
 76
     0
330
1F
331
29
  0
MLINESTYLE
  5
18
102
{ACAD_REACTORS
330
17
102
}
330
17
100
AcDbMlineStyle
  2
Standard
 70
     0
  3

 62
   256
 51
90.0
 52
90.0
 71
     2
 49
0.5
 62
   256
  6
BYLAYER
 49
-0.5
 62
   256
  6
BYLAYER
  0
ACDBPLACEHOLDER
  5
F
102
{ACAD_REACTORS
330
E
102
}
330
E
  0
SCALE
  5
3C
102
{ACAD_REACTORS
330
3B
102
}
330
3B
100
AcDbScale
 70
     0
300
1:1
140
1.0
141
1.0
290
     1
  0
SCALE
  5
3D
102
{ACAD_REACTORS
330
3B
102
}
330
3B
100
AcDbScale
 70
     0
300
1:2
140
1.0
141
2.0
290
     0
  0
SCALE
  5
3E
102
{ACAD_REACTORS
330
3B
102
}
330
3B
100
AcDbScale
 70
     0
300
1:4
140
1.0
141
4.0
290
     0
  0
SCALE
  5
3F
102
{ACAD_REACTORS
330
3B
102
}
330
3B
100
AcDbScale
 70
     0
300
1:5
140
1.0
141
5.0
290
     0
  0
SCALE
  5
40
102
{ACAD_REACTORS
330
3B
102
}
330
3B
100
AcDbScale
 70
     0
300
1:8
140
1.0
141
8.0
290
     0
  0
SCALE
  5
41
102
{ACAD_REACTORS
330
3B
102
}
330
3B
100
AcDbScale
 70
     0
300
1:10
140
1.0
141
10.0
290
     0
  0
SCALE
  5
42
102
{ACAD_REACTORS
330
3B
102
}
330
3B
100
AcDbScale
 70
     0
300
1:16
140
1.0
141
16.0
290
     0
  0
SCALE
  5
43
102
{ACAD_REACTORS
330
3B
102
}
330
3B
100
AcDbScale
 70
     0
300
1:20
140
1.0
141
20.0
290
     0
  0
SCALE
  5
44
102
{ACAD_REACTORS
330
3B
102
}
330
3B
100
AcDbScale
 70
     0
300
1:30
140
1.0
141
30.0
290
     0
  0
SCALE
  5
45
102
{ACAD_REACTORS
330
3B
102
}
330
3B
100
AcDbScale
 70
     0
300
1:40
140
1.0
141
40.0
290
     0
  0
SCALE
  5
46
102
{ACAD_REACTORS
330
3B
102
}
330
3B
100
AcDbScale
 70
     0
300
1:50
140
1.0
141
50.0
290
     0
  0
SCALE
  5
47
102
{ACAD_REACTORS
330
3B
102
}
330
3B
100
AcDbScale
 70
     0
300
1:100
140
1.0
141
100.0
290
     0
  0
SCALE
  5
48
102
{ACAD_REACTORS
330
3B
102
}
330
3B
100
AcDbScale
 70
     0
300
2:1
140
2.0
141
1.0
290
     0
  0
SCALE
  5
49
102
{ACAD_REACTORS
330
3B
102
}
330
3B
100
AcDbScale
 70
     0
300
4:1
140
4.0
141
1.0
290
     0
  0
SCALE
  5
4A
102
{ACAD_REACTORS
330
3B
102
}
330
3B
100
AcDbScale
 70
     0
300
8:1
140
8.0
141
1.0
290
     0
  0
SCALE
  5
4B
102
{ACAD_REACTORS
330
3B
102
}
330
3B
100
AcDbScale
 70
     0
300
10:1
140
10.0
141
1.0
290
     0
  0
SCALE
  5
4C
102
{ACAD_REACTORS
330
3B
102
}
330
3B
100
AcDbScale
 70
     0
300
100:1
140
100.0
141
1.0
290
     0
  0
SCALE
  5
4D
102
{ACAD_REACTORS
330
3B
102
}
330
3B
100
AcDbScale
 70
     0
300
1/128" = 1'-0"
140
0.007812
141
12.0
290
     0
  0
SCALE
  5
4E
102
{ACAD_REACTORS
330
3B
102
}
330
3B
100
AcDbScale
 70
     0
300
1/64" = 1'-0"
140
0.015625
141
12.0
290
     0
  0
SCALE
  5
4F
102
{ACAD_REACTORS
330
3B
102
}
330
3B
100
AcDbScale
 70
     0
300
1/32" = 1'-0"
140
0.03125
141
12.0
290
     0
  0
SCALE
  5
50
102
{ACAD_REACTORS
330
3B
102
}
330
3B
100
AcDbScale
 70
     0
300
1/16" = 1'-0"
140
0.0625
141
12.0
290
     0
  0
SCALE
  5
51
102
{ACAD_REACTORS
330
3B
102
}
330
3B
100
AcDbScale
 70
     0
300
3/32" = 1'-0"
140
0.09375
141
12.0
290
     0
  0
SCALE
  5
52
102
{ACAD_REACTORS
330
3B
102
}
330
3B
100
AcDbScale
 70
     0
300
1/8" = 1'-0"
140
0.125
141
12.0
290
     0
  0
SCALE
  5
53
102
{ACAD_REACTORS
330
3B
102
}
330
3B
100
AcDbScale
 70
     0
300
3/16" = 1'-0"
140
0.1875
141
12.0
290
     0
  0
SCALE
  5
54
102
{ACAD_REACTORS
330
3B
102
}
330
3B
100
AcDbScale
 70
     0
300
1/4" = 1'-0"
140
0.25
141
12.0
290
     0
  0
SCALE
  5
55
102
{ACAD_REACTORS
330
3B
102
}
330
3B
100
AcDbScale
 70
     0
300
3/8" = 1'-0"
140
0.375
141
12.0
290
     0
  0
SCALE
  5
56
102
{ACAD_REACTORS
330
3B
102
}
330
3B
100
AcDbScale
 70
     0
300
1/2" = 1'-0"
140
0.5
141
12.0
290
     0
  0
SCALE
  5
57
102
{ACAD_REACTORS
330
3B
102
}
330
3B
100
AcDbScale
 70
     0
300
3/4" = 1'-0"
140
0.75
141
12.0
290
     0
  0
SCALE
  5
58
102
{ACAD_REACTORS
330
3B
102
}
330
3B
100
AcDbScale
 70
     0
300
1" = 1'-0"
140
1.0
141
12.0
290
     0
  0
SCALE
  5
59
102
{ACAD_REACTORS
330
3B
102
}
330
3B
100
AcDbScale
 70
     0
300
1-1/2" = 1'-0"
140
1.5
141
12.0
290
     0
  0
SCALE
  5
5A
102
{ACAD_REACTORS
330
3B
102
}
330
3B
100
AcDbScale
 70
     0
300
3" = 1'-0"
140
3.0
141
12.0
290
     0
  0
SCALE
  5
5B
102
{ACAD_REACTORS
330
3B
102
}
330
3B
100
AcDbScale
 70
     0
300
6" = 1'-0"
140
6.0
141
12.0
290
     0
  0
SCALE
  5
5C
102
{ACAD_REACTORS
330
3B
102
}
330
3B
100
AcDbScale
 70
     0
300
1'-0" = 1'-0"
140
12.0
141
12.0
290
     0
  0
VISUALSTYLE
  5
2F
102
{ACAD_REACTORS
330
2A
102
}
330
2A
100
AcDbVisualStyle
  2
2dWireframe
 70
     4
 71
     0
 72
     2
 73
     0
 90
        0
 40
-0.6
 41
-30.0
 62
     5
 63
     7
 74
     1
 91
        4
 64
     7
 65
   257
 75
     1
175
     1
 42
1.0
 92
        0
 66
   257
 43
1.0
 76
     1
 77
     6
 78
     2
 67
     7
 79
     5
170
     0
171
     0
290
     0
174
     0
 93
        1
 44
0.0
173
     0
291
     0
 45
0.0
1001
ACAD
1000
AcDbSavedByObjectVersion
1070
     0
  0
VISUALSTYLE
  5
31
102
{ACAD_REACTORS
330
2A
102
}
330
2A
100
AcDbVisualStyle
  2
3D Hidden
 70
     6
 71
     1
 72
     2
 73
     2
 90
        0
 40
-0.6
 41
-30.0
 62
     5
 63
     7
 74
     2
 91
        2
 64
     7
 65
   257
 75
     2
175
     1
 42
40.0
 92
        0
 66
   257
 43
1.0
 76
     1
 77
     6
 78
     2
 67
     7
 79
     3
170
     0
171
     0
290
     0
174
     0
 93
        1
 44
0.0
173
     0
291
     0
 45
0.0
1001
ACAD
1000
AcDbSavedByObjectVersion
1070
     0
  0
VISUALSTYLE
  5
30
102
{ACAD_REACTORS
330
2A
102
}
330
2A
100
AcDbVisualStyle
  2
3dWireframe
 70
     5
 71
     0
 72
     2
 73
     0
 90
        0
 40
-0.6
 41
-30.0
 62
     5
 63
     7
 74
     1
 91
        4
 64
     7
 65
   257
 75
     1
175
     1
 42
1.0
 92
        0
 66
   257
 43
1.0
 76
     1
 77
     6
 78
     2
 67
     7
 79
     5
170
     0
171
     0
290
     0
174
     0
 93
        1
 44
0.0
173
     0
291
     0
 45
0.0
1001
ACAD
1000
AcDbSavedByObjectVersion
1070
     0
  0
VISUALSTYLE
  5
32
102
{ACAD_REACTORS
330
2A
102
}
330
2A
100
AcDbVisualStyle
  2
Basic
 70
     7
 71
     1
 72
     0
 73
     1
 90
        0
 40
-0.6
 41
-30.0
 62
     5
 63
     7
 74
     0
 91
        4
 64
     7
 65
   257
 75
     1
175
     1
 42
1.0
 92
        8
 66
     7
 43
1.0
 76
     1
 77
     6
 78
     2
 67
     7
 79
     5
170
     0
171
     0
290
     0
174
     0
 93
        1
 44
0.0
173
     0
291
     1
 45
0.0
1001
ACAD
1000
AcDbSavedByObjectVersion
1070
     0
  0
VISUALSTYLE
  5
36
102
{ACAD_REACTORS
330
2A
102
}
330
2A
100
AcDbVisualStyle
  2
Brighten
 70
    12
 71
     2
 72
     2
 73
     0
 90
        0
 40
-0.6
 41
-30.0
 62
     5
 63
     7
 74
     1
 91
        4
 64
     7
 65
   257
 75
     1
175
     1
 42
1.0
 92
        8
 66
     7
 43
1.0
 76
     1
 77
     6
 78
     2
 67
     7
 79
     5
170
     0
171
     0
290
     0
174
     0
 93
        1
 44
50.0
173
     0
291
     1
 45
0.0
1001
ACAD
1000
AcDbSavedByObjectVersion
1070
     0
  0
VISUALSTYLE
  5
3A
102
{ACAD_REACTORS
330
2A
102
}
330
2A
100
AcDbVisualStyle
  2
ColorChange
 70
    16
 71
     2
 72
     2
 73
     3
 90
        0
 40
-0.6
 41
-30.0
 62
     5
 63
     8
 74
     1
 91
        4
 64
     7
 65
   257
 75
     1
175
     1
 42
1.0
 92
        8
 66
     8
 43
1.0
 76
     1
 77
     6
 78
     2
 67
     7
 79
     5
170
     0
171
     0
290
     0
174
     0
 93
        1
 44
0.0
173
     0
291
     1
 45
0.0
1001
ACAD
1000
AcDbSavedByObjectVersion
1070
     0
  0
VISUALSTYLE
  5
34
102
{ACAD_REACTORS
330
2A
102
}
330
2A
100
AcDbVisualStyle
  2
Conceptual
 70
     9
 71
     3
 72
     2
 73
     0
 90
        0
 40
-0.6
 41
-30.0
 62
     5
 63
     7
 74
     2
 91
        2
 64
     7
 65
   257
 75
     1
175
     1
 42
40.0
 92
        8
 66
     7
 43
1.0
 76
     1
 77
     6
 78
     2
 67
     7
 79
     3
170
     0
171
     0
290
     0
174
     0
 93
        1
 44
0.0
173
     0
291
     0
 45
0.0
1001
ACAD
1000
AcDbSavedByObjectVersion
1070
     0
  0
VISUALSTYLE
  5
35
102
{ACAD_REACTORS
330
2A
102
}
330
2A
100
AcDbVisualStyle
  2
Dim
 70
    11
 71
     2
 72
     2
 73
     0
 90
        0
 40
-0.6
 41
-30.0
 62
     5
 63
     7
 74
     1
 91
        4
 64
     7
 65
   257
 75
     1
175
     1
 42
1.0
 92
        8
 66
     7
 43
1.0
 76
     1
 77
     6
 78
     2
 67
     7
 79
     5
170
     0
171
     0
290
     0
174
     0
 93
        1
 44
-50.0
173
     0
291
     1
 45
0.0
1001
ACAD
1000
AcDbSavedByObjectVersion
1070
     0
  0
VISUALSTYLE
  5
39
102
{ACAD_REACTORS
330
2A
102
}
330
2A
100
AcDbVisualStyle
  2
Facepattern
 70
    15
 71
     2
 72
     2
 73
     0
 90
        0
 40
-0.6
 41
-30.0
 62
     5
 63
     7
 74
     1
 91
        4
 64
     7
 65
   257
 75
     1
175
     1
 42
1.0
 92
        8
 66
     7
 43
1.0
 76
     1
 77
     6
 78
     2
 67
     7
 79
     5
170
     0
171
     0
290
     0
174
     0
 93
        1
 44
0.0
173
     0
291
     1
 45
0.0
1001
ACAD
1000
AcDbSavedByObjectVersion
1070
     0
  0
VISUALSTYLE
  5
2B
102
{ACAD_REACTORS
330
2A
102
}
330
2A
100
AcDbVisualStyle
  2
Flat
 70
     0
 71
     2
 72
     1
 73
     1
 90
        2
 40
-0.6
 41
30.0
 62
     5
 63
     7
 74
     0
 91
        4
 64
     7
 65
   257
 75
     1
175
     1
 42
1.0
 92
        8
 66
     7
 43
1.0
 76
     1
 77
     6
 78
     2
 67
     7
 79
     5
170
     0
171
     0
290
     0
174
     0
 93
       13
 44
0.0
173
     0
291
     1
 45
0.0
1001
ACAD
1000
AcDbSavedByObjectVersion
1070
     0
  0
VISUALSTYLE
  5
2C
102
{ACAD_REACTORS
330
2A
102
}
330
2A
100
AcDbVisualStyle
  2
FlatWithEdges
 70
     1
 71
     2
 72
     1
 73
     1
 90
        2
 40
-0.6
 41
30.0
 62
     5
 63
     7
 74
     1
 91
        4
 64
     7
 65
   257
 75
     1
175
     1
 42
1.0
 92
        0
 66
   257
 43
1.0
 76
     1
 77
     6
 78
     2
 67
     7
 79
     5
170
     0
171
     0
290
     0
174
     0
 93
       13
 44
0.0
173
     0
291
     1
 45
0.0
1001
ACAD
1000
AcDbSavedByObjectVersion
1070
     0
  0
VISUALSTYLE
  5
2D
102
{ACAD_REACTORS
330
2A
102
}
330
2A
100
AcDbVisualStyle
  2
Gouraud
 70
     2
 71
     2
 72
     2
 73
     1
 90
        2
 40
-0.6
 41
30.0
 62
     5
 63
     7
 74
     0
 91
        4
 64
     7
 65
   257
 75
     1
175
     1
 42
1.0
 92
        0
 66
     7
 43
1.0
 76
     1
 77
     6
 78
     2
 67
     7
 79
     5
170
     0
171
     0
290
     0
174
     0
 93
       13
 44
0.0
173
     0
291
     1
 45
0.0
1001
ACAD
1000
AcDbSavedByObjectVersion
1070
     0
  0
VISUALSTYLE
  5
2E
102
{ACAD_REACTORS
330
2A
102
}
330
2A
100
AcDbVisualStyle
  2
GouraudWithEdges
 70
     3
 71
     2
 72
     2
 73
     1
 90
        2
 40
-0.6
 41
30.0
 62
     5
 63
     7
 74
     1
 91
        4
 64
     7
 65
   257
 75
     1
175
     1
 42
1.0
 92
        0
 66
   257
 43
1.0
 76
     1
 77
     6
 78
     2
 67
     7
 79
     5
170
     0
171
     0
290
     0
174
     0
 93
       13
 44
0.0
173
     0
291
     1
 45
0.0
1001
ACAD
1000
AcDbSavedByObjectVersion
1070
     0
  0
VISUALSTYLE
  5
38
102
{ACAD_REACTORS
330
2A
102
}
330
2A
100
AcDbVisualStyle
  2
Linepattern
 70
    14
 71
     2
 72
     2
 73
     0
 90
        0
 40
-0.6
 41
-30.0
 62
     5
 63
     7
 74
     1
 91
        4
 64
     7
 65
   257
 75
     7
175
     7
 42
1.0
 92
        8
 66
     7
 43
1.0
 76
     1
 77
     6
 78
     2
 67
     7
 79
     5
170
     0
171
     0
290
     0
174
     0
 93
        1
 44
0.0
173
     0
291
     1
 45
0.0
1001
ACAD
1000
AcDbSavedByObjectVersion
1070
     0
  0
VISUALSTYLE
  5
33
102
{ACAD_REACTORS
330
2A
102
}
330
2A
100
AcDbVisualStyle
  2
Realistic
 70
     8
 71
     2
 72
     2
 73
     0
 90
        0
 40
-0.6
 41
-30.0
 62
     5
 63
     7
 74
     1
 91
        0
 64
     7
 65
   257
 75
     1
175
     1
 42
1.0
 92
        8
 66
     8
 43
1.0
 76
     1
 77
     6
 78
     2
 67
     7
 79
     5
170
     0
171
     0
290
     0
174
     0
 93
       13
 44
0.0
173
     0
291
     0
 45
0.0
1001
ACAD
1000
AcDbSavedByObjectVersion
1070
     0
  0
VISUALSTYLE
  5
37
102
{ACAD_REACTORS
330
2A
102
}
330
2A
100
AcDbVisualStyle
  2
Thicken
 70
    13
 71
     2
 72
     2
 73
     0
 90
        0
 40
-0.6
 41
-30.0
 62
     5
 63
     7
 74
     1
 91
        4
 64
     7
 65
   257
 75
     1
175
     1
 42
1.0
 92
       12
 66
     7
 43
1.0
 76
     1
 77
     6
 78
     2
 67
     7
 79
     5
170
     0
171
     0
290
     0
174
     0
 93
        1
 44
0.0
173
     0
291
     1
 45
0.0
1001
ACAD
1000
AcDbSavedByObjectVersion
1070
     0
  0
DICTIONARYVAR
  5
670
102
{ACAD_REACTORS
330
66F
102
}
330
66F
100
DictionaryVariables
280
     0
  1
1:1
  0
DICTIONARYVAR
  5
674
102
{ACAD_REACTORS
330
66F
102
}
330
66F
100
DictionaryVariables
280
     0
  1
80.000000
  0
DICTIONARYVAR
  5
673
102
{ACAD_REACTORS
330
66F
102
}
330
66F
100
DictionaryVariables
280
     0
  1
5.000000
  0
ENDSEC
  0
EOF
