  0
SECTION
  2
HEADER
  9
$ACADVER
  1
AC1015
  9
$ACADMAINTVER
 70
     6
  9
$DWGCODEPAGE
  3
ANSI_932
  9
$INSBASE
 10
0.0
 20
0.0
 30
0.0
  9
$EXTMIN
 10
26.955872
 20
-7.349472
 30
0.0
  9
$EXTMAX
 10
255.545837
 20
145.655914
 30
0.0
  9
$LIMMIN
 10
0.0
 20
0.0
  9
$LIMMAX
 10
12.0
 20
9.0
  9
$ORTHOMODE
 70
     0
  9
$REGENMODE
 70
     1
  9
$FILLMODE
 70
     1
  9
$QTEXTMODE
 70
     0
  9
$MIRRTEXT
 70
     1
  9
$LTSCALE
 40
2.750709
  9
$ATTMODE
 70
     1
  9
$TEXTSIZE
 40
3.2
  9
$TRACEWID
 40
1.0
  9
$TEXTSTYLE
  7
Standard
  9
$CLAYER
  8
0
  9
$CELTYPE
  6
ByLayer
  9
$CECOLOR
 62
   256
  9
$CELTSCALE
 40
1.0
  9
$DISPSILH
 70
     0
  9
$DIMSCALE
 40
1.0
  9
$DIMASZ
 40
2.5
  9
$DIMEXO
 40
0.625
  9
$DIMDLI
 40
3.75
  9
$DIMRND
 40
0.0
  9
$DIMDLE
 40
0.0
  9
$DIMEXE
 40
1.25
  9
$DIMTP
 40
0.0
  9
$DIMTM
 40
0.0
  9
$DIMTXT
 40
2.5
  9
$DIMCEN
 40
0.09
  9
$DIMTSZ
 40
0.0
  9
$DIMTOL
 70
     0
  9
$DIMLIM
 70
     0
  9
$DIMTIH
 70
     0
  9
$DIMTOH
 70
     0
  9
$DIMSE1
 70
     0
  9
$DIMSE2
 70
     0
  9
$DIMTAD
 70
     0
  9
$DIMZIN
 70
     8
  9
$DIMBLK
  1

  9
$DIMASO
 70
     1
  9
$DIMSHO
 70
     0
  9
$DIMPOST
  1

  9
$DIMAPOST
  1

  9
$DIMALT
 70
     0
  9
$DIMALTD
 70
     3
  9
$DIMALTF
 40
0.03937
  9
$DIMLFAC
 40
1.0
  9
$DIMTOFL
 70
     1
  9
$DIMTVP
 40
0.0
  9
$DIMTIX
 70
     0
  9
$DIMSOXD
 70
     0
  9
$DIMSAH
 70
     0
  9
$DIMBLK1
  1

  9
$DIMBLK2
  1

  9
$DIMSTYLE
  2
ISO-25
  9
$DIMCLRD
 70
     0
  9
$DIMCLRE
 70
     0
  9
$DIMCLRT
 70
     0
  9
$DIMTFAC
 40
1.0
  9
$DIMGAP
 40
0.625
  9
$DIMJUST
 70
     0
  9
$DIMSD1
 70
     0
  9
$DIMSD2
 70
     0
  9
$DIMTOLJ
 70
     0
  9
$DIMTZIN
 70
     8
  9
$DIMALTZ
 70
     0
  9
$DIMALTTZ
 70
     0
  9
$DIMUPT
 70
     0
  9
$DIMDEC
 70
     2
  9
$DIMTDEC
 70
     2
  9
$DIMALTU
 70
     2
  9
$DIMALTTD
 70
     3
  9
$DIMTXSTY
  7
Standard
  9
$DIMAUNIT
 70
     0
  9
$DIMADEC
 70
     0
  9
$DIMALTRND
 40
0.0
  9
$DIMAZIN
 70
     0
  9
$DIMDSEP
 70
    44
  9
$DIMATFIT
 70
     3
  9
$DIMFRAC
 70
     0
  9
$DIMLDRBLK
  1

  9
$DIMLUNIT
 70
     2
  9
$DIMLWD
 70
    -2
  9
$DIMLWE
 70
    -2
  9
$DIMTMOVE
 70
     0
  9
$LUNITS
 70
     2
  9
$LUPREC
 70
     4
  9
$SKETCHINC
 40
1.0
  9
$FILLETRAD
 40
0.0
  9
$AUNITS
 70
     0
  9
$AUPREC
 70
     0
  9
$MENU
  1
.
  9
$ELEVATION
 40
0.0
  9
$PELEVATION
 40
0.0
  9
$THICKNESS
 40
0.0
  9
$LIMCHECK
 70
     0
  9
$CHAMFERA
 40
10.0
  9
$CHAMFERB
 40
10.0
  9
$CHAMFERC
 40
20.0
  9
$CHAMFERD
 40
0.0
  9
$SKPOLY
 70
     0
  9
$TDCREATE
 40
2454798.49661331
  9
$TDUCREATE
 40
2454798.12161331
  9
$TDUPDATE
 40
2454798.496613322
  9
$TDUUPDATE
 40
2454798.121613322
  9
$TDINDWG
 40
0.0000000116
  9
$TDUSRTIMER
 40
0.0000000116
  9
$USRTIMER
 70
     1
  9
$ANGBASE
 50
0.0
  9
$ANGDIR
 70
     0
  9
$PDMODE
 70
     0
  9
$PDSIZE
 40
0.0
  9
$PLINEWID
 40
0.0
  9
$SPLFRAME
 70
     0
  9
$SPLINETYPE
 70
     6
  9
$SPLINESEGS
 70
     8
  9
$HANDSEED
  5
701
  9
$SURFTAB1
 70
     6
  9
$SURFTAB2
 70
     6
  9
$SURFTYPE
 70
     6
  9
$SURFU
 70
     6
  9
$SURFV
 70
     6
  9
$UCSBASE
  2

  9
$UCSNAME
  2

  9
$UCSORG
 10
0.0
 20
0.0
 30
0.0
  9
$UCSXDIR
 10
1.0
 20
0.0
 30
0.0
  9
$UCSYDIR
 10
0.0
 20
1.0
 30
0.0
  9
$UCSORTHOREF
  2

  9
$UCSORTHOVIEW
 70
     0
  9
$UCSORGTOP
 10
0.0
 20
0.0
 30
0.0
  9
$UCSORGBOTTOM
 10
0.0
 20
0.0
 30
0.0
  9
$UCSORGLEFT
 10
0.0
 20
0.0
 30
0.0
  9
$UCSORGRIGHT
 10
0.0
 20
0.0
 30
0.0
  9
$UCSORGFRONT
 10
0.0
 20
0.0
 30
0.0
  9
$UCSORGBACK
 10
0.0
 20
0.0
 30
0.0
  9
$PUCSBASE
  2

  9
$PUCSNAME
  2

  9
$PUCSORG
 10
0.0
 20
0.0
 30
0.0
  9
$PUCSXDIR
 10
1.0
 20
0.0
 30
0.0
  9
$PUCSYDIR
 10
0.0
 20
1.0
 30
0.0
  9
$PUCSORTHOREF
  2

  9
$PUCSORTHOVIEW
 70
     0
  9
$PUCSORGTOP
 10
0.0
 20
0.0
 30
0.0
  9
$PUCSORGBOTTOM
 10
0.0
 20
0.0
 30
0.0
  9
$PUCSORGLEFT
 10
0.0
 20
0.0
 30
0.0
  9
$PUCSORGRIGHT
 10
0.0
 20
0.0
 30
0.0
  9
$PUCSORGFRONT
 10
0.0
 20
0.0
 30
0.0
  9
$PUCSORGBACK
 10
0.0
 20
0.0
 30
0.0
  9
$USERI1
 70
     0
  9
$USERI2
 70
     0
  9
$USERI3
 70
     0
  9
$USERI4
 70
     0
  9
$USERI5
 70
     0
  9
$USERR1
 40
0.0
  9
$USERR2
 40
0.0
  9
$USERR3
 40
0.0
  9
$USERR4
 40
0.0
  9
$USERR5
 40
0.0
  9
$WORLDVIEW
 70
     1
  9
$SHADEDGE
 70
     3
  9
$SHADEDIF
 70
    70
  9
$TILEMODE
 70
     1
  9
$MAXACTVP
 70
    64
  9
$PINSBASE
 10
0.0
 20
0.0
 30
0.0
  9
$PLIMCHECK
 70
     0
  9
$PEXTMIN
 10
1.000000E+20
 20
1.000000E+20
 30
0.0
  9
$PEXTMAX
 10
-1.000000E+20
 20
-1.000000E+20
 30
0.0
  9
$PLIMMIN
 10
0.0
 20
0.0
  9
$PLIMMAX
 10
12.0
 20
9.0
  9
$UNITMODE
 70
     0
  9
$VISRETAIN
 70
     1
  9
$PLINEGEN
 70
     0
  9
$PSLTSCALE
 70
     1
  9
$TREEDEPTH
 70
  3020
  9
$CMLSTYLE
  2
Standard
  9
$CMLJUST
 70
     0
  9
$CMLSCALE
 40
20.0
  9
$PROXYGRAPHICS
 70
     1
  9
$MEASUREMENT
 70
     1
  9
$CELWEIGHT
370
    -1
  9
$ENDCAPS
280
     0
  9
$JOINSTYLE
280
     0
  9
$LWDISPLAY
290
     0
  9
$INSUNITS
 70
     4
  9
$HYPERLINKBASE
  1

  9
$STYLESHEET
  1

  9
$XEDIT
290
     1
  9
$CEPSNTYPE
380
     0
  9
$PSTYLEMODE
290
     1
  9
$FINGERPRINTGUID
  2
{53944CB6-CF5E-4273-9D31-4BF199549956}
  9
$VERSIONGUID
  2
{FAEB1C32-E019-11D5-929B-00C0DF256EC4}
  9
$EXTNAMES
290
     1
  9
$PSVPSCALE
 40
0.0
  9
$OLESTARTUP
290
     0
  0
ENDSEC
  0
SECTION
  2
CLASSES
  0
CLASS
  1
ACDBDICTIONARYWDFLT
  2
AcDbDictionaryWithDefault
  3
ObjectDBX Classes
 90
        0
280
     0
281
     0
  0
CLASS
  1
VISUALSTYLE
  2
AcDbVisualStyle
  3
ObjectDBX Classes
 90
     4095
280
     0
281
     0
  0
CLASS
  1
SCALE
  2
AcDbScale
  3
ObjectDBX Classes
 90
     1153
280
     0
281
     0
  0
CLASS
  1
DICTIONARYVAR
  2
AcDbDictionaryVar
  3
ObjectDBX Classes
 90
        0
280
     0
281
     0
  0
CLASS
  1
ACDBPLACEHOLDER
  2
AcDbPlaceHolder
  3
ObjectDBX Classes
 90
        0
280
     0
281
     0
  0
CLASS
  1
LAYOUT
  2
AcDbLayout
  3
ObjectDBX Classes
 90
        0
280
     0
281
     0
  0
ENDSEC
  0
SECTION
  2
TABLES
  0
TABLE
  2
VPORT
  5
8
330
0
100
AcDbSymbolTable
 70
     1
  0
VPORT
  5
29
330
8
100
AcDbSymbolTableRecord
100
AcDbViewportTableRecord
  2
*Active
 70
     0
 10
0.0
 20
0.0
 11
1.0
 21
1.0
 12
141.250854
 22
69.153221
 13
0.0
 23
0.0
 14
1.0
 24
1.0
 15
0.0
 25
0.0
 16
0.0
 26
0.0
 36
1.0
 17
0.0
 27
0.0
 37
0.0
 40
154.53544
 41
1.691288
 42
50.0
 43
0.0
 44
0.0
 50
0.0
 51
0.0
 71
     0
 72
   100
 73
     1
 74
     3
 75
     0
 76
     0
 77
     0
 78
     0
281
     0
 65
     1
110
0.0
120
0.0
130
0.0
111
1.0
121
0.0
131
0.0
112
0.0
122
1.0
132
0.0
 79
     0
146
0.0
  0
ENDTAB
  0
TABLE
  2
LTYPE
  5
5
330
0
100
AcDbSymbolTable
 70
     5
  0
LTYPE
  5
14
330
5
100
AcDbSymbolTableRecord
100
AcDbLinetypeTableRecord
  2
ByBlock
 70
     0
  3

 72
    65
 73
     0
 40
0.0
  0
LTYPE
  5
15
330
5
100
AcDbSymbolTableRecord
100
AcDbLinetypeTableRecord
  2
ByLayer
 70
     0
  3

 72
    65
 73
     0
 40
0.0
  0
LTYPE
  5
16
330
5
100
AcDbSymbolTableRecord
100
AcDbLinetypeTableRecord
  2
Continuous
 70
     0
  3
Solid line
 72
    65
 73
     0
 40
0.0
  0
LTYPE
  5
5D
330
5
100
AcDbSymbolTableRecord
100
AcDbLinetypeTableRecord
  2
DASHED
 70
     0
  3
DASHED
 72
    83
 73
     2
 40
0.75
 49
0.5
 74
     0
 49
-0.25
 74
     0
  0
LTYPE
  5
5E
330
5
100
AcDbSymbolTableRecord
100
AcDbLinetypeTableRecord
  2
HIDDEN
 70
     0
  3
HIDDEN
 72
    83
 73
     2
 40
0.375
 49
0.25
 74
     0
 49
-0.125
 74
     0
  0
LTYPE
  5
5F
330
5
100
AcDbSymbolTableRecord
100
AcDbLinetypeTableRecord
  2
CENTER
 70
     0
  3
CENTER
 72
    83
 73
     4
 40
2.0
 49
1.25
 74
     0
 49
-0.25
 74
     0
 49
0.25
 74
     0
 49
-0.25
 74
     0
  0
LTYPE
  5
60
330
5
100
AcDbSymbolTableRecord
100
AcDbLinetypeTableRecord
  2
PHANTOM
 70
     0
  3
PHANTOM
 72
    83
 73
     6
 40
2.5
 49
1.25
 74
     0
 49
-0.25
 74
     0
 49
0.25
 74
     0
 49
-0.25
 74
     0
 49
0.25
 74
     0
 49
-0.25
 74
     0
  0
ENDTAB
  0
TABLE
  2
LAYER
  5
2
330
0
100
AcDbSymbolTable
 70
     2
  0
LAYER
  5
10
330
2
100
AcDbSymbolTableRecord
100
AcDbLayerTableRecord
  2
0
 70
     0
 62
     7
  6
Continuous
370
    -3
390
F
  0
LAYER
  5
61
330
2
100
AcDbSymbolTableRecord
100
AcDbLayerTableRecord
  2
001
 70
     0
 62
     7
  6
Continuous
370
    -3
390
F
  0
ENDTAB
  0
TABLE
  2
STYLE
  5
3
330
0
100
AcDbSymbolTable
 70
     2
  0
STYLE
  5
11
330
3
100
AcDbSymbolTableRecord
100
AcDbTextStyleTableRecord
  2
Standard
 70
     0
 40
0.0
 41
1.0
 50
0.0
 71
     0
 42
0.2
  3
TXT
  4
BIGFONT
  0
STYLE
  5
62
330
3
100
AcDbSymbolTableRecord
100
AcDbTextStyleTableRecord
  2
TATEGAKI
 70
     4
 40
1.0
 41
1.0
 50
0.0
 71
     0
 42
0.2
  3
TXT
  4
BIGFONT
  0
ENDTAB
  0
TABLE
  2
VIEW
  5
6
330
0
100
AcDbSymbolTable
 70
     0
  0
ENDTAB
  0
TABLE
  2
UCS
  5
7
330
0
100
AcDbSymbolTable
 70
     0
  0
ENDTAB
  0
TABLE
  2
APPID
  5
9
330
0
100
AcDbSymbolTable
 70
     1
  0
APPID
  5
12
330
9
100
AcDbSymbolTableRecord
100
AcDbRegAppTableRecord
  2
ACAD
 70
     0
  0
ENDTAB
  0
TABLE
  2
DIMSTYLE
  5
A
330
0
100
AcDbSymbolTable
 70
     2
100
AcDbDimStyleTable
  0
DIMSTYLE
105
27
330
A
100
AcDbSymbolTableRecord
100
AcDbDimStyleTableRecord
  2
ISO-25
 70
     0
 41
2.5
 42
0.625
 43
3.75
 44
1.25
 73
     0
 74
     0
 77
     1
 78
     8
140
2.5
141
2.5
143
0.03937
147
0.625
171
     3
172
     1
271
     2
272
     2
274
     3
278
    44
283
     0
284
     8
340
11
  0
DIMSTYLE
105
63
102
{ACAD_REACTORS
330
180
330
181
330
182
330
183
330
184
330
185
330
186
330
187
330
188
330
189
330
18A
330
18B
330
18C
330
18D
102
}
330
A
100
AcDbSymbolTableRecord
100
AcDbDimStyleTableRecord
  2
Standard
 70
     0
 41
1.5
 42
0.0
 44
2.75
 73
     0
 74
     0
 77
     1
 78
     8
 79
     2
140
4.0
146
0.8
147
1.0
172
     1
179
     1
271
     1
340
11
  0
ENDTAB
  0
TABLE
  2
BLOCK_RECORD
  5
1
330
0
100
AcDbSymbolTable
 70
    15
  0
BLOCK_RECORD
  5
1F
330
1
100
AcDbSymbolTableRecord
100
AcDbBlockTableRecord
  2
*Model_Space
340
22
  0
BLOCK_RECORD
  5
1B
330
1
100
AcDbSymbolTableRecord
100
AcDbBlockTableRecord
  2
*Paper_Space
340
1E
  0
BLOCK_RECORD
  5
23
330
1
100
AcDbSymbolTableRecord
100
AcDbBlockTableRecord
  2
*Paper_Space0
340
26
  0
BLOCK_RECORD
  5
64
330
1
100
AcDbSymbolTableRecord
100
AcDbBlockTableRecord
  2
*D1
340
0
  0
BLOCK_RECORD
  5
78
330
1
100
AcDbSymbolTableRecord
100
AcDbBlockTableRecord
  2
*D2
340
0
  0
BLOCK_RECORD
  5
8C
330
1
100
AcDbSymbolTableRecord
100
AcDbBlockTableRecord
  2
*D3
340
0
  0
BLOCK_RECORD
  5
A0
330
1
100
AcDbSymbolTableRecord
100
AcDbBlockTableRecord
  2
*D4
340
0
  0
BLOCK_RECORD
  5
B4
330
1
100
AcDbSymbolTableRecord
100
AcDbBlockTableRecord
  2
*D5
340
0
  0
BLOCK_RECORD
  5
C8
330
1
100
AcDbSymbolTableRecord
100
AcDbBlockTableRecord
  2
*D6
340
0
  0
BLOCK_RECORD
  5
DC
330
1
100
AcDbSymbolTableRecord
100
AcDbBlockTableRecord
  2
*D7
340
0
  0
BLOCK_RECORD
  5
F0
330
1
100
AcDbSymbolTableRecord
100
AcDbBlockTableRecord
  2
*D8
340
0
  0
BLOCK_RECORD
  5
104
330
1
100
AcDbSymbolTableRecord
100
AcDbBlockTableRecord
  2
*D9
340
0
  0
BLOCK_RECORD
  5
11A
330
1
100
AcDbSymbolTableRecord
100
AcDbBlockTableRecord
  2
*D10
340
0
  0
BLOCK_RECORD
  5
130
330
1
100
AcDbSymbolTableRecord
100
AcDbBlockTableRecord
  2
*D11
340
0
  0
BLOCK_RECORD
  5
144
330
1
100
AcDbSymbolTableRecord
100
AcDbBlockTableRecord
  2
*D12
340
0
  0
BLOCK_RECORD
  5
158
330
1
100
AcDbSymbolTableRecord
100
AcDbBlockTableRecord
  2
*D13
340
0
  0
BLOCK_RECORD
  5
16C
330
1
100
AcDbSymbolTableRecord
100
AcDbBlockTableRecord
  2
*D14
340
0
  0
ENDTAB
  0
ENDSEC
  0
SECTION
  2
BLOCKS
  0
BLOCK
  5
20
330
1F
100
AcDbEntity
  8
0
100
AcDbBlockBegin
  2
*Model_Space
 70
     0
 10
0.0
 20
0.0
 30
0.0
  3
*Model_Space
  1

  0
ENDBLK
  5
21
330
1F
100
AcDbEntity
  8
0
100
AcDbBlockEnd
  0
BLOCK
  5
1C
330
1B
100
AcDbEntity
 67
     1
  8
0
100
AcDbBlockBegin
  2
*Paper_Space
 70
     0
 10
0.0
 20
0.0
 30
0.0
  3
*Paper_Space
  1

  0
ENDBLK
  5
1D
330
1B
100
AcDbEntity
 67
     1
  8
0
100
AcDbBlockEnd
  0
BLOCK
  5
24
330
23
100
AcDbEntity
  8
0
100
AcDbBlockBegin
  2
*Paper_Space0
 70
     0
 10
0.0
 20
0.0
 30
0.0
  3
*Paper_Space0
  1

  0
ENDBLK
  5
25
330
23
100
AcDbEntity
  8
0
100
AcDbBlockEnd
  0
BLOCK
  5
65
330
64
100
AcDbEntity
  8
0
100
AcDbBlockBegin
  2
*D1
 70
     1
 10
0.0
 20
0.0
 30
0.0
  3
*D1
  1

  0
LINE
  5
67
330
64
100
AcDbEntity
  8
001
370
     9
100
AcDbLine
 10
103.729271
 20
95.764782
 30
0.0
 11
86.762583
 21
95.764782
 31
0.0
  0
LINE
  5
68
330
64
100
AcDbEntity
  8
001
370
     9
100
AcDbLine
 10
104.511208
 20
72.764782
 30
0.0
 11
86.762583
 21
72.764782
 31
0.0
  0
LINE
  5
69
330
64
100
AcDbEntity
  8
001
370
     9
100
AcDbLine
 10
89.512583
 20
95.764782
 30
0.0
 11
89.512583
 21
72.764782
 31
0.0
  0
POLYLINE
  5
6A
330
64
100
AcDbEntity
  8
001
370
     9
100
AcDb2dPolyline
 66
     1
 10
0.0
 20
0.0
 30
0.0
  0
VERTEX
  5
6C
330
6A
100
AcDbEntity
  8
001
370
     9
100
AcDbVertex
100
AcDb2dVertex
 10
89.110659
 20
94.264782
 30
0.0
  0
VERTEX
  5
6D
330
6A
100
AcDbEntity
  8
001
370
     9
100
AcDbVertex
100
AcDb2dVertex
 10
89.512583
 20
95.764782
 30
0.0
  0
VERTEX
  5
6E
330
6A
100
AcDbEntity
  8
001
370
     9
100
AcDbVertex
100
AcDb2dVertex
 10
89.914507
 20
94.264782
 30
0.0
  0
SEQEND
  5
6B
330
6A
100
AcDbEntity
  8
001
370
     9
  0
POLYLINE
  5
6F
330
64
100
AcDbEntity
  8
001
370
     9
100
AcDb2dPolyline
 66
     1
 10
0.0
 20
0.0
 30
0.0
  0
VERTEX
  5
71
330
6F
100
AcDbEntity
  8
001
370
     9
100
AcDbVertex
100
AcDb2dVertex
 10
89.914507
 20
74.264782
 30
0.0
  0
VERTEX
  5
72
330
6F
100
AcDbEntity
  8
001
370
     9
100
AcDbVertex
100
AcDb2dVertex
 10
89.512583
 20
72.764782
 30
0.0
  0
VERTEX
  5
73
330
6F
100
AcDbEntity
  8
001
370
     9
100
AcDbVertex
100
AcDb2dVertex
 10
89.110659
 20
74.264782
 30
0.0
  0
SEQEND
  5
70
330
6F
100
AcDbEntity
  8
001
370
     9
  0
TEXT
  5
74
330
64
100
AcDbEntity
  8
001
370
    30
100
AcDbText
 10
88.512583
 20
78.264782
 30
0.0
 40
4.0
  1
%%c２３
 50
90.000003
 41
0.882353
100
AcDbText
  0
POINT
  5
75
330
64
100
AcDbEntity
  8
001
370
     9
100
AcDbPoint
 10
103.729271
 20
95.764782
 30
0.0
  0
POINT
  5
76
330
64
100
AcDbEntity
  8
001
370
     9
100
AcDbPoint
 10
104.511208
 20
72.764782
 30
0.0
  0
POINT
  5
77
330
64
100
AcDbEntity
  8
001
370
     9
100
AcDbPoint
 10
89.512583
 20
72.764782
 30
0.0
  0
ENDBLK
  5
66
330
64
100
AcDbEntity
  8
0
100
AcDbBlockEnd
  0
BLOCK
  5
79
330
78
100
AcDbEntity
  8
0
100
AcDbBlockBegin
  2
*D2
 70
     1
 10
0.0
 20
0.0
 30
0.0
  3
*D2
  1

  0
LINE
  5
7B
330
78
100
AcDbEntity
  8
001
370
     9
100
AcDbLine
 10
119.929271
 20
97.764782
 30
0.0
 11
74.836707
 21
97.764782
 31
0.0
  0
LINE
  5
7C
330
78
100
AcDbEntity
  8
001
370
     9
100
AcDbLine
 10
119.929271
 20
70.764782
 30
0.0
 11
74.836707
 21
70.764782
 31
0.0
  0
LINE
  5
7D
330
78
100
AcDbEntity
  8
001
370
     9
100
AcDbLine
 10
77.586707
 20
97.764782
 30
0.0
 11
77.586707
 21
70.764782
 31
0.0
  0
POLYLINE
  5
7E
330
78
100
AcDbEntity
  8
001
370
     9
100
AcDb2dPolyline
 66
     1
 10
0.0
 20
0.0
 30
0.0
  0
VERTEX
  5
80
330
7E
100
AcDbEntity
  8
001
370
     9
100
AcDbVertex
100
AcDb2dVertex
 10
77.184783
 20
96.264782
 30
0.0
  0
VERTEX
  5
81
330
7E
100
AcDbEntity
  8
001
370
     9
100
AcDbVertex
100
AcDb2dVertex
 10
77.586707
 20
97.764782
 30
0.0
  0
VERTEX
  5
82
330
7E
100
AcDbEntity
  8
001
370
     9
100
AcDbVertex
100
AcDb2dVertex
 10
77.988631
 20
96.264782
 30
0.0
  0
SEQEND
  5
7F
330
7E
100
AcDbEntity
  8
001
370
     9
  0
POLYLINE
  5
83
330
78
100
AcDbEntity
  8
001
370
     9
100
AcDb2dPolyline
 66
     1
 10
0.0
 20
0.0
 30
0.0
  0
VERTEX
  5
85
330
83
100
AcDbEntity
  8
001
370
     9
100
AcDbVertex
100
AcDb2dVertex
 10
77.988631
 20
72.264782
 30
0.0
  0
VERTEX
  5
86
330
83
100
AcDbEntity
  8
001
370
     9
100
AcDbVertex
100
AcDb2dVertex
 10
77.586707
 20
70.764782
 30
0.0
  0
VERTEX
  5
87
330
83
100
AcDbEntity
  8
001
370
     9
100
AcDbVertex
100
AcDb2dVertex
 10
77.184783
 20
72.264782
 30
0.0
  0
SEQEND
  5
84
330
83
100
AcDbEntity
  8
001
370
     9
  0
TEXT
  5
88
330
78
100
AcDbEntity
  8
001
370
    30
100
AcDbText
 10
76.586707
 20
78.264782
 30
0.0
 40
4.0
  1
%%c２７
 50
90.000003
 41
0.882353
100
AcDbText
  0
POINT
  5
89
330
78
100
AcDbEntity
  8
001
370
     9
100
AcDbPoint
 10
119.929271
 20
97.764782
 30
0.0
  0
POINT
  5
8A
330
78
100
AcDbEntity
  8
001
370
     9
100
AcDbPoint
 10
119.929271
 20
70.764782
 30
0.0
  0
POINT
  5
8B
330
78
100
AcDbEntity
  8
001
370
     9
100
AcDbPoint
 10
77.586707
 20
70.764782
 30
0.0
  0
ENDBLK
  5
7A
330
78
100
AcDbEntity
  8
0
100
AcDbBlockEnd
  0
BLOCK
  5
8D
330
8C
100
AcDbEntity
  8
0
100
AcDbBlockBegin
  2
*D3
 70
     1
 10
0.0
 20
0.0
 30
0.0
  3
*D3
  1

  0
LINE
  5
8F
330
8C
100
AcDbEntity
  8
001
370
     9
100
AcDbLine
 10
120.9752
 20
68.979782
 30
0.0
 11
63.384331
 21
68.979782
 31
0.0
  0
LINE
  5
90
330
8C
100
AcDbEntity
  8
001
370
     9
100
AcDbLine
 10
120.9752
 20
99.549782
 30
0.0
 11
63.384331
 21
99.549782
 31
0.0
  0
LINE
  5
91
330
8C
100
AcDbEntity
  8
001
370
     9
100
AcDbLine
 10
66.134331
 20
68.979782
 30
0.0
 11
66.134331
 21
99.549782
 31
0.0
  0
POLYLINE
  5
92
330
8C
100
AcDbEntity
  8
001
370
     9
100
AcDb2dPolyline
 66
     1
 10
0.0
 20
0.0
 30
0.0
  0
VERTEX
  5
94
330
92
100
AcDbEntity
  8
001
370
     9
100
AcDbVertex
100
AcDb2dVertex
 10
66.536255
 20
70.479782
 30
0.0
  0
VERTEX
  5
95
330
92
100
AcDbEntity
  8
001
370
     9
100
AcDbVertex
100
AcDb2dVertex
 10
66.134331
 20
68.979782
 30
0.0
  0
VERTEX
  5
96
330
92
100
AcDbEntity
  8
001
370
     9
100
AcDbVertex
100
AcDb2dVertex
 10
65.732407
 20
70.479782
 30
0.0
  0
SEQEND
  5
93
330
92
100
AcDbEntity
  8
001
370
     9
  0
POLYLINE
  5
97
330
8C
100
AcDbEntity
  8
001
370
     9
100
AcDb2dPolyline
 66
     1
 10
0.0
 20
0.0
 30
0.0
  0
VERTEX
  5
99
330
97
100
AcDbEntity
  8
001
370
     9
100
AcDbVertex
100
AcDb2dVertex
 10
65.732407
 20
98.049782
 30
0.0
  0
VERTEX
  5
9A
330
97
100
AcDbEntity
  8
001
370
     9
100
AcDbVertex
100
AcDb2dVertex
 10
66.134331
 20
99.549782
 30
0.0
  0
VERTEX
  5
9B
330
97
100
AcDbEntity
  8
001
370
     9
100
AcDbVertex
100
AcDb2dVertex
 10
66.536255
 20
98.049782
 30
0.0
  0
SEQEND
  5
98
330
97
100
AcDbEntity
  8
001
370
     9
  0
TEXT
  5
9C
330
8C
100
AcDbEntity
  8
001
370
    30
100
AcDbText
 10
65.134331
 20
74.264782
 30
0.0
 40
4.0
  1
%%c３０．６
 50
90.000003
 41
0.862069
100
AcDbText
  0
POINT
  5
9D
330
8C
100
AcDbEntity
  8
001
370
     9
100
AcDbPoint
 10
120.9752
 20
68.979782
 30
0.0
  0
POINT
  5
9E
330
8C
100
AcDbEntity
  8
001
370
     9
100
AcDbPoint
 10
120.9752
 20
99.549782
 30
0.0
  0
POINT
  5
9F
330
8C
100
AcDbEntity
  8
001
370
     9
100
AcDbPoint
 10
66.134331
 20
99.549782
 30
0.0
  0
ENDBLK
  5
8E
330
8C
100
AcDbEntity
  8
0
100
AcDbBlockEnd
  0
BLOCK
  5
A1
330
A0
100
AcDbEntity
  8
0
100
AcDbBlockBegin
  2
*D4
 70
     1
 10
0.0
 20
0.0
 30
0.0
  3
*D4
  1

  0
LINE
  5
A3
330
A0
100
AcDbEntity
  8
001
370
     9
100
AcDbLine
 10
119.929271
 20
70.764782
 30
0.0
 11
152.773791
 21
37.920261
 31
0.0
  0
ARC
  5
A4
330
A0
100
AcDbEntity
  8
001
370
     9
100
AcDbCircle
 10
106.429271
 20
84.264782
 30
0.0
 40
62.79104929417521
100
AcDbArc
 50
315.0
 51
0.0
  0
POLYLINE
  5
A5
330
A0
100
AcDbEntity
  8
001
370
     9
100
AcDb2dPolyline
 66
     1
 10
0.0
 20
0.0
 30
0.0
  0
VERTEX
  5
A7
330
A5
100
AcDbEntity
  8
001
370
     9
100
AcDbVertex
100
AcDb2dVertex
 10
168.800509
 20
82.769689
 30
0.0
  0
VERTEX
  5
A8
330
A5
100
AcDbEntity
  8
001
370
     9
100
AcDbVertex
100
AcDb2dVertex
 10
169.22032
 20
84.264782
 30
0.0
  0
VERTEX
  5
A9
330
A5
100
AcDbEntity
  8
001
370
     9
100
AcDbVertex
100
AcDb2dVertex
 10
169.604299
 20
82.760088
 30
0.0
  0
SEQEND
  5
A6
330
A5
100
AcDbEntity
  8
001
370
     9
  0
POLYLINE
  5
AA
330
A0
100
AcDbEntity
  8
001
370
     9
100
AcDb2dPolyline
 66
     1
 10
0.0
 20
0.0
 30
0.0
  0
VERTEX
  5
AC
330
AA
100
AcDbEntity
  8
001
370
     9
100
AcDbVertex
100
AcDb2dVertex
 10
152.164741
 20
40.65727
 30
0.0
  0
VERTEX
  5
AD
330
AA
100
AcDbEntity
  8
001
370
     9
100
AcDbVertex
100
AcDb2dVertex
 10
150.829248
 20
39.864805
 30
0.0
  0
VERTEX
  5
AE
330
AA
100
AcDbEntity
  8
001
370
     9
100
AcDbVertex
100
AcDb2dVertex
 10
151.589586
 20
41.218846
 30
0.0
  0
SEQEND
  5
AB
330
AA
100
AcDbEntity
  8
001
370
     9
  0
TEXT
  5
AF
330
A0
100
AcDbEntity
  8
001
370
    30
100
AcDbText
 10
161.220656
 20
55.075094
 30
0.0
 40
4.0
  1
４５%%d
 50
67.5
 41
0.978261
100
AcDbText
  0
POINT
  5
B0
330
A0
100
AcDbEntity
  8
001
370
     9
100
AcDbPoint
 10
166.47032
 20
84.264782
 30
0.0
  0
POINT
  5
B1
330
A0
100
AcDbEntity
  8
001
370
     9
100
AcDbPoint
 10
106.429271
 20
84.264782
 30
0.0
  0
POINT
  5
B2
330
A0
100
AcDbEntity
  8
001
370
     9
100
AcDbPoint
 10
106.429271
 20
84.264782
 30
0.0
  0
POINT
  5
B3
330
A0
100
AcDbEntity
  8
001
370
     9
100
AcDbPoint
 10
119.929271
 20
70.764782
 30
0.0
  0
ENDBLK
  5
A2
330
A0
100
AcDbEntity
  8
0
100
AcDbBlockEnd
  0
BLOCK
  5
B5
330
B4
100
AcDbEntity
  8
0
100
AcDbBlockBegin
  2
*D5
 70
     1
 10
0.0
 20
0.0
 30
0.0
  3
*D5
  1

  0
LINE
  5
B7
330
B4
100
AcDbEntity
  8
001
370
     9
100
AcDbLine
 10
103.729271
 20
75.764782
 30
0.0
 11
155.692081
 21
23.801971
 31
0.0
  0
ARC
  5
B8
330
B4
100
AcDbEntity
  8
001
370
     9
100
AcDbCircle
 10
95.229271
 20
84.264782
 30
0.0
 40
82.75732650335802
100
AcDbArc
 50
315.0
 51
0.0
  0
POLYLINE
  5
B9
330
B4
100
AcDbEntity
  8
001
370
     9
100
AcDb2dPolyline
 66
     1
 10
0.0
 20
0.0
 30
0.0
  0
VERTEX
  5
BB
330
B9
100
AcDbEntity
  8
001
370
     9
100
AcDbVertex
100
AcDb2dVertex
 10
177.571096
 20
82.768486
 30
0.0
  0
VERTEX
  5
BC
330
B9
100
AcDbEntity
  8
001
370
     9
100
AcDbVertex
100
AcDb2dVertex
 10
177.986597
 20
84.264782
 30
0.0
  0
VERTEX
  5
BD
330
B9
100
AcDbEntity
  8
001
370
     9
100
AcDbVertex
100
AcDb2dVertex
 10
178.374911
 20
82.761201
 30
0.0
  0
SEQEND
  5
BA
330
B9
100
AcDbEntity
  8
001
370
     9
  0
POLYLINE
  5
BE
330
B4
100
AcDbEntity
  8
001
370
     9
100
AcDb2dPolyline
 66
     1
 10
0.0
 20
0.0
 30
0.0
  0
VERTEX
  5
C0
330
BE
100
AcDbEntity
  8
001
370
     9
100
AcDbVertex
100
AcDb2dVertex
 10
155.085309
 20
26.535128
 30
0.0
  0
VERTEX
  5
C1
330
BE
100
AcDbEntity
  8
001
370
     9
100
AcDbVertex
100
AcDb2dVertex
 10
153.747538
 20
25.746515
 30
0.0
  0
VERTEX
  5
C2
330
BE
100
AcDbEntity
  8
001
370
     9
100
AcDbVertex
100
AcDb2dVertex
 10
154.511775
 20
27.09836
 30
0.0
  0
SEQEND
  5
BF
330
BE
100
AcDbEntity
  8
001
370
     9
  0
TEXT
  5
C3
330
B4
100
AcDbEntity
  8
001
370
    30
100
AcDbText
 10
168.467091
 20
47.43433
 30
0.0
 40
4.0
  1
４５%%d
 50
67.5
 41
0.978261
100
AcDbText
  0
POINT
  5
C4
330
B4
100
AcDbEntity
  8
001
370
     9
100
AcDbPoint
 10
175.236597
 20
84.264782
 30
0.0
  0
POINT
  5
C5
330
B4
100
AcDbEntity
  8
001
370
     9
100
AcDbPoint
 10
95.229271
 20
84.264782
 30
0.0
  0
POINT
  5
C6
330
B4
100
AcDbEntity
  8
001
370
     9
100
AcDbPoint
 10
95.229271
 20
84.264782
 30
0.0
  0
POINT
  5
C7
330
B4
100
AcDbEntity
  8
001
370
     9
100
AcDbPoint
 10
103.729271
 20
75.764782
 30
0.0
  0
ENDBLK
  5
B6
330
B4
100
AcDbEntity
  8
0
100
AcDbBlockEnd
  0
BLOCK
  5
C9
330
C8
100
AcDbEntity
  8
0
100
AcDbBlockBegin
  2
*D6
 70
     1
 10
0.0
 20
0.0
 30
0.0
  3
*D6
  1

  0
LINE
  5
CB
330
C8
100
AcDbEntity
  8
001
370
     9
100
AcDbLine
 10
148.72927
 20
70.764782
 30
0.0
 11
148.72927
 21
16.969204
 31
0.0
  0
LINE
  5
CC
330
C8
100
AcDbEntity
  8
001
370
     9
100
AcDbLine
 10
102.72927
 20
76.764782
 30
0.0
 11
102.72927
 21
16.969204
 31
0.0
  0
LINE
  5
CD
330
C8
100
AcDbEntity
  8
001
370
     9
100
AcDbLine
 10
148.72927
 20
19.719204
 30
0.0
 11
102.72927
 21
19.719204
 31
0.0
  0
POLYLINE
  5
CE
330
C8
100
AcDbEntity
  8
001
370
     9
100
AcDb2dPolyline
 66
     1
 10
0.0
 20
0.0
 30
0.0
  0
VERTEX
  5
D0
330
CE
100
AcDbEntity
  8
001
370
     9
100
AcDbVertex
100
AcDb2dVertex
 10
147.22927
 20
20.121127
 30
0.0
  0
VERTEX
  5
D1
330
CE
100
AcDbEntity
  8
001
370
     9
100
AcDbVertex
100
AcDb2dVertex
 10
148.72927
 20
19.719204
 30
0.0
  0
VERTEX
  5
D2
330
CE
100
AcDbEntity
  8
001
370
     9
100
AcDbVertex
100
AcDb2dVertex
 10
147.22927
 20
19.31728
 30
0.0
  0
SEQEND
  5
CF
330
CE
100
AcDbEntity
  8
001
370
     9
  0
POLYLINE
  5
D3
330
C8
100
AcDbEntity
  8
001
370
     9
100
AcDb2dPolyline
 66
     1
 10
0.0
 20
0.0
 30
0.0
  0
VERTEX
  5
D5
330
D3
100
AcDbEntity
  8
001
370
     9
100
AcDbVertex
100
AcDb2dVertex
 10
104.22927
 20
19.31728
 30
0.0
  0
VERTEX
  5
D6
330
D3
100
AcDbEntity
  8
001
370
     9
100
AcDbVertex
100
AcDb2dVertex
 10
102.72927
 20
19.719204
 30
0.0
  0
VERTEX
  5
D7
330
D3
100
AcDbEntity
  8
001
370
     9
100
AcDbVertex
100
AcDb2dVertex
 10
104.22927
 20
20.121127
 30
0.0
  0
SEQEND
  5
D4
330
D3
100
AcDbEntity
  8
001
370
     9
  0
TEXT
  5
D8
330
C8
100
AcDbEntity
  8
001
370
    30
100
AcDbText
 10
121.72927
 20
20.719204
 30
0.0
 40
4.0
  1
４６
 41
0.833333
100
AcDbText
  0
POINT
  5
D9
330
C8
100
AcDbEntity
  8
001
370
     9
100
AcDbPoint
 10
148.72927
 20
70.764782
 30
0.0
  0
POINT
  5
DA
330
C8
100
AcDbEntity
  8
001
370
     9
100
AcDbPoint
 10
102.72927
 20
76.764782
 30
0.0
  0
POINT
  5
DB
330
C8
100
AcDbEntity
  8
001
370
     9
100
AcDbPoint
 10
102.72927
 20
19.719204
 30
0.0
  0
ENDBLK
  5
CA
330
C8
100
AcDbEntity
  8
0
100
AcDbBlockEnd
  0
BLOCK
  5
DD
330
DC
100
AcDbEntity
  8
0
100
AcDbBlockBegin
  2
*D7
 70
     1
 10
0.0
 20
0.0
 30
0.0
  3
*D7
  1

  0
LINE
  5
DF
330
DC
100
AcDbEntity
  8
001
370
     9
100
AcDbLine
 10
228.72927
 20
77.764782
 30
0.0
 11
228.72927
 21
16.969204
 31
0.0
  0
LINE
  5
E0
330
DC
100
AcDbEntity
  8
001
370
     9
100
AcDbLine
 10
148.72927
 20
70.764782
 30
0.0
 11
148.72927
 21
16.969204
 31
0.0
  0
LINE
  5
E1
330
DC
100
AcDbEntity
  8
001
370
     9
100
AcDbLine
 10
228.72927
 20
19.719204
 30
0.0
 11
148.72927
 21
19.719204
 31
0.0
  0
POLYLINE
  5
E2
330
DC
100
AcDbEntity
  8
001
370
     9
100
AcDb2dPolyline
 66
     1
 10
0.0
 20
0.0
 30
0.0
  0
VERTEX
  5
E4
330
E2
100
AcDbEntity
  8
001
370
     9
100
AcDbVertex
100
AcDb2dVertex
 10
227.22927
 20
20.121127
 30
0.0
  0
VERTEX
  5
E5
330
E2
100
AcDbEntity
  8
001
370
     9
100
AcDbVertex
100
AcDb2dVertex
 10
228.72927
 20
19.719204
 30
0.0
  0
VERTEX
  5
E6
330
E2
100
AcDbEntity
  8
001
370
     9
100
AcDbVertex
100
AcDb2dVertex
 10
227.22927
 20
19.31728
 30
0.0
  0
SEQEND
  5
E3
330
E2
100
AcDbEntity
  8
001
370
     9
  0
POLYLINE
  5
E7
330
DC
100
AcDbEntity
  8
001
370
     9
100
AcDb2dPolyline
 66
     1
 10
0.0
 20
0.0
 30
0.0
  0
VERTEX
  5
E9
330
E7
100
AcDbEntity
  8
001
370
     9
100
AcDbVertex
100
AcDb2dVertex
 10
150.22927
 20
19.31728
 30
0.0
  0
VERTEX
  5
EA
330
E7
100
AcDbEntity
  8
001
370
     9
100
AcDbVertex
100
AcDb2dVertex
 10
148.72927
 20
19.719204
 30
0.0
  0
VERTEX
  5
EB
330
E7
100
AcDbEntity
  8
001
370
     9
100
AcDbVertex
100
AcDb2dVertex
 10
150.22927
 20
20.121127
 30
0.0
  0
SEQEND
  5
E8
330
E7
100
AcDbEntity
  8
001
370
     9
  0
TEXT
  5
EC
330
DC
100
AcDbEntity
  8
001
370
    30
100
AcDbText
 10
184.72927
 20
20.719204
 30
0.0
 40
4.0
  1
８０
 41
0.833333
100
AcDbText
  0
POINT
  5
ED
330
DC
100
AcDbEntity
  8
001
370
     9
100
AcDbPoint
 10
228.72927
 20
77.764782
 30
0.0
  0
POINT
  5
EE
330
DC
100
AcDbEntity
  8
001
370
     9
100
AcDbPoint
 10
148.72927
 20
70.764782
 30
0.0
  0
POINT
  5
EF
330
DC
100
AcDbEntity
  8
001
370
     9
100
AcDbPoint
 10
148.72927
 20
19.719204
 30
0.0
  0
ENDBLK
  5
DE
330
DC
100
AcDbEntity
  8
0
100
AcDbBlockEnd
  0
BLOCK
  5
F1
330
F0
100
AcDbEntity
  8
0
100
AcDbBlockBegin
  2
*D8
 70
     1
 10
0.0
 20
0.0
 30
0.0
  3
*D8
  1

  0
LINE
  5
F3
330
F0
100
AcDbEntity
  8
001
370
     9
100
AcDbLine
 10
102.72927
 20
76.764782
 30
0.0
 11
102.72927
 21
4.820281
 31
0.0
  0
LINE
  5
F4
330
F0
100
AcDbEntity
  8
001
370
     9
100
AcDbLine
 10
228.72927
 20
77.764782
 30
0.0
 11
228.72927
 21
4.820281
 31
0.0
  0
LINE
  5
F5
330
F0
100
AcDbEntity
  8
001
370
     9
100
AcDbLine
 10
102.72927
 20
7.570281
 30
0.0
 11
228.72927
 21
7.570281
 31
0.0
  0
POLYLINE
  5
F6
330
F0
100
AcDbEntity
  8
001
370
     9
100
AcDb2dPolyline
 66
     1
 10
0.0
 20
0.0
 30
0.0
  0
VERTEX
  5
F8
330
F6
100
AcDbEntity
  8
001
370
     9
100
AcDbVertex
100
AcDb2dVertex
 10
104.22927
 20
7.168357
 30
0.0
  0
VERTEX
  5
F9
330
F6
100
AcDbEntity
  8
001
370
     9
100
AcDbVertex
100
AcDb2dVertex
 10
102.72927
 20
7.570281
 30
0.0
  0
VERTEX
  5
FA
330
F6
100
AcDbEntity
  8
001
370
     9
100
AcDbVertex
100
AcDb2dVertex
 10
104.22927
 20
7.972205
 30
0.0
  0
SEQEND
  5
F7
330
F6
100
AcDbEntity
  8
001
370
     9
  0
POLYLINE
  5
FB
330
F0
100
AcDbEntity
  8
001
370
     9
100
AcDb2dPolyline
 66
     1
 10
0.0
 20
0.0
 30
0.0
  0
VERTEX
  5
FD
330
FB
100
AcDbEntity
  8
001
370
     9
100
AcDbVertex
100
AcDb2dVertex
 10
227.22927
 20
7.972205
 30
0.0
  0
VERTEX
  5
FE
330
FB
100
AcDbEntity
  8
001
370
     9
100
AcDbVertex
100
AcDb2dVertex
 10
228.72927
 20
7.570281
 30
0.0
  0
VERTEX
  5
FF
330
FB
100
AcDbEntity
  8
001
370
     9
100
AcDbVertex
100
AcDb2dVertex
 10
227.22927
 20
7.168357
 30
0.0
  0
SEQEND
  5
FC
330
FB
100
AcDbEntity
  8
001
370
     9
  0
TEXT
  5
100
330
F0
100
AcDbEntity
  8
001
370
    30
100
AcDbText
 10
159.72927
 20
8.570281
 30
0.0
 40
4.0
  1
１２６
 41
0.833333
100
AcDbText
  0
POINT
  5
101
330
F0
100
AcDbEntity
  8
001
370
     9
100
AcDbPoint
 10
102.72927
 20
76.764782
 30
0.0
  0
POINT
  5
102
330
F0
100
AcDbEntity
  8
001
370
     9
100
AcDbPoint
 10
228.72927
 20
77.764782
 30
0.0
  0
POINT
  5
103
330
F0
100
AcDbEntity
  8
001
370
     9
100
AcDbPoint
 10
228.72927
 20
7.570281
 30
0.0
  0
ENDBLK
  5
F2
330
F0
100
AcDbEntity
  8
0
100
AcDbBlockEnd
  0
BLOCK
  5
105
330
104
100
AcDbEntity
  8
0
100
AcDbBlockBegin
  2
*D9
 70
     1
 10
0.0
 20
0.0
 30
0.0
  3
*D9
  1

  0
LINE
  5
107
330
104
100
AcDbEntity
  8
001
370
     9
100
AcDbLine
 10
103.729271
 20
73.558399
 30
0.0
 11
103.729271
 21
27.869946
 31
0.0
  0
LINE
  5
108
330
104
100
AcDbEntity
  8
001
370
     9
100
AcDbLine
 10
102.72927
 20
76.764782
 30
0.0
 11
102.72927
 21
27.869946
 31
0.0
  0
LINE
  5
109
330
104
100
AcDbEntity
  8
001
370
     9
100
AcDbLine
 10
103.729271
 20
30.619946
 30
0.0
 11
102.72927
 21
30.619946
 31
0.0
  0
POLYLINE
  5
10A
330
104
100
AcDbEntity
  8
001
370
     9
100
AcDb2dPolyline
 66
     1
 10
0.0
 20
0.0
 30
0.0
  0
VERTEX
  5
10C
330
10A
100
AcDbEntity
  8
001
370
     9
100
AcDbVertex
100
AcDb2dVertex
 10
105.229271
 20
30.218022
 30
0.0
  0
VERTEX
  5
10D
330
10A
100
AcDbEntity
  8
001
370
     9
100
AcDbVertex
100
AcDb2dVertex
 10
103.729271
 20
30.619946
 30
0.0
  0
VERTEX
  5
10E
330
10A
100
AcDbEntity
  8
001
370
     9
100
AcDbVertex
100
AcDb2dVertex
 10
105.229271
 20
31.02187
 30
0.0
  0
SEQEND
  5
10B
330
10A
100
AcDbEntity
  8
001
370
     9
  0
POLYLINE
  5
10F
330
104
100
AcDbEntity
  8
001
370
     9
100
AcDb2dPolyline
 66
     1
 10
0.0
 20
0.0
 30
0.0
  0
VERTEX
  5
111
330
10F
100
AcDbEntity
  8
001
370
     9
100
AcDbVertex
100
AcDb2dVertex
 10
101.22927
 20
31.02187
 30
0.0
  0
VERTEX
  5
112
330
10F
100
AcDbEntity
  8
001
370
     9
100
AcDbVertex
100
AcDb2dVertex
 10
102.72927
 20
30.619946
 30
0.0
  0
VERTEX
  5
113
330
10F
100
AcDbEntity
  8
001
370
     9
100
AcDbVertex
100
AcDb2dVertex
 10
101.22927
 20
30.218022
 30
0.0
  0
SEQEND
  5
110
330
10F
100
AcDbEntity
  8
001
370
     9
  0
TEXT
  5
114
330
104
100
AcDbEntity
  8
001
370
    30
100
AcDbText
 10
94.05246
 20
31.619946
 30
0.0
 40
4.0
  1
１
 41
0.833333
100
AcDbText
  0
POINT
  5
115
330
104
100
AcDbEntity
  8
001
370
     9
100
AcDbPoint
 10
103.729271
 20
73.558399
 30
0.0
  0
POINT
  5
116
330
104
100
AcDbEntity
  8
001
370
     9
100
AcDbPoint
 10
102.72927
 20
76.764782
 30
0.0
  0
POINT
  5
117
330
104
100
AcDbEntity
  8
001
370
     9
100
AcDbPoint
 10
102.72927
 20
30.619946
 30
0.0
  0
LINE
  5
118
330
104
100
AcDbEntity
  8
001
370
     9
100
AcDbLine
 10
103.729271
 20
30.619946
 30
0.0
 11
106.229271
 21
30.619946
 31
0.0
  0
LINE
  5
119
330
104
100
AcDbEntity
  8
001
370
     9
100
AcDbLine
 10
102.72927
 20
30.619946
 30
0.0
 11
91.05246
 21
30.619946
 31
0.0
  0
ENDBLK
  5
106
330
104
100
AcDbEntity
  8
0
100
AcDbBlockEnd
  0
BLOCK
  5
11B
330
11A
100
AcDbEntity
  8
0
100
AcDbBlockBegin
  2
*D10
 70
     1
 10
0.0
 20
0.0
 30
0.0
  3
*D10
  1

  0
LINE
  5
11D
330
11A
100
AcDbEntity
  8
001
370
     9
100
AcDbLine
 10
118.929271
 20
64.264782
 30
0.0
 11
118.929271
 21
27.869946
 31
0.0
  0
LINE
  5
11E
330
11A
100
AcDbEntity
  8
001
370
     9
100
AcDbLine
 10
103.729271
 20
73.558399
 30
0.0
 11
103.729271
 21
27.869946
 31
0.0
  0
LINE
  5
11F
330
11A
100
AcDbEntity
  8
001
370
     9
100
AcDbLine
 10
118.929271
 20
30.619946
 30
0.0
 11
103.729271
 21
30.619946
 31
0.0
  0
POLYLINE
  5
120
330
11A
100
AcDbEntity
  8
001
370
     9
100
AcDb2dPolyline
 66
     1
 10
0.0
 20
0.0
 30
0.0
  0
VERTEX
  5
122
330
120
100
AcDbEntity
  8
001
370
     9
100
AcDbVertex
100
AcDb2dVertex
 10
120.429271
 20
30.218022
 30
0.0
  0
VERTEX
  5
123
330
120
100
AcDbEntity
  8
001
370
     9
100
AcDbVertex
100
AcDb2dVertex
 10
118.929271
 20
30.619946
 30
0.0
  0
VERTEX
  5
124
330
120
100
AcDbEntity
  8
001
370
     9
100
AcDbVertex
100
AcDb2dVertex
 10
120.429271
 20
31.02187
 30
0.0
  0
SEQEND
  5
121
330
120
100
AcDbEntity
  8
001
370
     9
  0
POLYLINE
  5
125
330
11A
100
AcDbEntity
  8
001
370
     9
100
AcDb2dPolyline
 66
     1
 10
0.0
 20
0.0
 30
0.0
  0
VERTEX
  5
127
330
125
100
AcDbEntity
  8
001
370
     9
100
AcDbVertex
100
AcDb2dVertex
 10
102.229271
 20
31.02187
 30
0.0
  0
VERTEX
  5
128
330
125
100
AcDbEntity
  8
001
370
     9
100
AcDbVertex
100
AcDb2dVertex
 10
103.729271
 20
30.619946
 30
0.0
  0
VERTEX
  5
129
330
125
100
AcDbEntity
  8
001
370
     9
100
AcDbVertex
100
AcDb2dVertex
 10
102.229271
 20
30.218022
 30
0.0
  0
SEQEND
  5
126
330
125
100
AcDbEntity
  8
001
370
     9
  0
TEXT
  5
12A
330
11A
100
AcDbEntity
  8
001
370
    30
100
AcDbText
 10
103.329271
 20
31.619946
 30
0.0
 40
4.0
  1
１５．２
 41
0.833333
100
AcDbText
  0
POINT
  5
12B
330
11A
100
AcDbEntity
  8
001
370
     9
100
AcDbPoint
 10
118.929271
 20
64.264782
 30
0.0
  0
POINT
  5
12C
330
11A
100
AcDbEntity
  8
001
370
     9
100
AcDbPoint
 10
103.729271
 20
73.558399
 30
0.0
  0
POINT
  5
12D
330
11A
100
AcDbEntity
  8
001
370
     9
100
AcDbPoint
 10
103.729271
 20
30.619946
 30
0.0
  0
LINE
  5
12E
330
11A
100
AcDbEntity
  8
001
370
     9
100
AcDbLine
 10
118.929271
 20
30.619946
 30
0.0
 11
121.429271
 21
30.619946
 31
0.0
  0
LINE
  5
12F
330
11A
100
AcDbEntity
  8
001
370
     9
100
AcDbLine
 10
103.729271
 20
30.619946
 30
0.0
 11
101.229271
 21
30.619946
 31
0.0
  0
ENDBLK
  5
11C
330
11A
100
AcDbEntity
  8
0
100
AcDbBlockEnd
  0
BLOCK
  5
131
330
130
100
AcDbEntity
  8
0
100
AcDbBlockBegin
  2
*D11
 70
     1
 10
0.0
 20
0.0
 30
0.0
  3
*D11
  1

  0
LINE
  5
133
330
130
100
AcDbEntity
  8
001
370
     9
100
AcDbLine
 10
222.72927
 20
71.764782
 30
0.0
 11
255.545837
 21
71.764782
 31
0.0
  0
LINE
  5
134
330
130
100
AcDbEntity
  8
001
370
     9
100
AcDbLine
 10
222.72927
 20
96.764782
 30
0.0
 11
255.545837
 21
96.764782
 31
0.0
  0
LINE
  5
135
330
130
100
AcDbEntity
  8
001
370
     9
100
AcDbLine
 10
252.795837
 20
71.764782
 30
0.0
 11
252.795837
 21
96.764782
 31
0.0
  0
POLYLINE
  5
136
330
130
100
AcDbEntity
  8
001
370
     9
100
AcDb2dPolyline
 66
     1
 10
0.0
 20
0.0
 30
0.0
  0
VERTEX
  5
138
330
136
100
AcDbEntity
  8
001
370
     9
100
AcDbVertex
100
AcDb2dVertex
 10
253.197761
 20
73.264782
 30
0.0
  0
VERTEX
  5
139
330
136
100
AcDbEntity
  8
001
370
     9
100
AcDbVertex
100
AcDb2dVertex
 10
252.795837
 20
71.764782
 30
0.0
  0
VERTEX
  5
13A
330
136
100
AcDbEntity
  8
001
370
     9
100
AcDbVertex
100
AcDb2dVertex
 10
252.393913
 20
73.264782
 30
0.0
  0
SEQEND
  5
137
330
136
100
AcDbEntity
  8
001
370
     9
  0
POLYLINE
  5
13B
330
130
100
AcDbEntity
  8
001
370
     9
100
AcDb2dPolyline
 66
     1
 10
0.0
 20
0.0
 30
0.0
  0
VERTEX
  5
13D
330
13B
100
AcDbEntity
  8
001
370
     9
100
AcDbVertex
100
AcDb2dVertex
 10
252.393913
 20
95.264782
 30
0.0
  0
VERTEX
  5
13E
330
13B
100
AcDbEntity
  8
001
370
     9
100
AcDbVertex
100
AcDb2dVertex
 10
252.795837
 20
96.764782
 30
0.0
  0
VERTEX
  5
13F
330
13B
100
AcDbEntity
  8
001
370
     9
100
AcDbVertex
100
AcDb2dVertex
 10
253.197761
 20
95.264782
 30
0.0
  0
SEQEND
  5
13C
330
13B
100
AcDbEntity
  8
001
370
     9
  0
TEXT
  5
140
330
130
100
AcDbEntity
  8
001
370
    30
100
AcDbText
 10
251.795837
 20
78.264782
 30
0.0
 40
4.0
  1
%%c２５
 50
90.000003
 41
0.882353
100
AcDbText
  0
POINT
  5
141
330
130
100
AcDbEntity
  8
001
370
     9
100
AcDbPoint
 10
222.72927
 20
71.764782
 30
0.0
  0
POINT
  5
142
330
130
100
AcDbEntity
  8
001
370
     9
100
AcDbPoint
 10
222.72927
 20
96.764782
 30
0.0
  0
POINT
  5
143
330
130
100
AcDbEntity
  8
001
370
     9
100
AcDbPoint
 10
252.795837
 20
96.764782
 30
0.0
  0
ENDBLK
  5
132
330
130
100
AcDbEntity
  8
0
100
AcDbBlockEnd
  0
BLOCK
  5
145
330
144
100
AcDbEntity
  8
0
100
AcDbBlockBegin
  2
*D12
 70
     1
 10
0.0
 20
0.0
 30
0.0
  3
*D12
  1

  0
LINE
  5
147
330
144
100
AcDbEntity
  8
001
370
     9
100
AcDbLine
 10
54.95587
 20
3.992952
 30
0.0
 11
54.95587
 21
-3.480545
 31
0.0
  0
LINE
  5
148
330
144
100
AcDbEntity
  8
001
370
     9
100
AcDbLine
 10
38.95587
 20
3.992952
 30
0.0
 11
38.95587
 21
-3.480545
 31
0.0
  0
LINE
  5
149
330
144
100
AcDbEntity
  8
001
370
     9
100
AcDbLine
 10
54.95587
 20
-1.909117
 30
0.0
 11
38.95587
 21
-1.909117
 31
0.0
  0
POLYLINE
  5
14A
330
144
100
AcDbEntity
  8
001
370
     9
100
AcDb2dPolyline
 66
     1
 10
0.0
 20
0.0
 30
0.0
  0
VERTEX
  5
14C
330
14A
100
AcDbEntity
  8
001
370
     9
100
AcDbVertex
100
AcDb2dVertex
 10
54.098727
 20
-1.679446
 30
0.0
  0
VERTEX
  5
14D
330
14A
100
AcDbEntity
  8
001
370
     9
100
AcDbVertex
100
AcDb2dVertex
 10
54.95587
 20
-1.909117
 30
0.0
  0
VERTEX
  5
14E
330
14A
100
AcDbEntity
  8
001
370
     9
100
AcDbVertex
100
AcDb2dVertex
 10
54.098727
 20
-2.138788
 30
0.0
  0
SEQEND
  5
14B
330
14A
100
AcDbEntity
  8
001
370
     9
  0
POLYLINE
  5
14F
330
144
100
AcDbEntity
  8
001
370
     9
100
AcDb2dPolyline
 66
     1
 10
0.0
 20
0.0
 30
0.0
  0
VERTEX
  5
151
330
14F
100
AcDbEntity
  8
001
370
     9
100
AcDbVertex
100
AcDb2dVertex
 10
39.813012
 20
-2.138788
 30
0.0
  0
VERTEX
  5
152
330
14F
100
AcDbEntity
  8
001
370
     9
100
AcDbVertex
100
AcDb2dVertex
 10
38.95587
 20
-1.909117
 30
0.0
  0
VERTEX
  5
153
330
14F
100
AcDbEntity
  8
001
370
     9
100
AcDbVertex
100
AcDb2dVertex
 10
39.813012
 20
-1.679446
 30
0.0
  0
SEQEND
  5
150
330
14F
100
AcDbEntity
  8
001
370
     9
  0
TEXT
  5
154
330
144
100
AcDbEntity
  8
001
370
    30
100
AcDbText
 10
43.527298
 20
-1.337688
 30
0.0
 40
2.285714
  1
%%c１６
 41
0.882353
100
AcDbText
  0
POINT
  5
155
330
144
100
AcDbEntity
  8
001
370
     9
100
AcDbPoint
 10
54.95587
 20
3.992952
 30
0.0
  0
POINT
  5
156
330
144
100
AcDbEntity
  8
001
370
     9
100
AcDbPoint
 10
38.95587
 20
3.992952
 30
0.0
  0
POINT
  5
157
330
144
100
AcDbEntity
  8
001
370
     9
100
AcDbPoint
 10
38.95587
 20
-1.909117
 30
0.0
  0
ENDBLK
  5
146
330
144
100
AcDbEntity
  8
0
100
AcDbBlockEnd
  0
BLOCK
  5
159
330
158
100
AcDbEntity
  8
0
100
AcDbBlockBegin
  2
*D13
 70
     1
 10
0.0
 20
0.0
 30
0.0
  3
*D13
  1

  0
LINE
  5
15B
330
158
100
AcDbEntity
  8
001
370
     9
100
AcDbLine
 10
58.45587
 20
27.992952
 30
0.0
 11
58.45587
 21
42.098869
 31
0.0
  0
LINE
  5
15C
330
158
100
AcDbEntity
  8
001
370
     9
100
AcDbLine
 10
35.45587
 20
27.992952
 30
0.0
 11
35.45587
 21
42.098869
 31
0.0
  0
LINE
  5
15D
330
158
100
AcDbEntity
  8
001
370
     9
100
AcDbLine
 10
58.45587
 20
40.52744
 30
0.0
 11
35.45587
 21
40.52744
 31
0.0
  0
POLYLINE
  5
15E
330
158
100
AcDbEntity
  8
001
370
     9
100
AcDb2dPolyline
 66
     1
 10
0.0
 20
0.0
 30
0.0
  0
VERTEX
  5
160
330
15E
100
AcDbEntity
  8
001
370
     9
100
AcDbVertex
100
AcDb2dVertex
 10
57.598727
 20
40.757111
 30
0.0
  0
VERTEX
  5
161
330
15E
100
AcDbEntity
  8
001
370
     9
100
AcDbVertex
100
AcDb2dVertex
 10
58.45587
 20
40.52744
 30
0.0
  0
VERTEX
  5
162
330
15E
100
AcDbEntity
  8
001
370
     9
100
AcDbVertex
100
AcDb2dVertex
 10
57.598727
 20
40.297769
 30
0.0
  0
SEQEND
  5
15F
330
15E
100
AcDbEntity
  8
001
370
     9
  0
POLYLINE
  5
163
330
158
100
AcDbEntity
  8
001
370
     9
100
AcDb2dPolyline
 66
     1
 10
0.0
 20
0.0
 30
0.0
  0
VERTEX
  5
165
330
163
100
AcDbEntity
  8
001
370
     9
100
AcDbVertex
100
AcDb2dVertex
 10
36.313012
 20
40.297769
 30
0.0
  0
VERTEX
  5
166
330
163
100
AcDbEntity
  8
001
370
     9
100
AcDbVertex
100
AcDb2dVertex
 10
35.45587
 20
40.52744
 30
0.0
  0
VERTEX
  5
167
330
163
100
AcDbEntity
  8
001
370
     9
100
AcDbVertex
100
AcDb2dVertex
 10
36.313012
 20
40.757111
 30
0.0
  0
SEQEND
  5
164
330
163
100
AcDbEntity
  8
001
370
     9
  0
TEXT
  5
168
330
158
100
AcDbEntity
  8
001
370
    30
100
AcDbText
 10
43.527298
 20
41.098869
 30
0.0
 40
2.285714
  1
%%c２３
 41
0.882353
100
AcDbText
  0
POINT
  5
169
330
158
100
AcDbEntity
  8
001
370
     9
100
AcDbPoint
 10
58.45587
 20
27.992952
 30
0.0
  0
POINT
  5
16A
330
158
100
AcDbEntity
  8
001
370
     9
100
AcDbPoint
 10
35.45587
 20
27.992952
 30
0.0
  0
POINT
  5
16B
330
158
100
AcDbEntity
  8
001
370
     9
100
AcDbPoint
 10
35.45587
 20
40.52744
 30
0.0
  0
ENDBLK
  5
15A
330
158
100
AcDbEntity
  8
0
100
AcDbBlockEnd
  0
BLOCK
  5
16D
330
16C
100
AcDbEntity
  8
0
100
AcDbBlockBegin
  2
*D14
 70
     1
 10
0.0
 20
0.0
 30
0.0
  3
*D14
  1

  0
LINE
  5
16F
330
16C
100
AcDbEntity
  8
001
370
     9
100
AcDbLine
 10
66.95587
 20
28.992952
 30
0.0
 11
70.488729
 21
28.992952
 31
0.0
  0
LINE
  5
170
330
16C
100
AcDbEntity
  8
001
370
     9
100
AcDbLine
 10
58.45587
 20
13.792952
 30
0.0
 11
70.488729
 21
13.792952
 31
0.0
  0
LINE
  5
171
330
16C
100
AcDbEntity
  8
001
370
     9
100
AcDbLine
 10
68.917301
 20
28.992952
 30
0.0
 11
68.917301
 21
13.792952
 31
0.0
  0
POLYLINE
  5
172
330
16C
100
AcDbEntity
  8
001
370
     9
100
AcDb2dPolyline
 66
     1
 10
0.0
 20
0.0
 30
0.0
  0
VERTEX
  5
174
330
172
100
AcDbEntity
  8
001
370
     9
100
AcDbVertex
100
AcDb2dVertex
 10
68.68763
 20
28.13581
 30
0.0
  0
VERTEX
  5
175
330
172
100
AcDbEntity
  8
001
370
     9
100
AcDbVertex
100
AcDb2dVertex
 10
68.917301
 20
28.992952
 30
0.0
  0
VERTEX
  5
176
330
172
100
AcDbEntity
  8
001
370
     9
100
AcDbVertex
100
AcDb2dVertex
 10
69.146971
 20
28.13581
 30
0.0
  0
SEQEND
  5
173
330
172
100
AcDbEntity
  8
001
370
     9
  0
POLYLINE
  5
177
330
16C
100
AcDbEntity
  8
001
370
     9
100
AcDb2dPolyline
 66
     1
 10
0.0
 20
0.0
 30
0.0
  0
VERTEX
  5
179
330
177
100
AcDbEntity
  8
001
370
     9
100
AcDbVertex
100
AcDb2dVertex
 10
69.146971
 20
14.650095
 30
0.0
  0
VERTEX
  5
17A
330
177
100
AcDbEntity
  8
001
370
     9
100
AcDbVertex
100
AcDb2dVertex
 10
68.917301
 20
13.792952
 30
0.0
  0
VERTEX
  5
17B
330
177
100
AcDbEntity
  8
001
370
     9
100
AcDbVertex
100
AcDb2dVertex
 10
68.68763
 20
14.650095
 30
0.0
  0
SEQEND
  5
178
330
177
100
AcDbEntity
  8
001
370
     9
  0
TEXT
  5
17C
330
16C
100
AcDbEntity
  8
001
370
    30
100
AcDbText
 10
68.345872
 20
16.821524
 30
0.0
 40
2.285714
  1
１５．２
 50
90.000003
 41
0.833333
100
AcDbText
  0
POINT
  5
17D
330
16C
100
AcDbEntity
  8
001
370
     9
100
AcDbPoint
 10
66.95587
 20
28.992952
 30
0.0
  0
POINT
  5
17E
330
16C
100
AcDbEntity
  8
001
370
     9
100
AcDbPoint
 10
58.45587
 20
13.792952
 30
0.0
  0
POINT
  5
17F
330
16C
100
AcDbEntity
  8
001
370
     9
100
AcDbPoint
 10
68.917301
 20
13.792952
 30
0.0
  0
ENDBLK
  5
16E
330
16C
100
AcDbEntity
  8
0
100
AcDbBlockEnd
  0
ENDSEC
  0
SECTION
  2
ENTITIES
  0
DIMENSION
  5
180
330
1F
100
AcDbEntity
  8
001
370
     9
100
AcDbDimension
  2
*D1
 10
89.512583
 20
72.764782
 30
0.0
 11
86.512583
 21
84.264782
 31
0.0
 70
   160
 71
     5
 42
-1.0
  3
Standard
100
AcDbAlignedDimension
 13
103.729271
 23
95.764782
 33
0.0
 14
104.511208
 24
72.764782
 34
0.0
 50
270.0
100
AcDbRotatedDimension
  0
DIMENSION
  5
181
330
1F
100
AcDbEntity
  8
001
370
     9
100
AcDbDimension
  2
*D2
 10
77.586707
 20
70.764782
 30
0.0
 11
74.586707
 21
84.264782
 31
0.0
 70
   160
 71
     5
 42
-1.0
  3
Standard
100
AcDbAlignedDimension
 13
119.929271
 23
97.764782
 33
0.0
 14
119.929271
 24
70.764782
 34
0.0
 50
270.0
100
AcDbRotatedDimension
  0
DIMENSION
  5
182
330
1F
100
AcDbEntity
  8
001
370
     9
100
AcDbDimension
  2
*D3
 10
66.134331
 20
99.549782
 30
0.0
 11
63.134331
 21
84.264782
 31
0.0
 70
   160
 71
     5
 42
-1.0
  3
Standard
100
AcDbAlignedDimension
 13
120.9752
 23
68.979782
 33
0.0
 14
120.9752
 24
99.549782
 34
0.0
 50
90.0
100
AcDbRotatedDimension
  0
DIMENSION
  5
183
330
1F
100
AcDbEntity
  8
001
370
     9
100
AcDbDimension
  2
*D4
 10
106.429271
 20
84.264782
 30
0.0
 11
161.668997
 21
61.383738
 31
0.0
 70
    34
 71
     5
 42
-1.0
  3
Standard
100
AcDb2LineAngularDimension
 13
166.47032
 23
84.264782
 33
0.0
 14
106.429271
 24
84.264782
 34
0.0
 15
119.929271
 25
70.764782
 35
0.0
 16
164.440636
 26
60.235688
 36
0.0
  0
DIMENSION
  5
184
330
1F
100
AcDbEntity
  8
001
370
     9
100
AcDbDimension
  2
*D5
 10
95.229271
 20
84.264782
 30
0.0
 11
168.915432
 21
53.742974
 31
0.0
 70
    34
 71
     5
 42
-1.0
  3
Standard
100
AcDb2LineAngularDimension
 13
175.236597
 23
84.264782
 33
0.0
 14
95.229271
 24
84.264782
 34
0.0
 15
103.729271
 25
75.764782
 35
0.0
 16
171.687071
 26
52.594924
 36
0.0
  0
DIMENSION
  5
185
330
1F
100
AcDbEntity
  8
001
370
     9
100
AcDbDimension
  2
*D6
 10
102.72927
 20
19.719204
 30
0.0
 11
125.72927
 21
22.719204
 31
0.0
 70
   160
 71
     5
 42
-1.0
  3
Standard
100
AcDbAlignedDimension
 13
148.72927
 23
70.764782
 33
0.0
 14
102.72927
 24
76.764782
 34
0.0
 50
180.0
100
AcDbRotatedDimension
  0
DIMENSION
  5
186
330
1F
100
AcDbEntity
  8
001
370
     9
100
AcDbDimension
  2
*D7
 10
148.72927
 20
19.719204
 30
0.0
 11
188.72927
 21
22.719204
 31
0.0
 70
   160
 71
     5
 42
-1.0
  3
Standard
100
AcDbAlignedDimension
 13
228.72927
 23
77.764782
 33
0.0
 14
148.72927
 24
70.764782
 34
0.0
 50
180.0
100
AcDbRotatedDimension
  0
DIMENSION
  5
187
330
1F
100
AcDbEntity
  8
001
370
     9
100
AcDbDimension
  2
*D8
 10
228.72927
 20
7.570281
 30
0.0
 11
165.72927
 21
10.570281
 31
0.0
 70
   160
 71
     5
 42
-1.0
  3
Standard
100
AcDbAlignedDimension
 13
102.72927
 23
76.764782
 33
0.0
 14
228.72927
 24
77.764782
 34
0.0
100
AcDbRotatedDimension
  0
DIMENSION
  5
188
330
1F
100
AcDbEntity
  8
001
370
     9
100
AcDbDimension
  2
*D9
 10
102.72927
 20
30.619946
 30
0.0
 11
96.05246
 21
33.619946
 31
0.0
 70
   160
 71
     5
 42
-1.0
  3
Standard
100
AcDbAlignedDimension
 13
103.729271
 23
73.558399
 33
0.0
 14
102.72927
 24
76.764782
 34
0.0
 50
180.0
100
AcDbRotatedDimension
  0
DIMENSION
  5
189
330
1F
100
AcDbEntity
  8
001
370
     9
100
AcDbDimension
  2
*D10
 10
103.729271
 20
30.619946
 30
0.0
 11
111.329271
 21
33.619946
 31
0.0
 70
   160
 71
     5
 42
-1.0
  3
Standard
100
AcDbAlignedDimension
 13
118.929271
 23
64.264782
 33
0.0
 14
103.729271
 24
73.558399
 34
0.0
 50
180.0
100
AcDbRotatedDimension
  0
DIMENSION
  5
18A
330
1F
100
AcDbEntity
  8
001
370
     9
100
AcDbDimension
  2
*D11
 10
252.795837
 20
96.764782
 30
0.0
 11
249.795837
 21
84.264782
 31
0.0
 70
   160
 71
     5
 42
-1.0
  3
Standard
100
AcDbAlignedDimension
 13
222.72927
 23
71.764782
 33
0.0
 14
222.72927
 24
96.764782
 34
0.0
 50
90.0
100
AcDbRotatedDimension
  0
DIMENSION
  5
18B
330
1F
100
AcDbEntity
  8
001
370
     9
100
AcDbDimension
  2
*D12
 10
38.95587
 20
-1.909117
 30
0.0
 11
46.95587
 21
-0.194831
 31
0.0
 70
   160
 71
     5
 42
-1.0
  3
Standard
100
AcDbAlignedDimension
 13
54.95587
 23
3.992952
 33
0.0
 14
38.95587
 24
3.992952
 34
0.0
 50
180.0
100
AcDbRotatedDimension
  0
DIMENSION
  5
18C
330
1F
100
AcDbEntity
  8
001
370
     9
100
AcDbDimension
  2
*D13
 10
35.45587
 20
40.52744
 30
0.0
 11
46.95587
 21
42.241726
 31
0.0
 70
   160
 71
     5
 42
-1.0
  3
Standard
100
AcDbAlignedDimension
 13
58.45587
 23
27.992952
 33
0.0
 14
35.45587
 24
27.992952
 34
0.0
 50
180.0
100
AcDbRotatedDimension
  0
DIMENSION
  5
18D
330
1F
100
AcDbEntity
  8
001
370
     9
100
AcDbDimension
  2
*D14
 10
68.917301
 20
13.792952
 30
0.0
 11
67.203015
 21
21.392953
 31
0.0
 70
   160
 71
     5
 42
-1.0
  3
Standard
100
AcDbAlignedDimension
 13
66.95587
 23
28.992952
 33
0.0
 14
58.45587
 24
13.792952
 34
0.0
 50
270.0
100
AcDbRotatedDimension
  0
TEXT
  5
18E
330
1F
100
AcDbEntity
  8
001
370
    30
100
AcDbText
 10
42.497118
 20
27.059826
 30
0.0
 40
2.285714
  1
Ｃ０．５
 50
314.999992
 41
0.833333
100
AcDbText
  0
POLYLINE
  5
18F
330
1F
100
AcDbEntity
  8
001
370
     9
100
AcDb2dPolyline
 66
     1
 10
0.0
 20
0.0
 30
0.0
  0
VERTEX
  5
191
330
18F
100
AcDbEntity
  8
001
370
     9
100
AcDbVertex
100
AcDb2dVertex
 10
54.76218
 20
14.311446
 30
0.0
  0
VERTEX
  5
192
330
18F
100
AcDbEntity
  8
001
370
     9
100
AcDbVertex
100
AcDb2dVertex
 10
55.20587
 20
13.542952
 30
0.0
  0
VERTEX
  5
193
330
18F
100
AcDbEntity
  8
001
370
     9
100
AcDbVertex
100
AcDb2dVertex
 10
54.437376
 20
13.986642
 30
0.0
  0
SEQEND
  5
190
330
18F
100
AcDbEntity
  8
001
370
     9
  0
LINE
  5
194
330
1F
100
AcDbEntity
  8
001
370
     9
100
AcDbLine
 10
55.20587
 20
13.542952
 30
0.0
 11
40.880874
 21
27.867948
 31
0.0
  0
TEXT
  5
195
330
1F
100
AcDbEntity
  8
001
370
    30
100
AcDbText
 10
53.968406
 20
34.288538
 30
0.0
 40
2.285714
  1
Ｃ１
 50
314.999992
 41
0.833333
100
AcDbText
  0
POLYLINE
  5
196
330
1F
100
AcDbEntity
  8
001
370
     9
100
AcDb2dPolyline
 66
     1
 10
0.0
 20
0.0
 30
0.0
  0
VERTEX
  5
198
330
196
100
AcDbEntity
  8
001
370
     9
100
AcDbVertex
100
AcDb2dVertex
 10
58.51218
 20
29.261446
 30
0.0
  0
VERTEX
  5
199
330
196
100
AcDbEntity
  8
001
370
     9
100
AcDbVertex
100
AcDb2dVertex
 10
58.95587
 20
28.492952
 30
0.0
  0
VERTEX
  5
19A
330
196
100
AcDbEntity
  8
001
370
     9
100
AcDbVertex
100
AcDb2dVertex
 10
58.187376
 20
28.936642
 30
0.0
  0
SEQEND
  5
197
330
196
100
AcDbEntity
  8
001
370
     9
  0
LINE
  5
19B
330
1F
100
AcDbEntity
  8
001
370
     9
100
AcDbLine
 10
58.95587
 20
28.492952
 30
0.0
 11
52.352162
 21
35.09666
 31
0.0
  0
TEXT
  5
19C
330
1F
100
AcDbEntity
  8
001
370
    30
100
AcDbText
 10
40.654784
 20
135.65591
 30
0.0
 40
10.0
  1
イーグルカット　ＥＣ２５－２３ＸＳ－Ｍ１４
 41
0.833333
100
AcDbText
  0
CIRCLE
  5
19D
330
1F
100
AcDbEntity
  8
001
370
    50
100
AcDbCircle
 10
107.418182
 20
77.626329
 30
0.0
 40
2.5
  0
LINE
  5
19E
330
1F
100
AcDbEntity
  8
001
370
    50
100
AcDbLine
 10
107.995532
 20
78.626329
 30
0.0
 11
107.67799
 21
79.176329
 31
0.0
  0
LINE
  5
19F
330
1F
100
AcDbEntity
  8
001
370
    50
100
AcDbLine
 10
106.840832
 20
78.626329
 30
0.0
 11
107.158374
 21
79.176329
 31
0.0
  0
ARC
  5
1A0
330
1F
100
AcDbEntity
  8
001
370
    50
100
AcDbCircle
 10
107.418182
 20
79.026329
 30
0.0
 40
0.3
100
AcDbArc
 50
30.0
 51
150.0
  0
LINE
  5
1A1
330
1F
100
AcDbEntity
  8
001
370
    50
100
AcDbLine
 10
106.840832
 20
78.626329
 30
0.0
 11
106.205746
 21
78.626329
 31
0.0
  0
LINE
  5
1A2
330
1F
100
AcDbEntity
  8
001
370
    50
100
AcDbLine
 10
106.263481
 20
77.626329
 30
0.0
 11
105.945939
 21
78.176329
 31
0.0
  0
ARC
  5
1A3
330
1F
100
AcDbEntity
  8
001
370
    50
100
AcDbCircle
 10
106.205746
 20
78.326329
 30
0.0
 40
0.3
100
AcDbArc
 50
90.0
 51
210.0
  0
LINE
  5
1A4
330
1F
100
AcDbEntity
  8
001
370
    50
100
AcDbLine
 10
106.263481
 20
77.626329
 30
0.0
 11
105.945939
 21
77.076329
 31
0.0
  0
LINE
  5
1A5
330
1F
100
AcDbEntity
  8
001
370
    50
100
AcDbLine
 10
106.840832
 20
76.626329
 30
0.0
 11
106.205746
 21
76.626329
 31
0.0
  0
ARC
  5
1A6
330
1F
100
AcDbEntity
  8
001
370
    50
100
AcDbCircle
 10
106.205746
 20
76.926329
 30
0.0
 40
0.3
100
AcDbArc
 50
150.0
 51
270.0
  0
LINE
  5
1A7
330
1F
100
AcDbEntity
  8
001
370
    50
100
AcDbLine
 10
106.840832
 20
76.626329
 30
0.0
 11
107.158374
 21
76.076329
 31
0.0
  0
LINE
  5
1A8
330
1F
100
AcDbEntity
  8
001
370
    50
100
AcDbLine
 10
107.995532
 20
76.626329
 30
0.0
 11
107.67799
 21
76.076329
 31
0.0
  0
ARC
  5
1A9
330
1F
100
AcDbEntity
  8
001
370
    50
100
AcDbCircle
 10
107.418182
 20
76.226329
 30
0.0
 40
0.3
100
AcDbArc
 50
210.0
 51
330.0
  0
LINE
  5
1AA
330
1F
100
AcDbEntity
  8
001
370
    50
100
AcDbLine
 10
107.995532
 20
76.626329
 30
0.0
 11
108.630617
 21
76.626329
 31
0.0
  0
LINE
  5
1AB
330
1F
100
AcDbEntity
  8
001
370
    50
100
AcDbLine
 10
108.572882
 20
77.626329
 30
0.0
 11
108.890425
 21
77.076329
 31
0.0
  0
ARC
  5
1AC
330
1F
100
AcDbEntity
  8
001
370
    50
100
AcDbCircle
 10
108.630617
 20
76.926329
 30
0.0
 40
0.3
100
AcDbArc
 50
270.0
 51
30.0
  0
LINE
  5
1AD
330
1F
100
AcDbEntity
  8
001
370
    50
100
AcDbLine
 10
108.572882
 20
77.626329
 30
0.0
 11
108.890425
 21
78.176329
 31
0.0
  0
LINE
  5
1AE
330
1F
100
AcDbEntity
  8
001
370
    50
100
AcDbLine
 10
107.995532
 20
78.626329
 30
0.0
 11
108.630617
 21
78.626329
 31
0.0
  0
ARC
  5
1AF
330
1F
100
AcDbEntity
  8
001
370
    50
100
AcDbCircle
 10
108.630617
 20
78.326329
 30
0.0
 40
0.3
100
AcDbArc
 50
330.0
 51
90.0
  0
LINE
  5
1B0
330
1F
100
AcDbEntity
  8
001
  6
PHANTOM
370
     9
100
AcDbLine
 10
118.929271
 20
96.764782
 30
0.0
 11
118.929271
 21
104.264782
 31
0.0
  0
LINE
  5
1B1
330
1F
100
AcDbEntity
  8
001
  6
PHANTOM
370
     9
100
AcDbLine
 10
103.729271
 20
92.764782
 30
0.0
 11
103.729271
 21
95.764782
 31
0.0
  0
LINE
  5
1B2
330
1F
100
AcDbEntity
  8
001
  6
PHANTOM
370
     9
100
AcDbLine
 10
117.929271
 20
95.764782
 30
0.0
 11
103.729271
 21
95.764782
 31
0.0
  0
LINE
  5
1B3
330
1F
100
AcDbEntity
  8
001
  6
PHANTOM
370
     9
100
AcDbLine
 10
103.229271
 20
92.264782
 30
0.0
 11
103.729271
 21
92.764782
 31
0.0
  0
LINE
  5
1B4
330
1F
100
AcDbEntity
  8
001
  6
PHANTOM
370
     9
100
AcDbLine
 10
119.929271
 20
97.764782
 30
0.0
 11
117.929271
 21
95.764782
 31
0.0
  0
POLYLINE
  5
1B5
330
1F
100
AcDbEntity
  8
001
370
    50
100
AcDb2dPolyline
 66
     1
 10
0.0
 20
0.0
 30
0.0
  0
VERTEX
  5
1B7
330
1B5
100
AcDbEntity
  8
001
370
    50
100
AcDbVertex
100
AcDb2dVertex
 10
107.419417
 20
80.63885
 30
0.0
  0
VERTEX
  5
1B8
330
1B5
100
AcDbEntity
  8
001
370
    50
100
AcDbVertex
100
AcDb2dVertex
 10
107.175853
 20
80.62439
 30
0.0
  0
VERTEX
  5
1B9
330
1B5
100
AcDbEntity
  8
001
370
    50
100
AcDbVertex
100
AcDb2dVertex
 10
106.843038
 20
80.581206
 30
0.0
  0
VERTEX
  5
1BA
330
1B5
100
AcDbEntity
  8
001
370
    50
100
AcDbVertex
100
AcDb2dVertex
 10
106.549315
 20
80.509606
 30
0.0
  0
VERTEX
  5
1BB
330
1B5
100
AcDbEntity
  8
001
370
    50
100
AcDbVertex
100
AcDb2dVertex
 10
106.288808
 20
80.410489
 30
0.0
  0
VERTEX
  5
1BC
330
1B5
100
AcDbEntity
  8
001
370
    50
100
AcDbVertex
100
AcDb2dVertex
 10
106.029881
 20
80.284579
 30
0.0
  0
VERTEX
  5
1BD
330
1B5
100
AcDbEntity
  8
001
370
    50
100
AcDbVertex
100
AcDb2dVertex
 10
105.778028
 20
80.133259
 30
0.0
  0
VERTEX
  5
1BE
330
1B5
100
AcDbEntity
  8
001
370
    50
100
AcDbVertex
100
AcDb2dVertex
 10
105.544099
 20
79.957497
 30
0.0
  0
VERTEX
  5
1BF
330
1B5
100
AcDbEntity
  8
001
370
    50
100
AcDbVertex
100
AcDb2dVertex
 10
105.330325
 20
79.760171
 30
0.0
  0
VERTEX
  5
1C0
330
1B5
100
AcDbEntity
  8
001
370
    50
100
AcDbVertex
100
AcDb2dVertex
 10
105.135732
 20
79.542747
 30
0.0
  0
VERTEX
  5
1C1
330
1B5
100
AcDbEntity
  8
001
370
    50
100
AcDbVertex
100
AcDb2dVertex
 10
104.962904
 20
79.305561
 30
0.0
  0
VERTEX
  5
1C2
330
1B5
100
AcDbEntity
  8
001
370
    50
100
AcDbVertex
100
AcDb2dVertex
 10
104.813709
 20
79.049537
 30
0.0
  0
VERTEX
  5
1C3
330
1B5
100
AcDbEntity
  8
001
370
    50
100
AcDbVertex
100
AcDb2dVertex
 10
104.689886
 20
78.786901
 30
0.0
  0
VERTEX
  5
1C4
330
1B5
100
AcDbEntity
  8
001
370
    50
100
AcDbVertex
100
AcDb2dVertex
 10
104.592203
 20
78.522086
 30
0.0
  0
VERTEX
  5
1C5
330
1B5
100
AcDbEntity
  8
001
370
    50
100
AcDbVertex
100
AcDb2dVertex
 10
104.521762
 20
78.224121
 30
0.0
  0
VERTEX
  5
1C6
330
1B5
100
AcDbEntity
  8
001
370
    50
100
AcDbVertex
100
AcDb2dVertex
 10
104.479223
 20
77.886121
 30
0.0
  0
VERTEX
  5
1C7
330
1B5
100
AcDbEntity
  8
001
370
    50
100
AcDbVertex
100
AcDb2dVertex
 10
104.464994
 20
77.63885
 30
0.0
  0
SEQEND
  5
1B6
330
1B5
100
AcDbEntity
  8
001
370
    50
  0
LINE
  5
1C8
330
1F
100
AcDbEntity
  8
001
370
    50
100
AcDbLine
 10
102.72927
 20
76.764782
 30
0.0
 11
102.72927
 21
80.591923
 31
0.0
  0
POLYLINE
  5
1C9
330
1F
100
AcDbEntity
  8
001
370
    50
100
AcDb2dPolyline
 66
     1
 10
0.0
 20
0.0
 30
0.0
  0
VERTEX
  5
1CB
330
1C9
100
AcDbEntity
  8
001
370
    50
100
AcDbVertex
100
AcDb2dVertex
 10
103.511208
 20
81.385923
 30
0.0
  0
VERTEX
  5
1CC
330
1C9
100
AcDbEntity
  8
001
370
    50
100
AcDbVertex
100
AcDb2dVertex
 10
103.446744
 20
81.382096
 30
0.0
  0
VERTEX
  5
1CD
330
1C9
100
AcDbEntity
  8
001
370
    50
100
AcDbVertex
100
AcDb2dVertex
 10
103.358659
 20
81.370667
 30
0.0
  0
VERTEX
  5
1CE
330
1C9
100
AcDbEntity
  8
001
370
    50
100
AcDbVertex
100
AcDb2dVertex
 10
103.280921
 20
81.351717
 30
0.0
  0
VERTEX
  5
1CF
330
1C9
100
AcDbEntity
  8
001
370
    50
100
AcDbVertex
100
AcDb2dVertex
 10
103.211973
 20
81.325484
 30
0.0
  0
VERTEX
  5
1D0
330
1C9
100
AcDbEntity
  8
001
370
    50
100
AcDbVertex
100
AcDb2dVertex
 10
103.143444
 20
81.29216
 30
0.0
  0
VERTEX
  5
1D1
330
1C9
100
AcDbEntity
  8
001
370
    50
100
AcDbVertex
100
AcDb2dVertex
 10
103.076787
 20
81.25211
 30
0.0
  0
VERTEX
  5
1D2
330
1C9
100
AcDbEntity
  8
001
370
    50
100
AcDbVertex
100
AcDb2dVertex
 10
103.014874
 20
81.205592
 30
0.0
  0
VERTEX
  5
1D3
330
1C9
100
AcDbEntity
  8
001
370
    50
100
AcDbVertex
100
AcDb2dVertex
 10
102.958295
 20
81.153366
 30
0.0
  0
VERTEX
  5
1D4
330
1C9
100
AcDbEntity
  8
001
370
    50
100
AcDbVertex
100
AcDb2dVertex
 10
102.906792
 20
81.095821
 30
0.0
  0
VERTEX
  5
1D5
330
1C9
100
AcDbEntity
  8
001
370
    50
100
AcDbVertex
100
AcDb2dVertex
 10
102.861051
 20
81.033046
 30
0.0
  0
VERTEX
  5
1D6
330
1C9
100
AcDbEntity
  8
001
370
    50
100
AcDbVertex
100
AcDb2dVertex
 10
102.821564
 20
80.965285
 30
0.0
  0
VERTEX
  5
1D7
330
1C9
100
AcDbEntity
  8
001
370
    50
100
AcDbVertex
100
AcDb2dVertex
 10
102.788792
 20
80.895774
 30
0.0
  0
VERTEX
  5
1D8
330
1C9
100
AcDbEntity
  8
001
370
    50
100
AcDbVertex
100
AcDb2dVertex
 10
102.762938
 20
80.825686
 30
0.0
  0
VERTEX
  5
1D9
330
1C9
100
AcDbEntity
  8
001
370
    50
100
AcDbVertex
100
AcDb2dVertex
 10
102.744295
 20
80.746825
 30
0.0
  0
VERTEX
  5
1DA
330
1C9
100
AcDbEntity
  8
001
370
    50
100
AcDbVertex
100
AcDb2dVertex
 10
102.733036
 20
80.657368
 30
0.0
  0
VERTEX
  5
1DB
330
1C9
100
AcDbEntity
  8
001
370
    50
100
AcDbVertex
100
AcDb2dVertex
 10
102.72927
 20
80.591923
 30
0.0
  0
SEQEND
  5
1CA
330
1C9
100
AcDbEntity
  8
001
370
    50
  0
LINE
  5
1DC
330
1F
100
AcDbEntity
  8
001
370
    50
100
AcDbLine
 10
105.675936
 20
81.385923
 30
0.0
 11
103.511208
 21
81.385923
 31
0.0
  0
LINE
  5
1DD
330
1F
100
AcDbEntity
  8
001
370
    50
100
AcDbLine
 10
106.707857
 20
82.40135
 30
0.0
 11
105.675936
 21
81.385923
 31
0.0
  0
LINE
  5
1DE
330
1F
100
AcDbEntity
  8
001
370
    50
100
AcDbLine
 10
110.327627
 20
82.40135
 30
0.0
 11
106.707857
 21
82.40135
 31
0.0
  0
POLYLINE
  5
1DF
330
1F
100
AcDbEntity
  8
001
370
    50
100
AcDb2dPolyline
 66
     1
 10
0.0
 20
0.0
 30
0.0
  0
VERTEX
  5
1E1
330
1DF
100
AcDbEntity
  8
001
370
    50
100
AcDbVertex
100
AcDb2dVertex
 10
111.109564
 20
81.60735
 30
0.0
  0
VERTEX
  5
1E2
330
1DF
100
AcDbEntity
  8
001
370
    50
100
AcDbVertex
100
AcDb2dVertex
 10
111.106587
 20
81.665551
 30
0.0
  0
VERTEX
  5
1E3
330
1DF
100
AcDbEntity
  8
001
370
    50
100
AcDbVertex
100
AcDb2dVertex
 10
111.097684
 20
81.745227
 30
0.0
  0
VERTEX
  5
1E4
330
1DF
100
AcDbEntity
  8
001
370
    50
100
AcDbVertex
100
AcDb2dVertex
 10
111.082925
 20
81.815771
 30
0.0
  0
VERTEX
  5
1E5
330
1DF
100
AcDbEntity
  8
001
370
    50
100
AcDbVertex
100
AcDb2dVertex
 10
111.062407
 20
81.878914
 30
0.0
  0
VERTEX
  5
1E6
330
1DF
100
AcDbEntity
  8
001
370
    50
100
AcDbVertex
100
AcDb2dVertex
 10
111.036311
 20
81.942091
 30
0.0
  0
VERTEX
  5
1E7
330
1DF
100
AcDbEntity
  8
001
370
    50
100
AcDbVertex
100
AcDb2dVertex
 10
111.004804
 20
82.00435
 30
0.0
  0
VERTEX
  5
1E8
330
1DF
100
AcDbEntity
  8
001
370
    50
100
AcDbVertex
100
AcDb2dVertex
 10
110.96819
 20
82.062944
 30
0.0
  0
VERTEX
  5
1E9
330
1DF
100
AcDbEntity
  8
001
370
    50
100
AcDbVertex
100
AcDb2dVertex
 10
110.926625
 20
82.117724
 30
0.0
  0
VERTEX
  5
1EA
330
1DF
100
AcDbEntity
  8
001
370
    50
100
AcDbVertex
100
AcDb2dVertex
 10
110.880514
 20
82.168703
 30
0.0
  0
VERTEX
  5
1EB
330
1DF
100
AcDbEntity
  8
001
370
    50
100
AcDbVertex
100
AcDb2dVertex
 10
110.830246
 20
82.21559
 30
0.0
  0
VERTEX
  5
1EC
330
1DF
100
AcDbEntity
  8
001
370
    50
100
AcDbVertex
100
AcDb2dVertex
 10
110.776371
 20
82.257745
 30
0.0
  0
VERTEX
  5
1ED
330
1DF
100
AcDbEntity
  8
001
370
    50
100
AcDbVertex
100
AcDb2dVertex
 10
110.718595
 20
82.294974
 30
0.0
  0
VERTEX
  5
1EE
330
1DF
100
AcDbEntity
  8
001
370
    50
100
AcDbVertex
100
AcDb2dVertex
 10
110.657337
 20
82.326938
 30
0.0
  0
VERTEX
  5
1EF
330
1DF
100
AcDbEntity
  8
001
370
    50
100
AcDbVertex
100
AcDb2dVertex
 10
110.595065
 20
82.353466
 30
0.0
  0
VERTEX
  5
1F0
330
1DF
100
AcDbEntity
  8
001
370
    50
100
AcDbVertex
100
AcDb2dVertex
 10
110.532935
 20
82.374288
 30
0.0
  0
VERTEX
  5
1F1
330
1DF
100
AcDbEntity
  8
001
370
    50
100
AcDbVertex
100
AcDb2dVertex
 10
110.463408
 20
82.389288
 30
0.0
  0
VERTEX
  5
1F2
330
1DF
100
AcDbEntity
  8
001
370
    50
100
AcDbVertex
100
AcDb2dVertex
 10
110.384953
 20
82.398326
 30
0.0
  0
VERTEX
  5
1F3
330
1DF
100
AcDbEntity
  8
001
370
    50
100
AcDbVertex
100
AcDb2dVertex
 10
110.327626
 20
82.40135
 30
0.0
  0
SEQEND
  5
1E0
330
1DF
100
AcDbEntity
  8
001
370
    50
  0
LINE
  5
1F4
330
1F
100
AcDbEntity
  8
001
370
    50
100
AcDbLine
 10
111.109564
 20
79.409227
 30
0.0
 11
111.109564
 21
81.60735
 31
0.0
  0
LINE
  5
1F5
330
1F
100
AcDbEntity
  8
001
370
    50
100
AcDbLine
 10
112.109564
 20
78.361388
 30
0.0
 11
111.109564
 21
79.409227
 31
0.0
  0
LINE
  5
1F6
330
1F
100
AcDbEntity
  8
001
370
    50
100
AcDbLine
 10
112.109564
 20
74.685777
 30
0.0
 11
112.109564
 21
78.361388
 31
0.0
  0
POLYLINE
  5
1F7
330
1F
100
AcDbEntity
  8
001
370
    50
100
AcDb2dPolyline
 66
     1
 10
0.0
 20
0.0
 30
0.0
  0
VERTEX
  5
1F9
330
1F7
100
AcDbEntity
  8
001
370
    50
100
AcDbVertex
100
AcDb2dVertex
 10
111.327627
 20
73.891777
 30
0.0
  0
VERTEX
  5
1FA
330
1F7
100
AcDbEntity
  8
001
370
    50
100
AcDbVertex
100
AcDb2dVertex
 10
111.384953
 20
73.894802
 30
0.0
  0
VERTEX
  5
1FB
330
1F7
100
AcDbEntity
  8
001
370
    50
100
AcDbVertex
100
AcDb2dVertex
 10
111.463409
 20
73.90384
 30
0.0
  0
VERTEX
  5
1FC
330
1F7
100
AcDbEntity
  8
001
370
    50
100
AcDbVertex
100
AcDb2dVertex
 10
111.532936
 20
73.918839
 30
0.0
  0
VERTEX
  5
1FD
330
1F7
100
AcDbEntity
  8
001
370
    50
100
AcDbVertex
100
AcDb2dVertex
 10
111.595065
 20
73.939661
 30
0.0
  0
VERTEX
  5
1FE
330
1F7
100
AcDbEntity
  8
001
370
    50
100
AcDbVertex
100
AcDb2dVertex
 10
111.657338
 20
73.96619
 30
0.0
  0
VERTEX
  5
1FF
330
1F7
100
AcDbEntity
  8
001
370
    50
100
AcDbVertex
100
AcDb2dVertex
 10
111.718596
 20
73.998153
 30
0.0
  0
VERTEX
  5
200
330
1F7
100
AcDbEntity
  8
001
370
    50
100
AcDbVertex
100
AcDb2dVertex
 10
111.776372
 20
74.035382
 30
0.0
  0
VERTEX
  5
201
330
1F7
100
AcDbEntity
  8
001
370
    50
100
AcDbVertex
100
AcDb2dVertex
 10
111.830247
 20
74.077538
 30
0.0
  0
VERTEX
  5
202
330
1F7
100
AcDbEntity
  8
001
370
    50
100
AcDbVertex
100
AcDb2dVertex
 10
111.880514
 20
74.124424
 30
0.0
  0
VERTEX
  5
203
330
1F7
100
AcDbEntity
  8
001
370
    50
100
AcDbVertex
100
AcDb2dVertex
 10
111.926626
 20
74.175404
 30
0.0
  0
VERTEX
  5
204
330
1F7
100
AcDbEntity
  8
001
370
    50
100
AcDbVertex
100
AcDb2dVertex
 10
111.968191
 20
74.230184
 30
0.0
  0
VERTEX
  5
205
330
1F7
100
AcDbEntity
  8
001
370
    50
100
AcDbVertex
100
AcDb2dVertex
 10
112.004805
 20
74.288777
 30
0.0
  0
VERTEX
  5
206
330
1F7
100
AcDbEntity
  8
001
370
    50
100
AcDbVertex
100
AcDb2dVertex
 10
112.036312
 20
74.351037
 30
0.0
  0
VERTEX
  5
207
330
1F7
100
AcDbEntity
  8
001
370
    50
100
AcDbVertex
100
AcDb2dVertex
 10
112.062408
 20
74.414213
 30
0.0
  0
VERTEX
  5
208
330
1F7
100
AcDbEntity
  8
001
370
    50
100
AcDbVertex
100
AcDb2dVertex
 10
112.082926
 20
74.477356
 30
0.0
  0
VERTEX
  5
209
330
1F7
100
AcDbEntity
  8
001
370
    50
100
AcDbVertex
100
AcDb2dVertex
 10
112.097685
 20
74.547901
 30
0.0
  0
VERTEX
  5
20A
330
1F7
100
AcDbEntity
  8
001
370
    50
100
AcDbVertex
100
AcDb2dVertex
 10
112.106588
 20
74.627576
 30
0.0
  0
VERTEX
  5
20B
330
1F7
100
AcDbEntity
  8
001
370
    50
100
AcDbVertex
100
AcDb2dVertex
 10
112.109564
 20
74.685777
 30
0.0
  0
SEQEND
  5
1F8
330
1F7
100
AcDbEntity
  8
001
370
    50
  0
LINE
  5
20C
330
1F
100
AcDbEntity
  8
001
370
    50
100
AcDbLine
 10
109.162898
 20
73.891777
 30
0.0
 11
111.327627
 21
73.891777
 31
0.0
  0
LINE
  5
20D
330
1F
100
AcDbEntity
  8
001
370
    50
100
AcDbLine
 10
108.017597
 20
72.764782
 30
0.0
 11
109.162898
 21
73.891777
 31
0.0
  0
LINE
  5
20E
330
1F
100
AcDbEntity
  8
001
370
    50
100
AcDbLine
 10
108.017597
 20
72.764782
 30
0.0
 11
104.511208
 21
72.764782
 31
0.0
  0
LINE
  5
20F
330
1F
100
AcDbEntity
  8
001
370
    50
100
AcDbLine
 10
103.729271
 20
73.558399
 30
0.0
 11
103.729271
 21
75.764782
 31
0.0
  0
POLYLINE
  5
210
330
1F
100
AcDbEntity
  8
001
370
    50
100
AcDb2dPolyline
 66
     1
 10
0.0
 20
0.0
 30
0.0
  0
VERTEX
  5
212
330
210
100
AcDbEntity
  8
001
370
    50
100
AcDbVertex
100
AcDb2dVertex
 10
104.464994
 20
77.63885
 30
0.0
  0
VERTEX
  5
213
330
210
100
AcDbEntity
  8
001
370
    50
100
AcDbVertex
100
AcDb2dVertex
 10
104.479223
 20
77.391579
 30
0.0
  0
VERTEX
  5
214
330
210
100
AcDbEntity
  8
001
370
    50
100
AcDbVertex
100
AcDb2dVertex
 10
104.521762
 20
77.053579
 30
0.0
  0
VERTEX
  5
215
330
210
100
AcDbEntity
  8
001
370
    50
100
AcDbVertex
100
AcDb2dVertex
 10
104.592203
 20
76.755614
 30
0.0
  0
VERTEX
  5
216
330
210
100
AcDbEntity
  8
001
370
    50
100
AcDbVertex
100
AcDb2dVertex
 10
104.689886
 20
76.4908
 30
0.0
  0
VERTEX
  5
217
330
210
100
AcDbEntity
  8
001
370
    50
100
AcDbVertex
100
AcDb2dVertex
 10
104.813709
 20
76.228164
 30
0.0
  0
VERTEX
  5
218
330
210
100
AcDbEntity
  8
001
370
    50
100
AcDbVertex
100
AcDb2dVertex
 10
104.962904
 20
75.97214
 30
0.0
  0
VERTEX
  5
219
330
210
100
AcDbEntity
  8
001
370
    50
100
AcDbVertex
100
AcDb2dVertex
 10
105.135732
 20
75.734953
 30
0.0
  0
VERTEX
  5
21A
330
210
100
AcDbEntity
  8
001
370
    50
100
AcDbVertex
100
AcDb2dVertex
 10
105.330325
 20
75.51753
 30
0.0
  0
VERTEX
  5
21B
330
210
100
AcDbEntity
  8
001
370
    50
100
AcDbVertex
100
AcDb2dVertex
 10
105.544099
 20
75.320203
 30
0.0
  0
VERTEX
  5
21C
330
210
100
AcDbEntity
  8
001
370
    50
100
AcDbVertex
100
AcDb2dVertex
 10
105.778028
 20
75.144441
 30
0.0
  0
VERTEX
  5
21D
330
210
100
AcDbEntity
  8
001
370
    50
100
AcDbVertex
100
AcDb2dVertex
 10
106.029882
 20
74.993121
 30
0.0
  0
VERTEX
  5
21E
330
210
100
AcDbEntity
  8
001
370
    50
100
AcDbVertex
100
AcDb2dVertex
 10
106.288809
 20
74.867212
 30
0.0
  0
VERTEX
  5
21F
330
210
100
AcDbEntity
  8
001
370
    50
100
AcDbVertex
100
AcDb2dVertex
 10
106.549315
 20
74.768094
 30
0.0
  0
VERTEX
  5
220
330
210
100
AcDbEntity
  8
001
370
    50
100
AcDbVertex
100
AcDb2dVertex
 10
106.843038
 20
74.696494
 30
0.0
  0
VERTEX
  5
221
330
210
100
AcDbEntity
  8
001
370
    50
100
AcDbVertex
100
AcDb2dVertex
 10
107.175853
 20
74.65331
 30
0.0
  0
VERTEX
  5
222
330
210
100
AcDbEntity
  8
001
370
    50
100
AcDbVertex
100
AcDb2dVertex
 10
107.419417
 20
74.63885
 30
0.0
  0
SEQEND
  5
211
330
210
100
AcDbEntity
  8
001
370
    50
  0
POLYLINE
  5
223
330
1F
100
AcDbEntity
  8
001
370
    50
100
AcDb2dPolyline
 66
     1
 10
0.0
 20
0.0
 30
0.0
  0
VERTEX
  5
225
330
223
100
AcDbEntity
  8
001
370
    50
100
AcDbVertex
100
AcDb2dVertex
 10
107.419417
 20
74.63885
 30
0.0
  0
VERTEX
  5
226
330
223
100
AcDbEntity
  8
001
370
    50
100
AcDbVertex
100
AcDb2dVertex
 10
107.636015
 20
74.650277
 30
0.0
  0
VERTEX
  5
227
330
223
100
AcDbEntity
  8
001
370
    50
100
AcDbVertex
100
AcDb2dVertex
 10
107.932448
 20
74.684427
 30
0.0
  0
VERTEX
  5
228
330
223
100
AcDbEntity
  8
001
370
    50
100
AcDbVertex
100
AcDb2dVertex
 10
108.195143
 20
74.741104
 30
0.0
  0
VERTEX
  5
229
330
223
100
AcDbEntity
  8
001
370
    50
100
AcDbVertex
100
AcDb2dVertex
 10
108.42989
 20
74.819772
 30
0.0
  0
VERTEX
  5
22A
330
223
100
AcDbEntity
  8
001
370
    50
100
AcDbVertex
100
AcDb2dVertex
 10
108.665177
 20
74.919991
 30
0.0
  0
VERTEX
  5
22B
330
223
100
AcDbEntity
  8
001
370
    50
100
AcDbVertex
100
AcDb2dVertex
 10
108.896629
 20
75.040774
 30
0.0
  0
VERTEX
  5
22C
330
223
100
AcDbEntity
  8
001
370
    50
100
AcDbVertex
100
AcDb2dVertex
 10
109.114927
 20
75.181495
 30
0.0
  0
VERTEX
  5
22D
330
223
100
AcDbEntity
  8
001
370
    50
100
AcDbVertex
100
AcDb2dVertex
 10
109.318484
 20
75.340717
 30
0.0
  0
VERTEX
  5
22E
330
223
100
AcDbEntity
  8
001
370
    50
100
AcDbVertex
100
AcDb2dVertex
 10
109.508413
 20
75.517658
 30
0.0
  0
VERTEX
  5
22F
330
223
100
AcDbEntity
  8
001
370
    50
100
AcDbVertex
100
AcDb2dVertex
 10
109.682637
 20
75.710488
 30
0.0
  0
VERTEX
  5
230
330
223
100
AcDbEntity
  8
001
370
    50
100
AcDbVertex
100
AcDb2dVertex
 10
109.839683
 20
75.918258
 30
0.0
  0
VERTEX
  5
231
330
223
100
AcDbEntity
  8
001
370
    50
100
AcDbVertex
100
AcDb2dVertex
 10
109.978023
 20
76.13885
 30
0.0
  0
VERTEX
  5
232
330
223
100
AcDbEntity
  8
001
370
    50
100
AcDbVertex
100
AcDb2dVertex
 10
110.097068
 20
76.371118
 30
0.0
  0
VERTEX
  5
233
330
223
100
AcDbEntity
  8
001
370
    50
100
AcDbVertex
100
AcDb2dVertex
 10
110.195667
 20
76.61279
 30
0.0
  0
VERTEX
  5
234
330
223
100
AcDbEntity
  8
001
370
    50
100
AcDbVertex
100
AcDb2dVertex
 10
110.273191
 20
76.862478
 30
0.0
  0
VERTEX
  5
235
330
223
100
AcDbEntity
  8
001
370
    50
100
AcDbVertex
100
AcDb2dVertex
 10
110.328956
 20
77.117906
 30
0.0
  0
VERTEX
  5
236
330
223
100
AcDbEntity
  8
001
370
    50
100
AcDbVertex
100
AcDb2dVertex
 10
110.362594
 20
77.377413
 30
0.0
  0
VERTEX
  5
237
330
223
100
AcDbEntity
  8
001
370
    50
100
AcDbVertex
100
AcDb2dVertex
 10
110.373841
 20
77.63885
 30
0.0
  0
VERTEX
  5
238
330
223
100
AcDbEntity
  8
001
370
    50
100
AcDbVertex
100
AcDb2dVertex
 10
110.362594
 20
77.900287
 30
0.0
  0
VERTEX
  5
239
330
223
100
AcDbEntity
  8
001
370
    50
100
AcDbVertex
100
AcDb2dVertex
 10
110.328956
 20
78.159795
 30
0.0
  0
VERTEX
  5
23A
330
223
100
AcDbEntity
  8
001
370
    50
100
AcDbVertex
100
AcDb2dVertex
 10
110.273191
 20
78.415223
 30
0.0
  0
VERTEX
  5
23B
330
223
100
AcDbEntity
  8
001
370
    50
100
AcDbVertex
100
AcDb2dVertex
 10
110.195667
 20
78.664911
 30
0.0
  0
VERTEX
  5
23C
330
223
100
AcDbEntity
  8
001
370
    50
100
AcDbVertex
100
AcDb2dVertex
 10
110.097068
 20
78.906583
 30
0.0
  0
VERTEX
  5
23D
330
223
100
AcDbEntity
  8
001
370
    50
100
AcDbVertex
100
AcDb2dVertex
 10
109.978023
 20
79.13885
 30
0.0
  0
VERTEX
  5
23E
330
223
100
AcDbEntity
  8
001
370
    50
100
AcDbVertex
100
AcDb2dVertex
 10
109.839683
 20
79.359442
 30
0.0
  0
VERTEX
  5
23F
330
223
100
AcDbEntity
  8
001
370
    50
100
AcDbVertex
100
AcDb2dVertex
 10
109.682637
 20
79.567213
 30
0.0
  0
VERTEX
  5
240
330
223
100
AcDbEntity
  8
001
370
    50
100
AcDbVertex
100
AcDb2dVertex
 10
109.508413
 20
79.760043
 30
0.0
  0
VERTEX
  5
241
330
223
100
AcDbEntity
  8
001
370
    50
100
AcDbVertex
100
AcDb2dVertex
 10
109.318484
 20
79.936984
 30
0.0
  0
VERTEX
  5
242
330
223
100
AcDbEntity
  8
001
370
    50
100
AcDbVertex
100
AcDb2dVertex
 10
109.114927
 20
80.096206
 30
0.0
  0
VERTEX
  5
243
330
223
100
AcDbEntity
  8
001
370
    50
100
AcDbVertex
100
AcDb2dVertex
 10
108.896629
 20
80.236927
 30
0.0
  0
VERTEX
  5
244
330
223
100
AcDbEntity
  8
001
370
    50
100
AcDbVertex
100
AcDb2dVertex
 10
108.665177
 20
80.35771
 30
0.0
  0
VERTEX
  5
245
330
223
100
AcDbEntity
  8
001
370
    50
100
AcDbVertex
100
AcDb2dVertex
 10
108.429889
 20
80.457928
 30
0.0
  0
VERTEX
  5
246
330
223
100
AcDbEntity
  8
001
370
    50
100
AcDbVertex
100
AcDb2dVertex
 10
108.195143
 20
80.536597
 30
0.0
  0
VERTEX
  5
247
330
223
100
AcDbEntity
  8
001
370
    50
100
AcDbVertex
100
AcDb2dVertex
 10
107.932447
 20
80.593274
 30
0.0
  0
VERTEX
  5
248
330
223
100
AcDbEntity
  8
001
370
    50
100
AcDbVertex
100
AcDb2dVertex
 10
107.636015
 20
80.627423
 30
0.0
  0
VERTEX
  5
249
330
223
100
AcDbEntity
  8
001
370
    50
100
AcDbVertex
100
AcDb2dVertex
 10
107.419417
 20
80.63885
 30
0.0
  0
SEQEND
  5
224
330
223
100
AcDbEntity
  8
001
370
    50
  0
LINE
  5
24A
330
1F
100
AcDbEntity
  8
001
370
    50
100
AcDbLine
 10
147.72927
 20
98.764782
 30
0.0
 11
121.743741
 21
98.764782
 31
0.0
  0
LINE
  5
24B
330
1F
100
AcDbEntity
  8
001
370
    50
100
AcDbLine
 10
146.276787
 20
69.764782
 30
0.0
 11
147.72927
 21
69.764782
 31
0.0
  0
POLYLINE
  5
24C
330
1F
100
AcDbEntity
  8
001
370
    50
100
AcDb2dPolyline
 66
     1
 10
0.0
 20
0.0
 30
0.0
  0
VERTEX
  5
24E
330
24C
100
AcDbEntity
  8
001
370
    50
100
AcDbVertex
100
AcDb2dVertex
 10
142.958473
 20
73.031305
 30
0.0
  0
VERTEX
  5
24F
330
24C
100
AcDbEntity
  8
001
370
    50
100
AcDbVertex
100
AcDb2dVertex
 10
143.043116
 20
72.758766
 30
0.0
  0
VERTEX
  5
250
330
24C
100
AcDbEntity
  8
001
370
    50
100
AcDbVertex
100
AcDb2dVertex
 10
143.136719
 20
72.489464
 30
0.0
  0
VERTEX
  5
251
330
24C
100
AcDbEntity
  8
001
370
    50
100
AcDbVertex
100
AcDb2dVertex
 10
143.2402
 20
72.239827
 30
0.0
  0
VERTEX
  5
252
330
24C
100
AcDbEntity
  8
001
370
    50
100
AcDbVertex
100
AcDb2dVertex
 10
143.357834
 20
71.996331
 30
0.0
  0
VERTEX
  5
253
330
24C
100
AcDbEntity
  8
001
370
    50
100
AcDbVertex
100
AcDb2dVertex
 10
143.480945
 20
71.771723
 30
0.0
  0
VERTEX
  5
254
330
24C
100
AcDbEntity
  8
001
370
    50
100
AcDbVertex
100
AcDb2dVertex
 10
143.615549
 20
71.553903
 30
0.0
  0
VERTEX
  5
255
330
24C
100
AcDbEntity
  8
001
370
    50
100
AcDbVertex
100
AcDb2dVertex
 10
143.77745
 20
71.322978
 30
0.0
  0
VERTEX
  5
256
330
24C
100
AcDbEntity
  8
001
370
    50
100
AcDbVertex
100
AcDb2dVertex
 10
143.953116
 20
71.102278
 30
0.0
  0
VERTEX
  5
257
330
24C
100
AcDbEntity
  8
001
370
    50
100
AcDbVertex
100
AcDb2dVertex
 10
144.131206
 20
70.903746
 30
0.0
  0
VERTEX
  5
258
330
24C
100
AcDbEntity
  8
001
370
    50
100
AcDbVertex
100
AcDb2dVertex
 10
144.320507
 20
70.715906
 30
0.0
  0
VERTEX
  5
259
330
24C
100
AcDbEntity
  8
001
370
    50
100
AcDbVertex
100
AcDb2dVertex
 10
144.508318
 20
70.549873
 30
0.0
  0
VERTEX
  5
25A
330
24C
100
AcDbEntity
  8
001
370
    50
100
AcDbVertex
100
AcDb2dVertex
 10
144.705343
 20
70.394911
 30
0.0
  0
VERTEX
  5
25B
330
24C
100
AcDbEntity
  8
001
370
    50
100
AcDbVertex
100
AcDb2dVertex
 10
144.896578
 20
70.261524
 30
0.0
  0
VERTEX
  5
25C
330
24C
100
AcDbEntity
  8
001
370
    50
100
AcDbVertex
100
AcDb2dVertex
 10
145.095241
 20
70.139417
 30
0.0
  0
VERTEX
  5
25D
330
24C
100
AcDbEntity
  8
001
370
    50
100
AcDbVertex
100
AcDb2dVertex
 10
145.283591
 20
70.038427
 30
0.0
  0
VERTEX
  5
25E
330
24C
100
AcDbEntity
  8
001
370
    50
100
AcDbVertex
100
AcDb2dVertex
 10
145.477821
 20
69.94955
 30
0.0
  0
VERTEX
  5
25F
330
24C
100
AcDbEntity
  8
001
370
    50
100
AcDbVertex
100
AcDb2dVertex
 10
145.621908
 20
69.893811
 30
0.0
  0
VERTEX
  5
260
330
24C
100
AcDbEntity
  8
001
370
    50
100
AcDbVertex
100
AcDb2dVertex
 10
145.768884
 20
69.845819
 30
0.0
  0
VERTEX
  5
261
330
24C
100
AcDbEntity
  8
001
370
    50
100
AcDbVertex
100
AcDb2dVertex
 10
145.905514
 20
69.80967
 30
0.0
  0
VERTEX
  5
262
330
24C
100
AcDbEntity
  8
001
370
    50
100
AcDbVertex
100
AcDb2dVertex
 10
146.044202
 20
69.783947
 30
0.0
  0
VERTEX
  5
263
330
24C
100
AcDbEntity
  8
001
370
    50
100
AcDbVertex
100
AcDb2dVertex
 10
146.160553
 20
69.77195
 30
0.0
  0
VERTEX
  5
264
330
24C
100
AcDbEntity
  8
001
370
    50
100
AcDbVertex
100
AcDb2dVertex
 10
146.277521
 20
69.764782
 30
0.0
  0
SEQEND
  5
24D
330
24C
100
AcDbEntity
  8
001
370
    50
  0
POLYLINE
  5
265
330
1F
100
AcDbEntity
  8
001
370
    50
100
AcDb2dPolyline
 66
     1
 10
0.0
 20
0.0
 30
0.0
  0
VERTEX
  5
267
330
265
100
AcDbEntity
  8
001
370
    50
100
AcDbVertex
100
AcDb2dVertex
 10
138.44225
 20
77.55634
 30
0.0
  0
VERTEX
  5
268
330
265
100
AcDbEntity
  8
001
370
    50
100
AcDbVertex
100
AcDb2dVertex
 10
138.670866
 20
77.484432
 30
0.0
  0
VERTEX
  5
269
330
265
100
AcDbEntity
  8
001
370
    50
100
AcDbVertex
100
AcDb2dVertex
 10
138.897377
 20
77.406615
 30
0.0
  0
VERTEX
  5
26A
330
265
100
AcDbEntity
  8
001
370
    50
100
AcDbVertex
100
AcDb2dVertex
 10
139.11868
 20
77.318895
 30
0.0
  0
VERTEX
  5
26B
330
265
100
AcDbEntity
  8
001
370
    50
100
AcDbVertex
100
AcDb2dVertex
 10
139.33604
 20
77.221516
 30
0.0
  0
VERTEX
  5
26C
330
265
100
AcDbEntity
  8
001
370
    50
100
AcDbVertex
100
AcDb2dVertex
 10
139.546937
 20
77.11748
 30
0.0
  0
VERTEX
  5
26D
330
265
100
AcDbEntity
  8
001
370
    50
100
AcDbVertex
100
AcDb2dVertex
 10
139.75382
 20
77.005784
 30
0.0
  0
VERTEX
  5
26E
330
265
100
AcDbEntity
  8
001
370
    50
100
AcDbVertex
100
AcDb2dVertex
 10
139.997125
 20
76.861051
 30
0.0
  0
VERTEX
  5
26F
330
265
100
AcDbEntity
  8
001
370
    50
100
AcDbVertex
100
AcDb2dVertex
 10
140.233887
 20
76.705771
 30
0.0
  0
VERTEX
  5
270
330
265
100
AcDbEntity
  8
001
370
    50
100
AcDbVertex
100
AcDb2dVertex
 10
140.460187
 20
76.543521
 30
0.0
  0
VERTEX
  5
271
330
265
100
AcDbEntity
  8
001
370
    50
100
AcDbVertex
100
AcDb2dVertex
 10
140.679766
 20
76.372313
 30
0.0
  0
VERTEX
  5
272
330
265
100
AcDbEntity
  8
001
370
    50
100
AcDbVertex
100
AcDb2dVertex
 10
140.887308
 20
76.197034
 30
0.0
  0
VERTEX
  5
273
330
265
100
AcDbEntity
  8
001
370
    50
100
AcDbVertex
100
AcDb2dVertex
 10
141.088026
 20
76.013967
 30
0.0
  0
VERTEX
  5
274
330
265
100
AcDbEntity
  8
001
370
    50
100
AcDbVertex
100
AcDb2dVertex
 10
141.310637
 20
75.793753
 30
0.0
  0
VERTEX
  5
275
330
265
100
AcDbEntity
  8
001
370
    50
100
AcDbVertex
100
AcDb2dVertex
 10
141.523626
 20
75.564214
 30
0.0
  0
VERTEX
  5
276
330
265
100
AcDbEntity
  8
001
370
    50
100
AcDbVertex
100
AcDb2dVertex
 10
141.719954
 20
75.334164
 30
0.0
  0
VERTEX
  5
277
330
265
100
AcDbEntity
  8
001
370
    50
100
AcDbVertex
100
AcDb2dVertex
 10
141.906765
 20
75.096315
 30
0.0
  0
VERTEX
  5
278
330
265
100
AcDbEntity
  8
001
370
    50
100
AcDbVertex
100
AcDb2dVertex
 10
142.076004
 20
74.862108
 30
0.0
  0
VERTEX
  5
279
330
265
100
AcDbEntity
  8
001
370
    50
100
AcDbVertex
100
AcDb2dVertex
 10
142.235585
 20
74.621261
 30
0.0
  0
VERTEX
  5
27A
330
265
100
AcDbEntity
  8
001
370
    50
100
AcDbVertex
100
AcDb2dVertex
 10
142.396479
 20
74.353807
 30
0.0
  0
VERTEX
  5
27B
330
265
100
AcDbEntity
  8
001
370
    50
100
AcDbVertex
100
AcDb2dVertex
 10
142.545294
 20
74.079303
 30
0.0
  0
VERTEX
  5
27C
330
265
100
AcDbEntity
  8
001
370
    50
100
AcDbVertex
100
AcDb2dVertex
 10
142.673303
 20
73.815558
 30
0.0
  0
VERTEX
  5
27D
330
265
100
AcDbEntity
  8
001
370
    50
100
AcDbVertex
100
AcDb2dVertex
 10
142.786569
 20
73.54545
 30
0.0
  0
VERTEX
  5
27E
330
265
100
AcDbEntity
  8
001
370
    50
100
AcDbVertex
100
AcDb2dVertex
 10
142.876559
 20
73.289873
 30
0.0
  0
VERTEX
  5
27F
330
265
100
AcDbEntity
  8
001
370
    50
100
AcDbVertex
100
AcDb2dVertex
 10
142.958473
 20
73.031305
 30
0.0
  0
SEQEND
  5
266
330
265
100
AcDbEntity
  8
001
370
    50
  0
POLYLINE
  5
280
330
1F
100
AcDbEntity
  8
001
370
    50
100
AcDb2dPolyline
 66
     1
 10
0.0
 20
0.0
 30
0.0
  0
VERTEX
  5
282
330
280
100
AcDbEntity
  8
001
370
    50
100
AcDbVertex
100
AcDb2dVertex
 10
137.80025
 20
77.78171
 30
0.0
  0
VERTEX
  5
283
330
280
100
AcDbEntity
  8
001
370
    50
100
AcDbVertex
100
AcDb2dVertex
 10
137.963121
 20
77.731906
 30
0.0
  0
VERTEX
  5
284
330
280
100
AcDbEntity
  8
001
370
    50
100
AcDbVertex
100
AcDb2dVertex
 10
138.124735
 20
77.678521
 30
0.0
  0
VERTEX
  5
285
330
280
100
AcDbEntity
  8
001
370
    50
100
AcDbVertex
100
AcDb2dVertex
 10
138.28412
 20
77.619219
 30
0.0
  0
VERTEX
  5
286
330
280
100
AcDbEntity
  8
001
370
    50
100
AcDbVertex
100
AcDb2dVertex
 10
138.44225
 20
77.55634
 30
0.0
  0
SEQEND
  5
281
330
280
100
AcDbEntity
  8
001
370
    50
  0
POLYLINE
  5
287
330
1F
100
AcDbEntity
  8
001
370
    50
100
AcDb2dPolyline
 66
     1
 10
0.0
 20
0.0
 30
0.0
  0
VERTEX
  5
289
330
287
100
AcDbEntity
  8
001
370
    50
100
AcDbVertex
100
AcDb2dVertex
 10
137.15825
 20
78.009054
 30
0.0
  0
VERTEX
  5
28A
330
287
100
AcDbEntity
  8
001
370
    50
100
AcDbVertex
100
AcDb2dVertex
 10
137.321131
 20
77.958817
 30
0.0
  0
VERTEX
  5
28B
330
287
100
AcDbEntity
  8
001
370
    50
100
AcDbVertex
100
AcDb2dVertex
 10
137.482735
 20
77.904972
 30
0.0
  0
VERTEX
  5
28C
330
287
100
AcDbEntity
  8
001
370
    50
100
AcDbVertex
100
AcDb2dVertex
 10
137.64213
 20
77.845143
 30
0.0
  0
VERTEX
  5
28D
330
287
100
AcDbEntity
  8
001
370
    50
100
AcDbVertex
100
AcDb2dVertex
 10
137.80025
 20
77.78171
 30
0.0
  0
SEQEND
  5
288
330
287
100
AcDbEntity
  8
001
370
    50
  0
POLYLINE
  5
28E
330
1F
100
AcDbEntity
  8
001
370
    50
100
AcDb2dPolyline
 66
     1
 10
0.0
 20
0.0
 30
0.0
  0
VERTEX
  5
290
330
28E
100
AcDbEntity
  8
001
370
    50
100
AcDbVertex
100
AcDb2dVertex
 10
136.51625
 20
78.238304
 30
0.0
  0
VERTEX
  5
291
330
28E
100
AcDbEntity
  8
001
370
    50
100
AcDbVertex
100
AcDb2dVertex
 10
136.679141
 20
78.187649
 30
0.0
  0
VERTEX
  5
292
330
28E
100
AcDbEntity
  8
001
370
    50
100
AcDbVertex
100
AcDb2dVertex
 10
136.840735
 20
78.13336
 30
0.0
  0
VERTEX
  5
293
330
28E
100
AcDbEntity
  8
001
370
    50
100
AcDbVertex
100
AcDb2dVertex
 10
137.000141
 20
78.073024
 30
0.0
  0
VERTEX
  5
294
330
28E
100
AcDbEntity
  8
001
370
    50
100
AcDbVertex
100
AcDb2dVertex
 10
137.15825
 20
78.009054
 30
0.0
  0
SEQEND
  5
28F
330
28E
100
AcDbEntity
  8
001
370
    50
  0
POLYLINE
  5
295
330
1F
100
AcDbEntity
  8
001
370
    50
100
AcDb2dPolyline
 66
     1
 10
0.0
 20
0.0
 30
0.0
  0
VERTEX
  5
297
330
295
100
AcDbEntity
  8
001
370
    50
100
AcDbVertex
100
AcDb2dVertex
 10
135.87425
 20
78.469389
 30
0.0
  0
VERTEX
  5
298
330
295
100
AcDbEntity
  8
001
370
    50
100
AcDbVertex
100
AcDb2dVertex
 10
136.037151
 20
78.418332
 30
0.0
  0
VERTEX
  5
299
330
295
100
AcDbEntity
  8
001
370
    50
100
AcDbVertex
100
AcDb2dVertex
 10
136.198735
 20
78.363616
 30
0.0
  0
VERTEX
  5
29A
330
295
100
AcDbEntity
  8
001
370
    50
100
AcDbVertex
100
AcDb2dVertex
 10
136.358151
 20
78.30279
 30
0.0
  0
VERTEX
  5
29B
330
295
100
AcDbEntity
  8
001
370
    50
100
AcDbVertex
100
AcDb2dVertex
 10
136.51625
 20
78.238304
 30
0.0
  0
SEQEND
  5
296
330
295
100
AcDbEntity
  8
001
370
    50
  0
POLYLINE
  5
29C
330
1F
100
AcDbEntity
  8
001
370
    50
100
AcDb2dPolyline
 66
     1
 10
0.0
 20
0.0
 30
0.0
  0
VERTEX
  5
29E
330
29C
100
AcDbEntity
  8
001
370
    50
100
AcDbVertex
100
AcDb2dVertex
 10
135.23225
 20
78.70224
 30
0.0
  0
VERTEX
  5
29F
330
29C
100
AcDbEntity
  8
001
370
    50
100
AcDbVertex
100
AcDb2dVertex
 10
135.39516
 20
78.650796
 30
0.0
  0
VERTEX
  5
2A0
330
29C
100
AcDbEntity
  8
001
370
    50
100
AcDbVertex
100
AcDb2dVertex
 10
135.556735
 20
78.59567
 30
0.0
  0
VERTEX
  5
2A1
330
29C
100
AcDbEntity
  8
001
370
    50
100
AcDbVertex
100
AcDb2dVertex
 10
135.716161
 20
78.534373
 30
0.0
  0
VERTEX
  5
2A2
330
29C
100
AcDbEntity
  8
001
370
    50
100
AcDbVertex
100
AcDb2dVertex
 10
135.87425
 20
78.469389
 30
0.0
  0
SEQEND
  5
29D
330
29C
100
AcDbEntity
  8
001
370
    50
  0
POLYLINE
  5
2A3
330
1F
100
AcDbEntity
  8
001
370
    50
100
AcDb2dPolyline
 66
     1
 10
0.0
 20
0.0
 30
0.0
  0
VERTEX
  5
2A5
330
2A3
100
AcDbEntity
  8
001
370
    50
100
AcDbVertex
100
AcDb2dVertex
 10
134.59025
 20
78.936786
 30
0.0
  0
VERTEX
  5
2A6
330
2A3
100
AcDbEntity
  8
001
370
    50
100
AcDbVertex
100
AcDb2dVertex
 10
134.753169
 20
78.884971
 30
0.0
  0
VERTEX
  5
2A7
330
2A3
100
AcDbEntity
  8
001
370
    50
100
AcDbVertex
100
AcDb2dVertex
 10
134.914735
 20
78.82945
 30
0.0
  0
VERTEX
  5
2A8
330
2A3
100
AcDbEntity
  8
001
370
    50
100
AcDbVertex
100
AcDb2dVertex
 10
135.07417
 20
78.767701
 30
0.0
  0
VERTEX
  5
2A9
330
2A3
100
AcDbEntity
  8
001
370
    50
100
AcDbVertex
100
AcDb2dVertex
 10
135.23225
 20
78.70224
 30
0.0
  0
SEQEND
  5
2A4
330
2A3
100
AcDbEntity
  8
001
370
    50
  0
POLYLINE
  5
2AA
330
1F
100
AcDbEntity
  8
001
370
    50
100
AcDb2dPolyline
 66
     1
 10
0.0
 20
0.0
 30
0.0
  0
VERTEX
  5
2AC
330
2AA
100
AcDbEntity
  8
001
370
    50
100
AcDbVertex
100
AcDb2dVertex
 10
133.94825
 20
79.172954
 30
0.0
  0
VERTEX
  5
2AD
330
2AA
100
AcDbEntity
  8
001
370
    50
100
AcDbVertex
100
AcDb2dVertex
 10
134.111178
 20
79.120784
 30
0.0
  0
VERTEX
  5
2AE
330
2AA
100
AcDbEntity
  8
001
370
    50
100
AcDbVertex
100
AcDb2dVertex
 10
134.272735
 20
79.064886
 30
0.0
  0
VERTEX
  5
2AF
330
2AA
100
AcDbEntity
  8
001
370
    50
100
AcDbVertex
100
AcDb2dVertex
 10
134.432179
 20
79.002704
 30
0.0
  0
VERTEX
  5
2B0
330
2AA
100
AcDbEntity
  8
001
370
    50
100
AcDbVertex
100
AcDb2dVertex
 10
134.59025
 20
78.936786
 30
0.0
  0
SEQEND
  5
2AB
330
2AA
100
AcDbEntity
  8
001
370
    50
  0
POLYLINE
  5
2B1
330
1F
100
AcDbEntity
  8
001
370
    50
100
AcDb2dPolyline
 66
     1
 10
0.0
 20
0.0
 30
0.0
  0
VERTEX
  5
2B3
330
2B1
100
AcDbEntity
  8
001
370
    50
100
AcDbVertex
100
AcDb2dVertex
 10
133.30625
 20
79.410673
 30
0.0
  0
VERTEX
  5
2B4
330
2B1
100
AcDbEntity
  8
001
370
    50
100
AcDbVertex
100
AcDb2dVertex
 10
133.469186
 20
79.358164
 30
0.0
  0
VERTEX
  5
2B5
330
2B1
100
AcDbEntity
  8
001
370
    50
100
AcDbVertex
100
AcDb2dVertex
 10
133.630735
 20
79.301906
 30
0.0
  0
VERTEX
  5
2B6
330
2B1
100
AcDbEntity
  8
001
370
    50
100
AcDbVertex
100
AcDb2dVertex
 10
133.790188
 20
79.239309
 30
0.0
  0
VERTEX
  5
2B7
330
2B1
100
AcDbEntity
  8
001
370
    50
100
AcDbVertex
100
AcDb2dVertex
 10
133.94825
 20
79.172954
 30
0.0
  0
SEQEND
  5
2B2
330
2B1
100
AcDbEntity
  8
001
370
    50
  0
POLYLINE
  5
2B8
330
1F
100
AcDbEntity
  8
001
370
    50
100
AcDb2dPolyline
 66
     1
 10
0.0
 20
0.0
 30
0.0
  0
VERTEX
  5
2BA
330
2B8
100
AcDbEntity
  8
001
370
    50
100
AcDbVertex
100
AcDb2dVertex
 10
132.66425
 20
79.649871
 30
0.0
  0
VERTEX
  5
2BB
330
2B8
100
AcDbEntity
  8
001
370
    50
100
AcDbVertex
100
AcDb2dVertex
 10
132.827194
 20
79.597039
 30
0.0
  0
VERTEX
  5
2BC
330
2B8
100
AcDbEntity
  8
001
370
    50
100
AcDbVertex
100
AcDb2dVertex
 10
132.988735
 20
79.540437
 30
0.0
  0
VERTEX
  5
2BD
330
2B8
100
AcDbEntity
  8
001
370
    50
100
AcDbVertex
100
AcDb2dVertex
 10
133.148196
 20
79.477446
 30
0.0
  0
VERTEX
  5
2BE
330
2B8
100
AcDbEntity
  8
001
370
    50
100
AcDbVertex
100
AcDb2dVertex
 10
133.30625
 20
79.410673
 30
0.0
  0
SEQEND
  5
2B9
330
2B8
100
AcDbEntity
  8
001
370
    50
  0
POLYLINE
  5
2BF
330
1F
100
AcDbEntity
  8
001
370
    50
100
AcDb2dPolyline
 66
     1
 10
0.0
 20
0.0
 30
0.0
  0
VERTEX
  5
2C1
330
2BF
100
AcDbEntity
  8
001
370
    50
100
AcDbVertex
100
AcDb2dVertex
 10
132.02225
 20
79.890475
 30
0.0
  0
VERTEX
  5
2C2
330
2BF
100
AcDbEntity
  8
001
370
    50
100
AcDbVertex
100
AcDb2dVertex
 10
132.185202
 20
79.837335
 30
0.0
  0
VERTEX
  5
2C3
330
2BF
100
AcDbEntity
  8
001
370
    50
100
AcDbVertex
100
AcDb2dVertex
 10
132.346735
 20
79.780408
 30
0.0
  0
VERTEX
  5
2C4
330
2BF
100
AcDbEntity
  8
001
370
    50
100
AcDbVertex
100
AcDb2dVertex
 10
132.506205
 20
79.717041
 30
0.0
  0
VERTEX
  5
2C5
330
2BF
100
AcDbEntity
  8
001
370
    50
100
AcDbVertex
100
AcDb2dVertex
 10
132.66425
 20
79.649871
 30
0.0
  0
SEQEND
  5
2C0
330
2BF
100
AcDbEntity
  8
001
370
    50
  0
POLYLINE
  5
2C6
330
1F
100
AcDbEntity
  8
001
370
    50
100
AcDb2dPolyline
 66
     1
 10
0.0
 20
0.0
 30
0.0
  0
VERTEX
  5
2C8
330
2C6
100
AcDbEntity
  8
001
370
    50
100
AcDbVertex
100
AcDb2dVertex
 10
131.38025
 20
80.132411
 30
0.0
  0
VERTEX
  5
2C9
330
2C6
100
AcDbEntity
  8
001
370
    50
100
AcDbVertex
100
AcDb2dVertex
 10
131.543209
 20
80.078981
 30
0.0
  0
VERTEX
  5
2CA
330
2C6
100
AcDbEntity
  8
001
370
    50
100
AcDbVertex
100
AcDb2dVertex
 10
131.704735
 20
80.021745
 30
0.0
  0
VERTEX
  5
2CB
330
2C6
100
AcDbEntity
  8
001
370
    50
100
AcDbVertex
100
AcDb2dVertex
 10
131.864212
 20
79.958021
 30
0.0
  0
VERTEX
  5
2CC
330
2C6
100
AcDbEntity
  8
001
370
    50
100
AcDbVertex
100
AcDb2dVertex
 10
132.02225
 20
79.890475
 30
0.0
  0
SEQEND
  5
2C7
330
2C6
100
AcDbEntity
  8
001
370
    50
  0
POLYLINE
  5
2CD
330
1F
100
AcDbEntity
  8
001
370
    50
100
AcDb2dPolyline
 66
     1
 10
0.0
 20
0.0
 30
0.0
  0
VERTEX
  5
2CF
330
2CD
100
AcDbEntity
  8
001
370
    50
100
AcDbVertex
100
AcDb2dVertex
 10
130.73825
 20
80.375606
 30
0.0
  0
VERTEX
  5
2D0
330
2CD
100
AcDbEntity
  8
001
370
    50
100
AcDbVertex
100
AcDb2dVertex
 10
130.901216
 20
80.321901
 30
0.0
  0
VERTEX
  5
2D1
330
2CD
100
AcDbEntity
  8
001
370
    50
100
AcDbVertex
100
AcDb2dVertex
 10
131.062735
 20
80.264374
 30
0.0
  0
VERTEX
  5
2D2
330
2CD
100
AcDbEntity
  8
001
370
    50
100
AcDbVertex
100
AcDb2dVertex
 10
131.22222
 20
80.200313
 30
0.0
  0
VERTEX
  5
2D3
330
2CD
100
AcDbEntity
  8
001
370
    50
100
AcDbVertex
100
AcDb2dVertex
 10
131.38025
 20
80.132411
 30
0.0
  0
SEQEND
  5
2CE
330
2CD
100
AcDbEntity
  8
001
370
    50
  0
POLYLINE
  5
2D4
330
1F
100
AcDbEntity
  8
001
370
    50
100
AcDb2dPolyline
 66
     1
 10
0.0
 20
0.0
 30
0.0
  0
VERTEX
  5
2D6
330
2D4
100
AcDbEntity
  8
001
370
    50
100
AcDbVertex
100
AcDb2dVertex
 10
130.09625
 20
80.619986
 30
0.0
  0
VERTEX
  5
2D7
330
2D4
100
AcDbEntity
  8
001
370
    50
100
AcDbVertex
100
AcDb2dVertex
 10
130.259223
 20
80.566023
 30
0.0
  0
VERTEX
  5
2D8
330
2D4
100
AcDbEntity
  8
001
370
    50
100
AcDbVertex
100
AcDb2dVertex
 10
130.420735
 20
80.508221
 30
0.0
  0
VERTEX
  5
2D9
330
2D4
100
AcDbEntity
  8
001
370
    50
100
AcDbVertex
100
AcDb2dVertex
 10
130.580227
 20
80.443844
 30
0.0
  0
VERTEX
  5
2DA
330
2D4
100
AcDbEntity
  8
001
370
    50
100
AcDbVertex
100
AcDb2dVertex
 10
130.73825
 20
80.375606
 30
0.0
  0
SEQEND
  5
2D5
330
2D4
100
AcDbEntity
  8
001
370
    50
  0
POLYLINE
  5
2DB
330
1F
100
AcDbEntity
  8
001
370
    50
100
AcDb2dPolyline
 66
     1
 10
0.0
 20
0.0
 30
0.0
  0
VERTEX
  5
2DD
330
2DB
100
AcDbEntity
  8
001
370
    50
100
AcDbVertex
100
AcDb2dVertex
 10
129.45425
 20
80.865476
 30
0.0
  0
VERTEX
  5
2DE
330
2DB
100
AcDbEntity
  8
001
370
    50
100
AcDbVertex
100
AcDb2dVertex
 10
129.617229
 20
80.811272
 30
0.0
  0
VERTEX
  5
2DF
330
2DB
100
AcDbEntity
  8
001
370
    50
100
AcDbVertex
100
AcDb2dVertex
 10
129.778735
 20
80.753213
 30
0.0
  0
VERTEX
  5
2E0
330
2DB
100
AcDbEntity
  8
001
370
    50
100
AcDbVertex
100
AcDb2dVertex
 10
129.938233
 20
80.688538
 30
0.0
  0
VERTEX
  5
2E1
330
2DB
100
AcDbEntity
  8
001
370
    50
100
AcDbVertex
100
AcDb2dVertex
 10
130.09625
 20
80.619986
 30
0.0
  0
SEQEND
  5
2DC
330
2DB
100
AcDbEntity
  8
001
370
    50
  0
POLYLINE
  5
2E2
330
1F
100
AcDbEntity
  8
001
370
    50
100
AcDb2dPolyline
 66
     1
 10
0.0
 20
0.0
 30
0.0
  0
VERTEX
  5
2E4
330
2E2
100
AcDbEntity
  8
001
370
    50
100
AcDbVertex
100
AcDb2dVertex
 10
128.81225
 20
81.112001
 30
0.0
  0
VERTEX
  5
2E5
330
2E2
100
AcDbEntity
  8
001
370
    50
100
AcDbVertex
100
AcDb2dVertex
 10
128.975235
 20
81.057573
 30
0.0
  0
VERTEX
  5
2E6
330
2E2
100
AcDbEntity
  8
001
370
    50
100
AcDbVertex
100
AcDb2dVertex
 10
129.136735
 20
80.999275
 30
0.0
  0
VERTEX
  5
2E7
330
2E2
100
AcDbEntity
  8
001
370
    50
100
AcDbVertex
100
AcDb2dVertex
 10
129.296239
 20
80.934322
 30
0.0
  0
VERTEX
  5
2E8
330
2E2
100
AcDbEntity
  8
001
370
    50
100
AcDbVertex
100
AcDb2dVertex
 10
129.45425
 20
80.865476
 30
0.0
  0
SEQEND
  5
2E3
330
2E2
100
AcDbEntity
  8
001
370
    50
  0
POLYLINE
  5
2E9
330
1F
100
AcDbEntity
  8
001
370
    50
100
AcDb2dPolyline
 66
     1
 10
0.0
 20
0.0
 30
0.0
  0
VERTEX
  5
2EB
330
2E9
100
AcDbEntity
  8
001
370
    50
100
AcDbVertex
100
AcDb2dVertex
 10
128.17025
 20
81.359487
 30
0.0
  0
VERTEX
  5
2EC
330
2E9
100
AcDbEntity
  8
001
370
    50
100
AcDbVertex
100
AcDb2dVertex
 10
128.33324
 20
81.30485
 30
0.0
  0
VERTEX
  5
2ED
330
2E9
100
AcDbEntity
  8
001
370
    50
100
AcDbVertex
100
AcDb2dVertex
 10
128.494735
 20
81.246331
 30
0.0
  0
VERTEX
  5
2EE
330
2E9
100
AcDbEntity
  8
001
370
    50
100
AcDbVertex
100
AcDb2dVertex
 10
128.654245
 20
81.18112
 30
0.0
  0
VERTEX
  5
2EF
330
2E9
100
AcDbEntity
  8
001
370
    50
100
AcDbVertex
100
AcDb2dVertex
 10
128.81225
 20
81.112001
 30
0.0
  0
SEQEND
  5
2EA
330
2E9
100
AcDbEntity
  8
001
370
    50
  0
POLYLINE
  5
2F0
330
1F
100
AcDbEntity
  8
001
370
    50
100
AcDb2dPolyline
 66
     1
 10
0.0
 20
0.0
 30
0.0
  0
VERTEX
  5
2F2
330
2F0
100
AcDbEntity
  8
001
370
    50
100
AcDbVertex
100
AcDb2dVertex
 10
127.52825
 20
81.607857
 30
0.0
  0
VERTEX
  5
2F3
330
2F0
100
AcDbEntity
  8
001
370
    50
100
AcDbVertex
100
AcDb2dVertex
 10
127.691246
 20
81.55303
 30
0.0
  0
VERTEX
  5
2F4
330
2F0
100
AcDbEntity
  8
001
370
    50
100
AcDbVertex
100
AcDb2dVertex
 10
127.852735
 20
81.494307
 30
0.0
  0
VERTEX
  5
2F5
330
2F0
100
AcDbEntity
  8
001
370
    50
100
AcDbVertex
100
AcDb2dVertex
 10
128.012251
 20
81.428858
 30
0.0
  0
VERTEX
  5
2F6
330
2F0
100
AcDbEntity
  8
001
370
    50
100
AcDbVertex
100
AcDb2dVertex
 10
128.17025
 20
81.359487
 30
0.0
  0
SEQEND
  5
2F1
330
2F0
100
AcDbEntity
  8
001
370
    50
  0
POLYLINE
  5
2F7
330
1F
100
AcDbEntity
  8
001
370
    50
100
AcDb2dPolyline
 66
     1
 10
0.0
 20
0.0
 30
0.0
  0
VERTEX
  5
2F9
330
2F7
100
AcDbEntity
  8
001
370
    50
100
AcDbVertex
100
AcDb2dVertex
 10
126.88625
 20
81.857037
 30
0.0
  0
VERTEX
  5
2FA
330
2F7
100
AcDbEntity
  8
001
370
    50
100
AcDbVertex
100
AcDb2dVertex
 10
127.04925
 20
81.802036
 30
0.0
  0
VERTEX
  5
2FB
330
2F7
100
AcDbEntity
  8
001
370
    50
100
AcDbVertex
100
AcDb2dVertex
 10
127.210735
 20
81.743127
 30
0.0
  0
VERTEX
  5
2FC
330
2F7
100
AcDbEntity
  8
001
370
    50
100
AcDbVertex
100
AcDb2dVertex
 10
127.370256
 20
81.67746
 30
0.0
  0
VERTEX
  5
2FD
330
2F7
100
AcDbEntity
  8
001
370
    50
100
AcDbVertex
100
AcDb2dVertex
 10
127.52825
 20
81.607857
 30
0.0
  0
SEQEND
  5
2F8
330
2F7
100
AcDbEntity
  8
001
370
    50
  0
POLYLINE
  5
2FE
330
1F
100
AcDbEntity
  8
001
370
    50
100
AcDb2dPolyline
 66
     1
 10
0.0
 20
0.0
 30
0.0
  0
VERTEX
  5
300
330
2FE
100
AcDbEntity
  8
001
370
    50
100
AcDbVertex
100
AcDb2dVertex
 10
126.24425
 20
82.106951
 30
0.0
  0
VERTEX
  5
301
330
2FE
100
AcDbEntity
  8
001
370
    50
100
AcDbVertex
100
AcDb2dVertex
 10
126.407255
 20
82.051792
 30
0.0
  0
VERTEX
  5
302
330
2FE
100
AcDbEntity
  8
001
370
    50
100
AcDbVertex
100
AcDb2dVertex
 10
126.568735
 20
81.992715
 30
0.0
  0
VERTEX
  5
303
330
2FE
100
AcDbEntity
  8
001
370
    50
100
AcDbVertex
100
AcDb2dVertex
 10
126.72826
 20
81.92685
 30
0.0
  0
VERTEX
  5
304
330
2FE
100
AcDbEntity
  8
001
370
    50
100
AcDbVertex
100
AcDb2dVertex
 10
126.88625
 20
81.857037
 30
0.0
  0
SEQEND
  5
2FF
330
2FE
100
AcDbEntity
  8
001
370
    50
  0
POLYLINE
  5
305
330
1F
100
AcDbEntity
  8
001
370
    50
100
AcDb2dPolyline
 66
     1
 10
0.0
 20
0.0
 30
0.0
  0
VERTEX
  5
307
330
305
100
AcDbEntity
  8
001
370
    50
100
AcDbVertex
100
AcDb2dVertex
 10
125.60225
 20
82.357521
 30
0.0
  0
VERTEX
  5
308
330
305
100
AcDbEntity
  8
001
370
    50
100
AcDbVertex
100
AcDb2dVertex
 10
125.765259
 20
82.302222
 30
0.0
  0
VERTEX
  5
309
330
305
100
AcDbEntity
  8
001
370
    50
100
AcDbVertex
100
AcDb2dVertex
 10
125.926735
 20
82.242995
 30
0.0
  0
VERTEX
  5
30A
330
305
100
AcDbEntity
  8
001
370
    50
100
AcDbVertex
100
AcDb2dVertex
 10
126.086265
 20
82.176952
 30
0.0
  0
VERTEX
  5
30B
330
305
100
AcDbEntity
  8
001
370
    50
100
AcDbVertex
100
AcDb2dVertex
 10
126.24425
 20
82.106951
 30
0.0
  0
SEQEND
  5
306
330
305
100
AcDbEntity
  8
001
370
    50
  0
POLYLINE
  5
30C
330
1F
100
AcDbEntity
  8
001
370
    50
100
AcDb2dPolyline
 66
     1
 10
0.0
 20
0.0
 30
0.0
  0
VERTEX
  5
30E
330
30C
100
AcDbEntity
  8
001
370
    50
100
AcDbVertex
100
AcDb2dVertex
 10
124.96025
 20
82.608673
 30
0.0
  0
VERTEX
  5
30F
330
30C
100
AcDbEntity
  8
001
370
    50
100
AcDbVertex
100
AcDb2dVertex
 10
125.123262
 20
82.553251
 30
0.0
  0
VERTEX
  5
310
330
30C
100
AcDbEntity
  8
001
370
    50
100
AcDbVertex
100
AcDb2dVertex
 10
125.284735
 20
82.49389
 30
0.0
  0
VERTEX
  5
311
330
30C
100
AcDbEntity
  8
001
370
    50
100
AcDbVertex
100
AcDb2dVertex
 10
125.444268
 20
82.427691
 30
0.0
  0
VERTEX
  5
312
330
30C
100
AcDbEntity
  8
001
370
    50
100
AcDbVertex
100
AcDb2dVertex
 10
125.60225
 20
82.357521
 30
0.0
  0
SEQEND
  5
30D
330
30C
100
AcDbEntity
  8
001
370
    50
  0
POLYLINE
  5
313
330
1F
100
AcDbEntity
  8
001
370
    50
100
AcDb2dPolyline
 66
     1
 10
0.0
 20
0.0
 30
0.0
  0
VERTEX
  5
315
330
313
100
AcDbEntity
  8
001
370
    50
100
AcDbVertex
100
AcDb2dVertex
 10
124.31825
 20
82.860329
 30
0.0
  0
VERTEX
  5
316
330
313
100
AcDbEntity
  8
001
370
    50
100
AcDbVertex
100
AcDb2dVertex
 10
124.481265
 20
82.804801
 30
0.0
  0
VERTEX
  5
317
330
313
100
AcDbEntity
  8
001
370
    50
100
AcDbVertex
100
AcDb2dVertex
 10
124.642735
 20
82.745326
 30
0.0
  0
VERTEX
  5
318
330
313
100
AcDbEntity
  8
001
370
    50
100
AcDbVertex
100
AcDb2dVertex
 10
124.802272
 20
82.678989
 30
0.0
  0
VERTEX
  5
319
330
313
100
AcDbEntity
  8
001
370
    50
100
AcDbVertex
100
AcDb2dVertex
 10
124.96025
 20
82.608673
 30
0.0
  0
SEQEND
  5
314
330
313
100
AcDbEntity
  8
001
370
    50
  0
POLYLINE
  5
31A
330
1F
100
AcDbEntity
  8
001
370
    50
100
AcDb2dPolyline
 66
     1
 10
0.0
 20
0.0
 30
0.0
  0
VERTEX
  5
31C
330
31A
100
AcDbEntity
  8
001
370
    50
100
AcDbVertex
100
AcDb2dVertex
 10
123.67625
 20
83.112413
 30
0.0
  0
VERTEX
  5
31D
330
31A
100
AcDbEntity
  8
001
370
    50
100
AcDbVertex
100
AcDb2dVertex
 10
123.839268
 20
83.056796
 30
0.0
  0
VERTEX
  5
31E
330
31A
100
AcDbEntity
  8
001
370
    50
100
AcDbVertex
100
AcDb2dVertex
 10
124.000735
 20
82.997224
 30
0.0
  0
VERTEX
  5
31F
330
31A
100
AcDbEntity
  8
001
370
    50
100
AcDbVertex
100
AcDb2dVertex
 10
124.160275
 20
82.93077
 30
0.0
  0
VERTEX
  5
320
330
31A
100
AcDbEntity
  8
001
370
    50
100
AcDbVertex
100
AcDb2dVertex
 10
124.31825
 20
82.860329
 30
0.0
  0
SEQEND
  5
31B
330
31A
100
AcDbEntity
  8
001
370
    50
  0
POLYLINE
  5
321
330
1F
100
AcDbEntity
  8
001
370
    50
100
AcDb2dPolyline
 66
     1
 10
0.0
 20
0.0
 30
0.0
  0
VERTEX
  5
323
330
321
100
AcDbEntity
  8
001
370
    50
100
AcDbVertex
100
AcDb2dVertex
 10
123.03425
 20
83.364848
 30
0.0
  0
VERTEX
  5
324
330
321
100
AcDbEntity
  8
001
370
    50
100
AcDbVertex
100
AcDb2dVertex
 10
123.211764
 20
83.303832
 30
0.0
  0
VERTEX
  5
325
330
321
100
AcDbEntity
  8
001
370
    50
100
AcDbVertex
100
AcDb2dVertex
 10
123.387417
 20
83.238125
 30
0.0
  0
VERTEX
  5
326
330
321
100
AcDbEntity
  8
001
370
    50
100
AcDbVertex
100
AcDb2dVertex
 10
123.532489
 20
83.176922
 30
0.0
  0
VERTEX
  5
327
330
321
100
AcDbEntity
  8
001
370
    50
100
AcDbVertex
100
AcDb2dVertex
 10
123.67625
 20
83.112413
 30
0.0
  0
SEQEND
  5
322
330
321
100
AcDbEntity
  8
001
370
    50
  0
POLYLINE
  5
328
330
1F
100
AcDbEntity
  8
001
370
    50
100
AcDb2dPolyline
 66
     1
 10
0.0
 20
0.0
 30
0.0
  0
VERTEX
  5
32A
330
328
100
AcDbEntity
  8
001
370
    50
100
AcDbVertex
100
AcDb2dVertex
 10
122.39225
 20
83.617557
 30
0.0
  0
VERTEX
  5
32B
330
328
100
AcDbEntity
  8
001
370
    50
100
AcDbVertex
100
AcDb2dVertex
 10
122.555273
 20
83.561813
 30
0.0
  0
VERTEX
  5
32C
330
328
100
AcDbEntity
  8
001
370
    50
100
AcDbVertex
100
AcDb2dVertex
 10
122.716735
 20
83.502101
 30
0.0
  0
VERTEX
  5
32D
330
328
100
AcDbEntity
  8
001
370
    50
100
AcDbVertex
100
AcDb2dVertex
 10
122.87628
 20
83.435475
 30
0.0
  0
VERTEX
  5
32E
330
328
100
AcDbEntity
  8
001
370
    50
100
AcDbVertex
100
AcDb2dVertex
 10
123.03425
 20
83.364848
 30
0.0
  0
SEQEND
  5
329
330
328
100
AcDbEntity
  8
001
370
    50
  0
POLYLINE
  5
32F
330
1F
100
AcDbEntity
  8
001
370
    50
100
AcDb2dPolyline
 66
     1
 10
0.0
 20
0.0
 30
0.0
  0
VERTEX
  5
331
330
32F
100
AcDbEntity
  8
001
370
    50
100
AcDbVertex
100
AcDb2dVertex
 10
121.75025
 20
83.870463
 30
0.0
  0
VERTEX
  5
332
330
32F
100
AcDbEntity
  8
001
370
    50
100
AcDbVertex
100
AcDb2dVertex
 10
121.913274
 20
83.814681
 30
0.0
  0
VERTEX
  5
333
330
32F
100
AcDbEntity
  8
001
370
    50
100
AcDbVertex
100
AcDb2dVertex
 10
122.074735
 20
83.754927
 30
0.0
  0
VERTEX
  5
334
330
32F
100
AcDbEntity
  8
001
370
    50
100
AcDbVertex
100
AcDb2dVertex
 10
122.234281
 20
83.688246
 30
0.0
  0
VERTEX
  5
335
330
32F
100
AcDbEntity
  8
001
370
    50
100
AcDbVertex
100
AcDb2dVertex
 10
122.39225
 20
83.617557
 30
0.0
  0
SEQEND
  5
330
330
32F
100
AcDbEntity
  8
001
370
    50
  0
LINE
  5
336
330
1F
100
AcDbEntity
  8
001
370
    50
100
AcDbLine
 10
121.743741
 20
83.873531
 30
0.0
 11
121.75025
 21
83.870463
 31
0.0
  0
LINE
  5
337
330
1F
100
AcDbEntity
  8
001
370
    50
100
AcDbLine
 10
121.743741
 20
98.764782
 30
0.0
 11
117.92927
 21
94.814782
 31
0.0
  0
POLYLINE
  5
338
330
1F
100
AcDbEntity
  8
001
370
    50
100
AcDb2dPolyline
 66
     1
 10
0.0
 20
0.0
 30
0.0
  0
VERTEX
  5
33A
330
338
100
AcDbEntity
  8
001
370
    50
100
AcDbVertex
100
AcDb2dVertex
 10
121.19017
 20
84.826334
 30
0.0
  0
VERTEX
  5
33B
330
338
100
AcDbEntity
  8
001
370
    50
100
AcDbVertex
100
AcDb2dVertex
 10
121.334877
 20
84.597958
 30
0.0
  0
VERTEX
  5
33C
330
338
100
AcDbEntity
  8
001
370
    50
100
AcDbVertex
100
AcDb2dVertex
 10
121.474819
 20
84.36681
 30
0.0
  0
VERTEX
  5
33D
330
338
100
AcDbEntity
  8
001
370
    50
100
AcDbVertex
100
AcDb2dVertex
 10
121.611854
 20
84.121668
 30
0.0
  0
VERTEX
  5
33E
330
338
100
AcDbEntity
  8
001
370
    50
100
AcDbVertex
100
AcDb2dVertex
 10
121.743741
 20
83.873531
 30
0.0
  0
SEQEND
  5
339
330
338
100
AcDbEntity
  8
001
370
    50
  0
POLYLINE
  5
33F
330
1F
100
AcDbEntity
  8
001
370
    50
100
AcDb2dPolyline
 66
     1
 10
0.0
 20
0.0
 30
0.0
  0
VERTEX
  5
341
330
33F
100
AcDbEntity
  8
001
370
    50
100
AcDbVertex
100
AcDb2dVertex
 10
120.604618
 20
85.681722
 30
0.0
  0
VERTEX
  5
342
330
33F
100
AcDbEntity
  8
001
370
    50
100
AcDbVertex
100
AcDb2dVertex
 10
120.757087
 20
85.478766
 30
0.0
  0
VERTEX
  5
343
330
33F
100
AcDbEntity
  8
001
370
    50
100
AcDbVertex
100
AcDb2dVertex
 10
120.904685
 20
85.272471
 30
0.0
  0
VERTEX
  5
344
330
33F
100
AcDbEntity
  8
001
370
    50
100
AcDbVertex
100
AcDb2dVertex
 10
121.05008
 20
85.051221
 30
0.0
  0
VERTEX
  5
345
330
33F
100
AcDbEntity
  8
001
370
    50
100
AcDbVertex
100
AcDb2dVertex
 10
121.19017
 20
84.826334
 30
0.0
  0
SEQEND
  5
340
330
33F
100
AcDbEntity
  8
001
370
    50
  0
POLYLINE
  5
346
330
1F
100
AcDbEntity
  8
001
370
    50
100
AcDb2dPolyline
 66
     1
 10
0.0
 20
0.0
 30
0.0
  0
VERTEX
  5
348
330
346
100
AcDbEntity
  8
001
370
    50
100
AcDbVertex
100
AcDb2dVertex
 10
119.994094
 20
86.427027
 30
0.0
  0
VERTEX
  5
349
330
346
100
AcDbEntity
  8
001
370
    50
100
AcDbVertex
100
AcDb2dVertex
 10
120.152466
 20
86.252388
 30
0.0
  0
VERTEX
  5
34A
330
346
100
AcDbEntity
  8
001
370
    50
100
AcDbVertex
100
AcDb2dVertex
 10
120.306003
 20
86.073783
 30
0.0
  0
VERTEX
  5
34B
330
346
100
AcDbEntity
  8
001
370
    50
100
AcDbVertex
100
AcDb2dVertex
 10
120.457955
 20
85.879922
 30
0.0
  0
VERTEX
  5
34C
330
346
100
AcDbEntity
  8
001
370
    50
100
AcDbVertex
100
AcDb2dVertex
 10
120.604618
 20
85.681722
 30
0.0
  0
SEQEND
  5
347
330
346
100
AcDbEntity
  8
001
370
    50
  0
POLYLINE
  5
34D
330
1F
100
AcDbEntity
  8
001
370
    50
100
AcDb2dPolyline
 66
     1
 10
0.0
 20
0.0
 30
0.0
  0
VERTEX
  5
34F
330
34D
100
AcDbEntity
  8
001
370
    50
100
AcDbVertex
100
AcDb2dVertex
 10
119.359766
 20
87.060308
 30
0.0
  0
VERTEX
  5
350
330
34D
100
AcDbEntity
  8
001
370
    50
100
AcDbVertex
100
AcDb2dVertex
 10
119.560681
 20
86.879213
 30
0.0
  0
VERTEX
  5
351
330
34D
100
AcDbEntity
  8
001
370
    50
100
AcDbVertex
100
AcDb2dVertex
 10
119.754473
 20
86.691103
 30
0.0
  0
VERTEX
  5
352
330
34D
100
AcDbEntity
  8
001
370
    50
100
AcDbVertex
100
AcDb2dVertex
 10
119.875834
 20
86.560591
 30
0.0
  0
VERTEX
  5
353
330
34D
100
AcDbEntity
  8
001
370
    50
100
AcDbVertex
100
AcDb2dVertex
 10
119.994094
 20
86.427027
 30
0.0
  0
SEQEND
  5
34E
330
34D
100
AcDbEntity
  8
001
370
    50
  0
POLYLINE
  5
354
330
1F
100
AcDbEntity
  8
001
370
    50
100
AcDb2dPolyline
 66
     1
 10
0.0
 20
0.0
 30
0.0
  0
VERTEX
  5
356
330
354
100
AcDbEntity
  8
001
370
    50
100
AcDbVertex
100
AcDb2dVertex
 10
118.70261
 20
87.579779
 30
0.0
  0
VERTEX
  5
357
330
354
100
AcDbEntity
  8
001
370
    50
100
AcDbVertex
100
AcDb2dVertex
 10
118.871852
 20
87.463044
 30
0.0
  0
VERTEX
  5
358
330
354
100
AcDbEntity
  8
001
370
    50
100
AcDbVertex
100
AcDb2dVertex
 10
119.036707
 20
87.340749
 30
0.0
  0
VERTEX
  5
359
330
354
100
AcDbEntity
  8
001
370
    50
100
AcDbVertex
100
AcDb2dVertex
 10
119.200615
 20
87.203543
 30
0.0
  0
VERTEX
  5
35A
330
354
100
AcDbEntity
  8
001
370
    50
100
AcDbVertex
100
AcDb2dVertex
 10
119.359766
 20
87.060308
 30
0.0
  0
SEQEND
  5
355
330
354
100
AcDbEntity
  8
001
370
    50
  0
POLYLINE
  5
35B
330
1F
100
AcDbEntity
  8
001
370
    50
100
AcDb2dPolyline
 66
     1
 10
0.0
 20
0.0
 30
0.0
  0
VERTEX
  5
35D
330
35B
100
AcDbEntity
  8
001
370
    50
100
AcDbVertex
100
AcDb2dVertex
 10
118.023484
 20
87.983986
 30
0.0
  0
VERTEX
  5
35E
330
35B
100
AcDbEntity
  8
001
370
    50
100
AcDbVertex
100
AcDb2dVertex
 10
118.197678
 20
87.89668
 30
0.0
  0
VERTEX
  5
35F
330
35B
100
AcDbEntity
  8
001
370
    50
100
AcDbVertex
100
AcDb2dVertex
 10
118.368045
 20
87.802932
 30
0.0
  0
VERTEX
  5
360
330
35B
100
AcDbEntity
  8
001
370
    50
100
AcDbVertex
100
AcDb2dVertex
 10
118.53737
 20
87.694794
 30
0.0
  0
VERTEX
  5
361
330
35B
100
AcDbEntity
  8
001
370
    50
100
AcDbVertex
100
AcDb2dVertex
 10
118.70261
 20
87.579779
 30
0.0
  0
SEQEND
  5
35C
330
35B
100
AcDbEntity
  8
001
370
    50
  0
LINE
  5
362
330
1F
100
AcDbEntity
  8
001
370
    50
100
AcDbLine
 10
117.92927
 20
88.033687
 30
0.0
 11
118.023484
 21
87.983986
 31
0.0
  0
ARC
  5
363
330
1F
100
AcDbEntity
  8
001
370
    50
100
AcDbCircle
 10
147.72927
 20
97.764782
 30
0.0
 40
1.000000000000001
100
AcDbArc
 50
0.0
 51
90.0
  0
ARC
  5
364
330
1F
100
AcDbEntity
  8
001
370
    50
100
AcDbCircle
 10
147.72927
 20
70.764782
 30
0.0
 40
1.000000000000001
100
AcDbArc
 50
270.0
 51
0.0
  0
LINE
  5
365
330
1F
100
AcDbEntity
  8
001
370
    50
100
AcDbLine
 10
148.72927
 20
97.764782
 30
0.0
 11
148.72927
 21
70.764782
 31
0.0
  0
LINE
  5
366
330
1F
100
AcDbEntity
  8
001
370
    50
100
AcDbLine
 10
151.72927
 20
96.764782
 30
0.0
 11
222.72927
 21
96.764782
 31
0.0
  0
LINE
  5
367
330
1F
100
AcDbEntity
  8
001
370
    50
100
AcDbLine
 10
151.72927
 20
71.764782
 30
0.0
 11
222.72927
 21
71.764782
 31
0.0
  0
ARC
  5
368
330
1F
100
AcDbEntity
  8
001
370
    50
100
AcDbCircle
 10
222.72927
 20
90.764782
 30
0.0
 40
6.000000000000005
100
AcDbArc
 50
0.0
 51
90.0
  0
ARC
  5
369
330
1F
100
AcDbEntity
  8
001
370
    50
100
AcDbCircle
 10
222.72927
 20
77.764782
 30
0.0
 40
6.000000000000005
100
AcDbArc
 50
270.0
 51
0.0
  0
LINE
  5
36A
330
1F
100
AcDbEntity
  8
001
370
    50
100
AcDbLine
 10
228.72927
 20
90.764782
 30
0.0
 11
228.72927
 21
77.764782
 31
0.0
  0
LINE
  5
36B
330
1F
100
AcDbEntity
  8
001
370
    50
100
AcDbLine
 10
117.374768
 20
88.178219
 30
0.0
 11
117.92927
 21
88.033687
 31
0.0
  0
LINE
  5
36C
330
1F
100
AcDbEntity
  8
001
370
    50
100
AcDbLine
 10
117.92927
 20
94.814782
 30
0.0
 11
104.22927
 21
94.814782
 31
0.0
  0
LINE
  5
36D
330
1F
100
AcDbEntity
  8
001
370
    50
100
AcDbLine
 10
116.732768
 20
88.34861
 30
0.0
 11
117.374768
 21
88.178219
 31
0.0
  0
LINE
  5
36E
330
1F
100
AcDbEntity
  8
001
370
    50
100
AcDbLine
 10
116.090768
 20
88.517756
 30
0.0
 11
116.732768
 21
88.34861
 31
0.0
  0
LINE
  5
36F
330
1F
100
AcDbEntity
  8
001
370
    50
100
AcDbLine
 10
115.448768
 20
88.685608
 30
0.0
 11
116.090768
 21
88.517756
 31
0.0
  0
LINE
  5
370
330
1F
100
AcDbEntity
  8
001
370
    50
100
AcDbLine
 10
114.806768
 20
88.852112
 30
0.0
 11
115.448768
 21
88.685608
 31
0.0
  0
LINE
  5
371
330
1F
100
AcDbEntity
  8
001
370
    50
100
AcDbLine
 10
114.164768
 20
89.01722
 30
0.0
 11
114.806768
 21
88.852112
 31
0.0
  0
LINE
  5
372
330
1F
100
AcDbEntity
  8
001
370
    50
100
AcDbLine
 10
113.522768
 20
89.180879
 30
0.0
 11
114.164768
 21
89.01722
 31
0.0
  0
LINE
  5
373
330
1F
100
AcDbEntity
  8
001
370
    50
100
AcDbLine
 10
112.880768
 20
89.343042
 30
0.0
 11
113.522768
 21
89.180879
 31
0.0
  0
LINE
  5
374
330
1F
100
AcDbEntity
  8
001
370
    50
100
AcDbLine
 10
112.238768
 20
89.503657
 30
0.0
 11
112.880768
 21
89.343042
 31
0.0
  0
LINE
  5
375
330
1F
100
AcDbEntity
  8
001
370
    50
100
AcDbLine
 10
111.596768
 20
89.662677
 30
0.0
 11
112.238768
 21
89.503657
 31
0.0
  0
LINE
  5
376
330
1F
100
AcDbEntity
  8
001
370
    50
100
AcDbLine
 10
110.954768
 20
89.820052
 30
0.0
 11
111.596768
 21
89.662677
 31
0.0
  0
LINE
  5
377
330
1F
100
AcDbEntity
  8
001
370
    50
100
AcDbLine
 10
110.312768
 20
89.975735
 30
0.0
 11
110.954768
 21
89.820052
 31
0.0
  0
LINE
  5
378
330
1F
100
AcDbEntity
  8
001
370
    50
100
AcDbLine
 10
109.670768
 20
90.129678
 30
0.0
 11
110.312768
 21
89.975735
 31
0.0
  0
LINE
  5
379
330
1F
100
AcDbEntity
  8
001
370
    50
100
AcDbLine
 10
109.028768
 20
90.281835
 30
0.0
 11
109.670768
 21
90.129678
 31
0.0
  0
LINE
  5
37A
330
1F
100
AcDbEntity
  8
001
370
    50
100
AcDbLine
 10
108.386768
 20
90.43216
 30
0.0
 11
109.028768
 21
90.281835
 31
0.0
  0
LINE
  5
37B
330
1F
100
AcDbEntity
  8
001
370
    50
100
AcDbLine
 10
107.744768
 20
90.580605
 30
0.0
 11
108.386768
 21
90.43216
 31
0.0
  0
LINE
  5
37C
330
1F
100
AcDbEntity
  8
001
370
    50
100
AcDbLine
 10
107.102768
 20
90.727127
 30
0.0
 11
107.744768
 21
90.580605
 31
0.0
  0
LINE
  5
37D
330
1F
100
AcDbEntity
  8
001
370
    50
100
AcDbLine
 10
106.460768
 20
90.87168
 30
0.0
 11
107.102768
 21
90.727127
 31
0.0
  0
LINE
  5
37E
330
1F
100
AcDbEntity
  8
001
370
    50
100
AcDbLine
 10
105.818768
 20
91.01422
 30
0.0
 11
106.460768
 21
90.87168
 31
0.0
  0
LINE
  5
37F
330
1F
100
AcDbEntity
  8
001
370
    50
100
AcDbLine
 10
105.176768
 20
91.154705
 30
0.0
 11
105.818768
 21
91.01422
 31
0.0
  0
LINE
  5
380
330
1F
100
AcDbEntity
  8
001
370
    50
100
AcDbLine
 10
104.534768
 20
91.293091
 30
0.0
 11
105.176768
 21
91.154705
 31
0.0
  0
LINE
  5
381
330
1F
100
AcDbEntity
  8
001
370
    50
100
AcDbLine
 10
104.22927
 20
91.364195
 30
0.0
 11
104.534768
 21
91.293091
 31
0.0
  0
LINE
  5
382
330
1F
100
AcDbEntity
  8
001
370
    50
100
AcDbLine
 10
112.297147
 20
73.749509
 30
0.0
 11
111.84072
 21
73.740105
 31
0.0
  0
POLYLINE
  5
383
330
1F
100
AcDbEntity
  8
001
370
    50
100
AcDb2dPolyline
 66
     1
 10
0.0
 20
0.0
 30
0.0
  0
VERTEX
  5
385
330
383
100
AcDbEntity
  8
001
370
    50
100
AcDbVertex
100
AcDb2dVertex
 10
112.939147
 20
73.766037
 30
0.0
  0
VERTEX
  5
386
330
383
100
AcDbEntity
  8
001
370
    50
100
AcDbVertex
100
AcDb2dVertex
 10
112.777815
 20
73.762044
 30
0.0
  0
VERTEX
  5
387
330
383
100
AcDbEntity
  8
001
370
    50
100
AcDbVertex
100
AcDb2dVertex
 10
112.616485
 20
73.757962
 30
0.0
  0
VERTEX
  5
388
330
383
100
AcDbEntity
  8
001
370
    50
100
AcDbVertex
100
AcDb2dVertex
 10
112.456815
 20
73.753778
 30
0.0
  0
VERTEX
  5
389
330
383
100
AcDbEntity
  8
001
370
    50
100
AcDbVertex
100
AcDb2dVertex
 10
112.297147
 20
73.749509
 30
0.0
  0
SEQEND
  5
384
330
383
100
AcDbEntity
  8
001
370
    50
  0
LINE
  5
38A
330
1F
100
AcDbEntity
  8
001
370
    50
100
AcDbLine
 10
113.581147
 20
73.785764
 30
0.0
 11
112.939147
 21
73.766037
 31
0.0
  0
LINE
  5
38B
330
1F
100
AcDbEntity
  8
001
370
    50
100
AcDbLine
 10
114.223147
 20
73.808682
 30
0.0
 11
113.581147
 21
73.785764
 31
0.0
  0
LINE
  5
38C
330
1F
100
AcDbEntity
  8
001
370
    50
100
AcDbLine
 10
114.865147
 20
73.834786
 30
0.0
 11
114.223147
 21
73.808682
 31
0.0
  0
POLYLINE
  5
38D
330
1F
100
AcDbEntity
  8
001
370
    50
100
AcDb2dPolyline
 66
     1
 10
0.0
 20
0.0
 30
0.0
  0
VERTEX
  5
38F
330
38D
100
AcDbEntity
  8
001
370
    50
100
AcDbVertex
100
AcDb2dVertex
 10
115.507147
 20
73.864067
 30
0.0
  0
VERTEX
  5
390
330
38D
100
AcDbEntity
  8
001
370
    50
100
AcDbVertex
100
AcDb2dVertex
 10
115.342718
 20
73.857069
 30
0.0
  0
VERTEX
  5
391
330
38D
100
AcDbEntity
  8
001
370
    50
100
AcDbVertex
100
AcDb2dVertex
 10
115.178302
 20
73.849788
 30
0.0
  0
VERTEX
  5
392
330
38D
100
AcDbEntity
  8
001
370
    50
100
AcDbVertex
100
AcDb2dVertex
 10
115.021718
 20
73.842415
 30
0.0
  0
VERTEX
  5
393
330
38D
100
AcDbEntity
  8
001
370
    50
100
AcDbVertex
100
AcDb2dVertex
 10
114.865147
 20
73.834786
 30
0.0
  0
SEQEND
  5
38E
330
38D
100
AcDbEntity
  8
001
370
    50
  0
LINE
  5
394
330
1F
100
AcDbEntity
  8
001
370
    50
100
AcDbLine
 10
115.828147
 20
73.880291
 30
0.0
 11
115.507147
 21
73.864067
 31
0.0
  0
LINE
  5
395
330
1F
100
AcDbEntity
  8
001
370
    50
100
AcDbLine
 10
112.341624
 20
82.957042
 30
0.0
 11
112.065714
 21
83.115755
 31
0.0
  0
POLYLINE
  5
396
330
1F
100
AcDbEntity
  8
001
370
    50
100
AcDb2dPolyline
 66
     1
 10
0.0
 20
0.0
 30
0.0
  0
VERTEX
  5
398
330
396
100
AcDbEntity
  8
001
370
    50
100
AcDbVertex
100
AcDb2dVertex
 10
112.065714
 20
83.115755
 30
0.0
  0
VERTEX
  5
399
330
396
100
AcDbEntity
  8
001
370
    50
100
AcDbVertex
100
AcDb2dVertex
 10
111.928165
 20
83.17193
 30
0.0
  0
VERTEX
  5
39A
330
396
100
AcDbEntity
  8
001
370
    50
100
AcDbVertex
100
AcDb2dVertex
 10
111.788328
 20
83.220193
 30
0.0
  0
VERTEX
  5
39B
330
396
100
AcDbEntity
  8
001
370
    50
100
AcDbVertex
100
AcDb2dVertex
 10
111.627199
 20
83.258587
 30
0.0
  0
VERTEX
  5
39C
330
396
100
AcDbEntity
  8
001
370
    50
100
AcDbVertex
100
AcDb2dVertex
 10
111.463201
 20
83.287056
 30
0.0
  0
SEQEND
  5
397
330
396
100
AcDbEntity
  8
001
370
    50
  0
LINE
  5
39D
330
1F
100
AcDbEntity
  8
001
370
    50
100
AcDbLine
 10
111.463201
 20
83.287056
 30
0.0
 11
111.220965
 21
83.30135
 31
0.0
  0
POLYLINE
  5
39E
330
1F
100
AcDbEntity
  8
001
370
    50
100
AcDb2dPolyline
 66
     1
 10
0.0
 20
0.0
 30
0.0
  0
VERTEX
  5
3A0
330
39E
100
AcDbEntity
  8
001
370
    50
100
AcDbVertex
100
AcDb2dVertex
 10
110.808873
 20
83.259525
 30
0.0
  0
VERTEX
  5
3A1
330
39E
100
AcDbEntity
  8
001
370
    50
100
AcDbVertex
100
AcDb2dVertex
 10
110.688395
 20
83.229883
 30
0.0
  0
VERTEX
  5
3A2
330
39E
100
AcDbEntity
  8
001
370
    50
100
AcDbVertex
100
AcDb2dVertex
 10
110.569126
 20
83.19599
 30
0.0
  0
VERTEX
  5
3A3
330
39E
100
AcDbEntity
  8
001
370
    50
100
AcDbVertex
100
AcDb2dVertex
 10
110.450483
 20
83.153648
 30
0.0
  0
VERTEX
  5
3A4
330
39E
100
AcDbEntity
  8
001
370
    50
100
AcDbVertex
100
AcDb2dVertex
 10
110.335258
 20
83.102765
 30
0.0
  0
VERTEX
  5
3A5
330
39E
100
AcDbEntity
  8
001
370
    50
100
AcDbVertex
100
AcDb2dVertex
 10
110.215663
 20
83.039553
 30
0.0
  0
VERTEX
  5
3A6
330
39E
100
AcDbEntity
  8
001
370
    50
100
AcDbVertex
100
AcDb2dVertex
 10
110.098578
 20
82.971534
 30
0.0
  0
SEQEND
  5
39F
330
39E
100
AcDbEntity
  8
001
370
    50
  0
POLYLINE
  5
3A7
330
1F
100
AcDbEntity
  8
001
370
    50
100
AcDb2dPolyline
 66
     1
 10
0.0
 20
0.0
 30
0.0
  0
VERTEX
  5
3A9
330
3A7
100
AcDbEntity
  8
001
370
    50
100
AcDbVertex
100
AcDb2dVertex
 10
111.596768
 20
89.662677
 30
0.0
  0
VERTEX
  5
3AA
330
3A7
100
AcDbEntity
  8
001
370
    50
100
AcDbVertex
100
AcDb2dVertex
 10
111.596334
 20
89.662793
 30
0.0
  0
VERTEX
  5
3AB
330
3A7
100
AcDbEntity
  8
001
370
    50
100
AcDbVertex
100
AcDb2dVertex
 10
111.595697
 20
89.662954
 30
0.0
  0
VERTEX
  5
3AC
330
3A7
100
AcDbEntity
  8
001
370
    50
100
AcDbVertex
100
AcDb2dVertex
 10
111.595057
 20
89.6631
 30
0.0
  0
VERTEX
  5
3AD
330
3A7
100
AcDbEntity
  8
001
370
    50
100
AcDbVertex
100
AcDb2dVertex
 10
111.594617
 20
89.663192
 30
0.0
  0
SEQEND
  5
3A8
330
3A7
100
AcDbEntity
  8
001
370
    50
  0
POLYLINE
  5
3AE
330
1F
100
AcDbEntity
  8
001
370
    50
100
AcDb2dPolyline
 66
     1
 10
0.0
 20
0.0
 30
0.0
  0
VERTEX
  5
3B0
330
3AE
100
AcDbEntity
  8
001
370
    50
100
AcDbVertex
100
AcDb2dVertex
 10
103.520915
 20
90.108584
 30
0.0
  0
VERTEX
  5
3B1
330
3AE
100
AcDbEntity
  8
001
370
    50
100
AcDbVertex
100
AcDb2dVertex
 10
103.698151
 20
90.203
 30
0.0
  0
VERTEX
  5
3B2
330
3AE
100
AcDbEntity
  8
001
370
    50
100
AcDbVertex
100
AcDb2dVertex
 10
103.877539
 20
90.292896
 30
0.0
  0
VERTEX
  5
3B3
330
3AE
100
AcDbEntity
  8
001
370
    50
100
AcDbVertex
100
AcDb2dVertex
 10
104.05242
 20
90.371805
 30
0.0
  0
VERTEX
  5
3B4
330
3AE
100
AcDbEntity
  8
001
370
    50
100
AcDbVertex
100
AcDb2dVertex
 10
104.22927
 20
90.446581
 30
0.0
  0
SEQEND
  5
3AF
330
3AE
100
AcDbEntity
  8
001
370
    50
  0
LINE
  5
3B5
330
1F
100
AcDbEntity
  8
001
370
    50
100
AcDbLine
 10
103.22927
 20
91.414782
 30
0.0
 11
104.22927
 21
92.475956
 31
0.0
  0
LINE
  5
3B6
330
1F
100
AcDbEntity
  8
001
370
    50
100
AcDbLine
 10
103.22927
 20
89.950809
 30
0.0
 11
103.520915
 21
90.108584
 31
0.0
  0
POLYLINE
  5
3B7
330
1F
100
AcDbEntity
  8
001
370
    50
100
AcDb2dPolyline
 66
     1
 10
0.0
 20
0.0
 30
0.0
  0
VERTEX
  5
3B9
330
3B7
100
AcDbEntity
  8
001
370
    50
100
AcDbVertex
100
AcDb2dVertex
 10
103.22927
 20
81.377503
 30
0.0
  0
VERTEX
  5
3BA
330
3B7
100
AcDbEntity
  8
001
370
    50
100
AcDbVertex
100
AcDb2dVertex
 10
103.302927
 20
81.379371
 30
0.0
  0
VERTEX
  5
3BB
330
3B7
100
AcDbEntity
  8
001
370
    50
100
AcDbVertex
100
AcDb2dVertex
 10
103.410572
 20
81.382386
 30
0.0
  0
VERTEX
  5
3BC
330
3B7
100
AcDbEntity
  8
001
370
    50
100
AcDbVertex
100
AcDb2dVertex
 10
103.518273
 20
81.385802
 30
0.0
  0
VERTEX
  5
3BD
330
3B7
100
AcDbEntity
  8
001
370
    50
100
AcDbVertex
100
AcDb2dVertex
 10
103.591958
 20
81.388335
 30
0.0
  0
SEQEND
  5
3B8
330
3B7
100
AcDbEntity
  8
001
370
    50
  0
POLYLINE
  5
3BE
330
1F
100
AcDbEntity
  8
001
370
    50
100
AcDb2dPolyline
 66
     1
 10
0.0
 20
0.0
 30
0.0
  0
VERTEX
  5
3C0
330
3BE
100
AcDbEntity
  8
001
370
    50
100
AcDbVertex
100
AcDb2dVertex
 10
103.591958
 20
81.388335
 30
0.0
  0
VERTEX
  5
3C1
330
3BE
100
AcDbEntity
  8
001
370
    50
100
AcDbVertex
100
AcDb2dVertex
 10
103.722665
 20
81.390645
 30
0.0
  0
VERTEX
  5
3C2
330
3BE
100
AcDbEntity
  8
001
370
    50
100
AcDbVertex
100
AcDb2dVertex
 10
103.913678
 20
81.394928
 30
0.0
  0
VERTEX
  5
3C3
330
3BE
100
AcDbEntity
  8
001
370
    50
100
AcDbVertex
100
AcDb2dVertex
 10
104.104968
 20
81.40048
 30
0.0
  0
VERTEX
  5
3C4
330
3BE
100
AcDbEntity
  8
001
370
    50
100
AcDbVertex
100
AcDb2dVertex
 10
104.235833
 20
81.404899
 30
0.0
  0
SEQEND
  5
3BF
330
3BE
100
AcDbEntity
  8
001
370
    50
  0
POLYLINE
  5
3C5
330
1F
100
AcDbEntity
  8
001
370
    50
100
AcDb2dPolyline
 66
     1
 10
0.0
 20
0.0
 30
0.0
  0
VERTEX
  5
3C7
330
3C5
100
AcDbEntity
  8
001
370
    50
100
AcDbVertex
100
AcDb2dVertex
 10
104.235833
 20
81.404899
 30
0.0
  0
VERTEX
  5
3C8
330
3C5
100
AcDbEntity
  8
001
370
    50
100
AcDbVertex
100
AcDb2dVertex
 10
104.267887
 20
81.405419
 30
0.0
  0
VERTEX
  5
3C9
330
3C5
100
AcDbEntity
  8
001
370
    50
100
AcDbVertex
100
AcDb2dVertex
 10
104.314735
 20
81.406233
 30
0.0
  0
VERTEX
  5
3CA
330
3C5
100
AcDbEntity
  8
001
370
    50
100
AcDbVertex
100
AcDb2dVertex
 10
104.361611
 20
81.407125
 30
0.0
  0
VERTEX
  5
3CB
330
3C5
100
AcDbEntity
  8
001
370
    50
100
AcDbVertex
100
AcDb2dVertex
 10
104.393683
 20
81.407772
 30
0.0
  0
SEQEND
  5
3C6
330
3C5
100
AcDbEntity
  8
001
370
    50
  0
POLYLINE
  5
3CC
330
1F
100
AcDbEntity
  8
001
370
    50
100
AcDb2dPolyline
 66
     1
 10
0.0
 20
0.0
 30
0.0
  0
VERTEX
  5
3CE
330
3CC
100
AcDbEntity
  8
001
370
    50
100
AcDbVertex
100
AcDb2dVertex
 10
105.565142
 20
82.309907
 30
0.0
  0
VERTEX
  5
3CF
330
3CC
100
AcDbEntity
  8
001
370
    50
100
AcDbVertex
100
AcDb2dVertex
 10
105.415349
 20
82.239519
 30
0.0
  0
VERTEX
  5
3D0
330
3CC
100
AcDbEntity
  8
001
370
    50
100
AcDbVertex
100
AcDb2dVertex
 10
105.268605
 20
82.16336
 30
0.0
  0
VERTEX
  5
3D1
330
3CC
100
AcDbEntity
  8
001
370
    50
100
AcDbVertex
100
AcDb2dVertex
 10
105.125248
 20
82.075318
 30
0.0
  0
VERTEX
  5
3D2
330
3CC
100
AcDbEntity
  8
001
370
    50
100
AcDbVertex
100
AcDb2dVertex
 10
104.988798
 20
81.976807
 30
0.0
  0
VERTEX
  5
3D3
330
3CC
100
AcDbEntity
  8
001
370
    50
100
AcDbVertex
100
AcDb2dVertex
 10
104.945584
 20
81.942541
 30
0.0
  0
VERTEX
  5
3D4
330
3CC
100
AcDbEntity
  8
001
370
    50
100
AcDbVertex
100
AcDb2dVertex
 10
104.902774
 20
81.90779
 30
0.0
  0
SEQEND
  5
3CD
330
3CC
100
AcDbEntity
  8
001
370
    50
  0
POLYLINE
  5
3D5
330
1F
100
AcDbEntity
  8
001
370
    50
100
AcDb2dPolyline
 66
     1
 10
0.0
 20
0.0
 30
0.0
  0
VERTEX
  5
3D7
330
3D5
100
AcDbEntity
  8
001
370
    50
100
AcDbVertex
100
AcDb2dVertex
 10
106.216328
 20
82.47845
 30
0.0
  0
VERTEX
  5
3D8
330
3D5
100
AcDbEntity
  8
001
370
    50
100
AcDbVertex
100
AcDb2dVertex
 10
106.051168
 20
82.450893
 30
0.0
  0
VERTEX
  5
3D9
330
3D5
100
AcDbEntity
  8
001
370
    50
100
AcDbVertex
100
AcDb2dVertex
 10
105.88799
 20
82.41566
 30
0.0
  0
VERTEX
  5
3DA
330
3D5
100
AcDbEntity
  8
001
370
    50
100
AcDbVertex
100
AcDb2dVertex
 10
105.725543
 20
82.366747
 30
0.0
  0
VERTEX
  5
3DB
330
3D5
100
AcDbEntity
  8
001
370
    50
100
AcDbVertex
100
AcDb2dVertex
 10
105.565142
 20
82.309907
 30
0.0
  0
SEQEND
  5
3D6
330
3D5
100
AcDbEntity
  8
001
370
    50
  0
LINE
  5
3DC
330
1F
100
AcDbEntity
  8
001
370
    50
100
AcDbLine
 10
106.416792
 20
82.492315
 30
0.0
 11
106.216328
 21
82.47845
 31
0.0
  0
LINE
  5
3DD
330
1F
100
AcDbEntity
  8
001
370
    50
100
AcDbLine
 10
104.902774
 20
81.90779
 30
0.0
 11
104.745593
 21
81.761689
 31
0.0
  0
POLYLINE
  5
3DE
330
1F
100
AcDbEntity
  8
001
370
    50
100
AcDb2dPolyline
 66
     1
 10
0.0
 20
0.0
 30
0.0
  0
VERTEX
  5
3E0
330
3DE
100
AcDbEntity
  8
001
370
    50
100
AcDbVertex
100
AcDb2dVertex
 10
104.393683
 20
81.407772
 30
0.0
  0
VERTEX
  5
3E1
330
3DE
100
AcDbEntity
  8
001
370
    50
100
AcDbVertex
100
AcDb2dVertex
 10
104.465189
 20
81.47936
 30
0.0
  0
VERTEX
  5
3E2
330
3DE
100
AcDbEntity
  8
001
370
    50
100
AcDbVertex
100
AcDb2dVertex
 10
104.569558
 20
81.584128
 30
0.0
  0
VERTEX
  5
3E3
330
3DE
100
AcDbEntity
  8
001
370
    50
100
AcDbVertex
100
AcDb2dVertex
 10
104.674136
 20
81.689498
 30
0.0
  0
VERTEX
  5
3E4
330
3DE
100
AcDbEntity
  8
001
370
    50
100
AcDbVertex
100
AcDb2dVertex
 10
104.745593
 20
81.761689
 30
0.0
  0
SEQEND
  5
3DF
330
3DE
100
AcDbEntity
  8
001
370
    50
  0
POLYLINE
  5
3E5
330
1F
100
AcDbEntity
  8
001
370
    50
100
AcDb2dPolyline
 66
     1
 10
0.0
 20
0.0
 30
0.0
  0
VERTEX
  5
3E7
330
3E5
100
AcDbEntity
  8
001
370
    50
100
AcDbVertex
100
AcDb2dVertex
 10
106.416792
 20
82.492315
 30
0.0
  0
VERTEX
  5
3E8
330
3E5
100
AcDbEntity
  8
001
370
    50
100
AcDbVertex
100
AcDb2dVertex
 10
106.507026
 20
82.495258
 30
0.0
  0
VERTEX
  5
3E9
330
3E5
100
AcDbEntity
  8
001
370
    50
100
AcDbVertex
100
AcDb2dVertex
 10
106.63889
 20
82.499997
 30
0.0
  0
VERTEX
  5
3EA
330
3E5
100
AcDbEntity
  8
001
370
    50
100
AcDbVertex
100
AcDb2dVertex
 10
106.770679
 20
82.505345
 30
0.0
  0
VERTEX
  5
3EB
330
3E5
100
AcDbEntity
  8
001
370
    50
100
AcDbVertex
100
AcDb2dVertex
 10
106.860838
 20
82.509305
 30
0.0
  0
SEQEND
  5
3E6
330
3E5
100
AcDbEntity
  8
001
370
    50
  0
POLYLINE
  5
3EC
330
1F
100
AcDbEntity
  8
001
370
    50
100
AcDb2dPolyline
 66
     1
 10
0.0
 20
0.0
 30
0.0
  0
VERTEX
  5
3EE
330
3EC
100
AcDbEntity
  8
001
370
    50
100
AcDbVertex
100
AcDb2dVertex
 10
106.860838
 20
82.509305
 30
0.0
  0
VERTEX
  5
3EF
330
3EC
100
AcDbEntity
  8
001
370
    50
100
AcDbVertex
100
AcDb2dVertex
 10
106.991727
 20
82.512863
 30
0.0
  0
VERTEX
  5
3F0
330
3EC
100
AcDbEntity
  8
001
370
    50
100
AcDbVertex
100
AcDb2dVertex
 10
107.182997
 20
82.518993
 30
0.0
  0
VERTEX
  5
3F1
330
3EC
100
AcDbEntity
  8
001
370
    50
100
AcDbVertex
100
AcDb2dVertex
 10
107.374164
 20
82.526412
 30
0.0
  0
VERTEX
  5
3F2
330
3EC
100
AcDbEntity
  8
001
370
    50
100
AcDbVertex
100
AcDb2dVertex
 10
107.504938
 20
82.532123
 30
0.0
  0
SEQEND
  5
3ED
330
3EC
100
AcDbEntity
  8
001
370
    50
  0
POLYLINE
  5
3F3
330
1F
100
AcDbEntity
  8
001
370
    50
100
AcDb2dPolyline
 66
     1
 10
0.0
 20
0.0
 30
0.0
  0
VERTEX
  5
3F5
330
3F3
100
AcDbEntity
  8
001
370
    50
100
AcDbVertex
100
AcDb2dVertex
 10
111.220965
 20
83.30135
 30
0.0
  0
VERTEX
  5
3F6
330
3F3
100
AcDbEntity
  8
001
370
    50
100
AcDbVertex
100
AcDb2dVertex
 10
111.150869
 20
83.29985
 30
0.0
  0
VERTEX
  5
3F7
330
3F3
100
AcDbEntity
  8
001
370
    50
100
AcDbVertex
100
AcDb2dVertex
 10
111.080925
 20
83.296561
 30
0.0
  0
VERTEX
  5
3F8
330
3F3
100
AcDbEntity
  8
001
370
    50
100
AcDbVertex
100
AcDb2dVertex
 10
110.944608
 20
83.281476
 30
0.0
  0
VERTEX
  5
3F9
330
3F3
100
AcDbEntity
  8
001
370
    50
100
AcDbVertex
100
AcDb2dVertex
 10
110.808873
 20
83.259525
 30
0.0
  0
SEQEND
  5
3F4
330
3F3
100
AcDbEntity
  8
001
370
    50
  0
LINE
  5
3FA
330
1F
100
AcDbEntity
  8
001
370
    50
100
AcDbLine
 10
112.619771
 20
82.723922
 30
0.0
 11
112.341624
 21
82.957042
 31
0.0
  0
LINE
  5
3FB
330
1F
100
AcDbEntity
  8
001
370
    50
100
AcDbLine
 10
112.655806
 20
82.686396
 30
0.0
 11
112.635863
 21
82.707416
 31
0.0
  0
POLYLINE
  5
3FC
330
1F
100
AcDbEntity
  8
001
370
    50
100
AcDb2dPolyline
 66
     1
 10
0.0
 20
0.0
 30
0.0
  0
VERTEX
  5
3FE
330
3FC
100
AcDbEntity
  8
001
370
    50
100
AcDbVertex
100
AcDb2dVertex
 10
112.520863
 20
79.89081
 30
0.0
  0
VERTEX
  5
3FF
330
3FC
100
AcDbEntity
  8
001
370
    50
100
AcDbVertex
100
AcDb2dVertex
 10
112.595482
 20
79.969145
 30
0.0
  0
VERTEX
  5
400
330
3FC
100
AcDbEntity
  8
001
370
    50
100
AcDbVertex
100
AcDb2dVertex
 10
112.667532
 20
80.049713
 30
0.0
  0
VERTEX
  5
401
330
3FC
100
AcDbEntity
  8
001
370
    50
100
AcDbVertex
100
AcDb2dVertex
 10
112.734719
 20
80.133952
 30
0.0
  0
VERTEX
  5
402
330
3FC
100
AcDbEntity
  8
001
370
    50
100
AcDbVertex
100
AcDb2dVertex
 10
112.797208
 20
80.221849
 30
0.0
  0
VERTEX
  5
403
330
3FC
100
AcDbEntity
  8
001
370
    50
100
AcDbVertex
100
AcDb2dVertex
 10
112.88445
 20
80.362303
 30
0.0
  0
VERTEX
  5
404
330
3FC
100
AcDbEntity
  8
001
370
    50
100
AcDbVertex
100
AcDb2dVertex
 10
112.960835
 20
80.508919
 30
0.0
  0
VERTEX
  5
405
330
3FC
100
AcDbEntity
  8
001
370
    50
100
AcDbVertex
100
AcDb2dVertex
 10
113.025217
 20
80.659978
 30
0.0
  0
VERTEX
  5
406
330
3FC
100
AcDbEntity
  8
001
370
    50
100
AcDbVertex
100
AcDb2dVertex
 10
113.077534
 20
80.815634
 30
0.0
  0
VERTEX
  5
407
330
3FC
100
AcDbEntity
  8
001
370
    50
100
AcDbVertex
100
AcDb2dVertex
 10
113.119104
 20
80.984017
 30
0.0
  0
VERTEX
  5
408
330
3FC
100
AcDbEntity
  8
001
370
    50
100
AcDbVertex
100
AcDb2dVertex
 10
113.146312
 20
81.155328
 30
0.0
  0
VERTEX
  5
409
330
3FC
100
AcDbEntity
  8
001
370
    50
100
AcDbVertex
100
AcDb2dVertex
 10
113.158858
 20
81.327653
 30
0.0
  0
VERTEX
  5
40A
330
3FC
100
AcDbEntity
  8
001
370
    50
100
AcDbVertex
100
AcDb2dVertex
 10
113.156426
 20
81.500404
 30
0.0
  0
VERTEX
  5
40B
330
3FC
100
AcDbEntity
  8
001
370
    50
100
AcDbVertex
100
AcDb2dVertex
 10
113.13855
 20
81.672907
 30
0.0
  0
VERTEX
  5
40C
330
3FC
100
AcDbEntity
  8
001
370
    50
100
AcDbVertex
100
AcDb2dVertex
 10
113.105314
 20
81.843101
 30
0.0
  0
VERTEX
  5
40D
330
3FC
100
AcDbEntity
  8
001
370
    50
100
AcDbVertex
100
AcDb2dVertex
 10
113.056985
 20
82.009655
 30
0.0
  0
VERTEX
  5
40E
330
3FC
100
AcDbEntity
  8
001
370
    50
100
AcDbVertex
100
AcDb2dVertex
 10
112.994089
 20
82.171388
 30
0.0
  0
VERTEX
  5
40F
330
3FC
100
AcDbEntity
  8
001
370
    50
100
AcDbVertex
100
AcDb2dVertex
 10
112.926024
 20
82.310349
 30
0.0
  0
VERTEX
  5
410
330
3FC
100
AcDbEntity
  8
001
370
    50
100
AcDbVertex
100
AcDb2dVertex
 10
112.845968
 20
82.442424
 30
0.0
  0
VERTEX
  5
411
330
3FC
100
AcDbEntity
  8
001
370
    50
100
AcDbVertex
100
AcDb2dVertex
 10
112.754115
 20
82.566695
 30
0.0
  0
VERTEX
  5
412
330
3FC
100
AcDbEntity
  8
001
370
    50
100
AcDbVertex
100
AcDb2dVertex
 10
112.655806
 20
82.686396
 30
0.0
  0
SEQEND
  5
3FD
330
3FC
100
AcDbEntity
  8
001
370
    50
  0
POLYLINE
  5
413
330
1F
100
AcDbEntity
  8
001
370
    50
100
AcDb2dPolyline
 66
     1
 10
0.0
 20
0.0
 30
0.0
  0
VERTEX
  5
415
330
413
100
AcDbEntity
  8
001
370
    50
100
AcDbVertex
100
AcDb2dVertex
 10
112.335421
 20
79.73082
 30
0.0
  0
VERTEX
  5
416
330
413
100
AcDbEntity
  8
001
370
    50
100
AcDbVertex
100
AcDb2dVertex
 10
112.345925
 20
79.738955
 30
0.0
  0
VERTEX
  5
417
330
413
100
AcDbEntity
  8
001
370
    50
100
AcDbVertex
100
AcDb2dVertex
 10
112.35639
 20
79.747137
 30
0.0
  0
VERTEX
  5
418
330
413
100
AcDbEntity
  8
001
370
    50
100
AcDbVertex
100
AcDb2dVertex
 10
112.439943
 20
79.817376
 30
0.0
  0
VERTEX
  5
419
330
413
100
AcDbEntity
  8
001
370
    50
100
AcDbVertex
100
AcDb2dVertex
 10
112.520863
 20
79.89081
 30
0.0
  0
SEQEND
  5
414
330
413
100
AcDbEntity
  8
001
370
    50
  0
POLYLINE
  5
41A
330
1F
100
AcDbEntity
  8
001
370
    50
100
AcDb2dPolyline
 66
     1
 10
0.0
 20
0.0
 30
0.0
  0
VERTEX
  5
41C
330
41A
100
AcDbEntity
  8
001
370
    50
100
AcDbVertex
100
AcDb2dVertex
 10
110.098578
 20
82.971534
 30
0.0
  0
VERTEX
  5
41D
330
41A
100
AcDbEntity
  8
001
370
    50
100
AcDbVertex
100
AcDb2dVertex
 10
109.984323
 20
82.891919
 30
0.0
  0
VERTEX
  5
41E
330
41A
100
AcDbEntity
  8
001
370
    50
100
AcDbVertex
100
AcDb2dVertex
 10
109.874624
 20
82.806919
 30
0.0
  0
VERTEX
  5
41F
330
41A
100
AcDbEntity
  8
001
370
    50
100
AcDbVertex
100
AcDb2dVertex
 10
109.770601
 20
82.711016
 30
0.0
  0
VERTEX
  5
420
330
41A
100
AcDbEntity
  8
001
370
    50
100
AcDbVertex
100
AcDb2dVertex
 10
109.671316
 20
82.609514
 30
0.0
  0
SEQEND
  5
41B
330
41A
100
AcDbEntity
  8
001
370
    50
  0
POLYLINE
  5
421
330
1F
100
AcDbEntity
  8
001
370
    50
100
AcDb2dPolyline
 66
     1
 10
0.0
 20
0.0
 30
0.0
  0
VERTEX
  5
423
330
421
100
AcDbEntity
  8
001
370
    50
100
AcDbVertex
100
AcDb2dVertex
 10
107.504938
 20
82.532123
 30
0.0
  0
VERTEX
  5
424
330
421
100
AcDbEntity
  8
001
370
    50
100
AcDbVertex
100
AcDb2dVertex
 10
107.635839
 20
82.535737
 30
0.0
  0
VERTEX
  5
425
330
421
100
AcDbEntity
  8
001
370
    50
100
AcDbVertex
100
AcDb2dVertex
 10
107.827126
 20
82.541954
 30
0.0
  0
VERTEX
  5
426
330
421
100
AcDbEntity
  8
001
370
    50
100
AcDbVertex
100
AcDb2dVertex
 10
108.018275
 20
82.549467
 30
0.0
  0
VERTEX
  5
427
330
421
100
AcDbEntity
  8
001
370
    50
100
AcDbVertex
100
AcDb2dVertex
 10
108.149035
 20
82.555246
 30
0.0
  0
SEQEND
  5
422
330
421
100
AcDbEntity
  8
001
370
    50
  0
POLYLINE
  5
428
330
1F
100
AcDbEntity
  8
001
370
    50
100
AcDb2dPolyline
 66
     1
 10
0.0
 20
0.0
 30
0.0
  0
VERTEX
  5
42A
330
428
100
AcDbEntity
  8
001
370
    50
100
AcDbVertex
100
AcDb2dVertex
 10
108.149035
 20
82.555246
 30
0.0
  0
VERTEX
  5
42B
330
428
100
AcDbEntity
  8
001
370
    50
100
AcDbVertex
100
AcDb2dVertex
 10
108.279949
 20
82.558916
 30
0.0
  0
VERTEX
  5
42C
330
428
100
AcDbEntity
  8
001
370
    50
100
AcDbVertex
100
AcDb2dVertex
 10
108.471252
 20
82.56522
 30
0.0
  0
VERTEX
  5
42D
330
428
100
AcDbEntity
  8
001
370
    50
100
AcDbVertex
100
AcDb2dVertex
 10
108.662383
 20
82.572828
 30
0.0
  0
VERTEX
  5
42E
330
428
100
AcDbEntity
  8
001
370
    50
100
AcDbVertex
100
AcDb2dVertex
 10
108.793132
 20
82.578676
 30
0.0
  0
SEQEND
  5
429
330
428
100
AcDbEntity
  8
001
370
    50
  0
POLYLINE
  5
42F
330
1F
100
AcDbEntity
  8
001
370
    50
100
AcDb2dPolyline
 66
     1
 10
0.0
 20
0.0
 30
0.0
  0
VERTEX
  5
431
330
42F
100
AcDbEntity
  8
001
370
    50
100
AcDbVertex
100
AcDb2dVertex
 10
108.793132
 20
82.578676
 30
0.0
  0
VERTEX
  5
432
330
42F
100
AcDbEntity
  8
001
370
    50
100
AcDbVertex
100
AcDb2dVertex
 10
108.924057
 20
82.582401
 30
0.0
  0
VERTEX
  5
433
330
42F
100
AcDbEntity
  8
001
370
    50
100
AcDbVertex
100
AcDb2dVertex
 10
109.115379
 20
82.588793
 30
0.0
  0
VERTEX
  5
434
330
42F
100
AcDbEntity
  8
001
370
    50
100
AcDbVertex
100
AcDb2dVertex
 10
109.306492
 20
82.596496
 30
0.0
  0
VERTEX
  5
435
330
42F
100
AcDbEntity
  8
001
370
    50
100
AcDbVertex
100
AcDb2dVertex
 10
109.437228
 20
82.602413
 30
0.0
  0
SEQEND
  5
430
330
42F
100
AcDbEntity
  8
001
370
    50
  0
POLYLINE
  5
436
330
1F
100
AcDbEntity
  8
001
370
    50
100
AcDb2dPolyline
 66
     1
 10
0.0
 20
0.0
 30
0.0
  0
VERTEX
  5
438
330
436
100
AcDbEntity
  8
001
370
    50
100
AcDbVertex
100
AcDb2dVertex
 10
109.437228
 20
82.602413
 30
0.0
  0
VERTEX
  5
439
330
436
100
AcDbEntity
  8
001
370
    50
100
AcDbVertex
100
AcDb2dVertex
 10
109.484782
 20
82.60371
 30
0.0
  0
VERTEX
  5
43A
330
436
100
AcDbEntity
  8
001
370
    50
100
AcDbVertex
100
AcDb2dVertex
 10
109.554281
 20
82.605731
 30
0.0
  0
VERTEX
  5
43B
330
436
100
AcDbEntity
  8
001
370
    50
100
AcDbVertex
100
AcDb2dVertex
 10
109.623772
 20
82.607926
 30
0.0
  0
VERTEX
  5
43C
330
436
100
AcDbEntity
  8
001
370
    50
100
AcDbVertex
100
AcDb2dVertex
 10
109.671316
 20
82.609514
 30
0.0
  0
SEQEND
  5
437
330
436
100
AcDbEntity
  8
001
370
    50
  0
LINE
  5
43D
330
1F
100
AcDbEntity
  8
001
370
    50
100
AcDbLine
 10
104.22927
 20
90.446581
 30
0.0
 11
104.22927
 21
94.814782
 31
0.0
  0
LINE
  5
43E
330
1F
100
AcDbEntity
  8
001
370
    50
100
AcDbLine
 10
103.22927
 20
91.414782
 30
0.0
 11
103.22927
 21
81.332836
 31
0.0
  0
LINE
  5
43F
330
1F
100
AcDbEntity
  8
001
370
    50
100
AcDbLine
 10
104.393683
 20
81.407772
 30
0.0
 11
104.388239
 21
81.385923
 31
0.0
  0
POLYLINE
  5
440
330
1F
100
AcDbEntity
  8
001
370
    50
100
AcDb2dPolyline
 66
     1
 10
0.0
 20
0.0
 30
0.0
  0
VERTEX
  5
442
330
440
100
AcDbEntity
  8
001
370
    50
100
AcDbVertex
100
AcDb2dVertex
 10
105.806508
 20
81.550612
 30
0.0
  0
VERTEX
  5
443
330
440
100
AcDbEntity
  8
001
370
    50
100
AcDbVertex
100
AcDb2dVertex
 10
105.687376
 20
81.543889
 30
0.0
  0
VERTEX
  5
444
330
440
100
AcDbEntity
  8
001
370
    50
100
AcDbVertex
100
AcDb2dVertex
 10
105.52401
 20
81.522927
 30
0.0
  0
VERTEX
  5
445
330
440
100
AcDbEntity
  8
001
370
    50
100
AcDbVertex
100
AcDb2dVertex
 10
105.378796
 20
81.487427
 30
0.0
  0
VERTEX
  5
446
330
440
100
AcDbEntity
  8
001
370
    50
100
AcDbVertex
100
AcDb2dVertex
 10
105.25194
 20
81.440897
 30
0.0
  0
VERTEX
  5
447
330
440
100
AcDbEntity
  8
001
370
    50
100
AcDbVertex
100
AcDb2dVertex
 10
105.191838
 20
81.415028
 30
0.0
  0
VERTEX
  5
448
330
440
100
AcDbEntity
  8
001
370
    50
100
AcDbVertex
100
AcDb2dVertex
 10
105.131443
 20
81.385923
 30
0.0
  0
SEQEND
  5
441
330
440
100
AcDbEntity
  8
001
370
    50
  0
LINE
  5
449
330
1F
100
AcDbEntity
  8
001
370
    50
100
AcDbLine
 10
105.8433
 20
81.550612
 30
0.0
 11
105.806508
 21
81.550612
 31
0.0
  0
POLYLINE
  5
44A
330
1F
100
AcDbEntity
  8
001
370
    50
100
AcDb2dPolyline
 66
     1
 10
0.0
 20
0.0
 30
0.0
  0
VERTEX
  5
44C
330
44A
100
AcDbEntity
  8
001
370
    50
100
AcDbVertex
100
AcDb2dVertex
 10
109.671316
 20
82.609514
 30
0.0
  0
VERTEX
  5
44D
330
44A
100
AcDbEntity
  8
001
370
    50
100
AcDbVertex
100
AcDb2dVertex
 10
109.552869
 20
82.525822
 30
0.0
  0
VERTEX
  5
44E
330
44A
100
AcDbEntity
  8
001
370
    50
100
AcDbVertex
100
AcDb2dVertex
 10
109.385516
 20
82.40135
 30
0.0
  0
SEQEND
  5
44B
330
44A
100
AcDbEntity
  8
001
370
    50
  0
LINE
  5
44F
330
1F
100
AcDbEntity
  8
001
370
    50
100
AcDbLine
 10
112.619771
 20
82.723922
 30
0.0
 11
112.635863
 21
82.707416
 31
0.0
  0
POLYLINE
  5
450
330
1F
100
AcDbEntity
  8
001
370
    50
100
AcDb2dPolyline
 66
     1
 10
0.0
 20
0.0
 30
0.0
  0
VERTEX
  5
452
330
450
100
AcDbEntity
  8
001
370
    50
100
AcDbVertex
100
AcDb2dVertex
 10
112.335421
 20
79.73082
 30
0.0
  0
VERTEX
  5
453
330
450
100
AcDbEntity
  8
001
370
    50
100
AcDbVertex
100
AcDb2dVertex
 10
112.24138
 20
78.706754
 30
0.0
  0
VERTEX
  5
454
330
450
100
AcDbEntity
  8
001
370
    50
100
AcDbVertex
100
AcDb2dVertex
 10
112.109564
 20
77.198121
 30
0.0
  0
SEQEND
  5
451
330
450
100
AcDbEntity
  8
001
370
    50
  0
POLYLINE
  5
455
330
1F
100
AcDbEntity
  8
001
370
    50
100
AcDb2dPolyline
 66
     1
 10
0.0
 20
0.0
 30
0.0
  0
VERTEX
  5
457
330
455
100
AcDbEntity
  8
001
370
    50
100
AcDbVertex
100
AcDb2dVertex
 10
111.86759
 20
74.111591
 30
0.0
  0
VERTEX
  5
458
330
455
100
AcDbEntity
  8
001
370
    50
100
AcDbVertex
100
AcDb2dVertex
 10
111.852698
 20
73.90677
 30
0.0
  0
VERTEX
  5
459
330
455
100
AcDbEntity
  8
001
370
    50
100
AcDbVertex
100
AcDb2dVertex
 10
111.84072
 20
73.740105
 30
0.0
  0
SEQEND
  5
456
330
455
100
AcDbEntity
  8
001
370
    50
  0
POLYLINE
  5
45A
330
1F
100
AcDbEntity
  8
001
370
    50
100
AcDb2dPolyline
 66
     1
 10
0.0
 20
0.0
 30
0.0
  0
VERTEX
  5
45C
330
45A
100
AcDbEntity
  8
001
370
    50
100
AcDbVertex
100
AcDb2dVertex
 10
111.284161
 20
73.891777
 30
0.0
  0
VERTEX
  5
45D
330
45A
100
AcDbEntity
  8
001
370
    50
100
AcDbVertex
100
AcDb2dVertex
 10
111.610667
 20
73.788394
 30
0.0
  0
VERTEX
  5
45E
330
45A
100
AcDbEntity
  8
001
370
    50
100
AcDbVertex
100
AcDb2dVertex
 10
111.84072
 20
73.740105
 30
0.0
  0
SEQEND
  5
45B
330
45A
100
AcDbEntity
  8
001
370
    50
  0
POLYLINE
  5
45F
330
1F
100
AcDbEntity
  8
001
370
    50
100
AcDb2dPolyline
 66
     1
 10
0.0
 20
0.0
 30
0.0
  0
VERTEX
  5
461
330
45F
100
AcDbEntity
  8
001
370
    50
100
AcDbVertex
100
AcDb2dVertex
 10
111.111206
 20
79.407507
 30
0.0
  0
VERTEX
  5
462
330
45F
100
AcDbEntity
  8
001
370
    50
100
AcDbVertex
100
AcDb2dVertex
 10
111.253772
 20
79.462304
 30
0.0
  0
VERTEX
  5
463
330
45F
100
AcDbEntity
  8
001
370
    50
100
AcDbVertex
100
AcDb2dVertex
 10
111.383283
 20
79.526733
 30
0.0
  0
VERTEX
  5
464
330
45F
100
AcDbEntity
  8
001
370
    50
100
AcDbVertex
100
AcDb2dVertex
 10
111.532448
 20
79.615108
 30
0.0
  0
VERTEX
  5
465
330
45F
100
AcDbEntity
  8
001
370
    50
100
AcDbVertex
100
AcDb2dVertex
 10
111.677099
 20
79.717087
 30
0.0
  0
VERTEX
  5
466
330
45F
100
AcDbEntity
  8
001
370
    50
100
AcDbVertex
100
AcDb2dVertex
 10
111.81104
 20
79.831455
 30
0.0
  0
VERTEX
  5
467
330
45F
100
AcDbEntity
  8
001
370
    50
100
AcDbVertex
100
AcDb2dVertex
 10
111.933273
 20
79.957047
 30
0.0
  0
VERTEX
  5
468
330
45F
100
AcDbEntity
  8
001
370
    50
100
AcDbVertex
100
AcDb2dVertex
 10
112.044605
 20
80.093412
 30
0.0
  0
VERTEX
  5
469
330
45F
100
AcDbEntity
  8
001
370
    50
100
AcDbVertex
100
AcDb2dVertex
 10
112.143785
 20
80.239099
 30
0.0
  0
VERTEX
  5
46A
330
45F
100
AcDbEntity
  8
001
370
    50
100
AcDbVertex
100
AcDb2dVertex
 10
112.229873
 20
80.393287
 30
0.0
  0
VERTEX
  5
46B
330
45F
100
AcDbEntity
  8
001
370
    50
100
AcDbVertex
100
AcDb2dVertex
 10
112.302042
 20
80.554412
 30
0.0
  0
VERTEX
  5
46C
330
45F
100
AcDbEntity
  8
001
370
    50
100
AcDbVertex
100
AcDb2dVertex
 10
112.359963
 20
80.721551
 30
0.0
  0
VERTEX
  5
46D
330
45F
100
AcDbEntity
  8
001
370
    50
100
AcDbVertex
100
AcDb2dVertex
 10
112.40309
 20
80.893113
 30
0.0
  0
VERTEX
  5
46E
330
45F
100
AcDbEntity
  8
001
370
    50
100
AcDbVertex
100
AcDb2dVertex
 10
112.4311
 20
81.067967
 30
0.0
  0
VERTEX
  5
46F
330
45F
100
AcDbEntity
  8
001
370
    50
100
AcDbVertex
100
AcDb2dVertex
 10
112.443765
 20
81.244596
 30
0.0
  0
VERTEX
  5
470
330
45F
100
AcDbEntity
  8
001
370
    50
100
AcDbVertex
100
AcDb2dVertex
 10
112.440988
 20
81.421683
 30
0.0
  0
VERTEX
  5
471
330
45F
100
AcDbEntity
  8
001
370
    50
100
AcDbVertex
100
AcDb2dVertex
 10
112.422793
 20
81.597856
 30
0.0
  0
VERTEX
  5
472
330
45F
100
AcDbEntity
  8
001
370
    50
100
AcDbVertex
100
AcDb2dVertex
 10
112.389317
 20
81.771637
 30
0.0
  0
VERTEX
  5
473
330
45F
100
AcDbEntity
  8
001
370
    50
100
AcDbVertex
100
AcDb2dVertex
 10
112.340831
 20
81.941833
 30
0.0
  0
VERTEX
  5
474
330
45F
100
AcDbEntity
  8
001
370
    50
100
AcDbVertex
100
AcDb2dVertex
 10
112.277776
 20
82.106864
 30
0.0
  0
VERTEX
  5
475
330
45F
100
AcDbEntity
  8
001
370
    50
100
AcDbVertex
100
AcDb2dVertex
 10
112.200444
 20
82.265754
 30
0.0
  0
VERTEX
  5
476
330
45F
100
AcDbEntity
  8
001
370
    50
100
AcDbVertex
100
AcDb2dVertex
 10
112.109562
 20
82.416924
 30
0.0
  0
VERTEX
  5
477
330
45F
100
AcDbEntity
  8
001
370
    50
100
AcDbVertex
100
AcDb2dVertex
 10
112.00603
 20
82.559479
 30
0.0
  0
VERTEX
  5
478
330
45F
100
AcDbEntity
  8
001
370
    50
100
AcDbVertex
100
AcDb2dVertex
 10
111.891011
 20
82.69191
 30
0.0
  0
VERTEX
  5
479
330
45F
100
AcDbEntity
  8
001
370
    50
100
AcDbVertex
100
AcDb2dVertex
 10
111.763674
 20
82.81381
 30
0.0
  0
VERTEX
  5
47A
330
45F
100
AcDbEntity
  8
001
370
    50
100
AcDbVertex
100
AcDb2dVertex
 10
111.624956
 20
82.923955
 30
0.0
  0
VERTEX
  5
47B
330
45F
100
AcDbEntity
  8
001
370
    50
100
AcDbVertex
100
AcDb2dVertex
 10
111.480967
 20
83.020783
 30
0.0
  0
VERTEX
  5
47C
330
45F
100
AcDbEntity
  8
001
370
    50
100
AcDbVertex
100
AcDb2dVertex
 10
111.334611
 20
83.103009
 30
0.0
  0
VERTEX
  5
47D
330
45F
100
AcDbEntity
  8
001
370
    50
100
AcDbVertex
100
AcDb2dVertex
 10
111.166759
 20
83.173918
 30
0.0
  0
VERTEX
  5
47E
330
45F
100
AcDbEntity
  8
001
370
    50
100
AcDbVertex
100
AcDb2dVertex
 10
110.973686
 20
83.233791
 30
0.0
  0
VERTEX
  5
47F
330
45F
100
AcDbEntity
  8
001
370
    50
100
AcDbVertex
100
AcDb2dVertex
 10
110.83089
 20
83.26842
 30
0.0
  0
SEQEND
  5
460
330
45F
100
AcDbEntity
  8
001
370
    50
  0
POLYLINE
  5
480
330
1F
100
AcDbEntity
  8
001
370
    50
100
AcDb2dPolyline
 66
     1
 10
0.0
 20
0.0
 30
0.0
  0
VERTEX
  5
482
330
480
100
AcDbEntity
  8
001
370
    50
100
AcDbVertex
100
AcDb2dVertex
 10
111.146756
 20
79.370256
 30
0.0
  0
VERTEX
  5
483
330
480
100
AcDbEntity
  8
001
370
    50
100
AcDbVertex
100
AcDb2dVertex
 10
111.223076
 20
79.382033
 30
0.0
  0
VERTEX
  5
484
330
480
100
AcDbEntity
  8
001
370
    50
100
AcDbVertex
100
AcDb2dVertex
 10
111.296768
 20
79.394174
 30
0.0
  0
VERTEX
  5
485
330
480
100
AcDbEntity
  8
001
370
    50
100
AcDbVertex
100
AcDb2dVertex
 10
111.571569
 20
79.451212
 30
0.0
  0
VERTEX
  5
486
330
480
100
AcDbEntity
  8
001
370
    50
100
AcDbVertex
100
AcDb2dVertex
 10
111.841023
 20
79.53365
 30
0.0
  0
VERTEX
  5
487
330
480
100
AcDbEntity
  8
001
370
    50
100
AcDbVertex
100
AcDb2dVertex
 10
112.127702
 20
79.642101
 30
0.0
  0
VERTEX
  5
488
330
480
100
AcDbEntity
  8
001
370
    50
100
AcDbVertex
100
AcDb2dVertex
 10
112.335421
 20
79.73082
 30
0.0
  0
SEQEND
  5
481
330
480
100
AcDbEntity
  8
001
370
    50
  0
LINE
  5
489
330
1F
100
AcDbEntity
  8
001
370
    50
100
AcDbLine
 10
117.92927
 20
88.033687
 30
0.0
 11
117.92927
 21
94.814782
 31
0.0
  0
LINE
  5
48A
330
1F
100
AcDbEntity
  8
001
370
    50
100
AcDbLine
 10
121.743741
 20
83.873531
 30
0.0
 11
121.743741
 21
98.764782
 31
0.0
  0
LINE
  5
48B
330
1F
100
AcDbEntity
  8
001
370
    50
100
AcDbLine
 10
151.72927
 20
71.764782
 30
0.0
 11
151.72927
 21
96.764782
 31
0.0
  0
LINE
  5
48C
330
1F
100
AcDbEntity
  8
001
370
    50
100
AcDbLine
 10
151.72927
 20
96.264782
 30
0.0
 11
148.72927
 21
96.264782
 31
0.0
  0
LINE
  5
48D
330
1F
100
AcDbEntity
  8
001
370
    50
100
AcDbLine
 10
148.72927
 20
72.264782
 30
0.0
 11
151.72927
 21
72.264782
 31
0.0
  0
LINE
  5
48E
330
1F
100
AcDbEntity
  8
001
370
    50
100
AcDbLine
 10
228.72927
 20
84.264782
 30
0.0
 11
232.193372
 21
86.264782
 31
0.0
  0
LINE
  5
48F
330
1F
100
AcDbEntity
  8
001
370
    50
100
AcDbLine
 10
228.72927
 20
84.264782
 30
0.0
 11
232.193372
 21
82.264782
 31
0.0
  0
LINE
  5
490
330
1F
100
AcDbEntity
  8
001
  6
CENTER
370
     9
100
AcDbLine
 10
101.660122
 20
84.264782
 30
0.0
 11
232.134901
 21
84.264782
 31
0.0
  0
CIRCLE
  5
491
330
1F
100
AcDbEntity
  8
001
370
    50
100
AcDbCircle
 10
122.785193
 20
74.664083
 30
0.0
 40
2.5
  0
LINE
  5
492
330
1F
100
AcDbEntity
  8
001
370
    50
100
AcDbLine
 10
123.362543
 20
75.664083
 30
0.0
 11
123.045001
 21
76.214083
 31
0.0
  0
LINE
  5
493
330
1F
100
AcDbEntity
  8
001
370
    50
100
AcDbLine
 10
122.207843
 20
75.664083
 30
0.0
 11
122.525386
 21
76.214083
 31
0.0
  0
ARC
  5
494
330
1F
100
AcDbEntity
  8
001
370
    50
100
AcDbCircle
 10
122.785193
 20
76.064083
 30
0.0
 40
0.3
100
AcDbArc
 50
30.0
 51
150.0
  0
LINE
  5
495
330
1F
100
AcDbEntity
  8
001
370
    50
100
AcDbLine
 10
122.207843
 20
75.664083
 30
0.0
 11
121.572758
 21
75.664083
 31
0.0
  0
LINE
  5
496
330
1F
100
AcDbEntity
  8
001
370
    50
100
AcDbLine
 10
121.630493
 20
74.664083
 30
0.0
 11
121.31295
 21
75.214083
 31
0.0
  0
ARC
  5
497
330
1F
100
AcDbEntity
  8
001
370
    50
100
AcDbCircle
 10
121.572758
 20
75.364083
 30
0.0
 40
0.3
100
AcDbArc
 50
90.0
 51
210.0
  0
LINE
  5
498
330
1F
100
AcDbEntity
  8
001
370
    50
100
AcDbLine
 10
121.630493
 20
74.664083
 30
0.0
 11
121.31295
 21
74.114083
 31
0.0
  0
LINE
  5
499
330
1F
100
AcDbEntity
  8
001
370
    50
100
AcDbLine
 10
122.207843
 20
73.664083
 30
0.0
 11
121.572758
 21
73.664083
 31
0.0
  0
ARC
  5
49A
330
1F
100
AcDbEntity
  8
001
370
    50
100
AcDbCircle
 10
121.572758
 20
73.964083
 30
0.0
 40
0.3
100
AcDbArc
 50
150.0
 51
270.0
  0
LINE
  5
49B
330
1F
100
AcDbEntity
  8
001
370
    50
100
AcDbLine
 10
122.207843
 20
73.664083
 30
0.0
 11
122.525386
 21
73.114083
 31
0.0
  0
LINE
  5
49C
330
1F
100
AcDbEntity
  8
001
370
    50
100
AcDbLine
 10
123.362543
 20
73.664083
 30
0.0
 11
123.045001
 21
73.114083
 31
0.0
  0
ARC
  5
49D
330
1F
100
AcDbEntity
  8
001
370
    50
100
AcDbCircle
 10
122.785193
 20
73.264083
 30
0.0
 40
0.3
100
AcDbArc
 50
210.0
 51
330.0
  0
LINE
  5
49E
330
1F
100
AcDbEntity
  8
001
370
    50
100
AcDbLine
 10
123.362543
 20
73.664083
 30
0.0
 11
123.997629
 21
73.664083
 31
0.0
  0
LINE
  5
49F
330
1F
100
AcDbEntity
  8
001
370
    50
100
AcDbLine
 10
123.939894
 20
74.664083
 30
0.0
 11
124.257436
 21
74.114083
 31
0.0
  0
ARC
  5
4A0
330
1F
100
AcDbEntity
  8
001
370
    50
100
AcDbCircle
 10
123.997629
 20
73.964083
 30
0.0
 40
0.3
100
AcDbArc
 50
270.0
 51
30.0
  0
LINE
  5
4A1
330
1F
100
AcDbEntity
  8
001
370
    50
100
AcDbLine
 10
123.939894
 20
74.664083
 30
0.0
 11
124.257436
 21
75.214083
 31
0.0
  0
LINE
  5
4A2
330
1F
100
AcDbEntity
  8
001
370
    50
100
AcDbLine
 10
123.362543
 20
75.664083
 30
0.0
 11
123.997629
 21
75.664083
 31
0.0
  0
ARC
  5
4A3
330
1F
100
AcDbEntity
  8
001
370
    50
100
AcDbCircle
 10
123.997629
 20
75.364083
 30
0.0
 40
0.3
100
AcDbArc
 50
330.0
 51
90.0
  0
POLYLINE
  5
4A4
330
1F
100
AcDbEntity
  8
001
370
    50
100
AcDb2dPolyline
 66
     1
 10
0.0
 20
0.0
 30
0.0
  0
VERTEX
  5
4A6
330
4A4
100
AcDbEntity
  8
001
370
    50
100
AcDbVertex
100
AcDb2dVertex
 10
122.804394
 20
77.672132
 30
0.0
  0
VERTEX
  5
4A7
330
4A4
100
AcDbEntity
  8
001
370
    50
100
AcDbVertex
100
AcDb2dVertex
 10
122.587796
 20
77.660704
 30
0.0
  0
VERTEX
  5
4A8
330
4A4
100
AcDbEntity
  8
001
370
    50
100
AcDbVertex
100
AcDb2dVertex
 10
122.291364
 20
77.626555
 30
0.0
  0
VERTEX
  5
4A9
330
4A4
100
AcDbEntity
  8
001
370
    50
100
AcDbVertex
100
AcDb2dVertex
 10
122.028668
 20
77.569883
 30
0.0
  0
VERTEX
  5
4AA
330
4A4
100
AcDbEntity
  8
001
370
    50
100
AcDbVertex
100
AcDb2dVertex
 10
121.793922
 20
77.49121
 30
0.0
  0
VERTEX
  5
4AB
330
4A4
100
AcDbEntity
  8
001
370
    50
100
AcDbVertex
100
AcDb2dVertex
 10
121.558635
 20
77.390976
 30
0.0
  0
VERTEX
  5
4AC
330
4A4
100
AcDbEntity
  8
001
370
    50
100
AcDbVertex
100
AcDb2dVertex
 10
121.327182
 20
77.270208
 30
0.0
  0
VERTEX
  5
4AD
330
4A4
100
AcDbEntity
  8
001
370
    50
100
AcDbVertex
100
AcDb2dVertex
 10
121.108885
 20
77.129544
 30
0.0
  0
VERTEX
  5
4AE
330
4A4
100
AcDbEntity
  8
001
370
    50
100
AcDbVertex
100
AcDb2dVertex
 10
120.905327
 20
76.970265
 30
0.0
  0
VERTEX
  5
4AF
330
4A4
100
AcDbEntity
  8
001
370
    50
100
AcDbVertex
100
AcDb2dVertex
 10
120.715399
 20
76.793112
 30
0.0
  0
VERTEX
  5
4B0
330
4A4
100
AcDbEntity
  8
001
370
    50
100
AcDbVertex
100
AcDb2dVertex
 10
120.541174
 20
76.600495
 30
0.0
  0
VERTEX
  5
4B1
330
4A4
100
AcDbEntity
  8
001
370
    50
100
AcDbVertex
100
AcDb2dVertex
 10
120.384128
 20
76.393517
 30
0.0
  0
VERTEX
  5
4B2
330
4A4
100
AcDbEntity
  8
001
370
    50
100
AcDbVertex
100
AcDb2dVertex
 10
120.245788
 20
76.172132
 30
0.0
  0
VERTEX
  5
4B3
330
4A4
100
AcDbEntity
  8
001
370
    50
100
AcDbVertex
100
AcDb2dVertex
 10
120.126744
 20
75.936894
 30
0.0
  0
VERTEX
  5
4B4
330
4A4
100
AcDbEntity
  8
001
370
    50
100
AcDbVertex
100
AcDb2dVertex
 10
120.028144
 20
75.698192
 30
0.0
  0
VERTEX
  5
4B5
330
4A4
100
AcDbEntity
  8
001
370
    50
100
AcDbVertex
100
AcDb2dVertex
 10
119.95062
 20
75.459617
 30
0.0
  0
VERTEX
  5
4B6
330
4A4
100
AcDbEntity
  8
001
370
    50
100
AcDbVertex
100
AcDb2dVertex
 10
119.894855
 20
75.193076
 30
0.0
  0
VERTEX
  5
4B7
330
4A4
100
AcDbEntity
  8
001
370
    50
100
AcDbVertex
100
AcDb2dVertex
 10
119.861218
 20
74.892035
 30
0.0
  0
VERTEX
  5
4B8
330
4A4
100
AcDbEntity
  8
001
370
    50
100
AcDbVertex
100
AcDb2dVertex
 10
119.849971
 20
74.672132
 30
0.0
  0
SEQEND
  5
4A5
330
4A4
100
AcDbEntity
  8
001
370
    50
  0
POLYLINE
  5
4B9
330
1F
100
AcDbEntity
  8
001
370
    50
100
AcDb2dPolyline
 66
     1
 10
0.0
 20
0.0
 30
0.0
  0
VERTEX
  5
4BB
330
4B9
100
AcDbEntity
  8
001
370
    50
100
AcDbVertex
100
AcDb2dVertex
 10
117.431087
 20
74.38932
 30
0.0
  0
VERTEX
  5
4BC
330
4B9
100
AcDbEntity
  8
001
370
    50
100
AcDbVertex
100
AcDb2dVertex
 10
117.388001
 20
74.340442
 30
0.0
  0
VERTEX
  5
4BD
330
4B9
100
AcDbEntity
  8
001
370
    50
100
AcDbVertex
100
AcDb2dVertex
 10
117.333471
 20
74.26931
 30
0.0
  0
VERTEX
  5
4BE
330
4B9
100
AcDbEntity
  8
001
370
    50
100
AcDbVertex
100
AcDb2dVertex
 10
117.291468
 20
74.200205
 30
0.0
  0
VERTEX
  5
4BF
330
4B9
100
AcDbEntity
  8
001
370
    50
100
AcDbVertex
100
AcDb2dVertex
 10
117.260788
 20
74.13227
 30
0.0
  0
VERTEX
  5
4C0
330
4B9
100
AcDbEntity
  8
001
370
    50
100
AcDbVertex
100
AcDb2dVertex
 10
117.235317
 20
74.0596
 30
0.0
  0
VERTEX
  5
4C1
330
4B9
100
AcDbEntity
  8
001
370
    50
100
AcDbVertex
100
AcDb2dVertex
 10
117.215831
 20
73.983463
 30
0.0
  0
VERTEX
  5
4C2
330
4B9
100
AcDbEntity
  8
001
370
    50
100
AcDbVertex
100
AcDb2dVertex
 10
117.204211
 20
73.906196
 30
0.0
  0
VERTEX
  5
4C3
330
4B9
100
AcDbEntity
  8
001
370
    50
100
AcDbVertex
100
AcDb2dVertex
 10
117.200327
 20
73.82861
 30
0.0
  0
VERTEX
  5
4C4
330
4B9
100
AcDbEntity
  8
001
370
    50
100
AcDbVertex
100
AcDb2dVertex
 10
117.203731
 20
73.751
 30
0.0
  0
VERTEX
  5
4C5
330
4B9
100
AcDbEntity
  8
001
370
    50
100
AcDbVertex
100
AcDb2dVertex
 10
117.214872
 20
73.673661
 30
0.0
  0
VERTEX
  5
4C6
330
4B9
100
AcDbEntity
  8
001
370
    50
100
AcDbVertex
100
AcDb2dVertex
 10
117.233887
 20
73.597401
 30
0.0
  0
VERTEX
  5
4C7
330
4B9
100
AcDbEntity
  8
001
370
    50
100
AcDbVertex
100
AcDb2dVertex
 10
117.258908
 20
73.524571
 30
0.0
  0
VERTEX
  5
4C8
330
4B9
100
AcDbEntity
  8
001
370
    50
100
AcDbVertex
100
AcDb2dVertex
 10
117.289167
 20
73.456441
 30
0.0
  0
VERTEX
  5
4C9
330
4B9
100
AcDbEntity
  8
001
370
    50
100
AcDbVertex
100
AcDb2dVertex
 10
117.330742
 20
73.387069
 30
0.0
  0
VERTEX
  5
4CA
330
4B9
100
AcDbEntity
  8
001
370
    50
100
AcDbVertex
100
AcDb2dVertex
 10
117.384831
 20
73.315591
 30
0.0
  0
VERTEX
  5
4CB
330
4B9
100
AcDbEntity
  8
001
370
    50
100
AcDbVertex
100
AcDb2dVertex
 10
117.427613
 20
73.26644
 30
0.0
  0
SEQEND
  5
4BA
330
4B9
100
AcDbEntity
  8
001
370
    50
  0
LINE
  5
4CC
330
1F
100
AcDbEntity
  8
001
370
    50
100
AcDbLine
 10
118.96387
 20
75.935999
 30
0.0
 11
117.431087
 21
74.38932
 31
0.0
  0
LINE
  5
4CD
330
1F
100
AcDbEntity
  8
001
370
    50
100
AcDbLine
 10
118.96387
 20
75.935999
 30
0.0
 11
118.993667
 21
77.540987
 31
0.0
  0
LINE
  5
4CE
330
1F
100
AcDbEntity
  8
001
370
    50
100
AcDbLine
 10
121.561259
 20
80.131859
 30
0.0
 11
118.993667
 21
77.540987
 31
0.0
  0
POLYLINE
  5
4CF
330
1F
100
AcDbEntity
  8
001
370
    50
100
AcDb2dPolyline
 66
     1
 10
0.0
 20
0.0
 30
0.0
  0
VERTEX
  5
4D1
330
4CF
100
AcDbEntity
  8
001
370
    50
100
AcDbVertex
100
AcDb2dVertex
 10
122.66708
 20
80.128331
 30
0.0
  0
VERTEX
  5
4D2
330
4CF
100
AcDbEntity
  8
001
370
    50
100
AcDbVertex
100
AcDb2dVertex
 10
122.624585
 20
80.167469
 30
0.0
  0
VERTEX
  5
4D3
330
4CF
100
AcDbEntity
  8
001
370
    50
100
AcDbVertex
100
AcDb2dVertex
 10
122.562944
 20
80.217627
 30
0.0
  0
VERTEX
  5
4D4
330
4CF
100
AcDbEntity
  8
001
370
    50
100
AcDbVertex
100
AcDb2dVertex
 10
122.503527
 20
80.257086
 30
0.0
  0
VERTEX
  5
4D5
330
4CF
100
AcDbEntity
  8
001
370
    50
100
AcDbVertex
100
AcDb2dVertex
 10
122.445118
 20
80.287205
 30
0.0
  0
VERTEX
  5
4D6
330
4CF
100
AcDbEntity
  8
001
370
    50
100
AcDbVertex
100
AcDb2dVertex
 10
122.382746
 20
80.313343
 30
0.0
  0
VERTEX
  5
4D7
330
4CF
100
AcDbEntity
  8
001
370
    50
100
AcDbVertex
100
AcDb2dVertex
 10
122.317185
 20
80.33495
 30
0.0
  0
VERTEX
  5
4D8
330
4CF
100
AcDbEntity
  8
001
370
    50
100
AcDbVertex
100
AcDb2dVertex
 10
122.250514
 20
80.350309
 30
0.0
  0
VERTEX
  5
4D9
330
4CF
100
AcDbEntity
  8
001
370
    50
100
AcDbVertex
100
AcDb2dVertex
 10
122.18303
 20
80.359412
 30
0.0
  0
VERTEX
  5
4DA
330
4CF
100
AcDbEntity
  8
001
370
    50
100
AcDbVertex
100
AcDb2dVertex
 10
122.114889
 20
80.362569
 30
0.0
  0
VERTEX
  5
4DB
330
4CF
100
AcDbEntity
  8
001
370
    50
100
AcDbVertex
100
AcDb2dVertex
 10
122.04673
 20
80.359847
 30
0.0
  0
VERTEX
  5
4DC
330
4CF
100
AcDbEntity
  8
001
370
    50
100
AcDbVertex
100
AcDb2dVertex
 10
121.979192
 20
80.351175
 30
0.0
  0
VERTEX
  5
4DD
330
4CF
100
AcDbEntity
  8
001
370
    50
100
AcDbVertex
100
AcDb2dVertex
 10
121.912426
 20
80.336242
 30
0.0
  0
VERTEX
  5
4DE
330
4CF
100
AcDbEntity
  8
001
370
    50
100
AcDbVertex
100
AcDb2dVertex
 10
121.846733
 20
80.315053
 30
0.0
  0
VERTEX
  5
4DF
330
4CF
100
AcDbEntity
  8
001
370
    50
100
AcDbVertex
100
AcDb2dVertex
 10
121.7842
 20
80.289314
 30
0.0
  0
VERTEX
  5
4E0
330
4CF
100
AcDbEntity
  8
001
370
    50
100
AcDbVertex
100
AcDb2dVertex
 10
121.725607
 20
80.259568
 30
0.0
  0
VERTEX
  5
4E1
330
4CF
100
AcDbEntity
  8
001
370
    50
100
AcDbVertex
100
AcDb2dVertex
 10
121.665946
 20
80.220489
 30
0.0
  0
VERTEX
  5
4E2
330
4CF
100
AcDbEntity
  8
001
370
    50
100
AcDbVertex
100
AcDb2dVertex
 10
121.603995
 20
80.170725
 30
0.0
  0
VERTEX
  5
4E3
330
4CF
100
AcDbEntity
  8
001
370
    50
100
AcDbVertex
100
AcDb2dVertex
 10
121.561259
 20
80.131859
 30
0.0
  0
SEQEND
  5
4D0
330
4CF
100
AcDbEntity
  8
001
370
    50
  0
LINE
  5
4E4
330
1F
100
AcDbEntity
  8
001
370
    50
100
AcDbLine
 10
124.192958
 20
78.569148
 30
0.0
 11
122.66708
 21
80.128331
 31
0.0
  0
LINE
  5
4E5
330
1F
100
AcDbEntity
  8
001
370
    50
100
AcDbLine
 10
125.629665
 20
78.541646
 30
0.0
 11
124.192958
 21
78.569148
 31
0.0
  0
LINE
  5
4E6
330
1F
100
AcDbEntity
  8
001
370
    50
100
AcDbLine
 10
128.181175
 20
75.934444
 30
0.0
 11
125.629665
 21
78.541646
 31
0.0
  0
POLYLINE
  5
4E7
330
1F
100
AcDbEntity
  8
001
370
    50
100
AcDb2dPolyline
 66
     1
 10
0.0
 20
0.0
 30
0.0
  0
VERTEX
  5
4E9
330
4E7
100
AcDbEntity
  8
001
370
    50
100
AcDbVertex
100
AcDb2dVertex
 10
128.177701
 20
74.811564
 30
0.0
  0
VERTEX
  5
4EA
330
4E7
100
AcDbEntity
  8
001
370
    50
100
AcDbVertex
100
AcDb2dVertex
 10
128.216278
 20
74.854759
 30
0.0
  0
VERTEX
  5
4EB
330
4E7
100
AcDbEntity
  8
001
370
    50
100
AcDbVertex
100
AcDb2dVertex
 10
128.265641
 20
74.917307
 30
0.0
  0
VERTEX
  5
4EC
330
4E7
100
AcDbEntity
  8
001
370
    50
100
AcDbVertex
100
AcDb2dVertex
 10
128.304561
 20
74.977732
 30
0.0
  0
VERTEX
  5
4ED
330
4E7
100
AcDbEntity
  8
001
370
    50
100
AcDbVertex
100
AcDb2dVertex
 10
128.334162
 20
75.03695
 30
0.0
  0
VERTEX
  5
4EE
330
4E7
100
AcDbEntity
  8
001
370
    50
100
AcDbVertex
100
AcDb2dVertex
 10
128.359914
 20
75.100331
 30
0.0
  0
VERTEX
  5
4EF
330
4E7
100
AcDbEntity
  8
001
370
    50
100
AcDbVertex
100
AcDb2dVertex
 10
128.381182
 20
75.166857
 30
0.0
  0
VERTEX
  5
4F0
330
4E7
100
AcDbEntity
  8
001
370
    50
100
AcDbVertex
100
AcDb2dVertex
 10
128.396316
 20
75.234591
 30
0.0
  0
VERTEX
  5
4F1
330
4E7
100
AcDbEntity
  8
001
370
    50
100
AcDbVertex
100
AcDb2dVertex
 10
128.405271
 20
75.303082
 30
0.0
  0
VERTEX
  5
4F2
330
4E7
100
AcDbEntity
  8
001
370
    50
100
AcDbVertex
100
AcDb2dVertex
 10
128.40838
 20
75.372274
 30
0.0
  0
VERTEX
  5
4F3
330
4E7
100
AcDbEntity
  8
001
370
    50
100
AcDbVertex
100
AcDb2dVertex
 10
128.4057
 20
75.441484
 30
0.0
  0
VERTEX
  5
4F4
330
4E7
100
AcDbEntity
  8
001
370
    50
100
AcDbVertex
100
AcDb2dVertex
 10
128.397168
 20
75.510031
 30
0.0
  0
VERTEX
  5
4F5
330
4E7
100
AcDbEntity
  8
001
370
    50
100
AcDbVertex
100
AcDb2dVertex
 10
128.382453
 20
75.57786
 30
0.0
  0
VERTEX
  5
4F6
330
4E7
100
AcDbEntity
  8
001
370
    50
100
AcDbVertex
100
AcDb2dVertex
 10
128.361598
 20
75.64452
 30
0.0
  0
VERTEX
  5
4F7
330
4E7
100
AcDbEntity
  8
001
370
    50
100
AcDbVertex
100
AcDb2dVertex
 10
128.336238
 20
75.708064
 30
0.0
  0
VERTEX
  5
4F8
330
4E7
100
AcDbEntity
  8
001
370
    50
100
AcDbVertex
100
AcDb2dVertex
 10
128.307005
 20
75.76747
 30
0.0
  0
VERTEX
  5
4F9
330
4E7
100
AcDbEntity
  8
001
370
    50
100
AcDbVertex
100
AcDb2dVertex
 10
128.268459
 20
75.828142
 30
0.0
  0
VERTEX
  5
4FA
330
4E7
100
AcDbEntity
  8
001
370
    50
100
AcDbVertex
100
AcDb2dVertex
 10
128.219484
 20
75.891004
 30
0.0
  0
VERTEX
  5
4FB
330
4E7
100
AcDbEntity
  8
001
370
    50
100
AcDbVertex
100
AcDb2dVertex
 10
128.181175
 20
75.934444
 30
0.0
  0
SEQEND
  5
4E8
330
4E7
100
AcDbEntity
  8
001
370
    50
  0
LINE
  5
4FC
330
1F
100
AcDbEntity
  8
001
370
    50
100
AcDbLine
 10
126.642206
 20
73.262147
 30
0.0
 11
128.177701
 21
74.811564
 31
0.0
  0
LINE
  5
4FD
330
1F
100
AcDbEntity
  8
001
370
    50
100
AcDbLine
 10
126.615121
 20
71.803277
 30
0.0
 11
126.642206
 21
73.262147
 31
0.0
  0
LINE
  5
4FE
330
1F
100
AcDbEntity
  8
001
370
    50
100
AcDbLine
 10
124.042718
 20
69.207551
 30
0.0
 11
126.615121
 21
71.803277
 31
0.0
  0
LINE
  5
4FF
330
1F
100
AcDbEntity
  8
001
370
    50
100
AcDbLine
 10
122.946541
 20
69.210994
 30
0.0
 11
121.425943
 21
70.764782
 31
0.0
  0
POLYLINE
  5
500
330
1F
100
AcDbEntity
  8
001
370
    50
100
AcDb2dPolyline
 66
     1
 10
0.0
 20
0.0
 30
0.0
  0
VERTEX
  5
502
330
500
100
AcDbEntity
  8
001
370
    50
100
AcDbVertex
100
AcDb2dVertex
 10
119.849971
 20
74.672132
 30
0.0
  0
VERTEX
  5
503
330
500
100
AcDbEntity
  8
001
370
    50
100
AcDbVertex
100
AcDb2dVertex
 10
119.8642
 20
74.424861
 30
0.0
  0
VERTEX
  5
504
330
500
100
AcDbEntity
  8
001
370
    50
100
AcDbVertex
100
AcDb2dVertex
 10
119.906739
 20
74.086861
 30
0.0
  0
VERTEX
  5
505
330
500
100
AcDbEntity
  8
001
370
    50
100
AcDbVertex
100
AcDb2dVertex
 10
119.97718
 20
73.788896
 30
0.0
  0
VERTEX
  5
506
330
500
100
AcDbEntity
  8
001
370
    50
100
AcDbVertex
100
AcDb2dVertex
 10
120.074863
 20
73.524082
 30
0.0
  0
VERTEX
  5
507
330
500
100
AcDbEntity
  8
001
370
    50
100
AcDbVertex
100
AcDb2dVertex
 10
120.198686
 20
73.261446
 30
0.0
  0
VERTEX
  5
508
330
500
100
AcDbEntity
  8
001
370
    50
100
AcDbVertex
100
AcDb2dVertex
 10
120.347881
 20
73.005421
 30
0.0
  0
VERTEX
  5
509
330
500
100
AcDbEntity
  8
001
370
    50
100
AcDbVertex
100
AcDb2dVertex
 10
120.520709
 20
72.768235
 30
0.0
  0
VERTEX
  5
50A
330
500
100
AcDbEntity
  8
001
370
    50
100
AcDbVertex
100
AcDb2dVertex
 10
120.715301
 20
72.550812
 30
0.0
  0
VERTEX
  5
50B
330
500
100
AcDbEntity
  8
001
370
    50
100
AcDbVertex
100
AcDb2dVertex
 10
120.929076
 20
72.353485
 30
0.0
  0
VERTEX
  5
50C
330
500
100
AcDbEntity
  8
001
370
    50
100
AcDbVertex
100
AcDb2dVertex
 10
121.163004
 20
72.177723
 30
0.0
  0
VERTEX
  5
50D
330
500
100
AcDbEntity
  8
001
370
    50
100
AcDbVertex
100
AcDb2dVertex
 10
121.414858
 20
72.026403
 30
0.0
  0
VERTEX
  5
50E
330
500
100
AcDbEntity
  8
001
370
    50
100
AcDbVertex
100
AcDb2dVertex
 10
121.673785
 20
71.900493
 30
0.0
  0
VERTEX
  5
50F
330
500
100
AcDbEntity
  8
001
370
    50
100
AcDbVertex
100
AcDb2dVertex
 10
121.934292
 20
71.801376
 30
0.0
  0
VERTEX
  5
510
330
500
100
AcDbEntity
  8
001
370
    50
100
AcDbVertex
100
AcDb2dVertex
 10
122.228015
 20
71.729776
 30
0.0
  0
VERTEX
  5
511
330
500
100
AcDbEntity
  8
001
370
    50
100
AcDbVertex
100
AcDb2dVertex
 10
122.56083
 20
71.686592
 30
0.0
  0
VERTEX
  5
512
330
500
100
AcDbEntity
  8
001
370
    50
100
AcDbVertex
100
AcDb2dVertex
 10
122.804394
 20
71.672132
 30
0.0
  0
SEQEND
  5
501
330
500
100
AcDbEntity
  8
001
370
    50
  0
POLYLINE
  5
513
330
1F
100
AcDbEntity
  8
001
370
    50
100
AcDb2dPolyline
 66
     1
 10
0.0
 20
0.0
 30
0.0
  0
VERTEX
  5
515
330
513
100
AcDbEntity
  8
001
370
    50
100
AcDbVertex
100
AcDb2dVertex
 10
122.804394
 20
71.672132
 30
0.0
  0
VERTEX
  5
516
330
513
100
AcDbEntity
  8
001
370
    50
100
AcDbVertex
100
AcDb2dVertex
 10
123.020992
 20
71.683559
 30
0.0
  0
VERTEX
  5
517
330
513
100
AcDbEntity
  8
001
370
    50
100
AcDbVertex
100
AcDb2dVertex
 10
123.317424
 20
71.717709
 30
0.0
  0
VERTEX
  5
518
330
513
100
AcDbEntity
  8
001
370
    50
100
AcDbVertex
100
AcDb2dVertex
 10
123.58012
 20
71.774385
 30
0.0
  0
VERTEX
  5
519
330
513
100
AcDbEntity
  8
001
370
    50
100
AcDbVertex
100
AcDb2dVertex
 10
123.814866
 20
71.853054
 30
0.0
  0
VERTEX
  5
51A
330
513
100
AcDbEntity
  8
001
370
    50
100
AcDbVertex
100
AcDb2dVertex
 10
124.050153
 20
71.953273
 30
0.0
  0
VERTEX
  5
51B
330
513
100
AcDbEntity
  8
001
370
    50
100
AcDbVertex
100
AcDb2dVertex
 10
124.281606
 20
72.074056
 30
0.0
  0
VERTEX
  5
51C
330
513
100
AcDbEntity
  8
001
370
    50
100
AcDbVertex
100
AcDb2dVertex
 10
124.499903
 20
72.214776
 30
0.0
  0
VERTEX
  5
51D
330
513
100
AcDbEntity
  8
001
370
    50
100
AcDbVertex
100
AcDb2dVertex
 10
124.703461
 20
72.373999
 30
0.0
  0
VERTEX
  5
51E
330
513
100
AcDbEntity
  8
001
370
    50
100
AcDbVertex
100
AcDb2dVertex
 10
124.893389
 20
72.55094
 30
0.0
  0
VERTEX
  5
51F
330
513
100
AcDbEntity
  8
001
370
    50
100
AcDbVertex
100
AcDb2dVertex
 10
125.067614
 20
72.743769
 30
0.0
  0
VERTEX
  5
520
330
513
100
AcDbEntity
  8
001
370
    50
100
AcDbVertex
100
AcDb2dVertex
 10
125.22466
 20
72.95154
 30
0.0
  0
VERTEX
  5
521
330
513
100
AcDbEntity
  8
001
370
    50
100
AcDbVertex
100
AcDb2dVertex
 10
125.363
 20
73.172132
 30
0.0
  0
VERTEX
  5
522
330
513
100
AcDbEntity
  8
001
370
    50
100
AcDbVertex
100
AcDb2dVertex
 10
125.482044
 20
73.4044
 30
0.0
  0
VERTEX
  5
523
330
513
100
AcDbEntity
  8
001
370
    50
100
AcDbVertex
100
AcDb2dVertex
 10
125.580644
 20
73.646071
 30
0.0
  0
VERTEX
  5
524
330
513
100
AcDbEntity
  8
001
370
    50
100
AcDbVertex
100
AcDb2dVertex
 10
125.658168
 20
73.895759
 30
0.0
  0
VERTEX
  5
525
330
513
100
AcDbEntity
  8
001
370
    50
100
AcDbVertex
100
AcDb2dVertex
 10
125.713933
 20
74.151187
 30
0.0
  0
VERTEX
  5
526
330
513
100
AcDbEntity
  8
001
370
    50
100
AcDbVertex
100
AcDb2dVertex
 10
125.74757
 20
74.410695
 30
0.0
  0
VERTEX
  5
527
330
513
100
AcDbEntity
  8
001
370
    50
100
AcDbVertex
100
AcDb2dVertex
 10
125.758817
 20
74.672132
 30
0.0
  0
VERTEX
  5
528
330
513
100
AcDbEntity
  8
001
370
    50
100
AcDbVertex
100
AcDb2dVertex
 10
125.74757
 20
74.933569
 30
0.0
  0
VERTEX
  5
529
330
513
100
AcDbEntity
  8
001
370
    50
100
AcDbVertex
100
AcDb2dVertex
 10
125.713933
 20
75.193076
 30
0.0
  0
VERTEX
  5
52A
330
513
100
AcDbEntity
  8
001
370
    50
100
AcDbVertex
100
AcDb2dVertex
 10
125.658168
 20
75.448504
 30
0.0
  0
VERTEX
  5
52B
330
513
100
AcDbEntity
  8
001
370
    50
100
AcDbVertex
100
AcDb2dVertex
 10
125.580644
 20
75.698192
 30
0.0
  0
VERTEX
  5
52C
330
513
100
AcDbEntity
  8
001
370
    50
100
AcDbVertex
100
AcDb2dVertex
 10
125.482044
 20
75.939864
 30
0.0
  0
VERTEX
  5
52D
330
513
100
AcDbEntity
  8
001
370
    50
100
AcDbVertex
100
AcDb2dVertex
 10
125.363
 20
76.172132
 30
0.0
  0
VERTEX
  5
52E
330
513
100
AcDbEntity
  8
001
370
    50
100
AcDbVertex
100
AcDb2dVertex
 10
125.22466
 20
76.392724
 30
0.0
  0
VERTEX
  5
52F
330
513
100
AcDbEntity
  8
001
370
    50
100
AcDbVertex
100
AcDb2dVertex
 10
125.067614
 20
76.600495
 30
0.0
  0
VERTEX
  5
530
330
513
100
AcDbEntity
  8
001
370
    50
100
AcDbVertex
100
AcDb2dVertex
 10
124.893389
 20
76.793324
 30
0.0
  0
VERTEX
  5
531
330
513
100
AcDbEntity
  8
001
370
    50
100
AcDbVertex
100
AcDb2dVertex
 10
124.703461
 20
76.970265
 30
0.0
  0
VERTEX
  5
532
330
513
100
AcDbEntity
  8
001
370
    50
100
AcDbVertex
100
AcDb2dVertex
 10
124.499903
 20
77.129487
 30
0.0
  0
VERTEX
  5
533
330
513
100
AcDbEntity
  8
001
370
    50
100
AcDbVertex
100
AcDb2dVertex
 10
124.281606
 20
77.270208
 30
0.0
  0
VERTEX
  5
534
330
513
100
AcDbEntity
  8
001
370
    50
100
AcDbVertex
100
AcDb2dVertex
 10
124.050153
 20
77.390991
 30
0.0
  0
VERTEX
  5
535
330
513
100
AcDbEntity
  8
001
370
    50
100
AcDbVertex
100
AcDb2dVertex
 10
123.814866
 20
77.49121
 30
0.0
  0
VERTEX
  5
536
330
513
100
AcDbEntity
  8
001
370
    50
100
AcDbVertex
100
AcDb2dVertex
 10
123.58012
 20
77.569879
 30
0.0
  0
VERTEX
  5
537
330
513
100
AcDbEntity
  8
001
370
    50
100
AcDbVertex
100
AcDb2dVertex
 10
123.317424
 20
77.626555
 30
0.0
  0
VERTEX
  5
538
330
513
100
AcDbEntity
  8
001
370
    50
100
AcDbVertex
100
AcDb2dVertex
 10
123.020992
 20
77.660705
 30
0.0
  0
VERTEX
  5
539
330
513
100
AcDbEntity
  8
001
370
    50
100
AcDbVertex
100
AcDb2dVertex
 10
122.804394
 20
77.672132
 30
0.0
  0
SEQEND
  5
514
330
513
100
AcDbEntity
  8
001
370
    50
  0
POLYLINE
  5
53A
330
1F
100
AcDbEntity
  8
001
370
    50
100
AcDb2dPolyline
 66
     1
 10
0.0
 20
0.0
 30
0.0
  0
VERTEX
  5
53C
330
53A
100
AcDbEntity
  8
001
370
    50
100
AcDbVertex
100
AcDb2dVertex
 10
128.813909
 20
70.263933
 30
0.0
  0
VERTEX
  5
53D
330
53A
100
AcDbEntity
  8
001
370
    50
100
AcDbVertex
100
AcDb2dVertex
 10
128.895604
 20
70.218044
 30
0.0
  0
VERTEX
  5
53E
330
53A
100
AcDbEntity
  8
001
370
    50
100
AcDbVertex
100
AcDb2dVertex
 10
129.016609
 20
70.154009
 30
0.0
  0
VERTEX
  5
53F
330
53A
100
AcDbEntity
  8
001
370
    50
100
AcDbVertex
100
AcDb2dVertex
 10
129.137242
 20
70.095505
 30
0.0
  0
VERTEX
  5
540
330
53A
100
AcDbEntity
  8
001
370
    50
100
AcDbVertex
100
AcDb2dVertex
 10
129.220797
 20
70.057577
 30
0.0
  0
SEQEND
  5
53B
330
53A
100
AcDbEntity
  8
001
370
    50
  0
LINE
  5
541
330
1F
100
AcDbEntity
  8
001
370
    50
100
AcDbLine
 10
129.571477
 20
70.084264
 30
0.0
 11
129.220797
 21
70.057577
 31
0.0
  0
LINE
  5
542
330
1F
100
AcDbEntity
  8
001
370
    50
100
AcDbLine
 10
130.213477
 20
70.139252
 30
0.0
 11
129.571477
 21
70.084264
 31
0.0
  0
POLYLINE
  5
543
330
1F
100
AcDbEntity
  8
001
370
    50
100
AcDb2dPolyline
 66
     1
 10
0.0
 20
0.0
 30
0.0
  0
VERTEX
  5
545
330
543
100
AcDbEntity
  8
001
370
    50
100
AcDbVertex
100
AcDb2dVertex
 10
116.732933
 20
73.857292
 30
0.0
  0
VERTEX
  5
546
330
543
100
AcDbEntity
  8
001
370
    50
100
AcDbVertex
100
AcDb2dVertex
 10
116.750955
 20
73.807696
 30
0.0
  0
VERTEX
  5
547
330
543
100
AcDbEntity
  8
001
370
    50
100
AcDbVertex
100
AcDb2dVertex
 10
116.795121
 20
73.75047
 30
0.0
  0
VERTEX
  5
548
330
543
100
AcDbEntity
  8
001
370
    50
100
AcDbVertex
100
AcDb2dVertex
 10
116.868337
 20
73.720064
 30
0.0
  0
VERTEX
  5
549
330
543
100
AcDbEntity
  8
001
370
    50
100
AcDbVertex
100
AcDb2dVertex
 10
116.926551
 20
73.714782
 30
0.0
  0
SEQEND
  5
544
330
543
100
AcDbEntity
  8
001
370
    50
  0
POLYLINE
  5
54A
330
1F
100
AcDbEntity
  8
001
370
    50
100
AcDb2dPolyline
 66
     1
 10
0.0
 20
0.0
 30
0.0
  0
VERTEX
  5
54C
330
54A
100
AcDbEntity
  8
001
370
    50
100
AcDbVertex
100
AcDb2dVertex
 10
118.146303
 20
76.234151
 30
0.0
  0
VERTEX
  5
54D
330
54A
100
AcDbEntity
  8
001
370
    50
100
AcDbVertex
100
AcDb2dVertex
 10
118.114595
 20
76.095188
 30
0.0
  0
VERTEX
  5
54E
330
54A
100
AcDbEntity
  8
001
370
    50
100
AcDbVertex
100
AcDb2dVertex
 10
118.089217
 20
75.955323
 30
0.0
  0
VERTEX
  5
54F
330
54A
100
AcDbEntity
  8
001
370
    50
100
AcDbVertex
100
AcDb2dVertex
 10
118.074239
 20
75.811703
 30
0.0
  0
VERTEX
  5
550
330
54A
100
AcDbEntity
  8
001
370
    50
100
AcDbVertex
100
AcDb2dVertex
 10
118.065792
 20
75.667153
 30
0.0
  0
SEQEND
  5
54B
330
54A
100
AcDbEntity
  8
001
370
    50
  0
POLYLINE
  5
551
330
1F
100
AcDbEntity
  8
001
370
    50
100
AcDb2dPolyline
 66
     1
 10
0.0
 20
0.0
 30
0.0
  0
VERTEX
  5
553
330
551
100
AcDbEntity
  8
001
370
    50
100
AcDbVertex
100
AcDb2dVertex
 10
118.055438
 20
75.15754
 30
0.0
  0
VERTEX
  5
554
330
551
100
AcDbEntity
  8
001
370
    50
100
AcDbVertex
100
AcDb2dVertex
 10
118.057548
 20
75.260957
 30
0.0
  0
VERTEX
  5
555
330
551
100
AcDbEntity
  8
001
370
    50
100
AcDbVertex
100
AcDb2dVertex
 10
118.060625
 20
75.412106
 30
0.0
  0
VERTEX
  5
556
330
551
100
AcDbEntity
  8
001
370
    50
100
AcDbVertex
100
AcDb2dVertex
 10
118.063696
 20
75.56354
 30
0.0
  0
VERTEX
  5
557
330
551
100
AcDbEntity
  8
001
370
    50
100
AcDbVertex
100
AcDb2dVertex
 10
118.065792
 20
75.667153
 30
0.0
  0
SEQEND
  5
552
330
551
100
AcDbEntity
  8
001
370
    50
  0
POLYLINE
  5
558
330
1F
100
AcDbEntity
  8
001
370
    50
100
AcDb2dPolyline
 66
     1
 10
0.0
 20
0.0
 30
0.0
  0
VERTEX
  5
55A
330
558
100
AcDbEntity
  8
001
370
    50
100
AcDbVertex
100
AcDb2dVertex
 10
118.746219
 20
77.277742
 30
0.0
  0
VERTEX
  5
55B
330
558
100
AcDbEntity
  8
001
370
    50
100
AcDbVertex
100
AcDb2dVertex
 10
118.602796
 20
77.11244
 30
0.0
  0
VERTEX
  5
55C
330
558
100
AcDbEntity
  8
001
370
    50
100
AcDbVertex
100
AcDb2dVertex
 10
118.469115
 20
76.939693
 30
0.0
  0
VERTEX
  5
55D
330
558
100
AcDbEntity
  8
001
370
    50
100
AcDbVertex
100
AcDb2dVertex
 10
118.349718
 20
76.746907
 30
0.0
  0
VERTEX
  5
55E
330
558
100
AcDbEntity
  8
001
370
    50
100
AcDbVertex
100
AcDb2dVertex
 10
118.252675
 20
76.541862
 30
0.0
  0
VERTEX
  5
55F
330
558
100
AcDbEntity
  8
001
370
    50
100
AcDbVertex
100
AcDb2dVertex
 10
118.196415
 20
76.389109
 30
0.0
  0
VERTEX
  5
560
330
558
100
AcDbEntity
  8
001
370
    50
100
AcDbVertex
100
AcDb2dVertex
 10
118.146303
 20
76.234151
 30
0.0
  0
SEQEND
  5
559
330
558
100
AcDbEntity
  8
001
370
    50
  0
POLYLINE
  5
561
330
1F
100
AcDbEntity
  8
001
370
    50
100
AcDb2dPolyline
 66
     1
 10
0.0
 20
0.0
 30
0.0
  0
VERTEX
  5
563
330
561
100
AcDbEntity
  8
001
370
    50
100
AcDbVertex
100
AcDb2dVertex
 10
118.784619
 20
76.687011
 30
0.0
  0
VERTEX
  5
564
330
561
100
AcDbEntity
  8
001
370
    50
100
AcDbVertex
100
AcDb2dVertex
 10
118.704752
 20
76.596932
 30
0.0
  0
VERTEX
  5
565
330
561
100
AcDbEntity
  8
001
370
    50
100
AcDbVertex
100
AcDb2dVertex
 10
118.603454
 20
76.465175
 30
0.0
  0
VERTEX
  5
566
330
561
100
AcDbEntity
  8
001
370
    50
100
AcDbVertex
100
AcDb2dVertex
 10
118.525063
 20
76.336009
 30
0.0
  0
VERTEX
  5
567
330
561
100
AcDbEntity
  8
001
370
    50
100
AcDbVertex
100
AcDb2dVertex
 10
118.467411
 20
76.212252
 30
0.0
  0
VERTEX
  5
568
330
561
100
AcDbEntity
  8
001
370
    50
100
AcDbVertex
100
AcDb2dVertex
 10
118.419188
 20
76.084219
 30
0.0
  0
VERTEX
  5
569
330
561
100
AcDbEntity
  8
001
370
    50
100
AcDbVertex
100
AcDb2dVertex
 10
118.381513
 20
75.93758
 30
0.0
  0
VERTEX
  5
56A
330
561
100
AcDbEntity
  8
001
370
    50
100
AcDbVertex
100
AcDb2dVertex
 10
118.357784
 20
75.772088
 30
0.0
  0
VERTEX
  5
56B
330
561
100
AcDbEntity
  8
001
370
    50
100
AcDbVertex
100
AcDb2dVertex
 10
118.348929
 20
75.651297
 30
0.0
  0
SEQEND
  5
562
330
561
100
AcDbEntity
  8
001
370
    50
  0
POLYLINE
  5
56C
330
1F
100
AcDbEntity
  8
001
370
    50
100
AcDb2dPolyline
 66
     1
 10
0.0
 20
0.0
 30
0.0
  0
VERTEX
  5
56E
330
56C
100
AcDbEntity
  8
001
370
    50
100
AcDbVertex
100
AcDb2dVertex
 10
118.746219
 20
77.277742
 30
0.0
  0
VERTEX
  5
56F
330
56C
100
AcDbEntity
  8
001
370
    50
100
AcDbVertex
100
AcDb2dVertex
 10
118.763152
 20
77.294916
 30
0.0
  0
VERTEX
  5
570
330
56C
100
AcDbEntity
  8
001
370
    50
100
AcDbVertex
100
AcDb2dVertex
 10
118.787893
 20
77.320025
 30
0.0
  0
VERTEX
  5
571
330
56C
100
AcDbEntity
  8
001
370
    50
100
AcDbVertex
100
AcDb2dVertex
 10
118.812658
 20
77.34518
 30
0.0
  0
VERTEX
  5
572
330
56C
100
AcDbEntity
  8
001
370
    50
100
AcDbVertex
100
AcDb2dVertex
 10
118.829597
 20
77.362397
 30
0.0
  0
SEQEND
  5
56D
330
56C
100
AcDbEntity
  8
001
370
    50
  0
POLYLINE
  5
573
330
1F
100
AcDbEntity
  8
001
370
    50
100
AcDb2dPolyline
 66
     1
 10
0.0
 20
0.0
 30
0.0
  0
VERTEX
  5
575
330
573
100
AcDbEntity
  8
001
370
    50
100
AcDbVertex
100
AcDb2dVertex
 10
120.841821
 20
79.417145
 30
0.0
  0
VERTEX
  5
576
330
573
100
AcDbEntity
  8
001
370
    50
100
AcDbVertex
100
AcDb2dVertex
 10
120.852986
 20
79.428598
 30
0.0
  0
VERTEX
  5
577
330
573
100
AcDbEntity
  8
001
370
    50
100
AcDbVertex
100
AcDb2dVertex
 10
120.869299
 20
79.445342
 30
0.0
  0
VERTEX
  5
578
330
573
100
AcDbEntity
  8
001
370
    50
100
AcDbVertex
100
AcDb2dVertex
 10
120.885623
 20
79.462106
 30
0.0
  0
VERTEX
  5
579
330
573
100
AcDbEntity
  8
001
370
    50
100
AcDbVertex
100
AcDb2dVertex
 10
120.89679
 20
79.473578
 30
0.0
  0
SEQEND
  5
574
330
573
100
AcDbEntity
  8
001
370
    50
  0
POLYLINE
  5
57A
330
1F
100
AcDbEntity
  8
001
370
    50
100
AcDb2dPolyline
 66
     1
 10
0.0
 20
0.0
 30
0.0
  0
VERTEX
  5
57C
330
57A
100
AcDbEntity
  8
001
370
    50
100
AcDbVertex
100
AcDb2dVertex
 10
121.573382
 20
81.358893
 30
0.0
  0
VERTEX
  5
57D
330
57A
100
AcDbEntity
  8
001
370
    50
100
AcDbVertex
100
AcDb2dVertex
 10
121.497085
 20
81.289063
 30
0.0
  0
VERTEX
  5
57E
330
57A
100
AcDbEntity
  8
001
370
    50
100
AcDbVertex
100
AcDb2dVertex
 10
121.423081
 20
81.216936
 30
0.0
  0
VERTEX
  5
57F
330
57A
100
AcDbEntity
  8
001
370
    50
100
AcDbVertex
100
AcDb2dVertex
 10
121.310556
 20
81.089297
 30
0.0
  0
VERTEX
  5
580
330
57A
100
AcDbEntity
  8
001
370
    50
100
AcDbVertex
100
AcDb2dVertex
 10
121.209894
 20
80.951777
 30
0.0
  0
VERTEX
  5
581
330
57A
100
AcDbEntity
  8
001
370
    50
100
AcDbVertex
100
AcDb2dVertex
 10
121.120818
 20
80.8066
 30
0.0
  0
VERTEX
  5
582
330
57A
100
AcDbEntity
  8
001
370
    50
100
AcDbVertex
100
AcDb2dVertex
 10
121.044155
 20
80.654647
 30
0.0
  0
VERTEX
  5
583
330
57A
100
AcDbEntity
  8
001
370
    50
100
AcDbVertex
100
AcDb2dVertex
 10
120.981165
 20
80.497479
 30
0.0
  0
VERTEX
  5
584
330
57A
100
AcDbEntity
  8
001
370
    50
100
AcDbVertex
100
AcDb2dVertex
 10
120.931717
 20
80.335506
 30
0.0
  0
VERTEX
  5
585
330
57A
100
AcDbEntity
  8
001
370
    50
100
AcDbVertex
100
AcDb2dVertex
 10
120.895957
 20
80.17016
 30
0.0
  0
VERTEX
  5
586
330
57A
100
AcDbEntity
  8
001
370
    50
100
AcDbVertex
100
AcDb2dVertex
 10
120.873785
 20
80.002401
 30
0.0
  0
VERTEX
  5
587
330
57A
100
AcDbEntity
  8
001
370
    50
100
AcDbVertex
100
AcDb2dVertex
 10
120.86606
 20
79.869728
 30
0.0
  0
VERTEX
  5
588
330
57A
100
AcDbEntity
  8
001
370
    50
100
AcDbVertex
100
AcDb2dVertex
 10
120.867962
 20
79.737019
 30
0.0
  0
VERTEX
  5
589
330
57A
100
AcDbEntity
  8
001
370
    50
100
AcDbVertex
100
AcDb2dVertex
 10
120.879649
 20
79.605105
 30
0.0
  0
VERTEX
  5
58A
330
57A
100
AcDbEntity
  8
001
370
    50
100
AcDbVertex
100
AcDb2dVertex
 10
120.89679
 20
79.473578
 30
0.0
  0
SEQEND
  5
57B
330
57A
100
AcDbEntity
  8
001
370
    50
  0
POLYLINE
  5
58B
330
1F
100
AcDbEntity
  8
001
370
    50
100
AcDb2dPolyline
 66
     1
 10
0.0
 20
0.0
 30
0.0
  0
VERTEX
  5
58D
330
58B
100
AcDbEntity
  8
001
370
    50
100
AcDbVertex
100
AcDb2dVertex
 10
122.23436
 20
81.738633
 30
0.0
  0
VERTEX
  5
58E
330
58B
100
AcDbEntity
  8
001
370
    50
100
AcDbVertex
100
AcDb2dVertex
 10
122.07913
 20
81.675121
 30
0.0
  0
VERTEX
  5
58F
330
58B
100
AcDbEntity
  8
001
370
    50
100
AcDbVertex
100
AcDb2dVertex
 10
121.927754
 20
81.603692
 30
0.0
  0
VERTEX
  5
590
330
58B
100
AcDbEntity
  8
001
370
    50
100
AcDbVertex
100
AcDb2dVertex
 10
121.83457
 20
81.550592
 30
0.0
  0
VERTEX
  5
591
330
58B
100
AcDbEntity
  8
001
370
    50
100
AcDbVertex
100
AcDb2dVertex
 10
121.74501
 20
81.491522
 30
0.0
  0
VERTEX
  5
592
330
58B
100
AcDbEntity
  8
001
370
    50
100
AcDbVertex
100
AcDb2dVertex
 10
121.658149
 20
81.426602
 30
0.0
  0
VERTEX
  5
593
330
58B
100
AcDbEntity
  8
001
370
    50
100
AcDbVertex
100
AcDb2dVertex
 10
121.573382
 20
81.358893
 30
0.0
  0
SEQEND
  5
58C
330
58B
100
AcDbEntity
  8
001
370
    50
  0
POLYLINE
  5
594
330
1F
100
AcDbEntity
  8
001
370
    50
100
AcDb2dPolyline
 66
     1
 10
0.0
 20
0.0
 30
0.0
  0
VERTEX
  5
596
330
594
100
AcDbEntity
  8
001
370
    50
100
AcDbVertex
100
AcDb2dVertex
 10
122.882635
 20
81.851566
 30
0.0
  0
VERTEX
  5
597
330
594
100
AcDbEntity
  8
001
370
    50
100
AcDbVertex
100
AcDb2dVertex
 10
122.705285
 20
81.840172
 30
0.0
  0
VERTEX
  5
598
330
594
100
AcDbEntity
  8
001
370
    50
100
AcDbVertex
100
AcDb2dVertex
 10
122.53
 20
81.817329
 30
0.0
  0
VERTEX
  5
599
330
594
100
AcDbEntity
  8
001
370
    50
100
AcDbVertex
100
AcDb2dVertex
 10
122.38141
 20
81.78225
 30
0.0
  0
VERTEX
  5
59A
330
594
100
AcDbEntity
  8
001
370
    50
100
AcDbVertex
100
AcDb2dVertex
 10
122.23436
 20
81.738633
 30
0.0
  0
SEQEND
  5
595
330
594
100
AcDbEntity
  8
001
370
    50
  0
POLYLINE
  5
59B
330
1F
100
AcDbEntity
  8
001
370
    50
100
AcDb2dPolyline
 66
     1
 10
0.0
 20
0.0
 30
0.0
  0
VERTEX
  5
59D
330
59B
100
AcDbEntity
  8
001
370
    50
100
AcDbVertex
100
AcDb2dVertex
 10
123.520707
 20
81.753755
 30
0.0
  0
VERTEX
  5
59E
330
59B
100
AcDbEntity
  8
001
370
    50
100
AcDbVertex
100
AcDb2dVertex
 10
123.388851
 20
81.790388
 30
0.0
  0
VERTEX
  5
59F
330
59B
100
AcDbEntity
  8
001
370
    50
100
AcDbVertex
100
AcDb2dVertex
 10
123.255814
 20
81.820153
 30
0.0
  0
VERTEX
  5
5A0
330
59B
100
AcDbEntity
  8
001
370
    50
100
AcDbVertex
100
AcDb2dVertex
 10
123.091466
 20
81.840916
 30
0.0
  0
VERTEX
  5
5A1
330
59B
100
AcDbEntity
  8
001
370
    50
100
AcDbVertex
100
AcDb2dVertex
 10
122.925374
 20
81.851531
 30
0.0
  0
SEQEND
  5
59C
330
59B
100
AcDbEntity
  8
001
370
    50
  0
LINE
  5
5A2
330
1F
100
AcDbEntity
  8
001
370
    50
100
AcDbLine
 10
122.925374
 20
81.851531
 30
0.0
 11
122.902232
 21
81.851664
 31
0.0
  0
POLYLINE
  5
5A3
330
1F
100
AcDbEntity
  8
001
370
    50
100
AcDb2dPolyline
 66
     1
 10
0.0
 20
0.0
 30
0.0
  0
VERTEX
  5
5A5
330
5A3
100
AcDbEntity
  8
001
370
    50
100
AcDbVertex
100
AcDb2dVertex
 10
124.146927
 20
81.411258
 30
0.0
  0
VERTEX
  5
5A6
330
5A3
100
AcDbEntity
  8
001
370
    50
100
AcDbVertex
100
AcDb2dVertex
 10
124.062615
 20
81.474776
 30
0.0
  0
VERTEX
  5
5A7
330
5A3
100
AcDbEntity
  8
001
370
    50
100
AcDbVertex
100
AcDb2dVertex
 10
123.976353
 20
81.535532
 30
0.0
  0
VERTEX
  5
5A8
330
5A3
100
AcDbEntity
  8
001
370
    50
100
AcDbVertex
100
AcDb2dVertex
 10
123.885555
 20
81.591743
 30
0.0
  0
VERTEX
  5
5A9
330
5A3
100
AcDbEntity
  8
001
370
    50
100
AcDbVertex
100
AcDb2dVertex
 10
123.791263
 20
81.641819
 30
0.0
  0
VERTEX
  5
5AA
330
5A3
100
AcDbEntity
  8
001
370
    50
100
AcDbVertex
100
AcDb2dVertex
 10
123.657394
 20
81.7009
 30
0.0
  0
VERTEX
  5
5AB
330
5A3
100
AcDbEntity
  8
001
370
    50
100
AcDbVertex
100
AcDb2dVertex
 10
123.520707
 20
81.753755
 30
0.0
  0
SEQEND
  5
5A4
330
5A3
100
AcDbEntity
  8
001
370
    50
  0
LINE
  5
5AC
330
1F
100
AcDbEntity
  8
001
370
    50
100
AcDbLine
 10
122.902232
 20
81.851664
 30
0.0
 11
122.882635
 21
81.851566
 31
0.0
  0
POLYLINE
  5
5AD
330
1F
100
AcDbEntity
  8
001
370
    50
100
AcDb2dPolyline
 66
     1
 10
0.0
 20
0.0
 30
0.0
  0
VERTEX
  5
5AF
330
5AD
100
AcDbEntity
  8
001
370
    50
100
AcDbVertex
100
AcDb2dVertex
 10
124.747871
 20
80.533688
 30
0.0
  0
VERTEX
  5
5B0
330
5AD
100
AcDbEntity
  8
001
370
    50
100
AcDbVertex
100
AcDb2dVertex
 10
124.716025
 20
80.619845
 30
0.0
  0
VERTEX
  5
5B1
330
5AD
100
AcDbEntity
  8
001
370
    50
100
AcDbVertex
100
AcDb2dVertex
 10
124.681734
 20
80.704969
 30
0.0
  0
VERTEX
  5
5B2
330
5AD
100
AcDbEntity
  8
001
370
    50
100
AcDbVertex
100
AcDb2dVertex
 10
124.609147
 20
80.852735
 30
0.0
  0
VERTEX
  5
5B3
330
5AD
100
AcDbEntity
  8
001
370
    50
100
AcDbVertex
100
AcDb2dVertex
 10
124.523409
 20
80.99369
 30
0.0
  0
VERTEX
  5
5B4
330
5AD
100
AcDbEntity
  8
001
370
    50
100
AcDbVertex
100
AcDb2dVertex
 10
124.423497
 20
81.131085
 30
0.0
  0
VERTEX
  5
5B5
330
5AD
100
AcDbEntity
  8
001
370
    50
100
AcDbVertex
100
AcDb2dVertex
 10
124.311469
 20
81.258281
 30
0.0
  0
VERTEX
  5
5B6
330
5AD
100
AcDbEntity
  8
001
370
    50
100
AcDbVertex
100
AcDb2dVertex
 10
124.230628
 20
81.336198
 30
0.0
  0
VERTEX
  5
5B7
330
5AD
100
AcDbEntity
  8
001
370
    50
100
AcDbVertex
100
AcDb2dVertex
 10
124.146927
 20
81.411258
 30
0.0
  0
SEQEND
  5
5AE
330
5AD
100
AcDbEntity
  8
001
370
    50
  0
POLYLINE
  5
5B8
330
1F
100
AcDbEntity
  8
001
370
    50
100
AcDb2dPolyline
 66
     1
 10
0.0
 20
0.0
 30
0.0
  0
VERTEX
  5
5BA
330
5B8
100
AcDbEntity
  8
001
370
    50
100
AcDbVertex
100
AcDb2dVertex
 10
124.807336
 20
79.523299
 30
0.0
  0
VERTEX
  5
5BB
330
5B8
100
AcDbEntity
  8
001
370
    50
100
AcDbVertex
100
AcDb2dVertex
 10
124.825749
 20
79.64159
 30
0.0
  0
VERTEX
  5
5BC
330
5B8
100
AcDbEntity
  8
001
370
    50
100
AcDbVertex
100
AcDb2dVertex
 10
124.839684
 20
79.760309
 30
0.0
  0
VERTEX
  5
5BD
330
5B8
100
AcDbEntity
  8
001
370
    50
100
AcDbVertex
100
AcDb2dVertex
 10
124.845661
 20
79.880985
 30
0.0
  0
VERTEX
  5
5BE
330
5B8
100
AcDbEntity
  8
001
370
    50
100
AcDbVertex
100
AcDb2dVertex
 10
124.843924
 20
80.001996
 30
0.0
  0
VERTEX
  5
5BF
330
5B8
100
AcDbEntity
  8
001
370
    50
100
AcDbVertex
100
AcDb2dVertex
 10
124.83404
 20
80.136193
 30
0.0
  0
VERTEX
  5
5C0
330
5B8
100
AcDbEntity
  8
001
370
    50
100
AcDbVertex
100
AcDb2dVertex
 10
124.814503
 20
80.26908
 30
0.0
  0
VERTEX
  5
5C1
330
5B8
100
AcDbEntity
  8
001
370
    50
100
AcDbVertex
100
AcDb2dVertex
 10
124.784163
 20
80.401993
 30
0.0
  0
VERTEX
  5
5C2
330
5B8
100
AcDbEntity
  8
001
370
    50
100
AcDbVertex
100
AcDb2dVertex
 10
124.747871
 20
80.533688
 30
0.0
  0
SEQEND
  5
5B9
330
5B8
100
AcDbEntity
  8
001
370
    50
  0
POLYLINE
  5
5C3
330
1F
100
AcDbEntity
  8
001
370
    50
100
AcDb2dPolyline
 66
     1
 10
0.0
 20
0.0
 30
0.0
  0
VERTEX
  5
5C5
330
5C3
100
AcDbEntity
  8
001
370
    50
100
AcDbVertex
100
AcDb2dVertex
 10
124.807336
 20
79.523299
 30
0.0
  0
VERTEX
  5
5C6
330
5C3
100
AcDbEntity
  8
001
370
    50
100
AcDbVertex
100
AcDb2dVertex
 10
124.911086
 20
79.407032
 30
0.0
  0
VERTEX
  5
5C7
330
5C3
100
AcDbEntity
  8
001
370
    50
100
AcDbVertex
100
AcDb2dVertex
 10
125.063151
 20
79.23749
 30
0.0
  0
VERTEX
  5
5C8
330
5C3
100
AcDbEntity
  8
001
370
    50
100
AcDbVertex
100
AcDb2dVertex
 10
125.214785
 20
79.069631
 30
0.0
  0
VERTEX
  5
5C9
330
5C3
100
AcDbEntity
  8
001
370
    50
100
AcDbVertex
100
AcDb2dVertex
 10
125.318828
 20
78.955046
 30
0.0
  0
SEQEND
  5
5C4
330
5C3
100
AcDbEntity
  8
001
370
    50
  0
POLYLINE
  5
5CA
330
1F
100
AcDbEntity
  8
001
370
    50
100
AcDb2dPolyline
 66
     1
 10
0.0
 20
0.0
 30
0.0
  0
VERTEX
  5
5CC
330
5CA
100
AcDbEntity
  8
001
370
    50
100
AcDbVertex
100
AcDb2dVertex
 10
125.318828
 20
78.955046
 30
0.0
  0
VERTEX
  5
5CD
330
5CA
100
AcDbEntity
  8
001
370
    50
100
AcDbVertex
100
AcDb2dVertex
 10
125.442992
 20
78.81258
 30
0.0
  0
VERTEX
  5
5CE
330
5CA
100
AcDbEntity
  8
001
370
    50
100
AcDbVertex
100
AcDb2dVertex
 10
125.625081
 20
78.604906
 30
0.0
  0
VERTEX
  5
5CF
330
5CA
100
AcDbEntity
  8
001
370
    50
100
AcDbVertex
100
AcDb2dVertex
 10
125.806654
 20
78.399553
 30
0.0
  0
VERTEX
  5
5D0
330
5CA
100
AcDbEntity
  8
001
370
    50
100
AcDbVertex
100
AcDb2dVertex
 10
125.931309
 20
78.259421
 30
0.0
  0
SEQEND
  5
5CB
330
5CA
100
AcDbEntity
  8
001
370
    50
  0
POLYLINE
  5
5D1
330
1F
100
AcDbEntity
  8
001
370
    50
100
AcDb2dPolyline
 66
     1
 10
0.0
 20
0.0
 30
0.0
  0
VERTEX
  5
5D3
330
5D1
100
AcDbEntity
  8
001
370
    50
100
AcDbVertex
100
AcDb2dVertex
 10
129.538638
 20
72.899048
 30
0.0
  0
VERTEX
  5
5D4
330
5D1
100
AcDbEntity
  8
001
370
    50
100
AcDbVertex
100
AcDb2dVertex
 10
129.471179
 20
72.324663
 30
0.0
  0
VERTEX
  5
5D5
330
5D1
100
AcDbEntity
  8
001
370
    50
100
AcDbVertex
100
AcDb2dVertex
 10
129.375313
 20
71.484866
 30
0.0
  0
VERTEX
  5
5D6
330
5D1
100
AcDbEntity
  8
001
370
    50
100
AcDbVertex
100
AcDb2dVertex
 10
129.282457
 20
70.637535
 30
0.0
  0
VERTEX
  5
5D7
330
5D1
100
AcDbEntity
  8
001
370
    50
100
AcDbVertex
100
AcDb2dVertex
 10
129.220797
 20
70.057577
 30
0.0
  0
SEQEND
  5
5D2
330
5D1
100
AcDbEntity
  8
001
370
    50
  0
POLYLINE
  5
5D8
330
1F
100
AcDbEntity
  8
001
370
    50
100
AcDb2dPolyline
 66
     1
 10
0.0
 20
0.0
 30
0.0
  0
VERTEX
  5
5DA
330
5D8
100
AcDbEntity
  8
001
370
    50
100
AcDbVertex
100
AcDb2dVertex
 10
129.538638
 20
72.899048
 30
0.0
  0
VERTEX
  5
5DB
330
5D8
100
AcDbEntity
  8
001
370
    50
100
AcDbVertex
100
AcDb2dVertex
 10
129.549115
 20
73.045545
 30
0.0
  0
VERTEX
  5
5DC
330
5D8
100
AcDbEntity
  8
001
370
    50
100
AcDbVertex
100
AcDb2dVertex
 10
129.553075
 20
73.192115
 30
0.0
  0
VERTEX
  5
5DD
330
5D8
100
AcDbEntity
  8
001
370
    50
100
AcDbVertex
100
AcDb2dVertex
 10
129.545204
 20
73.339984
 30
0.0
  0
VERTEX
  5
5DE
330
5D8
100
AcDbEntity
  8
001
370
    50
100
AcDbVertex
100
AcDb2dVertex
 10
129.525557
 20
73.486941
 30
0.0
  0
VERTEX
  5
5DF
330
5D8
100
AcDbEntity
  8
001
370
    50
100
AcDbVertex
100
AcDb2dVertex
 10
129.489997
 20
73.653503
 30
0.0
  0
VERTEX
  5
5E0
330
5D8
100
AcDbEntity
  8
001
370
    50
100
AcDbVertex
100
AcDb2dVertex
 10
129.440893
 20
73.81663
 30
0.0
  0
VERTEX
  5
5E1
330
5D8
100
AcDbEntity
  8
001
370
    50
100
AcDbVertex
100
AcDb2dVertex
 10
129.376812
 20
73.978
 30
0.0
  0
VERTEX
  5
5E2
330
5D8
100
AcDbEntity
  8
001
370
    50
100
AcDbVertex
100
AcDb2dVertex
 10
129.297501
 20
74.132125
 30
0.0
  0
VERTEX
  5
5E3
330
5D8
100
AcDbEntity
  8
001
370
    50
100
AcDbVertex
100
AcDb2dVertex
 10
129.225538
 20
74.245747
 30
0.0
  0
VERTEX
  5
5E4
330
5D8
100
AcDbEntity
  8
001
370
    50
100
AcDbVertex
100
AcDb2dVertex
 10
129.148612
 20
74.356333
 30
0.0
  0
SEQEND
  5
5D9
330
5D8
100
AcDbEntity
  8
001
370
    50
  0
POLYLINE
  5
5E5
330
1F
100
AcDbEntity
  8
001
370
    50
100
AcDb2dPolyline
 66
     1
 10
0.0
 20
0.0
 30
0.0
  0
VERTEX
  5
5E7
330
5E5
100
AcDbEntity
  8
001
370
    50
100
AcDbVertex
100
AcDb2dVertex
 10
129.007197
 20
74.540422
 30
0.0
  0
VERTEX
  5
5E8
330
5E5
100
AcDbEntity
  8
001
370
    50
100
AcDbVertex
100
AcDb2dVertex
 10
129.035898
 20
74.50298
 30
0.0
  0
VERTEX
  5
5E9
330
5E5
100
AcDbEntity
  8
001
370
    50
100
AcDbVertex
100
AcDb2dVertex
 10
129.077878
 20
74.448282
 30
0.0
  0
VERTEX
  5
5EA
330
5E5
100
AcDbEntity
  8
001
370
    50
100
AcDbVertex
100
AcDb2dVertex
 10
129.119863
 20
74.393677
 30
0.0
  0
VERTEX
  5
5EB
330
5E5
100
AcDbEntity
  8
001
370
    50
100
AcDbVertex
100
AcDb2dVertex
 10
129.148612
 20
74.356333
 30
0.0
  0
SEQEND
  5
5E6
330
5E5
100
AcDbEntity
  8
001
370
    50
  0
POLYLINE
  5
5EC
330
1F
100
AcDbEntity
  8
001
370
    50
100
AcDb2dPolyline
 66
     1
 10
0.0
 20
0.0
 30
0.0
  0
VERTEX
  5
5EE
330
5EC
100
AcDbEntity
  8
001
370
    50
100
AcDbVertex
100
AcDb2dVertex
 10
128.813909
 20
72.899048
 30
0.0
  0
VERTEX
  5
5EF
330
5EC
100
AcDbEntity
  8
001
370
    50
100
AcDbVertex
100
AcDb2dVertex
 10
128.807079
 20
73.021958
 30
0.0
  0
VERTEX
  5
5F0
330
5EC
100
AcDbEntity
  8
001
370
    50
100
AcDbVertex
100
AcDb2dVertex
 10
128.78575
 20
73.190528
 30
0.0
  0
VERTEX
  5
5F1
330
5EC
100
AcDbEntity
  8
001
370
    50
100
AcDbVertex
100
AcDb2dVertex
 10
128.749669
 20
73.340115
 30
0.0
  0
VERTEX
  5
5F2
330
5EC
100
AcDbEntity
  8
001
370
    50
100
AcDbVertex
100
AcDb2dVertex
 10
128.702349
 20
73.470895
 30
0.0
  0
VERTEX
  5
5F3
330
5EC
100
AcDbEntity
  8
001
370
    50
100
AcDbVertex
100
AcDb2dVertex
 10
128.645233
 20
73.597387
 30
0.0
  0
VERTEX
  5
5F4
330
5EC
100
AcDbEntity
  8
001
370
    50
100
AcDbVertex
100
AcDb2dVertex
 10
128.566884
 20
73.729462
 30
0.0
  0
VERTEX
  5
5F5
330
5EC
100
AcDbEntity
  8
001
370
    50
100
AcDbVertex
100
AcDb2dVertex
 10
128.465041
 20
73.864229
 30
0.0
  0
VERTEX
  5
5F6
330
5EC
100
AcDbEntity
  8
001
370
    50
100
AcDbVertex
100
AcDb2dVertex
 10
128.38452
 20
73.95637
 30
0.0
  0
SEQEND
  5
5ED
330
5EC
100
AcDbEntity
  8
001
370
    50
  0
LINE
  5
5F7
330
1F
100
AcDbEntity
  8
001
370
    50
100
AcDbLine
 10
128.813909
 20
70.263933
 30
0.0
 11
128.813909
 21
72.899048
 31
0.0
  0
POLYLINE
  5
5F8
330
1F
100
AcDbEntity
  8
001
370
    50
100
AcDb2dPolyline
 66
     1
 10
0.0
 20
0.0
 30
0.0
  0
VERTEX
  5
5FA
330
5F8
100
AcDbEntity
  8
001
370
    50
100
AcDbVertex
100
AcDb2dVertex
 10
123.951199
 20
78.816183
 30
0.0
  0
VERTEX
  5
5FB
330
5F8
100
AcDbEntity
  8
001
370
    50
100
AcDbVertex
100
AcDb2dVertex
 10
123.987558
 20
78.877568
 30
0.0
  0
VERTEX
  5
5FC
330
5F8
100
AcDbEntity
  8
001
370
    50
100
AcDbVertex
100
AcDb2dVertex
 10
124.021651
 20
78.938965
 30
0.0
  0
VERTEX
  5
5FD
330
5F8
100
AcDbEntity
  8
001
370
    50
100
AcDbVertex
100
AcDb2dVertex
 10
124.103846
 20
79.118082
 30
0.0
  0
VERTEX
  5
5FE
330
5F8
100
AcDbEntity
  8
001
370
    50
100
AcDbVertex
100
AcDb2dVertex
 10
124.159697
 20
79.2909
 30
0.0
  0
VERTEX
  5
5FF
330
5F8
100
AcDbEntity
  8
001
370
    50
100
AcDbVertex
100
AcDb2dVertex
 10
124.202182
 20
79.47357
 30
0.0
  0
VERTEX
  5
600
330
5F8
100
AcDbEntity
  8
001
370
    50
100
AcDbVertex
100
AcDb2dVertex
 10
124.229914
 20
79.662953
 30
0.0
  0
VERTEX
  5
601
330
5F8
100
AcDbEntity
  8
001
370
    50
100
AcDbVertex
100
AcDb2dVertex
 10
124.239053
 20
79.852828
 30
0.0
  0
VERTEX
  5
602
330
5F8
100
AcDbEntity
  8
001
370
    50
100
AcDbVertex
100
AcDb2dVertex
 10
124.229783
 20
80.041777
 30
0.0
  0
VERTEX
  5
603
330
5F8
100
AcDbEntity
  8
001
370
    50
100
AcDbVertex
100
AcDb2dVertex
 10
124.203136
 20
80.229305
 30
0.0
  0
VERTEX
  5
604
330
5F8
100
AcDbEntity
  8
001
370
    50
100
AcDbVertex
100
AcDb2dVertex
 10
124.159307
 20
80.41378
 30
0.0
  0
VERTEX
  5
605
330
5F8
100
AcDbEntity
  8
001
370
    50
100
AcDbVertex
100
AcDb2dVertex
 10
124.09848
 20
80.592968
 30
0.0
  0
VERTEX
  5
606
330
5F8
100
AcDbEntity
  8
001
370
    50
100
AcDbVertex
100
AcDb2dVertex
 10
124.021017
 20
80.765616
 30
0.0
  0
VERTEX
  5
607
330
5F8
100
AcDbEntity
  8
001
370
    50
100
AcDbVertex
100
AcDb2dVertex
 10
123.927801
 20
80.929893
 30
0.0
  0
VERTEX
  5
608
330
5F8
100
AcDbEntity
  8
001
370
    50
100
AcDbVertex
100
AcDb2dVertex
 10
123.819873
 20
81.084663
 30
0.0
  0
VERTEX
  5
609
330
5F8
100
AcDbEntity
  8
001
370
    50
100
AcDbVertex
100
AcDb2dVertex
 10
123.698565
 20
81.228068
 30
0.0
  0
VERTEX
  5
60A
330
5F8
100
AcDbEntity
  8
001
370
    50
100
AcDbVertex
100
AcDb2dVertex
 10
123.563091
 20
81.359473
 30
0.0
  0
VERTEX
  5
60B
330
5F8
100
AcDbEntity
  8
001
370
    50
100
AcDbVertex
100
AcDb2dVertex
 10
123.414624
 20
81.477375
 30
0.0
  0
VERTEX
  5
60C
330
5F8
100
AcDbEntity
  8
001
370
    50
100
AcDbVertex
100
AcDb2dVertex
 10
123.259885
 20
81.580188
 30
0.0
  0
VERTEX
  5
60D
330
5F8
100
AcDbEntity
  8
001
370
    50
100
AcDbVertex
100
AcDb2dVertex
 10
123.102196
 20
81.666458
 30
0.0
  0
VERTEX
  5
60E
330
5F8
100
AcDbEntity
  8
001
370
    50
100
AcDbVertex
100
AcDb2dVertex
 10
122.921132
 20
81.738888
 30
0.0
  0
VERTEX
  5
60F
330
5F8
100
AcDbEntity
  8
001
370
    50
100
AcDbVertex
100
AcDb2dVertex
 10
122.734156
 20
81.792286
 30
0.0
  0
VERTEX
  5
610
330
5F8
100
AcDbEntity
  8
001
370
    50
100
AcDbVertex
100
AcDb2dVertex
 10
122.581886
 20
81.826012
 30
0.0
  0
SEQEND
  5
5F9
330
5F8
100
AcDbEntity
  8
001
370
    50
  0
POLYLINE
  5
611
330
1F
100
AcDbEntity
  8
001
370
    50
100
AcDb2dPolyline
 66
     1
 10
0.0
 20
0.0
 30
0.0
  0
VERTEX
  5
613
330
611
100
AcDbEntity
  8
001
370
    50
100
AcDbVertex
100
AcDb2dVertex
 10
124.015505
 20
78.750474
 30
0.0
  0
VERTEX
  5
614
330
611
100
AcDbEntity
  8
001
370
    50
100
AcDbVertex
100
AcDb2dVertex
 10
124.195218
 20
78.885101
 30
0.0
  0
VERTEX
  5
615
330
611
100
AcDbEntity
  8
001
370
    50
100
AcDbVertex
100
AcDb2dVertex
 10
124.384437
 20
79.046644
 30
0.0
  0
VERTEX
  5
616
330
611
100
AcDbEntity
  8
001
370
    50
100
AcDbVertex
100
AcDb2dVertex
 10
124.64599
 20
79.319875
 30
0.0
  0
VERTEX
  5
617
330
611
100
AcDbEntity
  8
001
370
    50
100
AcDbVertex
100
AcDb2dVertex
 10
124.807336
 20
79.523299
 30
0.0
  0
SEQEND
  5
612
330
611
100
AcDbEntity
  8
001
370
    50
  0
LINE
  5
618
330
1F
100
AcDbEntity
  8
001
370
    50
100
AcDbLine
 10
118.981501
 20
76.885678
 30
0.0
 11
118.784619
 21
76.687011
 31
0.0
  0
POLYLINE
  5
619
330
1F
100
AcDbEntity
  8
001
370
    50
100
AcDb2dPolyline
 66
     1
 10
0.0
 20
0.0
 30
0.0
  0
VERTEX
  5
61B
330
619
100
AcDbEntity
  8
001
370
    50
100
AcDbVertex
100
AcDb2dVertex
 10
118.829597
 20
77.362397
 30
0.0
  0
VERTEX
  5
61C
330
619
100
AcDbEntity
  8
001
370
    50
100
AcDbVertex
100
AcDb2dVertex
 10
118.896709
 20
77.429694
 30
0.0
  0
VERTEX
  5
61D
330
619
100
AcDbEntity
  8
001
370
    50
100
AcDbVertex
100
AcDb2dVertex
 10
118.993406
 20
77.526918
 30
0.0
  0
SEQEND
  5
61A
330
619
100
AcDbEntity
  8
001
370
    50
  0
POLYLINE
  5
61E
330
1F
100
AcDbEntity
  8
001
370
    50
100
AcDb2dPolyline
 66
     1
 10
0.0
 20
0.0
 30
0.0
  0
VERTEX
  5
620
330
61E
100
AcDbEntity
  8
001
370
    50
100
AcDbVertex
100
AcDb2dVertex
 10
120.364206
 20
78.923952
 30
0.0
  0
VERTEX
  5
621
330
61E
100
AcDbEntity
  8
001
370
    50
100
AcDbVertex
100
AcDb2dVertex
 10
120.433318
 20
78.994805
 30
0.0
  0
VERTEX
  5
622
330
61E
100
AcDbEntity
  8
001
370
    50
100
AcDbVertex
100
AcDb2dVertex
 10
120.504902
 20
79.068375
 30
0.0
  0
VERTEX
  5
623
330
61E
100
AcDbEntity
  8
001
370
    50
100
AcDbVertex
100
AcDb2dVertex
 10
120.705166
 20
79.275246
 30
0.0
  0
VERTEX
  5
624
330
61E
100
AcDbEntity
  8
001
370
    50
100
AcDbVertex
100
AcDb2dVertex
 10
120.841821
 20
79.417145
 30
0.0
  0
SEQEND
  5
61F
330
61E
100
AcDbEntity
  8
001
370
    50
  0
POLYLINE
  5
625
330
1F
100
AcDbEntity
  8
001
370
    50
100
AcDb2dPolyline
 66
     1
 10
0.0
 20
0.0
 30
0.0
  0
VERTEX
  5
627
330
625
100
AcDbEntity
  8
001
370
    50
100
AcDbVertex
100
AcDb2dVertex
 10
116.926551
 20
73.714782
 30
0.0
  0
VERTEX
  5
628
330
625
100
AcDbEntity
  8
001
370
    50
100
AcDbVertex
100
AcDb2dVertex
 10
117.010442
 20
73.724346
 30
0.0
  0
VERTEX
  5
629
330
625
100
AcDbEntity
  8
001
370
    50
100
AcDbVertex
100
AcDb2dVertex
 10
117.130676
 20
73.751805
 30
0.0
  0
VERTEX
  5
62A
330
625
100
AcDbEntity
  8
001
370
    50
100
AcDbVertex
100
AcDb2dVertex
 10
117.177401
 20
73.766401
 30
0.0
  0
VERTEX
  5
62B
330
625
100
AcDbEntity
  8
001
370
    50
100
AcDbVertex
100
AcDb2dVertex
 10
117.222527
 20
73.782509
 30
0.0
  0
SEQEND
  5
626
330
625
100
AcDbEntity
  8
001
370
    50
  0
POLYLINE
  5
62C
330
1F
100
AcDbEntity
  8
001
370
    50
100
AcDb2dPolyline
 66
     1
 10
0.0
 20
0.0
 30
0.0
  0
VERTEX
  5
62E
330
62C
100
AcDbEntity
  8
001
370
    50
100
AcDbVertex
100
AcDb2dVertex
 10
124.924162
 20
70.096987
 30
0.0
  0
VERTEX
  5
62F
330
62C
100
AcDbEntity
  8
001
370
    50
100
AcDbVertex
100
AcDb2dVertex
 10
125.10997
 20
70.10414
 30
0.0
  0
VERTEX
  5
630
330
62C
100
AcDbEntity
  8
001
370
    50
100
AcDbVertex
100
AcDb2dVertex
 10
125.296167
 20
70.111405
 30
0.0
  0
VERTEX
  5
631
330
62C
100
AcDbEntity
  8
001
370
    50
100
AcDbVertex
100
AcDb2dVertex
 10
127.384958
 20
70.198824
 30
0.0
  0
VERTEX
  5
632
330
62C
100
AcDbEntity
  8
001
370
    50
100
AcDbVertex
100
AcDb2dVertex
 10
128.813909
 20
70.263933
 30
0.0
  0
SEQEND
  5
62D
330
62C
100
AcDbEntity
  8
001
370
    50
  0
POLYLINE
  5
633
330
1F
100
AcDbEntity
  8
001
370
    50
100
AcDb2dPolyline
 66
     1
 10
0.0
 20
0.0
 30
0.0
  0
VERTEX
  5
635
330
633
100
AcDbEntity
  8
001
370
    50
100
AcDbVertex
100
AcDb2dVertex
 10
121.743741
 20
69.986342
 30
0.0
  0
VERTEX
  5
636
330
633
100
AcDbEntity
  8
001
370
    50
100
AcDbVertex
100
AcDb2dVertex
 10
121.937029
 20
69.992439
 30
0.0
  0
VERTEX
  5
637
330
633
100
AcDbEntity
  8
001
370
    50
100
AcDbVertex
100
AcDb2dVertex
 10
122.174318
 20
70.000072
 30
0.0
  0
SEQEND
  5
634
330
633
100
AcDbEntity
  8
001
370
    50
  0
LINE
  5
638
330
1F
100
AcDbEntity
  8
001
370
    50
100
AcDbLine
 10
128.38452
 20
73.95637
 30
0.0
 11
127.860668
 21
74.491656
 31
0.0
  0
POLYLINE
  5
639
330
1F
100
AcDbEntity
  8
001
370
    50
100
AcDb2dPolyline
 66
     1
 10
0.0
 20
0.0
 30
0.0
  0
VERTEX
  5
63B
330
639
100
AcDbEntity
  8
001
370
    50
100
AcDbVertex
100
AcDb2dVertex
 10
128.404967
 20
75.299663
 30
0.0
  0
VERTEX
  5
63C
330
639
100
AcDbEntity
  8
001
370
    50
100
AcDbVertex
100
AcDb2dVertex
 10
128.529411
 20
75.141302
 30
0.0
  0
VERTEX
  5
63D
330
639
100
AcDbEntity
  8
001
370
    50
100
AcDbVertex
100
AcDb2dVertex
 10
128.697898
 20
74.928042
 30
0.0
  0
VERTEX
  5
63E
330
639
100
AcDbEntity
  8
001
370
    50
100
AcDbVertex
100
AcDb2dVertex
 10
128.881285
 20
74.697686
 30
0.0
  0
VERTEX
  5
63F
330
639
100
AcDbEntity
  8
001
370
    50
100
AcDbVertex
100
AcDb2dVertex
 10
129.007197
 20
74.540422
 30
0.0
  0
SEQEND
  5
63A
330
639
100
AcDbEntity
  8
001
370
    50
  0
POLYLINE
  5
640
330
1F
100
AcDbEntity
  8
001
370
    50
100
AcDb2dPolyline
 66
     1
 10
0.0
 20
0.0
 30
0.0
  0
VERTEX
  5
642
330
640
100
AcDbEntity
  8
001
370
    50
100
AcDbVertex
100
AcDb2dVertex
 10
125.931309
 20
78.259421
 30
0.0
  0
VERTEX
  5
643
330
640
100
AcDbEntity
  8
001
370
    50
100
AcDbVertex
100
AcDb2dVertex
 10
126.002835
 20
78.175603
 30
0.0
  0
VERTEX
  5
644
330
640
100
AcDbEntity
  8
001
370
    50
100
AcDbVertex
100
AcDb2dVertex
 10
126.107401
 20
78.053482
 30
0.0
  0
SEQEND
  5
641
330
640
100
AcDbEntity
  8
001
370
    50
  0
POLYLINE
  5
645
330
1F
100
AcDbEntity
  8
001
370
    50
100
AcDb2dPolyline
 66
     1
 10
0.0
 20
0.0
 30
0.0
  0
VERTEX
  5
647
330
645
100
AcDbEntity
  8
001
370
    50
100
AcDbVertex
100
AcDb2dVertex
 10
146.861206
 20
69.764782
 30
0.0
  0
VERTEX
  5
648
330
645
100
AcDbEntity
  8
001
370
    50
100
AcDbVertex
100
AcDb2dVertex
 10
146.832017
 20
69.766803
 30
0.0
  0
VERTEX
  5
649
330
645
100
AcDbEntity
  8
001
370
    50
100
AcDbVertex
100
AcDb2dVertex
 10
146.802908
 20
69.769485
 30
0.0
  0
VERTEX
  5
64A
330
645
100
AcDbEntity
  8
001
370
    50
100
AcDbVertex
100
AcDb2dVertex
 10
146.737091
 20
69.779815
 30
0.0
  0
VERTEX
  5
64B
330
645
100
AcDbEntity
  8
001
370
    50
100
AcDbVertex
100
AcDb2dVertex
 10
146.671905
 20
69.794203
 30
0.0
  0
VERTEX
  5
64C
330
645
100
AcDbEntity
  8
001
370
    50
100
AcDbVertex
100
AcDb2dVertex
 10
146.584305
 20
69.816241
 30
0.0
  0
VERTEX
  5
64D
330
645
100
AcDbEntity
  8
001
370
    50
100
AcDbVertex
100
AcDb2dVertex
 10
146.497263
 20
69.840079
 30
0.0
  0
VERTEX
  5
64E
330
645
100
AcDbEntity
  8
001
370
    50
100
AcDbVertex
100
AcDb2dVertex
 10
146.386361
 20
69.872442
 30
0.0
  0
VERTEX
  5
64F
330
645
100
AcDbEntity
  8
001
370
    50
100
AcDbVertex
100
AcDb2dVertex
 10
146.275799
 20
69.906062
 30
0.0
  0
VERTEX
  5
650
330
645
100
AcDbEntity
  8
001
370
    50
100
AcDbVertex
100
AcDb2dVertex
 10
146.142086
 20
69.947432
 30
0.0
  0
VERTEX
  5
651
330
645
100
AcDbEntity
  8
001
370
    50
100
AcDbVertex
100
AcDb2dVertex
 10
146.008473
 20
69.989079
 30
0.0
  0
VERTEX
  5
652
330
645
100
AcDbEntity
  8
001
370
    50
100
AcDbVertex
100
AcDb2dVertex
 10
145.85335
 20
70.037425
 30
0.0
  0
VERTEX
  5
653
330
645
100
AcDbEntity
  8
001
370
    50
100
AcDbVertex
100
AcDb2dVertex
 10
145.698135
 20
70.085487
 30
0.0
  0
VERTEX
  5
654
330
645
100
AcDbEntity
  8
001
370
    50
100
AcDbVertex
100
AcDb2dVertex
 10
145.523019
 20
70.13901
 30
0.0
  0
VERTEX
  5
655
330
645
100
AcDbEntity
  8
001
370
    50
100
AcDbVertex
100
AcDb2dVertex
 10
145.347635
 20
70.19164
 30
0.0
  0
VERTEX
  5
656
330
645
100
AcDbEntity
  8
001
370
    50
100
AcDbVertex
100
AcDb2dVertex
 10
145.101443
 20
70.263546
 30
0.0
  0
VERTEX
  5
657
330
645
100
AcDbEntity
  8
001
370
    50
100
AcDbVertex
100
AcDb2dVertex
 10
144.854589
 20
70.333146
 30
0.0
  0
VERTEX
  5
658
330
645
100
AcDbEntity
  8
001
370
    50
100
AcDbVertex
100
AcDb2dVertex
 10
144.580887
 20
70.407214
 30
0.0
  0
VERTEX
  5
659
330
645
100
AcDbEntity
  8
001
370
    50
100
AcDbVertex
100
AcDb2dVertex
 10
144.306346
 20
70.478105
 30
0.0
  0
VERTEX
  5
65A
330
645
100
AcDbEntity
  8
001
370
    50
100
AcDbVertex
100
AcDb2dVertex
 10
144.010062
 20
70.55064
 30
0.0
  0
VERTEX
  5
65B
330
645
100
AcDbEntity
  8
001
370
    50
100
AcDbVertex
100
AcDb2dVertex
 10
143.712803
 20
70.61907
 30
0.0
  0
VERTEX
  5
65C
330
645
100
AcDbEntity
  8
001
370
    50
100
AcDbVertex
100
AcDb2dVertex
 10
143.374162
 20
70.691526
 30
0.0
  0
VERTEX
  5
65D
330
645
100
AcDbEntity
  8
001
370
    50
100
AcDbVertex
100
AcDb2dVertex
 10
143.034373
 20
70.758406
 30
0.0
  0
VERTEX
  5
65E
330
645
100
AcDbEntity
  8
001
370
    50
100
AcDbVertex
100
AcDb2dVertex
 10
142.67622
 20
70.822698
 30
0.0
  0
VERTEX
  5
65F
330
645
100
AcDbEntity
  8
001
370
    50
100
AcDbVertex
100
AcDb2dVertex
 10
142.317006
 20
70.880788
 30
0.0
  0
VERTEX
  5
660
330
645
100
AcDbEntity
  8
001
370
    50
100
AcDbVertex
100
AcDb2dVertex
 10
141.945208
 20
70.934104
 30
0.0
  0
VERTEX
  5
661
330
645
100
AcDbEntity
  8
001
370
    50
100
AcDbVertex
100
AcDb2dVertex
 10
141.572473
 20
70.980387
 30
0.0
  0
VERTEX
  5
662
330
645
100
AcDbEntity
  8
001
370
    50
100
AcDbVertex
100
AcDb2dVertex
 10
141.257202
 20
71.013791
 30
0.0
  0
VERTEX
  5
663
330
645
100
AcDbEntity
  8
001
370
    50
100
AcDbVertex
100
AcDb2dVertex
 10
140.941428
 20
71.042052
 30
0.0
  0
VERTEX
  5
664
330
645
100
AcDbEntity
  8
001
370
    50
100
AcDbVertex
100
AcDb2dVertex
 10
140.619942
 20
71.065601
 30
0.0
  0
VERTEX
  5
665
330
645
100
AcDbEntity
  8
001
370
    50
100
AcDbVertex
100
AcDb2dVertex
 10
140.298119
 20
71.083967
 30
0.0
  0
VERTEX
  5
666
330
645
100
AcDbEntity
  8
001
370
    50
100
AcDbVertex
100
AcDb2dVertex
 10
139.973513
 20
71.097251
 30
0.0
  0
VERTEX
  5
667
330
645
100
AcDbEntity
  8
001
370
    50
100
AcDbVertex
100
AcDb2dVertex
 10
139.648733
 20
71.105244
 30
0.0
  0
VERTEX
  5
668
330
645
100
AcDbEntity
  8
001
370
    50
100
AcDbVertex
100
AcDb2dVertex
 10
139.324093
 20
71.107871
 30
0.0
  0
VERTEX
  5
669
330
645
100
AcDbEntity
  8
001
370
    50
100
AcDbVertex
100
AcDb2dVertex
 10
138.999458
 20
71.104995
 30
0.0
  0
VERTEX
  5
66A
330
645
100
AcDbEntity
  8
001
370
    50
100
AcDbVertex
100
AcDb2dVertex
 10
138.658178
 20
71.095927
 30
0.0
  0
VERTEX
  5
66B
330
645
100
AcDbEntity
  8
001
370
    50
100
AcDbVertex
100
AcDb2dVertex
 10
138.317109
 20
71.080829
 30
0.0
  0
VERTEX
  5
66C
330
645
100
AcDbEntity
  8
001
370
    50
100
AcDbVertex
100
AcDb2dVertex
 10
137.978117
 20
71.060032
 30
0.0
  0
VERTEX
  5
66D
330
645
100
AcDbEntity
  8
001
370
    50
100
AcDbVertex
100
AcDb2dVertex
 10
137.639522
 20
71.03359
 30
0.0
  0
VERTEX
  5
66E
330
645
100
AcDbEntity
  8
001
370
    50
100
AcDbVertex
100
AcDb2dVertex
 10
137.306274
 20
71.002108
 30
0.0
  0
VERTEX
  5
66F
330
645
100
AcDbEntity
  8
001
370
    50
100
AcDbVertex
100
AcDb2dVertex
 10
136.973555
 20
70.965394
 30
0.0
  0
VERTEX
  5
670
330
645
100
AcDbEntity
  8
001
370
    50
100
AcDbVertex
100
AcDb2dVertex
 10
136.649441
 20
70.924562
 30
0.0
  0
VERTEX
  5
671
330
645
100
AcDbEntity
  8
001
370
    50
100
AcDbVertex
100
AcDb2dVertex
 10
136.326064
 20
70.878354
 30
0.0
  0
VERTEX
  5
672
330
645
100
AcDbEntity
  8
001
370
    50
100
AcDbVertex
100
AcDb2dVertex
 10
136.158709
 20
70.852243
 30
0.0
  0
VERTEX
  5
673
330
645
100
AcDbEntity
  8
001
370
    50
100
AcDbVertex
100
AcDb2dVertex
 10
135.991477
 20
70.825336
 30
0.0
  0
SEQEND
  5
646
330
645
100
AcDbEntity
  8
001
370
    50
  0
LINE
  5
674
330
1F
100
AcDbEntity
  8
001
370
    50
100
AcDbLine
 10
130.213477
 20
70.139252
 30
0.0
 11
129.571477
 21
70.084264
 31
0.0
  0
LINE
  5
675
330
1F
100
AcDbEntity
  8
001
370
    50
100
AcDbLine
 10
130.855477
 20
70.198544
 30
0.0
 11
130.213477
 21
70.139252
 31
0.0
  0
POLYLINE
  5
676
330
1F
100
AcDbEntity
  8
001
370
    50
100
AcDb2dPolyline
 66
     1
 10
0.0
 20
0.0
 30
0.0
  0
VERTEX
  5
678
330
676
100
AcDbEntity
  8
001
370
    50
100
AcDbVertex
100
AcDb2dVertex
 10
131.497477
 20
70.26212
 30
0.0
  0
VERTEX
  5
679
330
676
100
AcDbEntity
  8
001
370
    50
100
AcDbVertex
100
AcDb2dVertex
 10
131.215936
 20
70.235328
 30
0.0
  0
VERTEX
  5
67A
330
676
100
AcDbEntity
  8
001
370
    50
100
AcDbVertex
100
AcDb2dVertex
 10
130.934555
 20
70.206969
 30
0.0
  0
VERTEX
  5
67B
330
676
100
AcDbEntity
  8
001
370
    50
100
AcDbVertex
100
AcDb2dVertex
 10
130.895015
 20
70.202772
 30
0.0
  0
VERTEX
  5
67C
330
676
100
AcDbEntity
  8
001
370
    50
100
AcDbVertex
100
AcDb2dVertex
 10
130.855477
 20
70.198544
 30
0.0
  0
SEQEND
  5
677
330
676
100
AcDbEntity
  8
001
370
    50
  0
POLYLINE
  5
67D
330
1F
100
AcDbEntity
  8
001
370
    50
100
AcDb2dPolyline
 66
     1
 10
0.0
 20
0.0
 30
0.0
  0
VERTEX
  5
67F
330
67D
100
AcDbEntity
  8
001
370
    50
100
AcDbVertex
100
AcDb2dVertex
 10
132.139477
 20
70.329961
 30
0.0
  0
VERTEX
  5
680
330
67D
100
AcDbEntity
  8
001
370
    50
100
AcDbVertex
100
AcDb2dVertex
 10
131.985743
 20
70.314746
 30
0.0
  0
VERTEX
  5
681
330
67D
100
AcDbEntity
  8
001
370
    50
100
AcDbVertex
100
AcDb2dVertex
 10
131.832064
 20
70.299009
 30
0.0
  0
VERTEX
  5
682
330
67D
100
AcDbEntity
  8
001
370
    50
100
AcDbVertex
100
AcDb2dVertex
 10
131.664738
 20
70.280874
 30
0.0
  0
VERTEX
  5
683
330
67D
100
AcDbEntity
  8
001
370
    50
100
AcDbVertex
100
AcDb2dVertex
 10
131.497477
 20
70.26212
 30
0.0
  0
SEQEND
  5
67E
330
67D
100
AcDbEntity
  8
001
370
    50
  0
POLYLINE
  5
684
330
1F
100
AcDbEntity
  8
001
370
    50
100
AcDb2dPolyline
 66
     1
 10
0.0
 20
0.0
 30
0.0
  0
VERTEX
  5
686
330
684
100
AcDbEntity
  8
001
370
    50
100
AcDbVertex
100
AcDb2dVertex
 10
132.781477
 20
70.402048
 30
0.0
  0
VERTEX
  5
687
330
684
100
AcDbEntity
  8
001
370
    50
100
AcDbVertex
100
AcDb2dVertex
 10
132.627739
 20
70.385904
 30
0.0
  0
VERTEX
  5
688
330
684
100
AcDbEntity
  8
001
370
    50
100
AcDbVertex
100
AcDb2dVertex
 10
132.474064
 20
70.369194
 30
0.0
  0
VERTEX
  5
689
330
684
100
AcDbEntity
  8
001
370
    50
100
AcDbVertex
100
AcDb2dVertex
 10
132.306733
 20
70.349914
 30
0.0
  0
VERTEX
  5
68A
330
684
100
AcDbEntity
  8
001
370
    50
100
AcDbVertex
100
AcDb2dVertex
 10
132.139477
 20
70.329961
 30
0.0
  0
SEQEND
  5
685
330
684
100
AcDbEntity
  8
001
370
    50
  0
POLYLINE
  5
68B
330
1F
100
AcDbEntity
  8
001
370
    50
100
AcDb2dPolyline
 66
     1
 10
0.0
 20
0.0
 30
0.0
  0
VERTEX
  5
68D
330
68B
100
AcDbEntity
  8
001
370
    50
100
AcDbVertex
100
AcDb2dVertex
 10
133.423477
 20
70.478357
 30
0.0
  0
VERTEX
  5
68E
330
68B
100
AcDbEntity
  8
001
370
    50
100
AcDbVertex
100
AcDb2dVertex
 10
133.269735
 20
70.461289
 30
0.0
  0
VERTEX
  5
68F
330
68B
100
AcDbEntity
  8
001
370
    50
100
AcDbVertex
100
AcDb2dVertex
 10
133.116064
 20
70.443612
 30
0.0
  0
VERTEX
  5
690
330
68B
100
AcDbEntity
  8
001
370
    50
100
AcDbVertex
100
AcDb2dVertex
 10
132.948728
 20
70.423192
 30
0.0
  0
VERTEX
  5
691
330
68B
100
AcDbEntity
  8
001
370
    50
100
AcDbVertex
100
AcDb2dVertex
 10
132.781477
 20
70.402048
 30
0.0
  0
SEQEND
  5
68C
330
68B
100
AcDbEntity
  8
001
370
    50
  0
POLYLINE
  5
692
330
1F
100
AcDbEntity
  8
001
370
    50
100
AcDb2dPolyline
 66
     1
 10
0.0
 20
0.0
 30
0.0
  0
VERTEX
  5
694
330
692
100
AcDbEntity
  8
001
370
    50
100
AcDbVertex
100
AcDb2dVertex
 10
134.065477
 20
70.558865
 30
0.0
  0
VERTEX
  5
695
330
692
100
AcDbEntity
  8
001
370
    50
100
AcDbVertex
100
AcDb2dVertex
 10
133.91173
 20
70.540879
 30
0.0
  0
VERTEX
  5
696
330
692
100
AcDbEntity
  8
001
370
    50
100
AcDbVertex
100
AcDb2dVertex
 10
133.758064
 20
70.52224
 30
0.0
  0
VERTEX
  5
697
330
692
100
AcDbEntity
  8
001
370
    50
100
AcDbVertex
100
AcDb2dVertex
 10
133.590722
 20
70.500686
 30
0.0
  0
VERTEX
  5
698
330
692
100
AcDbEntity
  8
001
370
    50
100
AcDbVertex
100
AcDb2dVertex
 10
133.423477
 20
70.478357
 30
0.0
  0
SEQEND
  5
693
330
692
100
AcDbEntity
  8
001
370
    50
  0
POLYLINE
  5
699
330
1F
100
AcDbEntity
  8
001
370
    50
100
AcDb2dPolyline
 66
     1
 10
0.0
 20
0.0
 30
0.0
  0
VERTEX
  5
69B
330
699
100
AcDbEntity
  8
001
370
    50
100
AcDbVertex
100
AcDb2dVertex
 10
134.707477
 20
70.643548
 30
0.0
  0
VERTEX
  5
69C
330
699
100
AcDbEntity
  8
001
370
    50
100
AcDbVertex
100
AcDb2dVertex
 10
134.553725
 20
70.624649
 30
0.0
  0
VERTEX
  5
69D
330
699
100
AcDbEntity
  8
001
370
    50
100
AcDbVertex
100
AcDb2dVertex
 10
134.400064
 20
70.605054
 30
0.0
  0
VERTEX
  5
69E
330
699
100
AcDbEntity
  8
001
370
    50
100
AcDbVertex
100
AcDb2dVertex
 10
134.232716
 20
70.582373
 30
0.0
  0
VERTEX
  5
69F
330
699
100
AcDbEntity
  8
001
370
    50
100
AcDbVertex
100
AcDb2dVertex
 10
134.065477
 20
70.558865
 30
0.0
  0
SEQEND
  5
69A
330
699
100
AcDbEntity
  8
001
370
    50
  0
POLYLINE
  5
6A0
330
1F
100
AcDbEntity
  8
001
370
    50
100
AcDb2dPolyline
 66
     1
 10
0.0
 20
0.0
 30
0.0
  0
VERTEX
  5
6A2
330
6A0
100
AcDbEntity
  8
001
370
    50
100
AcDbVertex
100
AcDb2dVertex
 10
135.349477
 20
70.732381
 30
0.0
  0
VERTEX
  5
6A3
330
6A0
100
AcDbEntity
  8
001
370
    50
100
AcDbVertex
100
AcDb2dVertex
 10
135.19572
 20
70.712574
 30
0.0
  0
VERTEX
  5
6A4
330
6A0
100
AcDbEntity
  8
001
370
    50
100
AcDbVertex
100
AcDb2dVertex
 10
135.042064
 20
70.692029
 30
0.0
  0
VERTEX
  5
6A5
330
6A0
100
AcDbEntity
  8
001
370
    50
100
AcDbVertex
100
AcDb2dVertex
 10
134.87471
 20
70.668227
 30
0.0
  0
VERTEX
  5
6A6
330
6A0
100
AcDbEntity
  8
001
370
    50
100
AcDbVertex
100
AcDb2dVertex
 10
134.707477
 20
70.643548
 30
0.0
  0
SEQEND
  5
6A1
330
6A0
100
AcDbEntity
  8
001
370
    50
  0
POLYLINE
  5
6A7
330
1F
100
AcDbEntity
  8
001
370
    50
100
AcDb2dPolyline
 66
     1
 10
0.0
 20
0.0
 30
0.0
  0
VERTEX
  5
6A9
330
6A7
100
AcDbEntity
  8
001
370
    50
100
AcDbVertex
100
AcDb2dVertex
 10
135.991477
 20
70.825336
 30
0.0
  0
VERTEX
  5
6AA
330
6A7
100
AcDbEntity
  8
001
370
    50
100
AcDbVertex
100
AcDb2dVertex
 10
135.837714
 20
70.804627
 30
0.0
  0
VERTEX
  5
6AB
330
6A7
100
AcDbEntity
  8
001
370
    50
100
AcDbVertex
100
AcDb2dVertex
 10
135.684064
 20
70.783138
 30
0.0
  0
VERTEX
  5
6AC
330
6A7
100
AcDbEntity
  8
001
370
    50
100
AcDbVertex
100
AcDb2dVertex
 10
135.516704
 20
70.758223
 30
0.0
  0
VERTEX
  5
6AD
330
6A7
100
AcDbEntity
  8
001
370
    50
100
AcDbVertex
100
AcDb2dVertex
 10
135.349477
 20
70.732381
 30
0.0
  0
SEQEND
  5
6A8
330
6A7
100
AcDbEntity
  8
001
370
    50
  0
POLYLINE
  5
6AE
330
1F
100
AcDbEntity
  8
001
370
    50
100
AcDb2dPolyline
 66
     1
 10
0.0
 20
0.0
 30
0.0
  0
VERTEX
  5
6B0
330
6AE
100
AcDbEntity
  8
001
370
    50
100
AcDbVertex
100
AcDb2dVertex
 10
116.732781
 20
73.858079
 30
0.0
  0
VERTEX
  5
6B1
330
6AE
100
AcDbEntity
  8
001
370
    50
100
AcDbVertex
100
AcDb2dVertex
 10
116.76271
 20
73.88704
 30
0.0
  0
VERTEX
  5
6B2
330
6AE
100
AcDbEntity
  8
001
370
    50
100
AcDbVertex
100
AcDb2dVertex
 10
116.792638
 20
73.916
 30
0.0
  0
VERTEX
  5
6B3
330
6AE
100
AcDbEntity
  8
001
370
    50
100
AcDbVertex
100
AcDb2dVertex
 10
116.92602
 20
74.045458
 30
0.0
  0
VERTEX
  5
6B4
330
6AE
100
AcDbEntity
  8
001
370
    50
100
AcDbVertex
100
AcDb2dVertex
 10
117.120426
 20
74.235215
 30
0.0
  0
VERTEX
  5
6B5
330
6AE
100
AcDbEntity
  8
001
370
    50
100
AcDbVertex
100
AcDb2dVertex
 10
117.317613
 20
74.429203
 30
0.0
  0
VERTEX
  5
6B6
330
6AE
100
AcDbEntity
  8
001
370
    50
100
AcDbVertex
100
AcDb2dVertex
 10
117.45216
 20
74.562309
 30
0.0
  0
SEQEND
  5
6AF
330
6AE
100
AcDbEntity
  8
001
370
    50
  0
POLYLINE
  5
6B7
330
1F
100
AcDbEntity
  8
001
370
    50
100
AcDb2dPolyline
 66
     1
 10
0.0
 20
0.0
 30
0.0
  0
VERTEX
  5
6B9
330
6B7
100
AcDbEntity
  8
001
370
    50
100
AcDbVertex
100
AcDb2dVertex
 10
116.732781
 20
73.858079
 30
0.0
  0
VERTEX
  5
6BA
330
6B7
100
AcDbEntity
  8
001
370
    50
100
AcDbVertex
100
AcDb2dVertex
 10
116.541046
 20
73.863727
 30
0.0
  0
VERTEX
  5
6BB
330
6B7
100
AcDbEntity
  8
001
370
    50
100
AcDbVertex
100
AcDb2dVertex
 10
116.349302
 20
73.868968
 30
0.0
  0
VERTEX
  5
6BC
330
6B7
100
AcDbEntity
  8
001
370
    50
100
AcDbVertex
100
AcDb2dVertex
 10
116.088734
 20
73.875005
 30
0.0
  0
VERTEX
  5
6BD
330
6B7
100
AcDbEntity
  8
001
370
    50
100
AcDbVertex
100
AcDb2dVertex
 10
115.828147
 20
73.880291
 30
0.0
  0
SEQEND
  5
6B8
330
6B7
100
AcDbEntity
  8
001
370
    50
  0
LINE
  5
6BE
330
1F
100
AcDbEntity
  8
001
  6
PHANTOM
370
     9
100
AcDbLine
 10
118.929271
 20
71.764782
 30
0.0
 11
118.929271
 21
64.264782
 31
0.0
  0
LINE
  5
6BF
330
1F
100
AcDbEntity
  8
001
  6
PHANTOM
370
     9
100
AcDbLine
 10
103.729271
 20
75.764782
 30
0.0
 11
103.729271
 21
72.764782
 31
0.0
  0
LINE
  5
6C0
330
1F
100
AcDbEntity
  8
001
  6
PHANTOM
370
     9
100
AcDbLine
 10
117.929271
 20
72.764782
 30
0.0
 11
103.729271
 21
72.764782
 31
0.0
  0
LINE
  5
6C1
330
1F
100
AcDbEntity
  8
001
  6
PHANTOM
370
     9
100
AcDbLine
 10
103.229271
 20
76.264782
 30
0.0
 11
103.729271
 21
75.764782
 31
0.0
  0
LINE
  5
6C2
330
1F
100
AcDbEntity
  8
001
  6
PHANTOM
370
     9
100
AcDbLine
 10
117.929271
 20
72.764782
 30
0.0
 11
118.929271
 21
71.764782
 31
0.0
  0
LINE
  5
6C3
330
1F
100
AcDbEntity
  8
001
370
    50
100
AcDbLine
 10
119.929271
 20
70.764782
 30
0.0
 11
121.425943
 21
70.764782
 31
0.0
  0
LINE
  5
6C4
330
1F
100
AcDbEntity
  8
001
370
    50
100
AcDbLine
 10
121.743741
 20
69.986342
 30
0.0
 11
120.980878
 21
70.764782
 31
0.0
  0
LINE
  5
6C5
330
1F
100
AcDbEntity
  8
001
370
    50
100
AcDbLine
 10
119.929271
 20
70.764782
 30
0.0
 11
117.427613
 21
73.26644
 31
0.0
  0
POLYLINE
  5
6C6
330
1F
100
AcDbEntity
  8
001
370
    50
100
AcDb2dPolyline
 66
     1
 10
0.0
 20
0.0
 30
0.0
  0
VERTEX
  5
6C8
330
6C6
100
AcDbEntity
  8
001
370
    50
100
AcDbVertex
100
AcDb2dVertex
 10
117.45216
 20
74.562309
 30
0.0
  0
VERTEX
  5
6C9
330
6C6
100
AcDbEntity
  8
001
370
    50
100
AcDbVertex
100
AcDb2dVertex
 10
117.573406
 20
74.680903
 30
0.0
  0
VERTEX
  5
6CA
330
6C6
100
AcDbEntity
  8
001
370
    50
100
AcDbVertex
100
AcDb2dVertex
 10
117.750263
 20
74.85477
 30
0.0
  0
VERTEX
  5
6CB
330
6C6
100
AcDbEntity
  8
001
370
    50
100
AcDbVertex
100
AcDb2dVertex
 10
117.902833
 20
75.005282
 30
0.0
  0
VERTEX
  5
6CC
330
6C6
100
AcDbEntity
  8
001
370
    50
100
AcDbVertex
100
AcDb2dVertex
 10
118.055403
 20
75.155794
 30
0.0
  0
SEQEND
  5
6C7
330
6C6
100
AcDbEntity
  8
001
370
    50
  0
LINE
  5
6CD
330
1F
100
AcDbEntity
  8
001
370
    50
100
AcDbLine
 10
118.348929
 20
75.651297
 30
0.0
 11
118.342576
 21
75.309073
 31
0.0
  0
LINE
  5
6CE
330
1F
100
AcDbEntity
  8
001
370
    50
100
AcDbLine
 10
118.055403
 20
75.155794
 30
0.0
 11
118.197219
 21
75.162398
 31
0.0
  0
LINE
  5
6CF
330
1F
100
AcDbEntity
  8
001
370
    50
100
AcDbLine
 10
102.72927
 20
76.764782
 30
0.0
 11
103.729271
 21
75.764782
 31
0.0
  0
POLYLINE
  5
6D0
330
1F
100
AcDbEntity
  8
001
370
    50
100
AcDb2dPolyline
 66
     1
 10
0.0
 20
0.0
 30
0.0
  0
VERTEX
  5
6D2
330
6D0
100
AcDbEntity
  8
001
370
    50
100
AcDbVertex
100
AcDb2dVertex
 10
103.729271
 20
73.558399
 30
0.0
  0
VERTEX
  5
6D3
330
6D0
100
AcDbEntity
  8
001
370
    50
100
AcDbVertex
100
AcDb2dVertex
 10
103.73228
 20
73.500167
 30
0.0
  0
VERTEX
  5
6D4
330
6D0
100
AcDbEntity
  8
001
370
    50
100
AcDbVertex
100
AcDb2dVertex
 10
103.74115
 20
73.420905
 30
0.0
  0
VERTEX
  5
6D5
330
6D0
100
AcDbEntity
  8
001
370
    50
100
AcDbVertex
100
AcDb2dVertex
 10
103.755909
 20
73.350361
 30
0.0
  0
VERTEX
  5
6D6
330
6D0
100
AcDbEntity
  8
001
370
    50
100
AcDbVertex
100
AcDb2dVertex
 10
103.776427
 20
73.287218
 30
0.0
  0
VERTEX
  5
6D7
330
6D0
100
AcDbEntity
  8
001
370
    50
100
AcDbVertex
100
AcDb2dVertex
 10
103.802523
 20
73.224041
 30
0.0
  0
VERTEX
  5
6D8
330
6D0
100
AcDbEntity
  8
001
370
    50
100
AcDbVertex
100
AcDb2dVertex
 10
103.834031
 20
73.161782
 30
0.0
  0
VERTEX
  5
6D9
330
6D0
100
AcDbEntity
  8
001
370
    50
100
AcDbVertex
100
AcDb2dVertex
 10
103.870645
 20
73.103189
 30
0.0
  0
VERTEX
  5
6DA
330
6D0
100
AcDbEntity
  8
001
370
    50
100
AcDbVertex
100
AcDb2dVertex
 10
103.912209
 20
73.048408
 30
0.0
  0
VERTEX
  5
6DB
330
6D0
100
AcDbEntity
  8
001
370
    50
100
AcDbVertex
100
AcDb2dVertex
 10
103.958321
 20
72.997429
 30
0.0
  0
VERTEX
  5
6DC
330
6D0
100
AcDbEntity
  8
001
370
    50
100
AcDbVertex
100
AcDb2dVertex
 10
104.008589
 20
72.950543
 30
0.0
  0
VERTEX
  5
6DD
330
6D0
100
AcDbEntity
  8
001
370
    50
100
AcDbVertex
100
AcDb2dVertex
 10
104.062463
 20
72.908387
 30
0.0
  0
VERTEX
  5
6DE
330
6D0
100
AcDbEntity
  8
001
370
    50
100
AcDbVertex
100
AcDb2dVertex
 10
104.12024
 20
72.871158
 30
0.0
  0
VERTEX
  5
6DF
330
6D0
100
AcDbEntity
  8
001
370
    50
100
AcDbVertex
100
AcDb2dVertex
 10
104.181497
 20
72.839194
 30
0.0
  0
VERTEX
  5
6E0
330
6D0
100
AcDbEntity
  8
001
370
    50
100
AcDbVertex
100
AcDb2dVertex
 10
104.24377
 20
72.812666
 30
0.0
  0
VERTEX
  5
6E1
330
6D0
100
AcDbEntity
  8
001
370
    50
100
AcDbVertex
100
AcDb2dVertex
 10
104.305899
 20
72.791844
 30
0.0
  0
VERTEX
  5
6E2
330
6D0
100
AcDbEntity
  8
001
370
    50
100
AcDbVertex
100
AcDb2dVertex
 10
104.375426
 20
72.776844
 30
0.0
  0
VERTEX
  5
6E3
330
6D0
100
AcDbEntity
  8
001
370
    50
100
AcDbVertex
100
AcDb2dVertex
 10
104.453882
 20
72.767806
 30
0.0
  0
VERTEX
  5
6E4
330
6D0
100
AcDbEntity
  8
001
370
    50
100
AcDbVertex
100
AcDb2dVertex
 10
104.511208
 20
72.764782
 30
0.0
  0
SEQEND
  5
6D1
330
6D0
100
AcDbEntity
  8
001
370
    50
  0
ARC
  5
6E5
330
1F
100
AcDbEntity
  8
001
370
    50
100
AcDbCircle
 10
123.496325
 20
69.749035
 30
0.0
 40
0.769252760072052
100
AcDbArc
 50
224.381481
 51
315.258561
  0
LINE
  5
6E6
330
1F
100
AcDbEntity
  8
001
  6
CENTER
370
     9
100
AcDbLine
 10
120.9752
 20
68.979782
 30
0.0
 11
123.496325
 21
68.979782
 31
0.0
  0
LINE
  5
6E7
330
1F
100
AcDbEntity
  8
001
  6
PHANTOM
370
     9
100
AcDbLine
 10
119.929271
 20
97.764782
 30
0.0
 11
121.425943
 21
97.764782
 31
0.0
  0
LINE
  5
6E8
330
1F
100
AcDbEntity
  8
001
  6
PHANTOM
370
     9
100
AcDbLine
 10
103.229271
 20
76.264782
 30
0.0
 11
98.43864
 21
76.264782
 31
0.0
  0
LINE
  5
6E9
330
1F
100
AcDbEntity
  8
001
  6
PHANTOM
370
     9
100
AcDbLine
 10
103.229271
 20
92.264782
 30
0.0
 11
98.43864
 21
92.264782
 31
0.0
  0
LINE
  5
6EA
330
1F
100
AcDbEntity
  8
001
  6
CENTER
370
     9
100
AcDbLine
 10
120.9752
 20
99.549782
 30
0.0
 11
123.496325
 21
99.549782
 31
0.0
  0
LINE
  5
6EB
330
1F
100
AcDbEntity
  8
001
370
    50
100
AcDbLine
 10
26.95587
 20
28.992952
 30
0.0
 11
66.95587
 21
28.992952
 31
0.0
  0
LINE
  5
6EC
330
1F
100
AcDbEntity
  8
001
370
    50
100
AcDbLine
 10
35.45587
 20
13.792952
 30
0.0
 11
58.45587
 21
13.792952
 31
0.0
  0
LINE
  5
6ED
330
1F
100
AcDbEntity
  8
001
370
    50
100
AcDbLine
 10
58.45587
 20
27.992952
 30
0.0
 11
58.45587
 21
13.792952
 31
0.0
  0
LINE
  5
6EE
330
1F
100
AcDbEntity
  8
001
370
    50
100
AcDbLine
 10
35.45587
 20
27.992952
 30
0.0
 11
35.45587
 21
13.792952
 31
0.0
  0
LINE
  5
6EF
330
1F
100
AcDbEntity
  8
001
370
    50
100
AcDbLine
 10
66.95587
 20
3.992952
 30
0.0
 11
26.95587
 21
3.992952
 31
0.0
  0
LINE
  5
6F0
330
1F
100
AcDbEntity
  8
001
370
    50
100
AcDbLine
 10
54.95587
 20
13.292952
 30
0.0
 11
54.95587
 21
3.992952
 31
0.0
  0
LINE
  5
6F1
330
1F
100
AcDbEntity
  8
001
370
    50
100
AcDbLine
 10
38.95587
 20
13.292952
 30
0.0
 11
38.95587
 21
3.992952
 31
0.0
  0
LINE
  5
6F2
330
1F
100
AcDbEntity
  8
001
370
    50
100
AcDbLine
 10
54.95587
 20
13.292952
 30
0.0
 11
55.45587
 21
13.792952
 31
0.0
  0
LINE
  5
6F3
330
1F
100
AcDbEntity
  8
001
370
    50
100
AcDbLine
 10
38.95587
 20
13.292952
 30
0.0
 11
38.45587
 21
13.792952
 31
0.0
  0
LINE
  5
6F4
330
1F
100
AcDbEntity
  8
001
370
    50
100
AcDbLine
 10
35.45587
 20
27.992952
 30
0.0
 11
34.45587
 21
28.992952
 31
0.0
  0
LINE
  5
6F5
330
1F
100
AcDbEntity
  8
001
  6
CENTER
370
     9
100
AcDbLine
 10
46.95587
 20
30.873266
 30
0.0
 11
46.95587
 21
1.623934
 31
0.0
  0
LINE
  5
6F6
330
1F
100
AcDbEntity
  8
001
370
    50
100
AcDbLine
 10
35.45587
 20
27.992952
 30
0.0
 11
58.45587
 21
27.992952
 31
0.0
  0
LINE
  5
6F7
330
1F
100
AcDbEntity
  8
001
370
    50
100
AcDbLine
 10
38.95587
 20
13.292952
 30
0.0
 11
54.95587
 21
13.292952
 31
0.0
  0
LINE
  5
6F8
330
1F
100
AcDbEntity
  8
001
370
    50
100
AcDbLine
 10
58.45587
 20
27.992952
 30
0.0
 11
59.45587
 21
28.992952
 31
0.0
  0
LINE
  5
6F9
330
1F
100
AcDbEntity
  8
001
370
     9
100
AcDbLine
 10
52.366901
 20
-7.349475
 30
0.0
 11
42.380867
 21
-7.349475
 31
0.0
  0
TEXT
  5
6FA
330
1F
100
AcDbEntity
  8
001
370
    30
100
AcDbText
 10
42.745724
 20
-7.061537
 30
0.0
 40
2.285714
  1
加工形状
 41
0.833333
100
AcDbText
  0
ENDSEC
  0
SECTION
  2
OBJECTS
  0
DICTIONARY
  5
C
330
0
100
AcDbDictionary
281
     1
  3
ACAD_GROUP
350
D
  3
ACAD_LAYOUT
350
1A
  3
ACAD_MLEADERSTYLE
350
6FE
  3
ACAD_MLINESTYLE
350
17
  3
ACAD_PLOTSETTINGS
350
19
  3
ACAD_PLOTSTYLENAME
350
E
  3
ACAD_SCALELIST
350
3B
  3
ACAD_TABLESTYLE
350
6FD
  3
ACAD_VISUALSTYLE
350
2A
  3
AcDbVariableDictionary
350
6FB
  0
DICTIONARY
  5
D
102
{ACAD_REACTORS
330
C
102
}
330
C
100
AcDbDictionary
281
     1
  0
DICTIONARY
  5
1A
102
{ACAD_REACTORS
330
C
102
}
330
C
100
AcDbDictionary
281
     1
  3
Layout1
350
1E
  3
Layout2
350
26
  3
Model
350
22
  0
DICTIONARY
  5
6FE
102
{ACAD_REACTORS
330
C
102
}
330
C
100
AcDbDictionary
281
     1
  0
DICTIONARY
  5
17
102
{ACAD_REACTORS
330
C
102
}
330
C
100
AcDbDictionary
281
     1
  3
Standard
350
18
  0
DICTIONARY
  5
19
102
{ACAD_REACTORS
330
C
102
}
330
C
100
AcDbDictionary
281
     1
  0
ACDBDICTIONARYWDFLT
  5
E
102
{ACAD_REACTORS
330
C
102
}
330
C
100
AcDbDictionary
281
     1
  3
Normal
350
F
100
AcDbDictionaryWithDefault
340
F
  0
DICTIONARY
  5
3B
102
{ACAD_REACTORS
330
C
102
}
330
C
100
AcDbDictionary
281
     1
  3
A0
350
3C
  3
A1
350
3D
  3
A2
350
3E
  3
A3
350
3F
  3
A4
350
40
  3
A5
350
41
  3
A6
350
42
  3
A7
350
43
  3
A8
350
44
  3
A9
350
45
  3
B0
350
46
  3
B1
350
47
  3
B2
350
48
  3
B3
350
49
  3
B4
350
4A
  3
B5
350
4B
  3
B6
350
4C
  3
B7
350
4D
  3
B8
350
4E
  3
B9
350
4F
  3
C0
350
50
  3
C1
350
51
  3
C2
350
52
  3
C3
350
53
  3
C4
350
54
  3
C5
350
55
  3
C6
350
56
  3
C7
350
57
  3
C8
350
58
  3
C9
350
59
  3
D0
350
5A
  3
D1
350
5B
  3
D2
350
5C
  0
DICTIONARY
  5
6FD
102
{ACAD_REACTORS
330
C
102
}
330
C
100
AcDbDictionary
281
     1
  0
DICTIONARY
  5
2A
102
{ACAD_REACTORS
330
C
102
}
330
C
100
AcDbDictionary
281
     1
  3
2dWireframe
350
2F
  3
3D Hidden
350
31
  3
3dWireframe
350
30
  3
Basic
350
32
  3
Brighten
350
36
  3
ColorChange
350
3A
  3
Conceptual
350
34
  3
Dim
350
35
  3
Facepattern
350
39
  3
Flat
350
2B
  3
FlatWithEdges
350
2C
  3
Gouraud
350
2D
  3
GouraudWithEdges
350
2E
  3
Linepattern
350
38
  3
Realistic
350
33
  3
Thicken
350
37
  0
DICTIONARY
  5
6FB
102
{ACAD_REACTORS
330
C
102
}
330
C
100
AcDbDictionary
281
     1
  3
CANNOSCALE
350
6FC
  3
PSOLHEIGHT
350
700
  3
PSOLWIDTH
350
6FF
  0
LAYOUT
  5
1E
102
{ACAD_REACTORS
330
1A
102
}
330
1A
100
AcDbPlotSettings
  1

  2
none_device
  4

  6

 40
0.0
 41
0.0
 42
0.0
 43
0.0
 44
0.0
 45
0.0
 46
0.0
 47
0.0
 48
0.0
 49
0.0
140
0.0
141
0.0
142
1.0
143
1.0
 70
   688
 72
     0
 73
     0
 74
     5
  7

 75
    16
147
1.0
148
0.0
149
0.0
100
AcDbLayout
  1
Layout1
 70
     1
 71
     1
 10
0.0
 20
0.0
 11
12.0
 21
9.0
 12
0.0
 22
0.0
 32
0.0
 14
1.000000E+20
 24
1.000000E+20
 34
0.0
 15
-1.000000E+20
 25
-1.000000E+20
 35
0.0
146
0.0
 13
0.0
 23
0.0
 33
0.0
 16
1.0
 26
0.0
 36
0.0
 17
0.0
 27
1.0
 37
0.0
 76
     0
330
1B
  0
LAYOUT
  5
26
102
{ACAD_REACTORS
330
1A
102
}
330
1A
100
AcDbPlotSettings
  1

  2
none_device
  4

  6

 40
0.0
 41
0.0
 42
0.0
 43
0.0
 44
0.0
 45
0.0
 46
0.0
 47
0.0
 48
0.0
 49
0.0
140
0.0
141
0.0
142
1.0
143
1.0
 70
   688
 72
     0
 73
     0
 74
     5
  7

 75
    16
147
1.0
148
0.0
149
0.0
100
AcDbLayout
  1
Layout2
 70
     1
 71
     2
 10
0.0
 20
0.0
 11
0.0
 21
0.0
 12
0.0
 22
0.0
 32
0.0
 14
0.0
 24
0.0
 34
0.0
 15
0.0
 25
0.0
 35
0.0
146
0.0
 13
0.0
 23
0.0
 33
0.0
 16
1.0
 26
0.0
 36
0.0
 17
0.0
 27
1.0
 37
0.0
 76
     0
330
23
  0
LAYOUT
  5
22
102
{ACAD_REACTORS
330
1A
102
}
330
1A
100
AcDbPlotSettings
  1

  2
none_device
  4

  6

 40
0.0
 41
0.0
 42
0.0
 43
0.0
 44
0.0
 45
0.0
 46
0.0
 47
0.0
 48
0.0
 49
0.0
140
0.0
141
0.0
142
1.0
143
1.0
 70
  1712
 72
     0
 73
     0
 74
     0
  7

 75
     0
147
1.0
148
0.0
149
0.0
100
AcDbLayout
  1
Model
 70
     1
 71
     0
 10
0.0
 20
0.0
 11
12.0
 21
9.0
 12
0.0
 22
0.0
 32
0.0
 14
26.955872
 24
-7.349472
 34
0.0
 15
255.545837
 25
145.655914
 35
0.0
146
0.0
 13
0.0
 23
0.0
 33
0.0
 16
1.0
 26
0.0
 36
0.0
 17
0.0
 27
1.0
 37
0.0
 76
     0
330
1F
331
29
  0
MLINESTYLE
  5
18
102
{ACAD_REACTORS
330
17
102
}
330
17
100
AcDbMlineStyle
  2
Standard
 70
     0
  3

 62
   256
 51
90.0
 52
90.0
 71
     2
 49
0.5
 62
   256
  6
BYLAYER
 49
-0.5
 62
   256
  6
BYLAYER
  0
ACDBPLACEHOLDER
  5
F
102
{ACAD_REACTORS
330
E
102
}
330
E
  0
SCALE
  5
3C
102
{ACAD_REACTORS
330
3B
102
}
330
3B
100
AcDbScale
 70
     0
300
1:1
140
1.0
141
1.0
290
     1
  0
SCALE
  5
3D
102
{ACAD_REACTORS
330
3B
102
}
330
3B
100
AcDbScale
 70
     0
300
1:2
140
1.0
141
2.0
290
     0
  0
SCALE
  5
3E
102
{ACAD_REACTORS
330
3B
102
}
330
3B
100
AcDbScale
 70
     0
300
1:4
140
1.0
141
4.0
290
     0
  0
SCALE
  5
3F
102
{ACAD_REACTORS
330
3B
102
}
330
3B
100
AcDbScale
 70
     0
300
1:5
140
1.0
141
5.0
290
     0
  0
SCALE
  5
40
102
{ACAD_REACTORS
330
3B
102
}
330
3B
100
AcDbScale
 70
     0
300
1:8
140
1.0
141
8.0
290
     0
  0
SCALE
  5
41
102
{ACAD_REACTORS
330
3B
102
}
330
3B
100
AcDbScale
 70
     0
300
1:10
140
1.0
141
10.0
290
     0
  0
SCALE
  5
42
102
{ACAD_REACTORS
330
3B
102
}
330
3B
100
AcDbScale
 70
     0
300
1:16
140
1.0
141
16.0
290
     0
  0
SCALE
  5
43
102
{ACAD_REACTORS
330
3B
102
}
330
3B
100
AcDbScale
 70
     0
300
1:20
140
1.0
141
20.0
290
     0
  0
SCALE
  5
44
102
{ACAD_REACTORS
330
3B
102
}
330
3B
100
AcDbScale
 70
     0
300
1:30
140
1.0
141
30.0
290
     0
  0
SCALE
  5
45
102
{ACAD_REACTORS
330
3B
102
}
330
3B
100
AcDbScale
 70
     0
300
1:40
140
1.0
141
40.0
290
     0
  0
SCALE
  5
46
102
{ACAD_REACTORS
330
3B
102
}
330
3B
100
AcDbScale
 70
     0
300
1:50
140
1.0
141
50.0
290
     0
  0
SCALE
  5
47
102
{ACAD_REACTORS
330
3B
102
}
330
3B
100
AcDbScale
 70
     0
300
1:100
140
1.0
141
100.0
290
     0
  0
SCALE
  5
48
102
{ACAD_REACTORS
330
3B
102
}
330
3B
100
AcDbScale
 70
     0
300
2:1
140
2.0
141
1.0
290
     0
  0
SCALE
  5
49
102
{ACAD_REACTORS
330
3B
102
}
330
3B
100
AcDbScale
 70
     0
300
4:1
140
4.0
141
1.0
290
     0
  0
SCALE
  5
4A
102
{ACAD_REACTORS
330
3B
102
}
330
3B
100
AcDbScale
 70
     0
300
8:1
140
8.0
141
1.0
290
     0
  0
SCALE
  5
4B
102
{ACAD_REACTORS
330
3B
102
}
330
3B
100
AcDbScale
 70
     0
300
10:1
140
10.0
141
1.0
290
     0
  0
SCALE
  5
4C
102
{ACAD_REACTORS
330
3B
102
}
330
3B
100
AcDbScale
 70
     0
300
100:1
140
100.0
141
1.0
290
     0
  0
SCALE
  5
4D
102
{ACAD_REACTORS
330
3B
102
}
330
3B
100
AcDbScale
 70
     0
300
1/128" = 1'-0"
140
0.007812
141
12.0
290
     0
  0
SCALE
  5
4E
102
{ACAD_REACTORS
330
3B
102
}
330
3B
100
AcDbScale
 70
     0
300
1/64" = 1'-0"
140
0.015625
141
12.0
290
     0
  0
SCALE
  5
4F
102
{ACAD_REACTORS
330
3B
102
}
330
3B
100
AcDbScale
 70
     0
300
1/32" = 1'-0"
140
0.03125
141
12.0
290
     0
  0
SCALE
  5
50
102
{ACAD_REACTORS
330
3B
102
}
330
3B
100
AcDbScale
 70
     0
300
1/16" = 1'-0"
140
0.0625
141
12.0
290
     0
  0
SCALE
  5
51
102
{ACAD_REACTORS
330
3B
102
}
330
3B
100
AcDbScale
 70
     0
300
3/32" = 1'-0"
140
0.09375
141
12.0
290
     0
  0
SCALE
  5
52
102
{ACAD_REACTORS
330
3B
102
}
330
3B
100
AcDbScale
 70
     0
300
1/8" = 1'-0"
140
0.125
141
12.0
290
     0
  0
SCALE
  5
53
102
{ACAD_REACTORS
330
3B
102
}
330
3B
100
AcDbScale
 70
     0
300
3/16" = 1'-0"
140
0.1875
141
12.0
290
     0
  0
SCALE
  5
54
102
{ACAD_REACTORS
330
3B
102
}
330
3B
100
AcDbScale
 70
     0
300
1/4" = 1'-0"
140
0.25
141
12.0
290
     0
  0
SCALE
  5
55
102
{ACAD_REACTORS
330
3B
102
}
330
3B
100
AcDbScale
 70
     0
300
3/8" = 1'-0"
140
0.375
141
12.0
290
     0
  0
SCALE
  5
56
102
{ACAD_REACTORS
330
3B
102
}
330
3B
100
AcDbScale
 70
     0
300
1/2" = 1'-0"
140
0.5
141
12.0
290
     0
  0
SCALE
  5
57
102
{ACAD_REACTORS
330
3B
102
}
330
3B
100
AcDbScale
 70
     0
300
3/4" = 1'-0"
140
0.75
141
12.0
290
     0
  0
SCALE
  5
58
102
{ACAD_REACTORS
330
3B
102
}
330
3B
100
AcDbScale
 70
     0
300
1" = 1'-0"
140
1.0
141
12.0
290
     0
  0
SCALE
  5
59
102
{ACAD_REACTORS
330
3B
102
}
330
3B
100
AcDbScale
 70
     0
300
1-1/2" = 1'-0"
140
1.5
141
12.0
290
     0
  0
SCALE
  5
5A
102
{ACAD_REACTORS
330
3B
102
}
330
3B
100
AcDbScale
 70
     0
300
3" = 1'-0"
140
3.0
141
12.0
290
     0
  0
SCALE
  5
5B
102
{ACAD_REACTORS
330
3B
102
}
330
3B
100
AcDbScale
 70
     0
300
6" = 1'-0"
140
6.0
141
12.0
290
     0
  0
SCALE
  5
5C
102
{ACAD_REACTORS
330
3B
102
}
330
3B
100
AcDbScale
 70
     0
300
1'-0" = 1'-0"
140
12.0
141
12.0
290
     0
  0
VISUALSTYLE
  5
2F
102
{ACAD_REACTORS
330
2A
102
}
330
2A
100
AcDbVisualStyle
  2
2dWireframe
 70
     4
 71
     0
 72
     2
 73
     0
 90
        0
 40
-0.6
 41
-30.0
 62
     5
 63
     7
 74
     1
 91
        4
 64
     7
 65
   257
 75
     1
175
     1
 42
1.0
 92
        0
 66
   257
 43
1.0
 76
     1
 77
     6
 78
     2
 67
     7
 79
     5
170
     0
171
     0
290
     0
174
     0
 93
        1
 44
0.0
173
     0
291
     0
 45
0.0
1001
ACAD
1000
AcDbSavedByObjectVersion
1070
     0
  0
VISUALSTYLE
  5
31
102
{ACAD_REACTORS
330
2A
102
}
330
2A
100
AcDbVisualStyle
  2
3D Hidden
 70
     6
 71
     1
 72
     2
 73
     2
 90
        0
 40
-0.6
 41
-30.0
 62
     5
 63
     7
 74
     2
 91
        2
 64
     7
 65
   257
 75
     2
175
     1
 42
40.0
 92
        0
 66
   257
 43
1.0
 76
     1
 77
     6
 78
     2
 67
     7
 79
     3
170
     0
171
     0
290
     0
174
     0
 93
        1
 44
0.0
173
     0
291
     0
 45
0.0
1001
ACAD
1000
AcDbSavedByObjectVersion
1070
     0
  0
VISUALSTYLE
  5
30
102
{ACAD_REACTORS
330
2A
102
}
330
2A
100
AcDbVisualStyle
  2
3dWireframe
 70
     5
 71
     0
 72
     2
 73
     0
 90
        0
 40
-0.6
 41
-30.0
 62
     5
 63
     7
 74
     1
 91
        4
 64
     7
 65
   257
 75
     1
175
     1
 42
1.0
 92
        0
 66
   257
 43
1.0
 76
     1
 77
     6
 78
     2
 67
     7
 79
     5
170
     0
171
     0
290
     0
174
     0
 93
        1
 44
0.0
173
     0
291
     0
 45
0.0
1001
ACAD
1000
AcDbSavedByObjectVersion
1070
     0
  0
VISUALSTYLE
  5
32
102
{ACAD_REACTORS
330
2A
102
}
330
2A
100
AcDbVisualStyle
  2
Basic
 70
     7
 71
     1
 72
     0
 73
     1
 90
        0
 40
-0.6
 41
-30.0
 62
     5
 63
     7
 74
     0
 91
        4
 64
     7
 65
   257
 75
     1
175
     1
 42
1.0
 92
        8
 66
     7
 43
1.0
 76
     1
 77
     6
 78
     2
 67
     7
 79
     5
170
     0
171
     0
290
     0
174
     0
 93
        1
 44
0.0
173
     0
291
     1
 45
0.0
1001
ACAD
1000
AcDbSavedByObjectVersion
1070
     0
  0
VISUALSTYLE
  5
36
102
{ACAD_REACTORS
330
2A
102
}
330
2A
100
AcDbVisualStyle
  2
Brighten
 70
    12
 71
     2
 72
     2
 73
     0
 90
        0
 40
-0.6
 41
-30.0
 62
     5
 63
     7
 74
     1
 91
        4
 64
     7
 65
   257
 75
     1
175
     1
 42
1.0
 92
        8
 66
     7
 43
1.0
 76
     1
 77
     6
 78
     2
 67
     7
 79
     5
170
     0
171
     0
290
     0
174
     0
 93
        1
 44
50.0
173
     0
291
     1
 45
0.0
1001
ACAD
1000
AcDbSavedByObjectVersion
1070
     0
  0
VISUALSTYLE
  5
3A
102
{ACAD_REACTORS
330
2A
102
}
330
2A
100
AcDbVisualStyle
  2
ColorChange
 70
    16
 71
     2
 72
     2
 73
     3
 90
        0
 40
-0.6
 41
-30.0
 62
     5
 63
     8
 74
     1
 91
        4
 64
     7
 65
   257
 75
     1
175
     1
 42
1.0
 92
        8
 66
     8
 43
1.0
 76
     1
 77
     6
 78
     2
 67
     7
 79
     5
170
     0
171
     0
290
     0
174
     0
 93
        1
 44
0.0
173
     0
291
     1
 45
0.0
1001
ACAD
1000
AcDbSavedByObjectVersion
1070
     0
  0
VISUALSTYLE
  5
34
102
{ACAD_REACTORS
330
2A
102
}
330
2A
100
AcDbVisualStyle
  2
Conceptual
 70
     9
 71
     3
 72
     2
 73
     0
 90
        0
 40
-0.6
 41
-30.0
 62
     5
 63
     7
 74
     2
 91
        2
 64
     7
 65
   257
 75
     1
175
     1
 42
40.0
 92
        8
 66
     7
 43
1.0
 76
     1
 77
     6
 78
     2
 67
     7
 79
     3
170
     0
171
     0
290
     0
174
     0
 93
        1
 44
0.0
173
     0
291
     0
 45
0.0
1001
ACAD
1000
AcDbSavedByObjectVersion
1070
     0
  0
VISUALSTYLE
  5
35
102
{ACAD_REACTORS
330
2A
102
}
330
2A
100
AcDbVisualStyle
  2
Dim
 70
    11
 71
     2
 72
     2
 73
     0
 90
        0
 40
-0.6
 41
-30.0
 62
     5
 63
     7
 74
     1
 91
        4
 64
     7
 65
   257
 75
     1
175
     1
 42
1.0
 92
        8
 66
     7
 43
1.0
 76
     1
 77
     6
 78
     2
 67
     7
 79
     5
170
     0
171
     0
290
     0
174
     0
 93
        1
 44
-50.0
173
     0
291
     1
 45
0.0
1001
ACAD
1000
AcDbSavedByObjectVersion
1070
     0
  0
VISUALSTYLE
  5
39
102
{ACAD_REACTORS
330
2A
102
}
330
2A
100
AcDbVisualStyle
  2
Facepattern
 70
    15
 71
     2
 72
     2
 73
     0
 90
        0
 40
-0.6
 41
-30.0
 62
     5
 63
     7
 74
     1
 91
        4
 64
     7
 65
   257
 75
     1
175
     1
 42
1.0
 92
        8
 66
     7
 43
1.0
 76
     1
 77
     6
 78
     2
 67
     7
 79
     5
170
     0
171
     0
290
     0
174
     0
 93
        1
 44
0.0
173
     0
291
     1
 45
0.0
1001
ACAD
1000
AcDbSavedByObjectVersion
1070
     0
  0
VISUALSTYLE
  5
2B
102
{ACAD_REACTORS
330
2A
102
}
330
2A
100
AcDbVisualStyle
  2
Flat
 70
     0
 71
     2
 72
     1
 73
     1
 90
        2
 40
-0.6
 41
30.0
 62
     5
 63
     7
 74
     0
 91
        4
 64
     7
 65
   257
 75
     1
175
     1
 42
1.0
 92
        8
 66
     7
 43
1.0
 76
     1
 77
     6
 78
     2
 67
     7
 79
     5
170
     0
171
     0
290
     0
174
     0
 93
       13
 44
0.0
173
     0
291
     1
 45
0.0
1001
ACAD
1000
AcDbSavedByObjectVersion
1070
     0
  0
VISUALSTYLE
  5
2C
102
{ACAD_REACTORS
330
2A
102
}
330
2A
100
AcDbVisualStyle
  2
FlatWithEdges
 70
     1
 71
     2
 72
     1
 73
     1
 90
        2
 40
-0.6
 41
30.0
 62
     5
 63
     7
 74
     1
 91
        4
 64
     7
 65
   257
 75
     1
175
     1
 42
1.0
 92
        0
 66
   257
 43
1.0
 76
     1
 77
     6
 78
     2
 67
     7
 79
     5
170
     0
171
     0
290
     0
174
     0
 93
       13
 44
0.0
173
     0
291
     1
 45
0.0
1001
ACAD
1000
AcDbSavedByObjectVersion
1070
     0
  0
VISUALSTYLE
  5
2D
102
{ACAD_REACTORS
330
2A
102
}
330
2A
100
AcDbVisualStyle
  2
Gouraud
 70
     2
 71
     2
 72
     2
 73
     1
 90
        2
 40
-0.6
 41
30.0
 62
     5
 63
     7
 74
     0
 91
        4
 64
     7
 65
   257
 75
     1
175
     1
 42
1.0
 92
        0
 66
     7
 43
1.0
 76
     1
 77
     6
 78
     2
 67
     7
 79
     5
170
     0
171
     0
290
     0
174
     0
 93
       13
 44
0.0
173
     0
291
     1
 45
0.0
1001
ACAD
1000
AcDbSavedByObjectVersion
1070
     0
  0
VISUALSTYLE
  5
2E
102
{ACAD_REACTORS
330
2A
102
}
330
2A
100
AcDbVisualStyle
  2
GouraudWithEdges
 70
     3
 71
     2
 72
     2
 73
     1
 90
        2
 40
-0.6
 41
30.0
 62
     5
 63
     7
 74
     1
 91
        4
 64
     7
 65
   257
 75
     1
175
     1
 42
1.0
 92
        0
 66
   257
 43
1.0
 76
     1
 77
     6
 78
     2
 67
     7
 79
     5
170
     0
171
     0
290
     0
174
     0
 93
       13
 44
0.0
173
     0
291
     1
 45
0.0
1001
ACAD
1000
AcDbSavedByObjectVersion
1070
     0
  0
VISUALSTYLE
  5
38
102
{ACAD_REACTORS
330
2A
102
}
330
2A
100
AcDbVisualStyle
  2
Linepattern
 70
    14
 71
     2
 72
     2
 73
     0
 90
        0
 40
-0.6
 41
-30.0
 62
     5
 63
     7
 74
     1
 91
        4
 64
     7
 65
   257
 75
     7
175
     7
 42
1.0
 92
        8
 66
     7
 43
1.0
 76
     1
 77
     6
 78
     2
 67
     7
 79
     5
170
     0
171
     0
290
     0
174
     0
 93
        1
 44
0.0
173
     0
291
     1
 45
0.0
1001
ACAD
1000
AcDbSavedByObjectVersion
1070
     0
  0
VISUALSTYLE
  5
33
102
{ACAD_REACTORS
330
2A
102
}
330
2A
100
AcDbVisualStyle
  2
Realistic
 70
     8
 71
     2
 72
     2
 73
     0
 90
        0
 40
-0.6
 41
-30.0
 62
     5
 63
     7
 74
     1
 91
        0
 64
     7
 65
   257
 75
     1
175
     1
 42
1.0
 92
        8
 66
     8
 43
1.0
 76
     1
 77
     6
 78
     2
 67
     7
 79
     5
170
     0
171
     0
290
     0
174
     0
 93
       13
 44
0.0
173
     0
291
     0
 45
0.0
1001
ACAD
1000
AcDbSavedByObjectVersion
1070
     0
  0
VISUALSTYLE
  5
37
102
{ACAD_REACTORS
330
2A
102
}
330
2A
100
AcDbVisualStyle
  2
Thicken
 70
    13
 71
     2
 72
     2
 73
     0
 90
        0
 40
-0.6
 41
-30.0
 62
     5
 63
     7
 74
     1
 91
        4
 64
     7
 65
   257
 75
     1
175
     1
 42
1.0
 92
       12
 66
     7
 43
1.0
 76
     1
 77
     6
 78
     2
 67
     7
 79
     5
170
     0
171
     0
290
     0
174
     0
 93
        1
 44
0.0
173
     0
291
     1
 45
0.0
1001
ACAD
1000
AcDbSavedByObjectVersion
1070
     0
  0
DICTIONARYVAR
  5
6FC
102
{ACAD_REACTORS
330
6FB
102
}
330
6FB
100
DictionaryVariables
280
     0
  1
1:1
  0
DICTIONARYVAR
  5
700
102
{ACAD_REACTORS
330
6FB
102
}
330
6FB
100
DictionaryVariables
280
     0
  1
80.000000
  0
DICTIONARYVAR
  5
6FF
102
{ACAD_REACTORS
330
6FB
102
}
330
6FB
100
DictionaryVariables
280
     0
  1
5.000000
  0
ENDSEC
  0
EOF
