  0
SECTION
  2
HEADER
  9
$ACADVER
  1
AC1009
  9
$INSBASE
 10
0.0
 20
0.0
 30
0.0
  9
$EXTMIN
 10
5.9989503333333332
 20
15.113066
 30
0.0
  9
$EXTMAX
 10
231.55441566666661
 20
151.09366199999999
 30
0.0
  9
$LIMMIN
 10
0.0
 20
0.0
  9
$LIMMAX
 10
12.0
 20
9.0
  9
$ORTHOMODE
 70
     0
  9
$REGENMODE
 70
     1
  9
$FILLMODE
 70
     1
  9
$QTEXTMODE
 70
     0
  9
$MIRRTEXT
 70
     1
  9
$DRAGMODE
 70
     2
  9
$LTSCALE
 40
2.6719040000000001
  9
$OSMODE
 70
    39
  9
$ATTMODE
 70
     1
  9
$TEXTSIZE
 40
0.2
  9
$TRACEWID
 40
1.0
  9
$TEXTSTYLE
  7
STANDARD
  9
$CLAYER
  8
0
  9
$CELTYPE
  6
BYLAYER
  9
$CECOLOR
 62
   256
  9
$DIMSCALE
 40
1.0
  9
$DIMASZ
 40
2.5
  9
$DIMEXO
 40
0.625
  9
$DIMDLI
 40
3.75
  9
$DIMRND
 40
0.0
  9
$DIMDLE
 40
0.0
  9
$DIMEXE
 40
1.25
  9
$DIMTP
 40
0.0
  9
$DIMTM
 40
0.0
  9
$DIMTXT
 40
2.5
  9
$DIMCEN
 40
0.09
  9
$DIMTSZ
 40
0.0
  9
$DIMTOL
 70
     0
  9
$DIMLIM
 70
     0
  9
$DIMTIH
 70
     0
  9
$DIMTOH
 70
     0
  9
$DIMSE1
 70
     0
  9
$DIMSE2
 70
     0
  9
$DIMTAD
 70
     0
  9
$DIMZIN
 70
     8
  9
$DIMBLK
  1

  9
$DIMASO
 70
     1
  9
$DIMSHO
 70
     0
  9
$DIMPOST
  1

  9
$DIMAPOST
  1

  9
$DIMALT
 70
     0
  9
$DIMALTD
 70
     3
  9
$DIMALTF
 40
0.03937
  9
$DIMLFAC
 40
1.0
  9
$DIMTOFL
 70
     1
  9
$DIMTVP
 40
0.0
  9
$DIMTIX
 70
     0
  9
$DIMSOXD
 70
     0
  9
$DIMSAH
 70
     0
  9
$DIMBLK1
  1

  9
$DIMBLK2
  1

  9
$DIMSTYLE
  2
ISO-25
  9
$DIMCLRD
 70
     0
  9
$DIMCLRE
 70
     0
  9
$DIMCLRT
 70
     0
  9
$DIMTFAC
 40
1.0
  9
$DIMGAP
 40
0.625
  9
$LUNITS
 70
     2
  9
$LUPREC
 70
     4
  9
$SKETCHINC
 40
1.0
  9
$FILLETRAD
 40
0.0
  9
$AUNITS
 70
     0
  9
$AUPREC
 70
     0
  9
$MENU
  1
.
  9
$ELEVATION
 40
0.0
  9
$PELEVATION
 40
0.0
  9
$THICKNESS
 40
0.0
  9
$LIMCHECK
 70
     0
  9
$BLIPMODE
 70
     0
  9
$CHAMFERA
 40
10.0
  9
$CHAMFERB
 40
10.0
  9
$SKPOLY
 70
     0
  9
$TDCREATE
 40
2454798.4689217941
  9
$TDUPDATE
 40
2454798.4716261569
  9
$TDINDWG
 40
0.000304375
  9
$TDUSRTIMER
 40
0.0003040046
  9
$USRTIMER
 70
     1
  9
$ANGBASE
 50
0.0
  9
$ANGDIR
 70
     0
  9
$PDMODE
 70
     0
  9
$PDSIZE
 40
0.0
  9
$PLINEWID
 40
0.0
  9
$COORDS
 70
     1
  9
$SPLFRAME
 70
     0
  9
$SPLINETYPE
 70
     6
  9
$SPLINESEGS
 70
     8
  9
$ATTDIA
 70
     0
  9
$ATTREQ
 70
     1
  9
$HANDLING
 70
     1
  9
$HANDSEED
  5
6B0
  9
$SURFTAB1
 70
     6
  9
$SURFTAB2
 70
     6
  9
$SURFTYPE
 70
     6
  9
$SURFU
 70
     6
  9
$SURFV
 70
     6
  9
$UCSNAME
  2

  9
$UCSORG
 10
0.0
 20
0.0
 30
0.0
  9
$UCSXDIR
 10
1.0
 20
0.0
 30
0.0
  9
$UCSYDIR
 10
0.0
 20
1.0
 30
0.0
  9
$PUCSNAME
  2

  9
$PUCSORG
 10
0.0
 20
0.0
 30
0.0
  9
$PUCSXDIR
 10
1.0
 20
0.0
 30
0.0
  9
$PUCSYDIR
 10
0.0
 20
1.0
 30
0.0
  9
$USERI1
 70
     0
  9
$USERI2
 70
     0
  9
$USERI3
 70
     0
  9
$USERI4
 70
     0
  9
$USERI5
 70
     0
  9
$USERR1
 40
0.0
  9
$USERR2
 40
0.0
  9
$USERR3
 40
0.0
  9
$USERR4
 40
0.0
  9
$USERR5
 40
0.0
  9
$WORLDVIEW
 70
     1
  9
$SHADEDGE
 70
     3
  9
$SHADEDIF
 70
    70
  9
$TILEMODE
 70
     1
  9
$MAXACTVP
 70
    64
  9
$PLIMCHECK
 70
     0
  9
$PEXTMIN
 10
1.0000000000000000E+020
 20
1.0000000000000000E+020
 30
0.0
  9
$PEXTMAX
 10
-1.0000000000000000E+020
 20
-1.0000000000000000E+020
 30
0.0
  9
$PLIMMIN
 10
0.0
 20
0.0
  9
$PLIMMAX
 10
12.0
 20
9.0
  9
$UNITMODE
 70
     0
  9
$VISRETAIN
 70
     1
  9
$PLINEGEN
 70
     0
  9
$PSLTSCALE
 70
     1
  0
ENDSEC
  0
SECTION
  2
TABLES
  0
TABLE
  2
VPORT
 70
     2
  0
VPORT
  2
*ACTIVE
 70
     0
 10
0.0
 20
0.0
 11
1.0
 21
1.0
 12
111.930977790821
 22
79.574949917880332
 13
0.0
 23
0.0
 14
1.0
 24
1.0
 15
0.0
 25
0.0
 16
0.0
 26
0.0
 36
1.0
 17
0.0
 27
0.0
 37
0.0
 40
210.64115222641919
 41
1.3895027624309391
 42
50.0
 43
0.0
 44
0.0
 50
0.0
 51
0.0
 71
     0
 72
   100
 73
     1
 74
     3
 75
     0
 76
     0
 77
     0
 78
     0
  0
ENDTAB
  0
TABLE
  2
LTYPE
 70
     5
  0
LTYPE
  2
CONTINUOUS
 70
     0
  3
Solid line
 72
    65
 73
     0
 40
0.0
  0
LTYPE
  2
DASHED
 70
     0
  3
DASHED
 72
    83
 73
     2
 40
0.75
 49
0.5
 49
-0.25
  0
LTYPE
  2
HIDDEN
 70
     0
  3
HIDDEN
 72
    83
 73
     2
 40
0.375
 49
0.25
 49
-0.125
  0
LTYPE
  2
CENTER
 70
     0
  3
CENTER
 72
    83
 73
     4
 40
2.0
 49
1.25
 49
-0.25
 49
0.25
 49
-0.25
  0
LTYPE
  2
PHANTOM
 70
     0
  3
PHANTOM
 72
    83
 73
     6
 40
2.5
 49
1.25
 49
-0.25
 49
0.25
 49
-0.25
 49
0.25
 49
-0.25
  0
ENDTAB
  0
TABLE
  2
LAYER
 70
     2
  0
LAYER
  2
0
 70
     0
 62
     7
  6
CONTINUOUS
  0
LAYER
  2
001
 70
     0
 62
     7
  6
CONTINUOUS
  0
ENDTAB
  0
TABLE
  2
STYLE
 70
     2
  0
STYLE
  2
STANDARD
 70
     0
 40
0.0
 41
1.0
 50
0.0
 71
     0
 42
0.2
  3
TXT
  4
BIGFONT
  0
STYLE
  2
TATEGAKI
 70
     4
 40
1.0
 41
1.0
 50
0.0
 71
     0
 42
0.2
  3
TXT
  4
BIGFONT
  0
ENDTAB
  0
TABLE
  2
VIEW
 70
     0
  0
ENDTAB
  0
TABLE
  2
UCS
 70
     0
  0
ENDTAB
  0
TABLE
  2
APPID
 70
     1
  0
APPID
  2
ACAD
 70
     0
  0
ENDTAB
  0
TABLE
  2
DIMSTYLE
 70
     2
  0
DIMSTYLE
  2
ISO-25
 70
     0
  3

  4

  5

  6

  7

 40
1.0
 41
2.5
 42
0.625
 43
3.75
 44
1.25
 45
0.0
 46
0.0
 47
0.0
 48
0.0
140
2.5
141
2.5
142
0.0
143
0.03937
144
1.0
145
0.0
146
1.0
147
0.625
 71
     0
 72
     0
 73
     0
 74
     0
 75
     0
 76
     0
 77
     1
 78
     8
170
     0
171
     3
172
     1
173
     0
174
     0
175
     0
176
     0
177
     0
178
     0
  0
DIMSTYLE
  2
STANDARD
 70
     0
  3

  4

  5

  6

  7

 40
1.0
 41
1.5
 42
0.0
 43
0.38
 44
2.75
 45
0.0
 46
0.0
 47
0.0
 48
0.0
140
4.0
141
0.09
142
0.0
143
25.399999999999999
144
1.0
145
0.0
146
0.8
147
1.0
 71
     0
 72
     0
 73
     0
 74
     0
 75
     0
 76
     0
 77
     1
 78
     8
170
     0
171
     2
172
     1
173
     0
174
     0
175
     0
176
     0
177
     0
178
     0
  0
ENDTAB
  0
ENDSEC
  0
SECTION
  2
BLOCKS
  0
BLOCK
  8
0
  2
$MODEL_SPACE
 70
     0
 10
0.0
 20
0.0
 30
0.0
  3
$MODEL_SPACE
  1

  0
ENDBLK
  5
21
  8
0
  0
BLOCK
 67
     1
  8
0
  2
$PAPER_SPACE
 70
     0
 10
0.0
 20
0.0
 30
0.0
  3
$PAPER_SPACE
  1

  0
ENDBLK
  5
1D
 67
     1
  8
0
  0
BLOCK
  8
0
  2
*D1
 70
     1
 10
0.0
 20
0.0
 30
0.0
  3
*D1
  1

  0
LINE
  5
67
  8
001
 10
39.713628999999997
 20
27.770596999999999
 30
0.0
 11
39.713628999999997
 21
21.017882
 31
0.0
  0
LINE
  5
68
  8
001
 10
28.713629000000001
 20
27.770596999999999
 30
0.0
 11
28.713629000000001
 21
21.017882
 31
0.0
  0
LINE
  5
69
  8
001
 10
39.713628999999997
 20
22.392882
 30
0.0
 11
28.713629000000001
 21
22.392882
 31
0.0
  0
POLYLINE
  5
6A
  8
001
 66
     1
 10
0.0
 20
0.0
 30
0.0
  0
VERTEX
  5
6C
  8
001
 10
38.963628999999997
 20
22.593844000000001
 30
0.0
  0
VERTEX
  5
6D
  8
001
 10
39.713628999999997
 20
22.392882
 30
0.0
  0
VERTEX
  5
6E
  8
001
 10
38.963628999999997
 20
22.191921000000001
 30
0.0
  0
SEQEND
  5
6B
  8
001
  0
POLYLINE
  5
6F
  8
001
 66
     1
 10
0.0
 20
0.0
 30
0.0
  0
VERTEX
  5
71
  8
001
 10
29.463629000000001
 20
22.191921000000001
 30
0.0
  0
VERTEX
  5
72
  8
001
 10
28.713629000000001
 20
22.392882
 30
0.0
  0
VERTEX
  5
73
  8
001
 10
29.463629000000001
 20
22.593844000000001
 30
0.0
  0
SEQEND
  5
70
  8
001
  0
TEXT
  5
74
  8
001
 10
31.213629000000001
 20
22.892882
 30
0.0
 40
2.0
  1
%%c１１
 41
0.8823529999999999
  0
POINT
  5
75
  8
001
 10
39.713628999999997
 20
27.770596999999999
 30
0.0
  0
POINT
  5
76
  8
001
 10
28.713629000000001
 20
27.770596999999999
 30
0.0
  0
POINT
  5
77
  8
001
 10
28.713629000000001
 20
22.392882
 30
0.0
  0
ENDBLK
  5
66
  8
0
  0
BLOCK
  8
0
  2
*D2
 70
     1
 10
0.0
 20
0.0
 30
0.0
  3
*D2
  1

  0
LINE
  5
7B
  8
001
 10
42.963628999999997
 20
46.770597000000002
 30
0.0
 11
42.963628999999997
 21
60.554646999999989
 31
0.0
  0
LINE
  5
7C
  8
001
 10
25.463629000000001
 20
46.770597000000002
 30
0.0
 11
25.463629000000001
 21
60.554646999999989
 31
0.0
  0
LINE
  5
7D
  8
001
 10
42.963628999999997
 20
59.179646999999989
 30
0.0
 11
25.463629000000001
 21
59.179646999999989
 31
0.0
  0
POLYLINE
  5
7E
  8
001
 66
     1
 10
0.0
 20
0.0
 30
0.0
  0
VERTEX
  5
80
  8
001
 10
42.21362899999999
 20
59.380608999999993
 30
0.0
  0
VERTEX
  5
81
  8
001
 10
42.963628999999997
 20
59.179646999999989
 30
0.0
  0
VERTEX
  5
82
  8
001
 10
42.21362899999999
 20
58.978684999999999
 30
0.0
  0
SEQEND
  5
7F
  8
001
  0
POLYLINE
  5
83
  8
001
 66
     1
 10
0.0
 20
0.0
 30
0.0
  0
VERTEX
  5
85
  8
001
 10
26.213629000000001
 20
58.978684999999999
 30
0.0
  0
VERTEX
  5
86
  8
001
 10
25.463629000000001
 20
59.179646999999989
 30
0.0
  0
VERTEX
  5
87
  8
001
 10
26.213629000000001
 20
59.380608999999993
 30
0.0
  0
SEQEND
  5
84
  8
001
  0
TEXT
  5
88
  8
001
 10
29.213629000000001
 20
59.679646999999989
 30
0.0
 40
2.0
  1
%%c１７．５
 41
0.8620690000000001
  0
POINT
  5
89
  8
001
 10
42.963628999999997
 20
46.770597000000002
 30
0.0
  0
POINT
  5
8A
  8
001
 10
25.463629000000001
 20
46.770597000000002
 30
0.0
  0
POINT
  5
8B
  8
001
 10
25.463629000000001
 20
59.179646999999989
 30
0.0
  0
ENDBLK
  5
7A
  8
0
  0
BLOCK
  8
0
  2
*D3
 70
     1
 10
0.0
 20
0.0
 30
0.0
  3
*D3
  1

  0
LINE
  5
8F
  8
001
 10
49.213628999999997
 20
47.770596999999988
 30
0.0
 11
54.343868000000008
 21
47.770596999999988
 31
0.0
  0
LINE
  5
90
  8
001
 10
42.963628999999997
 20
36.970596999999998
 30
0.0
 11
54.343868000000008
 21
36.970596999999998
 31
0.0
  0
LINE
  5
91
  8
001
 10
52.968868000000008
 20
47.770596999999988
 30
0.0
 11
52.968868000000008
 21
36.970596999999998
 31
0.0
  0
POLYLINE
  5
92
  8
001
 66
     1
 10
0.0
 20
0.0
 30
0.0
  0
VERTEX
  5
94
  8
001
 10
52.767906999999987
 20
47.020596999999988
 30
0.0
  0
VERTEX
  5
95
  8
001
 10
52.968868000000008
 20
47.770596999999988
 30
0.0
  0
VERTEX
  5
96
  8
001
 10
53.169829999999997
 20
47.020596999999988
 30
0.0
  0
SEQEND
  5
93
  8
001
  0
POLYLINE
  5
97
  8
001
 66
     1
 10
0.0
 20
0.0
 30
0.0
  0
VERTEX
  5
99
  8
001
 10
53.169829999999997
 20
37.720596999999998
 30
0.0
  0
VERTEX
  5
9A
  8
001
 10
52.968868000000008
 20
36.970596999999998
 30
0.0
  0
VERTEX
  5
9B
  8
001
 10
52.767906999999987
 20
37.720596999999998
 30
0.0
  0
SEQEND
  5
98
  8
001
  0
TEXT
  5
9C
  8
001
 10
52.468868000000008
 20
38.370596999999997
 30
0.0
 40
2.0
  1
１０．８
 50
90.000003000000007
 41
0.833333
  0
POINT
  5
9D
  8
001
 10
49.213628999999997
 20
47.770596999999988
 30
0.0
  0
POINT
  5
9E
  8
001
 10
42.963628999999997
 20
36.970596999999998
 30
0.0
  0
POINT
  5
9F
  8
001
 10
52.968868000000008
 20
36.970596999999998
 30
0.0
  0
ENDBLK
  5
8E
  8
0
  0
BLOCK
  8
0
  2
*D4
 70
     1
 10
0.0
 20
0.0
 30
0.0
  3
*D4
  1

  0
LINE
  5
A3
  8
001
 10
87.640644999999992
 20
84.999313999999984
 30
0.0
 11
69.656544999999994
 21
84.999313999999984
 31
0.0
  0
LINE
  5
A4
  8
001
 10
87.640644999999992
 20
102.499314
 30
0.0
 11
69.656544999999994
 21
102.499314
 31
0.0
  0
LINE
  5
A5
  8
001
 10
72.406544999999994
 20
84.999313999999984
 30
0.0
 11
72.406544999999994
 21
102.499314
 31
0.0
  0
POLYLINE
  5
A6
  8
001
 66
     1
 10
0.0
 20
0.0
 30
0.0
  0
VERTEX
  5
A8
  8
001
 10
72.004621
 20
83.499313999999998
 30
0.0
  0
VERTEX
  5
A9
  8
001
 10
72.406544999999994
 20
84.999313999999984
 30
0.0
  0
VERTEX
  5
AA
  8
001
 10
72.808468999999988
 20
83.499313999999998
 30
0.0
  0
SEQEND
  5
A7
  8
001
  0
POLYLINE
  5
AB
  8
001
 66
     1
 10
0.0
 20
0.0
 30
0.0
  0
VERTEX
  5
AD
  8
001
 10
72.808468999999988
 20
103.999314
 30
0.0
  0
VERTEX
  5
AE
  8
001
 10
72.406544999999994
 20
102.499314
 30
0.0
  0
VERTEX
  5
AF
  8
001
 10
72.004621
 20
103.999314
 30
0.0
  0
SEQEND
  5
AC
  8
001
  0
TEXT
  5
B0
  8
001
 10
71.406544999999994
 20
83.749313999999984
 30
0.0
 40
4.0
  1
%%c１７．５
 50
90.000003000000007
 41
0.8620690000000001
  0
POINT
  5
B1
  8
001
 10
87.640644999999992
 20
84.999313999999984
 30
0.0
  0
POINT
  5
B2
  8
001
 10
87.640644999999992
 20
102.499314
 30
0.0
  0
POINT
  5
B3
  8
001
 10
72.406544999999994
 20
102.499314
 30
0.0
  0
LINE
  5
B4
  8
001
 10
72.406544999999994
 20
84.999313999999984
 30
0.0
 11
72.406544999999994
 21
82.499313999999984
 31
0.0
  0
LINE
  5
B5
  8
001
 10
72.406544999999994
 20
102.499314
 30
0.0
 11
72.406544999999994
 21
104.9993139999999
 31
0.0
  0
ENDBLK
  5
A2
  8
0
  0
BLOCK
  8
0
  2
*D5
 70
     1
 10
0.0
 20
0.0
 30
0.0
  3
*D5
  1

  0
LINE
  5
B9
  8
001
 10
98.440644999999989
 20
105.764314
 30
0.0
 11
43.313111999999997
 21
105.764314
 31
0.0
  0
LINE
  5
BA
  8
001
 10
98.440644999999989
 20
81.734313999999998
 30
0.0
 11
43.313111999999997
 21
81.734313999999998
 31
0.0
  0
LINE
  5
BB
  8
001
 10
46.06311199999999
 20
105.764314
 30
0.0
 11
46.06311199999999
 21
81.734313999999998
 31
0.0
  0
POLYLINE
  5
BC
  8
001
 66
     1
 10
0.0
 20
0.0
 30
0.0
  0
VERTEX
  5
BE
  8
001
 10
45.661188000000003
 20
104.264314
 30
0.0
  0
VERTEX
  5
BF
  8
001
 10
46.06311199999999
 20
105.764314
 30
0.0
  0
VERTEX
  5
C0
  8
001
 10
46.465035999999991
 20
104.264314
 30
0.0
  0
SEQEND
  5
BD
  8
001
  0
POLYLINE
  5
C1
  8
001
 66
     1
 10
0.0
 20
0.0
 30
0.0
  0
VERTEX
  5
C3
  8
001
 10
46.465035999999991
 20
83.234313999999998
 30
0.0
  0
VERTEX
  5
C4
  8
001
 10
46.06311199999999
 20
81.734313999999998
 30
0.0
  0
VERTEX
  5
C5
  8
001
 10
45.661188000000003
 20
83.234313999999998
 30
0.0
  0
SEQEND
  5
C2
  8
001
  0
TEXT
  5
C6
  8
001
 10
45.06311199999999
 20
87.749313999999984
 30
0.0
 40
4.0
  1
%%c２４
 50
90.000003000000007
 41
0.8823529999999999
  0
POINT
  5
C7
  8
001
 10
98.440644999999989
 20
105.764314
 30
0.0
  0
POINT
  5
C8
  8
001
 10
98.440644999999989
 20
81.734313999999998
 30
0.0
  0
POINT
  5
C9
  8
001
 10
46.06311199999999
 20
81.734313999999998
 30
0.0
  0
ENDBLK
  5
B8
  8
0
  0
BLOCK
  8
0
  2
*D6
 70
     1
 10
0.0
 20
0.0
 30
0.0
  3
*D6
  1

  0
LINE
  5
CD
  8
001
 10
98.940644999999975
 20
83.499313999999998
 30
0.0
 11
56.634597999999997
 21
83.499313999999998
 31
0.0
  0
LINE
  5
CE
  8
001
 10
98.940644999999975
 20
103.999314
 30
0.0
 11
56.634597999999997
 21
103.999314
 31
0.0
  0
LINE
  5
CF
  8
001
 10
59.384597999999997
 20
83.499313999999998
 30
0.0
 11
59.384597999999997
 21
103.999314
 31
0.0
  0
POLYLINE
  5
D0
  8
001
 66
     1
 10
0.0
 20
0.0
 30
0.0
  0
VERTEX
  5
D2
  8
001
 10
58.982673999999989
 20
81.999313999999998
 30
0.0
  0
VERTEX
  5
D3
  8
001
 10
59.384597999999997
 20
83.499313999999998
 30
0.0
  0
VERTEX
  5
D4
  8
001
 10
59.786521999999991
 20
81.999313999999998
 30
0.0
  0
SEQEND
  5
D1
  8
001
  0
POLYLINE
  5
D5
  8
001
 66
     1
 10
0.0
 20
0.0
 30
0.0
  0
VERTEX
  5
D7
  8
001
 10
59.786521999999991
 20
105.499314
 30
0.0
  0
VERTEX
  5
D8
  8
001
 10
59.384597999999997
 20
103.999314
 30
0.0
  0
VERTEX
  5
D9
  8
001
 10
58.982673999999989
 20
105.499314
 30
0.0
  0
SEQEND
  5
D6
  8
001
  0
TEXT
  5
DA
  8
001
 10
58.38459799999999
 20
83.749313999999984
 30
0.0
 40
4.0
  1
%%c２０．５
 50
90.000003000000007
 41
0.8620690000000001
  0
POINT
  5
DB
  8
001
 10
98.940644999999975
 20
83.499313999999998
 30
0.0
  0
POINT
  5
DC
  8
001
 10
98.940644999999975
 20
103.999314
 30
0.0
  0
POINT
  5
DD
  8
001
 10
59.384597999999997
 20
103.999314
 30
0.0
  0
LINE
  5
DE
  8
001
 10
59.384597999999997
 20
83.499313999999998
 30
0.0
 11
59.384597999999997
 21
80.999313999999998
 31
0.0
  0
LINE
  5
DF
  8
001
 10
59.384597999999997
 20
103.999314
 30
0.0
 11
59.384597999999997
 21
106.499314
 31
0.0
  0
ENDBLK
  5
CC
  8
0
  0
BLOCK
  8
0
  2
*D7
 70
     1
 10
0.0
 20
0.0
 30
0.0
  3
*D7
  1

  0
LINE
  5
E3
  8
001
 10
98.940644999999975
 20
83.499313999999998
 30
0.0
 11
122.339232
 21
60.100726999999999
 31
0.0
  0
ARC
  5
E4
  8
001
 10
88.690644999999975
 20
93.749313999999984
 30
0.0
 40
44.836288038543692
 50
315.0
 51
0.0
  0
POLYLINE
  5
E5
  8
001
 66
     1
 10
0.0
 20
0.0
 30
0.0
  0
VERTEX
  5
E7
  8
001
 10
133.099976
 20
92.256247000000002
 30
0.0
  0
VERTEX
  5
E8
  8
001
 10
133.52693300000001
 20
93.749313999999984
 30
0.0
  0
VERTEX
  5
E9
  8
001
 10
133.90371099999999
 20
92.242800999999986
 30
0.0
  0
SEQEND
  5
E6
  8
001
  0
POLYLINE
  5
EA
  8
001
 66
     1
 10
0.0
 20
0.0
 30
0.0
  0
VERTEX
  5
EC
  8
001
 10
121.726376
 20
62.844115000000002
 30
0.0
  0
VERTEX
  5
ED
  8
001
 10
120.394688
 20
62.045270999999993
 30
0.0
  0
VERTEX
  5
EE
  8
001
 10
121.14854200000001
 20
63.402934000000002
 30
0.0
  0
SEQEND
  5
EB
  8
001
  0
TEXT
  5
EF
  8
001
 10
126.89399400000001
 20
71.430616000000001
 30
0.0
 40
4.0
  1
４５%%d
 50
67.5
 41
0.9782610000000001
  0
POINT
  5
F0
  8
001
 10
85.98213299999999
 20
93.749313999999984
 30
0.0
  0
POINT
  5
F1
  8
001
 10
88.690644999999975
 20
93.749313999999984
 30
0.0
  0
POINT
  5
F2
  8
001
 10
88.690644999999975
 20
93.749313999999984
 30
0.0
  0
POINT
  5
F3
  8
001
 10
98.940644999999975
 20
83.499313999999998
 30
0.0
  0
ENDBLK
  5
E2
  8
0
  0
BLOCK
  8
0
  2
*D8
 70
     1
 10
0.0
 20
0.0
 30
0.0
  3
*D8
  1

  0
LINE
  5
F7
  8
001
 10
87.640644999999992
 20
87.749313999999984
 30
0.0
 11
126.30615899999999
 21
49.083801000000001
 31
0.0
  0
ARC
  5
F8
  8
001
 10
81.640645000000006
 20
93.749313999999984
 30
0.0
 40
60.416574830612291
 50
315.0
 51
0.0
  0
POLYLINE
  5
F9
  8
001
 66
     1
 10
0.0
 20
0.0
 30
0.0
  0
VERTEX
  5
FB
  8
001
 10
141.636707
 20
92.254418999999984
 30
0.0
  0
VERTEX
  5
FC
  8
001
 10
142.05722
 20
93.749313999999984
 30
0.0
  0
VERTEX
  5
FD
  8
001
 10
142.440493
 20
92.244439999999997
 30
0.0
  0
SEQEND
  5
FA
  8
001
  0
POLYLINE
  5
FE
  8
001
 66
     1
 10
0.0
 20
0.0
 30
0.0
  0
VERTEX
  5
100
  8
001
 10
125.696736
 20
51.821435999999991
 30
0.0
  0
VERTEX
  5
101
  8
001
 10
124.361615
 20
51.02834399999999
 30
0.0
  0
VERTEX
  5
102
  8
001
 10
125.121318
 20
52.382742999999998
 30
0.0
  0
SEQEND
  5
FF
  8
001
  0
TEXT
  5
103
  8
001
 10
134.238302
 20
65.468298000000004
 30
0.0
 40
4.0
  1
４５%%d
 50
67.5
 41
0.9782610000000001
  0
POINT
  5
104
  8
001
 10
85.98213299999999
 20
93.749313999999984
 30
0.0
  0
POINT
  5
105
  8
001
 10
81.640645000000006
 20
93.749313999999984
 30
0.0
  0
POINT
  5
106
  8
001
 10
81.640645000000006
 20
93.749313999999984
 30
0.0
  0
POINT
  5
107
  8
001
 10
87.640644999999992
 20
87.749313999999984
 30
0.0
  0
ENDBLK
  5
F6
  8
0
  0
BLOCK
  8
0
  2
*D9
 70
     1
 10
0.0
 20
0.0
 30
0.0
  3
*D9
  1

  0
LINE
  5
10B
  8
001
 10
121.740645
 20
83.399314000000004
 30
0.0
 11
121.740645
 21
35.472417
 31
0.0
  0
LINE
  5
10C
  8
001
 10
86.740645000000001
 20
88.649314000000004
 30
0.0
 11
86.740645000000001
 21
35.472417
 31
0.0
  0
LINE
  5
10D
  8
001
 10
121.740645
 20
38.222417
 30
0.0
 11
86.740645000000001
 21
38.222417
 31
0.0
  0
POLYLINE
  5
10E
  8
001
 66
     1
 10
0.0
 20
0.0
 30
0.0
  0
VERTEX
  5
110
  8
001
 10
120.240645
 20
38.624339999999997
 30
0.0
  0
VERTEX
  5
111
  8
001
 10
121.740645
 20
38.222417
 30
0.0
  0
VERTEX
  5
112
  8
001
 10
120.240645
 20
37.820492999999999
 30
0.0
  0
SEQEND
  5
10F
  8
001
  0
POLYLINE
  5
113
  8
001
 66
     1
 10
0.0
 20
0.0
 30
0.0
  0
VERTEX
  5
115
  8
001
 10
88.240645000000001
 20
37.820492999999999
 30
0.0
  0
VERTEX
  5
116
  8
001
 10
86.740645000000001
 20
38.222417
 30
0.0
  0
VERTEX
  5
117
  8
001
 10
88.240645000000001
 20
38.624339999999997
 30
0.0
  0
SEQEND
  5
114
  8
001
  0
TEXT
  5
118
  8
001
 10
100.240645
 20
39.222417
 30
0.0
 40
4.0
  1
３５
 41
0.833333
  0
POINT
  5
119
  8
001
 10
121.740645
 20
83.399314000000004
 30
0.0
  0
POINT
  5
11A
  8
001
 10
86.740645000000001
 20
88.649314000000004
 30
0.0
  0
POINT
  5
11B
  8
001
 10
86.740645000000001
 20
38.222417
 30
0.0
  0
ENDBLK
  5
10A
  8
0
  0
BLOCK
  8
0
  2
*D10
 70
     1
 10
0.0
 20
0.0
 30
0.0
  3
*D10
  1

  0
LINE
  5
11F
  8
001
 10
201.740645
 20
87.749313999999984
 30
0.0
 11
201.740645
 21
35.472417
 31
0.0
  0
LINE
  5
120
  8
001
 10
121.740645
 20
83.399314000000004
 30
0.0
 11
121.740645
 21
35.472417
 31
0.0
  0
LINE
  5
121
  8
001
 10
201.740645
 20
38.222417
 30
0.0
 11
121.740645
 21
38.222417
 31
0.0
  0
POLYLINE
  5
122
  8
001
 66
     1
 10
0.0
 20
0.0
 30
0.0
  0
VERTEX
  5
124
  8
001
 10
200.240645
 20
38.624339999999997
 30
0.0
  0
VERTEX
  5
125
  8
001
 10
201.740645
 20
38.222417
 30
0.0
  0
VERTEX
  5
126
  8
001
 10
200.240645
 20
37.820492999999999
 30
0.0
  0
SEQEND
  5
123
  8
001
  0
POLYLINE
  5
127
  8
001
 66
     1
 10
0.0
 20
0.0
 30
0.0
  0
VERTEX
  5
129
  8
001
 10
123.240645
 20
37.820492999999999
 30
0.0
  0
VERTEX
  5
12A
  8
001
 10
121.740645
 20
38.222417
 30
0.0
  0
VERTEX
  5
12B
  8
001
 10
123.240645
 20
38.624339999999997
 30
0.0
  0
SEQEND
  5
128
  8
001
  0
TEXT
  5
12C
  8
001
 10
157.740645
 20
39.222417
 30
0.0
 40
4.0
  1
８０
 41
0.833333
  0
POINT
  5
12D
  8
001
 10
201.740645
 20
87.749313999999984
 30
0.0
  0
POINT
  5
12E
  8
001
 10
121.740645
 20
83.399314000000004
 30
0.0
  0
POINT
  5
12F
  8
001
 10
121.740645
 20
38.222417
 30
0.0
  0
ENDBLK
  5
11E
  8
0
  0
BLOCK
  8
0
  2
*D11
 70
     1
 10
0.0
 20
0.0
 30
0.0
  3
*D11
  1

  0
LINE
  5
133
  8
001
 10
86.740645000000001
 20
88.649314000000004
 30
0.0
 11
86.740645000000001
 21
23.509982999999998
 31
0.0
  0
LINE
  5
134
  8
001
 10
201.740645
 20
87.749313999999984
 30
0.0
 11
201.740645
 21
23.509982999999998
 31
0.0
  0
LINE
  5
135
  8
001
 10
86.740645000000001
 20
26.259982999999998
 30
0.0
 11
201.740645
 21
26.259982999999998
 31
0.0
  0
POLYLINE
  5
136
  8
001
 66
     1
 10
0.0
 20
0.0
 30
0.0
  0
VERTEX
  5
138
  8
001
 10
88.240645000000001
 20
25.858059000000001
 30
0.0
  0
VERTEX
  5
139
  8
001
 10
86.740645000000001
 20
26.259982999999998
 30
0.0
  0
VERTEX
  5
13A
  8
001
 10
88.240645000000001
 20
26.661906999999999
 30
0.0
  0
SEQEND
  5
137
  8
001
  0
POLYLINE
  5
13B
  8
001
 66
     1
 10
0.0
 20
0.0
 30
0.0
  0
VERTEX
  5
13D
  8
001
 10
200.240645
 20
26.661906999999999
 30
0.0
  0
VERTEX
  5
13E
  8
001
 10
201.740645
 20
26.259982999999998
 30
0.0
  0
VERTEX
  5
13F
  8
001
 10
200.240645
 20
25.858059000000001
 30
0.0
  0
SEQEND
  5
13C
  8
001
  0
TEXT
  5
140
  8
001
 10
138.240645
 20
27.259982999999998
 30
0.0
 40
4.0
  1
１１５
 41
0.833333
  0
POINT
  5
141
  8
001
 10
86.740645000000001
 20
88.649314000000004
 30
0.0
  0
POINT
  5
142
  8
001
 10
201.740645
 20
87.749313999999984
 30
0.0
  0
POINT
  5
143
  8
001
 10
201.740645
 20
26.259982999999998
 30
0.0
  0
ENDBLK
  5
132
  8
0
  0
BLOCK
  8
0
  2
*D12
 70
     1
 10
0.0
 20
0.0
 30
0.0
  3
*D12
  1

  0
LINE
  5
147
  8
001
 10
87.640644999999992
 20
85.396045000000015
 30
0.0
 11
87.640644999999992
 21
48.444864000000003
 31
0.0
  0
LINE
  5
148
  8
001
 10
86.740645000000001
 20
88.649314000000004
 30
0.0
 11
86.740645000000001
 21
48.444864000000003
 31
0.0
  0
LINE
  5
149
  8
001
 10
87.640644999999992
 20
51.194864000000003
 30
0.0
 11
86.740645000000001
 21
51.194864000000003
 31
0.0
  0
POLYLINE
  5
14A
  8
001
 66
     1
 10
0.0
 20
0.0
 30
0.0
  0
VERTEX
  5
14C
  8
001
 10
89.140645000000006
 20
50.792940000000002
 30
0.0
  0
VERTEX
  5
14D
  8
001
 10
87.640644999999992
 20
51.194864000000003
 30
0.0
  0
VERTEX
  5
14E
  8
001
 10
89.140645000000006
 20
51.596787999999997
 30
0.0
  0
SEQEND
  5
14B
  8
001
  0
POLYLINE
  5
14F
  8
001
 66
     1
 10
0.0
 20
0.0
 30
0.0
  0
VERTEX
  5
151
  8
001
 10
85.240644999999986
 20
51.596787999999997
 30
0.0
  0
VERTEX
  5
152
  8
001
 10
86.740645000000001
 20
51.194864000000003
 30
0.0
  0
VERTEX
  5
153
  8
001
 10
85.240644999999986
 20
50.792940000000002
 30
0.0
  0
SEQEND
  5
150
  8
001
  0
TEXT
  5
154
  8
001
 10
71.240645000000001
 20
52.194864000000003
 30
0.0
 40
4.0
  1
０．９
 41
0.833333
  0
POINT
  5
155
  8
001
 10
87.640644999999992
 20
85.396045000000015
 30
0.0
  0
POINT
  5
156
  8
001
 10
86.740645000000001
 20
88.649314000000004
 30
0.0
  0
POINT
  5
157
  8
001
 10
86.740645000000001
 20
51.194864000000003
 30
0.0
  0
LINE
  5
158
  8
001
 10
87.640644999999992
 20
51.194864000000003
 30
0.0
 11
90.140644999999992
 21
51.194864000000003
 31
0.0
  0
LINE
  5
159
  8
001
 10
86.740645000000001
 20
51.194864000000003
 30
0.0
 11
68.240645000000001
 21
51.194864000000003
 31
0.0
  0
ENDBLK
  5
146
  8
0
  0
BLOCK
  8
0
  2
*D13
 70
     1
 10
0.0
 20
0.0
 30
0.0
  3
*D13
  1

  0
LINE
  5
15D
  8
001
 10
98.440644999999989
 20
78.749313999999998
 30
0.0
 11
98.440644999999989
 21
48.444864000000003
 31
0.0
  0
LINE
  5
15E
  8
001
 10
87.640644999999992
 20
85.396045000000015
 30
0.0
 11
87.640644999999992
 21
48.444864000000003
 31
0.0
  0
LINE
  5
15F
  8
001
 10
98.440644999999989
 20
51.194864000000003
 30
0.0
 11
87.640644999999992
 21
51.194864000000003
 31
0.0
  0
POLYLINE
  5
160
  8
001
 66
     1
 10
0.0
 20
0.0
 30
0.0
  0
VERTEX
  5
162
  8
001
 10
99.940645000000004
 20
50.792940000000002
 30
0.0
  0
VERTEX
  5
163
  8
001
 10
98.440644999999989
 20
51.194864000000003
 30
0.0
  0
VERTEX
  5
164
  8
001
 10
99.940645000000004
 20
51.596787999999997
 30
0.0
  0
SEQEND
  5
161
  8
001
  0
POLYLINE
  5
165
  8
001
 66
     1
 10
0.0
 20
0.0
 30
0.0
  0
VERTEX
  5
167
  8
001
 10
86.140644999999992
 20
51.596787999999997
 30
0.0
  0
VERTEX
  5
168
  8
001
 10
87.640644999999992
 20
51.194864000000003
 30
0.0
  0
VERTEX
  5
169
  8
001
 10
86.140644999999992
 20
50.792940000000002
 30
0.0
  0
SEQEND
  5
166
  8
001
  0
TEXT
  5
16A
  8
001
 10
88.977260999999984
 20
51.960822999999998
 30
0.0
 40
4.0
  1
１０．８
 41
0.833333
  0
POINT
  5
16B
  8
001
 10
98.440644999999989
 20
78.749313999999998
 30
0.0
  0
POINT
  5
16C
  8
001
 10
87.640644999999992
 20
85.396045000000015
 30
0.0
  0
POINT
  5
16D
  8
001
 10
87.640644999999992
 20
51.194864000000003
 30
0.0
  0
LINE
  5
16E
  8
001
 10
98.440644999999989
 20
51.194864000000003
 30
0.0
 11
100.940645
 21
51.194864000000003
 31
0.0
  0
LINE
  5
16F
  8
001
 10
87.640644999999992
 20
51.194864000000003
 30
0.0
 11
85.140644999999992
 21
51.194864000000003
 31
0.0
  0
ENDBLK
  5
15C
  8
0
  0
BLOCK
  8
0
  2
*D14
 70
     1
 10
0.0
 20
0.0
 30
0.0
  3
*D14
  1

  0
LINE
  5
173
  8
001
 10
197.740645
 20
83.749313999999984
 30
0.0
 11
225.72370799999999
 21
83.749313999999984
 31
0.0
  0
LINE
  5
174
  8
001
 10
197.740645
 20
103.749314
 30
0.0
 11
225.72370799999999
 21
103.749314
 31
0.0
  0
LINE
  5
175
  8
001
 10
222.97370799999999
 20
83.749313999999984
 30
0.0
 11
222.97370799999999
 21
103.749314
 31
0.0
  0
POLYLINE
  5
176
  8
001
 66
     1
 10
0.0
 20
0.0
 30
0.0
  0
VERTEX
  5
178
  8
001
 10
223.375632
 20
85.249313999999984
 30
0.0
  0
VERTEX
  5
179
  8
001
 10
222.97370799999999
 20
83.749313999999984
 30
0.0
  0
VERTEX
  5
17A
  8
001
 10
222.57178500000001
 20
85.249313999999984
 30
0.0
  0
SEQEND
  5
177
  8
001
  0
POLYLINE
  5
17B
  8
001
 66
     1
 10
0.0
 20
0.0
 30
0.0
  0
VERTEX
  5
17D
  8
001
 10
222.57178500000001
 20
102.249314
 30
0.0
  0
VERTEX
  5
17E
  8
001
 10
222.97370799999999
 20
103.749314
 30
0.0
  0
VERTEX
  5
17F
  8
001
 10
223.375632
 20
102.249314
 30
0.0
  0
SEQEND
  5
17C
  8
001
  0
TEXT
  5
180
  8
001
 10
221.97370799999999
 20
87.749313999999984
 30
0.0
 40
4.0
  1
%%c２０
 50
90.000003000000007
 41
0.8823529999999999
  0
POINT
  5
181
  8
001
 10
197.740645
 20
83.749313999999984
 30
0.0
  0
POINT
  5
182
  8
001
 10
197.740645
 20
103.749314
 30
0.0
  0
POINT
  5
183
  8
001
 10
222.97370799999999
 20
103.749314
 30
0.0
  0
ENDBLK
  5
172
  8
0
  0
ENDSEC
  0
SECTION
  2
ENTITIES
  0
DIMENSION
  5
184
  8
001
  2
*D1
 10
28.713629000000001
 20
22.392882
 30
0.0
 11
34.213628999999997
 21
23.892882
 31
0.0
 70
   128
 13
39.713628999999997
 23
27.770596999999999
 33
0.0
 14
28.713629000000001
 24
27.770596999999999
 34
0.0
 50
180.0
  0
DIMENSION
  5
185
  8
001
  2
*D2
 10
25.463629000000001
 20
59.179646999999989
 30
0.0
 11
34.213628999999997
 21
60.679647000000003
 31
0.0
 70
   128
 13
42.963628999999997
 23
46.770597000000002
 33
0.0
 14
25.463629000000001
 24
46.770597000000002
 34
0.0
 50
180.0
  0
DIMENSION
  5
186
  8
001
  2
*D3
 10
52.968868000000008
 20
36.970596999999998
 30
0.0
 11
51.468868000000001
 21
42.370596999999989
 31
0.0
 70
   128
 13
49.213628999999997
 23
47.770596999999988
 33
0.0
 14
42.963628999999997
 24
36.970596999999998
 34
0.0
 50
270.0
  0
TEXT
  5
187
  8
001
 10
17.930817000000001
 20
59.460515999999998
 30
0.0
 40
2.0
  1
Ｃ０．５
 50
314.99999200000002
 41
0.833333
  0
POLYLINE
  5
188
  8
001
 66
     1
 10
0.0
 20
0.0
 30
0.0
  0
VERTEX
  5
18A
  8
001
 10
39.575400999999999
 20
37.393028999999999
 30
0.0
  0
VERTEX
  5
18B
  8
001
 10
39.963628999999997
 20
36.720596999999998
 30
0.0
  0
VERTEX
  5
18C
  8
001
 10
39.291198000000001
 20
37.108826000000001
 30
0.0
  0
SEQEND
  5
189
  8
001
  0
LINE
  5
18D
  8
001
 10
39.963628999999997
 20
36.720596999999998
 30
0.0
 11
16.516603
 21
60.167622999999992
 31
0.0
  0
TEXT
  5
18E
  8
001
 10
34.53791300000001
 20
56.903420999999987
 30
0.0
 40
2.0
  1
Ｃ１
 50
314.99999200000002
 41
0.833333
  0
POLYLINE
  5
18F
  8
001
 66
     1
 10
0.0
 20
0.0
 30
0.0
  0
VERTEX
  5
191
  8
001
 10
43.075400999999992
 20
47.943028999999989
 30
0.0
  0
VERTEX
  5
192
  8
001
 10
43.46362899999999
 20
47.270596999999988
 30
0.0
  0
VERTEX
  5
193
  8
001
 10
42.791198000000001
 20
47.658825999999998
 30
0.0
  0
SEQEND
  5
190
  8
001
  0
LINE
  5
194
  8
001
 10
43.46362899999999
 20
47.270596999999988
 30
0.0
 11
33.123699000000002
 21
57.610526999999998
 31
0.0
  0
DIMENSION
  5
195
  8
001
  2
*D4
 10
72.406544999999994
 20
102.499314
 30
0.0
 11
69.406543999999997
 21
93.749313999999984
 31
0.0
 70
   128
 13
87.640644999999992
 23
84.999313999999984
 33
0.0
 14
87.640644999999992
 24
102.499314
 34
0.0
 50
90.0
  0
DIMENSION
  5
196
  8
001
  2
*D5
 10
46.06311199999999
 20
81.734313999999998
 30
0.0
 11
43.06311199999999
 21
93.749313999999984
 31
0.0
 70
   128
 13
98.440644999999989
 23
105.764314
 33
0.0
 14
98.440644999999989
 24
81.734313999999998
 34
0.0
 50
270.0
  0
DIMENSION
  5
197
  8
001
  2
*D6
 10
59.384597999999997
 20
103.999314
 30
0.0
 11
56.384596999999999
 21
93.749313999999984
 31
0.0
 70
   128
 13
98.940644999999975
 23
83.499313999999998
 33
0.0
 14
98.940644999999975
 24
103.999314
 34
0.0
 50
90.0
  0
DIMENSION
  5
198
  8
001
  2
*D7
 10
88.690644999999975
 20
93.749313999999984
 30
0.0
 11
127.34233500000001
 21
77.739260000000002
 31
0.0
 70
     2
 13
85.98213299999999
 23
93.749313999999984
 33
0.0
 14
88.690644999999975
 24
93.749313999999984
 34
0.0
 15
98.940644999999975
 25
83.499313999999998
 35
0.0
 16
130.11397400000001
 26
76.591210000000004
 36
0.0
  0
DIMENSION
  5
199
  8
001
  2
*D8
 10
81.640645000000006
 20
93.749313999999984
 30
0.0
 11
134.686643
 21
71.776942000000005
 31
0.0
 70
     2
 13
85.98213299999999
 23
93.749313999999984
 33
0.0
 14
81.640645000000006
 24
93.749313999999984
 34
0.0
 15
87.640644999999992
 25
87.749313999999984
 35
0.0
 16
137.458282
 26
70.628891999999993
 36
0.0
  0
DIMENSION
  5
19A
  8
001
  2
*D9
 10
86.740645000000001
 20
38.222417
 30
0.0
 11
104.240645
 21
41.222417
 31
0.0
 70
   128
 13
121.740645
 23
83.399314000000004
 33
0.0
 14
86.740645000000001
 24
88.649314000000004
 34
0.0
 50
180.0
  0
DIMENSION
  5
19B
  8
001
  2
*D10
 10
121.740645
 20
38.222417
 30
0.0
 11
161.740645
 21
41.222417
 31
0.0
 70
   128
 13
201.740645
 23
87.749313999999984
 33
0.0
 14
121.740645
 24
83.399314000000004
 34
0.0
 50
180.0
  0
DIMENSION
  5
19C
  8
001
  2
*D11
 10
201.740645
 20
26.259982999999998
 30
0.0
 11
144.240645
 21
29.259982999999998
 31
0.0
 70
   128
 13
86.740645000000001
 23
88.649314000000004
 33
0.0
 14
201.740645
 24
87.749313999999984
 34
0.0
  0
DIMENSION
  5
19D
  8
001
  2
*D12
 10
86.740645000000001
 20
51.194864000000003
 30
0.0
 11
77.240645000000001
 21
54.194864000000003
 31
0.0
 70
   128
 13
87.640644999999992
 23
85.396045000000015
 33
0.0
 14
86.740645000000001
 24
88.649314000000004
 34
0.0
 50
180.0
  0
DIMENSION
  5
19E
  8
001
  2
*D13
 10
87.640644999999992
 20
51.194864000000003
 30
0.0
 11
96.977260999999999
 21
53.960822999999991
 31
0.0
 70
   128
 13
98.440644999999989
 23
78.749313999999998
 33
0.0
 14
87.640644999999992
 24
85.396045000000015
 34
0.0
 50
180.0
  0
DIMENSION
  5
19F
  8
001
  2
*D14
 10
222.97370799999999
 20
103.749314
 30
0.0
 11
219.97370799999999
 21
93.749313999999984
 31
0.0
 70
   128
 13
197.740645
 23
83.749313999999984
 33
0.0
 14
197.740645
 24
103.749314
 34
0.0
 50
90.0
  0
TEXT
  5
1A0
  8
001
 10
5.4433949999999989
 20
141.09366199999999
 30
0.0
 40
10.0
  1
イーグルカット　ＥＣ２０－１７．５ＸS－Ｍ１０
 41
0.833333
  0
LINE
  5
1A1
  8
001
 10
39.314025000000001
 20
15.113066
 30
0.0
 11
30.600263000000002
 21
15.113066
 31
0.0
  0
CIRCLE
  5
1A2
  8
001
 10
90.650481999999997
 20
89.017911999999995
 30
0.0
 40
1.8999999999999999
  0
LINE
  5
1A3
  8
001
 10
90.246336999999997
 20
89.717911999999998
 30
0.0
 11
90.477277000000015
 21
90.117912000000004
 31
0.0
  0
LINE
  5
1A4
  8
001
 10
91.054626999999996
 20
89.717911999999998
 30
0.0
 11
90.823686999999993
 21
90.117912000000004
 31
0.0
  0
ARC
  5
1A5
  8
001
 10
90.650481999999997
 20
90.017911999999995
 30
0.0
 40
0.2
 50
30.0
 51
150.0
  0
LINE
  5
1A6
  8
001
 10
89.842191999999997
 20
89.017911999999995
 30
0.0
 11
89.611252000000007
 21
89.417912000000001
 31
0.0
  0
LINE
  5
1A7
  8
001
 10
90.246336999999997
 20
89.717911999999998
 30
0.0
 11
89.784456999999989
 21
89.717911999999998
 31
0.0
  0
ARC
  5
1A8
  8
001
 10
89.784456999999989
 20
89.517911999999995
 30
0.0
 40
0.2
 50
90.0
 51
210.0
  0
LINE
  5
1A9
  8
001
 10
90.246336999999997
 20
88.317911999999993
 30
0.0
 11
89.784456999999989
 21
88.317911999999993
 31
0.0
  0
LINE
  5
1AA
  8
001
 10
89.842191999999997
 20
89.017911999999995
 30
0.0
 11
89.611252000000007
 21
88.617912000000004
 31
0.0
  0
ARC
  5
1AB
  8
001
 10
89.784456999999989
 20
88.517911999999995
 30
0.0
 40
0.2
 50
150.0
 51
270.0
  0
LINE
  5
1AC
  8
001
 10
91.054626999999996
 20
88.317911999999993
 30
0.0
 11
90.823686999999993
 21
87.917912000000001
 31
0.0
  0
LINE
  5
1AD
  8
001
 10
90.246336999999997
 20
88.317911999999993
 30
0.0
 11
90.477277000000015
 21
87.917912000000001
 31
0.0
  0
ARC
  5
1AE
  8
001
 10
90.650481999999997
 20
88.017911999999995
 30
0.0
 40
0.2
 50
210.0
 51
330.0
  0
LINE
  5
1AF
  8
001
 10
91.458771999999996
 20
89.017911999999995
 30
0.0
 11
91.689712999999998
 21
88.617912000000004
 31
0.0
  0
LINE
  5
1B0
  8
001
 10
91.054626999999996
 20
88.317911999999993
 30
0.0
 11
91.51650699999999
 21
88.317911999999993
 31
0.0
  0
ARC
  5
1B1
  8
001
 10
91.51650699999999
 20
88.517911999999995
 30
0.0
 40
0.2
 50
270.0
 51
30.0
  0
LINE
  5
1B2
  8
001
 10
91.054626999999996
 20
89.717911999999998
 30
0.0
 11
91.51650699999999
 21
89.717911999999998
 31
0.0
  0
LINE
  5
1B3
  8
001
 10
91.458771999999996
 20
89.017911999999995
 30
0.0
 11
91.689712999999998
 21
89.417912000000001
 31
0.0
  0
ARC
  5
1B4
  8
001
 10
91.51650699999999
 20
89.517911999999995
 30
0.0
 40
0.2
 50
330.0
 51
90.0
  0
LINE
  5
1B5
  8
001
 10
42.963628999999997
 20
46.770597000000002
 30
0.0
 11
42.963628999999997
 21
36.970596999999998
 31
0.0
  0
LINE
  5
1B6
  8
001
 10
25.463629000000001
 20
46.770597000000002
 30
0.0
 11
25.463629000000001
 21
36.970596999999998
 31
0.0
  0
LINE
  5
1B7
  8
001
 10
19.213629000000001
 20
47.770596999999988
 30
0.0
 11
49.213628999999997
 21
47.770596999999988
 31
0.0
  0
LINE
  5
1B8
  8
001
 10
25.463629000000001
 20
36.970596999999998
 30
0.0
 11
42.963628999999997
 21
36.970596999999998
 31
0.0
  0
LINE
  5
1B9
  8
001
 10
39.713628999999997
 20
36.470596999999998
 30
0.0
 11
40.21362899999999
 21
36.970596999999998
 31
0.0
  0
LINE
  5
1BA
  8
001
 10
28.713629000000001
 20
36.470596999999998
 30
0.0
 11
28.213629000000001
 21
36.970596999999998
 31
0.0
  0
LINE
  5
1BB
  8
001
 10
25.463629000000001
 20
46.770597000000002
 30
0.0
 11
24.463629000000001
 21
47.770596999999988
 31
0.0
  0
LINE
  5
1BC
  8
001
 10
49.213628999999997
 20
27.770596999999999
 30
0.0
 11
19.213629000000001
 21
27.770596999999999
 31
0.0
  0
LINE
  5
1BD
  8
001
 10
39.713628999999997
 20
36.470596999999998
 30
0.0
 11
39.713628999999997
 21
27.770596999999999
 31
0.0
  0
LINE
  5
1BE
  8
001
 10
28.713629000000001
 20
36.470596999999998
 30
0.0
 11
28.713629000000001
 21
27.770596999999999
 31
0.0
  0
LINE
  5
1BF
  8
001
 10
25.463629000000001
 20
46.770597000000002
 30
0.0
 11
42.963628999999997
 21
46.770597000000002
 31
0.0
  0
LINE
  5
1C0
  8
001
 10
28.713629000000001
 20
36.470596999999998
 30
0.0
 11
39.713628999999997
 21
36.470596999999998
 31
0.0
  0
LINE
  5
1C1
  8
001
  6
CENTER
 10
34.213628999999997
 20
49.120894
 30
0.0
 11
34.213628999999997
 21
25.983461999999999
 31
0.0
  0
LINE
  5
1C2
  8
001
 10
42.963628999999997
 20
46.770597000000002
 30
0.0
 11
43.96362899999999
 21
47.770596999999988
 31
0.0
  0
LINE
  5
1C3
  8
001
 10
91.959990000000005
 20
85.997551000000016
 30
0.0
 11
90.949076000000005
 21
84.999313999999984
 31
0.0
  0
LINE
  5
1C4
  8
001
 10
88.031614000000005
 20
84.999313999999984
 30
0.0
 11
90.949076000000005
 21
84.999313999999984
 31
0.0
  0
LINE
  5
1C5
  8
001
 10
87.640644999999992
 20
87.749313999999984
 30
0.0
 11
87.640644999999992
 21
85.396045000000015
 31
0.0
  0
LINE
  5
1C6
  8
001
 10
86.740645000000001
 20
88.649314000000004
 30
0.0
 11
86.740645000000001
 21
91.710782999999992
 31
0.0
  0
POLYLINE
  5
1C7
  8
001
 66
     1
 10
0.0
 20
0.0
 30
0.0
  0
VERTEX
  5
1C9
  8
001
 10
87.131613999999999
 20
92.107782999999984
 30
0.0
  0
VERTEX
  5
1CA
  8
001
 10
87.099381999999991
 20
92.105868999999998
 30
0.0
  0
VERTEX
  5
1CB
  8
001
 10
87.055340000000001
 20
92.100154000000003
 30
0.0
  0
VERTEX
  5
1CC
  8
001
 10
87.016469999999984
 20
92.090678999999994
 30
0.0
  0
VERTEX
  5
1CD
  8
001
 10
86.981995999999995
 20
92.077562999999984
 30
0.0
  0
VERTEX
  5
1CE
  8
001
 10
86.947731999999974
 20
92.060901000000001
 30
0.0
  0
VERTEX
  5
1CF
  8
001
 10
86.914403000000007
 20
92.040875999999983
 30
0.0
  0
VERTEX
  5
1D0
  8
001
 10
86.883447000000004
 20
92.017617000000001
 30
0.0
  0
VERTEX
  5
1D1
  8
001
 10
86.855156999999991
 20
91.991504000000006
 30
0.0
  0
VERTEX
  5
1D2
  8
001
 10
86.829406000000006
 20
91.962731999999974
 30
0.0
  0
VERTEX
  5
1D3
  8
001
 10
86.806534999999997
 20
91.931343999999996
 30
0.0
  0
VERTEX
  5
1D4
  8
001
 10
86.786792000000005
 20
91.897463000000016
 30
0.0
  0
VERTEX
  5
1D5
  8
001
 10
86.770406000000008
 20
91.862707999999998
 30
0.0
  0
VERTEX
  5
1D6
  8
001
 10
86.757479000000004
 20
91.827663999999999
 30
0.0
  0
VERTEX
  5
1D7
  8
001
 10
86.748156999999992
 20
91.788232999999991
 30
0.0
  0
VERTEX
  5
1D8
  8
001
 10
86.742528000000007
 20
91.743504999999999
 30
0.0
  0
VERTEX
  5
1D9
  8
001
 10
86.740645000000001
 20
91.710782999999992
 30
0.0
  0
SEQEND
  5
1C8
  8
001
  0
LINE
  5
1DA
  8
001
 10
89.424127999999996
 20
92.107782999999984
 30
0.0
 11
87.131613999999999
 21
92.107782999999984
 31
0.0
  0
LINE
  5
1DB
  8
001
 10
90.349618999999976
 20
93.021666999999994
 30
0.0
 11
89.424127999999996
 21
92.107782999999984
 31
0.0
  0
LINE
  5
1DC
  8
001
 10
93.267080000000007
 20
93.021666999999994
 30
0.0
 11
90.349618999999976
 21
93.021666999999994
 31
0.0
  0
POLYLINE
  5
1DD
  8
001
 66
     1
 10
0.0
 20
0.0
 30
0.0
  0
VERTEX
  5
1DF
  8
001
 10
93.658049000000005
 20
92.624667000000002
 30
0.0
  0
VERTEX
  5
1E0
  8
001
 10
93.656560999999996
 20
92.653767000000002
 30
0.0
  0
VERTEX
  5
1E1
  8
001
 10
93.652108999999996
 20
92.693605000000005
 30
0.0
  0
VERTEX
  5
1E2
  8
001
 10
93.644730000000024
 20
92.728876999999997
 30
0.0
  0
VERTEX
  5
1E3
  8
001
 10
93.634471000000005
 20
92.760448999999994
 30
0.0
  0
VERTEX
  5
1E4
  8
001
 10
93.621422999999993
 20
92.792036999999993
 30
0.0
  0
VERTEX
  5
1E5
  8
001
 10
93.605669000000006
 20
92.823166999999998
 30
0.0
  0
VERTEX
  5
1E6
  8
001
 10
93.587361999999999
 20
92.852463
 30
0.0
  0
VERTEX
  5
1E7
  8
001
 10
93.566580000000016
 20
92.879852999999997
 30
0.0
  0
VERTEX
  5
1E8
  8
001
 10
93.543524000000005
 20
92.905343000000002
 30
0.0
  0
VERTEX
  5
1E9
  8
001
 10
93.518389999999997
 20
92.928785999999988
 30
0.0
  0
VERTEX
  5
1EA
  8
001
 10
93.491453000000007
 20
92.949864000000005
 30
0.0
  0
VERTEX
  5
1EB
  8
001
 10
93.462564999999998
 20
92.968479000000016
 30
0.0
  0
VERTEX
  5
1EC
  8
001
 10
93.431935999999993
 20
92.984459999999999
 30
0.0
  0
VERTEX
  5
1ED
  8
001
 10
93.400798999999992
 20
92.997725000000017
 30
0.0
  0
VERTEX
  5
1EE
  8
001
 10
93.369734999999991
 20
93.008135999999993
 30
0.0
  0
VERTEX
  5
1EF
  8
001
 10
93.334970999999996
 20
93.015635000000003
 30
0.0
  0
VERTEX
  5
1F0
  8
001
 10
93.295743000000002
 20
93.020154000000005
 30
0.0
  0
VERTEX
  5
1F1
  8
001
 10
93.267080000000007
 20
93.021666999999994
 30
0.0
  0
SEQEND
  5
1DE
  8
001
  0
LINE
  5
1F2
  8
001
 10
93.658049000000005
 20
90.296785999999997
 30
0.0
 11
93.658049000000005
 21
92.624667000000002
 31
0.0
  0
LINE
  5
1F3
  8
001
 10
94.558048999999997
 20
89.357018999999994
 30
0.0
 11
93.658049000000005
 21
90.296785999999997
 31
0.0
  0
LINE
  5
1F4
  8
001
 10
94.558048999999997
 20
86.394551000000007
 30
0.0
 11
94.558048999999997
 21
89.357018999999994
 31
0.0
  0
POLYLINE
  5
1F5
  8
001
 66
     1
 10
0.0
 20
0.0
 30
0.0
  0
VERTEX
  5
1F7
  8
001
 10
94.167079999999984
 20
85.997551000000016
 30
0.0
  0
VERTEX
  5
1F8
  8
001
 10
94.199312000000006
 20
85.999464000000003
 30
0.0
  0
VERTEX
  5
1F9
  8
001
 10
94.243355000000008
 20
86.005178999999984
 30
0.0
  0
VERTEX
  5
1FA
  8
001
 10
94.282224000000014
 20
86.014653999999993
 30
0.0
  0
VERTEX
  5
1FB
  8
001
 10
94.316697999999988
 20
86.02776999999999
 30
0.0
  0
VERTEX
  5
1FC
  8
001
 10
94.350961999999996
 20
86.044432
 30
0.0
  0
VERTEX
  5
1FD
  8
001
 10
94.384291000000005
 20
86.064457000000004
 30
0.0
  0
VERTEX
  5
1FE
  8
001
 10
94.415246999999994
 20
86.087716
 30
0.0
  0
VERTEX
  5
1FF
  8
001
 10
94.443537000000006
 20
86.113828999999996
 30
0.0
  0
VERTEX
  5
200
  8
001
 10
94.469288000000006
 20
86.142600999999999
 30
0.0
  0
VERTEX
  5
201
  8
001
 10
94.492159000000001
 20
86.173989000000006
 30
0.0
  0
VERTEX
  5
202
  8
001
 10
94.511902000000006
 20
86.207869999999986
 30
0.0
  0
VERTEX
  5
203
  8
001
 10
94.528288000000003
 20
86.242625000000004
 30
0.0
  0
VERTEX
  5
204
  8
001
 10
94.541215000000008
 20
86.277668999999989
 30
0.0
  0
VERTEX
  5
205
  8
001
 10
94.550537000000006
 20
86.317099999999996
 30
0.0
  0
VERTEX
  5
206
  8
001
 10
94.556166000000005
 20
86.361828000000003
 30
0.0
  0
VERTEX
  5
207
  8
001
 10
94.558048999999997
 20
86.394551000000007
 30
0.0
  0
SEQEND
  5
1F6
  8
001
  0
LINE
  5
208
  8
001
 10
91.959990000000005
 20
85.997551000000016
 30
0.0
 11
94.167079999999984
 21
85.997551000000016
 31
0.0
  0
POLYLINE
  5
209
  8
001
 66
     1
 10
0.0
 20
0.0
 30
0.0
  0
VERTEX
  5
20B
  8
001
 10
90.649347000000006
 20
91.302666999999985
 30
0.0
  0
VERTEX
  5
20C
  8
001
 10
90.486898999999994
 20
91.294095999999996
 30
0.0
  0
VERTEX
  5
20D
  8
001
 10
90.264573999999996
 20
91.268484000000001
 30
0.0
  0
VERTEX
  5
20E
  8
001
 10
90.067553000000004
 20
91.225977
 30
0.0
  0
VERTEX
  5
20F
  8
001
 10
89.891493000000011
 20
91.166974999999994
 30
0.0
  0
VERTEX
  5
210
  8
001
 10
89.715027000000006
 20
91.091810999999979
 30
0.0
  0
VERTEX
  5
211
  8
001
 10
89.541437999999999
 20
91.001223999999993
 30
0.0
  0
VERTEX
  5
212
  8
001
 10
89.377715000000009
 20
90.895682999999991
 30
0.0
  0
VERTEX
  5
213
  8
001
 10
89.225047000000004
 20
90.776267000000004
 30
0.0
  0
VERTEX
  5
214
  8
001
 10
89.082599999999999
 20
90.643561000000005
 30
0.0
  0
VERTEX
  5
215
  8
001
 10
88.951931999999985
 20
90.498938999999993
 30
0.0
  0
VERTEX
  5
216
  8
001
 10
88.834147999999999
 20
90.343110999999993
 30
0.0
  0
VERTEX
  5
217
  8
001
 10
88.730393000000007
 20
90.177667000000014
 30
0.0
  0
VERTEX
  5
218
  8
001
 10
88.641109
 20
90.003466000000003
 30
0.0
  0
VERTEX
  5
219
  8
001
 10
88.567160000000001
 20
89.822211999999993
 30
0.0
  0
VERTEX
  5
21A
  8
001
 10
88.509016999999986
 20
89.634945999999999
 30
0.0
  0
VERTEX
  5
21B
  8
001
 10
88.467193000000009
 20
89.443375000000003
 30
0.0
  0
VERTEX
  5
21C
  8
001
 10
88.441964999999996
 20
89.248743999999974
 30
0.0
  0
VERTEX
  5
21D
  8
001
 10
88.433530000000005
 20
89.052667
 30
0.0
  0
VERTEX
  5
21E
  8
001
 10
88.441964999999996
 20
88.856589000000014
 30
0.0
  0
VERTEX
  5
21F
  8
001
 10
88.467193000000009
 20
88.661957999999984
 30
0.0
  0
VERTEX
  5
220
  8
001
 10
88.509016999999986
 20
88.470387000000002
 30
0.0
  0
VERTEX
  5
221
  8
001
 10
88.567160000000001
 20
88.283120999999994
 30
0.0
  0
VERTEX
  5
222
  8
001
 10
88.641109
 20
88.101866999999999
 30
0.0
  0
VERTEX
  5
223
  8
001
 10
88.730393000000007
 20
87.927666999999985
 30
0.0
  0
VERTEX
  5
224
  8
001
 10
88.834147999999999
 20
87.762222999999977
 30
0.0
  0
VERTEX
  5
225
  8
001
 10
88.951931999999985
 20
87.606393999999995
 30
0.0
  0
VERTEX
  5
226
  8
001
 10
89.082599999999999
 20
87.461771999999996
 30
0.0
  0
VERTEX
  5
227
  8
001
 10
89.225047000000004
 20
87.329066999999995
 30
0.0
  0
VERTEX
  5
228
  8
001
 10
89.377715000000009
 20
87.209649999999996
 30
0.0
  0
VERTEX
  5
229
  8
001
 10
89.541437999999999
 20
87.104108999999994
 30
0.0
  0
VERTEX
  5
22A
  8
001
 10
89.715027000000006
 20
87.013521999999995
 30
0.0
  0
VERTEX
  5
22B
  8
001
 10
89.891493000000011
 20
86.938357999999994
 30
0.0
  0
VERTEX
  5
22C
  8
001
 10
90.067553000000004
 20
86.879356000000016
 30
0.0
  0
VERTEX
  5
22D
  8
001
 10
90.264573999999996
 20
86.836849000000015
 30
0.0
  0
VERTEX
  5
22E
  8
001
 10
90.486898999999994
 20
86.811237000000006
 30
0.0
  0
VERTEX
  5
22F
  8
001
 10
90.649347000000006
 20
86.802667
 30
0.0
  0
SEQEND
  5
20A
  8
001
  0
POLYLINE
  5
230
  8
001
 66
     1
 10
0.0
 20
0.0
 30
0.0
  0
VERTEX
  5
232
  8
001
 10
90.649347000000006
 20
86.802667
 30
0.0
  0
VERTEX
  5
233
  8
001
 10
90.811794999999989
 20
86.811237000000006
 30
0.0
  0
VERTEX
  5
234
  8
001
 10
91.034120000000001
 20
86.836849000000015
 30
0.0
  0
VERTEX
  5
235
  8
001
 10
91.231140999999994
 20
86.879356000000016
 30
0.0
  0
VERTEX
  5
236
  8
001
 10
91.407201000000015
 20
86.938357999999994
 30
0.0
  0
VERTEX
  5
237
  8
001
 10
91.583667000000005
 20
87.013521999999995
 30
0.0
  0
VERTEX
  5
238
  8
001
 10
91.757256000000012
 20
87.104108999999994
 30
0.0
  0
VERTEX
  5
239
  8
001
 10
91.920979000000003
 20
87.209649999999996
 30
0.0
  0
VERTEX
  5
23A
  8
001
 10
92.073646999999994
 20
87.329066999999995
 30
0.0
  0
VERTEX
  5
23B
  8
001
 10
92.216093999999998
 20
87.461771999999996
 30
0.0
  0
VERTEX
  5
23C
  8
001
 10
92.346761999999998
 20
87.606393999999995
 30
0.0
  0
VERTEX
  5
23D
  8
001
 10
92.464545999999984
 20
87.762222999999977
 30
0.0
  0
VERTEX
  5
23E
  8
001
 10
92.568301000000005
 20
87.927666999999985
 30
0.0
  0
VERTEX
  5
23F
  8
001
 10
92.657584999999997
 20
88.101866999999999
 30
0.0
  0
VERTEX
  5
240
  8
001
 10
92.731533999999996
 20
88.283120999999994
 30
0.0
  0
VERTEX
  5
241
  8
001
 10
92.789676999999998
 20
88.470387000000002
 30
0.0
  0
VERTEX
  5
242
  8
001
 10
92.831501000000003
 20
88.661957999999984
 30
0.0
  0
VERTEX
  5
243
  8
001
 10
92.856728999999987
 20
88.856589000000014
 30
0.0
  0
VERTEX
  5
244
  8
001
 10
92.865165000000005
 20
89.052667
 30
0.0
  0
VERTEX
  5
245
  8
001
 10
92.856728999999987
 20
89.248743999999974
 30
0.0
  0
VERTEX
  5
246
  8
001
 10
92.831501000000003
 20
89.443375000000003
 30
0.0
  0
VERTEX
  5
247
  8
001
 10
92.789676999999998
 20
89.634945999999999
 30
0.0
  0
VERTEX
  5
248
  8
001
 10
92.731533999999996
 20
89.822211999999993
 30
0.0
  0
VERTEX
  5
249
  8
001
 10
92.657584999999997
 20
90.003466000000003
 30
0.0
  0
VERTEX
  5
24A
  8
001
 10
92.568301000000005
 20
90.177667000000014
 30
0.0
  0
VERTEX
  5
24B
  8
001
 10
92.464545999999984
 20
90.343110999999993
 30
0.0
  0
VERTEX
  5
24C
  8
001
 10
92.346761999999998
 20
90.498938999999993
 30
0.0
  0
VERTEX
  5
24D
  8
001
 10
92.216093999999998
 20
90.643561000000005
 30
0.0
  0
VERTEX
  5
24E
  8
001
 10
92.073646999999994
 20
90.776267000000004
 30
0.0
  0
VERTEX
  5
24F
  8
001
 10
91.920979000000003
 20
90.895682999999991
 30
0.0
  0
VERTEX
  5
250
  8
001
 10
91.757256000000012
 20
91.001223999999993
 30
0.0
  0
VERTEX
  5
251
  8
001
 10
91.583667000000005
 20
91.091810999999979
 30
0.0
  0
VERTEX
  5
252
  8
001
 10
91.407201000000015
 20
91.166974999999994
 30
0.0
  0
VERTEX
  5
253
  8
001
 10
91.231140999999994
 20
91.225977
 30
0.0
  0
VERTEX
  5
254
  8
001
 10
91.034120000000001
 20
91.268484000000001
 30
0.0
  0
VERTEX
  5
255
  8
001
 10
90.811794999999989
 20
91.294095999999996
 30
0.0
  0
VERTEX
  5
256
  8
001
 10
90.649347000000006
 20
91.302666999999985
 30
0.0
  0
SEQEND
  5
231
  8
001
  0
LINE
  5
257
  8
001
 10
120.740645
 20
105.09931400000001
 30
0.0
 11
100.62741800000001
 21
105.09931400000001
 31
0.0
  0
LINE
  5
258
  8
001
 10
120.06607
 20
82.399314000000004
 30
0.0
 11
120.740645
 21
82.399314000000004
 31
0.0
  0
POLYLINE
  5
259
  8
001
 66
     1
 10
0.0
 20
0.0
 30
0.0
  0
VERTEX
  5
25B
  8
001
 10
118.09485100000001
 20
84.362735999999984
 30
0.0
  0
VERTEX
  5
25C
  8
001
 10
118.18629900000001
 20
84.153649999999985
 30
0.0
  0
VERTEX
  5
25D
  8
001
 10
118.284251
 20
83.947748000000004
 30
0.0
  0
VERTEX
  5
25E
  8
001
 10
118.385792
 20
83.761521999999985
 30
0.0
  0
VERTEX
  5
25F
  8
001
 10
118.49732899999999
 20
83.580950000000001
 30
0.0
  0
VERTEX
  5
260
  8
001
 10
118.608555
 20
83.419259999999994
 30
0.0
  0
VERTEX
  5
261
  8
001
 10
118.727858
 20
83.263522999999992
 30
0.0
  0
VERTEX
  5
262
  8
001
 10
118.835618
 20
83.136972
 30
0.0
  0
VERTEX
  5
263
  8
001
 10
118.949549
 20
83.015930000000026
 30
0.0
  0
VERTEX
  5
264
  8
001
 10
119.060248
 20
82.909520999999998
 30
0.0
  0
VERTEX
  5
265
  8
001
 10
119.176266
 20
82.80895799999999
 30
0.0
  0
VERTEX
  5
266
  8
001
 10
119.286778
 20
82.723003000000006
 30
0.0
  0
VERTEX
  5
267
  8
001
 10
119.40192
 20
82.643342000000004
 30
0.0
  0
VERTEX
  5
268
  8
001
 10
119.50921200000001
 20
82.578072000000006
 30
0.0
  0
VERTEX
  5
269
  8
001
 10
119.620422
 20
82.519820999999993
 30
0.0
  0
VERTEX
  5
26A
  8
001
 10
119.72145399999999
 20
82.475537000000003
 30
0.0
  0
VERTEX
  5
26B
  8
001
 10
119.825683
 20
82.439129000000008
 30
0.0
  0
VERTEX
  5
26C
  8
001
 10
119.916625
 20
82.415863999999999
 30
0.0
  0
VERTEX
  5
26D
  8
001
 10
120.009269
 20
82.402395999999996
 30
0.0
  0
VERTEX
  5
26E
  8
001
 10
120.039259
 20
82.400524000000004
 30
0.0
  0
VERTEX
  5
26F
  8
001
 10
120.069303
 20
82.399314000000004
 30
0.0
  0
SEQEND
  5
25A
  8
001
  0
POLYLINE
  5
270
  8
001
 66
     1
 10
0.0
 20
0.0
 30
0.0
  0
VERTEX
  5
272
  8
001
 10
113.787572
 20
88.224008999999995
 30
0.0
  0
VERTEX
  5
273
  8
001
 10
114.02687
 20
88.143649999999994
 30
0.0
  0
VERTEX
  5
274
  8
001
 10
114.263875
 20
88.057214999999999
 30
0.0
  0
VERTEX
  5
275
  8
001
 10
114.494274
 20
87.961062999999996
 30
0.0
  0
VERTEX
  5
276
  8
001
 10
114.720411
 20
87.854974999999996
 30
0.0
  0
VERTEX
  5
277
  8
001
 10
114.974874
 20
87.723018999999994
 30
0.0
  0
VERTEX
  5
278
  8
001
 10
115.223596
 20
87.580648999999994
 30
0.0
  0
VERTEX
  5
279
  8
001
 10
115.461979
 20
87.430824999999984
 30
0.0
  0
VERTEX
  5
27A
  8
001
 10
115.694254
 20
87.271656999999976
 30
0.0
  0
VERTEX
  5
27B
  8
001
 10
115.91422
 20
87.108356000000015
 30
0.0
  0
VERTEX
  5
27C
  8
001
 10
116.127995
 20
86.937055000000001
 30
0.0
  0
VERTEX
  5
27D
  8
001
 10
116.30293500000001
 20
86.786891999999995
 30
0.0
  0
VERTEX
  5
27E
  8
001
 10
116.473231
 20
86.631483000000003
 30
0.0
  0
VERTEX
  5
27F
  8
001
 10
116.63420000000001
 20
86.475639999999999
 30
0.0
  0
VERTEX
  5
280
  8
001
 10
116.79059100000001
 20
86.315204000000008
 30
0.0
  0
VERTEX
  5
281
  8
001
 10
116.93696300000001
 20
86.156239000000014
 30
0.0
  0
VERTEX
  5
282
  8
001
 10
117.078788
 20
85.993206999999984
 30
0.0
  0
VERTEX
  5
283
  8
001
 10
117.20992
 20
85.833650000000006
 30
0.0
  0
VERTEX
  5
284
  8
001
 10
117.336538
 20
85.670482000000007
 30
0.0
  0
VERTEX
  5
285
  8
001
 10
117.459253
 20
85.502537000000004
 30
0.0
  0
VERTEX
  5
286
  8
001
 10
117.57678799999999
 20
85.330945
 30
0.0
  0
VERTEX
  5
287
  8
001
 10
117.6828
 20
85.165424000000002
 30
0.0
  0
VERTEX
  5
288
  8
001
 10
117.78379700000001
 20
84.996752999999984
 30
0.0
  0
VERTEX
  5
289
  8
001
 10
117.87336500000001
 20
84.836220999999995
 30
0.0
  0
VERTEX
  5
28A
  8
001
 10
117.956755
 20
84.672488000000001
 30
0.0
  0
VERTEX
  5
28B
  8
001
 10
118.027495
 20
84.518411999999998
 30
0.0
  0
VERTEX
  5
28C
  8
001
 10
118.09485100000001
 20
84.362735999999984
 30
0.0
  0
SEQEND
  5
271
  8
001
  0
LINE
  5
28D
  8
001
 10
113.297572
 20
88.397879000000003
 30
0.0
 11
113.787572
 21
88.224008999999995
 31
0.0
  0
LINE
  5
28E
  8
001
 10
112.80757199999999
 20
88.57338
 30
0.0
 11
113.297572
 21
88.397879000000003
 31
0.0
  0
LINE
  5
28F
  8
001
 10
112.317572
 20
88.750455999999986
 30
0.0
 11
112.80757199999999
 21
88.57338
 31
0.0
  0
LINE
  5
290
  8
001
 10
111.827572
 20
88.929056000000003
 30
0.0
 11
112.317572
 21
88.750455999999986
 31
0.0
  0
LINE
  5
291
  8
001
 10
111.33757199999999
 20
89.109123999999994
 30
0.0
 11
111.827572
 21
88.929056000000003
 31
0.0
  0
LINE
  5
292
  8
001
 10
110.847572
 20
89.290604999999999
 30
0.0
 11
111.33757199999999
 21
89.109123999999994
 31
0.0
  0
LINE
  5
293
  8
001
 10
110.357572
 20
89.473444000000001
 30
0.0
 11
110.847572
 21
89.290604999999999
 31
0.0
  0
LINE
  5
294
  8
001
 10
109.867572
 20
89.657585999999995
 30
0.0
 11
110.357572
 21
89.473444000000001
 31
0.0
  0
LINE
  5
295
  8
001
 10
109.377572
 20
89.842974999999996
 30
0.0
 11
109.867572
 21
89.657585999999995
 31
0.0
  0
LINE
  5
296
  8
001
 10
108.88757200000001
 20
90.029553000000007
 30
0.0
 11
109.377572
 21
89.842974999999996
 31
0.0
  0
LINE
  5
297
  8
001
 10
108.397572
 20
90.217264
 30
0.0
 11
108.88757200000001
 21
90.029553000000007
 31
0.0
  0
LINE
  5
298
  8
001
 10
107.907572
 20
90.406051000000005
 30
0.0
 11
108.397572
 21
90.217264
 31
0.0
  0
LINE
  5
299
  8
001
 10
107.41757200000001
 20
90.595856999999995
 30
0.0
 11
107.907572
 21
90.406051000000005
 31
0.0
  0
LINE
  5
29A
  8
001
 10
106.927572
 20
90.786622999999992
 30
0.0
 11
107.41757200000001
 21
90.595856999999995
 31
0.0
  0
LINE
  5
29B
  8
001
 10
106.437572
 20
90.978290999999999
 30
0.0
 11
106.927572
 21
90.786622999999992
 31
0.0
  0
LINE
  5
29C
  8
001
 10
105.94757199999999
 20
91.170804000000004
 30
0.0
 11
106.437572
 21
90.978290999999999
 31
0.0
  0
LINE
  5
29D
  8
001
 10
105.457572
 20
91.364102000000003
 30
0.0
 11
105.94757199999999
 21
91.170804000000004
 31
0.0
  0
LINE
  5
29E
  8
001
 10
104.967572
 20
91.558126999999999
 30
0.0
 11
105.457572
 21
91.364102000000003
 31
0.0
  0
LINE
  5
29F
  8
001
 10
104.477572
 20
91.752818999999988
 30
0.0
 11
104.967572
 21
91.558126999999999
 31
0.0
  0
LINE
  5
2A0
  8
001
 10
103.987572
 20
91.948118999999991
 30
0.0
 11
104.477572
 21
91.752818999999988
 31
0.0
  0
LINE
  5
2A1
  8
001
 10
103.49757200000001
 20
92.143968000000015
 30
0.0
 11
103.987572
 21
91.948118999999991
 31
0.0
  0
LINE
  5
2A2
  8
001
 10
103.007572
 20
92.340306000000027
 30
0.0
 11
103.49757200000001
 21
92.143968000000015
 31
0.0
  0
LINE
  5
2A3
  8
001
 10
102.517572
 20
92.537073000000007
 30
0.0
 11
103.007572
 21
92.340306000000027
 31
0.0
  0
LINE
  5
2A4
  8
001
 10
102.02757200000001
 20
92.734210000000004
 30
0.0
 11
102.517572
 21
92.537073000000007
 31
0.0
  0
LINE
  5
2A5
  8
001
 10
101.537572
 20
92.931655000000006
 30
0.0
 11
102.02757200000001
 21
92.734210000000004
 31
0.0
  0
LINE
  5
2A6
  8
001
 10
101.047572
 20
93.129350000000017
 30
0.0
 11
101.537572
 21
92.931655000000006
 31
0.0
  0
LINE
  5
2A7
  8
001
 10
100.62741800000001
 20
93.302396000000002
 30
0.0
 11
101.047572
 21
93.129350000000017
 31
0.0
  0
LINE
  5
2A8
  8
001
 10
100.561769
 20
93.396838000000017
 30
0.0
 11
100.62741800000001
 21
93.302396000000002
 31
0.0
  0
ARC
  5
2A9
  8
001
 10
120.740645
 20
104.09931400000001
 30
0.0
 40
1.0000000000000011
 50
0.0
 51
90.0
  0
ARC
  5
2AA
  8
001
 10
120.740645
 20
83.399314000000004
 30
0.0
 40
1.0000000000000011
 50
270.0
 51
0.0
  0
LINE
  5
2AB
  8
001
 10
121.740645
 20
104.09931400000001
 30
0.0
 11
121.740645
 21
83.399314000000004
 31
0.0
  0
LINE
  5
2AC
  8
001
 10
100.62741800000001
 20
105.09931400000001
 30
0.0
 11
97.440645000000004
 21
101.799314
 31
0.0
  0
POLYLINE
  5
2AD
  8
001
 66
     1
 10
0.0
 20
0.0
 30
0.0
  0
VERTEX
  5
2AF
  8
001
 10
100.091067
 20
94.045784999999995
 30
0.0
  0
VERTEX
  5
2B0
  8
001
 10
100.254553
 20
93.834194999999994
 30
0.0
  0
VERTEX
  5
2B1
  8
001
 10
100.412381
 20
93.618576000000004
 30
0.0
  0
VERTEX
  5
2B2
  8
001
 10
100.48778299999999
 20
93.508211000000003
 30
0.0
  0
VERTEX
  5
2B3
  8
001
 10
100.561769
 20
93.396838000000017
 30
0.0
  0
SEQEND
  5
2AE
  8
001
  0
POLYLINE
  5
2B4
  8
001
 66
     1
 10
0.0
 20
0.0
 30
0.0
  0
VERTEX
  5
2B6
  8
001
 10
99.602906000000004
 20
94.62689499999999
 30
0.0
  0
VERTEX
  5
2B7
  8
001
 10
99.728596999999993
 20
94.489242000000004
 30
0.0
  0
VERTEX
  5
2B8
  8
001
 10
99.851157999999998
 20
94.348957999999996
 30
0.0
  0
VERTEX
  5
2B9
  8
001
 10
99.972796000000002
 20
94.198786999999996
 30
0.0
  0
VERTEX
  5
2BA
  8
001
 10
100.091067
 20
94.045784999999995
 30
0.0
  0
SEQEND
  5
2B5
  8
001
  0
POLYLINE
  5
2BB
  8
001
 66
     1
 10
0.0
 20
0.0
 30
0.0
  0
VERTEX
  5
2BD
  8
001
 10
99.097657000000012
 20
95.136754000000025
 30
0.0
  0
VERTEX
  5
2BE
  8
001
 10
99.227459999999994
 20
95.017479000000009
 30
0.0
  0
VERTEX
  5
2BF
  8
001
 10
99.354157000000001
 20
94.895122000000001
 30
0.0
  0
VERTEX
  5
2C0
  8
001
 10
99.480204999999998
 20
94.762668999999974
 30
0.0
  0
VERTEX
  5
2C1
  8
001
 10
99.602906000000004
 20
94.62689499999999
 30
0.0
  0
SEQEND
  5
2BC
  8
001
  0
POLYLINE
  5
2C2
  8
001
 66
     1
 10
0.0
 20
0.0
 30
0.0
  0
VERTEX
  5
2C4
  8
001
 10
98.575647000000004
 20
95.572174000000004
 30
0.0
  0
VERTEX
  5
2C5
  8
001
 10
98.709442000000024
 20
95.472052999999988
 30
0.0
  0
VERTEX
  5
2C6
  8
001
 10
98.840238000000014
 20
95.36833399999999
 30
0.0
  0
VERTEX
  5
2C7
  8
001
 10
98.970557999999997
 20
95.254478000000006
 30
0.0
  0
VERTEX
  5
2C8
  8
001
 10
99.097657000000012
 20
95.136754000000025
 30
0.0
  0
SEQEND
  5
2C3
  8
001
  0
POLYLINE
  5
2C9
  8
001
 66
     1
 10
0.0
 20
0.0
 30
0.0
  0
VERTEX
  5
2CB
  8
001
 10
98.037193000000002
 20
95.930256
 30
0.0
  0
VERTEX
  5
2CC
  8
001
 10
98.174836999999997
 20
95.849980999999985
 30
0.0
  0
VERTEX
  5
2CD
  8
001
 10
98.309717000000006
 20
95.765543999999991
 30
0.0
  0
VERTEX
  5
2CE
  8
001
 10
98.444156000000007
 20
95.671077999999994
 30
0.0
  0
VERTEX
  5
2CF
  8
001
 10
98.575647000000004
 20
95.572174000000004
 30
0.0
  0
SEQEND
  5
2CA
  8
001
  0
POLYLINE
  5
2D0
  8
001
 66
     1
 10
0.0
 20
0.0
 30
0.0
  0
VERTEX
  5
2D2
  8
001
 10
97.482616000000007
 20
96.208455000000015
 30
0.0
  0
VERTEX
  5
2D3
  8
001
 10
97.623946000000004
 20
96.148605000000003
 30
0.0
  0
VERTEX
  5
2D4
  8
001
 10
97.762906999999998
 20
96.084025999999994
 30
0.0
  0
VERTEX
  5
2D5
  8
001
 10
97.90129499999999
 20
96.009625999999997
 30
0.0
  0
VERTEX
  5
2D6
  8
001
 10
98.037193000000002
 20
95.930256
 30
0.0
  0
SEQEND
  5
2D1
  8
001
  0
LINE
  5
2D7
  8
001
 10
97.440645000000004
 20
96.227289999999996
 30
0.0
 11
97.482616000000007
 21
96.208455000000015
 31
0.0
  0
ARC
  5
2D8
  8
001
 10
197.740645
 20
99.749313999999998
 30
0.0
 40
4.0000000000000044
 50
0.0
 51
90.0
  0
ARC
  5
2D9
  8
001
 10
197.740645
 20
87.749313999999984
 30
0.0
 40
4.0000000000000044
 50
270.0
 51
0.0
  0
LINE
  5
2DA
  8
001
 10
201.740645
 20
99.749313999999998
 30
0.0
 11
201.740645
 21
87.749313999999984
 31
0.0
  0
LINE
  5
2DB
  8
001
 10
124.740645
 20
103.749314
 30
0.0
 11
197.740645
 21
103.749314
 31
0.0
  0
LINE
  5
2DC
  8
001
 10
124.740645
 20
83.749313999999984
 30
0.0
 11
197.740645
 21
83.749313999999984
 31
0.0
  0
POLYLINE
  5
2DD
  8
001
 66
     1
 10
0.0
 20
0.0
 30
0.0
  0
VERTEX
  5
2DF
  8
001
 10
95.248962999999989
 20
91.469082999999983
 30
0.0
  0
VERTEX
  5
2E0
  8
001
 10
95.284661000000014
 20
91.600531000000004
 30
0.0
  0
VERTEX
  5
2E1
  8
001
 10
95.313143999999994
 20
91.733191000000005
 30
0.0
  0
VERTEX
  5
2E2
  8
001
 10
95.329628999999997
 20
91.868239999999986
 30
0.0
  0
VERTEX
  5
2E3
  8
001
 10
95.338859999999997
 20
92.00450699999999
 30
0.0
  0
SEQEND
  5
2DE
  8
001
  0
LINE
  5
2E4
  8
001
 10
96.987166999999999
 20
96.349322000000015
 30
0.0
 11
97.440645000000004
 21
96.227289999999996
 31
0.0
  0
POLYLINE
  5
2E5
  8
001
 66
     1
 10
0.0
 20
0.0
 30
0.0
  0
VERTEX
  5
2E7
  8
001
 10
95.338859999999997
 20
92.00450699999999
 30
0.0
  0
VERTEX
  5
2E8
  8
001
 10
95.337389000000016
 20
92.093723999999995
 30
0.0
  0
VERTEX
  5
2E9
  8
001
 10
95.333211000000006
 20
92.182772000000014
 30
0.0
  0
VERTEX
  5
2EA
  8
001
 10
95.315068999999994
 20
92.331556999999989
 30
0.0
  0
VERTEX
  5
2EB
  8
001
 10
95.283519999999996
 20
92.478395999999975
 30
0.0
  0
VERTEX
  5
2EC
  8
001
 10
95.239294999999984
 20
92.623761000000002
 30
0.0
  0
VERTEX
  5
2ED
  8
001
 10
95.181674000000015
 20
92.764014000000003
 30
0.0
  0
VERTEX
  5
2EE
  8
001
 10
95.151440000000008
 20
92.824642999999995
 30
0.0
  0
VERTEX
  5
2EF
  8
001
 10
95.119708000000003
 20
92.884550000000004
 30
0.0
  0
SEQEND
  5
2E6
  8
001
  0
LINE
  5
2F0
  8
001
 10
97.440645000000004
 20
101.799314
 30
0.0
 11
88.040644999999998
 21
101.799314
 31
0.0
  0
LINE
  5
2F1
  8
001
 10
96.497167000000005
 20
96.481887999999984
 30
0.0
 11
96.987166999999999
 21
96.349322000000015
 31
0.0
  0
LINE
  5
2F2
  8
001
 10
96.00716700000001
 20
96.613621999999992
 30
0.0
 11
96.497167000000005
 21
96.481887999999984
 31
0.0
  0
LINE
  5
2F3
  8
001
 10
95.517167000000001
 20
96.744484000000014
 30
0.0
 11
96.00716700000001
 21
96.613621999999992
 31
0.0
  0
LINE
  5
2F4
  8
001
 10
95.027167000000006
 20
96.874432999999996
 30
0.0
 11
95.517167000000001
 21
96.744484000000014
 31
0.0
  0
LINE
  5
2F5
  8
001
 10
94.537167000000011
 20
97.003430000000009
 30
0.0
 11
95.027167000000006
 21
96.874432999999996
 31
0.0
  0
LINE
  5
2F6
  8
001
 10
94.047166999999988
 20
97.131435999999994
 30
0.0
 11
94.537167000000011
 21
97.003430000000009
 31
0.0
  0
LINE
  5
2F7
  8
001
 10
93.557167000000007
 20
97.258410999999995
 30
0.0
 11
94.047166999999988
 21
97.131435999999994
 31
0.0
  0
LINE
  5
2F8
  8
001
 10
93.067166999999998
 20
97.384317999999993
 30
0.0
 11
93.557167000000007
 21
97.258410999999995
 31
0.0
  0
LINE
  5
2F9
  8
001
 10
92.577167000000017
 20
97.509117000000003
 30
0.0
 11
93.067166999999998
 21
97.384317999999993
 31
0.0
  0
LINE
  5
2FA
  8
001
 10
92.087167000000008
 20
97.632770999999991
 30
0.0
 11
92.577167000000017
 21
97.509117000000003
 31
0.0
  0
LINE
  5
2FB
  8
001
 10
91.597166999999999
 20
97.755242999999993
 30
0.0
 11
92.087167000000008
 21
97.632770999999991
 31
0.0
  0
LINE
  5
2FC
  8
001
 10
91.107167000000004
 20
97.876493999999994
 30
0.0
 11
91.597166999999999
 21
97.755242999999993
 31
0.0
  0
LINE
  5
2FD
  8
001
 10
90.617167000000009
 20
97.996487000000002
 30
0.0
 11
91.107167000000004
 21
97.876493999999994
 31
0.0
  0
LINE
  5
2FE
  8
001
 10
90.127167
 20
98.115187000000006
 30
0.0
 11
90.617167000000009
 21
97.996487000000002
 31
0.0
  0
LINE
  5
2FF
  8
001
 10
89.637167000000005
 20
98.232557999999997
 30
0.0
 11
90.127167
 21
98.115187000000006
 31
0.0
  0
LINE
  5
300
  8
001
 10
89.14716700000001
 20
98.348562000000001
 30
0.0
 11
89.637167000000005
 21
98.232557999999997
 31
0.0
  0
LINE
  5
301
  8
001
 10
88.657167000000001
 20
98.463166000000015
 30
0.0
 11
89.14716700000001
 21
98.348562000000001
 31
0.0
  0
LINE
  5
302
  8
001
 10
88.167167000000006
 20
98.576332999999991
 30
0.0
 11
88.657167000000001
 21
98.463166000000015
 31
0.0
  0
LINE
  5
303
  8
001
 10
88.040644999999998
 20
98.608470999999994
 30
0.0
 11
88.167167000000006
 21
98.576332999999991
 31
0.0
  0
LINE
  5
304
  8
001
 10
95.119708000000003
 20
92.884550000000004
 30
0.0
 11
95.086279999999988
 21
92.939582000000001
 31
0.0
  0
POLYLINE
  5
305
  8
001
 66
     1
 10
0.0
 20
0.0
 30
0.0
  0
VERTEX
  5
307
  8
001
 10
94.648714999999996
 20
93.392725999999996
 30
0.0
  0
VERTEX
  5
308
  8
001
 10
94.535026000000002
 20
93.461321999999996
 30
0.0
  0
VERTEX
  5
309
  8
001
 10
94.417700999999994
 20
93.522565999999998
 30
0.0
  0
VERTEX
  5
30A
  8
001
 10
94.383861999999993
 20
93.537476999999996
 30
0.0
  0
VERTEX
  5
30B
  8
001
 10
94.349739000000014
 20
93.551815000000005
 30
0.0
  0
SEQEND
  5
306
  8
001
  0
POLYLINE
  5
30C
  8
001
 66
     1
 10
0.0
 20
0.0
 30
0.0
  0
VERTEX
  5
30E
  8
001
 10
94.349739000000014
 20
93.551815000000005
 30
0.0
  0
VERTEX
  5
30F
  8
001
 10
94.243822999999992
 20
93.588331000000011
 30
0.0
  0
VERTEX
  5
310
  8
001
 10
94.136613999999994
 20
93.620323999999997
 30
0.0
  0
VERTEX
  5
311
  8
001
 10
94.024457999999996
 20
93.644711000000015
 30
0.0
  0
VERTEX
  5
312
  8
001
 10
93.910762000000005
 20
93.660868000000008
 30
0.0
  0
VERTEX
  5
313
  8
001
 10
93.900671000000017
 20
93.661947999999995
 30
0.0
  0
VERTEX
  5
314
  8
001
 10
93.890578000000005
 20
93.663000999999994
 30
0.0
  0
SEQEND
  5
30D
  8
001
  0
LINE
  5
315
  8
001
 10
93.890578000000005
 20
93.663000999999994
 30
0.0
 11
93.713075000000003
 21
93.671666999999999
 31
0.0
  0
POLYLINE
  5
316
  8
001
 66
     1
 10
0.0
 20
0.0
 30
0.0
  0
VERTEX
  5
318
  8
001
 10
93.386949000000001
 20
93.642525000000006
 30
0.0
  0
VERTEX
  5
319
  8
001
 10
93.274365000000003
 20
93.617745999999997
 30
0.0
  0
VERTEX
  5
31A
  8
001
 10
93.162859999999995
 20
93.588898999999984
 30
0.0
  0
VERTEX
  5
31B
  8
001
 10
93.052311999999986
 20
93.552289000000002
 30
0.0
  0
VERTEX
  5
31C
  8
001
 10
92.944558999999998
 20
93.508037999999985
 30
0.0
  0
VERTEX
  5
31D
  8
001
 10
92.886178999999998
 20
93.480636000000004
 30
0.0
  0
VERTEX
  5
31E
  8
001
 10
92.828318999999993
 20
93.452162999999999
 30
0.0
  0
SEQEND
  5
317
  8
001
  0
POLYLINE
  5
31F
  8
001
 66
     1
 10
0.0
 20
0.0
 30
0.0
  0
VERTEX
  5
321
  8
001
 10
92.272497999999999
 20
93.263079000000005
 30
0.0
  0
VERTEX
  5
322
  8
001
 10
92.328562000000005
 20
93.265451999999996
 30
0.0
  0
VERTEX
  5
323
  8
001
 10
92.410491000000007
 20
93.269165000000015
 30
0.0
  0
VERTEX
  5
324
  8
001
 10
92.492396999999997
 20
93.273216000000005
 30
0.0
  0
VERTEX
  5
325
  8
001
 10
92.54843000000001
 20
93.276155000000003
 30
0.0
  0
SEQEND
  5
320
  8
001
  0
POLYLINE
  5
326
  8
001
 66
     1
 10
0.0
 20
0.0
 30
0.0
  0
VERTEX
  5
328
  8
001
 10
92.828318999999993
 20
93.452162999999999
 30
0.0
  0
VERTEX
  5
329
  8
001
 10
92.784357999999997
 20
93.428573999999983
 30
0.0
  0
VERTEX
  5
32A
  8
001
 10
92.740892000000002
 20
93.404167000000001
 30
0.0
  0
VERTEX
  5
32B
  8
001
 10
92.643330000000006
 20
93.342359000000016
 30
0.0
  0
VERTEX
  5
32C
  8
001
 10
92.54843000000001
 20
93.276155000000003
 30
0.0
  0
SEQEND
  5
327
  8
001
  0
POLYLINE
  5
32D
  8
001
 66
     1
 10
0.0
 20
0.0
 30
0.0
  0
VERTEX
  5
32F
  8
001
 10
91.769227000000001
 20
93.237040000000007
 30
0.0
  0
VERTEX
  5
330
  8
001
 10
91.871544999999998
 20
93.241408000000007
 30
0.0
  0
VERTEX
  5
331
  8
001
 10
92.021049000000005
 20
93.248587000000001
 30
0.0
  0
VERTEX
  5
332
  8
001
 10
92.170365000000004
 20
93.256868000000011
 30
0.0
  0
VERTEX
  5
333
  8
001
 10
92.272497999999999
 20
93.263079000000005
 30
0.0
  0
SEQEND
  5
32E
  8
001
  0
POLYLINE
  5
334
  8
001
 66
     1
 10
0.0
 20
0.0
 30
0.0
  0
VERTEX
  5
336
  8
001
 10
91.266309000000007
 20
93.211534
 30
0.0
  0
VERTEX
  5
337
  8
001
 10
91.368544
 20
93.215812
 30
0.0
  0
VERTEX
  5
338
  8
001
 10
91.517927999999998
 20
93.222843999999995
 30
0.0
  0
VERTEX
  5
339
  8
001
 10
91.667154000000011
 20
93.230956000000006
 30
0.0
  0
VERTEX
  5
33A
  8
001
 10
91.769227000000001
 20
93.237040000000007
 30
0.0
  0
SEQEND
  5
335
  8
001
  0
POLYLINE
  5
33B
  8
001
 66
     1
 10
0.0
 20
0.0
 30
0.0
  0
VERTEX
  5
33D
  8
001
 10
90.763709999999989
 20
93.186532999999983
 30
0.0
  0
VERTEX
  5
33E
  8
001
 10
90.865869999999987
 20
93.190725
 30
0.0
  0
VERTEX
  5
33F
  8
001
 10
91.015145999999987
 20
93.197616999999994
 30
0.0
  0
VERTEX
  5
340
  8
001
 10
91.164291000000006
 20
93.205568999999997
 30
0.0
  0
VERTEX
  5
341
  8
001
 10
91.266309000000007
 20
93.211534
 30
0.0
  0
SEQEND
  5
33C
  8
001
  0
POLYLINE
  5
342
  8
001
 66
     1
 10
0.0
 20
0.0
 30
0.0
  0
VERTEX
  5
344
  8
001
 10
90.261398999999997
 20
93.162010999999978
 30
0.0
  0
VERTEX
  5
345
  8
001
 10
90.363490999999996
 20
93.166120999999976
 30
0.0
  0
VERTEX
  5
346
  8
001
 10
90.512668999999988
 20
93.172879000000009
 30
0.0
  0
VERTEX
  5
347
  8
001
 10
90.661741000000006
 20
93.180681000000007
 30
0.0
  0
VERTEX
  5
348
  8
001
 10
90.763709999999989
 20
93.186532999999983
 30
0.0
  0
SEQEND
  5
343
  8
001
  0
POLYLINE
  5
349
  8
001
 66
     1
 10
0.0
 20
0.0
 30
0.0
  0
VERTEX
  5
34B
  8
001
 10
89.997233999999978
 20
93.147976
 30
0.0
  0
VERTEX
  5
34C
  8
001
 10
90.050919999999991
 20
93.150590000000008
 30
0.0
  0
VERTEX
  5
34D
  8
001
 10
90.129373000000001
 20
93.154615000000007
 30
0.0
  0
VERTEX
  5
34E
  8
001
 10
90.207768000000002
 20
93.158922999999987
 30
0.0
  0
VERTEX
  5
34F
  8
001
 10
90.261398999999997
 20
93.162010999999978
 30
0.0
  0
SEQEND
  5
34A
  8
001
  0
LINE
  5
350
  8
001
 10
89.997233999999978
 20
93.147976
 30
0.0
 11
89.755142000000006
 21
93.123944999999992
 31
0.0
  0
POLYLINE
  5
351
  8
001
 66
     1
 10
0.0
 20
0.0
 30
0.0
  0
VERTEX
  5
353
  8
001
 10
89.755142000000006
 20
93.123944999999992
 30
0.0
  0
VERTEX
  5
354
  8
001
 10
89.653082999999995
 20
93.103413000000003
 30
0.0
  0
VERTEX
  5
355
  8
001
 10
89.551631999999984
 20
93.080252000000016
 30
0.0
  0
VERTEX
  5
356
  8
001
 10
89.450568000000004
 20
93.052070000000015
 30
0.0
  0
VERTEX
  5
357
  8
001
 10
89.351061000000001
 20
93.018771999999984
 30
0.0
  0
VERTEX
  5
358
  8
001
 10
89.281891999999999
 20
92.992522999999991
 30
0.0
  0
VERTEX
  5
359
  8
001
 10
89.213191000000009
 20
92.965057999999999
 30
0.0
  0
SEQEND
  5
352
  8
001
  0
POLYLINE
  5
35A
  8
001
 66
     1
 10
0.0
 20
0.0
 30
0.0
  0
VERTEX
  5
35C
  8
001
 10
89.213191000000009
 20
92.965057999999999
 30
0.0
  0
VERTEX
  5
35D
  8
001
 10
89.053992000000008
 20
92.886312000000004
 30
0.0
  0
VERTEX
  5
35E
  8
001
 10
88.899957000000001
 20
92.799340999999998
 30
0.0
  0
VERTEX
  5
35F
  8
001
 10
88.751082999999994
 20
92.696025000000006
 30
0.0
  0
VERTEX
  5
360
  8
001
 10
88.60763
 20
92.584074999999999
 30
0.0
  0
SEQEND
  5
35B
  8
001
  0
POLYLINE
  5
361
  8
001
 66
     1
 10
0.0
 20
0.0
 30
0.0
  0
VERTEX
  5
363
  8
001
 10
88.60763
 20
92.584074999999999
 30
0.0
  0
VERTEX
  5
364
  8
001
 10
88.585909000000015
 20
92.564841999999999
 30
0.0
  0
VERTEX
  5
365
  8
001
 10
88.564367000000004
 20
92.545418000000012
 30
0.0
  0
VERTEX
  5
366
  8
001
 10
88.504839000000004
 20
92.488524999999996
 30
0.0
  0
VERTEX
  5
367
  8
001
 10
88.446758000000003
 20
92.430085000000005
 30
0.0
  0
SEQEND
  5
362
  8
001
  0
LINE
  5
368
  8
001
 10
87.724751999999995
 20
97.575374999999994
 30
0.0
 11
88.040644999999998
 21
97.71878700000002
 31
0.0
  0
LINE
  5
369
  8
001
 10
88.040644999999998
 20
99.544406999999993
 30
0.0
 11
87.140644999999992
 21
98.599314000000007
 31
0.0
  0
POLYLINE
  5
36A
  8
001
 66
     1
 10
0.0
 20
0.0
 30
0.0
  0
VERTEX
  5
36C
  8
001
 10
87.140644999999992
 20
97.269575000000003
 30
0.0
  0
VERTEX
  5
36D
  8
001
 10
87.286369999999991
 20
97.352946000000017
 30
0.0
  0
VERTEX
  5
36E
  8
001
 10
87.433722000000003
 20
97.433206999999996
 30
0.0
  0
VERTEX
  5
36F
  8
001
 10
87.578479999999999
 20
97.505739000000005
 30
0.0
  0
VERTEX
  5
370
  8
001
 10
87.724751999999995
 20
97.575374999999994
 30
0.0
  0
SEQEND
  5
36B
  8
001
  0
POLYLINE
  5
371
  8
001
 66
     1
 10
0.0
 20
0.0
 30
0.0
  0
VERTEX
  5
373
  8
001
 10
93.713075000000003
 20
93.671666999999999
 30
0.0
  0
VERTEX
  5
374
  8
001
 10
93.682776000000004
 20
93.671297999999979
 30
0.0
  0
VERTEX
  5
375
  8
001
 10
93.652480000000011
 20
93.670653000000001
 30
0.0
  0
VERTEX
  5
376
  8
001
 10
93.531492
 20
93.662831000000025
 30
0.0
  0
VERTEX
  5
377
  8
001
 10
93.411317000000011
 20
93.646726999999984
 30
0.0
  0
VERTEX
  5
378
  8
001
 10
93.399128999999988
 20
93.644645999999995
 30
0.0
  0
VERTEX
  5
379
  8
001
 10
93.386949000000001
 20
93.642525000000006
 30
0.0
  0
SEQEND
  5
372
  8
001
  0
LINE
  5
37A
  8
001
 10
95.173771000000002
 20
91.272801000000001
 30
0.0
 11
95.248962999999989
 21
91.469082999999983
 31
0.0
  0
POLYLINE
  5
37B
  8
001
 66
     1
 10
0.0
 20
0.0
 30
0.0
  0
VERTEX
  5
37D
  8
001
 10
94.711169999999996
 20
90.642056000000011
 30
0.0
  0
VERTEX
  5
37E
  8
001
 10
94.789727999999997
 20
90.718727000000001
 30
0.0
  0
VERTEX
  5
37F
  8
001
 10
94.865671000000006
 20
90.797933999999984
 30
0.0
  0
VERTEX
  5
380
  8
001
 10
94.95514
 20
90.905399000000017
 30
0.0
  0
VERTEX
  5
381
  8
001
 10
95.034998999999985
 20
91.020139999999998
 30
0.0
  0
VERTEX
  5
382
  8
001
 10
95.106106000000011
 20
91.142555000000002
 30
0.0
  0
VERTEX
  5
383
  8
001
 10
95.171688999999986
 20
91.268225000000015
 30
0.0
  0
SEQEND
  5
37C
  8
001
  0
LINE
  5
384
  8
001
  6
DASHED
 10
105.928918
 20
91.172279000000003
 30
0.0
 11
105.929715
 21
91.180257999999995
 31
0.0
  0
LINE
  5
385
  8
001
 10
88.040644999999998
 20
97.71878700000002
 30
0.0
 11
88.040644999999998
 21
101.799314
 31
0.0
  0
LINE
  5
386
  8
001
 10
87.140644999999992
 20
92.107782999999984
 30
0.0
 11
87.140644999999992
 21
98.599314000000007
 31
0.0
  0
POLYLINE
  5
387
  8
001
 66
     1
 10
0.0
 20
0.0
 30
0.0
  0
VERTEX
  5
389
  8
001
 10
88.137183999999991
 20
92.107782999999984
 30
0.0
  0
VERTEX
  5
38A
  8
001
 10
88.201021999999995
 20
92.173778999999996
 30
0.0
  0
VERTEX
  5
38B
  8
001
 10
88.290998999999999
 20
92.267181999999977
 30
0.0
  0
VERTEX
  5
38C
  8
001
 10
88.383562999999995
 20
92.363827000000001
 30
0.0
  0
VERTEX
  5
38D
  8
001
 10
88.446758000000003
 20
92.430085000000005
 30
0.0
  0
SEQEND
  5
388
  8
001
  0
POLYLINE
  5
38E
  8
001
 66
     1
 10
0.0
 20
0.0
 30
0.0
  0
VERTEX
  5
390
  8
001
 10
89.501920999999996
 20
92.383679999999984
 30
0.0
  0
VERTEX
  5
391
  8
001
 10
89.382518999999988
 20
92.376925999999997
 30
0.0
  0
VERTEX
  5
392
  8
001
 10
89.218789999999998
 20
92.355869999999996
 30
0.0
  0
VERTEX
  5
393
  8
001
 10
89.073267000000001
 20
92.320210000000003
 30
0.0
  0
VERTEX
  5
394
  8
001
 10
88.946157999999997
 20
92.273471999999998
 30
0.0
  0
VERTEX
  5
395
  8
001
 10
88.822803000000008
 20
92.216893999999996
 30
0.0
  0
VERTEX
  5
396
  8
001
 10
88.694132999999994
 20
92.139542000000006
 30
0.0
  0
VERTEX
  5
397
  8
001
 10
88.672089999999997
 20
92.124006999999992
 30
0.0
  0
VERTEX
  5
398
  8
001
 10
88.649928000000017
 20
92.107782999999984
 30
0.0
  0
SEQEND
  5
38F
  8
001
  0
LINE
  5
399
  8
001
 10
89.703528999999989
 20
92.383679999999984
 30
0.0
 11
89.501920999999996
 21
92.383679999999984
 31
0.0
  0
POLYLINE
  5
39A
  8
001
 66
     1
 10
0.0
 20
0.0
 30
0.0
  0
VERTEX
  5
39C
  8
001
 10
92.54843000000001
 20
93.276155000000003
 30
0.0
  0
VERTEX
  5
39D
  8
001
 10
92.370536000000016
 20
93.171506000000008
 30
0.0
  0
VERTEX
  5
39E
  8
001
 10
92.134422000000015
 20
93.021666999999994
 30
0.0
  0
SEQEND
  5
39B
  8
001
  0
POLYLINE
  5
39F
  8
001
 66
     1
 10
0.0
 20
0.0
 30
0.0
  0
VERTEX
  5
3A1
  8
001
 10
93.398374999999987
 20
93.637868999999995
 30
0.0
  0
VERTEX
  5
3A2
  8
001
 10
93.392043000000001
 20
93.639137000000005
 30
0.0
  0
VERTEX
  5
3A3
  8
001
 10
93.382779999999997
 20
93.640951000000001
 30
0.0
  0
VERTEX
  5
3A4
  8
001
 10
93.381623999999988
 20
93.641173999999992
 30
0.0
  0
VERTEX
  5
3A5
  8
001
 10
93.380472999999995
 20
93.641393999999991
 30
0.0
  0
SEQEND
  5
3A0
  8
001
  0
ARC
  5
3A6
  8
001
 10
93.997716999999994
 20
92.326273999999998
 30
0.0
 40
1.2494470294390341
 50
29.397393000000001
 51
58.598719999999993
  0
POLYLINE
  5
3A7
  8
001
 66
     1
 10
0.0
 20
0.0
 30
0.0
  0
VERTEX
  5
3A9
  8
001
 10
94.197113999999999
 20
85.999267000000003
 30
0.0
  0
VERTEX
  5
3AA
  8
001
 10
94.185550000000006
 20
85.882250999999997
 30
0.0
  0
VERTEX
  5
3AB
  8
001
 10
94.176376000000005
 20
85.788793999999996
 30
0.0
  0
SEQEND
  5
3A8
  8
001
  0
POLYLINE
  5
3AC
  8
001
 66
     1
 10
0.0
 20
0.0
 30
0.0
  0
VERTEX
  5
3AE
  8
001
 10
93.722601999999995
 20
85.997551000000016
 30
0.0
  0
VERTEX
  5
3AF
  8
001
 10
93.781350000000003
 20
85.963156999999995
 30
0.0
  0
VERTEX
  5
3B0
  8
001
 10
93.842675999999983
 20
85.929806999999997
 30
0.0
  0
VERTEX
  5
3B1
  8
001
 10
94.038118999999995
 20
85.840143999999995
 30
0.0
  0
VERTEX
  5
3B2
  8
001
 10
94.176376000000005
 20
85.788793999999996
 30
0.0
  0
SEQEND
  5
3AD
  8
001
  0
POLYLINE
  5
3B3
  8
001
 66
     1
 10
0.0
 20
0.0
 30
0.0
  0
VERTEX
  5
3B5
  8
001
 10
94.711169999999996
 20
90.642056000000011
 30
0.0
  0
VERTEX
  5
3B6
  8
001
 10
94.663869999999989
 20
90.253725000000017
 30
0.0
  0
VERTEX
  5
3B7
  8
001
 10
94.596159999999998
 20
89.685994999999991
 30
0.0
  0
VERTEX
  5
3B8
  8
001
 10
94.576713999999996
 20
89.519703000000007
 30
0.0
  0
VERTEX
  5
3B9
  8
001
 10
94.557877000000005
 20
89.357197999999997
 30
0.0
  0
SEQEND
  5
3B4
  8
001
  0
POLYLINE
  5
3BA
  8
001
 66
     1
 10
0.0
 20
0.0
 30
0.0
  0
VERTEX
  5
3BC
  8
001
 10
93.668297999999993
 20
90.286084000000017
 30
0.0
  0
VERTEX
  5
3BD
  8
001
 10
93.736815000000007
 20
90.313305000000014
 30
0.0
  0
VERTEX
  5
3BE
  8
001
 10
93.804217000000008
 20
90.342609999999979
 30
0.0
  0
VERTEX
  5
3BF
  8
001
 10
93.946282999999994
 20
90.417947999999996
 30
0.0
  0
VERTEX
  5
3C0
  8
001
 10
94.068526999999989
 20
90.501644999999996
 30
0.0
  0
VERTEX
  5
3C1
  8
001
 10
94.187538000000004
 20
90.598058999999978
 30
0.0
  0
VERTEX
  5
3C2
  8
001
 10
94.300827999999996
 20
90.705808000000005
 30
0.0
  0
VERTEX
  5
3C3
  8
001
 10
94.403141000000005
 20
90.823046999999988
 30
0.0
  0
VERTEX
  5
3C4
  8
001
 10
94.493738000000008
 20
90.948609999999988
 30
0.0
  0
VERTEX
  5
3C5
  8
001
 10
94.573366000000007
 20
91.082177000000001
 30
0.0
  0
VERTEX
  5
3C6
  8
001
 10
94.641125999999986
 20
91.222335999999984
 30
0.0
  0
VERTEX
  5
3C7
  8
001
 10
94.696274000000003
 20
91.368176999999989
 30
0.0
  0
VERTEX
  5
3C8
  8
001
 10
94.738309000000015
 20
91.518284999999977
 30
0.0
  0
VERTEX
  5
3C9
  8
001
 10
94.767032999999998
 20
91.671701999999996
 30
0.0
  0
VERTEX
  5
3CA
  8
001
 10
94.782196999999996
 20
91.827053000000006
 30
0.0
  0
VERTEX
  5
3CB
  8
001
 10
94.783653999999984
 20
91.983179000000007
 30
0.0
  0
VERTEX
  5
3CC
  8
001
 10
94.771396999999993
 20
92.138828999999987
 30
0.0
  0
VERTEX
  5
3CD
  8
001
 10
94.745522999999991
 20
92.292700999999994
 30
0.0
  0
VERTEX
  5
3CE
  8
001
 10
94.706250999999995
 20
92.443702999999985
 30
0.0
  0
VERTEX
  5
3CF
  8
001
 10
94.653936999999985
 20
92.590429999999998
 30
0.0
  0
VERTEX
  5
3D0
  8
001
 10
94.588830000000002
 20
92.731987000000004
 30
0.0
  0
VERTEX
  5
3D1
  8
001
 10
94.511542000000006
 20
92.866957999999997
 30
0.0
  0
VERTEX
  5
3D2
  8
001
 10
94.422864999999987
 20
92.994518999999997
 30
0.0
  0
VERTEX
  5
3D3
  8
001
 10
94.323804999999993
 20
93.113306999999992
 30
0.0
  0
VERTEX
  5
3D4
  8
001
 10
94.213631000000007
 20
93.222956999999994
 30
0.0
  0
VERTEX
  5
3D5
  8
001
 10
94.093163999999987
 20
93.322358999999977
 30
0.0
  0
VERTEX
  5
3D6
  8
001
 10
93.967776999999984
 20
93.410042000000004
 30
0.0
  0
VERTEX
  5
3D7
  8
001
 10
93.840031999999994
 20
93.484814
 30
0.0
  0
VERTEX
  5
3D8
  8
001
 10
93.693115000000006
 20
93.549825999999996
 30
0.0
  0
VERTEX
  5
3D9
  8
001
 10
93.523772999999977
 20
93.605361000000002
 30
0.0
  0
VERTEX
  5
3DA
  8
001
 10
93.398374999999987
 20
93.637868999999995
 30
0.0
  0
SEQEND
  5
3BB
  8
001
  0
POLYLINE
  5
3DB
  8
001
 66
     1
 10
0.0
 20
0.0
 30
0.0
  0
VERTEX
  5
3DD
  8
001
 10
93.687105999999986
 20
90.26644499999999
 30
0.0
  0
VERTEX
  5
3DE
  8
001
 10
93.907147999999992
 20
90.318734000000006
 30
0.0
  0
VERTEX
  5
3DF
  8
001
 10
94.154227999999989
 20
90.393460000000005
 30
0.0
  0
VERTEX
  5
3E0
  8
001
 10
94.489528000000007
 20
90.529972999999984
 30
0.0
  0
VERTEX
  5
3E1
  8
001
 10
94.711169999999996
 20
90.642056000000011
 30
0.0
  0
SEQEND
  5
3DC
  8
001
  0
LINE
  5
3E2
  8
001
 10
97.440645000000004
 20
96.227289999999996
 30
0.0
 11
97.440645000000004
 21
101.799314
 31
0.0
  0
LINE
  5
3E3
  8
001
 10
100.62741800000001
 20
93.302396000000002
 30
0.0
 11
100.62741800000001
 21
105.09931400000001
 31
0.0
  0
LINE
  5
3E4
  8
001
  6
CENTER
 10
85.98213299999999
 20
93.749313999999984
 30
0.0
 11
204.49482399999999
 21
93.749313999999984
 31
0.0
  0
LINE
  5
3E5
  8
001
 10
124.740645
 20
83.749313999999984
 30
0.0
 11
124.740645
 21
103.749314
 31
0.0
  0
LINE
  5
3E6
  8
001
 10
124.740645
 20
103.249314
 30
0.0
 11
121.740645
 21
103.249314
 31
0.0
  0
LINE
  5
3E7
  8
001
 10
121.740645
 20
84.249313999999998
 30
0.0
 11
124.740645
 21
84.249313999999998
 31
0.0
  0
LINE
  5
3E8
  8
001
 10
201.740645
 20
93.749313999999984
 30
0.0
 11
204.33872099999999
 21
95.249313999999984
 31
0.0
  0
LINE
  5
3E9
  8
001
 10
201.740645
 20
93.749313999999984
 30
0.0
 11
204.33872099999999
 21
92.249313999999998
 31
0.0
  0
TEXT
  5
3EA
  8
001
 10
30.903555000000001
 20
15.346792000000001
 30
0.0
 40
2.0
  1
加工形状
 41
0.833333
  0
CIRCLE
  5
3EB
  8
001
 10
101.54065300000001
 20
86.511914000000004
 30
0.0
 40
1.8999999999999999
  0
LINE
  5
3EC
  8
001
 10
101.13650800000001
 20
87.211913999999993
 30
0.0
 11
101.367448
 21
87.611913999999985
 31
0.0
  0
LINE
  5
3ED
  8
001
 10
101.944799
 20
87.211913999999993
 30
0.0
 11
101.713858
 21
87.611913999999985
 31
0.0
  0
ARC
  5
3EE
  8
001
 10
101.54065300000001
 20
87.511914000000004
 30
0.0
 40
0.2
 50
30.0
 51
150.0
  0
LINE
  5
3EF
  8
001
 10
100.73236300000001
 20
86.511914000000004
 30
0.0
 11
100.501423
 21
86.911913999999996
 31
0.0
  0
LINE
  5
3F0
  8
001
 10
101.13650800000001
 20
87.211913999999993
 30
0.0
 11
100.674628
 21
87.211913999999993
 31
0.0
  0
ARC
  5
3F1
  8
001
 10
100.674628
 20
87.011914000000004
 30
0.0
 40
0.2
 50
90.0
 51
210.0
  0
LINE
  5
3F2
  8
001
 10
101.13650800000001
 20
85.811913999999987
 30
0.0
 11
100.674628
 21
85.811913999999987
 31
0.0
  0
LINE
  5
3F3
  8
001
 10
100.73236300000001
 20
86.511914000000004
 30
0.0
 11
100.501423
 21
86.111913999999999
 31
0.0
  0
ARC
  5
3F4
  8
001
 10
100.674628
 20
86.011914000000004
 30
0.0
 40
0.2
 50
150.0
 51
270.0
  0
LINE
  5
3F5
  8
001
 10
101.944799
 20
85.811913999999987
 30
0.0
 11
101.713858
 21
85.411913999999996
 31
0.0
  0
LINE
  5
3F6
  8
001
 10
101.13650800000001
 20
85.811913999999987
 30
0.0
 11
101.367448
 21
85.411913999999996
 31
0.0
  0
ARC
  5
3F7
  8
001
 10
101.54065300000001
 20
85.511914000000004
 30
0.0
 40
0.2
 50
210.0
 51
330.0
  0
LINE
  5
3F8
  8
001
 10
102.348944
 20
86.511914000000004
 30
0.0
 11
102.57988400000001
 21
86.111913999999999
 31
0.0
  0
LINE
  5
3F9
  8
001
 10
101.944799
 20
85.811913999999987
 30
0.0
 11
102.406679
 21
85.811913999999987
 31
0.0
  0
ARC
  5
3FA
  8
001
 10
102.406679
 20
86.011914000000004
 30
0.0
 40
0.2
 50
270.0
 51
30.0
  0
LINE
  5
3FB
  8
001
 10
101.944799
 20
87.211913999999993
 30
0.0
 11
102.406679
 21
87.211913999999993
 31
0.0
  0
LINE
  5
3FC
  8
001
 10
102.348944
 20
86.511914000000004
 30
0.0
 11
102.57988400000001
 21
86.911913999999996
 31
0.0
  0
ARC
  5
3FD
  8
001
 10
102.406679
 20
87.011914000000004
 30
0.0
 40
0.2
 50
330.0
 51
90.0
  0
POLYLINE
  5
3FE
  8
001
 66
     1
 10
0.0
 20
0.0
 30
0.0
  0
VERTEX
  5
400
  8
001
 10
96.930284000000015
 20
86.071696000000003
 30
0.0
  0
VERTEX
  5
401
  8
001
 10
96.908792000000005
 20
86.047212000000002
 30
0.0
  0
VERTEX
  5
402
  8
001
 10
96.881600000000006
 20
86.011588000000003
 30
0.0
  0
VERTEX
  5
403
  8
001
 10
96.860670000000013
 20
85.976990999999984
 30
0.0
  0
VERTEX
  5
404
  8
001
 10
96.845399999999998
 20
85.942991000000006
 30
0.0
  0
VERTEX
  5
405
  8
001
 10
96.832740000000001
 20
85.906629000000009
 30
0.0
  0
VERTEX
  5
406
  8
001
 10
96.823075000000003
 20
85.868539999999996
 30
0.0
  0
VERTEX
  5
407
  8
001
 10
96.817344999999989
 20
85.829893999999996
 30
0.0
  0
VERTEX
  5
408
  8
001
 10
96.815483000000015
 20
85.791096999999993
 30
0.0
  0
VERTEX
  5
409
  8
001
 10
96.817265000000006
 20
85.752296000000001
 30
0.0
  0
VERTEX
  5
40A
  8
001
 10
96.822915000000009
 20
85.713638000000003
 30
0.0
  0
VERTEX
  5
40B
  8
001
 10
96.832502000000005
 20
85.675527999999986
 30
0.0
  0
VERTEX
  5
40C
  8
001
 10
96.845087000000021
 20
85.639139999999998
 30
0.0
  0
VERTEX
  5
40D
  8
001
 10
96.860287000000014
 20
85.605107000000004
 30
0.0
  0
VERTEX
  5
40E
  8
001
 10
96.881146000000001
 20
85.57046600000001
 30
0.0
  0
VERTEX
  5
40F
  8
001
 10
96.908264000000003
 20
85.534784000000016
 30
0.0
  0
VERTEX
  5
410
  8
001
 10
96.929705000000013
 20
85.510254000000003
 30
0.0
  0
SEQEND
  5
3FF
  8
001
  0
LINE
  5
411
  8
001
 10
98.551463999999996
 20
87.714441000000008
 30
0.0
 11
96.930284000000015
 21
86.071696000000003
 31
0.0
  0
LINE
  5
412
  8
001
 10
98.551463999999996
 20
87.714441000000008
 30
0.0
 11
98.572410000000005
 21
89.131333999999995
 31
0.0
  0
LINE
  5
413
  8
001
 10
100.63752599999999
 20
91.22392099999999
 30
0.0
 11
98.572410000000005
 21
89.131333999999995
 31
0.0
  0
POLYLINE
  5
414
  8
001
 66
     1
 10
0.0
 20
0.0
 30
0.0
  0
VERTEX
  5
416
  8
001
 10
101.190439
 20
91.223332999999997
 30
0.0
  0
VERTEX
  5
417
  8
001
 10
101.169151
 20
91.242856999999987
 30
0.0
  0
VERTEX
  5
418
  8
001
 10
101.138279
 20
91.267870000000002
 30
0.0
  0
VERTEX
  5
419
  8
001
 10
101.108529
 20
91.287536000000003
 30
0.0
  0
VERTEX
  5
41A
  8
001
 10
101.079294
 20
91.302533999999994
 30
0.0
  0
VERTEX
  5
41B
  8
001
 10
101.048081
 20
91.315535999999994
 30
0.0
  0
VERTEX
  5
41C
  8
001
 10
101.015278
 20
91.326269999999994
 30
0.0
  0
VERTEX
  5
41D
  8
001
 10
100.981927
 20
91.333878999999996
 30
0.0
  0
VERTEX
  5
41E
  8
001
 10
100.948176
 20
91.338357999999985
 30
0.0
  0
VERTEX
  5
41F
  8
001
 10
100.914102
 20
91.339865000000003
 30
0.0
  0
VERTEX
  5
420
  8
001
 10
100.880026
 20
91.338430999999986
 30
0.0
  0
VERTEX
  5
421
  8
001
 10
100.846265
 20
91.334023000000002
 30
0.0
  0
VERTEX
  5
422
  8
001
 10
100.812898
 20
91.326486000000017
 30
0.0
  0
VERTEX
  5
423
  8
001
 10
100.780073
 20
91.315821999999997
 30
0.0
  0
VERTEX
  5
424
  8
001
 10
100.748833
 20
91.302885000000003
 30
0.0
  0
VERTEX
  5
425
  8
001
 10
100.719568
 20
91.287949999999995
 30
0.0
  0
VERTEX
  5
426
  8
001
 10
100.689778
 20
91.268346999999991
 30
0.0
  0
VERTEX
  5
427
  8
001
 10
100.65885400000001
 20
91.243399999999994
 30
0.0
  0
VERTEX
  5
428
  8
001
 10
100.63752599999999
 20
91.22392099999999
 30
0.0
  0
SEQEND
  5
415
  8
001
  0
LINE
  5
429
  8
001
 10
102.809793
 20
89.575550000000007
 30
0.0
 11
101.190439
 21
91.223332999999997
 31
0.0
  0
LINE
  5
42A
  8
001
 10
104.10059
 20
89.555875
 30
0.0
 11
102.809793
 21
89.575550000000007
 31
0.0
  0
LINE
  5
42B
  8
001
 10
106.161385
 20
87.458900999999997
 30
0.0
 11
104.10059
 21
89.555875
 31
0.0
  0
POLYLINE
  5
42C
  8
001
 66
     1
 10
0.0
 20
0.0
 30
0.0
  0
VERTEX
  5
42E
  8
001
 10
106.16080599999999
 20
86.897458999999998
 30
0.0
  0
VERTEX
  5
42F
  8
001
 10
106.182299
 20
86.921942999999999
 30
0.0
  0
VERTEX
  5
430
  8
001
 10
106.20949
 20
86.957566999999997
 30
0.0
  0
VERTEX
  5
431
  8
001
 10
106.23042100000001
 20
86.992164000000002
 30
0.0
  0
VERTEX
  5
432
  8
001
 10
106.24569099999999
 20
87.026165000000006
 30
0.0
  0
VERTEX
  5
433
  8
001
 10
106.258351
 20
87.062526000000005
 30
0.0
  0
VERTEX
  5
434
  8
001
 10
106.268016
 20
87.100615000000005
 30
0.0
  0
VERTEX
  5
435
  8
001
 10
106.273746
 20
87.139261000000005
 30
0.0
  0
VERTEX
  5
436
  8
001
 10
106.27560800000001
 20
87.178057999999979
 30
0.0
  0
VERTEX
  5
437
  8
001
 10
106.273826
 20
87.216858999999999
 30
0.0
  0
VERTEX
  5
438
  8
001
 10
106.268175
 20
87.255516999999998
 30
0.0
  0
VERTEX
  5
439
  8
001
 10
106.258589
 20
87.293627000000015
 30
0.0
  0
VERTEX
  5
43A
  8
001
 10
106.246004
 20
87.330015000000003
 30
0.0
  0
VERTEX
  5
43B
  8
001
 10
106.23080400000001
 20
87.364047999999997
 30
0.0
  0
VERTEX
  5
43C
  8
001
 10
106.209945
 20
87.398690000000002
 30
0.0
  0
VERTEX
  5
43D
  8
001
 10
106.182827
 20
87.434370999999985
 30
0.0
  0
VERTEX
  5
43E
  8
001
 10
106.161385
 20
87.458900999999997
 30
0.0
  0
SEQEND
  5
42D
  8
001
  0
LINE
  5
43F
  8
001
 10
104.53805699999999
 20
85.253124
 30
0.0
 11
106.16080599999999
 21
86.897458999999998
 31
0.0
  0
LINE
  5
440
  8
001
 10
104.518681
 20
83.942413999999999
 30
0.0
 11
104.53805699999999
 21
85.253124
 31
0.0
  0
LINE
  5
441
  8
001
 10
102.45348
 20
81.849741000000009
 30
0.0
 11
104.518681
 21
83.942413999999999
 31
0.0
  0
LINE
  5
442
  8
001
 10
100.28020100000001
 20
83.499313999999998
 30
0.0
 11
101.900746
 21
81.850319999999996
 31
0.0
  0
POLYLINE
  5
443
  8
001
 66
     1
 10
0.0
 20
0.0
 30
0.0
  0
VERTEX
  5
445
  8
001
 10
101.545545
 20
88.786873999999997
 30
0.0
  0
VERTEX
  5
446
  8
001
 10
101.38309700000001
 20
88.778304000000006
 30
0.0
  0
VERTEX
  5
447
  8
001
 10
101.16077300000001
 20
88.752690999999999
 30
0.0
  0
VERTEX
  5
448
  8
001
 10
100.963751
 20
88.710183999999998
 30
0.0
  0
VERTEX
  5
449
  8
001
 10
100.787691
 20
88.651181999999991
 30
0.0
  0
VERTEX
  5
44A
  8
001
 10
100.611226
 20
88.576018000000005
 30
0.0
  0
VERTEX
  5
44B
  8
001
 10
100.437637
 20
88.485431000000005
 30
0.0
  0
VERTEX
  5
44C
  8
001
 10
100.27391299999999
 20
88.379890999999986
 30
0.0
  0
VERTEX
  5
44D
  8
001
 10
100.121245
 20
88.260474000000002
 30
0.0
  0
VERTEX
  5
44E
  8
001
 10
99.978798999999995
 20
88.127767999999989
 30
0.0
  0
VERTEX
  5
44F
  8
001
 10
99.848131000000009
 20
87.983145999999991
 30
0.0
  0
VERTEX
  5
450
  8
001
 10
99.730345999999997
 20
87.827318000000005
 30
0.0
  0
VERTEX
  5
451
  8
001
 10
99.626591000000005
 20
87.661873999999983
 30
0.0
  0
VERTEX
  5
452
  8
001
 10
99.537307999999996
 20
87.487673000000001
 30
0.0
  0
VERTEX
  5
453
  8
001
 10
99.463357999999985
 20
87.306419000000005
 30
0.0
  0
VERTEX
  5
454
  8
001
 10
99.405214999999998
 20
87.119152999999983
 30
0.0
  0
VERTEX
  5
455
  8
001
 10
99.363391000000007
 20
86.927582000000001
 30
0.0
  0
VERTEX
  5
456
  8
001
 10
99.338162999999994
 20
86.732951999999997
 30
0.0
  0
VERTEX
  5
457
  8
001
 10
99.329728000000003
 20
86.536873999999997
 30
0.0
  0
VERTEX
  5
458
  8
001
 10
99.338162999999994
 20
86.340795999999983
 30
0.0
  0
VERTEX
  5
459
  8
001
 10
99.363391000000007
 20
86.146166000000008
 30
0.0
  0
VERTEX
  5
45A
  8
001
 10
99.405214999999998
 20
85.954594999999998
 30
0.0
  0
VERTEX
  5
45B
  8
001
 10
99.463357999999985
 20
85.767329000000004
 30
0.0
  0
VERTEX
  5
45C
  8
001
 10
99.537307999999996
 20
85.586074999999994
 30
0.0
  0
VERTEX
  5
45D
  8
001
 10
99.626591000000005
 20
85.411873999999997
 30
0.0
  0
VERTEX
  5
45E
  8
001
 10
99.730345999999997
 20
85.246430000000004
 30
0.0
  0
VERTEX
  5
45F
  8
001
 10
99.848131000000009
 20
85.090602000000004
 30
0.0
  0
VERTEX
  5
460
  8
001
 10
99.978798999999995
 20
84.945980000000006
 30
0.0
  0
VERTEX
  5
461
  8
001
 10
100.121245
 20
84.813273999999993
 30
0.0
  0
VERTEX
  5
462
  8
001
 10
100.27391299999999
 20
84.693856999999994
 30
0.0
  0
VERTEX
  5
463
  8
001
 10
100.437637
 20
84.588317000000004
 30
0.0
  0
VERTEX
  5
464
  8
001
 10
100.611226
 20
84.497730000000004
 30
0.0
  0
VERTEX
  5
465
  8
001
 10
100.787691
 20
84.422566000000003
 30
0.0
  0
VERTEX
  5
466
  8
001
 10
100.963751
 20
84.363563999999997
 30
0.0
  0
VERTEX
  5
467
  8
001
 10
101.16077300000001
 20
84.321056999999996
 30
0.0
  0
VERTEX
  5
468
  8
001
 10
101.38309700000001
 20
84.295443999999989
 30
0.0
  0
VERTEX
  5
469
  8
001
 10
101.545545
 20
84.286873999999983
 30
0.0
  0
SEQEND
  5
444
  8
001
  0
POLYLINE
  5
46A
  8
001
 66
     1
 10
0.0
 20
0.0
 30
0.0
  0
VERTEX
  5
46C
  8
001
 10
101.545545
 20
84.286873999999983
 30
0.0
  0
VERTEX
  5
46D
  8
001
 10
101.707994
 20
84.295443999999989
 30
0.0
  0
VERTEX
  5
46E
  8
001
 10
101.930318
 20
84.321056999999996
 30
0.0
  0
VERTEX
  5
46F
  8
001
 10
102.12734
 20
84.363563999999997
 30
0.0
  0
VERTEX
  5
470
  8
001
 10
102.3034
 20
84.422566000000003
 30
0.0
  0
VERTEX
  5
471
  8
001
 10
102.479865
 20
84.497730000000004
 30
0.0
  0
VERTEX
  5
472
  8
001
 10
102.653454
 20
84.588317000000004
 30
0.0
  0
VERTEX
  5
473
  8
001
 10
102.817177
 20
84.693856999999994
 30
0.0
  0
VERTEX
  5
474
  8
001
 10
102.96984500000001
 20
84.813273999999993
 30
0.0
  0
VERTEX
  5
475
  8
001
 10
103.112292
 20
84.945980000000006
 30
0.0
  0
VERTEX
  5
476
  8
001
 10
103.24296
 20
85.090602000000004
 30
0.0
  0
VERTEX
  5
477
  8
001
 10
103.36074499999999
 20
85.246430000000004
 30
0.0
  0
VERTEX
  5
478
  8
001
 10
103.4645
 20
85.411873999999997
 30
0.0
  0
VERTEX
  5
479
  8
001
 10
103.553783
 20
85.586074999999994
 30
0.0
  0
VERTEX
  5
47A
  8
001
 10
103.62773300000001
 20
85.767329000000004
 30
0.0
  0
VERTEX
  5
47B
  8
001
 10
103.68587599999999
 20
85.954594999999998
 30
0.0
  0
VERTEX
  5
47C
  8
001
 10
103.7277
 20
86.146166000000008
 30
0.0
  0
VERTEX
  5
47D
  8
001
 10
103.752928
 20
86.340795999999983
 30
0.0
  0
VERTEX
  5
47E
  8
001
 10
103.761363
 20
86.536873999999997
 30
0.0
  0
VERTEX
  5
47F
  8
001
 10
103.752928
 20
86.732951999999997
 30
0.0
  0
VERTEX
  5
480
  8
001
 10
103.7277
 20
86.927582000000001
 30
0.0
  0
VERTEX
  5
481
  8
001
 10
103.68587599999999
 20
87.119152999999983
 30
0.0
  0
VERTEX
  5
482
  8
001
 10
103.62773300000001
 20
87.306419000000005
 30
0.0
  0
VERTEX
  5
483
  8
001
 10
103.553783
 20
87.487673000000001
 30
0.0
  0
VERTEX
  5
484
  8
001
 10
103.4645
 20
87.661873999999983
 30
0.0
  0
VERTEX
  5
485
  8
001
 10
103.36074499999999
 20
87.827318000000005
 30
0.0
  0
VERTEX
  5
486
  8
001
 10
103.24296
 20
87.983145999999991
 30
0.0
  0
VERTEX
  5
487
  8
001
 10
103.112292
 20
88.127767999999989
 30
0.0
  0
VERTEX
  5
488
  8
001
 10
102.96984500000001
 20
88.260474000000002
 30
0.0
  0
VERTEX
  5
489
  8
001
 10
102.817177
 20
88.379890999999986
 30
0.0
  0
VERTEX
  5
48A
  8
001
 10
102.653454
 20
88.485431000000005
 30
0.0
  0
VERTEX
  5
48B
  8
001
 10
102.479865
 20
88.576018000000005
 30
0.0
  0
VERTEX
  5
48C
  8
001
 10
102.3034
 20
88.651181999999991
 30
0.0
  0
VERTEX
  5
48D
  8
001
 10
102.12734
 20
88.710183999999998
 30
0.0
  0
VERTEX
  5
48E
  8
001
 10
101.930318
 20
88.752690999999999
 30
0.0
  0
VERTEX
  5
48F
  8
001
 10
101.707994
 20
88.778304000000006
 30
0.0
  0
VERTEX
  5
490
  8
001
 10
101.545545
 20
88.786873999999997
 30
0.0
  0
SEQEND
  5
46B
  8
001
  0
POLYLINE
  5
491
  8
001
 66
     1
 10
0.0
 20
0.0
 30
0.0
  0
VERTEX
  5
493
  8
001
 10
107.389584
 20
82.774319999999989
 30
0.0
  0
VERTEX
  5
494
  8
001
 10
107.3707399999999
 20
82.772570999999985
 30
0.0
  0
VERTEX
  5
495
  8
001
 10
107.35189699999999
 20
82.770814999999985
 30
0.0
  0
VERTEX
  5
496
  8
001
 10
107.125687
 20
82.748711999999983
 30
0.0
  0
VERTEX
  5
497
  8
001
 10
106.899584
 20
82.725493999999998
 30
0.0
  0
SEQEND
  5
492
  8
001
  0
POLYLINE
  5
498
  8
001
 66
     1
 10
0.0
 20
0.0
 30
0.0
  0
VERTEX
  5
49A
  8
001
 10
107.87958399999999
 20
82.826488999999995
 30
0.0
  0
VERTEX
  5
49B
  8
001
 10
107.86074000000001
 20
82.824624999999983
 30
0.0
  0
VERTEX
  5
49C
  8
001
 10
107.841897
 20
82.822751999999994
 30
0.0
  0
VERTEX
  5
49D
  8
001
 10
107.615678
 20
82.799148999999986
 30
0.0
  0
VERTEX
  5
49E
  8
001
 10
107.389584
 20
82.774319999999989
 30
0.0
  0
SEQEND
  5
499
  8
001
  0
POLYLINE
  5
49F
  8
001
 66
     1
 10
0.0
 20
0.0
 30
0.0
  0
VERTEX
  5
4A1
  8
001
 10
108.369584
 20
82.881985
 30
0.0
  0
VERTEX
  5
4A2
  8
001
 10
108.35074
 20
82.880006000000009
 30
0.0
  0
VERTEX
  5
4A3
  8
001
 10
108.331897
 20
82.878017000000014
 30
0.0
  0
VERTEX
  5
4A4
  8
001
 10
108.10566799999999
 20
82.852920999999995
 30
0.0
  0
VERTEX
  5
4A5
  8
001
 10
107.87958399999999
 20
82.826488999999995
 30
0.0
  0
SEQEND
  5
4A0
  8
001
  0
POLYLINE
  5
4A6
  8
001
 66
     1
 10
0.0
 20
0.0
 30
0.0
  0
VERTEX
  5
4A8
  8
001
 10
108.859584
 20
82.940792000000002
 30
0.0
  0
VERTEX
  5
4A9
  8
001
 10
108.84074
 20
82.938698000000016
 30
0.0
  0
VERTEX
  5
4AA
  8
001
 10
108.82189700000001
 20
82.936594000000014
 30
0.0
  0
VERTEX
  5
4AB
  8
001
 10
108.595657
 20
82.910011999999995
 30
0.0
  0
VERTEX
  5
4AC
  8
001
 10
108.369584
 20
82.881985
 30
0.0
  0
SEQEND
  5
4A7
  8
001
  0
POLYLINE
  5
4AD
  8
001
 66
     1
 10
0.0
 20
0.0
 30
0.0
  0
VERTEX
  5
4AF
  8
001
 10
109.34958399999999
 20
83.002891000000005
 30
0.0
  0
VERTEX
  5
4B0
  8
001
 10
109.33074000000001
 20
83.000682999999995
 30
0.0
  0
VERTEX
  5
4B1
  8
001
 10
109.311897
 20
82.998463999999984
 30
0.0
  0
VERTEX
  5
4B2
  8
001
 10
109.085646
 20
82.970404000000002
 30
0.0
  0
VERTEX
  5
4B3
  8
001
 10
108.859584
 20
82.940792000000002
 30
0.0
  0
SEQEND
  5
4AE
  8
001
  0
POLYLINE
  5
4B4
  8
001
 66
     1
 10
0.0
 20
0.0
 30
0.0
  0
VERTEX
  5
4B6
  8
001
 10
109.839584
 20
83.068263000000002
 30
0.0
  0
VERTEX
  5
4B7
  8
001
 10
109.82074
 20
83.065942000000007
 30
0.0
  0
VERTEX
  5
4B8
  8
001
 10
109.801897
 20
83.063609999999997
 30
0.0
  0
VERTEX
  5
4B9
  8
001
 10
109.57563399999999
 20
83.034080000000003
 30
0.0
  0
VERTEX
  5
4BA
  8
001
 10
109.34958399999999
 20
83.002891000000005
 30
0.0
  0
SEQEND
  5
4B5
  8
001
  0
POLYLINE
  5
4BB
  8
001
 66
     1
 10
0.0
 20
0.0
 30
0.0
  0
VERTEX
  5
4BD
  8
001
 10
110.329584
 20
83.136888999999996
 30
0.0
  0
VERTEX
  5
4BE
  8
001
 10
110.31074
 20
83.134455999999986
 30
0.0
  0
VERTEX
  5
4BF
  8
001
 10
110.29189700000001
 20
83.132009999999994
 30
0.0
  0
VERTEX
  5
4C0
  8
001
 10
110.06562099999999
 20
83.101018999999994
 30
0.0
  0
VERTEX
  5
4C1
  8
001
 10
109.839584
 20
83.068263000000002
 30
0.0
  0
SEQEND
  5
4BC
  8
001
  0
POLYLINE
  5
4C2
  8
001
 66
     1
 10
0.0
 20
0.0
 30
0.0
  0
VERTEX
  5
4C4
  8
001
 10
110.81958400000001
 20
83.208748
 30
0.0
  0
VERTEX
  5
4C5
  8
001
 10
110.80074
 20
83.206202999999988
 30
0.0
  0
VERTEX
  5
4C6
  8
001
 10
110.781897
 20
83.203643999999997
 30
0.0
  0
VERTEX
  5
4C7
  8
001
 10
110.55560800000001
 20
83.171202000000008
 30
0.0
  0
VERTEX
  5
4C8
  8
001
 10
110.329584
 20
83.136888999999996
 30
0.0
  0
SEQEND
  5
4C3
  8
001
  0
POLYLINE
  5
4C9
  8
001
 66
     1
 10
0.0
 20
0.0
 30
0.0
  0
VERTEX
  5
4CB
  8
001
 10
106.26276
 20
82.826206999999997
 30
0.0
  0
VERTEX
  5
4CC
  8
001
 10
106.312641
 20
82.796641000000008
 30
0.0
  0
VERTEX
  5
4CD
  8
001
 10
106.38634399999999
 20
82.754840000000002
 30
0.0
  0
VERTEX
  5
4CE
  8
001
 10
106.45987
 20
82.715705000000014
 30
0.0
  0
VERTEX
  5
4CF
  8
001
 10
106.510695
 20
82.689902000000004
 30
0.0
  0
SEQEND
  5
4CA
  8
001
  0
POLYLINE
  5
4D0
  8
001
 66
     1
 10
0.0
 20
0.0
 30
0.0
  0
VERTEX
  5
4D2
  8
001
 10
106.899584
 20
82.725493999999998
 30
0.0
  0
VERTEX
  5
4D3
  8
001
 10
106.88074
 20
82.723861999999997
 30
0.0
  0
VERTEX
  5
4D4
  8
001
 10
106.861897
 20
82.722221999999988
 30
0.0
  0
VERTEX
  5
4D5
  8
001
 10
106.686269
 20
82.706368999999995
 30
0.0
  0
VERTEX
  5
4D6
  8
001
 10
106.510695
 20
82.689902000000004
 30
0.0
  0
SEQEND
  5
4D1
  8
001
  0
LINE
  5
4D7
  8
001
 10
103.107506
 20
91.499765999999994
 30
0.0
 11
103.049722
 21
91.594104000000002
 31
0.0
  0
POLYLINE
  5
4D8
  8
001
 66
     1
 10
0.0
 20
0.0
 30
0.0
  0
VERTEX
  5
4DA
  8
001
 10
103.049722
 20
91.594104000000002
 30
0.0
  0
VERTEX
  5
4DB
  8
001
 10
102.969649
 20
91.701125000000005
 30
0.0
  0
VERTEX
  5
4DC
  8
001
 10
102.884522
 20
91.803849999999997
 30
0.0
  0
VERTEX
  5
4DD
  8
001
 10
102.788555
 20
91.900550999999993
 30
0.0
  0
VERTEX
  5
4DE
  8
001
 10
102.684507
 20
91.988636000000014
 30
0.0
  0
VERTEX
  5
4DF
  8
001
 10
102.678338
 20
91.993442000000002
 30
0.0
  0
VERTEX
  5
4E0
  8
001
 10
102.67216000000001
 20
91.998234999999994
 30
0.0
  0
SEQEND
  5
4D9
  8
001
  0
POLYLINE
  5
4E1
  8
001
 66
     1
 10
0.0
 20
0.0
 30
0.0
  0
VERTEX
  5
4E3
  8
001
 10
102.67216000000001
 20
91.998234999999994
 30
0.0
  0
VERTEX
  5
4E4
  8
001
 10
102.572716
 20
92.066938000000007
 30
0.0
  0
VERTEX
  5
4E5
  8
001
 10
102.470168
 20
92.130049999999997
 30
0.0
  0
VERTEX
  5
4E6
  8
001
 10
102.36038499999999
 20
92.184759999999997
 30
0.0
  0
VERTEX
  5
4E7
  8
001
 10
102.247382
 20
92.233667999999994
 30
0.0
  0
SEQEND
  5
4E2
  8
001
  0
POLYLINE
  5
4E8
  8
001
 66
     1
 10
0.0
 20
0.0
 30
0.0
  0
VERTEX
  5
4EA
  8
001
 10
102.247382
 20
92.233667999999994
 30
0.0
  0
VERTEX
  5
4EB
  8
001
 10
102.238697
 20
92.236879999999999
 30
0.0
  0
VERTEX
  5
4EC
  8
001
 10
102.23000399999999
 20
92.240071999999998
 30
0.0
  0
VERTEX
  5
4ED
  8
001
 10
102.122297
 20
92.275538999999995
 30
0.0
  0
VERTEX
  5
4EE
  8
001
 10
102.012399
 20
92.303260999999992
 30
0.0
  0
VERTEX
  5
4EF
  8
001
 10
101.898929
 20
92.323012000000006
 30
0.0
  0
VERTEX
  5
4F0
  8
001
 10
101.78456799999999
 20
92.337974999999986
 30
0.0
  0
SEQEND
  5
4E9
  8
001
  0
POLYLINE
  5
4F1
  8
001
 66
     1
 10
0.0
 20
0.0
 30
0.0
  0
VERTEX
  5
4F3
  8
001
 10
101.282905
 20
92.309157999999996
 30
0.0
  0
VERTEX
  5
4F4
  8
001
 10
101.189564
 20
92.286958999999996
 30
0.0
  0
VERTEX
  5
4F5
  8
001
 10
101.09702299999999
 20
92.261825000000002
 30
0.0
  0
VERTEX
  5
4F6
  8
001
 10
101.00498899999999
 20
92.230943999999994
 30
0.0
  0
VERTEX
  5
4F7
  8
001
 10
100.915149
 20
92.194184000000007
 30
0.0
  0
VERTEX
  5
4F8
  8
001
 10
100.821686
 20
92.148997999999992
 30
0.0
  0
VERTEX
  5
4F9
  8
001
 10
100.729799
 20
92.100519999999989
 30
0.0
  0
SEQEND
  5
4F2
  8
001
  0
POLYLINE
  5
4FA
  8
001
 66
     1
 10
0.0
 20
0.0
 30
0.0
  0
VERTEX
  5
4FC
  8
001
 10
100.729799
 20
92.100519999999989
 30
0.0
  0
VERTEX
  5
4FD
  8
001
 10
100.722616
 20
92.096361000000002
 30
0.0
  0
VERTEX
  5
4FE
  8
001
 10
100.71544400000001
 20
92.092184000000003
 30
0.0
  0
VERTEX
  5
4FF
  8
001
 10
100.587458
 20
92.009544999999989
 30
0.0
  0
VERTEX
  5
500
  8
001
 10
100.466786
 20
91.916212000000002
 30
0.0
  0
VERTEX
  5
501
  8
001
 10
100.350762
 20
91.809592000000009
 30
0.0
  0
VERTEX
  5
502
  8
001
 10
100.245676
 20
91.692564000000004
 30
0.0
  0
VERTEX
  5
503
  8
001
 10
100.19022099999999
 20
91.620035000000001
 30
0.0
  0
VERTEX
  5
504
  8
001
 10
100.13704799999999
 20
91.545715000000015
 30
0.0
  0
SEQEND
  5
4FB
  8
001
  0
POLYLINE
  5
505
  8
001
 66
     1
 10
0.0
 20
0.0
 30
0.0
  0
VERTEX
  5
507
  8
001
 10
96.518682999999996
 20
85.686509999999998
 30
0.0
  0
VERTEX
  5
508
  8
001
 10
96.534366000000006
 20
85.654317000000006
 30
0.0
  0
VERTEX
  5
509
  8
001
 10
96.56805300000002
 20
85.617700999999997
 30
0.0
  0
VERTEX
  5
50A
  8
001
 10
96.62085900000001
 20
85.597906999999978
 30
0.0
  0
VERTEX
  5
50B
  8
001
 10
96.661793000000003
 20
85.594720999999979
 30
0.0
  0
SEQEND
  5
506
  8
001
  0
POLYLINE
  5
50C
  8
001
 66
     1
 10
0.0
 20
0.0
 30
0.0
  0
VERTEX
  5
50E
  8
001
 10
96.518682999999996
 20
85.686509999999998
 30
0.0
  0
VERTEX
  5
50F
  8
001
 10
96.567903000000001
 20
85.734739000000005
 30
0.0
  0
VERTEX
  5
510
  8
001
 10
96.639756000000006
 20
85.805312000000015
 30
0.0
  0
VERTEX
  5
511
  8
001
 10
96.712023000000002
 20
85.876521999999994
 30
0.0
  0
VERTEX
  5
512
  8
001
 10
96.761411999999993
 20
85.925302999999985
 30
0.0
  0
SEQEND
  5
50D
  8
001
  0
POLYLINE
  5
513
  8
001
 66
     1
 10
0.0
 20
0.0
 30
0.0
  0
VERTEX
  5
515
  8
001
 10
96.761411999999993
 20
85.925302999999985
 30
0.0
  0
VERTEX
  5
516
  8
001
 10
96.866668000000004
 20
86.028175999999988
 30
0.0
  0
VERTEX
  5
517
  8
001
 10
97.020122000000001
 20
86.178916999999984
 30
0.0
  0
VERTEX
  5
518
  8
001
 10
97.175502000000009
 20
86.332622999999998
 30
0.0
  0
VERTEX
  5
519
  8
001
 10
97.281552000000005
 20
86.438055000000006
 30
0.0
  0
SEQEND
  5
514
  8
001
  0
POLYLINE
  5
51A
  8
001
 66
     1
 10
0.0
 20
0.0
 30
0.0
  0
VERTEX
  5
51C
  8
001
 10
97.281552000000005
 20
86.438055000000006
 30
0.0
  0
VERTEX
  5
51D
  8
001
 10
97.354084999999998
 20
86.509465000000006
 30
0.0
  0
VERTEX
  5
51E
  8
001
 10
97.459915000000024
 20
86.614017000000004
 30
0.0
  0
VERTEX
  5
51F
  8
001
 10
97.566630000000004
 20
86.719949999999997
 30
0.0
  0
VERTEX
  5
520
  8
001
 10
97.639521999999999
 20
86.792555000000007
 30
0.0
  0
SEQEND
  5
51B
  8
001
  0
POLYLINE
  5
521
  8
001
 66
     1
 10
0.0
 20
0.0
 30
0.0
  0
VERTEX
  5
523
  8
001
 10
98.265337999999986
 20
88.815337999999997
 30
0.0
  0
VERTEX
  5
524
  8
001
 10
98.157123999999996
 20
88.694469999999995
 30
0.0
  0
VERTEX
  5
525
  8
001
 10
98.056257000000002
 20
88.568281999999996
 30
0.0
  0
VERTEX
  5
526
  8
001
 10
97.965762999999995
 20
88.430052999999987
 30
0.0
  0
VERTEX
  5
527
  8
001
 10
97.882953000000015
 20
88.286259000000001
 30
0.0
  0
SEQEND
  5
522
  8
001
  0
POLYLINE
  5
528
  8
001
 66
     1
 10
0.0
 20
0.0
 30
0.0
  0
VERTEX
  5
52A
  8
001
 10
98.265337999999986
 20
88.815337999999997
 30
0.0
  0
VERTEX
  5
52B
  8
001
 10
98.297112999999996
 20
88.847697999999994
 30
0.0
  0
VERTEX
  5
52C
  8
001
 10
98.343519999999998
 20
88.895023999999992
 30
0.0
  0
VERTEX
  5
52D
  8
001
 10
98.390020000000007
 20
88.942536000000004
 30
0.0
  0
VERTEX
  5
52E
  8
001
 10
98.421814000000012
 20
88.975066999999996
 30
0.0
  0
SEQEND
  5
529
  8
001
  0
POLYLINE
  5
52F
  8
001
 66
     1
 10
0.0
 20
0.0
 30
0.0
  0
VERTEX
  5
531
  8
001
 10
101.634947
 20
92.344251000000014
 30
0.0
  0
VERTEX
  5
532
  8
001
 10
101.615661
 20
92.344119999999975
 30
0.0
  0
VERTEX
  5
533
  8
001
 10
101.596384
 20
92.343832999999989
 30
0.0
  0
VERTEX
  5
534
  8
001
 10
101.439328
 20
92.331717999999995
 30
0.0
  0
VERTEX
  5
535
  8
001
 10
101.282905
 20
92.309157999999996
 30
0.0
  0
SEQEND
  5
530
  8
001
  0
LINE
  5
536
  8
001
 10
100.13704799999999
 20
91.545715000000015
 30
0.0
 11
100.082742
 21
91.458056999999997
 31
0.0
  0
POLYLINE
  5
537
  8
001
 66
     1
 10
0.0
 20
0.0
 30
0.0
  0
VERTEX
  5
539
  8
001
 10
103.324523
 20
90.515656000000007
 30
0.0
  0
VERTEX
  5
53A
  8
001
 10
103.328514
 20
90.624832999999995
 30
0.0
  0
VERTEX
  5
53B
  8
001
 10
103.32812800000001
 20
90.733884000000003
 30
0.0
  0
VERTEX
  5
53C
  8
001
 10
103.31978599999999
 20
90.844114000000005
 30
0.0
  0
VERTEX
  5
53D
  8
001
 10
103.303894
 20
90.953749000000016
 30
0.0
  0
VERTEX
  5
53E
  8
001
 10
103.273472
 20
91.094438999999994
 30
0.0
  0
VERTEX
  5
53F
  8
001
 10
103.230581
 20
91.231459000000001
 30
0.0
  0
VERTEX
  5
540
  8
001
 10
103.17290800000001
 20
91.367135000000005
 30
0.0
  0
VERTEX
  5
541
  8
001
 10
103.107506
 20
91.499765999999994
 30
0.0
  0
SEQEND
  5
538
  8
001
  0
POLYLINE
  5
542
  8
001
 66
     1
 10
0.0
 20
0.0
 30
0.0
  0
VERTEX
  5
544
  8
001
 10
100.082742
 20
91.458056999999997
 30
0.0
  0
VERTEX
  5
545
  8
001
 10
100.02682799999999
 20
91.351434999999995
 30
0.0
  0
VERTEX
  5
546
  8
001
 10
99.975769
 20
91.242683
 30
0.0
  0
VERTEX
  5
547
  8
001
 10
99.932648
 20
91.128007999999994
 30
0.0
  0
VERTEX
  5
548
  8
001
 10
99.898161000000002
 20
91.010153000000003
 30
0.0
  0
VERTEX
  5
549
  8
001
 10
99.867990000000006
 20
90.871634999999998
 30
0.0
  0
VERTEX
  5
54A
  8
001
 10
99.849948999999995
 20
90.731381999999996
 30
0.0
  0
VERTEX
  5
54B
  8
001
 10
99.844989999999996
 20
90.586415000000002
 30
0.0
  0
VERTEX
  5
54C
  8
001
 10
99.847777000000022
 20
90.440978000000015
 30
0.0
  0
SEQEND
  5
543
  8
001
  0
POLYLINE
  5
54D
  8
001
 66
     1
 10
0.0
 20
0.0
 30
0.0
  0
VERTEX
  5
54F
  8
001
 10
98.951837999999995
 20
89.516492
 30
0.0
  0
VERTEX
  5
550
  8
001
 10
99.059751000000006
 20
89.626738000000003
 30
0.0
  0
VERTEX
  5
551
  8
001
 10
99.217089999999985
 20
89.788235999999998
 30
0.0
  0
VERTEX
  5
552
  8
001
 10
99.375399999999999
 20
89.951796000000002
 30
0.0
  0
VERTEX
  5
553
  8
001
 10
99.483456000000004
 20
90.063957999999985
 30
0.0
  0
SEQEND
  5
54E
  8
001
  0
POLYLINE
  5
554
  8
001
 66
     1
 10
0.0
 20
0.0
 30
0.0
  0
VERTEX
  5
556
  8
001
 10
99.483456000000004
 20
90.063957999999985
 30
0.0
  0
VERTEX
  5
557
  8
001
 10
99.557435999999996
 20
90.140100000000004
 30
0.0
  0
VERTEX
  5
558
  8
001
 10
99.665381000000011
 20
90.251556999999991
 30
0.0
  0
VERTEX
  5
559
  8
001
 10
99.773752000000002
 20
90.363955000000004
 30
0.0
  0
VERTEX
  5
55A
  8
001
 10
99.847777000000022
 20
90.440978000000015
 30
0.0
  0
SEQEND
  5
555
  8
001
  0
POLYLINE
  5
55B
  8
001
 66
     1
 10
0.0
 20
0.0
 30
0.0
  0
VERTEX
  5
55D
  8
001
 10
103.324523
 20
90.515656000000007
 30
0.0
  0
VERTEX
  5
55E
  8
001
 10
103.346512
 20
90.491703999999984
 30
0.0
  0
VERTEX
  5
55F
  8
001
 10
103.37867199999999
 20
90.456716999999983
 30
0.0
  0
VERTEX
  5
560
  8
001
 10
103.410802
 20
90.421823999999987
 30
0.0
  0
VERTEX
  5
561
  8
001
 10
103.432801
 20
90.397964000000002
 30
0.0
  0
SEQEND
  5
55C
  8
001
  0
POLYLINE
  5
562
  8
001
 66
     1
 10
0.0
 20
0.0
 30
0.0
  0
VERTEX
  5
564
  8
001
 10
103.432801
 20
90.397964000000002
 30
0.0
  0
VERTEX
  5
565
  8
001
 10
103.524288
 20
90.294762000000006
 30
0.0
  0
VERTEX
  5
566
  8
001
 10
103.658383
 20
90.144272000000001
 30
0.0
  0
VERTEX
  5
567
  8
001
 10
103.792075
 20
89.995308999999992
 30
0.0
  0
VERTEX
  5
568
  8
001
 10
103.88381
 20
89.893621999999993
 30
0.0
  0
SEQEND
  5
563
  8
001
  0
POLYLINE
  5
569
  8
001
 66
     1
 10
0.0
 20
0.0
 30
0.0
  0
VERTEX
  5
56B
  8
001
 10
103.88381
 20
89.893621999999993
 30
0.0
  0
VERTEX
  5
56C
  8
001
 10
103.975252
 20
89.788409999999999
 30
0.0
  0
VERTEX
  5
56D
  8
001
 10
104.109285
 20
89.634974999999997
 30
0.0
  0
VERTEX
  5
56E
  8
001
 10
104.242958
 20
89.483030000000014
 30
0.0
  0
VERTEX
  5
56F
  8
001
 10
104.334682
 20
89.379297999999991
 30
0.0
  0
SEQEND
  5
56A
  8
001
  0
LINE
  5
570
  8
001
 10
106.591258
 20
86.61461899999999
 30
0.0
 11
106.461309
 21
86.801870999999991
 31
0.0
  0
POLYLINE
  5
571
  8
001
 66
     1
 10
0.0
 20
0.0
 30
0.0
  0
VERTEX
  5
573
  8
001
 10
106.827843
 20
85.411434999999997
 30
0.0
  0
VERTEX
  5
574
  8
001
 10
106.760206
 20
84.861361000000016
 30
0.0
  0
VERTEX
  5
575
  8
001
 10
106.664355
 20
84.057048999999992
 30
0.0
  0
VERTEX
  5
576
  8
001
 10
106.571896
 20
83.245445000000004
 30
0.0
  0
VERTEX
  5
577
  8
001
 10
106.510695
 20
82.689902000000004
 30
0.0
  0
SEQEND
  5
572
  8
001
  0
POLYLINE
  5
578
  8
001
 66
     1
 10
0.0
 20
0.0
 30
0.0
  0
VERTEX
  5
57A
  8
001
 10
106.827843
 20
85.411434999999997
 30
0.0
  0
VERTEX
  5
57B
  8
001
 10
106.838945
 20
85.558843999999993
 30
0.0
  0
VERTEX
  5
57C
  8
001
 10
106.843029
 20
85.706259000000017
 30
0.0
  0
VERTEX
  5
57D
  8
001
 10
106.834462
 20
85.854953000000009
 30
0.0
  0
VERTEX
  5
57E
  8
001
 10
106.813778
 20
86.002842999999999
 30
0.0
  0
VERTEX
  5
57F
  8
001
 10
106.779196
 20
86.161539999999988
 30
0.0
  0
VERTEX
  5
580
  8
001
 10
106.73029699999999
 20
86.315922
 30
0.0
  0
VERTEX
  5
581
  8
001
 10
106.665145
 20
86.467004999999986
 30
0.0
  0
VERTEX
  5
582
  8
001
 10
106.591258
 20
86.61461899999999
 30
0.0
  0
SEQEND
  5
579
  8
001
  0
LINE
  5
583
  8
001
 10
106.26276
 20
82.826206999999997
 30
0.0
 11
106.26276
 21
85.411434999999997
 31
0.0
  0
POLYLINE
  5
584
  8
001
 66
     1
 10
0.0
 20
0.0
 30
0.0
  0
VERTEX
  5
586
  8
001
 10
103.28409600000001
 20
82.691406000000001
 30
0.0
  0
VERTEX
  5
587
  8
001
 10
103.371985
 20
82.694997000000001
 30
0.0
  0
VERTEX
  5
588
  8
001
 10
103.45993799999999
 20
82.69861800000001
 30
0.0
  0
VERTEX
  5
589
  8
001
 10
105.124227
 20
82.771803000000006
 30
0.0
  0
VERTEX
  5
58A
  8
001
 10
106.26276
 20
82.826206999999997
 30
0.0
  0
SEQEND
  5
585
  8
001
  0
POLYLINE
  5
58B
  8
001
 66
     1
 10
0.0
 20
0.0
 30
0.0
  0
VERTEX
  5
58D
  8
001
 10
100.62741800000001
 20
82.593378000000001
 30
0.0
  0
VERTEX
  5
58E
  8
001
 10
100.85647899999999
 20
82.601061999999999
 30
0.0
  0
VERTEX
  5
58F
  8
001
 10
101.152925
 20
82.611268999999979
 30
0.0
  0
SEQEND
  5
58C
  8
001
  0
POLYLINE
  5
590
  8
001
 66
     1
 10
0.0
 20
0.0
 30
0.0
  0
VERTEX
  5
592
  8
001
 10
96.661793000000003
 20
85.594720999999979
 30
0.0
  0
VERTEX
  5
593
  8
001
 10
96.732441000000009
 20
85.603509000000017
 30
0.0
  0
VERTEX
  5
594
  8
001
 10
96.833487000000005
 20
85.628268999999989
 30
0.0
  0
VERTEX
  5
595
  8
001
 10
96.840578000000008
 20
85.630471
 30
0.0
  0
VERTEX
  5
596
  8
001
 10
96.847643999999974
 20
85.632731000000007
 30
0.0
  0
SEQEND
  5
591
  8
001
  0
LINE
  5
597
  8
001
 10
97.639521999999999
 20
86.792555000000007
 30
0.0
 11
97.640478000000002
 21
86.791336999999984
 31
0.0
  0
LINE
  5
598
  8
001
 10
97.86405000000002
 20
87.377307000000002
 30
0.0
 11
97.858654999999985
 21
87.012416999999999
 31
0.0
  0
LINE
  5
599
  8
001
 10
98.565170999999992
 20
88.641649000000001
 30
0.0
 11
98.295383000000015
 21
88.368272000000005
 31
0.0
  0
POLYLINE
  5
59A
  8
001
 66
     1
 10
0.0
 20
0.0
 30
0.0
  0
VERTEX
  5
59C
  8
001
 10
99.847777000000022
 20
90.440978000000015
 30
0.0
  0
VERTEX
  5
59D
  8
001
 10
99.842231000000012
 20
90.427441000000002
 30
0.0
  0
VERTEX
  5
59E
  8
001
 10
99.835792000000012
 20
90.411521999999991
 30
0.0
  0
SEQEND
  5
59B
  8
001
  0
POLYLINE
  5
59F
  8
001
 66
     1
 10
0.0
 20
0.0
 30
0.0
  0
VERTEX
  5
5A1
  8
001
 10
98.421814000000012
 20
88.975066999999996
 30
0.0
  0
VERTEX
  5
5A2
  8
001
 10
98.483109000000013
 20
89.037124000000006
 30
0.0
  0
VERTEX
  5
5A3
  8
001
 10
98.572355999999999
 20
89.127729000000002
 30
0.0
  0
SEQEND
  5
5A0
  8
001
  0
POLYLINE
  5
5A4
  8
001
 66
     1
 10
0.0
 20
0.0
 30
0.0
  0
VERTEX
  5
5A6
  8
001
 10
106.26276
 20
85.411434999999997
 30
0.0
  0
VERTEX
  5
5A7
  8
001
 10
106.255894
 20
85.534672999999984
 30
0.0
  0
VERTEX
  5
5A8
  8
001
 10
106.234452
 20
85.703684999999979
 30
0.0
  0
VERTEX
  5
5A9
  8
001
 10
106.198179
 20
85.853646999999995
 30
0.0
  0
VERTEX
  5
5AA
  8
001
 10
106.15061
 20
85.984735000000001
 30
0.0
  0
VERTEX
  5
5AB
  8
001
 10
106.093197
 20
86.111498999999995
 30
0.0
  0
VERTEX
  5
5AC
  8
001
 10
106.01445
 20
86.243810999999994
 30
0.0
  0
VERTEX
  5
5AD
  8
001
 10
105.912102
 20
86.378754999999984
 30
0.0
  0
VERTEX
  5
5AE
  8
001
 10
105.8311879999999
 20
86.470984000000001
 30
0.0
  0
VERTEX
  5
5AF
  8
001
 10
105.80842199999999
 20
86.494150000000005
 30
0.0
  0
VERTEX
  5
5B0
  8
001
 10
105.78565500000001
 20
86.517317000000006
 30
0.0
  0
SEQEND
  5
5A5
  8
001
  0
LINE
  5
5B1
  8
001
 10
105.8311879999999
 20
86.470984000000001
 30
0.0
 11
105.78565500000001
 21
86.517317000000006
 31
0.0
  0
POLYLINE
  5
5B2
  8
001
 66
     1
 10
0.0
 20
0.0
 30
0.0
  0
VERTEX
  5
5B4
  8
001
 10
106.257606
 20
87.060093999999992
 30
0.0
  0
VERTEX
  5
5B5
  8
001
 10
106.278897
 20
87.032985999999994
 30
0.0
  0
VERTEX
  5
5B6
  8
001
 10
106.300504
 20
87.005506000000011
 30
0.0
  0
VERTEX
  5
5B7
  8
001
 10
106.39590099999999
 20
86.884534999999985
 30
0.0
  0
VERTEX
  5
5B8
  8
001
 10
106.461309
 20
86.801870999999991
 30
0.0
  0
SEQEND
  5
5B3
  8
001
  0
POLYLINE
  5
5B9
  8
001
 66
     1
 10
0.0
 20
0.0
 30
0.0
  0
VERTEX
  5
5BB
  8
001
 10
104.334682
 20
89.379297999999991
 30
0.0
  0
VERTEX
  5
5BC
  8
001
 10
104.426108
 20
89.271966000000006
 30
0.0
  0
VERTEX
  5
5BD
  8
001
 10
104.560118
 20
89.115426999999997
 30
0.0
  0
VERTEX
  5
5BE
  8
001
 10
104.66624899999999
 20
88.992237999999986
 30
0.0
  0
VERTEX
  5
5BF
  8
001
 10
104.75272099999999
 20
88.89229499999999
 30
0.0
  0
SEQEND
  5
5BA
  8
001
  0
POLYLINE
  5
5C0
  8
001
 66
     1
 10
0.0
 20
0.0
 30
0.0
  0
VERTEX
  5
5C2
  8
001
 10
102.648439
 20
89.738326999999998
 30
0.0
  0
VERTEX
  5
5C3
  8
001
 10
102.82173299999999
 20
89.885334999999998
 30
0.0
  0
VERTEX
  5
5C4
  8
001
 10
103.04019599999999
 20
90.107100000000017
 30
0.0
  0
VERTEX
  5
5C5
  8
001
 10
103.21867
 20
90.342556999999999
 30
0.0
  0
VERTEX
  5
5C6
  8
001
 10
103.324523
 20
90.515656000000007
 30
0.0
  0
SEQEND
  5
5C1
  8
001
  0
POLYLINE
  5
5C7
  8
001
 66
     1
 10
0.0
 20
0.0
 30
0.0
  0
VERTEX
  5
5C9
  8
001
 10
102.64296899999999
 20
89.745189999999994
 30
0.0
  0
VERTEX
  5
5CA
  8
001
 10
102.698882
 20
89.861126999999996
 30
0.0
  0
VERTEX
  5
5CB
  8
001
 10
102.760007
 20
90.007718999999994
 30
0.0
  0
VERTEX
  5
5CC
  8
001
 10
102.808059
 20
90.161965000000009
 30
0.0
  0
VERTEX
  5
5CD
  8
001
 10
102.836483
 20
90.308051000000006
 30
0.0
  0
VERTEX
  5
5CE
  8
001
 10
102.85390099999999
 20
90.460665000000006
 30
0.0
  0
VERTEX
  5
5CF
  8
001
 10
102.859537
 20
90.617374999999996
 30
0.0
  0
VERTEX
  5
5D0
  8
001
 10
102.85097
 20
90.772767000000002
 30
0.0
  0
VERTEX
  5
5D1
  8
001
 10
102.828442
 20
90.925972000000002
 30
0.0
  0
VERTEX
  5
5D2
  8
001
 10
102.792768
 20
91.076796000000002
 30
0.0
  0
VERTEX
  5
5D3
  8
001
 10
102.744176
 20
91.224147000000002
 30
0.0
  0
VERTEX
  5
5D4
  8
001
 10
102.68295000000001
 20
91.366325000000003
 30
0.0
  0
VERTEX
  5
5D5
  8
001
 10
102.609386
 20
91.502527999999998
 30
0.0
  0
VERTEX
  5
5D6
  8
001
 10
102.524235
 20
91.631457999999995
 30
0.0
  0
VERTEX
  5
5D7
  8
001
 10
102.428309
 20
91.752369999999999
 30
0.0
  0
VERTEX
  5
5D8
  8
001
 10
102.32267899999999
 20
91.863954000000007
 30
0.0
  0
VERTEX
  5
5D9
  8
001
 10
102.20663399999999
 20
91.965821999999989
 30
0.0
  0
VERTEX
  5
5DA
  8
001
 10
102.08104299999999
 20
92.056940999999995
 30
0.0
  0
VERTEX
  5
5DB
  8
001
 10
101.95132599999999
 20
92.136176000000006
 30
0.0
  0
VERTEX
  5
5DC
  8
001
 10
101.820063
 20
92.202518000000012
 30
0.0
  0
VERTEX
  5
5DD
  8
001
 10
101.670407
 20
92.258081000000004
 30
0.0
  0
VERTEX
  5
5DE
  8
001
 10
101.514639
 20
92.299406999999974
 30
0.0
  0
VERTEX
  5
5DF
  8
001
 10
101.389218
 20
92.325132999999994
 30
0.0
  0
SEQEND
  5
5C8
  8
001
  0
POLYLINE
  5
5E0
  8
001
 66
     1
 10
0.0
 20
0.0
 30
0.0
  0
VERTEX
  5
5E2
  8
001
 10
119.61945299999999
 20
82.520285999999999
 30
0.0
  0
VERTEX
  5
5E3
  8
001
 10
119.58702099999999
 20
82.528867000000005
 30
0.0
  0
VERTEX
  5
5E4
  8
001
 10
119.554607
 20
82.537509999999983
 30
0.0
  0
VERTEX
  5
5E5
  8
001
 10
119.426496
 20
82.572110999999992
 30
0.0
  0
VERTEX
  5
5E6
  8
001
 10
119.29850399999999
 20
82.607116000000005
 30
0.0
  0
VERTEX
  5
5E7
  8
001
 10
119.154394
 20
82.646660999999995
 30
0.0
  0
VERTEX
  5
5E8
  8
001
 10
119.010248
 20
82.686086999999986
 30
0.0
  0
VERTEX
  5
5E9
  8
001
 10
118.85174600000001
 20
82.729032000000004
 30
0.0
  0
VERTEX
  5
5EA
  8
001
 10
118.693088
 20
82.771392999999989
 30
0.0
  0
VERTEX
  5
5EB
  8
001
 10
118.521817
 20
82.816220000000001
 30
0.0
  0
VERTEX
  5
5EC
  8
001
 10
118.350275
 20
82.860000999999997
 30
0.0
  0
VERTEX
  5
5ED
  8
001
 10
118.098923
 20
82.921848999999995
 30
0.0
  0
VERTEX
  5
5EE
  8
001
 10
117.846912
 20
82.980960999999994
 30
0.0
  0
VERTEX
  5
5EF
  8
001
 10
117.57595000000001
 20
83.041143999999989
 30
0.0
  0
VERTEX
  5
5F0
  8
001
 10
117.304237
 20
83.097843000000026
 30
0.0
  0
VERTEX
  5
5F1
  8
001
 10
117.018137
 20
83.153418999999985
 30
0.0
  0
VERTEX
  5
5F2
  8
001
 10
116.73123200000001
 20
83.204663999999994
 30
0.0
  0
VERTEX
  5
5F3
  8
001
 10
116.48161899999999
 20
83.245427000000007
 30
0.0
  0
VERTEX
  5
5F4
  8
001
 10
116.231464
 20
83.282724999999999
 30
0.0
  0
VERTEX
  5
5F5
  8
001
 10
115.973738
 20
83.317475999999985
 30
0.0
  0
VERTEX
  5
5F6
  8
001
 10
115.71554500000001
 20
83.348566000000005
 30
0.0
  0
VERTEX
  5
5F7
  8
001
 10
115.45209
 20
83.376442999999995
 30
0.0
  0
VERTEX
  5
5F8
  8
001
 10
115.18825200000001
 20
83.400419000000014
 30
0.0
  0
VERTEX
  5
5F9
  8
001
 10
114.921451
 20
83.420579999999987
 30
0.0
  0
VERTEX
  5
5FA
  8
001
 10
114.654365
 20
83.436516999999995
 30
0.0
  0
VERTEX
  5
5FB
  8
001
 10
114.36094300000001
 20
83.449010000000001
 30
0.0
  0
VERTEX
  5
5FC
  8
001
 10
114.06734400000001
 20
83.456355000000002
 30
0.0
  0
VERTEX
  5
5FD
  8
001
 10
113.771868
 20
83.458678000000006
 30
0.0
  0
VERTEX
  5
5FE
  8
001
 10
113.476395
 20
83.456000000000003
 30
0.0
  0
VERTEX
  5
5FF
  8
001
 10
113.181816
 20
83.448403999999996
 30
0.0
  0
VERTEX
  5
600
  8
001
 10
112.887405
 20
83.435882999999976
 30
0.0
  0
VERTEX
  5
601
  8
001
 10
112.596665
 20
83.418630000000007
 30
0.0
  0
VERTEX
  5
602
  8
001
 10
112.30626599999999
 20
83.396439000000001
 30
0.0
  0
VERTEX
  5
603
  8
001
 10
112.052882
 20
83.372992000000025
 30
0.0
  0
VERTEX
  5
604
  8
001
 10
111.79984399999999
 20
83.346011000000004
 30
0.0
  0
VERTEX
  5
605
  8
001
 10
111.551193
 20
83.316192000000001
 30
0.0
  0
VERTEX
  5
606
  8
001
 10
111.30300800000001
 20
83.282809999999998
 30
0.0
  0
VERTEX
  5
607
  8
001
 10
111.06115699999999
 20
83.246735000000015
 30
0.0
  0
VERTEX
  5
608
  8
001
 10
110.81958400000001
 20
83.208748
 30
0.0
  0
SEQEND
  5
5E1
  8
001
  0
POLYLINE
  5
609
  8
001
 66
     1
 10
0.0
 20
0.0
 30
0.0
  0
VERTEX
  5
60B
  8
001
 10
102.67216000000001
 20
91.998234999999994
 30
0.0
  0
VERTEX
  5
60C
  8
001
 10
102.572716
 20
92.066938000000007
 30
0.0
  0
VERTEX
  5
60D
  8
001
 10
102.470168
 20
92.130049999999997
 30
0.0
  0
VERTEX
  5
60E
  8
001
 10
102.36038499999999
 20
92.184759999999997
 30
0.0
  0
VERTEX
  5
60F
  8
001
 10
102.247382
 20
92.233667999999994
 30
0.0
  0
SEQEND
  5
60A
  8
001
  0
POLYLINE
  5
610
  8
001
 66
     1
 10
0.0
 20
0.0
 30
0.0
  0
VERTEX
  5
612
  8
001
 10
102.247382
 20
92.233667999999994
 30
0.0
  0
VERTEX
  5
613
  8
001
 10
102.238697
 20
92.236879999999999
 30
0.0
  0
VERTEX
  5
614
  8
001
 10
102.23000399999999
 20
92.240071999999998
 30
0.0
  0
VERTEX
  5
615
  8
001
 10
102.122297
 20
92.275538999999995
 30
0.0
  0
VERTEX
  5
616
  8
001
 10
102.012399
 20
92.303260999999992
 30
0.0
  0
VERTEX
  5
617
  8
001
 10
101.898929
 20
92.323012000000006
 30
0.0
  0
VERTEX
  5
618
  8
001
 10
101.78456799999999
 20
92.337974999999986
 30
0.0
  0
SEQEND
  5
611
  8
001
  0
LINE
  5
619
  8
001
 10
101.78456799999999
 20
92.337974999999986
 30
0.0
 11
101.634947
 21
92.344251000000014
 31
0.0
  0
POLYLINE
  5
61A
  8
001
 66
     1
 10
0.0
 20
0.0
 30
0.0
  0
VERTEX
  5
61C
  8
001
 10
101.282905
 20
92.309157999999996
 30
0.0
  0
VERTEX
  5
61D
  8
001
 10
101.189564
 20
92.286958999999996
 30
0.0
  0
VERTEX
  5
61E
  8
001
 10
101.09702299999999
 20
92.261825000000002
 30
0.0
  0
VERTEX
  5
61F
  8
001
 10
101.00498899999999
 20
92.230943999999994
 30
0.0
  0
VERTEX
  5
620
  8
001
 10
100.915149
 20
92.194184000000007
 30
0.0
  0
VERTEX
  5
621
  8
001
 10
100.821686
 20
92.148997999999992
 30
0.0
  0
VERTEX
  5
622
  8
001
 10
100.729799
 20
92.100519999999989
 30
0.0
  0
SEQEND
  5
61B
  8
001
  0
POLYLINE
  5
623
  8
001
 66
     1
 10
0.0
 20
0.0
 30
0.0
  0
VERTEX
  5
625
  8
001
 10
101.634947
 20
92.344251000000014
 30
0.0
  0
VERTEX
  5
626
  8
001
 10
101.615661
 20
92.344119999999975
 30
0.0
  0
VERTEX
  5
627
  8
001
 10
101.596384
 20
92.343832999999989
 30
0.0
  0
VERTEX
  5
628
  8
001
 10
101.439328
 20
92.331717999999995
 30
0.0
  0
VERTEX
  5
629
  8
001
 10
101.282905
 20
92.309157999999996
 30
0.0
  0
SEQEND
  5
624
  8
001
  0
POLYLINE
  5
62A
  8
001
 66
     1
 10
0.0
 20
0.0
 30
0.0
  0
VERTEX
  5
62C
  8
001
 10
102.64296899999999
 20
89.745189999999994
 30
0.0
  0
VERTEX
  5
62D
  8
001
 10
102.698882
 20
89.861126999999996
 30
0.0
  0
VERTEX
  5
62E
  8
001
 10
102.760007
 20
90.007718999999994
 30
0.0
  0
VERTEX
  5
62F
  8
001
 10
102.808059
 20
90.161965000000009
 30
0.0
  0
VERTEX
  5
630
  8
001
 10
102.836483
 20
90.308051000000006
 30
0.0
  0
VERTEX
  5
631
  8
001
 10
102.85390099999999
 20
90.460665000000006
 30
0.0
  0
VERTEX
  5
632
  8
001
 10
102.859537
 20
90.617374999999996
 30
0.0
  0
VERTEX
  5
633
  8
001
 10
102.85097
 20
90.772767000000002
 30
0.0
  0
VERTEX
  5
634
  8
001
 10
102.828442
 20
90.925972000000002
 30
0.0
  0
VERTEX
  5
635
  8
001
 10
102.792768
 20
91.076796000000002
 30
0.0
  0
VERTEX
  5
636
  8
001
 10
102.744176
 20
91.224147000000002
 30
0.0
  0
VERTEX
  5
637
  8
001
 10
102.68295000000001
 20
91.366325000000003
 30
0.0
  0
VERTEX
  5
638
  8
001
 10
102.609386
 20
91.502527999999998
 30
0.0
  0
VERTEX
  5
639
  8
001
 10
102.524235
 20
91.631457999999995
 30
0.0
  0
VERTEX
  5
63A
  8
001
 10
102.428309
 20
91.752369999999999
 30
0.0
  0
VERTEX
  5
63B
  8
001
 10
102.32267899999999
 20
91.863954000000007
 30
0.0
  0
VERTEX
  5
63C
  8
001
 10
102.20663399999999
 20
91.965821999999989
 30
0.0
  0
VERTEX
  5
63D
  8
001
 10
102.08104299999999
 20
92.056940999999995
 30
0.0
  0
VERTEX
  5
63E
  8
001
 10
101.95132599999999
 20
92.136176000000006
 30
0.0
  0
VERTEX
  5
63F
  8
001
 10
101.820063
 20
92.202518000000012
 30
0.0
  0
VERTEX
  5
640
  8
001
 10
101.670407
 20
92.258081000000004
 30
0.0
  0
VERTEX
  5
641
  8
001
 10
101.514639
 20
92.299406999999974
 30
0.0
  0
VERTEX
  5
642
  8
001
 10
101.389218
 20
92.325132999999994
 30
0.0
  0
SEQEND
  5
62B
  8
001
  0
LINE
  5
643
  8
001
  6
PHANTOM
 10
97.440645000000004
 20
84.999313999999984
 30
0.0
 11
87.640644999999992
 21
84.999313999999984
 31
0.0
  0
LINE
  5
644
  8
001
  6
PHANTOM
 10
98.440644999999989
 20
83.999313999999984
 30
0.0
 11
98.440644999999989
 21
78.749313999999998
 31
0.0
  0
LINE
  5
645
  8
001
  6
PHANTOM
 10
87.640644999999992
 20
87.749313999999984
 30
0.0
 11
87.640644999999992
 21
84.999313999999984
 31
0.0
  0
LINE
  5
646
  8
001
  6
PHANTOM
 10
87.640644999999992
 20
87.749313999999984
 30
0.0
 11
87.140644999999992
 21
88.249313999999998
 31
0.0
  0
LINE
  5
647
  8
001
  6
PHANTOM
 10
98.440644999999989
 20
83.999313999999984
 30
0.0
 11
97.440645000000004
 21
84.999313999999984
 31
0.0
  0
LINE
  5
648
  8
001
  6
PHANTOM
 10
97.440645000000004
 20
102.499314
 30
0.0
 11
87.640644999999992
 21
102.499314
 31
0.0
  0
LINE
  5
649
  8
001
  6
PHANTOM
 10
98.440644999999989
 20
103.499314
 30
0.0
 11
98.440644999999989
 21
108.749314
 31
0.0
  0
LINE
  5
64A
  8
001
  6
PHANTOM
 10
87.640644999999992
 20
99.749313999999998
 30
0.0
 11
87.640644999999992
 21
102.499314
 31
0.0
  0
LINE
  5
64B
  8
001
  6
PHANTOM
 10
87.640644999999992
 20
99.749313999999998
 30
0.0
 11
87.140644999999992
 21
99.249313999999998
 31
0.0
  0
LINE
  5
64C
  8
001
  6
PHANTOM
 10
98.940644999999975
 20
103.999314
 30
0.0
 11
97.440645000000004
 21
102.499314
 31
0.0
  0
LINE
  5
64D
  8
001
 10
86.740645000000001
 20
88.649314000000004
 30
0.0
 11
87.640644999999992
 21
87.749313999999984
 31
0.0
  0
POLYLINE
  5
64E
  8
001
 66
     1
 10
0.0
 20
0.0
 30
0.0
  0
VERTEX
  5
650
  8
001
 10
87.64064599999999
 20
85.396043999999989
 30
0.0
  0
VERTEX
  5
651
  8
001
 10
87.642156999999983
 20
85.366923
 30
0.0
  0
VERTEX
  5
652
  8
001
 10
87.646585000000016
 20
85.327376000000001
 30
0.0
  0
VERTEX
  5
653
  8
001
 10
87.653964000000002
 20
85.292104000000009
 30
0.0
  0
VERTEX
  5
654
  8
001
 10
87.664223000000007
 20
85.260531999999984
 30
0.0
  0
VERTEX
  5
655
  8
001
 10
87.677271000000005
 20
85.228943999999998
 30
0.0
  0
VERTEX
  5
656
  8
001
 10
87.693025000000006
 20
85.197814000000008
 30
0.0
  0
VERTEX
  5
657
  8
001
 10
87.711331999999985
 20
85.168518000000006
 30
0.0
  0
VERTEX
  5
658
  8
001
 10
87.732113999999996
 20
85.141126999999997
 30
0.0
  0
VERTEX
  5
659
  8
001
 10
87.755169999999978
 20
85.115638000000004
 30
0.0
  0
VERTEX
  5
65A
  8
001
 10
87.780304000000001
 20
85.092194999999975
 30
0.0
  0
VERTEX
  5
65B
  8
001
 10
87.807241000000005
 20
85.071117000000015
 30
0.0
  0
VERTEX
  5
65C
  8
001
 10
87.836129999999997
 20
85.052502000000004
 30
0.0
  0
VERTEX
  5
65D
  8
001
 10
87.86675799999999
 20
85.036519999999996
 30
0.0
  0
VERTEX
  5
65E
  8
001
 10
87.897894999999991
 20
85.023256000000003
 30
0.0
  0
VERTEX
  5
65F
  8
001
 10
87.928960000000004
 20
85.012844999999999
 30
0.0
  0
VERTEX
  5
660
  8
001
 10
87.963722999999987
 20
85.005344999999977
 30
0.0
  0
VERTEX
  5
661
  8
001
 10
88.002950999999996
 20
85.000826000000004
 30
0.0
  0
VERTEX
  5
662
  8
001
 10
88.031614000000005
 20
84.999313999999984
 30
0.0
  0
SEQEND
  5
64F
  8
001
  0
LINE
  5
663
  8
001
 10
98.940644999999975
 20
83.499313999999998
 30
0.0
 11
96.929705000000013
 21
85.510254000000003
 31
0.0
  0
POLYLINE
  5
664
  8
001
 66
     1
 10
0.0
 20
0.0
 30
0.0
  0
VERTEX
  5
666
  8
001
 10
94.176376000000005
 20
85.788793999999996
 30
0.0
  0
VERTEX
  5
667
  8
001
 10
94.445833999999991
 20
85.804785999999993
 30
0.0
  0
VERTEX
  5
668
  8
001
 10
94.715559999999996
 20
85.817805000000007
 30
0.0
  0
VERTEX
  5
669
  8
001
 10
95.017225999999994
 20
85.824782999999996
 30
0.0
  0
VERTEX
  5
66A
  8
001
 10
95.318613999999997
 20
85.817805000000007
 30
0.0
  0
VERTEX
  5
66B
  8
001
 10
95.630913000000007
 20
85.791888
 30
0.0
  0
VERTEX
  5
66C
  8
001
 10
95.942464000000015
 20
85.755420000000001
 30
0.0
  0
VERTEX
  5
66D
  8
001
 10
96.23061100000001
 20
85.720740000000006
 30
0.0
  0
VERTEX
  5
66E
  8
001
 10
96.518682999999996
 20
85.686509999999998
 30
0.0
  0
SEQEND
  5
665
  8
001
  0
POLYLINE
  5
66F
  8
001
 66
     1
 10
0.0
 20
0.0
 30
0.0
  0
VERTEX
  5
671
  8
001
 10
98.295383000000015
 20
88.368272000000005
 30
0.0
  0
VERTEX
  5
672
  8
001
 10
98.215531999999996
 20
88.277807999999993
 30
0.0
  0
VERTEX
  5
673
  8
001
 10
98.114315000000005
 20
88.145507999999992
 30
0.0
  0
VERTEX
  5
674
  8
001
 10
98.036083000000005
 20
88.015842000000006
 30
0.0
  0
VERTEX
  5
675
  8
001
 10
97.978651999999997
 20
87.891633999999996
 30
0.0
  0
VERTEX
  5
676
  8
001
 10
97.930704000000006
 20
87.763159999999985
 30
0.0
  0
VERTEX
  5
677
  8
001
 10
97.893423000000013
 20
87.616063999999994
 30
0.0
  0
VERTEX
  5
678
  8
001
 10
97.874502000000021
 20
87.489373999999998
 30
0.0
  0
VERTEX
  5
679
  8
001
 10
97.86405000000002
 20
87.377307000000002
 30
0.0
  0
SEQEND
  5
670
  8
001
  0
POLYLINE
  5
67A
  8
001
 66
     1
 10
0.0
 20
0.0
 30
0.0
  0
VERTEX
  5
67C
  8
001
 10
97.882953000000015
 20
88.286259000000001
 30
0.0
  0
VERTEX
  5
67D
  8
001
 10
97.809049000000016
 20
88.117331000000007
 30
0.0
  0
VERTEX
  5
67E
  8
001
 10
97.744204000000025
 20
87.945076000000014
 30
0.0
  0
VERTEX
  5
67F
  8
001
 10
97.703061000000005
 20
87.798349999999999
 30
0.0
  0
VERTEX
  5
680
  8
001
 10
97.674505000000025
 20
87.648635999999996
 30
0.0
  0
VERTEX
  5
681
  8
001
 10
97.659073000000006
 20
87.513930000000002
 30
0.0
  0
VERTEX
  5
682
  8
001
 10
97.649366000000001
 20
87.378584000000004
 30
0.0
  0
SEQEND
  5
67B
  8
001
  0
POLYLINE
  5
683
  8
001
 66
     1
 10
0.0
 20
0.0
 30
0.0
  0
VERTEX
  5
685
  8
001
 10
97.639521999999999
 20
86.792555000000007
 30
0.0
  0
VERTEX
  5
686
  8
001
 10
97.641036999999983
 20
86.882136000000003
 30
0.0
  0
VERTEX
  5
687
  8
001
 10
97.643243999999996
 20
87.013063000000002
 30
0.0
  0
VERTEX
  5
688
  8
001
 10
97.645446000000007
 20
87.144244999999984
 30
0.0
  0
VERTEX
  5
689
  8
001
 10
97.646949000000006
 20
87.234002000000004
 30
0.0
  0
VERTEX
  5
68A
  8
001
 10
97.648156999999983
 20
87.306293000000025
 30
0.0
  0
VERTEX
  5
68B
  8
001
 10
97.649366000000001
 20
87.378584000000004
 30
0.0
  0
SEQEND
  5
684
  8
001
  0
LINE
  5
68C
  8
001
  6
CENTER
 10
98.440644999999989
 20
81.734313999999998
 30
0.0
 11
102.177398
 21
81.734313999999998
 31
0.0
  0
ARC
  5
68D
  8
001
 10
102.177398
 20
82.122198999999995
 30
0.0
 40
0.3878848674172532
 50
224.50145900000001
 51
315.37855500000001
  0
LINE
  5
68E
  8
001
  6
CENTER
 10
98.440644999999989
 20
105.764314
 30
0.0
 11
102.177398
 21
105.764314
 31
0.0
  0
LINE
  5
68F
  8
001
 10
100.28020100000001
 20
83.499313999999998
 30
0.0
 11
98.940644999999975
 21
83.499313999999998
 31
0.0
  0
LINE
  5
690
  8
001
 10
100.62741800000001
 20
82.593378000000001
 30
0.0
 11
99.739727999999999
 21
83.499313999999998
 31
0.0
  0
LINE
  5
691
  8
001
  6
PHANTOM
 10
87.140644999999992
 20
88.249313999999998
 30
0.0
 11
81.508961999999997
 21
88.249313999999998
 31
0.0
  0
LINE
  5
692
  8
001
  6
PHANTOM
 10
87.140644999999992
 20
99.249313999999998
 30
0.0
 11
81.508961999999997
 21
99.249313999999998
 31
0.0
  0
LINE
  5
693
  8
001
  6
PHANTOM
 10
98.940644999999975
 20
103.999314
 30
0.0
 11
100.28020100000001
 21
103.999314
 31
0.0
  0
ENDSEC
  0
EOF
