  0
SECTION
  2
HEADER
  9
$ACADVER
  1
AC1009
  9
$INSBASE
 10
0.0
 20
0.0
 30
0.0
  9
$EXTMIN
 10
18.69024233333333
 20
-19.489584000000001
 30
0.0
  9
$EXTMAX
 10
227.47734600000001
 20
90.143750000000011
 30
0.0
  9
$LIMMIN
 10
0.0
 20
0.0
  9
$LIMMAX
 10
12.0
 20
9.0
  9
$ORTHOMODE
 70
     0
  9
$REGENMODE
 70
     1
  9
$FILLMODE
 70
     1
  9
$QTEXTMODE
 70
     0
  9
$MIRRTEXT
 70
     1
  9
$DRAGMODE
 70
     2
  9
$LTSCALE
 40
2.3631299999999991
  9
$OSMODE
 70
    39
  9
$ATTMODE
 70
     1
  9
$TEXTSIZE
 40
0.2
  9
$TRACEWID
 40
1.0
  9
$TEXTSTYLE
  7
STANDARD
  9
$CLAYER
  8
0
  9
$CELTYPE
  6
BYLAYER
  9
$CECOLOR
 62
   256
  9
$DIMSCALE
 40
1.0
  9
$DIMASZ
 40
2.5
  9
$DIMEXO
 40
0.625
  9
$DIMDLI
 40
3.75
  9
$DIMRND
 40
0.0
  9
$DIMDLE
 40
0.0
  9
$DIMEXE
 40
1.25
  9
$DIMTP
 40
0.0
  9
$DIMTM
 40
0.0
  9
$DIMTXT
 40
2.5
  9
$DIMCEN
 40
0.09
  9
$DIMTSZ
 40
0.0
  9
$DIMTOL
 70
     0
  9
$DIMLIM
 70
     0
  9
$DIMTIH
 70
     0
  9
$DIMTOH
 70
     0
  9
$DIMSE1
 70
     0
  9
$DIMSE2
 70
     0
  9
$DIMTAD
 70
     0
  9
$DIMZIN
 70
     8
  9
$DIMBLK
  1

  9
$DIMASO
 70
     1
  9
$DIMSHO
 70
     0
  9
$DIMPOST
  1

  9
$DIMAPOST
  1

  9
$DIMALT
 70
     0
  9
$DIMALTD
 70
     3
  9
$DIMALTF
 40
0.03937
  9
$DIMLFAC
 40
1.0
  9
$DIMTOFL
 70
     1
  9
$DIMTVP
 40
0.0
  9
$DIMTIX
 70
     0
  9
$DIMSOXD
 70
     0
  9
$DIMSAH
 70
     0
  9
$DIMBLK1
  1

  9
$DIMBLK2
  1

  9
$DIMSTYLE
  2
ISO-25
  9
$DIMCLRD
 70
     0
  9
$DIMCLRE
 70
     0
  9
$DIMCLRT
 70
     0
  9
$DIMTFAC
 40
1.0
  9
$DIMGAP
 40
0.625
  9
$LUNITS
 70
     2
  9
$LUPREC
 70
     4
  9
$SKETCHINC
 40
1.0
  9
$FILLETRAD
 40
0.0
  9
$AUNITS
 70
     0
  9
$AUPREC
 70
     0
  9
$MENU
  1
.
  9
$ELEVATION
 40
0.0
  9
$PELEVATION
 40
0.0
  9
$THICKNESS
 40
0.0
  9
$LIMCHECK
 70
     0
  9
$BLIPMODE
 70
     0
  9
$CHAMFERA
 40
10.0
  9
$CHAMFERB
 40
10.0
  9
$SKPOLY
 70
     0
  9
$TDCREATE
 40
2454798.4692221759
  9
$TDUPDATE
 40
2454798.4711261112
  9
$TDINDWG
 40
0.0002593403
  9
$TDUSRTIMER
 40
0.0002584375
  9
$USRTIMER
 70
     1
  9
$ANGBASE
 50
0.0
  9
$ANGDIR
 70
     0
  9
$PDMODE
 70
     0
  9
$PDSIZE
 40
0.0
  9
$PLINEWID
 40
0.0
  9
$COORDS
 70
     1
  9
$SPLFRAME
 70
     0
  9
$SPLINETYPE
 70
     6
  9
$SPLINESEGS
 70
     8
  9
$ATTDIA
 70
     0
  9
$ATTREQ
 70
     1
  9
$HANDLING
 70
     1
  9
$HANDSEED
  5
631
  9
$SURFTAB1
 70
     6
  9
$SURFTAB2
 70
     6
  9
$SURFTYPE
 70
     6
  9
$SURFU
 70
     6
  9
$SURFV
 70
     6
  9
$UCSNAME
  2

  9
$UCSORG
 10
0.0
 20
0.0
 30
0.0
  9
$UCSXDIR
 10
1.0
 20
0.0
 30
0.0
  9
$UCSYDIR
 10
0.0
 20
1.0
 30
0.0
  9
$PUCSNAME
  2

  9
$PUCSORG
 10
0.0
 20
0.0
 30
0.0
  9
$PUCSXDIR
 10
1.0
 20
0.0
 30
0.0
  9
$PUCSYDIR
 10
0.0
 20
1.0
 30
0.0
  9
$USERI1
 70
     0
  9
$USERI2
 70
     0
  9
$USERI3
 70
     0
  9
$USERI4
 70
     0
  9
$USERI5
 70
     0
  9
$USERR1
 40
0.0
  9
$USERR2
 40
0.0
  9
$USERR3
 40
0.0
  9
$USERR4
 40
0.0
  9
$USERR5
 40
0.0
  9
$WORLDVIEW
 70
     1
  9
$SHADEDGE
 70
     3
  9
$SHADEDIF
 70
    70
  9
$TILEMODE
 70
     1
  9
$MAXACTVP
 70
    64
  9
$PLIMCHECK
 70
     0
  9
$PEXTMIN
 10
1.0000000000000000E+020
 20
1.0000000000000000E+020
 30
0.0
  9
$PEXTMAX
 10
-1.0000000000000000E+020
 20
-1.0000000000000000E+020
 30
0.0
  9
$PLIMMIN
 10
0.0
 20
0.0
  9
$PLIMMAX
 10
12.0
 20
9.0
  9
$UNITMODE
 70
     0
  9
$VISRETAIN
 70
     1
  9
$PLINEGEN
 70
     0
  9
$PSLTSCALE
 70
     1
  0
ENDSEC
  0
SECTION
  2
TABLES
  0
TABLE
  2
VPORT
 70
     2
  0
VPORT
  2
*ACTIVE
 70
     0
 10
0.0
 20
0.0
 11
1.0
 21
1.0
 12
122.806015
 22
48.9030302261272
 13
0.0
 23
0.0
 14
1.0
 24
1.0
 15
0.0
 25
0.0
 16
0.0
 26
0.0
 36
1.0
 17
0.0
 27
0.0
 37
0.0
 40
152.1667204522544
 41
1.3895027624309391
 42
50.0
 43
0.0
 44
0.0
 50
0.0
 51
0.0
 71
     0
 72
   100
 73
     1
 74
     3
 75
     0
 76
     0
 77
     0
 78
     0
  0
ENDTAB
  0
TABLE
  2
LTYPE
 70
     5
  0
LTYPE
  2
CONTINUOUS
 70
     0
  3
Solid line
 72
    65
 73
     0
 40
0.0
  0
LTYPE
  2
DASHED
 70
     0
  3
DASHED
 72
    83
 73
     2
 40
0.75
 49
0.5
 49
-0.25
  0
LTYPE
  2
HIDDEN
 70
     0
  3
HIDDEN
 72
    83
 73
     2
 40
0.375
 49
0.25
 49
-0.125
  0
LTYPE
  2
CENTER
 70
     0
  3
CENTER
 72
    83
 73
     4
 40
2.0
 49
1.25
 49
-0.25
 49
0.25
 49
-0.25
  0
LTYPE
  2
PHANTOM
 70
     0
  3
PHANTOM
 72
    83
 73
     6
 40
2.5
 49
1.25
 49
-0.25
 49
0.25
 49
-0.25
 49
0.25
 49
-0.25
  0
ENDTAB
  0
TABLE
  2
LAYER
 70
     2
  0
LAYER
  2
0
 70
     0
 62
     7
  6
CONTINUOUS
  0
LAYER
  2
001
 70
     0
 62
     7
  6
CONTINUOUS
  0
ENDTAB
  0
TABLE
  2
STYLE
 70
     2
  0
STYLE
  2
STANDARD
 70
     0
 40
0.0
 41
1.0
 50
0.0
 71
     0
 42
0.2
  3
TXT
  4
BIGFONT
  0
STYLE
  2
TATEGAKI
 70
     4
 40
1.0
 41
1.0
 50
0.0
 71
     0
 42
0.2
  3
TXT
  4
BIGFONT
  0
ENDTAB
  0
TABLE
  2
VIEW
 70
     0
  0
ENDTAB
  0
TABLE
  2
UCS
 70
     0
  0
ENDTAB
  0
TABLE
  2
APPID
 70
     1
  0
APPID
  2
ACAD
 70
     0
  0
ENDTAB
  0
TABLE
  2
DIMSTYLE
 70
     2
  0
DIMSTYLE
  2
ISO-25
 70
     0
  3

  4

  5

  6

  7

 40
1.0
 41
2.5
 42
0.625
 43
3.75
 44
1.25
 45
0.0
 46
0.0
 47
0.0
 48
0.0
140
2.5
141
2.5
142
0.0
143
0.03937
144
1.0
145
0.0
146
1.0
147
0.625
 71
     0
 72
     0
 73
     0
 74
     0
 75
     0
 76
     0
 77
     1
 78
     8
170
     0
171
     3
172
     1
173
     0
174
     0
175
     0
176
     0
177
     0
178
     0
  0
DIMSTYLE
  2
STANDARD
 70
     0
  3

  4

  5

  6

  7

 40
1.0
 41
1.5
 42
0.0
 43
0.38
 44
2.75
 45
0.0
 46
0.0
 47
0.0
 48
0.0
140
4.0
141
0.09
142
0.0
143
25.399999999999999
144
1.0
145
0.0
146
0.8
147
1.0
 71
     0
 72
     0
 73
     0
 74
     0
 75
     0
 76
     0
 77
     1
 78
     8
170
     0
171
     2
172
     1
173
     0
174
     0
175
     0
176
     0
177
     0
178
     0
  0
ENDTAB
  0
ENDSEC
  0
SECTION
  2
BLOCKS
  0
BLOCK
  8
0
  2
$MODEL_SPACE
 70
     0
 10
0.0
 20
0.0
 30
0.0
  3
$MODEL_SPACE
  1

  0
ENDBLK
  5
21
  8
0
  0
BLOCK
 67
     1
  8
0
  2
$PAPER_SPACE
 70
     0
 10
0.0
 20
0.0
 30
0.0
  3
$PAPER_SPACE
  1

  0
ENDBLK
  5
1D
 67
     1
  8
0
  0
BLOCK
  8
0
  2
*D1
 70
     1
 10
0.0
 20
0.0
 30
0.0
  3
*D1
  1

  0
LINE
  5
67
  8
001
 10
203.487571
 20
32.081307000000002
 30
0.0
 11
227.47734600000001
 21
32.081307000000002
 31
0.0
  0
LINE
  5
68
  8
001
 10
203.487571
 20
48.081307000000002
 30
0.0
 11
227.47734600000001
 21
48.081307000000002
 31
0.0
  0
LINE
  5
69
  8
001
 10
224.72734600000001
 20
32.081307000000002
 30
0.0
 11
224.72734600000001
 21
48.081307000000002
 31
0.0
  0
POLYLINE
  5
6A
  8
001
 66
     1
 10
0.0
 20
0.0
 30
0.0
  0
VERTEX
  5
6C
  8
001
 10
224.325423
 20
30.581306999999999
 30
0.0
  0
VERTEX
  5
6D
  8
001
 10
224.72734600000001
 20
32.081307000000002
 30
0.0
  0
VERTEX
  5
6E
  8
001
 10
225.12926999999999
 20
30.581306999999999
 30
0.0
  0
SEQEND
  5
6B
  8
001
  0
POLYLINE
  5
6F
  8
001
 66
     1
 10
0.0
 20
0.0
 30
0.0
  0
VERTEX
  5
71
  8
001
 10
225.12926999999999
 20
49.581307000000002
 30
0.0
  0
VERTEX
  5
72
  8
001
 10
224.72734600000001
 20
48.081307000000002
 30
0.0
  0
VERTEX
  5
73
  8
001
 10
224.325423
 20
49.581307000000002
 30
0.0
  0
SEQEND
  5
70
  8
001
  0
TEXT
  5
74
  8
001
 10
223.72734600000001
 20
34.081307000000002
 30
0.0
 40
4.0
  1
%%c１６
 50
90.000003000000007
 41
0.8823529999999999
  0
POINT
  5
75
  8
001
 10
203.487571
 20
32.081307000000002
 30
0.0
  0
POINT
  5
76
  8
001
 10
203.487571
 20
48.081307000000002
 30
0.0
  0
POINT
  5
77
  8
001
 10
224.72734600000001
 20
48.081307000000002
 30
0.0
  0
LINE
  5
78
  8
001
 10
224.72734600000001
 20
32.081307000000002
 30
0.0
 11
224.72734600000001
 21
29.581306999999999
 31
0.0
  0
LINE
  5
79
  8
001
 10
224.72734600000001
 20
48.081307000000002
 30
0.0
 11
224.72734600000001
 21
50.581307000000002
 31
0.0
  0
ENDBLK
  5
66
  8
0
  0
BLOCK
  8
0
  2
*D2
 70
     1
 10
0.0
 20
0.0
 30
0.0
  3
*D2
  1

  0
LINE
  5
7D
  8
001
 10
107.88757099999999
 20
32.081307000000002
 30
0.0
 11
130.82498799999999
 21
9.1438899999999972
 31
0.0
  0
ARC
  5
7E
  8
001
 10
99.887570999999994
 20
40.081307000000002
 30
0.0
 40
41.002114800396953
 50
315.0
 51
0.0
  0
POLYLINE
  5
7F
  8
001
 66
     1
 10
0.0
 20
0.0
 30
0.0
  0
VERTEX
  5
81
  8
001
 10
140.46039300000001
 20
38.588909999999998
 30
0.0
  0
VERTEX
  5
82
  8
001
 10
140.88968600000001
 20
40.081307000000002
 30
0.0
  0
VERTEX
  5
83
  8
001
 10
141.264106
 20
38.574207000000001
 30
0.0
  0
SEQEND
  5
80
  8
001
  0
POLYLINE
  5
84
  8
001
 66
     1
 10
0.0
 20
0.0
 30
0.0
  0
VERTEX
  5
86
  8
001
 10
130.210881
 20
11.889359000000001
 30
0.0
  0
VERTEX
  5
87
  8
001
 10
128.88044400000001
 20
11.088433999999999
 30
0.0
  0
VERTEX
  5
88
  8
001
 10
129.63217299999999
 20
12.447274
 30
0.0
  0
SEQEND
  5
85
  8
001
  0
TEXT
  5
89
  8
001
 10
134.54860600000001
 20
19.229883000000001
 30
0.0
 40
4.0
  1
４５%%d
 50
67.5
 41
0.9782610000000001
  0
POINT
  5
8A
  8
001
 10
97.331941999999984
 20
40.081307000000002
 30
0.0
  0
POINT
  5
8B
  8
001
 10
99.887570999999994
 20
40.081307000000002
 30
0.0
  0
POINT
  5
8C
  8
001
 10
99.887570999999994
 20
40.081307000000002
 30
0.0
  0
POINT
  5
8D
  8
001
 10
107.88757099999999
 20
32.081307000000002
 30
0.0
  0
ENDBLK
  5
7C
  8
0
  0
BLOCK
  8
0
  2
*D3
 70
     1
 10
0.0
 20
0.0
 30
0.0
  3
*D3
  1

  0
LINE
  5
91
  8
001
 10
99.287571
 20
35.08130700000001
 30
0.0
 11
134.82700700000001
 21
-0.458129
 31
0.0
  0
ARC
  5
92
  8
001
 10
94.287571
 20
40.081307000000002
 30
0.0
 40
54.581420386990082
 50
315.0
 51
0.0
  0
POLYLINE
  5
93
  8
001
 66
     1
 10
0.0
 20
0.0
 30
0.0
  0
VERTEX
  5
95
  8
001
 10
148.446495
 20
38.586970999999998
 30
0.0
  0
VERTEX
  5
96
  8
001
 10
148.86899099999999
 20
40.081307000000002
 30
0.0
  0
VERTEX
  5
97
  8
001
 10
149.2502659999999
 20
38.575926000000003
 30
0.0
  0
SEQEND
  5
94
  8
001
  0
POLYLINE
  5
98
  8
001
 66
     1
 10
0.0
 20
0.0
 30
0.0
  0
VERTEX
  5
9A
  8
001
 10
134.216531
 20
2.281277999999999
 30
0.0
  0
VERTEX
  5
9B
  8
001
 10
132.882463
 20
1.486415
 30
0.0
  0
VERTEX
  5
9C
  8
001
 10
133.640368
 20
2.8418199999999998
 30
0.0
  0
SEQEND
  5
99
  8
001
  0
TEXT
  5
9D
  8
001
 10
141.494248
 20
14.033308
 30
0.0
 40
4.0
  1
４５%%d
 50
67.5
 41
0.9782610000000001
  0
POINT
  5
9E
  8
001
 10
97.331941999999984
 20
40.081307000000002
 30
0.0
  0
POINT
  5
9F
  8
001
 10
94.287571
 20
40.081307000000002
 30
0.0
  0
POINT
  5
A0
  8
001
 10
94.287571
 20
40.081307000000002
 30
0.0
  0
POINT
  5
A1
  8
001
 10
99.287571
 20
35.08130700000001
 30
0.0
  0
ENDBLK
  5
90
  8
0
  0
BLOCK
  8
0
  2
*D4
 70
     1
 10
0.0
 20
0.0
 30
0.0
  3
*D4
  1

  0
LINE
  5
A5
  8
001
 10
99.287571
 20
33.478150999999997
 30
0.0
 11
99.287571
 21
7.6674539999999993
 31
0.0
  0
LINE
  5
A6
  8
001
 10
98.487571000000003
 20
35.881307
 30
0.0
 11
98.487571000000003
 21
7.6674539999999993
 31
0.0
  0
LINE
  5
A7
  8
001
 10
99.287571
 20
10.417453999999999
 30
0.0
 11
98.487571000000003
 21
10.417453999999999
 31
0.0
  0
POLYLINE
  5
A8
  8
001
 66
     1
 10
0.0
 20
0.0
 30
0.0
  0
VERTEX
  5
AA
  8
001
 10
100.787571
 20
10.01553
 30
0.0
  0
VERTEX
  5
AB
  8
001
 10
99.287571
 20
10.417453999999999
 30
0.0
  0
VERTEX
  5
AC
  8
001
 10
100.787571
 20
10.819378
 30
0.0
  0
SEQEND
  5
A9
  8
001
  0
POLYLINE
  5
AD
  8
001
 66
     1
 10
0.0
 20
0.0
 30
0.0
  0
VERTEX
  5
AF
  8
001
 10
96.987571000000017
 20
10.819378
 30
0.0
  0
VERTEX
  5
B0
  8
001
 10
98.487571000000003
 20
10.417453999999999
 30
0.0
  0
VERTEX
  5
B1
  8
001
 10
96.987571000000017
 20
10.01553
 30
0.0
  0
SEQEND
  5
AE
  8
001
  0
TEXT
  5
B2
  8
001
 10
79.59801800000001
 20
11.417453999999999
 30
0.0
 40
4.0
  1
０．８
 41
0.833333
  0
POINT
  5
B3
  8
001
 10
99.287571
 20
33.478150999999997
 30
0.0
  0
POINT
  5
B4
  8
001
 10
98.487571000000003
 20
35.881307
 30
0.0
  0
POINT
  5
B5
  8
001
 10
98.487571000000003
 20
10.417453999999999
 30
0.0
  0
LINE
  5
B6
  8
001
 10
99.287571
 20
10.417453999999999
 30
0.0
 11
101.787571
 21
10.417453999999999
 31
0.0
  0
LINE
  5
B7
  8
001
 10
98.487571000000003
 20
10.417453999999999
 30
0.0
 11
76.59801800000001
 21
10.417453999999999
 31
0.0
  0
ENDBLK
  5
A4
  8
0
  0
BLOCK
  8
0
  2
*D5
 70
     1
 10
0.0
 20
0.0
 30
0.0
  3
*D5
  1

  0
LINE
  5
BB
  8
001
 10
107.88757099999999
 20
29.780550999999999
 30
0.0
 11
107.88757099999999
 21
7.6674539999999993
 31
0.0
  0
LINE
  5
BC
  8
001
 10
107.88757099999999
 20
10.417453999999999
 30
0.0
 11
99.287571
 21
10.417453999999999
 31
0.0
  0
POLYLINE
  5
BD
  8
001
 66
     1
 10
0.0
 20
0.0
 30
0.0
  0
VERTEX
  5
BF
  8
001
 10
109.38757099999999
 20
10.01553
 30
0.0
  0
VERTEX
  5
C0
  8
001
 10
107.88757099999999
 20
10.417453999999999
 30
0.0
  0
VERTEX
  5
C1
  8
001
 10
109.38757099999999
 20
10.819378
 30
0.0
  0
SEQEND
  5
BE
  8
001
  0
POLYLINE
  5
C2
  8
001
 66
     1
 10
0.0
 20
0.0
 30
0.0
  0
VERTEX
  5
C4
  8
001
 10
97.787570999999986
 20
10.819378
 30
0.0
  0
VERTEX
  5
C5
  8
001
 10
99.287571
 20
10.417453999999999
 30
0.0
  0
VERTEX
  5
C6
  8
001
 10
97.787570999999986
 20
10.01553
 30
0.0
  0
SEQEND
  5
C3
  8
001
  0
TEXT
  5
C7
  8
001
 10
101.602248
 20
10.987643
 30
0.0
 40
4.0
  1
８．６
 41
0.833333
  0
POINT
  5
C8
  8
001
 10
107.88757099999999
 20
29.780550999999999
 30
0.0
  0
POINT
  5
C9
  8
001
 10
99.287571
 20
16.893902000000001
 30
0.0
  0
POINT
  5
CA
  8
001
 10
99.287571
 20
10.417453999999999
 30
0.0
  0
LINE
  5
CB
  8
001
 10
107.88757099999999
 20
10.417453999999999
 30
0.0
 11
110.38757099999999
 21
10.417453999999999
 31
0.0
  0
LINE
  5
CC
  8
001
 10
99.287571
 20
10.417453999999999
 30
0.0
 11
96.787571
 21
10.417453999999999
 31
0.0
  0
ENDBLK
  5
BA
  8
0
  0
BLOCK
  8
0
  2
*D6
 70
     1
 10
0.0
 20
0.0
 30
0.0
  3
*D6
  1

  0
LINE
  5
D0
  8
001
 10
126.487571
 20
31.681307
 30
0.0
 11
126.487571
 21
-7.6543419999999989
 31
0.0
  0
LINE
  5
D1
  8
001
 10
98.487571000000003
 20
35.881307
 30
0.0
 11
98.487571000000003
 21
-7.6543419999999989
 31
0.0
  0
LINE
  5
D2
  8
001
 10
126.487571
 20
-4.9043419999999989
 30
0.0
 11
98.487571000000003
 21
-4.9043419999999989
 31
0.0
  0
POLYLINE
  5
D3
  8
001
 66
     1
 10
0.0
 20
0.0
 30
0.0
  0
VERTEX
  5
D5
  8
001
 10
124.987571
 20
-4.5024179999999987
 30
0.0
  0
VERTEX
  5
D6
  8
001
 10
126.487571
 20
-4.9043419999999989
 30
0.0
  0
VERTEX
  5
D7
  8
001
 10
124.987571
 20
-5.306265999999999
 30
0.0
  0
SEQEND
  5
D4
  8
001
  0
POLYLINE
  5
D8
  8
001
 66
     1
 10
0.0
 20
0.0
 30
0.0
  0
VERTEX
  5
DA
  8
001
 10
99.987571000000003
 20
-5.306265999999999
 30
0.0
  0
VERTEX
  5
DB
  8
001
 10
98.487571000000003
 20
-4.9043419999999989
 30
0.0
  0
VERTEX
  5
DC
  8
001
 10
99.987571000000003
 20
-4.5024179999999987
 30
0.0
  0
SEQEND
  5
D9
  8
001
  0
TEXT
  5
DD
  8
001
 10
108.487571
 20
-3.9043419999999989
 30
0.0
 40
4.0
  1
２８
 41
0.833333
  0
POINT
  5
DE
  8
001
 10
126.487571
 20
31.681307
 30
0.0
  0
POINT
  5
DF
  8
001
 10
98.487571000000003
 20
35.881307
 30
0.0
  0
POINT
  5
E0
  8
001
 10
98.487571000000003
 20
-4.9043419999999989
 30
0.0
  0
ENDBLK
  5
CF
  8
0
  0
BLOCK
  8
0
  2
*D7
 70
     1
 10
0.0
 20
0.0
 30
0.0
  3
*D7
  1

  0
LINE
  5
E4
  8
001
 10
206.487571
 20
35.08130700000001
 30
0.0
 11
206.487571
 21
-7.6543419999999989
 31
0.0
  0
LINE
  5
E5
  8
001
 10
126.487571
 20
31.681307
 30
0.0
 11
126.487571
 21
-7.6543419999999989
 31
0.0
  0
LINE
  5
E6
  8
001
 10
206.487571
 20
-4.9043419999999989
 30
0.0
 11
126.487571
 21
-4.9043419999999989
 31
0.0
  0
POLYLINE
  5
E7
  8
001
 66
     1
 10
0.0
 20
0.0
 30
0.0
  0
VERTEX
  5
E9
  8
001
 10
204.987571
 20
-4.5024179999999987
 30
0.0
  0
VERTEX
  5
EA
  8
001
 10
206.487571
 20
-4.9043419999999989
 30
0.0
  0
VERTEX
  5
EB
  8
001
 10
204.987571
 20
-5.306265999999999
 30
0.0
  0
SEQEND
  5
E8
  8
001
  0
POLYLINE
  5
EC
  8
001
 66
     1
 10
0.0
 20
0.0
 30
0.0
  0
VERTEX
  5
EE
  8
001
 10
127.987571
 20
-5.306265999999999
 30
0.0
  0
VERTEX
  5
EF
  8
001
 10
126.487571
 20
-4.9043419999999989
 30
0.0
  0
VERTEX
  5
F0
  8
001
 10
127.987571
 20
-4.5024179999999987
 30
0.0
  0
SEQEND
  5
ED
  8
001
  0
TEXT
  5
F1
  8
001
 10
162.487571
 20
-3.9043419999999989
 30
0.0
 40
4.0
  1
８０
 41
0.833333
  0
POINT
  5
F2
  8
001
 10
206.487571
 20
35.08130700000001
 30
0.0
  0
POINT
  5
F3
  8
001
 10
126.487571
 20
31.681307
 30
0.0
  0
POINT
  5
F4
  8
001
 10
126.487571
 20
-4.9043419999999989
 30
0.0
  0
ENDBLK
  5
E3
  8
0
  0
BLOCK
  8
0
  2
*D8
 70
     1
 10
0.0
 20
0.0
 30
0.0
  3
*D8
  1

  0
LINE
  5
F8
  8
001
 10
98.487571000000003
 20
35.881307
 30
0.0
 11
98.487571000000003
 21
-19.489584000000001
 31
0.0
  0
LINE
  5
F9
  8
001
 10
206.487571
 20
35.08130700000001
 30
0.0
 11
206.487571
 21
-19.489584000000001
 31
0.0
  0
LINE
  5
FA
  8
001
 10
98.487571000000003
 20
-16.739584000000001
 30
0.0
 11
206.487571
 21
-16.739584000000001
 31
0.0
  0
POLYLINE
  5
FB
  8
001
 66
     1
 10
0.0
 20
0.0
 30
0.0
  0
VERTEX
  5
FD
  8
001
 10
99.987571000000003
 20
-17.141508000000002
 30
0.0
  0
VERTEX
  5
FE
  8
001
 10
98.487571000000003
 20
-16.739584000000001
 30
0.0
  0
VERTEX
  5
FF
  8
001
 10
99.987571000000003
 20
-16.33766
 30
0.0
  0
SEQEND
  5
FC
  8
001
  0
POLYLINE
  5
100
  8
001
 66
     1
 10
0.0
 20
0.0
 30
0.0
  0
VERTEX
  5
102
  8
001
 10
204.987571
 20
-16.33766
 30
0.0
  0
VERTEX
  5
103
  8
001
 10
206.487571
 20
-16.739584000000001
 30
0.0
  0
VERTEX
  5
104
  8
001
 10
204.987571
 20
-17.141508000000002
 30
0.0
  0
SEQEND
  5
101
  8
001
  0
TEXT
  5
105
  8
001
 10
146.487571
 20
-15.739584000000001
 30
0.0
 40
4.0
  1
１０８
 41
0.833333
  0
POINT
  5
106
  8
001
 10
98.487571000000003
 20
35.881307
 30
0.0
  0
POINT
  5
107
  8
001
 10
206.487571
 20
35.08130700000001
 30
0.0
  0
POINT
  5
108
  8
001
 10
206.487571
 20
-16.739584000000001
 30
0.0
  0
ENDBLK
  5
F7
  8
0
  0
BLOCK
  8
0
  2
*D9
 70
     1
 10
0.0
 20
0.0
 30
0.0
  3
*D9
  1

  0
LINE
  5
10C
  8
001
 10
99.287571
 20
47.081307000000002
 30
0.0
 11
79.974716000000001
 21
47.081307000000002
 31
0.0
  0
LINE
  5
10D
  8
001
 10
99.287571
 20
33.081307000000002
 30
0.0
 11
79.974716000000001
 21
33.081307000000002
 31
0.0
  0
LINE
  5
10E
  8
001
 10
82.724716000000015
 20
47.081307000000002
 30
0.0
 11
82.724716000000015
 21
33.081307000000002
 31
0.0
  0
POLYLINE
  5
10F
  8
001
 66
     1
 10
0.0
 20
0.0
 30
0.0
  0
VERTEX
  5
111
  8
001
 10
83.126640000000009
 20
48.581307000000002
 30
0.0
  0
VERTEX
  5
112
  8
001
 10
82.724716000000015
 20
47.081307000000002
 30
0.0
  0
VERTEX
  5
113
  8
001
 10
82.322792000000007
 20
48.581307000000002
 30
0.0
  0
SEQEND
  5
110
  8
001
  0
POLYLINE
  5
114
  8
001
 66
     1
 10
0.0
 20
0.0
 30
0.0
  0
VERTEX
  5
116
  8
001
 10
82.322792000000007
 20
31.581306999999999
 30
0.0
  0
VERTEX
  5
117
  8
001
 10
82.724716000000015
 20
33.081307000000002
 30
0.0
  0
VERTEX
  5
118
  8
001
 10
83.126640000000009
 20
31.581306999999999
 30
0.0
  0
SEQEND
  5
115
  8
001
  0
TEXT
  5
119
  8
001
 10
81.724715999999987
 20
34.081307000000002
 30
0.0
 40
4.0
  1
%%c１４
 50
90.000003000000007
 41
0.8823529999999999
  0
POINT
  5
11A
  8
001
 10
99.287571
 20
47.081307000000002
 30
0.0
  0
POINT
  5
11B
  8
001
 10
99.287571
 20
33.081307000000002
 30
0.0
  0
POINT
  5
11C
  8
001
 10
82.724716000000015
 20
33.081307000000002
 30
0.0
  0
LINE
  5
11D
  8
001
 10
82.724716000000015
 20
47.081307000000002
 30
0.0
 11
82.724716000000015
 21
49.581307000000002
 31
0.0
  0
LINE
  5
11E
  8
001
 10
82.724716000000015
 20
33.081307000000002
 30
0.0
 11
82.724716000000015
 21
30.581306999999999
 31
0.0
  0
ENDBLK
  5
10B
  8
0
  0
BLOCK
  8
0
  2
*D10
 70
     1
 10
0.0
 20
0.0
 30
0.0
  3
*D10
  1

  0
LINE
  5
122
  8
001
 10
108.18757100000001
 20
31.781307000000002
 30
0.0
 11
70.269863999999998
 21
31.781307000000002
 31
0.0
  0
LINE
  5
123
  8
001
 10
108.18757100000001
 20
48.381307
 30
0.0
 11
70.269863999999998
 21
48.381307
 31
0.0
  0
LINE
  5
124
  8
001
 10
73.019863999999998
 20
31.781307000000002
 30
0.0
 11
73.019863999999998
 21
48.381307
 31
0.0
  0
POLYLINE
  5
125
  8
001
 66
     1
 10
0.0
 20
0.0
 30
0.0
  0
VERTEX
  5
127
  8
001
 10
72.617940000000004
 20
30.281307000000002
 30
0.0
  0
VERTEX
  5
128
  8
001
 10
73.019863999999998
 20
31.781307000000002
 30
0.0
  0
VERTEX
  5
129
  8
001
 10
73.421786999999995
 20
30.281307000000002
 30
0.0
  0
SEQEND
  5
126
  8
001
  0
POLYLINE
  5
12A
  8
001
 66
     1
 10
0.0
 20
0.0
 30
0.0
  0
VERTEX
  5
12C
  8
001
 10
73.421786999999995
 20
49.881307
 30
0.0
  0
VERTEX
  5
12D
  8
001
 10
73.019863999999998
 20
48.381307
 30
0.0
  0
VERTEX
  5
12E
  8
001
 10
72.617940000000004
 20
49.881307
 30
0.0
  0
SEQEND
  5
12B
  8
001
  0
TEXT
  5
12F
  8
001
 10
72.019863999999998
 20
30.08130700000001
 30
0.0
 40
4.0
  1
%%c１６．６
 50
90.000003000000007
 41
0.8620690000000001
  0
POINT
  5
130
  8
001
 10
108.18757100000001
 20
31.781307000000002
 30
0.0
  0
POINT
  5
131
  8
001
 10
108.18757100000001
 20
48.381307
 30
0.0
  0
POINT
  5
132
  8
001
 10
73.019863999999998
 20
48.381307
 30
0.0
  0
LINE
  5
133
  8
001
 10
73.019863999999998
 20
31.781307000000002
 30
0.0
 11
73.019863999999998
 21
29.281307000000002
 31
0.0
  0
LINE
  5
134
  8
001
 10
73.019863999999998
 20
48.381307
 30
0.0
 11
73.019863999999998
 21
50.881307
 31
0.0
  0
ENDBLK
  5
121
  8
0
  0
BLOCK
  8
0
  2
*D11
 70
     1
 10
0.0
 20
0.0
 30
0.0
  3
*D11
  1

  0
LINE
  5
138
  8
001
 10
106.931911
 20
30.536307000000001
 30
0.0
 11
60.907330000000002
 21
30.536307000000001
 31
0.0
  0
LINE
  5
139
  8
001
 10
106.931911
 20
49.626306999999997
 30
0.0
 11
60.907330000000002
 21
49.626306999999997
 31
0.0
  0
LINE
  5
13A
  8
001
 10
63.657330000000002
 20
30.536307000000001
 30
0.0
 11
63.657330000000002
 21
49.626306999999997
 31
0.0
  0
POLYLINE
  5
13B
  8
001
 66
     1
 10
0.0
 20
0.0
 30
0.0
  0
VERTEX
  5
13D
  8
001
 10
63.255406000000001
 20
29.036307000000001
 30
0.0
  0
VERTEX
  5
13E
  8
001
 10
63.657330000000002
 20
30.536307000000001
 30
0.0
  0
VERTEX
  5
13F
  8
001
 10
64.059253999999996
 20
29.036307000000001
 30
0.0
  0
SEQEND
  5
13C
  8
001
  0
POLYLINE
  5
140
  8
001
 66
     1
 10
0.0
 20
0.0
 30
0.0
  0
VERTEX
  5
142
  8
001
 10
64.059253999999996
 20
51.126306999999997
 30
0.0
  0
VERTEX
  5
143
  8
001
 10
63.657330000000002
 20
49.626306999999997
 30
0.0
  0
VERTEX
  5
144
  8
001
 10
63.255406000000001
 20
51.126306999999997
 30
0.0
  0
SEQEND
  5
141
  8
001
  0
TEXT
  5
145
  8
001
 10
62.657330000000002
 20
34.081307000000002
 30
0.0
 40
4.0
  1
%%c１９
 50
90.000003000000007
 41
0.8823529999999999
  0
POINT
  5
146
  8
001
 10
106.931911
 20
30.536307000000001
 30
0.0
  0
POINT
  5
147
  8
001
 10
106.931911
 20
49.626306999999997
 30
0.0
  0
POINT
  5
148
  8
001
 10
63.657330000000002
 20
49.626306999999997
 30
0.0
  0
LINE
  5
149
  8
001
 10
63.657330000000002
 20
30.536307000000001
 30
0.0
 11
63.657330000000002
 21
28.036307000000001
 31
0.0
  0
LINE
  5
14A
  8
001
 10
63.657330000000002
 20
49.626306999999997
 30
0.0
 11
63.657330000000002
 21
52.126306999999997
 31
0.0
  0
ENDBLK
  5
137
  8
0
  0
ENDSEC
  0
SECTION
  2
ENTITIES
  0
DIMENSION
  5
14B
  8
001
  2
*D1
 10
224.72734600000001
 20
48.081307000000002
 30
0.0
 11
221.72734600000001
 21
40.081307000000002
 31
0.0
 70
   128
 13
203.487571
 23
32.081307000000002
 33
0.0
 14
203.487571
 24
48.081307000000002
 34
0.0
 50
90.0
  0
DIMENSION
  5
14C
  8
001
  2
*D2
 10
99.887570999999994
 20
40.081307000000002
 30
0.0
 11
134.99694700000001
 21
25.538526999999998
 31
0.0
 70
     2
 13
97.331941999999984
 23
40.081307000000002
 33
0.0
 14
99.887570999999994
 24
40.081307000000002
 34
0.0
 15
107.88757099999999
 25
32.081307000000002
 35
0.0
 16
137.768586
 26
24.390477000000001
 36
0.0
  0
DIMENSION
  5
14D
  8
001
  2
*D3
 10
94.287571
 20
40.081307000000002
 30
0.0
 11
141.94259
 21
20.341951999999999
 31
0.0
 70
     2
 13
97.331941999999984
 23
40.081307000000002
 33
0.0
 14
94.287571
 24
40.081307000000002
 34
0.0
 15
99.287571
 25
35.08130700000001
 35
0.0
 16
144.71422799999999
 26
19.193902000000001
 36
0.0
  0
DIMENSION
  5
14E
  8
001
  2
*D4
 10
98.487571000000003
 20
10.417453999999999
 30
0.0
 11
85.598017999999996
 21
13.417453999999999
 31
0.0
 70
   128
 13
99.287571
 23
33.478150999999997
 33
0.0
 14
98.487571000000003
 24
35.881307
 34
0.0
 50
180.0
  0
DIMENSION
  5
14F
  8
001
  2
*D5
 10
99.287571
 20
10.417453999999999
 30
0.0
 11
107.602248
 21
12.987643
 31
0.0
 70
   128
 13
107.88757099999999
 23
29.780550999999999
 33
0.0
 14
99.287571
 24
16.893902000000001
 34
0.0
 50
180.0
  0
DIMENSION
  5
150
  8
001
  2
*D6
 10
98.487571000000003
 20
-4.9043419999999989
 30
0.0
 11
112.487571
 21
-1.9043419999999991
 31
0.0
 70
   128
 13
126.487571
 23
31.681307
 33
0.0
 14
98.487571000000003
 24
35.881307
 34
0.0
 50
180.0
  0
DIMENSION
  5
151
  8
001
  2
*D7
 10
126.487571
 20
-4.9043419999999989
 30
0.0
 11
166.487571
 21
-1.9043419999999991
 31
0.0
 70
   128
 13
206.487571
 23
35.08130700000001
 33
0.0
 14
126.487571
 24
31.681307
 34
0.0
 50
180.0
  0
DIMENSION
  5
152
  8
001
  2
*D8
 10
206.487571
 20
-16.739584000000001
 30
0.0
 11
152.487571
 21
-13.739584000000001
 31
0.0
 70
   128
 13
98.487571000000003
 23
35.881307
 33
0.0
 14
206.487571
 24
35.08130700000001
 34
0.0
  0
DIMENSION
  5
153
  8
001
  2
*D9
 10
82.724716000000015
 20
33.081307000000002
 30
0.0
 11
79.724716000000001
 21
40.081307000000002
 31
0.0
 70
   128
 13
99.287571
 23
47.081307000000002
 33
0.0
 14
99.287571
 24
33.081307000000002
 34
0.0
 50
270.0
  0
DIMENSION
  5
154
  8
001
  2
*D10
 10
73.019863999999998
 20
48.381307
 30
0.0
 11
70.019863000000001
 21
40.081307000000002
 31
0.0
 70
   128
 13
108.18757100000001
 23
31.781307000000002
 33
0.0
 14
108.18757100000001
 24
48.381307
 34
0.0
 50
90.0
  0
DIMENSION
  5
155
  8
001
  2
*D11
 10
63.657330000000002
 20
49.626306999999997
 30
0.0
 11
60.657330000000002
 21
40.081307000000002
 31
0.0
 70
   128
 13
106.931911
 23
30.536307000000001
 33
0.0
 14
106.931911
 24
49.626306999999997
 34
0.0
 50
90.0
  0
TEXT
  5
156
  8
001
 10
18.134687
 20
80.143749999999983
 30
0.0
 40
10.0
  1
イーグルカット　ＥＣ１６－１４ＸS－Ｍ８
 41
0.833333
  0
LINE
  5
157
  8
001
 10
54.137402000000002
 20
8.6396479999999993
 30
0.0
 11
54.137402000000002
 21
1.039647999999999
 31
0.0
  0
LINE
  5
158
  8
001
 10
40.137401999999987
 20
8.6396479999999993
 30
0.0
 11
40.137401999999987
 21
1.039647999999999
 31
0.0
  0
LINE
  5
159
  8
001
 10
34.637402000000002
 20
9.6396479999999993
 30
0.0
 11
59.637402000000002
 21
9.6396479999999993
 31
0.0
  0
LINE
  5
15A
  8
001
 10
40.137401999999987
 20
1.039647999999999
 30
0.0
 11
54.137402000000002
 21
1.039647999999999
 31
0.0
  0
LINE
  5
15B
  8
001
 10
59.637402000000002
 20
-5.3603519999999989
 30
0.0
 11
34.637402000000002
 21
-5.3603519999999989
 31
0.0
  0
LINE
  5
15C
  8
001
 10
51.637402000000002
 20
0.5396479999999999
 30
0.0
 11
51.637402000000002
 21
-5.3603519999999989
 31
0.0
  0
LINE
  5
15D
  8
001
 10
42.637401999999987
 20
0.5396479999999999
 30
0.0
 11
42.637401999999987
 21
-5.3603519999999989
 31
0.0
  0
LINE
  5
15E
  8
001
  6
CENTER
 10
47.137402000000002
 20
10.370913
 30
0.0
 11
47.137402000000002
 21
-6.3976249999999988
 31
0.0
  0
LINE
  5
15F
  8
001
 10
40.137401999999987
 20
8.6396479999999993
 30
0.0
 11
39.137402000000002
 21
9.6396479999999993
 31
0.0
  0
LINE
  5
160
  8
001
 10
51.637402000000002
 20
0.5396479999999999
 30
0.0
 11
52.137402000000002
 21
1.039647999999999
 31
0.0
  0
LINE
  5
161
  8
001
 10
42.637401999999987
 20
0.5396479999999999
 30
0.0
 11
42.137402000000002
 21
1.039647999999999
 31
0.0
  0
LINE
  5
162
  8
001
 10
40.137401999999987
 20
8.6396479999999993
 30
0.0
 11
54.137402000000002
 21
8.6396479999999993
 31
0.0
  0
LINE
  5
163
  8
001
 10
42.637401999999987
 20
0.5396479999999999
 30
0.0
 11
51.637402000000002
 21
0.5396479999999999
 31
0.0
  0
LINE
  5
164
  8
001
 10
54.137402000000002
 20
8.6396479999999993
 30
0.0
 11
55.137402000000002
 21
9.6396479999999993
 31
0.0
  0
LINE
  5
165
  8
001
 10
52.260965999999989
 20
-17.444711000000002
 30
0.0
 11
43.547204000000001
 21
-17.444711000000002
 31
0.0
  0
POLYLINE
  5
166
  8
001
 66
     1
 10
0.0
 20
0.0
 30
0.0
  0
VERTEX
  5
168
  8
001
 10
101.61433599999999
 20
38.051355999999998
 30
0.0
  0
VERTEX
  5
169
  8
001
 10
101.491597
 20
38.044879999999999
 30
0.0
  0
VERTEX
  5
16A
  8
001
 10
101.32361899999999
 20
38.025528999999999
 30
0.0
  0
VERTEX
  5
16B
  8
001
 10
101.174758
 20
37.993414999999999
 30
0.0
  0
VERTEX
  5
16C
  8
001
 10
101.041735
 20
37.948833
 30
0.0
  0
VERTEX
  5
16D
  8
001
 10
100.908406
 20
37.892034000000002
 30
0.0
  0
VERTEX
  5
16E
  8
001
 10
100.777249
 20
37.823599000000002
 30
0.0
  0
VERTEX
  5
16F
  8
001
 10
100.653547
 20
37.743889000000003
 30
0.0
  0
VERTEX
  5
170
  8
001
 10
100.53819799999999
 20
37.653630999999997
 30
0.0
  0
VERTEX
  5
171
  8
001
 10
100.430572
 20
37.553244999999997
 30
0.0
  0
VERTEX
  5
172
  8
001
 10
100.331845
 20
37.444095000000011
 30
0.0
  0
VERTEX
  5
173
  8
001
 10
100.242852
 20
37.326807000000002
 30
0.0
  0
VERTEX
  5
174
  8
001
 10
100.16445899999999
 20
37.201355999999997
 30
0.0
  0
VERTEX
  5
175
  8
001
 10
100.09700100000001
 20
37.068053999999997
 30
0.0
  0
VERTEX
  5
176
  8
001
 10
100.041128
 20
36.932789999999997
 30
0.0
  0
VERTEX
  5
177
  8
001
 10
99.997198000000012
 20
36.797597000000003
 30
0.0
  0
VERTEX
  5
178
  8
001
 10
99.965597000000002
 20
36.646557999999999
 30
0.0
  0
VERTEX
  5
179
  8
001
 10
99.946535999999995
 20
36.475968000000002
 30
0.0
  0
VERTEX
  5
17A
  8
001
 10
99.940162999999998
 20
36.351356000000003
 30
0.0
  0
SEQEND
  5
167
  8
001
  0
LINE
  5
17B
  8
001
 10
102.88948499999999
 20
33.988697000000002
 30
0.0
 11
101.958294
 21
33.081307000000002
 31
0.0
  0
LINE
  5
17C
  8
001
 10
99.678539999999998
 20
33.081307000000002
 30
0.0
 11
101.958294
 21
33.081307000000002
 31
0.0
  0
LINE
  5
17D
  8
001
 10
99.287571
 20
35.08130700000001
 30
0.0
 11
99.287571
 21
33.478150999999997
 31
0.0
  0
LINE
  5
17E
  8
001
 10
98.487571000000003
 20
35.881307
 30
0.0
 11
98.487571000000003
 21
38.317015000000012
 31
0.0
  0
POLYLINE
  5
17F
  8
001
 66
     1
 10
0.0
 20
0.0
 30
0.0
  0
VERTEX
  5
181
  8
001
 10
98.878540000000001
 20
38.714015000000011
 30
0.0
  0
VERTEX
  5
182
  8
001
 10
98.846307999999993
 20
38.712101000000011
 30
0.0
  0
VERTEX
  5
183
  8
001
 10
98.802266000000003
 20
38.706386999999999
 30
0.0
  0
VERTEX
  5
184
  8
001
 10
98.763396000000014
 20
38.696911999999998
 30
0.0
  0
VERTEX
  5
185
  8
001
 10
98.728922999999995
 20
38.683795000000011
 30
0.0
  0
VERTEX
  5
186
  8
001
 10
98.694658000000004
 20
38.667133
 30
0.0
  0
VERTEX
  5
187
  8
001
 10
98.661329000000009
 20
38.64710800000001
 30
0.0
  0
VERTEX
  5
188
  8
001
 10
98.630373000000006
 20
38.623849
 30
0.0
  0
VERTEX
  5
189
  8
001
 10
98.602082999999993
 20
38.597735999999998
 30
0.0
  0
VERTEX
  5
18A
  8
001
 10
98.576331999999994
 20
38.568964000000001
 30
0.0
  0
VERTEX
  5
18B
  8
001
 10
98.553460999999999
 20
38.537576000000001
 30
0.0
  0
VERTEX
  5
18C
  8
001
 10
98.533718000000007
 20
38.503695999999998
 30
0.0
  0
VERTEX
  5
18D
  8
001
 10
98.517331999999996
 20
38.468940000000011
 30
0.0
  0
VERTEX
  5
18E
  8
001
 10
98.504405000000006
 20
38.433895999999997
 30
0.0
  0
VERTEX
  5
18F
  8
001
 10
98.495083999999991
 20
38.394466000000001
 30
0.0
  0
VERTEX
  5
190
  8
001
 10
98.489454000000009
 20
38.349736999999998
 30
0.0
  0
VERTEX
  5
191
  8
001
 10
98.487571000000003
 20
38.317015000000012
 30
0.0
  0
SEQEND
  5
180
  8
001
  0
LINE
  5
192
  8
001
 10
100.436728
 20
38.714015000000011
 30
0.0
 11
98.878540000000001
 21
38.714015000000011
 31
0.0
  0
LINE
  5
193
  8
001
 10
101.27037799999999
 20
39.526356
 30
0.0
 11
100.436728
 21
38.714015000000011
 31
0.0
  0
LINE
  5
194
  8
001
 10
103.550132
 20
39.526356
 30
0.0
 11
101.27037799999999
 21
39.526356
 31
0.0
  0
POLYLINE
  5
195
  8
001
 66
     1
 10
0.0
 20
0.0
 30
0.0
  0
VERTEX
  5
197
  8
001
 10
103.941101
 20
39.129356000000001
 30
0.0
  0
VERTEX
  5
198
  8
001
 10
103.939612
 20
39.158456000000001
 30
0.0
  0
VERTEX
  5
199
  8
001
 10
103.93516099999999
 20
39.198293999999997
 30
0.0
  0
VERTEX
  5
19A
  8
001
 10
103.927781
 20
39.233566000000003
 30
0.0
  0
VERTEX
  5
19B
  8
001
 10
103.917523
 20
39.265138
 30
0.0
  0
VERTEX
  5
19C
  8
001
 10
103.90447500000001
 20
39.296726
 30
0.0
  0
VERTEX
  5
19D
  8
001
 10
103.888721
 20
39.327855999999997
 30
0.0
  0
VERTEX
  5
19E
  8
001
 10
103.870414
 20
39.357151999999999
 30
0.0
  0
VERTEX
  5
19F
  8
001
 10
103.849631
 20
39.384543000000001
 30
0.0
  0
VERTEX
  5
1A0
  8
001
 10
103.826576
 20
39.410032000000001
 30
0.0
  0
VERTEX
  5
1A1
  8
001
 10
103.80144199999999
 20
39.433475000000001
 30
0.0
  0
VERTEX
  5
1A2
  8
001
 10
103.77450399999999
 20
39.454553000000011
 30
0.0
  0
VERTEX
  5
1A3
  8
001
 10
103.745616
 20
39.473168000000001
 30
0.0
  0
VERTEX
  5
1A4
  8
001
 10
103.71498800000001
 20
39.489150000000002
 30
0.0
  0
VERTEX
  5
1A5
  8
001
 10
103.683851
 20
39.502414000000002
 30
0.0
  0
VERTEX
  5
1A6
  8
001
 10
103.65278600000001
 20
39.512824999999999
 30
0.0
  0
VERTEX
  5
1A7
  8
001
 10
103.61802299999999
 20
39.520325
 30
0.0
  0
VERTEX
  5
1A8
  8
001
 10
103.578795
 20
39.524844000000002
 30
0.0
  0
VERTEX
  5
1A9
  8
001
 10
103.550132
 20
39.526356
 30
0.0
  0
SEQEND
  5
196
  8
001
  0
LINE
  5
1AA
  8
001
 10
103.941101
 20
37.547130000000003
 30
0.0
 11
103.941101
 21
39.129356000000001
 31
0.0
  0
LINE
  5
1AB
  8
001
 10
104.741101
 20
36.700620000000001
 30
0.0
 11
103.941101
 21
37.547130000000003
 31
0.0
  0
LINE
  5
1AC
  8
001
 10
104.741101
 20
34.385697
 30
0.0
 11
104.741101
 21
36.700620000000001
 31
0.0
  0
POLYLINE
  5
1AD
  8
001
 66
     1
 10
0.0
 20
0.0
 30
0.0
  0
VERTEX
  5
1AF
  8
001
 10
104.350132
 20
33.988697000000002
 30
0.0
  0
VERTEX
  5
1B0
  8
001
 10
104.382364
 20
33.990609999999997
 30
0.0
  0
VERTEX
  5
1B1
  8
001
 10
104.426406
 20
33.996324999999999
 30
0.0
  0
VERTEX
  5
1B2
  8
001
 10
104.46527500000001
 20
34.005800000000001
 30
0.0
  0
VERTEX
  5
1B3
  8
001
 10
104.49974899999999
 20
34.018917000000002
 30
0.0
  0
VERTEX
  5
1B4
  8
001
 10
104.534014
 20
34.035578999999998
 30
0.0
  0
VERTEX
  5
1B5
  8
001
 10
104.567342
 20
34.055603000000012
 30
0.0
  0
VERTEX
  5
1B6
  8
001
 10
104.598299
 20
34.078862999999998
 30
0.0
  0
VERTEX
  5
1B7
  8
001
 10
104.626588
 20
34.104975000000003
 30
0.0
  0
VERTEX
  5
1B8
  8
001
 10
104.65234
 20
34.133747999999997
 30
0.0
  0
VERTEX
  5
1B9
  8
001
 10
104.67521000000001
 20
34.165134999999999
 30
0.0
  0
VERTEX
  5
1BA
  8
001
 10
104.694954
 20
34.199016
 30
0.0
  0
VERTEX
  5
1BB
  8
001
 10
104.71134000000001
 20
34.233772000000002
 30
0.0
  0
VERTEX
  5
1BC
  8
001
 10
104.724267
 20
34.268814999999996
 30
0.0
  0
VERTEX
  5
1BD
  8
001
 10
104.733588
 20
34.308246000000011
 30
0.0
  0
VERTEX
  5
1BE
  8
001
 10
104.73921799999999
 20
34.352975000000001
 30
0.0
  0
VERTEX
  5
1BF
  8
001
 10
104.741101
 20
34.385697
 30
0.0
  0
SEQEND
  5
1AE
  8
001
  0
LINE
  5
1C0
  8
001
 10
102.88948499999999
 20
33.988697000000002
 30
0.0
 11
104.350132
 21
33.988697000000002
 31
0.0
  0
POLYLINE
  5
1C1
  8
001
 66
     1
 10
0.0
 20
0.0
 30
0.0
  0
VERTEX
  5
1C3
  8
001
 10
99.940162999999998
 20
36.351356000000003
 30
0.0
  0
VERTEX
  5
1C4
  8
001
 10
99.946535999999995
 20
36.226744000000011
 30
0.0
  0
VERTEX
  5
1C5
  8
001
 10
99.965597000000002
 20
36.056153999999999
 30
0.0
  0
VERTEX
  5
1C6
  8
001
 10
99.997198000000012
 20
35.905113999999998
 30
0.0
  0
VERTEX
  5
1C7
  8
001
 10
100.041128
 20
35.769921999999987
 30
0.0
  0
VERTEX
  5
1C8
  8
001
 10
100.09700100000001
 20
35.634656999999997
 30
0.0
  0
VERTEX
  5
1C9
  8
001
 10
100.16445899999999
 20
35.501356000000001
 30
0.0
  0
VERTEX
  5
1CA
  8
001
 10
100.242852
 20
35.375903999999998
 30
0.0
  0
VERTEX
  5
1CB
  8
001
 10
100.331845
 20
35.258617000000001
 30
0.0
  0
VERTEX
  5
1CC
  8
001
 10
100.430572
 20
35.149467000000001
 30
0.0
  0
VERTEX
  5
1CD
  8
001
 10
100.53819799999999
 20
35.049079999999996
 30
0.0
  0
VERTEX
  5
1CE
  8
001
 10
100.653547
 20
34.958821999999998
 30
0.0
  0
VERTEX
  5
1CF
  8
001
 10
100.777249
 20
34.879112999999997
 30
0.0
  0
VERTEX
  5
1D0
  8
001
 10
100.908406
 20
34.810676999999998
 30
0.0
  0
VERTEX
  5
1D1
  8
001
 10
101.041735
 20
34.753878
 30
0.0
  0
VERTEX
  5
1D2
  8
001
 10
101.174758
 20
34.709296999999999
 30
0.0
  0
VERTEX
  5
1D3
  8
001
 10
101.32361899999999
 20
34.677182999999999
 30
0.0
  0
VERTEX
  5
1D4
  8
001
 10
101.491597
 20
34.657831000000002
 30
0.0
  0
VERTEX
  5
1D5
  8
001
 10
101.61433599999999
 20
34.651356
 30
0.0
  0
SEQEND
  5
1C2
  8
001
  0
POLYLINE
  5
1D6
  8
001
 66
     1
 10
0.0
 20
0.0
 30
0.0
  0
VERTEX
  5
1D8
  8
001
 10
101.61433599999999
 20
34.651356
 30
0.0
  0
VERTEX
  5
1D9
  8
001
 10
101.74426800000001
 20
34.658616000000002
 30
0.0
  0
VERTEX
  5
1DA
  8
001
 10
101.921965
 20
34.680302000000012
 30
0.0
  0
VERTEX
  5
1DB
  8
001
 10
102.079142
 20
34.716273999999999
 30
0.0
  0
VERTEX
  5
1DC
  8
001
 10
102.219117
 20
34.76615300000001
 30
0.0
  0
VERTEX
  5
1DD
  8
001
 10
102.358884
 20
34.829622999999998
 30
0.0
  0
VERTEX
  5
1DE
  8
001
 10
102.49567500000001
 20
34.905987000000003
 30
0.0
  0
VERTEX
  5
1DF
  8
001
 10
102.623808
 20
34.994795000000003
 30
0.0
  0
VERTEX
  5
1E0
  8
001
 10
102.74221900000001
 20
35.095041000000002
 30
0.0
  0
VERTEX
  5
1E1
  8
001
 10
102.851506
 20
35.206158000000002
 30
0.0
  0
VERTEX
  5
1E2
  8
001
 10
102.950355
 20
35.326877000000003
 30
0.0
  0
VERTEX
  5
1E3
  8
001
 10
103.037828
 20
35.456507000000002
 30
0.0
  0
VERTEX
  5
1E4
  8
001
 10
103.112994
 20
35.593601
 30
0.0
  0
VERTEX
  5
1E5
  8
001
 10
103.17546900000001
 20
35.737315000000002
 30
0.0
  0
VERTEX
  5
1E6
  8
001
 10
103.224599
 20
35.886128999999997
 30
0.0
  0
VERTEX
  5
1E7
  8
001
 10
103.260008
 20
36.039021000000012
 30
0.0
  0
VERTEX
  5
1E8
  8
001
 10
103.281367
 20
36.194499999999998
 30
0.0
  0
VERTEX
  5
1E9
  8
001
 10
103.28850300000001
 20
36.351356000000003
 30
0.0
  0
VERTEX
  5
1EA
  8
001
 10
103.281367
 20
36.508212
 30
0.0
  0
VERTEX
  5
1EB
  8
001
 10
103.260008
 20
36.663691
 30
0.0
  0
VERTEX
  5
1EC
  8
001
 10
103.224599
 20
36.816583000000001
 30
0.0
  0
VERTEX
  5
1ED
  8
001
 10
103.175468
 20
36.965396000000013
 30
0.0
  0
VERTEX
  5
1EE
  8
001
 10
103.112994
 20
37.109110999999999
 30
0.0
  0
VERTEX
  5
1EF
  8
001
 10
103.037828
 20
37.246203999999999
 30
0.0
  0
VERTEX
  5
1F0
  8
001
 10
102.950355
 20
37.375834999999988
 30
0.0
  0
VERTEX
  5
1F1
  8
001
 10
102.851506
 20
37.496554000000003
 30
0.0
  0
VERTEX
  5
1F2
  8
001
 10
102.74221900000001
 20
37.607671000000011
 30
0.0
  0
VERTEX
  5
1F3
  8
001
 10
102.623808
 20
37.707915999999997
 30
0.0
  0
VERTEX
  5
1F4
  8
001
 10
102.49567399999999
 20
37.796725000000002
 30
0.0
  0
VERTEX
  5
1F5
  8
001
 10
102.358884
 20
37.873089
 30
0.0
  0
VERTEX
  5
1F6
  8
001
 10
102.219117
 20
37.936559000000003
 30
0.0
  0
VERTEX
  5
1F7
  8
001
 10
102.07914100000001
 20
37.986438
 30
0.0
  0
VERTEX
  5
1F8
  8
001
 10
101.921964
 20
38.022410000000001
 30
0.0
  0
VERTEX
  5
1F9
  8
001
 10
101.74426800000001
 20
38.04409600000001
 30
0.0
  0
VERTEX
  5
1FA
  8
001
 10
101.61433599999999
 20
38.051355999999998
 30
0.0
  0
SEQEND
  5
1D7
  8
001
  0
LINE
  5
1FB
  8
001
 10
110.495552
 20
39.762349999999998
 30
0.0
 11
110.878552
 21
39.607171999999998
 31
0.0
  0
LINE
  5
1FC
  8
001
 10
125.987571
 20
48.981307000000001
 30
0.0
 11
109.39836200000001
 21
48.981307000000001
 31
0.0
  0
LINE
  5
1FD
  8
001
 10
125.862061
 20
31.181307
 30
0.0
 11
125.987571
 21
31.181307
 31
0.0
  0
POLYLINE
  5
1FE
  8
001
 66
     1
 10
0.0
 20
0.0
 30
0.0
  0
VERTEX
  5
200
  8
001
 10
115.579088
 20
31.611947000000001
 30
0.0
  0
VERTEX
  5
201
  8
001
 10
115.504891
 20
31.594640999999999
 30
0.0
  0
VERTEX
  5
202
  8
001
 10
115.43079899999999
 20
31.576912
 30
0.0
  0
VERTEX
  5
203
  8
001
 10
115.313312
 20
31.547263999999998
 30
0.0
  0
VERTEX
  5
204
  8
001
 10
115.196088
 20
31.516546999999999
 30
0.0
  0
SEQEND
  5
1FF
  8
001
  0
POLYLINE
  5
205
  8
001
 66
     1
 10
0.0
 20
0.0
 30
0.0
  0
VERTEX
  5
207
  8
001
 10
115.96208799999999
 20
31.709472000000002
 30
0.0
  0
VERTEX
  5
208
  8
001
 10
115.887889
 20
31.691784999999999
 30
0.0
  0
VERTEX
  5
209
  8
001
 10
115.813799
 20
31.673666000000001
 30
0.0
  0
VERTEX
  5
20A
  8
001
 10
115.696305
 20
31.643353999999999
 30
0.0
  0
VERTEX
  5
20B
  8
001
 10
115.579088
 20
31.611947000000001
 30
0.0
  0
SEQEND
  5
206
  8
001
  0
POLYLINE
  5
20C
  8
001
 66
     1
 10
0.0
 20
0.0
 30
0.0
  0
VERTEX
  5
20E
  8
001
 10
116.345088
 20
31.809093000000001
 30
0.0
  0
VERTEX
  5
20F
  8
001
 10
116.270887
 20
31.791031
 30
0.0
  0
VERTEX
  5
210
  8
001
 10
116.196799
 20
31.772525999999999
 30
0.0
  0
VERTEX
  5
211
  8
001
 10
116.07929900000001
 20
31.741559000000009
 30
0.0
  0
VERTEX
  5
212
  8
001
 10
115.96208799999999
 20
31.709472000000002
 30
0.0
  0
SEQEND
  5
20D
  8
001
  0
POLYLINE
  5
213
  8
001
 66
     1
 10
0.0
 20
0.0
 30
0.0
  0
VERTEX
  5
215
  8
001
 10
116.728088
 20
31.910778000000001
 30
0.0
  0
VERTEX
  5
216
  8
001
 10
116.65388400000001
 20
31.892346000000011
 30
0.0
  0
VERTEX
  5
217
  8
001
 10
116.57979899999999
 20
31.873462
 30
0.0
  0
VERTEX
  5
218
  8
001
 10
116.462293
 20
31.841850000000001
 30
0.0
  0
VERTEX
  5
219
  8
001
 10
116.345088
 20
31.809093000000001
 30
0.0
  0
SEQEND
  5
214
  8
001
  0
POLYLINE
  5
21A
  8
001
 66
     1
 10
0.0
 20
0.0
 30
0.0
  0
VERTEX
  5
21C
  8
001
 10
117.111088
 20
32.014496999999999
 30
0.0
  0
VERTEX
  5
21D
  8
001
 10
117.03688200000001
 20
31.995701
 30
0.0
  0
VERTEX
  5
21E
  8
001
 10
116.962799
 20
31.976443
 30
0.0
  0
VERTEX
  5
21F
  8
001
 10
116.845287
 20
31.944196000000002
 30
0.0
  0
VERTEX
  5
220
  8
001
 10
116.728088
 20
31.910778000000001
 30
0.0
  0
SEQEND
  5
21B
  8
001
  0
POLYLINE
  5
221
  8
001
 66
     1
 10
0.0
 20
0.0
 30
0.0
  0
VERTEX
  5
223
  8
001
 10
117.494088
 20
32.120218000000001
 30
0.0
  0
VERTEX
  5
224
  8
001
 10
117.41987899999999
 20
32.101064000000001
 30
0.0
  0
VERTEX
  5
225
  8
001
 10
117.345799
 20
32.081437000000001
 30
0.0
  0
VERTEX
  5
226
  8
001
 10
117.22828
 20
32.048565000000004
 30
0.0
  0
VERTEX
  5
227
  8
001
 10
117.111088
 20
32.014496999999999
 30
0.0
  0
SEQEND
  5
222
  8
001
  0
POLYLINE
  5
228
  8
001
 66
     1
 10
0.0
 20
0.0
 30
0.0
  0
VERTEX
  5
22A
  8
001
 10
117.877088
 20
32.227909999999987
 30
0.0
  0
VERTEX
  5
22B
  8
001
 10
117.802877
 20
32.208402
 30
0.0
  0
VERTEX
  5
22C
  8
001
 10
117.728799
 20
32.188414000000002
 30
0.0
  0
VERTEX
  5
22D
  8
001
 10
117.61127399999999
 20
32.15492600000001
 30
0.0
  0
VERTEX
  5
22E
  8
001
 10
117.494088
 20
32.120218000000001
 30
0.0
  0
SEQEND
  5
229
  8
001
  0
POLYLINE
  5
22F
  8
001
 66
     1
 10
0.0
 20
0.0
 30
0.0
  0
VERTEX
  5
231
  8
001
 10
124.374589
 20
31.579545
 30
0.0
  0
VERTEX
  5
232
  8
001
 10
124.271055
 20
31.637367999999999
 30
0.0
  0
VERTEX
  5
233
  8
001
 10
124.166972
 20
31.694175999999999
 30
0.0
  0
VERTEX
  5
234
  8
001
 10
124.012507
 20
31.774152999999998
 30
0.0
  0
VERTEX
  5
235
  8
001
 10
123.856053
 20
31.850214000000001
 30
0.0
  0
VERTEX
  5
236
  8
001
 10
123.69354300000001
 20
31.924662999999999
 30
0.0
  0
VERTEX
  5
237
  8
001
 10
123.529349
 20
31.995294000000001
 30
0.0
  0
VERTEX
  5
238
  8
001
 10
123.342083
 20
32.070278000000002
 30
0.0
  0
VERTEX
  5
239
  8
001
 10
123.152911
 20
32.140337000000002
 30
0.0
  0
VERTEX
  5
23A
  8
001
 10
122.95740499999999
 20
32.207112000000002
 30
0.0
  0
VERTEX
  5
23B
  8
001
 10
122.760266
 20
32.268892000000001
 30
0.0
  0
VERTEX
  5
23C
  8
001
 10
122.558323
 20
32.326590000000003
 30
0.0
  0
VERTEX
  5
23D
  8
001
 10
122.354973
 20
32.379115000000013
 30
0.0
  0
VERTEX
  5
23E
  8
001
 10
122.14837300000001
 20
32.426850999999999
 30
0.0
  0
VERTEX
  5
23F
  8
001
 10
121.940595
 20
32.469163000000002
 30
0.0
  0
VERTEX
  5
240
  8
001
 10
121.704015
 20
32.510432000000002
 30
0.0
  0
VERTEX
  5
241
  8
001
 10
121.466314
 20
32.544703000000013
 30
0.0
  0
VERTEX
  5
242
  8
001
 10
121.225373
 20
32.572311999999997
 30
0.0
  0
VERTEX
  5
243
  8
001
 10
120.98373599999999
 20
32.592942000000001
 30
0.0
  0
VERTEX
  5
244
  8
001
 10
120.740742
 20
32.606656000000001
 30
0.0
  0
VERTEX
  5
245
  8
001
 10
120.497452
 20
32.613337000000001
 30
0.0
  0
VERTEX
  5
246
  8
001
 10
120.254694
 20
32.612935
 30
0.0
  0
VERTEX
  5
247
  8
001
 10
120.012056
 20
32.605344000000002
 30
0.0
  0
VERTEX
  5
248
  8
001
 10
119.756038
 20
32.589416999999997
 30
0.0
  0
VERTEX
  5
249
  8
001
 10
119.50063299999999
 20
32.565536999999999
 30
0.0
  0
VERTEX
  5
24A
  8
001
 10
119.246624
 20
32.533993000000002
 30
0.0
  0
VERTEX
  5
24B
  8
001
 10
118.99367700000001
 20
32.494866000000002
 30
0.0
  0
VERTEX
  5
24C
  8
001
 10
118.74429000000001
 20
32.448726000000001
 30
0.0
  0
VERTEX
  5
24D
  8
001
 10
118.49632699999999
 20
32.395398
 30
0.0
  0
VERTEX
  5
24E
  8
001
 10
118.254046
 20
32.335974999999998
 30
0.0
  0
VERTEX
  5
24F
  8
001
 10
118.01372000000001
 20
32.269198000000003
 30
0.0
  0
VERTEX
  5
250
  8
001
 10
117.94535500000001
 20
32.248716000000002
 30
0.0
  0
VERTEX
  5
251
  8
001
 10
117.877088
 20
32.227909999999987
 30
0.0
  0
SEQEND
  5
230
  8
001
  0
POLYLINE
  5
252
  8
001
 66
     1
 10
0.0
 20
0.0
 30
0.0
  0
VERTEX
  5
254
  8
001
 10
124.74292800000001
 20
32.406298999999997
 30
0.0
  0
VERTEX
  5
255
  8
001
 10
124.781228
 20
32.320706000000001
 30
0.0
  0
VERTEX
  5
256
  8
001
 10
124.820797
 20
32.235711000000002
 30
0.0
  0
VERTEX
  5
257
  8
001
 10
124.87401699999999
 20
32.130074
 30
0.0
  0
VERTEX
  5
258
  8
001
 10
124.930975
 20
32.026376999999997
 30
0.0
  0
VERTEX
  5
259
  8
001
 10
124.98702400000001
 20
31.931925
 30
0.0
  0
VERTEX
  5
25A
  8
001
 10
125.04631500000001
 20
31.839487999999999
 30
0.0
  0
VERTEX
  5
25B
  8
001
 10
125.104062
 20
31.756357999999999
 30
0.0
  0
VERTEX
  5
25C
  8
001
 10
125.164963
 20
31.675505000000001
 30
0.0
  0
VERTEX
  5
25D
  8
001
 10
125.225008
 20
31.602135000000001
 30
0.0
  0
VERTEX
  5
25E
  8
001
 10
125.28812499999999
 20
31.531403000000001
 30
0.0
  0
VERTEX
  5
25F
  8
001
 10
125.347995
 20
31.470041999999999
 30
0.0
  0
VERTEX
  5
260
  8
001
 10
125.41069899999999
 20
31.411553999999999
 30
0.0
  0
VERTEX
  5
261
  8
001
 10
125.46910099999999
 20
31.362287999999999
 30
0.0
  0
VERTEX
  5
262
  8
001
 10
125.530103
 20
31.316382999999998
 30
0.0
  0
VERTEX
  5
263
  8
001
 10
125.599436
 20
31.271277000000001
 30
0.0
  0
VERTEX
  5
264
  8
001
 10
125.672466
 20
31.231898000000001
 30
0.0
  0
VERTEX
  5
265
  8
001
 10
125.734942
 20
31.205359000000001
 30
0.0
  0
VERTEX
  5
266
  8
001
 10
125.800012
 20
31.187906000000002
 30
0.0
  0
VERTEX
  5
267
  8
001
 10
125.831304
 20
31.183851000000001
 30
0.0
  0
VERTEX
  5
268
  8
001
 10
125.862866
 20
31.181307
 30
0.0
  0
SEQEND
  5
253
  8
001
  0
POLYLINE
  5
269
  8
001
 66
     1
 10
0.0
 20
0.0
 30
0.0
  0
VERTEX
  5
26B
  8
001
 10
120.836552
 20
35.759194999999998
 30
0.0
  0
VERTEX
  5
26C
  8
001
 10
121.03819
 20
35.690197999999988
 30
0.0
  0
VERTEX
  5
26D
  8
001
 10
121.238134
 20
35.616723
 30
0.0
  0
VERTEX
  5
26E
  8
001
 10
121.433122
 20
35.536104999999999
 30
0.0
  0
VERTEX
  5
26F
  8
001
 10
121.62499099999999
 20
35.448138
 30
0.0
  0
VERTEX
  5
270
  8
001
 10
121.809624
 20
35.356208000000002
 30
0.0
  0
VERTEX
  5
271
  8
001
 10
121.99126699999999
 20
35.258571000000003
 30
0.0
  0
VERTEX
  5
272
  8
001
 10
122.16754899999999
 20
35.156548000000001
 30
0.0
  0
VERTEX
  5
273
  8
001
 10
122.34066300000001
 20
35.049213000000002
 30
0.0
  0
VERTEX
  5
274
  8
001
 10
122.50749
 20
34.93893400000001
 30
0.0
  0
VERTEX
  5
275
  8
001
 10
122.671109
 20
34.823958000000012
 30
0.0
  0
VERTEX
  5
276
  8
001
 10
122.827448
 20
34.707452000000004
 30
0.0
  0
VERTEX
  5
277
  8
001
 10
122.980535
 20
34.586702000000002
 30
0.0
  0
VERTEX
  5
278
  8
001
 10
123.143422
 20
34.450521000000002
 30
0.0
  0
VERTEX
  5
279
  8
001
 10
123.302249
 20
34.309623000000002
 30
0.0
  0
VERTEX
  5
27A
  8
001
 10
123.451939
 20
34.16901
 30
0.0
  0
VERTEX
  5
27B
  8
001
 10
123.59763100000001
 20
34.024261000000003
 30
0.0
  0
VERTEX
  5
27C
  8
001
 10
123.733289
 20
33.881830999999998
 30
0.0
  0
VERTEX
  5
27D
  8
001
 10
123.86497199999999
 20
33.735723
 30
0.0
  0
VERTEX
  5
27E
  8
001
 10
123.985753
 20
33.594068
 30
0.0
  0
VERTEX
  5
27F
  8
001
 10
124.102563
 20
33.449117999999999
 30
0.0
  0
VERTEX
  5
280
  8
001
 10
124.206383
 20
33.312697999999997
 30
0.0
  0
VERTEX
  5
281
  8
001
 10
124.306273
 20
33.173392
 30
0.0
  0
VERTEX
  5
282
  8
001
 10
124.39584000000001
 20
33.040471999999987
 30
0.0
  0
VERTEX
  5
283
  8
001
 10
124.481593
 20
32.905021000000012
 30
0.0
  0
VERTEX
  5
284
  8
001
 10
124.55697000000001
 20
32.777845999999997
 30
0.0
  0
VERTEX
  5
285
  8
001
 10
124.62748999999999
 20
32.647993999999997
 30
0.0
  0
VERTEX
  5
286
  8
001
 10
124.686528
 20
32.527813999999999
 30
0.0
  0
VERTEX
  5
287
  8
001
 10
124.74292800000001
 20
32.406298999999997
 30
0.0
  0
SEQEND
  5
26A
  8
001
  0
LINE
  5
288
  8
001
 10
120.453552
 20
35.895634000000001
 30
0.0
 11
120.836552
 21
35.759194999999998
 31
0.0
  0
LINE
  5
289
  8
001
 10
120.07055200000001
 20
36.033347999999997
 30
0.0
 11
120.453552
 21
35.895634000000001
 31
0.0
  0
LINE
  5
28A
  8
001
 10
119.687552
 20
36.172294999999998
 30
0.0
 11
120.07055200000001
 21
36.033347999999997
 31
0.0
  0
LINE
  5
28B
  8
001
 10
119.304552
 20
36.312432999999999
 30
0.0
 11
119.687552
 21
36.172294999999998
 31
0.0
  0
LINE
  5
28C
  8
001
 10
118.92155200000001
 20
36.453718000000002
 30
0.0
 11
119.304552
 21
36.312432999999999
 31
0.0
  0
LINE
  5
28D
  8
001
 10
118.538552
 20
36.596108999999998
 30
0.0
 11
118.92155200000001
 21
36.453718000000002
 31
0.0
  0
LINE
  5
28E
  8
001
 10
118.155552
 20
36.739561999999999
 30
0.0
 11
118.538552
 21
36.596108999999998
 31
0.0
  0
LINE
  5
28F
  8
001
 10
117.772552
 20
36.884031999999998
 30
0.0
 11
118.155552
 21
36.739561999999999
 31
0.0
  0
LINE
  5
290
  8
001
 10
117.38955199999999
 20
37.029477
 30
0.0
 11
117.772552
 21
36.884031999999998
 31
0.0
  0
LINE
  5
291
  8
001
 10
117.006552
 20
37.175849999999997
 30
0.0
 11
117.38955199999999
 21
37.029477
 31
0.0
  0
LINE
  5
292
  8
001
 10
116.623552
 20
37.323109000000002
 30
0.0
 11
117.006552
 21
37.175849999999997
 31
0.0
  0
LINE
  5
293
  8
001
 10
116.24055199999999
 20
37.471209000000002
 30
0.0
 11
116.623552
 21
37.323109000000002
 31
0.0
  0
LINE
  5
294
  8
001
 10
115.857552
 20
37.620103
 30
0.0
 11
116.24055199999999
 21
37.471209000000002
 31
0.0
  0
LINE
  5
295
  8
001
 10
115.474552
 20
37.769747000000002
 30
0.0
 11
115.857552
 21
37.620103
 31
0.0
  0
LINE
  5
296
  8
001
 10
115.09155199999999
 20
37.920095000000011
 30
0.0
 11
115.474552
 21
37.769747000000002
 31
0.0
  0
LINE
  5
297
  8
001
 10
114.708552
 20
38.071100999999999
 30
0.0
 11
115.09155199999999
 21
37.920095000000011
 31
0.0
  0
LINE
  5
298
  8
001
 10
114.325552
 20
38.222720000000002
 30
0.0
 11
114.708552
 21
38.071100999999999
 31
0.0
  0
LINE
  5
299
  8
001
 10
113.94255200000001
 20
38.374904999999998
 30
0.0
 11
114.325552
 21
38.222720000000002
 31
0.0
  0
LINE
  5
29A
  8
001
 10
113.559552
 20
38.527609000000012
 30
0.0
 11
113.94255200000001
 21
38.374904999999998
 31
0.0
  0
LINE
  5
29B
  8
001
 10
113.176552
 20
38.680787000000002
 30
0.0
 11
113.559552
 21
38.527609000000012
 31
0.0
  0
LINE
  5
29C
  8
001
 10
112.79355200000001
 20
38.834392000000001
 30
0.0
 11
113.176552
 21
38.680787000000002
 31
0.0
  0
LINE
  5
29D
  8
001
 10
112.410552
 20
38.988376000000002
 30
0.0
 11
112.79355200000001
 21
38.834392000000001
 31
0.0
  0
LINE
  5
29E
  8
001
 10
112.027552
 20
39.142693000000001
 30
0.0
 11
112.410552
 21
38.988376000000002
 31
0.0
  0
LINE
  5
29F
  8
001
 10
111.644552
 20
39.297297
 30
0.0
 11
112.027552
 21
39.142693000000001
 31
0.0
  0
LINE
  5
2A0
  8
001
 10
111.26155199999999
 20
39.452137999999998
 30
0.0
 11
111.644552
 21
39.297297
 31
0.0
  0
LINE
  5
2A1
  8
001
 10
110.878552
 20
39.607171999999998
 30
0.0
 11
111.26155199999999
 21
39.452137999999998
 31
0.0
  0
LINE
  5
2A2
  8
001
 10
110.11255199999999
 20
39.917625000000001
 30
0.0
 11
110.495552
 21
39.762349999999998
 31
0.0
  0
LINE
  5
2A3
  8
001
 10
109.729552
 20
40.072949999999999
 30
0.0
 11
110.11255199999999
 21
39.917625000000001
 31
0.0
  0
LINE
  5
2A4
  8
001
 10
109.39836200000001
 20
40.209330999999992
 30
0.0
 11
109.729552
 21
40.072949999999999
 31
0.0
  0
ARC
  5
2A5
  8
001
 10
125.987571
 20
48.481307000000001
 30
0.0
 40
0.5000000000000006
 50
0.0
 51
90.0
  0
ARC
  5
2A6
  8
001
 10
125.987571
 20
31.681307
 30
0.0
 40
0.5000000000000006
 50
270.0
 51
0.0
  0
LINE
  5
2A7
  8
001
 10
126.487571
 20
48.481307000000001
 30
0.0
 11
126.487571
 21
31.681307
 31
0.0
  0
LINE
  5
2A8
  8
001
 10
109.34553699999999
 20
40.268988
 30
0.0
 11
109.39836200000001
 21
40.209330999999992
 31
0.0
  0
LINE
  5
2A9
  8
001
 10
109.39836200000001
 20
48.981307000000001
 30
0.0
 11
106.88757099999999
 21
46.381307
 31
0.0
  0
POLYLINE
  5
2AA
  8
001
 66
     1
 10
0.0
 20
0.0
 30
0.0
  0
VERTEX
  5
2AC
  8
001
 10
108.94752200000001
 20
40.697522999999997
 30
0.0
  0
VERTEX
  5
2AD
  8
001
 10
109.049548
 20
40.596032999999998
 30
0.0
  0
VERTEX
  5
2AE
  8
001
 10
109.149356
 20
40.49248
 30
0.0
  0
VERTEX
  5
2AF
  8
001
 10
109.248631
 20
40.381835999999993
 30
0.0
  0
VERTEX
  5
2B0
  8
001
 10
109.34553699999999
 20
40.268988
 30
0.0
  0
SEQEND
  5
2AB
  8
001
  0
POLYLINE
  5
2B1
  8
001
 66
     1
 10
0.0
 20
0.0
 30
0.0
  0
VERTEX
  5
2B3
  8
001
 10
108.536322
 20
41.07515699999999
 30
0.0
  0
VERTEX
  5
2B4
  8
001
 10
108.651432
 20
40.978102999999997
 30
0.0
  0
VERTEX
  5
2B5
  8
001
 10
108.76390600000001
 20
40.878192999999989
 30
0.0
  0
VERTEX
  5
2B6
  8
001
 10
108.856679
 20
40.788903999999988
 30
0.0
  0
VERTEX
  5
2B7
  8
001
 10
108.94752200000001
 20
40.697522999999997
 30
0.0
  0
SEQEND
  5
2B2
  8
001
  0
POLYLINE
  5
2B8
  8
001
 66
     1
 10
0.0
 20
0.0
 30
0.0
  0
VERTEX
  5
2BA
  8
001
 10
108.111987
 20
41.399097999999988
 30
0.0
  0
VERTEX
  5
2BB
  8
001
 10
108.220358
 20
41.324576
 30
0.0
  0
VERTEX
  5
2BC
  8
001
 10
108.32662000000001
 20
41.24728799999999
 30
0.0
  0
VERTEX
  5
2BD
  8
001
 10
108.43259399999999
 20
41.162694999999999
 30
0.0
  0
VERTEX
  5
2BE
  8
001
 10
108.536322
 20
41.07515699999999
 30
0.0
  0
SEQEND
  5
2B9
  8
001
  0
POLYLINE
  5
2BF
  8
001
 66
     1
 10
0.0
 20
0.0
 30
0.0
  0
VERTEX
  5
2C1
  8
001
 10
107.67457
 20
41.666719999999998
 30
0.0
  0
VERTEX
  5
2C2
  8
001
 10
107.78603
 20
41.606664000000002
 30
0.0
  0
VERTEX
  5
2C3
  8
001
 10
107.895555
 20
41.543441999999992
 30
0.0
  0
VERTEX
  5
2C4
  8
001
 10
108.004794
 20
41.472943000000001
 30
0.0
  0
VERTEX
  5
2C5
  8
001
 10
108.111987
 20
41.399097999999988
 30
0.0
  0
SEQEND
  5
2C0
  8
001
  0
POLYLINE
  5
2C6
  8
001
 66
     1
 10
0.0
 20
0.0
 30
0.0
  0
VERTEX
  5
2C8
  8
001
 10
107.224138
 20
41.875597999999989
 30
0.0
  0
VERTEX
  5
2C9
  8
001
 10
107.338611
 20
41.830578000000003
 30
0.0
  0
VERTEX
  5
2CA
  8
001
 10
107.45143299999999
 20
41.78199399999999
 30
0.0
  0
VERTEX
  5
2CB
  8
001
 10
107.563863
 20
41.726217999999989
 30
0.0
  0
VERTEX
  5
2CC
  8
001
 10
107.67457
 20
41.666719999999998
 30
0.0
  0
SEQEND
  5
2C7
  8
001
  0
LINE
  5
2CD
  8
001
 10
106.88757099999999
 20
41.992251999999993
 30
0.0
 11
107.224138
 21
41.875597999999989
 31
0.0
  0
ARC
  5
2CE
  8
001
 10
203.487571
 20
45.081307000000002
 30
0.0
 40
3.0000000000000031
 50
0.0
 51
90.0
  0
ARC
  5
2CF
  8
001
 10
203.487571
 20
35.08130700000001
 30
0.0
 40
3.0000000000000031
 50
270.0
 51
0.0
  0
LINE
  5
2D0
  8
001
 10
206.487571
 20
45.081307000000002
 30
0.0
 11
206.487571
 21
35.08130700000001
 31
0.0
  0
LINE
  5
2D1
  8
001
 10
203.487571
 20
48.081307000000002
 30
0.0
 11
126.487571
 21
48.081307000000002
 31
0.0
  0
LINE
  5
2D2
  8
001
 10
126.487571
 20
32.081307000000002
 30
0.0
 11
203.487571
 21
32.081307000000002
 31
0.0
  0
POLYLINE
  5
2D3
  8
001
 66
     1
 10
0.0
 20
0.0
 30
0.0
  0
VERTEX
  5
2D5
  8
001
 10
106.783821
 20
42.017964999999997
 30
0.0
  0
VERTEX
  5
2D6
  8
001
 10
106.781296
 20
42.018745000000003
 30
0.0
  0
VERTEX
  5
2D7
  8
001
 10
106.77758799999999
 20
42.019820000000003
 30
0.0
  0
VERTEX
  5
2D8
  8
001
 10
106.773854
 20
42.020803000000001
 30
0.0
  0
VERTEX
  5
2D9
  8
001
 10
106.771288
 20
42.021430000000002
 30
0.0
  0
SEQEND
  5
2D4
  8
001
  0
LINE
  5
2DA
  8
001
 10
106.783821
 20
42.017964999999997
 30
0.0
 11
106.88757099999999
 21
41.992251999999993
 31
0.0
  0
POLYLINE
  5
2DB
  8
001
 66
     1
 10
0.0
 20
0.0
 30
0.0
  0
VERTEX
  5
2DD
  8
001
 10
104.87131100000001
 20
37.840845999999999
 30
0.0
  0
VERTEX
  5
2DE
  8
001
 10
104.87125899999999
 20
37.840439000000003
 30
0.0
  0
VERTEX
  5
2DF
  8
001
 10
104.871182
 20
37.839845000000011
 30
0.0
  0
VERTEX
  5
2E0
  8
001
 10
104.871105
 20
37.839251000000012
 30
0.0
  0
VERTEX
  5
2E1
  8
001
 10
104.87105200000001
 20
37.838844000000002
 30
0.0
  0
SEQEND
  5
2DC
  8
001
  0
POLYLINE
  5
2E2
  8
001
 66
     1
 10
0.0
 20
0.0
 30
0.0
  0
VERTEX
  5
2E4
  8
001
 10
104.87131100000001
 20
37.840845999999999
 30
0.0
  0
VERTEX
  5
2E5
  8
001
 10
104.93871900000001
 20
37.919719000000001
 30
0.0
  0
VERTEX
  5
2E6
  8
001
 10
105.002258
 20
38.001486
 30
0.0
  0
VERTEX
  5
2E7
  8
001
 10
105.05801099999999
 20
38.087007999999997
 30
0.0
  0
VERTEX
  5
2E8
  8
001
 10
105.106799
 20
38.176864000000002
 30
0.0
  0
VERTEX
  5
2E9
  8
001
 10
105.15088
 20
38.274496999999997
 30
0.0
  0
VERTEX
  5
2EA
  8
001
 10
105.18744599999999
 20
38.375117000000003
 30
0.0
  0
VERTEX
  5
2EB
  8
001
 10
105.215549
 20
38.476137000000001
 30
0.0
  0
VERTEX
  5
2EC
  8
001
 10
105.23572
 20
38.579058000000011
 30
0.0
  0
VERTEX
  5
2ED
  8
001
 10
105.248048
 20
38.688153999999997
 30
0.0
  0
VERTEX
  5
2EE
  8
001
 10
105.251153
 20
38.797888
 30
0.0
  0
VERTEX
  5
2EF
  8
001
 10
105.245088
 20
38.905256999999999
 30
0.0
  0
VERTEX
  5
2F0
  8
001
 10
105.230053
 20
39.011759999999988
 30
0.0
  0
VERTEX
  5
2F1
  8
001
 10
105.216069
 20
39.077432000000002
 30
0.0
  0
VERTEX
  5
2F2
  8
001
 10
105.198081
 20
39.142041999999996
 30
0.0
  0
VERTEX
  5
2F3
  8
001
 10
105.176205
 20
39.204849000000003
 30
0.0
  0
VERTEX
  5
2F4
  8
001
 10
105.152089
 20
39.266917999999997
 30
0.0
  0
SEQEND
  5
2E3
  8
001
  0
LINE
  5
2F5
  8
001
 10
106.88757099999999
 20
46.381307
 30
0.0
 11
99.687570999999991
 21
46.381307
 31
0.0
  0
LINE
  5
2F6
  8
001
 10
106.40082099999999
 20
42.122295999999992
 30
0.0
 11
106.528114
 21
42.090654000000001
 31
0.0
  0
LINE
  5
2F7
  8
001
 10
106.017821
 20
42.226005999999991
 30
0.0
 11
106.40082099999999
 21
42.122295999999992
 31
0.0
  0
LINE
  5
2F8
  8
001
 10
105.634821
 20
42.329062
 30
0.0
 11
106.017821
 21
42.226005999999991
 31
0.0
  0
LINE
  5
2F9
  8
001
 10
105.25182100000001
 20
42.431434000000003
 30
0.0
 11
105.634821
 21
42.329062
 31
0.0
  0
LINE
  5
2FA
  8
001
 10
104.868821
 20
42.533088999999997
 30
0.0
 11
105.25182100000001
 21
42.431434000000003
 31
0.0
  0
LINE
  5
2FB
  8
001
 10
104.485821
 20
42.633997999999998
 30
0.0
 11
104.868821
 21
42.533088999999997
 31
0.0
  0
LINE
  5
2FC
  8
001
 10
104.10282100000001
 20
42.73413
 30
0.0
 11
104.485821
 21
42.633997999999998
 31
0.0
  0
LINE
  5
2FD
  8
001
 10
103.719821
 20
42.833452999999999
 30
0.0
 11
104.10282100000001
 21
42.73413
 31
0.0
  0
LINE
  5
2FE
  8
001
 10
103.336821
 20
42.931938000000002
 30
0.0
 11
103.719821
 21
42.833452999999999
 31
0.0
  0
LINE
  5
2FF
  8
001
 10
102.953821
 20
43.029553999999997
 30
0.0
 11
103.336821
 21
42.931938000000002
 31
0.0
  0
LINE
  5
300
  8
001
 10
102.570821
 20
43.126272999999991
 30
0.0
 11
102.953821
 21
43.029553999999997
 31
0.0
  0
LINE
  5
301
  8
001
 10
102.187821
 20
43.222064000000003
 30
0.0
 11
102.570821
 21
43.126272999999991
 31
0.0
  0
LINE
  5
302
  8
001
 10
101.804821
 20
43.316897999999988
 30
0.0
 11
102.187821
 21
43.222064000000003
 31
0.0
  0
LINE
  5
303
  8
001
 10
101.42182099999999
 20
43.410746000000003
 30
0.0
 11
101.804821
 21
43.316897999999988
 31
0.0
  0
LINE
  5
304
  8
001
 10
101.038821
 20
43.503580999999997
 30
0.0
 11
101.42182099999999
 21
43.410746000000003
 31
0.0
  0
LINE
  5
305
  8
001
 10
100.655821
 20
43.595372999999988
 30
0.0
 11
101.038821
 21
43.503580999999997
 31
0.0
  0
LINE
  5
306
  8
001
 10
100.27282099999999
 20
43.68609399999999
 30
0.0
 11
100.655821
 21
43.595372999999988
 31
0.0
  0
LINE
  5
307
  8
001
 10
99.889821000000012
 20
43.775717999999998
 30
0.0
 11
100.27282099999999
 21
43.68609399999999
 31
0.0
  0
LINE
  5
308
  8
001
 10
99.687570999999991
 20
43.825425000000003
 30
0.0
 11
99.889821000000012
 21
43.775717999999998
 31
0.0
  0
LINE
  5
309
  8
001
 10
104.63728999999999
 20
33.84253300000001
 30
0.0
 11
104.409177
 21
33.834178000000001
 31
0.0
  0
POLYLINE
  5
30A
  8
001
 66
     1
 10
0.0
 20
0.0
 30
0.0
  0
VERTEX
  5
30C
  8
001
 10
105.02029
 20
33.858775000000001
 30
0.0
  0
VERTEX
  5
30D
  8
001
 10
104.924357
 20
33.854883000000001
 30
0.0
  0
VERTEX
  5
30E
  8
001
 10
104.828427
 20
33.850895000000001
 30
0.0
  0
VERTEX
  5
30F
  8
001
 10
104.732857
 20
33.846761999999998
 30
0.0
  0
VERTEX
  5
310
  8
001
 10
104.63728999999999
 20
33.84253300000001
 30
0.0
  0
SEQEND
  5
30B
  8
001
  0
LINE
  5
311
  8
001
 10
105.40329
 20
33.876911999999997
 30
0.0
 11
105.02029
 21
33.858775000000001
 31
0.0
  0
LINE
  5
312
  8
001
 10
105.78628999999999
 20
33.89693900000001
 30
0.0
 11
105.40329
 21
33.876911999999997
 31
0.0
  0
LINE
  5
313
  8
001
 10
106.16929
 20
33.918849999999999
 30
0.0
 11
105.78628999999999
 21
33.89693900000001
 31
0.0
  0
LINE
  5
314
  8
001
 10
106.528114
 20
42.090654000000001
 30
0.0
 11
106.783821
 21
42.017964999999997
 31
0.0
  0
POLYLINE
  5
315
  8
001
 66
     1
 10
0.0
 20
0.0
 30
0.0
  0
VERTEX
  5
317
  8
001
 10
104.54412600000001
 20
39.846651999999999
 30
0.0
  0
VERTEX
  5
318
  8
001
 10
104.457823
 20
39.874957999999999
 30
0.0
  0
VERTEX
  5
319
  8
001
 10
104.37042599999999
 20
39.898310000000002
 30
0.0
  0
VERTEX
  5
31A
  8
001
 10
104.288195
 20
39.912528000000002
 30
0.0
  0
VERTEX
  5
31B
  8
001
 10
104.205033
 20
39.922528999999997
 30
0.0
  0
SEQEND
  5
316
  8
001
  0
LINE
  5
31C
  8
001
 10
104.205033
 20
39.922528999999997
 30
0.0
 11
104.10488100000001
 21
39.926355999999998
 31
0.0
  0
POLYLINE
  5
31D
  8
001
 66
     1
 10
0.0
 20
0.0
 30
0.0
  0
VERTEX
  5
31F
  8
001
 10
103.80200600000001
 20
39.891366999999988
 30
0.0
  0
VERTEX
  5
320
  8
001
 10
103.731436
 20
39.872731000000002
 30
0.0
  0
VERTEX
  5
321
  8
001
 10
103.661798
 20
39.851428000000013
 30
0.0
  0
VERTEX
  5
322
  8
001
 10
103.57565200000001
 20
39.817985999999998
 30
0.0
  0
VERTEX
  5
323
  8
001
 10
103.491007
 20
39.780246000000012
 30
0.0
  0
SEQEND
  5
31E
  8
001
  0
POLYLINE
  5
324
  8
001
 66
     1
 10
0.0
 20
0.0
 30
0.0
  0
VERTEX
  5
326
  8
001
 10
103.367069
 20
39.773815999999997
 30
0.0
  0
VERTEX
  5
327
  8
001
 10
103.392252
 20
39.775048999999989
 30
0.0
  0
VERTEX
  5
328
  8
001
 10
103.429053
 20
39.776915000000002
 30
0.0
  0
VERTEX
  5
329
  8
001
 10
103.465839
 20
39.778866999999998
 30
0.0
  0
VERTEX
  5
32A
  8
001
 10
103.491007
 20
39.780246000000012
 30
0.0
  0
SEQEND
  5
325
  8
001
  0
POLYLINE
  5
32B
  8
001
 66
     1
 10
0.0
 20
0.0
 30
0.0
  0
VERTEX
  5
32D
  8
001
 10
102.968476
 20
39.750444999999999
 30
0.0
  0
VERTEX
  5
32E
  8
001
 10
103.049566
 20
39.754460000000002
 30
0.0
  0
VERTEX
  5
32F
  8
001
 10
103.168046
 20
39.760962999999997
 30
0.0
  0
VERTEX
  5
330
  8
001
 10
103.286232
 20
39.768335999999998
 30
0.0
  0
VERTEX
  5
331
  8
001
 10
103.367069
 20
39.773815999999997
 30
0.0
  0
SEQEND
  5
32C
  8
001
  0
POLYLINE
  5
332
  8
001
 66
     1
 10
0.0
 20
0.0
 30
0.0
  0
VERTEX
  5
334
  8
001
 10
102.570446
 20
39.727718000000003
 30
0.0
  0
VERTEX
  5
335
  8
001
 10
102.65140599999999
 20
39.731621000000011
 30
0.0
  0
VERTEX
  5
336
  8
001
 10
102.7697
 20
39.737943999999999
 30
0.0
  0
VERTEX
  5
337
  8
001
 10
102.887739
 20
39.745115999999989
 30
0.0
  0
VERTEX
  5
338
  8
001
 10
102.968476
 20
39.750444999999999
 30
0.0
  0
SEQEND
  5
333
  8
001
  0
POLYLINE
  5
339
  8
001
 66
     1
 10
0.0
 20
0.0
 30
0.0
  0
VERTEX
  5
33B
  8
001
 10
102.172921
 20
39.705585999999997
 30
0.0
  0
VERTEX
  5
33C
  8
001
 10
102.253766
 20
39.709386000000002
 30
0.0
  0
VERTEX
  5
33D
  8
001
 10
102.371892
 20
39.715541000000002
 30
0.0
  0
VERTEX
  5
33E
  8
001
 10
102.48979799999999
 20
39.722526999999999
 30
0.0
  0
VERTEX
  5
33F
  8
001
 10
102.570446
 20
39.727718000000003
 30
0.0
  0
SEQEND
  5
33A
  8
001
  0
POLYLINE
  5
340
  8
001
 66
     1
 10
0.0
 20
0.0
 30
0.0
  0
VERTEX
  5
342
  8
001
 10
101.775851
 20
39.684007999999999
 30
0.0
  0
VERTEX
  5
343
  8
001
 10
101.85659200000001
 20
39.687711
 30
0.0
  0
VERTEX
  5
344
  8
001
 10
101.974568
 20
39.693711
 30
0.0
  0
VERTEX
  5
345
  8
001
 10
102.092354
 20
39.700522999999997
 30
0.0
  0
VERTEX
  5
346
  8
001
 10
102.172921
 20
39.705585999999997
 30
0.0
  0
SEQEND
  5
341
  8
001
  0
POLYLINE
  5
347
  8
001
 66
     1
 10
0.0
 20
0.0
 30
0.0
  0
VERTEX
  5
349
  8
001
 10
101.379189
 20
39.662947000000003
 30
0.0
  0
VERTEX
  5
34A
  8
001
 10
101.459836
 20
39.666558999999999
 30
0.0
  0
VERTEX
  5
34B
  8
001
 10
101.57767699999999
 20
39.672414000000011
 30
0.0
  0
VERTEX
  5
34C
  8
001
 10
101.695356
 20
39.679063999999997
 30
0.0
  0
VERTEX
  5
34D
  8
001
 10
101.775851
 20
39.684007999999999
 30
0.0
  0
SEQEND
  5
348
  8
001
  0
LINE
  5
34E
  8
001
 10
101.10952899999999
 20
39.648034000000003
 30
0.0
 11
100.9811
 21
39.637197
 31
0.0
  0
POLYLINE
  5
34F
  8
001
 66
     1
 10
0.0
 20
0.0
 30
0.0
  0
VERTEX
  5
351
  8
001
 10
101.10952899999999
 20
39.648034000000003
 30
0.0
  0
VERTEX
  5
352
  8
001
 10
101.164345
 20
39.650761000000003
 30
0.0
  0
VERTEX
  5
353
  8
001
 10
101.24444699999999
 20
39.655009
 30
0.0
  0
VERTEX
  5
354
  8
001
 10
101.324456
 20
39.659616
 30
0.0
  0
VERTEX
  5
355
  8
001
 10
101.379189
 20
39.662947000000003
 30
0.0
  0
SEQEND
  5
350
  8
001
  0
POLYLINE
  5
356
  8
001
 66
     1
 10
0.0
 20
0.0
 30
0.0
  0
VERTEX
  5
358
  8
001
 10
100.9811
 20
39.637197
 30
0.0
  0
VERTEX
  5
359
  8
001
 10
100.885831
 20
39.620439000000012
 30
0.0
  0
VERTEX
  5
35A
  8
001
 10
100.791228
 20
39.600615000000012
 30
0.0
  0
VERTEX
  5
35B
  8
001
 10
100.696904
 20
39.57498300000001
 30
0.0
  0
VERTEX
  5
35C
  8
001
 10
100.604242
 20
39.543787000000002
 30
0.0
  0
VERTEX
  5
35D
  8
001
 10
100.578807
 20
39.534250999999998
 30
0.0
  0
VERTEX
  5
35E
  8
001
 10
100.553448
 20
39.524526000000002
 30
0.0
  0
SEQEND
  5
357
  8
001
  0
POLYLINE
  5
35F
  8
001
 66
     1
 10
0.0
 20
0.0
 30
0.0
  0
VERTEX
  5
361
  8
001
 10
100.553448
 20
39.524526000000002
 30
0.0
  0
VERTEX
  5
362
  8
001
 10
100.425712
 20
39.465144000000002
 30
0.0
  0
VERTEX
  5
363
  8
001
 10
100.302018
 20
39.398999000000003
 30
0.0
  0
VERTEX
  5
364
  8
001
 10
100.182345
 20
39.319590000000012
 30
0.0
  0
VERTEX
  5
365
  8
001
 10
100.06690999999999
 20
39.233090000000011
 30
0.0
  0
SEQEND
  5
360
  8
001
  0
POLYLINE
  5
366
  8
001
 66
     1
 10
0.0
 20
0.0
 30
0.0
  0
VERTEX
  5
368
  8
001
 10
100.06690999999999
 20
39.233090000000011
 30
0.0
  0
VERTEX
  5
369
  8
001
 10
100.03812499999999
 20
39.208311000000002
 30
0.0
  0
VERTEX
  5
36A
  8
001
 10
100.00973500000001
 20
39.183107
 30
0.0
  0
VERTEX
  5
36B
  8
001
 10
99.960701999999998
 20
39.136363000000003
 30
0.0
  0
VERTEX
  5
36C
  8
001
 10
99.912924000000004
 20
39.088262999999998
 30
0.0
  0
SEQEND
  5
367
  8
001
  0
LINE
  5
36D
  8
001
 10
99.564295999999985
 20
43.135210000000001
 30
0.0
 11
99.687570999999991
 21
43.187846999999998
 31
0.0
  0
LINE
  5
36E
  8
001
 10
99.687570999999991
 20
44.924331000000002
 30
0.0
 11
98.887570999999994
 21
44.081307000000002
 31
0.0
  0
POLYLINE
  5
36F
  8
001
 66
     1
 10
0.0
 20
0.0
 30
0.0
  0
VERTEX
  5
371
  8
001
 10
99.048778000000013
 20
42.886153
 30
0.0
  0
VERTEX
  5
372
  8
001
 10
99.177313999999996
 20
42.95497499999999
 30
0.0
  0
VERTEX
  5
373
  8
001
 10
99.307321000000002
 20
43.020744999999991
 30
0.0
  0
VERTEX
  5
374
  8
001
 10
99.435123000000004
 20
43.079399000000002
 30
0.0
  0
VERTEX
  5
375
  8
001
 10
99.564295999999985
 20
43.135210000000001
 30
0.0
  0
SEQEND
  5
370
  8
001
  0
LINE
  5
376
  8
001
 10
98.887570999999994
 20
42.798615999999988
 30
0.0
 11
99.048778000000013
 21
42.886153
 31
0.0
  0
POLYLINE
  5
377
  8
001
 66
     1
 10
0.0
 20
0.0
 30
0.0
  0
VERTEX
  5
379
  8
001
 10
104.10488100000001
 20
39.926355999999998
 30
0.0
  0
VERTEX
  5
37A
  8
001
 10
104.056157
 20
39.925206000000003
 30
0.0
  0
VERTEX
  5
37B
  8
001
 10
104.007558
 20
39.922732000000011
 30
0.0
  0
VERTEX
  5
37C
  8
001
 10
103.90449700000001
 20
39.910066
 30
0.0
  0
VERTEX
  5
37D
  8
001
 10
103.80200600000001
 20
39.891366999999988
 30
0.0
  0
SEQEND
  5
378
  8
001
  0
POLYLINE
  5
37E
  8
001
  6
DASHED
 66
     1
 10
0.0
 20
0.0
 30
0.0
  0
VERTEX
  5
380
  8
001
  6
DASHED
 10
103.803038
 20
39.885413
 30
0.0
  0
VERTEX
  5
381
  8
001
  6
DASHED
 10
103.79902199999999
 20
39.886474999999997
 30
0.0
  0
VERTEX
  5
382
  8
001
  6
DASHED
 10
103.79314599999999
 20
39.888005
 30
0.0
  0
VERTEX
  5
383
  8
001
  6
DASHED
 10
103.787262
 20
39.889503000000012
 30
0.0
  0
VERTEX
  5
384
  8
001
  6
DASHED
 10
103.783233
 20
39.890512999999999
 30
0.0
  0
SEQEND
  5
37F
  8
001
  6
DASHED
  0
LINE
  5
385
  8
001
 10
99.687570999999991
 20
43.187846999999998
 30
0.0
 11
99.687570999999991
 21
46.381307
 31
0.0
  0
LINE
  5
386
  8
001
 10
98.887570999999994
 20
38.714015000000011
 30
0.0
 11
98.887570999999994
 21
44.081307000000002
 31
0.0
  0
POLYLINE
  5
387
  8
001
 66
     1
 10
0.0
 20
0.0
 30
0.0
  0
VERTEX
  5
389
  8
001
 10
99.553293000000025
 20
38.714015000000011
 30
0.0
  0
VERTEX
  5
38A
  8
001
 10
99.628139000000004
 20
38.791141000000003
 30
0.0
  0
VERTEX
  5
38B
  8
001
 10
99.730772999999985
 20
38.897506
 30
0.0
  0
VERTEX
  5
38C
  8
001
 10
99.839061999999984
 20
39.010637000000003
 30
0.0
  0
VERTEX
  5
38D
  8
001
 10
99.912924000000004
 20
39.088262999999998
 30
0.0
  0
SEQEND
  5
388
  8
001
  0
POLYLINE
  5
38E
  8
001
 66
     1
 10
0.0
 20
0.0
 30
0.0
  0
VERTEX
  5
390
  8
001
 10
100.615651
 20
38.888364000000003
 30
0.0
  0
VERTEX
  5
391
  8
001
 10
100.536638
 20
38.883797000000001
 30
0.0
  0
VERTEX
  5
392
  8
001
 10
100.43006699999999
 20
38.870145999999998
 30
0.0
  0
VERTEX
  5
393
  8
001
 10
100.333834
 20
38.846774000000003
 30
0.0
  0
VERTEX
  5
394
  8
001
 10
100.249737
 20
38.816140000000011
 30
0.0
  0
VERTEX
  5
395
  8
001
 10
100.16807900000001
 20
38.779051000000003
 30
0.0
  0
VERTEX
  5
396
  8
001
 10
100.08280000000001
 20
38.728320000000011
 30
0.0
  0
VERTEX
  5
397
  8
001
 10
100.072648
 20
38.721288999999999
 30
0.0
  0
VERTEX
  5
398
  8
001
 10
100.062433
 20
38.714015000000011
 30
0.0
  0
SEQEND
  5
38F
  8
001
  0
POLYLINE
  5
399
  8
001
 66
     1
 10
0.0
 20
0.0
 30
0.0
  0
VERTEX
  5
39B
  8
001
 10
103.491007
 20
39.780246000000012
 30
0.0
  0
VERTEX
  5
39C
  8
001
 10
103.376964
 20
39.730156000000001
 30
0.0
  0
VERTEX
  5
39D
  8
001
 10
103.222582
 20
39.655553000000012
 30
0.0
  0
VERTEX
  5
39E
  8
001
 10
103.104794
 20
39.591194999999999
 30
0.0
  0
VERTEX
  5
39F
  8
001
 10
103.000394
 20
39.526356
 30
0.0
  0
SEQEND
  5
39A
  8
001
  0
ARC
  5
3A0
  8
001
 10
104.215316
 20
38.893180000000001
 30
0.0
 40
1.008575474217329
 50
21.701526000000001
 51
70.981943000000001
  0
POLYLINE
  5
3A1
  8
001
 66
     1
 10
0.0
 20
0.0
 30
0.0
  0
VERTEX
  5
3A3
  8
001
 10
104.87105200000001
 20
37.838844000000002
 30
0.0
  0
VERTEX
  5
3A4
  8
001
 10
104.81290199999999
 20
37.380569999999999
 30
0.0
  0
VERTEX
  5
3A5
  8
001
 10
104.73045999999999
 20
36.711879000000003
 30
0.0
  0
SEQEND
  5
3A2
  8
001
  0
POLYLINE
  5
3A6
  8
001
 66
     1
 10
0.0
 20
0.0
 30
0.0
  0
VERTEX
  5
3A8
  8
001
 10
104.42588600000001
 20
33.996232999999997
 30
0.0
  0
VERTEX
  5
3A9
  8
001
 10
104.416848
 20
33.908846000000011
 30
0.0
  0
VERTEX
  5
3AA
  8
001
 10
104.409177
 20
33.834178000000001
 30
0.0
  0
SEQEND
  5
3A7
  8
001
  0
POLYLINE
  5
3AB
  8
001
 66
     1
 10
0.0
 20
0.0
 30
0.0
  0
VERTEX
  5
3AD
  8
001
 10
104.04132300000001
 20
33.988697000000002
 30
0.0
  0
VERTEX
  5
3AE
  8
001
 10
104.044893
 20
33.986711
 30
0.0
  0
VERTEX
  5
3AF
  8
001
 10
104.04846999999999
 20
33.984734000000003
 30
0.0
  0
VERTEX
  5
3B0
  8
001
 10
104.25866499999999
 20
33.886639000000002
 30
0.0
  0
VERTEX
  5
3B1
  8
001
 10
104.409177
 20
33.834178000000001
 30
0.0
  0
SEQEND
  5
3AC
  8
001
  0
POLYLINE
  5
3B2
  8
001
 66
     1
 10
0.0
 20
0.0
 30
0.0
  0
VERTEX
  5
3B4
  8
001
 10
103.99287
 20
37.492350999999999
 30
0.0
  0
VERTEX
  5
3B5
  8
001
 10
104.065338
 20
37.506754000000001
 30
0.0
  0
VERTEX
  5
3B6
  8
001
 10
104.135194
 20
37.521746
 30
0.0
  0
VERTEX
  5
3B7
  8
001
 10
104.33729599999999
 20
37.576678000000001
 30
0.0
  0
VERTEX
  5
3B8
  8
001
 10
104.532391
 20
37.656084999999997
 30
0.0
  0
VERTEX
  5
3B9
  8
001
 10
104.730305
 20
37.757719999999999
 30
0.0
  0
VERTEX
  5
3BA
  8
001
 10
104.87131100000001
 20
37.840845999999999
 30
0.0
  0
SEQEND
  5
3B3
  8
001
  0
POLYLINE
  5
3BB
  8
001
 66
     1
 10
0.0
 20
0.0
 30
0.0
  0
VERTEX
  5
3BD
  8
001
 10
103.964983
 20
37.521858999999999
 30
0.0
  0
VERTEX
  5
3BE
  8
001
 10
104.043305
 20
37.558165000000002
 30
0.0
  0
VERTEX
  5
3BF
  8
001
 10
104.115388
 20
37.599347000000002
 30
0.0
  0
VERTEX
  5
3C0
  8
001
 10
104.20747
 20
37.660910000000001
 30
0.0
  0
VERTEX
  5
3C1
  8
001
 10
104.296081
 20
37.731127000000001
 30
0.0
  0
VERTEX
  5
3C2
  8
001
 10
104.377289
 20
37.809021999999999
 30
0.0
  0
VERTEX
  5
3C3
  8
001
 10
104.45046600000001
 20
37.893777999999998
 30
0.0
  0
VERTEX
  5
3C4
  8
001
 10
104.516124
 20
37.985101
 30
0.0
  0
VERTEX
  5
3C5
  8
001
 10
104.5735
 20
38.081988000000003
 30
0.0
  0
VERTEX
  5
3C6
  8
001
 10
104.622005
 20
38.183840999999987
 30
0.0
  0
VERTEX
  5
3C7
  8
001
 10
104.661165
 20
38.289609999999989
 30
0.0
  0
VERTEX
  5
3C8
  8
001
 10
104.690789
 20
38.398633000000011
 30
0.0
  0
VERTEX
  5
3C9
  8
001
 10
104.710599
 20
38.509863000000003
 30
0.0
  0
VERTEX
  5
3CA
  8
001
 10
104.72042399999999
 20
38.622495000000001
 30
0.0
  0
VERTEX
  5
3CB
  8
001
 10
104.720186
 20
38.735554
 30
0.0
  0
VERTEX
  5
3CC
  8
001
 10
104.709881
 20
38.848115999999997
 30
0.0
  0
VERTEX
  5
3CD
  8
001
 10
104.68961400000001
 20
38.959311
 30
0.0
  0
VERTEX
  5
3CE
  8
001
 10
104.659564
 20
39.068121000000012
 30
0.0
  0
VERTEX
  5
3CF
  8
001
 10
104.61987999999999
 20
39.173827000000003
 30
0.0
  0
VERTEX
  5
3D0
  8
001
 10
104.57093
 20
39.275376999999999
 30
0.0
  0
VERTEX
  5
3D1
  8
001
 10
104.51326299999999
 20
39.372095999999999
 30
0.0
  0
VERTEX
  5
3D2
  8
001
 10
104.44754500000001
 20
39.462936999999997
 30
0.0
  0
VERTEX
  5
3D3
  8
001
 10
104.373245
 20
39.547641999999989
 30
0.0
  0
VERTEX
  5
3D4
  8
001
 10
104.290918
 20
39.625343999999998
 30
0.0
  0
VERTEX
  5
3D5
  8
001
 10
104.204398
 20
39.694730999999997
 30
0.0
  0
VERTEX
  5
3D6
  8
001
 10
104.11551300000001
 20
39.754798999999998
 30
0.0
  0
VERTEX
  5
3D7
  8
001
 10
104.012237
 20
39.808560999999997
 30
0.0
  0
VERTEX
  5
3D8
  8
001
 10
103.892279
 20
39.856335999999999
 30
0.0
  0
VERTEX
  5
3D9
  8
001
 10
103.803038
 20
39.885413
 30
0.0
  0
SEQEND
  5
3BC
  8
001
  0
LINE
  5
3DA
  8
001
 10
106.88757099999999
 20
41.992251999999993
 30
0.0
 11
106.88757099999999
 21
46.381307
 31
0.0
  0
LINE
  5
3DB
  8
001
 10
109.39836200000001
 20
40.209330999999992
 30
0.0
 11
109.39836200000001
 21
48.981307000000001
 31
0.0
  0
LINE
  5
3DC
  8
001
  6
CENTER
 10
97.331941999999984
 20
40.081307000000002
 30
0.0
 11
209.35259500000001
 21
40.081307000000002
 31
0.0
  0
LINE
  5
3DD
  8
001
 10
206.487571
 20
40.081307000000002
 30
0.0
 11
209.08564699999999
 21
41.581307000000002
 31
0.0
  0
LINE
  5
3DE
  8
001
 10
206.487571
 20
40.081307000000002
 30
0.0
 11
209.08564699999999
 21
38.581307000000002
 31
0.0
  0
LINE
  5
3DF
  8
001
 10
101.96052400000001
 20
36.947496999999998
 30
0.0
 11
101.787319
 21
37.247497000000003
 31
0.0
  0
LINE
  5
3E0
  8
001
 10
101.26770399999999
 20
36.947496999999998
 30
0.0
 11
101.440909
 21
37.247497000000003
 31
0.0
  0
ARC
  5
3E1
  8
001
 10
101.614114
 20
37.147497000000001
 30
0.0
 40
0.2
 50
30.0
 51
150.0
  0
LINE
  5
3E2
  8
001
 10
101.26770399999999
 20
36.947496999999998
 30
0.0
 11
100.92129300000001
 21
36.947496999999998
 31
0.0
  0
LINE
  5
3E3
  8
001
 10
100.92129300000001
 20
36.347496999999997
 30
0.0
 11
100.748088
 21
36.647497000000001
 31
0.0
  0
ARC
  5
3E4
  8
001
 10
100.92129300000001
 20
36.747497000000003
 30
0.0
 40
0.2
 50
90.0
 51
210.0
  0
LINE
  5
3E5
  8
001
 10
100.92129300000001
 20
36.347496999999997
 30
0.0
 11
100.748088
 21
36.047497
 31
0.0
  0
LINE
  5
3E6
  8
001
 10
101.26770399999999
 20
35.747497000000003
 30
0.0
 11
100.92129300000001
 21
35.747497000000003
 31
0.0
  0
ARC
  5
3E7
  8
001
 10
100.92129300000001
 20
35.947496999999998
 30
0.0
 40
0.2
 50
150.0
 51
270.0
  0
LINE
  5
3E8
  8
001
 10
101.26770399999999
 20
35.747497000000003
 30
0.0
 11
101.440909
 21
35.447496999999998
 31
0.0
  0
LINE
  5
3E9
  8
001
 10
101.96052400000001
 20
35.747497000000003
 30
0.0
 11
101.787319
 21
35.447496999999998
 31
0.0
  0
ARC
  5
3EA
  8
001
 10
101.614114
 20
35.547497
 30
0.0
 40
0.2
 50
210.0
 51
330.0
  0
LINE
  5
3EB
  8
001
 10
101.96052400000001
 20
35.747497000000003
 30
0.0
 11
102.306934
 21
35.747497000000003
 31
0.0
  0
LINE
  5
3EC
  8
001
 10
102.306934
 20
36.347496999999997
 30
0.0
 11
102.48013899999999
 21
36.047497
 31
0.0
  0
ARC
  5
3ED
  8
001
 10
102.306934
 20
35.947496999999998
 30
0.0
 40
0.2
 50
270.0
 51
30.0
  0
LINE
  5
3EE
  8
001
 10
102.306934
 20
36.347496999999997
 30
0.0
 11
102.48013899999999
 21
36.647497000000001
 31
0.0
  0
LINE
  5
3EF
  8
001
 10
101.96052400000001
 20
36.947496999999998
 30
0.0
 11
102.306934
 21
36.947496999999998
 31
0.0
  0
ARC
  5
3F0
  8
001
 10
102.306934
 20
36.747497000000003
 30
0.0
 40
0.2
 50
330.0
 51
90.0
  0
CIRCLE
  5
3F1
  8
001
 10
101.614114
 20
36.347496999999997
 30
0.0
 40
1.399999999999999
  0
TEXT
  5
3F2
  8
001
 10
43.850496
 20
-17.210985000000001
 30
0.0
 40
2.0
  1
加工形状
 41
0.833333
  0
POLYLINE
  5
3F3
  8
001
 66
     1
 10
0.0
 20
0.0
 30
0.0
  0
VERTEX
  5
3F5
  8
001
 10
110.21692299999999
 20
35.993226999999997
 30
0.0
  0
VERTEX
  5
3F6
  8
001
 10
110.094184
 20
35.986750999999998
 30
0.0
  0
VERTEX
  5
3F7
  8
001
 10
109.926205
 20
35.967399999999998
 30
0.0
  0
VERTEX
  5
3F8
  8
001
 10
109.777345
 20
35.935285
 30
0.0
  0
VERTEX
  5
3F9
  8
001
 10
109.644322
 20
35.890703999999999
 30
0.0
  0
VERTEX
  5
3FA
  8
001
 10
109.510992
 20
35.833905000000001
 30
0.0
  0
VERTEX
  5
3FB
  8
001
 10
109.379836
 20
35.765470000000001
 30
0.0
  0
VERTEX
  5
3FC
  8
001
 10
109.256134
 20
35.685760000000002
 30
0.0
  0
VERTEX
  5
3FD
  8
001
 10
109.14078499999999
 20
35.595502000000003
 30
0.0
  0
VERTEX
  5
3FE
  8
001
 10
109.033158
 20
35.495115000000013
 30
0.0
  0
VERTEX
  5
3FF
  8
001
 10
108.934432
 20
35.385964999999999
 30
0.0
  0
VERTEX
  5
400
  8
001
 10
108.845439
 20
35.268678000000001
 30
0.0
  0
VERTEX
  5
401
  8
001
 10
108.76704599999999
 20
35.14322700000001
 30
0.0
  0
VERTEX
  5
402
  8
001
 10
108.69958699999999
 20
35.00992500000001
 30
0.0
  0
VERTEX
  5
403
  8
001
 10
108.643714
 20
34.874661000000003
 30
0.0
  0
VERTEX
  5
404
  8
001
 10
108.599784
 20
34.739468000000002
 30
0.0
  0
VERTEX
  5
405
  8
001
 10
108.568184
 20
34.588428
 30
0.0
  0
VERTEX
  5
406
  8
001
 10
108.54912299999999
 20
34.417838000000003
 30
0.0
  0
VERTEX
  5
407
  8
001
 10
108.542749
 20
34.293227000000002
 30
0.0
  0
SEQEND
  5
3F4
  8
001
  0
LINE
  5
408
  8
001
 10
107.742814
 20
35.01061
 30
0.0
 11
106.635828
 21
33.897092000000001
 31
0.0
  0
LINE
  5
409
  8
001
 10
109.391659
 20
37.932211000000002
 30
0.0
 11
107.772051
 21
36.303045000000012
 31
0.0
  0
POLYLINE
  5
40A
  8
001
 66
     1
 10
0.0
 20
0.0
 30
0.0
  0
VERTEX
  5
40C
  8
001
 10
109.94456599999999
 20
37.929565000000011
 30
0.0
  0
VERTEX
  5
40D
  8
001
 10
109.92056100000001
 20
37.951458000000002
 30
0.0
  0
VERTEX
  5
40E
  8
001
 10
109.88554999999999
 20
37.979219999999998
 30
0.0
  0
VERTEX
  5
40F
  8
001
 10
109.85161100000001
 20
38.000563
 30
0.0
  0
VERTEX
  5
410
  8
001
 10
109.818128
 20
38.01623
 30
0.0
  0
VERTEX
  5
411
  8
001
 10
109.78239000000001
 20
38.02921400000001
 30
0.0
  0
VERTEX
  5
412
  8
001
 10
109.74489
 20
38.039172000000001
 30
0.0
  0
VERTEX
  5
413
  8
001
 10
109.706867
 20
38.045129000000003
 30
0.0
  0
VERTEX
  5
414
  8
001
 10
109.66865199999999
 20
38.047165
 30
0.0
  0
VERTEX
  5
415
  8
001
 10
109.630421
 20
38.045495000000003
 30
0.0
  0
VERTEX
  5
416
  8
001
 10
109.592344
 20
38.039902000000012
 30
0.0
  0
VERTEX
  5
417
  8
001
 10
109.554754
 20
38.030304000000001
 30
0.0
  0
VERTEX
  5
418
  8
001
 10
109.518897
 20
38.017662000000001
 30
0.0
  0
VERTEX
  5
419
  8
001
 10
109.48527
 20
38.002316
 30
0.0
  0
VERTEX
  5
41A
  8
001
 10
109.451134
 20
37.981299
 30
0.0
  0
VERTEX
  5
41B
  8
001
 10
109.41586700000001
 20
37.953873000000002
 30
0.0
  0
VERTEX
  5
41C
  8
001
 10
109.391659
 20
37.932211000000002
 30
0.0
  0
SEQEND
  5
40B
  8
001
  0
LINE
  5
41D
  8
001
 10
111.041168
 20
36.805502000000011
 30
0.0
 11
109.94456599999999
 21
37.929565000000011
 31
0.0
  0
LINE
  5
41E
  8
001
 10
112.196207
 20
36.775814000000011
 30
0.0
 11
111.041168
 21
36.805502000000011
 31
0.0
  0
LINE
  5
41F
  8
001
 10
113.800622
 20
35.131220999999996
 30
0.0
 11
112.196207
 21
36.775814000000011
 31
0.0
  0
POLYLINE
  5
420
  8
001
 66
     1
 10
0.0
 20
0.0
 30
0.0
  0
VERTEX
  5
422
  8
001
 10
113.798017
 20
34.569784000000013
 30
0.0
  0
VERTEX
  5
423
  8
001
 10
113.819597
 20
34.594188000000003
 30
0.0
  0
VERTEX
  5
424
  8
001
 10
113.846918
 20
34.629711
 30
0.0
  0
VERTEX
  5
425
  8
001
 10
113.86797300000001
 20
34.664230000000003
 30
0.0
  0
VERTEX
  5
426
  8
001
 10
113.883365
 20
34.698172999999997
 30
0.0
  0
VERTEX
  5
427
  8
001
 10
113.896157
 20
34.734487999999999
 30
0.0
  0
VERTEX
  5
428
  8
001
 10
113.905959
 20
34.772540999999997
 30
0.0
  0
VERTEX
  5
429
  8
001
 10
113.911828
 20
34.81116500000001
 30
0.0
  0
VERTEX
  5
42A
  8
001
 10
113.91383
 20
34.849955000000001
 30
0.0
  0
VERTEX
  5
42B
  8
001
 10
113.912188
 20
34.888762
 30
0.0
  0
VERTEX
  5
42C
  8
001
 10
113.906678
 20
34.927440999999988
 30
0.0
  0
VERTEX
  5
42D
  8
001
 10
113.897229
 20
34.965586000000002
 30
0.0
  0
VERTEX
  5
42E
  8
001
 10
113.884775
 20
35.002020999999999
 30
0.0
  0
VERTEX
  5
42F
  8
001
 10
113.869698
 20
35.036110000000001
 30
0.0
  0
VERTEX
  5
430
  8
001
 10
113.84896500000001
 20
35.070829000000003
 30
0.0
  0
VERTEX
  5
431
  8
001
 10
113.82197499999999
 20
35.106611000000001
 30
0.0
  0
VERTEX
  5
432
  8
001
 10
113.800622
 20
35.131220999999996
 30
0.0
  0
SEQEND
  5
421
  8
001
  0
LINE
  5
433
  8
001
 10
112.691031
 20
33.456265999999999
 30
0.0
 11
113.798017
 21
34.569784000000013
 31
0.0
  0
LINE
  5
434
  8
001
 10
112.661794
 20
32.283408000000001
 30
0.0
 11
112.691031
 21
33.456265999999999
 31
0.0
  0
LINE
  5
435
  8
001
 10
111.03631
 20
30.648332
 30
0.0
 11
112.661794
 21
32.283408000000001
 31
0.0
  0
LINE
  5
436
  8
001
 10
110.495138
 20
30.650881999999999
 30
0.0
 11
109.39233
 21
31.781307000000002
 31
0.0
  0
POLYLINE
  5
437
  8
001
 66
     1
 10
0.0
 20
0.0
 30
0.0
  0
VERTEX
  5
439
  8
001
 10
108.542749
 20
34.293227000000002
 30
0.0
  0
VERTEX
  5
43A
  8
001
 10
108.55081199999999
 20
34.153106000000001
 30
0.0
  0
VERTEX
  5
43B
  8
001
 10
108.574918
 20
33.961573000000001
 30
0.0
  0
VERTEX
  5
43C
  8
001
 10
108.614834
 20
33.792726000000002
 30
0.0
  0
VERTEX
  5
43D
  8
001
 10
108.670188
 20
33.642665000000001
 30
0.0
  0
VERTEX
  5
43E
  8
001
 10
108.74035499999999
 20
33.493837999999997
 30
0.0
  0
VERTEX
  5
43F
  8
001
 10
108.824898
 20
33.348756999999999
 30
0.0
  0
VERTEX
  5
440
  8
001
 10
108.92283399999999
 20
33.214351000000001
 30
0.0
  0
VERTEX
  5
441
  8
001
 10
109.033103
 20
33.091145000000012
 30
0.0
  0
VERTEX
  5
442
  8
001
 10
109.154242
 20
32.979326
 30
0.0
  0
VERTEX
  5
443
  8
001
 10
109.28680199999999
 20
32.879728
 30
0.0
  0
VERTEX
  5
444
  8
001
 10
109.429519
 20
32.793979999999998
 30
0.0
  0
VERTEX
  5
445
  8
001
 10
109.576244
 20
32.722631
 30
0.0
  0
VERTEX
  5
446
  8
001
 10
109.723865
 20
32.666465000000002
 30
0.0
  0
VERTEX
  5
447
  8
001
 10
109.890308
 20
32.625892
 30
0.0
  0
VERTEX
  5
448
  8
001
 10
110.078903
 20
32.601421000000002
 30
0.0
  0
VERTEX
  5
449
  8
001
 10
110.21692299999999
 20
32.593226999999999
 30
0.0
  0
SEQEND
  5
438
  8
001
  0
POLYLINE
  5
44A
  8
001
 66
     1
 10
0.0
 20
0.0
 30
0.0
  0
VERTEX
  5
44C
  8
001
 10
110.21692299999999
 20
32.593226999999999
 30
0.0
  0
VERTEX
  5
44D
  8
001
 10
110.33966100000001
 20
32.599702000000001
 30
0.0
  0
VERTEX
  5
44E
  8
001
 10
110.50763999999999
 20
32.619053000000001
 30
0.0
  0
VERTEX
  5
44F
  8
001
 10
110.65649999999999
 20
32.65117
 30
0.0
  0
VERTEX
  5
450
  8
001
 10
110.789524
 20
32.695748999999999
 30
0.0
  0
VERTEX
  5
451
  8
001
 10
110.922853
 20
32.752540000000003
 30
0.0
  0
VERTEX
  5
452
  8
001
 10
111.05400899999999
 20
32.820982999999998
 30
0.0
  0
VERTEX
  5
453
  8
001
 10
111.177711
 20
32.900725000000001
 30
0.0
  0
VERTEX
  5
454
  8
001
 10
111.29306
 20
32.99095100000001
 30
0.0
  0
VERTEX
  5
455
  8
001
 10
111.400687
 20
33.091217999999998
 30
0.0
  0
VERTEX
  5
456
  8
001
 10
111.499414
 20
33.200488
 30
0.0
  0
VERTEX
  5
457
  8
001
 10
111.58840600000001
 20
33.318224000000001
 30
0.0
  0
VERTEX
  5
458
  8
001
 10
111.666799
 20
33.443227
 30
0.0
  0
VERTEX
  5
459
  8
001
 10
111.734258
 20
33.574845000000003
 30
0.0
  0
VERTEX
  5
45A
  8
001
 10
111.790131
 20
33.711792000000003
 30
0.0
  0
VERTEX
  5
45B
  8
001
 10
111.83406100000001
 20
33.853282
 30
0.0
  0
VERTEX
  5
45C
  8
001
 10
111.865661
 20
33.998024999999998
 30
0.0
  0
VERTEX
  5
45D
  8
001
 10
111.884722
 20
34.145079000000003
 30
0.0
  0
VERTEX
  5
45E
  8
001
 10
111.891096
 20
34.293227000000002
 30
0.0
  0
VERTEX
  5
45F
  8
001
 10
111.884722
 20
34.441374000000003
 30
0.0
  0
VERTEX
  5
460
  8
001
 10
111.865661
 20
34.588428
 30
0.0
  0
VERTEX
  5
461
  8
001
 10
111.83406100000001
 20
34.733170999999999
 30
0.0
  0
VERTEX
  5
462
  8
001
 10
111.790131
 20
34.874661000000003
 30
0.0
  0
VERTEX
  5
463
  8
001
 10
111.734258
 20
35.011608000000003
 30
0.0
  0
VERTEX
  5
464
  8
001
 10
111.666799
 20
35.14322700000001
 30
0.0
  0
VERTEX
  5
465
  8
001
 10
111.58840600000001
 20
35.268228999999998
 30
0.0
  0
VERTEX
  5
466
  8
001
 10
111.499414
 20
35.385964999999999
 30
0.0
  0
VERTEX
  5
467
  8
001
 10
111.400687
 20
35.495235000000001
 30
0.0
  0
VERTEX
  5
468
  8
001
 10
111.29306
 20
35.595502000000003
 30
0.0
  0
VERTEX
  5
469
  8
001
 10
111.177711
 20
35.685727999999997
 30
0.0
  0
VERTEX
  5
46A
  8
001
 10
111.05400899999999
 20
35.765470000000001
 30
0.0
  0
VERTEX
  5
46B
  8
001
 10
110.922853
 20
35.83391300000001
 30
0.0
  0
VERTEX
  5
46C
  8
001
 10
110.789524
 20
35.890703999999999
 30
0.0
  0
VERTEX
  5
46D
  8
001
 10
110.65649999999999
 20
35.935282999999998
 30
0.0
  0
VERTEX
  5
46E
  8
001
 10
110.50763999999999
 20
35.967399999999998
 30
0.0
  0
VERTEX
  5
46F
  8
001
 10
110.33966100000001
 20
35.986750999999998
 30
0.0
  0
VERTEX
  5
470
  8
001
 10
110.21692299999999
 20
35.993226999999997
 30
0.0
  0
SEQEND
  5
44B
  8
001
  0
POLYLINE
  5
471
  8
001
 66
     1
 10
0.0
 20
0.0
 30
0.0
  0
VERTEX
  5
473
  8
001
 10
113.75202899999999
 20
31.598493999999999
 30
0.0
  0
VERTEX
  5
474
  8
001
 10
113.834112
 20
31.544810999999999
 30
0.0
  0
VERTEX
  5
475
  8
001
 10
113.957024
 20
31.47128
 30
0.0
  0
VERTEX
  5
476
  8
001
 10
114.079322
 20
31.407219999999999
 30
0.0
  0
VERTEX
  5
477
  8
001
 10
114.16479699999999
 20
31.366833
 30
0.0
  0
SEQEND
  5
472
  8
001
  0
POLYLINE
  5
478
  8
001
 66
     1
 10
0.0
 20
0.0
 30
0.0
  0
VERTEX
  5
47A
  8
001
 10
114.430088
 20
31.388643999999999
 30
0.0
  0
VERTEX
  5
47B
  8
001
 10
114.35593900000001
 20
31.382705000000001
 30
0.0
  0
VERTEX
  5
47C
  8
001
 10
114.28179900000001
 20
31.376664999999999
 30
0.0
  0
VERTEX
  5
47D
  8
001
 10
114.22329499999999
 20
31.371780999999999
 30
0.0
  0
VERTEX
  5
47E
  8
001
 10
114.16479699999999
 20
31.366833
 30
0.0
  0
SEQEND
  5
479
  8
001
  0
POLYLINE
  5
47F
  8
001
 66
     1
 10
0.0
 20
0.0
 30
0.0
  0
VERTEX
  5
481
  8
001
 10
111.473472
 20
37.886800000000001
 30
0.0
  0
VERTEX
  5
482
  8
001
 10
111.44587
 20
37.985242
 30
0.0
  0
VERTEX
  5
483
  8
001
 10
111.413355
 20
38.081977000000002
 30
0.0
  0
VERTEX
  5
484
  8
001
 10
111.371137
 20
38.177244999999999
 30
0.0
  0
VERTEX
  5
485
  8
001
 10
111.320014
 20
38.268120000000003
 30
0.0
  0
VERTEX
  5
486
  8
001
 10
111.303325
 20
38.29423400000001
 30
0.0
  0
VERTEX
  5
487
  8
001
 10
111.286299
 20
38.320115999999999
 30
0.0
  0
SEQEND
  5
480
  8
001
  0
POLYLINE
  5
488
  8
001
 66
     1
 10
0.0
 20
0.0
 30
0.0
  0
VERTEX
  5
48A
  8
001
 10
111.286299
 20
38.320115999999999
 30
0.0
  0
VERTEX
  5
48B
  8
001
 10
111.227412
 20
38.395560000000003
 30
0.0
  0
VERTEX
  5
48C
  8
001
 10
111.164934
 20
38.467821999999998
 30
0.0
  0
VERTEX
  5
48D
  8
001
 10
111.094527
 20
38.535671999999998
 30
0.0
  0
VERTEX
  5
48E
  8
001
 10
111.01825100000001
 20
38.59695700000001
 30
0.0
  0
VERTEX
  5
48F
  8
001
 10
111.006794
 20
38.605325000000001
 30
0.0
  0
VERTEX
  5
490
  8
001
 10
110.99529200000001
 20
38.613624000000002
 30
0.0
  0
SEQEND
  5
489
  8
001
  0
POLYLINE
  5
491
  8
001
 66
     1
 10
0.0
 20
0.0
 30
0.0
  0
VERTEX
  5
493
  8
001
 10
110.99529200000001
 20
38.613624000000002
 30
0.0
  0
VERTEX
  5
494
  8
001
 10
110.91731299999999
 20
38.662671000000003
 30
0.0
  0
VERTEX
  5
495
  8
001
 10
110.837025
 20
38.707011000000001
 30
0.0
  0
VERTEX
  5
496
  8
001
 10
110.750829
 20
38.744284999999998
 30
0.0
  0
VERTEX
  5
497
  8
001
 10
110.662212
 20
38.776625000000003
 30
0.0
  0
SEQEND
  5
492
  8
001
  0
LINE
  5
498
  8
001
 10
110.662212
 20
38.776625000000003
 30
0.0
 11
110.4044
 21
38.826622999999998
 31
0.0
  0
POLYLINE
  5
499
  8
001
 66
     1
 10
0.0
 20
0.0
 30
0.0
  0
VERTEX
  5
49B
  8
001
 10
110.21007400000001
 20
38.828284000000011
 30
0.0
  0
VERTEX
  5
49C
  8
001
 10
110.091142
 20
38.813188000000011
 30
0.0
  0
VERTEX
  5
49D
  8
001
 10
109.974076
 20
38.789971000000001
 30
0.0
  0
VERTEX
  5
49E
  8
001
 10
109.928754
 20
38.777090999999999
 30
0.0
  0
VERTEX
  5
49F
  8
001
 10
109.883723
 20
38.762948000000002
 30
0.0
  0
SEQEND
  5
49A
  8
001
  0
POLYLINE
  5
4A0
  8
001
 66
     1
 10
0.0
 20
0.0
 30
0.0
  0
VERTEX
  5
4A2
  8
001
 10
109.883723
 20
38.762948000000002
 30
0.0
  0
VERTEX
  5
4A3
  8
001
 10
109.848131
 20
38.750169
 30
0.0
  0
VERTEX
  5
4A4
  8
001
 10
109.812766
 20
38.736800000000002
 30
0.0
  0
VERTEX
  5
4A5
  8
001
 10
109.713272
 20
38.692118999999998
 30
0.0
  0
VERTEX
  5
4A6
  8
001
 10
109.61792800000001
 20
38.638837000000002
 30
0.0
  0
VERTEX
  5
4A7
  8
001
 10
109.524627
 20
38.576019000000002
 30
0.0
  0
VERTEX
  5
4A8
  8
001
 10
109.437421
 20
38.505227000000012
 30
0.0
  0
VERTEX
  5
4A9
  8
001
 10
109.420526
 20
38.489874
 30
0.0
  0
VERTEX
  5
4AA
  8
001
 10
109.403784
 20
38.474353000000001
 30
0.0
  0
SEQEND
  5
4A1
  8
001
  0
POLYLINE
  5
4AB
  8
001
 66
     1
 10
0.0
 20
0.0
 30
0.0
  0
VERTEX
  5
4AD
  8
001
 10
109.403784
 20
38.474353000000001
 30
0.0
  0
VERTEX
  5
4AE
  8
001
 10
109.386154
 20
38.457248
 30
0.0
  0
VERTEX
  5
4AF
  8
001
 10
109.368714
 20
38.439954
 30
0.0
  0
VERTEX
  5
4B0
  8
001
 10
109.296325
 20
38.359701999999999
 30
0.0
  0
VERTEX
  5
4B1
  8
001
 10
109.23109599999999
 20
38.273299000000002
 30
0.0
  0
VERTEX
  5
4B2
  8
001
 10
109.171434
 20
38.178705000000001
 30
0.0
  0
VERTEX
  5
4B3
  8
001
 10
109.121296
 20
38.079025999999999
 30
0.0
  0
VERTEX
  5
4B4
  8
001
 10
109.09022299999999
 20
38.000453
 30
0.0
  0
VERTEX
  5
4B5
  8
001
 10
109.062487
 20
37.920481000000009
 30
0.0
  0
SEQEND
  5
4AC
  8
001
  0
POLYLINE
  5
4B6
  8
001
 66
     1
 10
0.0
 20
0.0
 30
0.0
  0
VERTEX
  5
4B8
  8
001
 10
106.479376
 20
33.880434000000001
 30
0.0
  0
VERTEX
  5
4B9
  8
001
 10
106.49543300000001
 20
33.896110999999998
 30
0.0
  0
VERTEX
  5
4BA
  8
001
 10
106.51889199999999
 20
33.919035000000001
 30
0.0
  0
VERTEX
  5
4BB
  8
001
 10
106.542401
 20
33.942036000000002
 30
0.0
  0
VERTEX
  5
4BC
  8
001
 10
106.55847900000001
 20
33.95778
 30
0.0
  0
SEQEND
  5
4B7
  8
001
  0
POLYLINE
  5
4BD
  8
001
 66
     1
 10
0.0
 20
0.0
 30
0.0
  0
VERTEX
  5
4BF
  8
001
 10
106.55847900000001
 20
33.95778
 30
0.0
  0
VERTEX
  5
4C0
  8
001
 10
106.64278400000001
 20
34.039521000000001
 30
0.0
  0
VERTEX
  5
4C1
  8
001
 10
106.765714
 20
34.159281
 30
0.0
  0
VERTEX
  5
4C2
  8
001
 10
106.890108
 20
34.281269000000002
 30
0.0
  0
VERTEX
  5
4C3
  8
001
 10
106.97502299999999
 20
34.364934000000012
 30
0.0
  0
SEQEND
  5
4BE
  8
001
  0
POLYLINE
  5
4C4
  8
001
 66
     1
 10
0.0
 20
0.0
 30
0.0
  0
VERTEX
  5
4C6
  8
001
 10
106.97502299999999
 20
34.364934000000012
 30
0.0
  0
VERTEX
  5
4C7
  8
001
 10
107.002436
 20
34.391689
 30
0.0
  0
VERTEX
  5
4C8
  8
001
 10
107.04247100000001
 20
34.430822999999997
 30
0.0
  0
VERTEX
  5
4C9
  8
001
 10
107.082663
 20
34.470196000000001
 30
0.0
  0
VERTEX
  5
4CA
  8
001
 10
107.11014299999999
 20
34.497157000000001
 30
0.0
  0
SEQEND
  5
4C5
  8
001
  0
POLYLINE
  5
4CB
  8
001
 66
     1
 10
0.0
 20
0.0
 30
0.0
  0
VERTEX
  5
4CD
  8
001
 10
107.50381
 20
36.018701999999998
 30
0.0
  0
VERTEX
  5
4CE
  8
001
 10
107.433303
 20
35.924605999999997
 30
0.0
  0
VERTEX
  5
4CF
  8
001
 10
107.367197
 20
35.827626000000009
 30
0.0
  0
VERTEX
  5
4D0
  8
001
 10
107.3079129999999
 20
35.723402999999998
 30
0.0
  0
VERTEX
  5
4D1
  8
001
 10
107.25704399999999
 20
35.614626999999999
 30
0.0
  0
VERTEX
  5
4D2
  8
001
 10
107.20791800000001
 20
35.484586
 30
0.0
  0
VERTEX
  5
4D3
  8
001
 10
107.16956399999999
 20
35.351004000000003
 30
0.0
  0
VERTEX
  5
4D4
  8
001
 10
107.14183300000001
 20
35.210098000000002
 30
0.0
  0
VERTEX
  5
4D5
  8
001
 10
107.126901
 20
35.067374000000001
 30
0.0
  0
VERTEX
  5
4D6
  8
001
 10
107.125461
 20
35.038455999999996
 30
0.0
  0
VERTEX
  5
4D7
  8
001
 10
107.124298
 20
35.009528000000003
 30
0.0
  0
SEQEND
  5
4CC
  8
001
  0
POLYLINE
  5
4D8
  8
001
 66
     1
 10
0.0
 20
0.0
 30
0.0
  0
VERTEX
  5
4DA
  8
001
 10
107.60210499999999
 20
36.126268000000003
 30
0.0
  0
VERTEX
  5
4DB
  8
001
 10
107.57391
 20
36.097147
 30
0.0
  0
VERTEX
  5
4DC
  8
001
 10
107.546267
 20
36.067523000000001
 30
0.0
  0
VERTEX
  5
4DD
  8
001
 10
107.524862
 20
36.043272000000002
 30
0.0
  0
VERTEX
  5
4DE
  8
001
 10
107.50381
 20
36.018701999999998
 30
0.0
  0
SEQEND
  5
4D9
  8
001
  0
POLYLINE
  5
4DF
  8
001
 66
     1
 10
0.0
 20
0.0
 30
0.0
  0
VERTEX
  5
4E1
  8
001
 10
107.630475
 20
35.678501000000011
 30
0.0
  0
VERTEX
  5
4E2
  8
001
 10
107.577455
 20
35.618932999999998
 30
0.0
  0
VERTEX
  5
4E3
  8
001
 10
107.510147
 20
35.531812000000002
 30
0.0
  0
VERTEX
  5
4E4
  8
001
 10
107.457958
 20
35.446407999999998
 30
0.0
  0
VERTEX
  5
4E5
  8
001
 10
107.419465
 20
35.364577000000011
 30
0.0
  0
VERTEX
  5
4E6
  8
001
 10
107.387165
 20
35.279904999999999
 30
0.0
  0
VERTEX
  5
4E7
  8
001
 10
107.361734
 20
35.18289
 30
0.0
  0
VERTEX
  5
4E8
  8
001
 10
107.345403
 20
35.073352
 30
0.0
  0
VERTEX
  5
4E9
  8
001
 10
107.339057
 20
34.993374000000003
 30
0.0
  0
SEQEND
  5
4E0
  8
001
  0
POLYLINE
  5
4EA
  8
001
 66
     1
 10
0.0
 20
0.0
 30
0.0
  0
VERTEX
  5
4EC
  8
001
 10
110.256833
 20
38.831237000000002
 30
0.0
  0
VERTEX
  5
4ED
  8
001
 10
110.247461
 20
38.831091999999998
 30
0.0
  0
VERTEX
  5
4EE
  8
001
 10
110.23378
 20
38.830497999999999
 30
0.0
  0
VERTEX
  5
4EF
  8
001
 10
110.21969199999999
 20
38.829340000000002
 30
0.0
  0
VERTEX
  5
4F0
  8
001
 10
110.21007400000001
 20
38.828284000000011
 30
0.0
  0
SEQEND
  5
4EB
  8
001
  0
POLYLINE
  5
4F1
  8
001
 66
     1
 10
0.0
 20
0.0
 30
0.0
  0
VERTEX
  5
4F3
  8
001
 10
110.259941
 20
38.831223000000001
 30
0.0
  0
VERTEX
  5
4F4
  8
001
 10
110.259311
 20
38.83122800000001
 30
0.0
  0
VERTEX
  5
4F5
  8
001
 10
110.25838899999999
 20
38.831233000000012
 30
0.0
  0
VERTEX
  5
4F6
  8
001
 10
110.257465
 20
38.831235999999997
 30
0.0
  0
VERTEX
  5
4F7
  8
001
 10
110.256833
 20
38.831237000000002
 30
0.0
  0
SEQEND
  5
4F2
  8
001
  0
POLYLINE
  5
4F8
  8
001
 66
     1
 10
0.0
 20
0.0
 30
0.0
  0
VERTEX
  5
4FA
  8
001
 10
110.4044
 20
38.826622999999998
 30
0.0
  0
VERTEX
  5
4FB
  8
001
 10
110.37528500000001
 20
38.828203999999999
 30
0.0
  0
VERTEX
  5
4FC
  8
001
 10
110.332708
 20
38.82995300000001
 30
0.0
  0
VERTEX
  5
4FD
  8
001
 10
110.289508
 20
38.830936000000001
 30
0.0
  0
VERTEX
  5
4FE
  8
001
 10
110.259941
 20
38.831223000000001
 30
0.0
  0
SEQEND
  5
4F9
  8
001
  0
LINE
  5
4FF
  8
001
 10
111.502404
 20
37.633840999999997
 30
0.0
 11
111.473472
 21
37.886800000000001
 31
0.0
  0
LINE
  5
500
  8
001
 10
111.502441
 20
37.614660000000001
 30
0.0
 11
111.502404
 21
37.633840999999997
 31
0.0
  0
POLYLINE
  5
501
  8
001
 66
     1
 10
0.0
 20
0.0
 30
0.0
  0
VERTEX
  5
503
  8
001
 10
109.062487
 20
37.920481000000009
 30
0.0
  0
VERTEX
  5
504
  8
001
 10
109.040976
 20
37.832978000000011
 30
0.0
  0
VERTEX
  5
505
  8
001
 10
109.024247
 20
37.744793000000001
 30
0.0
  0
VERTEX
  5
506
  8
001
 10
109.01539099999999
 20
37.65361
 30
0.0
  0
VERTEX
  5
507
  8
001
 10
109.011518
 20
37.561715999999997
 30
0.0
  0
SEQEND
  5
502
  8
001
  0
POLYLINE
  5
508
  8
001
 66
     1
 10
0.0
 20
0.0
 30
0.0
  0
VERTEX
  5
50A
  8
001
 10
107.929621
 20
36.456831000000001
 30
0.0
  0
VERTEX
  5
50B
  8
001
 10
108.016147
 20
36.544021999999998
 30
0.0
  0
VERTEX
  5
50C
  8
001
 10
108.142324
 20
36.671736000000003
 30
0.0
  0
VERTEX
  5
50D
  8
001
 10
108.269324
 20
36.801081000000003
 30
0.0
  0
VERTEX
  5
50E
  8
001
 10
108.35602299999999
 20
36.889772000000001
 30
0.0
  0
SEQEND
  5
509
  8
001
  0
POLYLINE
  5
50F
  8
001
 66
     1
 10
0.0
 20
0.0
 30
0.0
  0
VERTEX
  5
511
  8
001
 10
108.35602299999999
 20
36.889772000000001
 30
0.0
  0
VERTEX
  5
512
  8
001
 10
108.44289999999999
 20
36.978045999999999
 30
0.0
  0
VERTEX
  5
513
  8
001
 10
108.569586
 20
37.107342000000003
 30
0.0
  0
VERTEX
  5
514
  8
001
 10
108.696974
 20
37.238154999999999
 30
0.0
  0
VERTEX
  5
515
  8
001
 10
108.78393699999999
 20
37.327849999999998
 30
0.0
  0
SEQEND
  5
510
  8
001
  0
POLYLINE
  5
516
  8
001
 66
     1
 10
0.0
 20
0.0
 30
0.0
  0
VERTEX
  5
518
  8
001
 10
108.78393699999999
 20
37.327849999999998
 30
0.0
  0
VERTEX
  5
519
  8
001
 10
108.83015399999999
 20
37.375154999999999
 30
0.0
  0
VERTEX
  5
51A
  8
001
 10
108.897622
 20
37.444372000000001
 30
0.0
  0
VERTEX
  5
51B
  8
001
 10
108.965281
 20
37.514012000000001
 30
0.0
  0
VERTEX
  5
51C
  8
001
 10
109.011518
 20
37.561715999999997
 30
0.0
  0
SEQEND
  5
517
  8
001
  0
POLYLINE
  5
51D
  8
001
 66
     1
 10
0.0
 20
0.0
 30
0.0
  0
VERTEX
  5
51F
  8
001
 10
111.502441
 20
37.614660000000001
 30
0.0
  0
VERTEX
  5
520
  8
001
 10
111.57188499999999
 20
37.536985000000001
 30
0.0
  0
VERTEX
  5
521
  8
001
 10
111.673638
 20
37.423690999999998
 30
0.0
  0
VERTEX
  5
522
  8
001
 10
111.775111
 20
37.311428999999997
 30
0.0
  0
VERTEX
  5
523
  8
001
 10
111.844714
 20
37.234777000000001
 30
0.0
  0
SEQEND
  5
51E
  8
001
  0
POLYLINE
  5
524
  8
001
 66
     1
 10
0.0
 20
0.0
 30
0.0
  0
VERTEX
  5
526
  8
001
 10
111.844714
 20
37.234777000000001
 30
0.0
  0
VERTEX
  5
527
  8
001
 10
111.914449
 20
37.155251
 30
0.0
  0
VERTEX
  5
528
  8
001
 10
112.01663000000001
 20
37.039251999999998
 30
0.0
  0
VERTEX
  5
529
  8
001
 10
112.118557
 20
36.924269000000002
 30
0.0
  0
VERTEX
  5
52A
  8
001
 10
112.188474
 20
36.845754999999997
 30
0.0
  0
SEQEND
  5
525
  8
001
  0
POLYLINE
  5
52B
  8
001
 66
     1
 10
0.0
 20
0.0
 30
0.0
  0
VERTEX
  5
52D
  8
001
 10
112.188474
 20
36.845754999999997
 30
0.0
  0
VERTEX
  5
52E
  8
001
 10
112.25814800000001
 20
36.764726000000003
 30
0.0
  0
VERTEX
  5
52F
  8
001
 10
112.36024
 20
36.646526000000001
 30
0.0
  0
VERTEX
  5
530
  8
001
 10
112.462107
 20
36.529318000000004
 30
0.0
  0
VERTEX
  5
531
  8
001
 10
112.531983
 20
36.449277000000002
 30
0.0
  0
SEQEND
  5
52C
  8
001
  0
LINE
  5
532
  8
001
 10
114.247839
 20
34.315255999999998
 30
0.0
 11
114.13149799999999
 21
34.490073000000002
 31
0.0
  0
POLYLINE
  5
533
  8
001
 66
     1
 10
0.0
 20
0.0
 30
0.0
  0
VERTEX
  5
535
  8
001
 10
114.40668100000001
 20
33.439233999999999
 30
0.0
  0
VERTEX
  5
536
  8
001
 10
114.355374
 20
33.020144999999999
 30
0.0
  0
VERTEX
  5
537
  8
001
 10
114.28241800000001
 20
32.407387999999997
 30
0.0
  0
VERTEX
  5
538
  8
001
 10
114.211753
 20
31.789653000000001
 30
0.0
  0
VERTEX
  5
539
  8
001
 10
114.16479699999999
 20
31.366833
 30
0.0
  0
SEQEND
  5
534
  8
001
  0
POLYLINE
  5
53A
  8
001
 66
     1
 10
0.0
 20
0.0
 30
0.0
  0
VERTEX
  5
53C
  8
001
 10
114.40668100000001
 20
33.439233999999999
 30
0.0
  0
VERTEX
  5
53D
  8
001
 10
114.413517
 20
33.514949000000001
 30
0.0
  0
VERTEX
  5
53E
  8
001
 10
114.41797800000001
 20
33.590774000000003
 30
0.0
  0
VERTEX
  5
53F
  8
001
 10
114.41817
 20
33.666842000000003
 30
0.0
  0
VERTEX
  5
540
  8
001
 10
114.414114
 20
33.742863
 30
0.0
  0
VERTEX
  5
541
  8
001
 10
114.39947100000001
 20
33.86524
 30
0.0
  0
VERTEX
  5
542
  8
001
 10
114.374928
 20
33.986068000000003
 30
0.0
  0
VERTEX
  5
543
  8
001
 10
114.33968299999999
 20
34.106256999999999
 30
0.0
  0
VERTEX
  5
544
  8
001
 10
114.293447
 20
34.222501000000001
 30
0.0
  0
VERTEX
  5
545
  8
001
 10
114.271141
 20
34.269114999999999
 30
0.0
  0
VERTEX
  5
546
  8
001
 10
114.247839
 20
34.315255999999998
 30
0.0
  0
SEQEND
  5
53B
  8
001
  0
POLYLINE
  5
547
  8
001
 66
     1
 10
0.0
 20
0.0
 30
0.0
  0
VERTEX
  5
549
  8
001
 10
113.75202899999999
 20
33.439233999999999
 30
0.0
  0
VERTEX
  5
54A
  8
001
 10
113.747494
 20
33.521008999999999
 30
0.0
  0
VERTEX
  5
54B
  8
001
 10
113.733332
 20
33.633167999999998
 30
0.0
  0
VERTEX
  5
54C
  8
001
 10
113.709372
 20
33.732706
 30
0.0
  0
VERTEX
  5
54D
  8
001
 10
113.67795
 20
33.819738999999998
 30
0.0
  0
VERTEX
  5
54E
  8
001
 10
113.640021
 20
33.903929999999988
 30
0.0
  0
VERTEX
  5
54F
  8
001
 10
113.587987
 20
33.991861999999998
 30
0.0
  0
VERTEX
  5
550
  8
001
 10
113.52034399999999
 20
34.081617000000001
 30
0.0
  0
VERTEX
  5
551
  8
001
 10
113.466859
 20
34.143000000000001
 30
0.0
  0
SEQEND
  5
548
  8
001
  0
LINE
  5
552
  8
001
 10
113.75202899999999
 20
31.598493999999999
 30
0.0
 11
113.75202899999999
 21
33.439233999999999
 31
0.0
  0
LINE
  5
553
  8
001
 10
107.75972299999999
 20
35.808512
 30
0.0
 11
107.630475
 21
35.678501000000011
 31
0.0
  0
POLYLINE
  5
554
  8
001
 66
     1
 10
0.0
 20
0.0
 30
0.0
  0
VERTEX
  5
556
  8
001
 10
107.60210499999999
 20
36.126268000000003
 30
0.0
  0
VERTEX
  5
557
  8
001
 10
107.668566
 20
36.192957
 30
0.0
  0
VERTEX
  5
558
  8
001
 10
107.76553199999999
 20
36.290590999999999
 30
0.0
  0
VERTEX
  5
559
  8
001
 10
107.768717
 20
36.293805999999996
 30
0.0
  0
VERTEX
  5
55A
  8
001
 10
107.771901
 20
36.297020000000003
 30
0.0
  0
SEQEND
  5
555
  8
001
  0
POLYLINE
  5
55B
  8
001
 66
     1
 10
0.0
 20
0.0
 30
0.0
  0
VERTEX
  5
55D
  8
001
 10
110.887097
 20
36.963431
 30
0.0
  0
VERTEX
  5
55E
  8
001
 10
110.911123
 20
37.007202999999997
 30
0.0
  0
VERTEX
  5
55F
  8
001
 10
110.933628
 20
37.051288
 30
0.0
  0
VERTEX
  5
560
  8
001
 10
110.97920499999999
 20
37.160280999999998
 30
0.0
  0
VERTEX
  5
561
  8
001
 10
111.00963299999999
 20
37.264784000000013
 30
0.0
  0
VERTEX
  5
562
  8
001
 10
111.032268
 20
37.374865999999997
 30
0.0
  0
VERTEX
  5
563
  8
001
 10
111.046359
 20
37.488717000000001
 30
0.0
  0
VERTEX
  5
564
  8
001
 10
111.04975899999999
 20
37.602578000000001
 30
0.0
  0
VERTEX
  5
565
  8
001
 10
111.042592
 20
37.715702
 30
0.0
  0
VERTEX
  5
566
  8
001
 10
111.025453
 20
37.827891000000001
 30
0.0
  0
VERTEX
  5
567
  8
001
 10
110.998458
 20
37.938251999999999
 30
0.0
  0
VERTEX
  5
568
  8
001
 10
110.96171200000001
 20
38.045521999999998
 30
0.0
  0
VERTEX
  5
569
  8
001
 10
110.915412
 20
38.149025999999999
 30
0.0
  0
VERTEX
  5
56A
  8
001
 10
110.860044
 20
38.247754
 30
0.0
  0
VERTEX
  5
56B
  8
001
 10
110.796193
 20
38.341071999999997
 30
0.0
  0
VERTEX
  5
56C
  8
001
 10
110.72459499999999
 20
38.427937999999997
 30
0.0
  0
VERTEX
  5
56D
  8
001
 10
110.644734
 20
38.508057000000001
 30
0.0
  0
VERTEX
  5
56E
  8
001
 10
110.55723399999999
 20
38.580590000000001
 30
0.0
  0
VERTEX
  5
56F
  8
001
 10
110.466031
 20
38.64447100000001
 30
0.0
  0
VERTEX
  5
570
  8
001
 10
110.37302099999999
 20
38.698816999999998
 30
0.0
  0
VERTEX
  5
571
  8
001
 10
110.26597700000001
 20
38.745817000000002
 30
0.0
  0
VERTEX
  5
572
  8
001
 10
110.142561
 20
38.78563900000001
 30
0.0
  0
VERTEX
  5
573
  8
001
 10
110.051171
 20
38.808750000000011
 30
0.0
  0
SEQEND
  5
55C
  8
001
  0
POLYLINE
  5
574
  8
001
 66
     1
 10
0.0
 20
0.0
 30
0.0
  0
VERTEX
  5
576
  8
001
 10
110.92079
 20
36.928895000000011
 30
0.0
  0
VERTEX
  5
577
  8
001
 10
111.019361
 20
37.006852000000009
 30
0.0
  0
VERTEX
  5
578
  8
001
 10
111.11805099999999
 20
37.089628000000012
 30
0.0
  0
VERTEX
  5
579
  8
001
 10
111.242194
 20
37.209396000000012
 30
0.0
  0
VERTEX
  5
57A
  8
001
 10
111.348806
 20
37.346721000000002
 30
0.0
  0
VERTEX
  5
57B
  8
001
 10
111.44217999999999
 20
37.498488999999999
 30
0.0
  0
VERTEX
  5
57C
  8
001
 10
111.502441
 20
37.614660000000001
 30
0.0
  0
SEQEND
  5
575
  8
001
  0
POLYLINE
  5
57D
  8
001
 66
     1
 10
0.0
 20
0.0
 30
0.0
  0
VERTEX
  5
57F
  8
001
 10
112.531983
 20
36.449277000000002
 30
0.0
  0
VERTEX
  5
580
  8
001
 10
112.5766
 20
36.39631
 30
0.0
  0
VERTEX
  5
581
  8
001
 10
112.642174
 20
36.318679000000003
 30
0.0
  0
SEQEND
  5
57E
  8
001
  0
POLYLINE
  5
582
  8
001
 66
     1
 10
0.0
 20
0.0
 30
0.0
  0
VERTEX
  5
584
  8
001
 10
113.90711
 20
34.778376999999999
 30
0.0
  0
VERTEX
  5
585
  8
001
 10
113.95294
 20
34.719222000000002
 30
0.0
  0
VERTEX
  5
586
  8
001
 10
114.01857
 20
34.634737000000001
 30
0.0
  0
VERTEX
  5
587
  8
001
 10
114.08557500000001
 20
34.548806999999996
 30
0.0
  0
VERTEX
  5
588
  8
001
 10
114.13149799999999
 20
34.490073000000002
 30
0.0
  0
SEQEND
  5
583
  8
001
  0
LINE
  5
589
  8
001
 10
113.466859
 20
34.143000000000001
 30
0.0
 11
113.420737
 21
34.190277999999999
 31
0.0
  0
POLYLINE
  5
58A
  8
001
 66
     1
 10
0.0
 20
0.0
 30
0.0
  0
VERTEX
  5
58C
  8
001
 10
111.88390200000001
 20
31.500924999999999
 30
0.0
  0
VERTEX
  5
58D
  8
001
 10
112.996498
 20
31.557561
 30
0.0
  0
VERTEX
  5
58E
  8
001
 10
113.75202899999999
 20
31.598493999999999
 30
0.0
  0
SEQEND
  5
58B
  8
001
  0
POLYLINE
  5
58F
  8
001
 66
     1
 10
0.0
 20
0.0
 30
0.0
  0
VERTEX
  5
591
  8
001
 10
109.39836200000001
 20
31.392040000000001
 30
0.0
  0
VERTEX
  5
592
  8
001
 10
109.55650300000001
 20
31.398292000000001
 30
0.0
  0
VERTEX
  5
593
  8
001
 10
109.758054
 20
31.406424000000001
 30
0.0
  0
SEQEND
  5
590
  8
001
  0
LINE
  5
594
  8
001
 10
109.39836200000001
 20
31.392040000000001
 30
0.0
 11
109.008169
 21
31.790834000000011
 31
0.0
  0
LINE
  5
595
  8
001
 10
110.56238
 20
34.892104000000003
 30
0.0
 11
110.38917499999999
 21
35.192104
 31
0.0
  0
LINE
  5
596
  8
001
 10
109.86956000000001
 20
34.892104000000003
 30
0.0
 11
110.042765
 21
35.192104
 31
0.0
  0
ARC
  5
597
  8
001
 10
110.21597
 20
35.092103999999999
 30
0.0
 40
0.2
 50
30.0
 51
150.0
  0
LINE
  5
598
  8
001
 10
109.86956000000001
 20
34.892104000000003
 30
0.0
 11
109.52315
 21
34.892104000000003
 31
0.0
  0
LINE
  5
599
  8
001
 10
109.52315
 20
34.292104000000002
 30
0.0
 11
109.34994399999999
 21
34.592103999999999
 31
0.0
  0
ARC
  5
59A
  8
001
 10
109.52315
 20
34.692104
 30
0.0
 40
0.2
 50
90.0
 51
210.0
  0
LINE
  5
59B
  8
001
 10
109.52315
 20
34.292104000000002
 30
0.0
 11
109.34994399999999
 21
33.992103999999998
 31
0.0
  0
LINE
  5
59C
  8
001
 10
109.86956000000001
 20
33.692104
 30
0.0
 11
109.52315
 21
33.692104
 31
0.0
  0
ARC
  5
59D
  8
001
 10
109.52315
 20
33.892104000000003
 30
0.0
 40
0.2
 50
150.0
 51
270.0
  0
LINE
  5
59E
  8
001
 10
109.86956000000001
 20
33.692104
 30
0.0
 11
110.042765
 21
33.392104000000003
 31
0.0
  0
LINE
  5
59F
  8
001
 10
110.56238
 20
33.692104
 30
0.0
 11
110.38917499999999
 21
33.392104000000003
 31
0.0
  0
ARC
  5
5A0
  8
001
 10
110.21597
 20
33.492103999999998
 30
0.0
 40
0.2
 50
210.0
 51
330.0
  0
LINE
  5
5A1
  8
001
 10
110.56238
 20
33.692104
 30
0.0
 11
110.90879
 21
33.692104
 31
0.0
  0
LINE
  5
5A2
  8
001
 10
110.90879
 20
34.292104000000002
 30
0.0
 11
111.08199500000001
 21
33.992103999999998
 31
0.0
  0
ARC
  5
5A3
  8
001
 10
110.90879
 20
33.892104000000003
 30
0.0
 40
0.2
 50
270.0
 51
30.0
  0
LINE
  5
5A4
  8
001
 10
110.90879
 20
34.292104000000002
 30
0.0
 11
111.08199500000001
 21
34.592103999999999
 31
0.0
  0
LINE
  5
5A5
  8
001
 10
110.56238
 20
34.892104000000003
 30
0.0
 11
110.90879
 21
34.892104000000003
 31
0.0
  0
ARC
  5
5A6
  8
001
 10
110.90879
 20
34.692104
 30
0.0
 40
0.2
 50
330.0
 51
90.0
  0
CIRCLE
  5
5A7
  8
001
 10
110.21597
 20
34.292104000000002
 30
0.0
 40
1.399999999999999
  0
POLYLINE
  5
5A8
  8
001
 66
     1
 10
0.0
 20
0.0
 30
0.0
  0
VERTEX
  5
5AA
  8
001
 10
114.81308799999999
 20
31.423300000000001
 30
0.0
  0
VERTEX
  5
5AB
  8
001
 10
114.738938
 20
31.416884
 30
0.0
  0
VERTEX
  5
5AC
  8
001
 10
114.664799
 20
31.410357000000001
 30
0.0
  0
VERTEX
  5
5AD
  8
001
 10
114.547431
 20
31.399640000000002
 30
0.0
  0
VERTEX
  5
5AE
  8
001
 10
114.430088
 20
31.388643999999999
 30
0.0
  0
SEQEND
  5
5A9
  8
001
  0
POLYLINE
  5
5AF
  8
001
 66
     1
 10
0.0
 20
0.0
 30
0.0
  0
VERTEX
  5
5B1
  8
001
 10
115.196088
 20
31.516546999999999
 30
0.0
  0
VERTEX
  5
5B2
  8
001
 10
115.121894
 20
31.499625999999999
 30
0.0
  0
VERTEX
  5
5B3
  8
001
 10
115.047799
 20
31.482294
 30
0.0
  0
VERTEX
  5
5B4
  8
001
 10
114.930318
 20
31.453317999999999
 30
0.0
  0
VERTEX
  5
5B5
  8
001
 10
114.81308799999999
 20
31.423300000000001
 30
0.0
  0
SEQEND
  5
5B0
  8
001
  0
POLYLINE
  5
5B6
  8
001
 66
     1
 10
0.0
 20
0.0
 30
0.0
  0
VERTEX
  5
5B8
  8
001
 10
124.374589
 20
31.579545
 30
0.0
  0
VERTEX
  5
5B9
  8
001
 10
124.598089
 20
31.489290000000011
 30
0.0
  0
VERTEX
  5
5BA
  8
001
 10
124.82337099999999
 20
31.402699999999999
 30
0.0
  0
VERTEX
  5
5BB
  8
001
 10
125.092196
 20
31.311626
 30
0.0
  0
VERTEX
  5
5BC
  8
001
 10
125.366591
 20
31.242405000000002
 30
0.0
  0
VERTEX
  5
5BD
  8
001
 10
125.61351500000001
 20
31.205309
 30
0.0
  0
VERTEX
  5
5BE
  8
001
 10
125.862866
 20
31.181307
 30
0.0
  0
SEQEND
  5
5B7
  8
001
  0
POLYLINE
  5
5BF
  8
001
 66
     1
 10
0.0
 20
0.0
 30
0.0
  0
VERTEX
  5
5C1
  8
001
 10
106.16929
 20
33.918849999999999
 30
0.0
  0
VERTEX
  5
5C2
  8
001
 10
106.22357700000001
 20
33.924498999999997
 30
0.0
  0
VERTEX
  5
5C3
  8
001
 10
106.278103
 20
33.927295000000001
 30
0.0
  0
VERTEX
  5
5C4
  8
001
 10
106.331095
 20
33.924803000000011
 30
0.0
  0
VERTEX
  5
5C5
  8
001
 10
106.38315299999999
 20
33.915622999999997
 30
0.0
  0
VERTEX
  5
5C6
  8
001
 10
106.431809
 20
33.899912999999998
 30
0.0
  0
VERTEX
  5
5C7
  8
001
 10
106.479376
 20
33.880434000000001
 30
0.0
  0
SEQEND
  5
5C0
  8
001
  0
POLYLINE
  5
5C8
  8
001
 66
     1
 10
0.0
 20
0.0
 30
0.0
  0
VERTEX
  5
5CA
  8
001
 10
99.287571
 20
33.478149999999999
 30
0.0
  0
VERTEX
  5
5CB
  8
001
 10
99.289468999999997
 20
33.445414999999997
 30
0.0
  0
VERTEX
  5
5CC
  8
001
 10
99.295083000000005
 20
33.400855999999997
 30
0.0
  0
VERTEX
  5
5CD
  8
001
 10
99.304405000000017
 20
33.361426000000002
 30
0.0
  0
VERTEX
  5
5CE
  8
001
 10
99.317331999999993
 20
33.326382000000002
 30
0.0
  0
VERTEX
  5
5CF
  8
001
 10
99.333718000000005
 20
33.291626000000001
 30
0.0
  0
VERTEX
  5
5D0
  8
001
 10
99.353460999999996
 20
33.257746000000012
 30
0.0
  0
VERTEX
  5
5D1
  8
001
 10
99.376332000000005
 20
33.226357999999998
 30
0.0
  0
VERTEX
  5
5D2
  8
001
 10
99.402083000000005
 20
33.197586000000001
 30
0.0
  0
VERTEX
  5
5D3
  8
001
 10
99.430373000000003
 20
33.171472999999999
 30
0.0
  0
VERTEX
  5
5D4
  8
001
 10
99.461329000000021
 20
33.148214000000003
 30
0.0
  0
VERTEX
  5
5D5
  8
001
 10
99.494658000000001
 20
33.128188999999999
 30
0.0
  0
VERTEX
  5
5D6
  8
001
 10
99.528921999999994
 20
33.111527000000002
 30
0.0
  0
VERTEX
  5
5D7
  8
001
 10
99.563395999999983
 20
33.098410000000001
 30
0.0
  0
VERTEX
  5
5D8
  8
001
 10
99.602265000000003
 20
33.088934999999999
 30
0.0
  0
VERTEX
  5
5D9
  8
001
 10
99.646308000000005
 20
33.083221000000002
 30
0.0
  0
VERTEX
  5
5DA
  8
001
 10
99.678539999999998
 20
33.081307000000002
 30
0.0
  0
SEQEND
  5
5C9
  8
001
  0
LINE
  5
5DB
  8
001
 10
99.287571
 20
35.08130700000001
 30
0.0
 11
98.487571000000003
 21
35.881307
 31
0.0
  0
LINE
  5
5DC
  8
001
 10
109.39233
 20
31.781307000000002
 30
0.0
 11
108.18757100000001
 21
31.781307000000002
 31
0.0
  0
LINE
  5
5DD
  8
001
  6
PHANTOM
 10
106.88757099999999
 20
33.081307000000002
 30
0.0
 11
99.287571
 21
33.081307000000002
 31
0.0
  0
LINE
  5
5DE
  8
001
  6
PHANTOM
 10
99.287571
 20
35.08130700000001
 30
0.0
 11
99.287571
 21
33.081307000000002
 31
0.0
  0
LINE
  5
5DF
  8
001
  6
PHANTOM
 10
98.787571000000014
 20
35.581307000000002
 30
0.0
 11
99.287571
 21
35.08130700000001
 31
0.0
  0
LINE
  5
5E0
  8
001
 10
107.34203599999999
 20
34.993299999999998
 30
0.0
 11
107.332171
 21
34.597543999999999
 31
0.0
  0
POLYLINE
  5
5E1
  8
001
 66
     1
 10
0.0
 20
0.0
 30
0.0
  0
VERTEX
  5
5E3
  8
001
 10
107.11014299999999
 20
34.377580000000002
 30
0.0
  0
VERTEX
  5
5E4
  8
001
 10
107.113027
 20
34.481492000000003
 30
0.0
  0
VERTEX
  5
5E5
  8
001
 10
107.117231
 20
34.633364
 30
0.0
  0
VERTEX
  5
5E6
  8
001
 10
107.121432
 20
34.785711999999997
 30
0.0
  0
VERTEX
  5
5E7
  8
001
 10
107.124298
 20
34.889951000000003
 30
0.0
  0
VERTEX
  5
5E8
  8
001
 10
107.125939
 20
34.949694000000001
 30
0.0
  0
VERTEX
  5
5E9
  8
001
 10
107.127579
 20
35.009436999999998
 30
0.0
  0
SEQEND
  5
5E2
  8
001
  0
LINE
  5
5EA
  8
001
 10
107.772051
 20
36.303045000000012
 30
0.0
 11
107.739756
 21
35.007534
 31
0.0
  0
POLYLINE
  5
5EB
  8
001
 66
     1
 10
0.0
 20
0.0
 30
0.0
  0
VERTEX
  5
5ED
  8
001
 10
106.635828
 20
33.897092000000001
 30
0.0
  0
VERTEX
  5
5EE
  8
001
 10
106.614248
 20
33.872688000000011
 30
0.0
  0
VERTEX
  5
5EF
  8
001
 10
106.586928
 20
33.837164999999999
 30
0.0
  0
VERTEX
  5
5F0
  8
001
 10
106.565873
 20
33.802646000000003
 30
0.0
  0
VERTEX
  5
5F1
  8
001
 10
106.55047999999999
 20
33.768703000000002
 30
0.0
  0
VERTEX
  5
5F2
  8
001
 10
106.537689
 20
33.732388
 30
0.0
  0
VERTEX
  5
5F3
  8
001
 10
106.527886
 20
33.694336
 30
0.0
  0
VERTEX
  5
5F4
  8
001
 10
106.52201700000001
 20
33.655710999999997
 30
0.0
  0
VERTEX
  5
5F5
  8
001
 10
106.520015
 20
33.616922000000002
 30
0.0
  0
VERTEX
  5
5F6
  8
001
 10
106.521657
 20
33.578113999999999
 30
0.0
  0
VERTEX
  5
5F7
  8
001
 10
106.527168
 20
33.539436000000002
 30
0.0
  0
VERTEX
  5
5F8
  8
001
 10
106.536616
 20
33.501290000000012
 30
0.0
  0
VERTEX
  5
5F9
  8
001
 10
106.54907
 20
33.464855999999997
 30
0.0
  0
VERTEX
  5
5FA
  8
001
 10
106.56414700000001
 20
33.430765999999998
 30
0.0
  0
VERTEX
  5
5FB
  8
001
 10
106.584881
 20
33.396047000000003
 30
0.0
  0
VERTEX
  5
5FC
  8
001
 10
106.61187
 20
33.360265000000012
 30
0.0
  0
VERTEX
  5
5FD
  8
001
 10
106.633223
 20
33.335655000000003
 30
0.0
  0
SEQEND
  5
5EC
  8
001
  0
POLYLINE
  5
5FE
  8
001
 66
     1
 10
0.0
 20
0.0
 30
0.0
  0
VERTEX
  5
600
  8
001
 10
106.479376
 20
33.880434000000001
 30
0.0
  0
VERTEX
  5
601
  8
001
 10
106.488197
 20
33.846175000000002
 30
0.0
  0
VERTEX
  5
602
  8
001
 10
106.51420299999999
 20
33.806137999999997
 30
0.0
  0
VERTEX
  5
603
  8
001
 10
106.519435
 20
33.801993000000003
 30
0.0
  0
VERTEX
  5
604
  8
001
 10
106.52502699999999
 20
33.798333
 30
0.0
  0
VERTEX
  5
605
  8
001
 10
106.540148
 20
33.789313
 30
0.0
  0
VERTEX
  5
606
  8
001
 10
106.555269
 20
33.780293
 30
0.0
  0
SEQEND
  5
5FF
  8
001
  0
LINE
  5
607
  8
001
  6
PHANTOM
 10
98.787571000000014
 20
35.581307000000002
 30
0.0
 11
97.189082999999997
 21
35.581307000000002
 31
0.0
  0
LINE
  5
608
  8
001
  6
PHANTOM
 10
106.88757099999999
 20
47.081307000000002
 30
0.0
 11
99.287571
 21
47.081307000000002
 31
0.0
  0
LINE
  5
609
  8
001
  6
PHANTOM
 10
99.287571
 20
45.081307000000002
 30
0.0
 11
99.287571
 21
47.081307000000002
 31
0.0
  0
LINE
  5
60A
  8
001
  6
PHANTOM
 10
98.787571000000014
 20
44.581307000000002
 30
0.0
 11
99.287571
 21
45.081307000000002
 31
0.0
  0
LINE
  5
60B
  8
001
  6
PHANTOM
 10
108.18757100000001
 20
48.381307
 30
0.0
 11
106.88757099999999
 21
47.081307000000002
 31
0.0
  0
LINE
  5
60C
  8
001
  6
PHANTOM
 10
98.787571000000014
 20
44.581307000000002
 30
0.0
 11
97.189082999999997
 21
44.581307000000002
 31
0.0
  0
LINE
  5
60D
  8
001
  6
PHANTOM
 10
107.88757099999999
 20
32.081307000000002
 30
0.0
 11
107.88757099999999
 21
29.780550999999999
 31
0.0
  0
LINE
  5
60E
  8
001
  6
PHANTOM
 10
106.88757099999999
 20
33.081307000000002
 30
0.0
 11
107.88757099999999
 21
32.081307000000002
 31
0.0
  0
LINE
  5
60F
  8
001
 10
106.633223
 20
33.335655000000003
 30
0.0
 11
108.18757100000001
 21
31.781307000000002
 31
0.0
  0
LINE
  5
610
  8
001
  6
PHANTOM
 10
107.88757099999999
 20
48.081307000000002
 30
0.0
 11
107.88757099999999
 21
50.382063000000002
 31
0.0
  0
LINE
  5
611
  8
001
  6
PHANTOM
 10
108.18757100000001
 20
48.381307
 30
0.0
 11
109.39233
 21
48.381307
 31
0.0
  0
ARC
  5
612
  8
001
 10
110.76698
 20
30.916081999999999
 30
0.0
 40
0.3797747215576378
 50
224.29150300000001
 51
315.16856100000001
  0
LINE
  5
613
  8
001
  6
CENTER
 10
106.931911
 20
30.536307000000001
 30
0.0
 11
110.76698
 21
30.536307000000001
 31
0.0
  0
LINE
  5
614
  8
001
  6
CENTER
 10
106.931911
 20
49.626306999999997
 30
0.0
 11
110.76698
 21
49.626306999999997
 31
0.0
  0
ENDSEC
  0
EOF
