  0
SECTION
  2
HEADER
  9
$ACADVER
  1
AC1015
  9
$ACADMAINTVER
 70
     6
  9
$DWGCODEPAGE
  3
ANSI_932
  9
$INSBASE
 10
0.0
 20
0.0
 30
0.0
  9
$EXTMIN
 10
50.049194
 20
31.411316
 30
0.0
  9
$EXTMAX
 10
423.01355
 20
413.57605
 30
0.0
  9
$LIMMIN
 10
0.0
 20
0.0
  9
$LIMMAX
 10
12.0
 20
9.0
  9
$ORTHOMODE
 70
     0
  9
$REGENMODE
 70
     1
  9
$FILLMODE
 70
     1
  9
$QTEXTMODE
 70
     0
  9
$MIRRTEXT
 70
     1
  9
$LTSCALE
 40
5.339965
  9
$ATTMODE
 70
     1
  9
$TEXTSIZE
 40
3.2
  9
$TRACEWID
 40
1.0
  9
$TEXTSTYLE
  7
Standard
  9
$CLAYER
  8
0
  9
$CELTYPE
  6
ByLayer
  9
$CECOLOR
 62
   256
  9
$CELTSCALE
 40
1.0
  9
$DISPSILH
 70
     0
  9
$DIMSCALE
 40
1.0
  9
$DIMASZ
 40
2.5
  9
$DIMEXO
 40
0.625
  9
$DIMDLI
 40
3.75
  9
$DIMRND
 40
0.0
  9
$DIMDLE
 40
0.0
  9
$DIMEXE
 40
1.25
  9
$DIMTP
 40
0.0
  9
$DIMTM
 40
0.0
  9
$DIMTXT
 40
2.5
  9
$DIMCEN
 40
0.09
  9
$DIMTSZ
 40
0.0
  9
$DIMTOL
 70
     0
  9
$DIMLIM
 70
     0
  9
$DIMTIH
 70
     0
  9
$DIMTOH
 70
     0
  9
$DIMSE1
 70
     0
  9
$DIMSE2
 70
     0
  9
$DIMTAD
 70
     0
  9
$DIMZIN
 70
     8
  9
$DIMBLK
  1

  9
$DIMASO
 70
     1
  9
$DIMSHO
 70
     0
  9
$DIMPOST
  1

  9
$DIMAPOST
  1

  9
$DIMALT
 70
     0
  9
$DIMALTD
 70
     3
  9
$DIMALTF
 40
0.03937
  9
$DIMLFAC
 40
1.0
  9
$DIMTOFL
 70
     1
  9
$DIMTVP
 40
0.0
  9
$DIMTIX
 70
     0
  9
$DIMSOXD
 70
     0
  9
$DIMSAH
 70
     0
  9
$DIMBLK1
  1

  9
$DIMBLK2
  1

  9
$DIMSTYLE
  2
ISO-25
  9
$DIMCLRD
 70
     0
  9
$DIMCLRE
 70
     0
  9
$DIMCLRT
 70
     0
  9
$DIMTFAC
 40
1.0
  9
$DIMGAP
 40
0.625
  9
$DIMJUST
 70
     0
  9
$DIMSD1
 70
     0
  9
$DIMSD2
 70
     0
  9
$DIMTOLJ
 70
     0
  9
$DIMTZIN
 70
     8
  9
$DIMALTZ
 70
     0
  9
$DIMALTTZ
 70
     0
  9
$DIMUPT
 70
     0
  9
$DIMDEC
 70
     2
  9
$DIMTDEC
 70
     2
  9
$DIMALTU
 70
     2
  9
$DIMALTTD
 70
     3
  9
$DIMTXSTY
  7
Standard
  9
$DIMAUNIT
 70
     0
  9
$DIMADEC
 70
     0
  9
$DIMALTRND
 40
0.0
  9
$DIMAZIN
 70
     0
  9
$DIMDSEP
 70
    44
  9
$DIMATFIT
 70
     3
  9
$DIMFRAC
 70
     0
  9
$DIMLDRBLK
  1

  9
$DIMLUNIT
 70
     2
  9
$DIMLWD
 70
    -2
  9
$DIMLWE
 70
    -2
  9
$DIMTMOVE
 70
     0
  9
$LUNITS
 70
     2
  9
$LUPREC
 70
     4
  9
$SKETCHINC
 40
1.0
  9
$FILLETRAD
 40
0.0
  9
$AUNITS
 70
     0
  9
$AUPREC
 70
     0
  9
$MENU
  1
.
  9
$ELEVATION
 40
0.0
  9
$PELEVATION
 40
0.0
  9
$THICKNESS
 40
0.0
  9
$LIMCHECK
 70
     0
  9
$CHAMFERA
 40
10.0
  9
$CHAMFERB
 40
10.0
  9
$CHAMFERC
 40
20.0
  9
$CHAMFERD
 40
0.0
  9
$SKPOLY
 70
     0
  9
$TDCREATE
 40
2454848.495246852
  9
$TDUCREATE
 40
2454848.120246852
  9
$TDUPDATE
 40
2454848.495246863
  9
$TDUUPDATE
 40
2454848.120246863
  9
$TDINDWG
 40
0.0000000116
  9
$TDUSRTIMER
 40
0.0000000116
  9
$USRTIMER
 70
     1
  9
$ANGBASE
 50
0.0
  9
$ANGDIR
 70
     0
  9
$PDMODE
 70
     0
  9
$PDSIZE
 40
0.0
  9
$PLINEWID
 40
0.0
  9
$SPLFRAME
 70
     0
  9
$SPLINETYPE
 70
     6
  9
$SPLINESEGS
 70
     8
  9
$HANDSEED
  5
636
  9
$SURFTAB1
 70
     6
  9
$SURFTAB2
 70
     6
  9
$SURFTYPE
 70
     6
  9
$SURFU
 70
     6
  9
$SURFV
 70
     6
  9
$UCSBASE
  2

  9
$UCSNAME
  2

  9
$UCSORG
 10
0.0
 20
0.0
 30
0.0
  9
$UCSXDIR
 10
1.0
 20
0.0
 30
0.0
  9
$UCSYDIR
 10
0.0
 20
1.0
 30
0.0
  9
$UCSORTHOREF
  2

  9
$UCSORTHOVIEW
 70
     0
  9
$UCSORGTOP
 10
0.0
 20
0.0
 30
0.0
  9
$UCSORGBOTTOM
 10
0.0
 20
0.0
 30
0.0
  9
$UCSORGLEFT
 10
0.0
 20
0.0
 30
0.0
  9
$UCSORGRIGHT
 10
0.0
 20
0.0
 30
0.0
  9
$UCSORGFRONT
 10
0.0
 20
0.0
 30
0.0
  9
$UCSORGBACK
 10
0.0
 20
0.0
 30
0.0
  9
$PUCSBASE
  2

  9
$PUCSNAME
  2

  9
$PUCSORG
 10
0.0
 20
0.0
 30
0.0
  9
$PUCSXDIR
 10
1.0
 20
0.0
 30
0.0
  9
$PUCSYDIR
 10
0.0
 20
1.0
 30
0.0
  9
$PUCSORTHOREF
  2

  9
$PUCSORTHOVIEW
 70
     0
  9
$PUCSORGTOP
 10
0.0
 20
0.0
 30
0.0
  9
$PUCSORGBOTTOM
 10
0.0
 20
0.0
 30
0.0
  9
$PUCSORGLEFT
 10
0.0
 20
0.0
 30
0.0
  9
$PUCSORGRIGHT
 10
0.0
 20
0.0
 30
0.0
  9
$PUCSORGFRONT
 10
0.0
 20
0.0
 30
0.0
  9
$PUCSORGBACK
 10
0.0
 20
0.0
 30
0.0
  9
$USERI1
 70
     0
  9
$USERI2
 70
     0
  9
$USERI3
 70
     0
  9
$USERI4
 70
     0
  9
$USERI5
 70
     0
  9
$USERR1
 40
0.0
  9
$USERR2
 40
0.0
  9
$USERR3
 40
0.0
  9
$USERR4
 40
0.0
  9
$USERR5
 40
0.0
  9
$WORLDVIEW
 70
     1
  9
$SHADEDGE
 70
     3
  9
$SHADEDIF
 70
    70
  9
$TILEMODE
 70
     1
  9
$MAXACTVP
 70
    64
  9
$PINSBASE
 10
0.0
 20
0.0
 30
0.0
  9
$PLIMCHECK
 70
     0
  9
$PEXTMIN
 10
1.000000E+20
 20
1.000000E+20
 30
0.0
  9
$PEXTMAX
 10
-1.000000E+20
 20
-1.000000E+20
 30
0.0
  9
$PLIMMIN
 10
0.0
 20
0.0
  9
$PLIMMAX
 10
12.0
 20
9.0
  9
$UNITMODE
 70
     0
  9
$VISRETAIN
 70
     1
  9
$PLINEGEN
 70
     0
  9
$PSLTSCALE
 70
     1
  9
$TREEDEPTH
 70
  3020
  9
$CMLSTYLE
  2
Standard
  9
$CMLJUST
 70
     0
  9
$CMLSCALE
 40
20.0
  9
$PROXYGRAPHICS
 70
     1
  9
$MEASUREMENT
 70
     1
  9
$CELWEIGHT
370
    -1
  9
$ENDCAPS
280
     0
  9
$JOINSTYLE
280
     0
  9
$LWDISPLAY
290
     0
  9
$INSUNITS
 70
     4
  9
$HYPERLINKBASE
  1

  9
$STYLESHEET
  1

  9
$XEDIT
290
     1
  9
$CEPSNTYPE
380
     0
  9
$PSTYLEMODE
290
     1
  9
$FINGERPRINTGUID
  2
{08E271D0-0417-4DB1-BCAE-A106AAF90C35}
  9
$VERSIONGUID
  2
{FAEB1C32-E019-11D5-929B-00C0DF256EC4}
  9
$EXTNAMES
290
     1
  9
$PSVPSCALE
 40
0.0
  9
$OLESTARTUP
290
     0
  0
ENDSEC
  0
SECTION
  2
CLASSES
  0
CLASS
  1
ACDBDICTIONARYWDFLT
  2
AcDbDictionaryWithDefault
  3
ObjectDBX Classes
 90
        0
280
     0
281
     0
  0
CLASS
  1
VISUALSTYLE
  2
AcDbVisualStyle
  3
ObjectDBX Classes
 90
     4095
280
     0
281
     0
  0
CLASS
  1
SCALE
  2
AcDbScale
  3
ObjectDBX Classes
 90
     1153
280
     0
281
     0
  0
CLASS
  1
DICTIONARYVAR
  2
AcDbDictionaryVar
  3
ObjectDBX Classes
 90
        0
280
     0
281
     0
  0
CLASS
  1
ACDBPLACEHOLDER
  2
AcDbPlaceHolder
  3
ObjectDBX Classes
 90
        0
280
     0
281
     0
  0
CLASS
  1
LAYOUT
  2
AcDbLayout
  3
ObjectDBX Classes
 90
        0
280
     0
281
     0
  0
ENDSEC
  0
SECTION
  2
TABLES
  0
TABLE
  2
VPORT
  5
8
330
0
100
AcDbSymbolTable
 70
     1
  0
VPORT
  5
29
330
8
100
AcDbSymbolTableRecord
100
AcDbViewportTableRecord
  2
*Active
 70
     0
 10
0.0
 20
0.0
 11
1.0
 21
1.0
 12
236.531372
 22
222.493683
 13
0.0
 23
0.0
 14
1.0
 24
1.0
 15
0.0
 25
0.0
 16
0.0
 26
0.0
 36
1.0
 17
0.0
 27
0.0
 37
0.0
 40
385.986381
 41
1.691288
 42
50.0
 43
0.0
 44
0.0
 50
0.0
 51
0.0
 71
     0
 72
   100
 73
     1
 74
     3
 75
     0
 76
     0
 77
     0
 78
     0
281
     0
 65
     1
110
0.0
120
0.0
130
0.0
111
1.0
121
0.0
131
0.0
112
0.0
122
1.0
132
0.0
 79
     0
146
0.0
  0
ENDTAB
  0
TABLE
  2
LTYPE
  5
5
330
0
100
AcDbSymbolTable
 70
     5
  0
LTYPE
  5
14
330
5
100
AcDbSymbolTableRecord
100
AcDbLinetypeTableRecord
  2
ByBlock
 70
     0
  3

 72
    65
 73
     0
 40
0.0
  0
LTYPE
  5
15
330
5
100
AcDbSymbolTableRecord
100
AcDbLinetypeTableRecord
  2
ByLayer
 70
     0
  3

 72
    65
 73
     0
 40
0.0
  0
LTYPE
  5
16
330
5
100
AcDbSymbolTableRecord
100
AcDbLinetypeTableRecord
  2
Continuous
 70
     0
  3
Solid line
 72
    65
 73
     0
 40
0.0
  0
LTYPE
  5
5D
330
5
100
AcDbSymbolTableRecord
100
AcDbLinetypeTableRecord
  2
DASHED
 70
     0
  3
DASHED
 72
    83
 73
     2
 40
0.75
 49
0.5
 74
     0
 49
-0.25
 74
     0
  0
LTYPE
  5
5E
330
5
100
AcDbSymbolTableRecord
100
AcDbLinetypeTableRecord
  2
HIDDEN
 70
     0
  3
HIDDEN
 72
    83
 73
     2
 40
0.375
 49
0.25
 74
     0
 49
-0.125
 74
     0
  0
LTYPE
  5
5F
330
5
100
AcDbSymbolTableRecord
100
AcDbLinetypeTableRecord
  2
CENTER
 70
     0
  3
CENTER
 72
    83
 73
     4
 40
2.0
 49
1.25
 74
     0
 49
-0.25
 74
     0
 49
0.25
 74
     0
 49
-0.25
 74
     0
  0
LTYPE
  5
60
330
5
100
AcDbSymbolTableRecord
100
AcDbLinetypeTableRecord
  2
PHANTOM
 70
     0
  3
PHANTOM
 72
    83
 73
     6
 40
2.5
 49
1.25
 74
     0
 49
-0.25
 74
     0
 49
0.25
 74
     0
 49
-0.25
 74
     0
 49
0.25
 74
     0
 49
-0.25
 74
     0
  0
ENDTAB
  0
TABLE
  2
LAYER
  5
2
330
0
100
AcDbSymbolTable
 70
     2
  0
LAYER
  5
10
330
2
100
AcDbSymbolTableRecord
100
AcDbLayerTableRecord
  2
0
 70
     0
 62
     7
  6
Continuous
370
    -3
390
F
  0
LAYER
  5
61
330
2
100
AcDbSymbolTableRecord
100
AcDbLayerTableRecord
  2
001
 70
     0
 62
     7
  6
Continuous
370
    -3
390
F
  0
ENDTAB
  0
TABLE
  2
STYLE
  5
3
330
0
100
AcDbSymbolTable
 70
     2
  0
STYLE
  5
11
330
3
100
AcDbSymbolTableRecord
100
AcDbTextStyleTableRecord
  2
Standard
 70
     0
 40
0.0
 41
1.0
 50
0.0
 71
     0
 42
0.2
  3
TXT
  4
BIGFONT
  0
STYLE
  5
62
330
3
100
AcDbSymbolTableRecord
100
AcDbTextStyleTableRecord
  2
TATEGAKI
 70
     4
 40
1.0
 41
1.0
 50
0.0
 71
     0
 42
0.2
  3
TXT
  4
BIGFONT
  0
ENDTAB
  0
TABLE
  2
VIEW
  5
6
330
0
100
AcDbSymbolTable
 70
     0
  0
ENDTAB
  0
TABLE
  2
UCS
  5
7
330
0
100
AcDbSymbolTable
 70
     0
  0
ENDTAB
  0
TABLE
  2
APPID
  5
9
330
0
100
AcDbSymbolTable
 70
     1
  0
APPID
  5
12
330
9
100
AcDbSymbolTableRecord
100
AcDbRegAppTableRecord
  2
ACAD
 70
     0
  0
ENDTAB
  0
TABLE
  2
DIMSTYLE
  5
A
330
0
100
AcDbSymbolTable
 70
     2
100
AcDbDimStyleTable
  0
DIMSTYLE
105
27
330
A
100
AcDbSymbolTableRecord
100
AcDbDimStyleTableRecord
  2
ISO-25
 70
     0
 41
2.5
 42
0.625
 43
3.75
 44
1.25
 73
     0
 74
     0
 77
     1
 78
     8
140
2.5
141
2.5
143
0.03937
147
0.625
171
     3
172
     1
271
     2
272
     2
274
     3
278
    44
283
     0
284
     8
340
11
  0
DIMSTYLE
105
63
102
{ACAD_REACTORS
330
130
330
131
330
132
330
13F
330
140
330
14C
330
159
330
15A
330
166
330
167
102
}
330
A
100
AcDbSymbolTableRecord
100
AcDbDimStyleTableRecord
  2
Standard
 70
     0
 41
1.5
 42
0.0
 44
2.75
 73
     0
 74
     0
 77
     1
 78
     8
 79
     2
140
4.0
146
0.8
147
1.0
172
     1
179
     1
271
     1
340
11
  0
ENDTAB
  0
TABLE
  2
BLOCK_RECORD
  5
1
330
0
100
AcDbSymbolTable
 70
    11
  0
BLOCK_RECORD
  5
1F
330
1
100
AcDbSymbolTableRecord
100
AcDbBlockTableRecord
  2
*Model_Space
340
22
  0
BLOCK_RECORD
  5
1B
330
1
100
AcDbSymbolTableRecord
100
AcDbBlockTableRecord
  2
*Paper_Space
340
1E
  0
BLOCK_RECORD
  5
23
330
1
100
AcDbSymbolTableRecord
100
AcDbBlockTableRecord
  2
*Paper_Space0
340
26
  0
BLOCK_RECORD
  5
64
330
1
100
AcDbSymbolTableRecord
100
AcDbBlockTableRecord
  2
*D1
340
0
  0
BLOCK_RECORD
  5
78
330
1
100
AcDbSymbolTableRecord
100
AcDbBlockTableRecord
  2
*D2
340
0
  0
BLOCK_RECORD
  5
8C
330
1
100
AcDbSymbolTableRecord
100
AcDbBlockTableRecord
  2
*D3
340
0
  0
BLOCK_RECORD
  5
A0
330
1
100
AcDbSymbolTableRecord
100
AcDbBlockTableRecord
  2
*D4
340
0
  0
BLOCK_RECORD
  5
B4
330
1
100
AcDbSymbolTableRecord
100
AcDbBlockTableRecord
  2
*D5
340
0
  0
BLOCK_RECORD
  5
CA
330
1
100
AcDbSymbolTableRecord
100
AcDbBlockTableRecord
  2
*D6
340
0
  0
BLOCK_RECORD
  5
DE
330
1
100
AcDbSymbolTableRecord
100
AcDbBlockTableRecord
  2
*D7
340
0
  0
BLOCK_RECORD
  5
F2
330
1
100
AcDbSymbolTableRecord
100
AcDbBlockTableRecord
  2
*D8
340
0
  0
BLOCK_RECORD
  5
108
330
1
100
AcDbSymbolTableRecord
100
AcDbBlockTableRecord
  2
*D9
340
0
  0
BLOCK_RECORD
  5
11C
330
1
100
AcDbSymbolTableRecord
100
AcDbBlockTableRecord
  2
*D10
340
0
  0
ENDTAB
  0
ENDSEC
  0
SECTION
  2
BLOCKS
  0
BLOCK
  5
20
330
1F
100
AcDbEntity
  8
0
100
AcDbBlockBegin
  2
*Model_Space
 70
     0
 10
0.0
 20
0.0
 30
0.0
  3
*Model_Space
  1

  0
ENDBLK
  5
21
330
1F
100
AcDbEntity
  8
0
100
AcDbBlockEnd
  0
BLOCK
  5
1C
330
1B
100
AcDbEntity
 67
     1
  8
0
100
AcDbBlockBegin
  2
*Paper_Space
 70
     0
 10
0.0
 20
0.0
 30
0.0
  3
*Paper_Space
  1

  0
ENDBLK
  5
1D
330
1B
100
AcDbEntity
 67
     1
  8
0
100
AcDbBlockEnd
  0
BLOCK
  5
24
330
23
100
AcDbEntity
  8
0
100
AcDbBlockBegin
  2
*Paper_Space0
 70
     0
 10
0.0
 20
0.0
 30
0.0
  3
*Paper_Space0
  1

  0
ENDBLK
  5
25
330
23
100
AcDbEntity
  8
0
100
AcDbBlockEnd
  0
BLOCK
  5
65
330
64
100
AcDbEntity
  8
0
100
AcDbBlockBegin
  2
*D1
 70
     1
 10
0.0
 20
0.0
 30
0.0
  3
*D1
  1

  0
LINE
  5
67
330
64
100
AcDbEntity
  8
001
370
     9
100
AcDbLine
 10
127.753162
 20
90.646486
 30
0.0
 11
127.753162
 21
44.172449
 31
0.0
  0
LINE
  5
68
330
64
100
AcDbEntity
  8
001
370
     9
100
AcDbLine
 10
92.753162
 20
76.526437
 30
0.0
 11
92.753162
 21
44.172449
 31
0.0
  0
LINE
  5
69
330
64
100
AcDbEntity
  8
001
370
     9
100
AcDbLine
 10
127.753162
 20
46.922449
 30
0.0
 11
92.753162
 21
46.922449
 31
0.0
  0
POLYLINE
  5
6A
330
64
100
AcDbEntity
  8
001
370
     9
100
AcDb2dPolyline
 66
     1
 10
0.0
 20
0.0
 30
0.0
  0
VERTEX
  5
6C
330
6A
100
AcDbEntity
  8
001
370
     9
100
AcDbVertex
100
AcDb2dVertex
 10
126.253162
 20
47.324373
 30
0.0
  0
VERTEX
  5
6D
330
6A
100
AcDbEntity
  8
001
370
     9
100
AcDbVertex
100
AcDb2dVertex
 10
127.753162
 20
46.922449
 30
0.0
  0
VERTEX
  5
6E
330
6A
100
AcDbEntity
  8
001
370
     9
100
AcDbVertex
100
AcDb2dVertex
 10
126.253162
 20
46.520526
 30
0.0
  0
SEQEND
  5
6B
330
6A
100
AcDbEntity
  8
001
370
     9
  0
POLYLINE
  5
6F
330
64
100
AcDbEntity
  8
001
370
     9
100
AcDb2dPolyline
 66
     1
 10
0.0
 20
0.0
 30
0.0
  0
VERTEX
  5
71
330
6F
100
AcDbEntity
  8
001
370
     9
100
AcDbVertex
100
AcDb2dVertex
 10
94.253162
 20
46.520526
 30
0.0
  0
VERTEX
  5
72
330
6F
100
AcDbEntity
  8
001
370
     9
100
AcDbVertex
100
AcDb2dVertex
 10
92.753162
 20
46.922449
 30
0.0
  0
VERTEX
  5
73
330
6F
100
AcDbEntity
  8
001
370
     9
100
AcDbVertex
100
AcDb2dVertex
 10
94.253162
 20
47.324373
 30
0.0
  0
SEQEND
  5
70
330
6F
100
AcDbEntity
  8
001
370
     9
  0
TEXT
  5
74
330
64
100
AcDbEntity
  8
001
370
    30
100
AcDbText
 10
106.253162
 20
47.922449
 30
0.0
 40
4.0
  1
３５
 41
0.833333
100
AcDbText
  0
POINT
  5
75
330
64
100
AcDbEntity
  8
001
370
     9
100
AcDbPoint
 10
127.753162
 20
90.646486
 30
0.0
  0
POINT
  5
76
330
64
100
AcDbEntity
  8
001
370
     9
100
AcDbPoint
 10
92.753162
 20
76.526437
 30
0.0
  0
POINT
  5
77
330
64
100
AcDbEntity
  8
001
370
     9
100
AcDbPoint
 10
92.753162
 20
46.922449
 30
0.0
  0
ENDBLK
  5
66
330
64
100
AcDbEntity
  8
0
100
AcDbBlockEnd
  0
BLOCK
  5
79
330
78
100
AcDbEntity
  8
0
100
AcDbBlockBegin
  2
*D2
 70
     1
 10
0.0
 20
0.0
 30
0.0
  3
*D2
  1

  0
LINE
  5
7B
330
78
100
AcDbEntity
  8
001
370
     9
100
AcDbLine
 10
227.753162
 20
99.896486
 30
0.0
 11
227.753162
 21
44.172449
 31
0.0
  0
LINE
  5
7C
330
78
100
AcDbEntity
  8
001
370
     9
100
AcDbLine
 10
127.753162
 20
90.646486
 30
0.0
 11
127.753162
 21
44.172449
 31
0.0
  0
LINE
  5
7D
330
78
100
AcDbEntity
  8
001
370
     9
100
AcDbLine
 10
227.753162
 20
46.922449
 30
0.0
 11
127.753162
 21
46.922449
 31
0.0
  0
POLYLINE
  5
7E
330
78
100
AcDbEntity
  8
001
370
     9
100
AcDb2dPolyline
 66
     1
 10
0.0
 20
0.0
 30
0.0
  0
VERTEX
  5
80
330
7E
100
AcDbEntity
  8
001
370
     9
100
AcDbVertex
100
AcDb2dVertex
 10
226.253162
 20
47.324373
 30
0.0
  0
VERTEX
  5
81
330
7E
100
AcDbEntity
  8
001
370
     9
100
AcDbVertex
100
AcDb2dVertex
 10
227.753162
 20
46.922449
 30
0.0
  0
VERTEX
  5
82
330
7E
100
AcDbEntity
  8
001
370
     9
100
AcDbVertex
100
AcDb2dVertex
 10
226.253162
 20
46.520526
 30
0.0
  0
SEQEND
  5
7F
330
7E
100
AcDbEntity
  8
001
370
     9
  0
POLYLINE
  5
83
330
78
100
AcDbEntity
  8
001
370
     9
100
AcDb2dPolyline
 66
     1
 10
0.0
 20
0.0
 30
0.0
  0
VERTEX
  5
85
330
83
100
AcDbEntity
  8
001
370
     9
100
AcDbVertex
100
AcDb2dVertex
 10
129.253162
 20
46.520526
 30
0.0
  0
VERTEX
  5
86
330
83
100
AcDbEntity
  8
001
370
     9
100
AcDbVertex
100
AcDb2dVertex
 10
127.753162
 20
46.922449
 30
0.0
  0
VERTEX
  5
87
330
83
100
AcDbEntity
  8
001
370
     9
100
AcDbVertex
100
AcDb2dVertex
 10
129.253162
 20
47.324373
 30
0.0
  0
SEQEND
  5
84
330
83
100
AcDbEntity
  8
001
370
     9
  0
TEXT
  5
88
330
78
100
AcDbEntity
  8
001
370
    30
100
AcDbText
 10
171.753162
 20
47.922449
 30
0.0
 40
4.0
  1
１００
 41
0.833333
100
AcDbText
  0
POINT
  5
89
330
78
100
AcDbEntity
  8
001
370
     9
100
AcDbPoint
 10
227.753162
 20
99.896486
 30
0.0
  0
POINT
  5
8A
330
78
100
AcDbEntity
  8
001
370
     9
100
AcDbPoint
 10
127.753162
 20
90.646486
 30
0.0
  0
POINT
  5
8B
330
78
100
AcDbEntity
  8
001
370
     9
100
AcDbPoint
 10
127.753162
 20
46.922449
 30
0.0
  0
ENDBLK
  5
7A
330
78
100
AcDbEntity
  8
0
100
AcDbBlockEnd
  0
BLOCK
  5
8D
330
8C
100
AcDbEntity
  8
0
100
AcDbBlockBegin
  2
*D3
 70
     1
 10
0.0
 20
0.0
 30
0.0
  3
*D3
  1

  0
LINE
  5
8F
330
8C
100
AcDbEntity
  8
001
370
     9
100
AcDbLine
 10
227.753162
 20
99.896486
 30
0.0
 11
227.753162
 21
31.411326
 31
0.0
  0
LINE
  5
90
330
8C
100
AcDbEntity
  8
001
370
     9
100
AcDbLine
 10
92.753162
 20
76.526437
 30
0.0
 11
92.753162
 21
31.411326
 31
0.0
  0
LINE
  5
91
330
8C
100
AcDbEntity
  8
001
370
     9
100
AcDbLine
 10
227.753162
 20
34.161326
 30
0.0
 11
92.753162
 21
34.161326
 31
0.0
  0
POLYLINE
  5
92
330
8C
100
AcDbEntity
  8
001
370
     9
100
AcDb2dPolyline
 66
     1
 10
0.0
 20
0.0
 30
0.0
  0
VERTEX
  5
94
330
92
100
AcDbEntity
  8
001
370
     9
100
AcDbVertex
100
AcDb2dVertex
 10
226.253162
 20
34.56325
 30
0.0
  0
VERTEX
  5
95
330
92
100
AcDbEntity
  8
001
370
     9
100
AcDbVertex
100
AcDb2dVertex
 10
227.753162
 20
34.161326
 30
0.0
  0
VERTEX
  5
96
330
92
100
AcDbEntity
  8
001
370
     9
100
AcDbVertex
100
AcDb2dVertex
 10
226.253162
 20
33.759402
 30
0.0
  0
SEQEND
  5
93
330
92
100
AcDbEntity
  8
001
370
     9
  0
POLYLINE
  5
97
330
8C
100
AcDbEntity
  8
001
370
     9
100
AcDb2dPolyline
 66
     1
 10
0.0
 20
0.0
 30
0.0
  0
VERTEX
  5
99
330
97
100
AcDbEntity
  8
001
370
     9
100
AcDbVertex
100
AcDb2dVertex
 10
94.253162
 20
33.759402
 30
0.0
  0
VERTEX
  5
9A
330
97
100
AcDbEntity
  8
001
370
     9
100
AcDbVertex
100
AcDb2dVertex
 10
92.753162
 20
34.161326
 30
0.0
  0
VERTEX
  5
9B
330
97
100
AcDbEntity
  8
001
370
     9
100
AcDbVertex
100
AcDb2dVertex
 10
94.253162
 20
34.56325
 30
0.0
  0
SEQEND
  5
98
330
97
100
AcDbEntity
  8
001
370
     9
  0
TEXT
  5
9C
330
8C
100
AcDbEntity
  8
001
370
    30
100
AcDbText
 10
154.253162
 20
35.161326
 30
0.0
 40
4.0
  1
１３５
 41
0.833333
100
AcDbText
  0
POINT
  5
9D
330
8C
100
AcDbEntity
  8
001
370
     9
100
AcDbPoint
 10
227.753162
 20
99.896486
 30
0.0
  0
POINT
  5
9E
330
8C
100
AcDbEntity
  8
001
370
     9
100
AcDbPoint
 10
92.753162
 20
76.526437
 30
0.0
  0
POINT
  5
9F
330
8C
100
AcDbEntity
  8
001
370
     9
100
AcDbPoint
 10
92.753162
 20
34.161326
 30
0.0
  0
ENDBLK
  5
8E
330
8C
100
AcDbEntity
  8
0
100
AcDbBlockEnd
  0
BLOCK
  5
A1
330
A0
100
AcDbEntity
  8
0
100
AcDbBlockBegin
  2
*D4
 70
     1
 10
0.0
 20
0.0
 30
0.0
  3
*D4
  1

  0
LINE
  5
A3
330
A0
100
AcDbEntity
  8
001
370
     9
100
AcDbLine
 10
219.753162
 20
123.896486
 30
0.0
 11
259.160989
 21
123.896486
 31
0.0
  0
LINE
  5
A4
330
A0
100
AcDbEntity
  8
001
370
     9
100
AcDbLine
 10
219.753162
 20
91.896486
 30
0.0
 11
259.160989
 21
91.896486
 31
0.0
  0
LINE
  5
A5
330
A0
100
AcDbEntity
  8
001
370
     9
100
AcDbLine
 10
256.410989
 20
123.896486
 30
0.0
 11
256.410989
 21
91.896486
 31
0.0
  0
POLYLINE
  5
A6
330
A0
100
AcDbEntity
  8
001
370
     9
100
AcDb2dPolyline
 66
     1
 10
0.0
 20
0.0
 30
0.0
  0
VERTEX
  5
A8
330
A6
100
AcDbEntity
  8
001
370
     9
100
AcDbVertex
100
AcDb2dVertex
 10
256.009065
 20
122.396486
 30
0.0
  0
VERTEX
  5
A9
330
A6
100
AcDbEntity
  8
001
370
     9
100
AcDbVertex
100
AcDb2dVertex
 10
256.410989
 20
123.896486
 30
0.0
  0
VERTEX
  5
AA
330
A6
100
AcDbEntity
  8
001
370
     9
100
AcDbVertex
100
AcDb2dVertex
 10
256.812913
 20
122.396486
 30
0.0
  0
SEQEND
  5
A7
330
A6
100
AcDbEntity
  8
001
370
     9
  0
POLYLINE
  5
AB
330
A0
100
AcDbEntity
  8
001
370
     9
100
AcDb2dPolyline
 66
     1
 10
0.0
 20
0.0
 30
0.0
  0
VERTEX
  5
AD
330
AB
100
AcDbEntity
  8
001
370
     9
100
AcDbVertex
100
AcDb2dVertex
 10
256.812913
 20
93.396486
 30
0.0
  0
VERTEX
  5
AE
330
AB
100
AcDbEntity
  8
001
370
     9
100
AcDbVertex
100
AcDb2dVertex
 10
256.410989
 20
91.896486
 30
0.0
  0
VERTEX
  5
AF
330
AB
100
AcDbEntity
  8
001
370
     9
100
AcDbVertex
100
AcDb2dVertex
 10
256.009065
 20
93.396486
 30
0.0
  0
SEQEND
  5
AC
330
AB
100
AcDbEntity
  8
001
370
     9
  0
TEXT
  5
B0
330
A0
100
AcDbEntity
  8
001
370
    30
100
AcDbText
 10
255.410989
 20
101.896486
 30
0.0
 40
4.0
  1
%%c３２
 50
90.000003
 41
0.882353
100
AcDbText
  0
POINT
  5
B1
330
A0
100
AcDbEntity
  8
001
370
     9
100
AcDbPoint
 10
219.753162
 20
123.896486
 30
0.0
  0
POINT
  5
B2
330
A0
100
AcDbEntity
  8
001
370
     9
100
AcDbPoint
 10
219.753162
 20
91.896486
 30
0.0
  0
POINT
  5
B3
330
A0
100
AcDbEntity
  8
001
370
     9
100
AcDbPoint
 10
256.410989
 20
91.896486
 30
0.0
  0
ENDBLK
  5
A2
330
A0
100
AcDbEntity
  8
0
100
AcDbBlockEnd
  0
BLOCK
  5
B5
330
B4
100
AcDbEntity
  8
0
100
AcDbBlockBegin
  2
*D5
 70
     1
 10
0.0
 20
0.0
 30
0.0
  3
*D5
  1

  0
LINE
  5
B7
330
B4
100
AcDbEntity
  8
001
370
     9
100
AcDbLine
 10
92.753162
 20
76.526437
 30
0.0
 11
92.753162
 21
55.870237
 31
0.0
  0
LINE
  5
B8
330
B4
100
AcDbEntity
  8
001
370
     9
100
AcDbLine
 10
110.853162
 20
88.060709
 30
0.0
 11
110.853162
 21
55.870237
 31
0.0
  0
LINE
  5
B9
330
B4
100
AcDbEntity
  8
001
370
     9
100
AcDbLine
 10
92.753162
 20
58.620237
 30
0.0
 11
110.853162
 21
58.620237
 31
0.0
  0
POLYLINE
  5
BA
330
B4
100
AcDbEntity
  8
001
370
     9
100
AcDb2dPolyline
 66
     1
 10
0.0
 20
0.0
 30
0.0
  0
VERTEX
  5
BC
330
BA
100
AcDbEntity
  8
001
370
     9
100
AcDbVertex
100
AcDb2dVertex
 10
91.253162
 20
59.02216
 30
0.0
  0
VERTEX
  5
BD
330
BA
100
AcDbEntity
  8
001
370
     9
100
AcDbVertex
100
AcDb2dVertex
 10
92.753162
 20
58.620237
 30
0.0
  0
VERTEX
  5
BE
330
BA
100
AcDbEntity
  8
001
370
     9
100
AcDbVertex
100
AcDb2dVertex
 10
91.253162
 20
58.218313
 30
0.0
  0
SEQEND
  5
BB
330
BA
100
AcDbEntity
  8
001
370
     9
  0
POLYLINE
  5
BF
330
B4
100
AcDbEntity
  8
001
370
     9
100
AcDb2dPolyline
 66
     1
 10
0.0
 20
0.0
 30
0.0
  0
VERTEX
  5
C1
330
BF
100
AcDbEntity
  8
001
370
     9
100
AcDbVertex
100
AcDb2dVertex
 10
112.353162
 20
58.218313
 30
0.0
  0
VERTEX
  5
C2
330
BF
100
AcDbEntity
  8
001
370
     9
100
AcDbVertex
100
AcDb2dVertex
 10
110.853162
 20
58.620237
 30
0.0
  0
VERTEX
  5
C3
330
BF
100
AcDbEntity
  8
001
370
     9
100
AcDbVertex
100
AcDb2dVertex
 10
112.353162
 20
59.02216
 30
0.0
  0
SEQEND
  5
C0
330
BF
100
AcDbEntity
  8
001
370
     9
  0
TEXT
  5
C4
330
B4
100
AcDbEntity
  8
001
370
    30
100
AcDbText
 10
65.253162
 20
59.620237
 30
0.0
 40
4.0
  1
（１８．１）
 41
0.833333
100
AcDbText
  0
POINT
  5
C5
330
B4
100
AcDbEntity
  8
001
370
     9
100
AcDbPoint
 10
92.753162
 20
76.526437
 30
0.0
  0
POINT
  5
C6
330
B4
100
AcDbEntity
  8
001
370
     9
100
AcDbPoint
 10
110.853162
 20
88.060709
 30
0.0
  0
POINT
  5
C7
330
B4
100
AcDbEntity
  8
001
370
     9
100
AcDbPoint
 10
110.853162
 20
58.620237
 30
0.0
  0
LINE
  5
C8
330
B4
100
AcDbEntity
  8
001
370
     9
100
AcDbLine
 10
92.753162
 20
58.620237
 30
0.0
 11
62.253162
 21
58.620237
 31
0.0
  0
LINE
  5
C9
330
B4
100
AcDbEntity
  8
001
370
     9
100
AcDbLine
 10
110.853162
 20
58.620237
 30
0.0
 11
113.353162
 21
58.620237
 31
0.0
  0
ENDBLK
  5
B6
330
B4
100
AcDbEntity
  8
0
100
AcDbBlockEnd
  0
BLOCK
  5
CB
330
CA
100
AcDbEntity
  8
0
100
AcDbBlockBegin
  2
*D6
 70
     1
 10
0.0
 20
0.0
 30
0.0
  3
*D6
  1

  0
LINE
  5
CD
330
CA
100
AcDbEntity
  8
001
370
     9
100
AcDbLine
 10
127.753162
 20
325.15344
 30
0.0
 11
127.753162
 21
278.679404
 31
0.0
  0
LINE
  5
CE
330
CA
100
AcDbEntity
  8
001
370
     9
100
AcDbLine
 10
92.753162
 20
311.033392
 30
0.0
 11
92.753162
 21
278.679404
 31
0.0
  0
LINE
  5
CF
330
CA
100
AcDbEntity
  8
001
370
     9
100
AcDbLine
 10
127.753162
 20
281.429404
 30
0.0
 11
92.753162
 21
281.429404
 31
0.0
  0
POLYLINE
  5
D0
330
CA
100
AcDbEntity
  8
001
370
     9
100
AcDb2dPolyline
 66
     1
 10
0.0
 20
0.0
 30
0.0
  0
VERTEX
  5
D2
330
D0
100
AcDbEntity
  8
001
370
     9
100
AcDbVertex
100
AcDb2dVertex
 10
126.253162
 20
281.831328
 30
0.0
  0
VERTEX
  5
D3
330
D0
100
AcDbEntity
  8
001
370
     9
100
AcDbVertex
100
AcDb2dVertex
 10
127.753162
 20
281.429404
 30
0.0
  0
VERTEX
  5
D4
330
D0
100
AcDbEntity
  8
001
370
     9
100
AcDbVertex
100
AcDb2dVertex
 10
126.253162
 20
281.02748
 30
0.0
  0
SEQEND
  5
D1
330
D0
100
AcDbEntity
  8
001
370
     9
  0
POLYLINE
  5
D5
330
CA
100
AcDbEntity
  8
001
370
     9
100
AcDb2dPolyline
 66
     1
 10
0.0
 20
0.0
 30
0.0
  0
VERTEX
  5
D7
330
D5
100
AcDbEntity
  8
001
370
     9
100
AcDbVertex
100
AcDb2dVertex
 10
94.253162
 20
281.02748
 30
0.0
  0
VERTEX
  5
D8
330
D5
100
AcDbEntity
  8
001
370
     9
100
AcDbVertex
100
AcDb2dVertex
 10
92.753162
 20
281.429404
 30
0.0
  0
VERTEX
  5
D9
330
D5
100
AcDbEntity
  8
001
370
     9
100
AcDbVertex
100
AcDb2dVertex
 10
94.253162
 20
281.831328
 30
0.0
  0
SEQEND
  5
D6
330
D5
100
AcDbEntity
  8
001
370
     9
  0
TEXT
  5
DA
330
CA
100
AcDbEntity
  8
001
370
    30
100
AcDbText
 10
106.253162
 20
282.429404
 30
0.0
 40
4.0
  1
３５
 41
0.833333
100
AcDbText
  0
POINT
  5
DB
330
CA
100
AcDbEntity
  8
001
370
     9
100
AcDbPoint
 10
127.753162
 20
325.15344
 30
0.0
  0
POINT
  5
DC
330
CA
100
AcDbEntity
  8
001
370
     9
100
AcDbPoint
 10
92.753162
 20
311.033392
 30
0.0
  0
POINT
  5
DD
330
CA
100
AcDbEntity
  8
001
370
     9
100
AcDbPoint
 10
92.753162
 20
281.429404
 30
0.0
  0
ENDBLK
  5
CC
330
CA
100
AcDbEntity
  8
0
100
AcDbBlockEnd
  0
BLOCK
  5
DF
330
DE
100
AcDbEntity
  8
0
100
AcDbBlockBegin
  2
*D7
 70
     1
 10
0.0
 20
0.0
 30
0.0
  3
*D7
  1

  0
LINE
  5
E1
330
DE
100
AcDbEntity
  8
001
370
     9
100
AcDbLine
 10
269.753162
 20
358.40344
 30
0.0
 11
309.160989
 21
358.40344
 31
0.0
  0
LINE
  5
E2
330
DE
100
AcDbEntity
  8
001
370
     9
100
AcDbLine
 10
269.753162
 20
326.40344
 30
0.0
 11
309.160989
 21
326.40344
 31
0.0
  0
LINE
  5
E3
330
DE
100
AcDbEntity
  8
001
370
     9
100
AcDbLine
 10
306.410989
 20
358.40344
 30
0.0
 11
306.410989
 21
326.40344
 31
0.0
  0
POLYLINE
  5
E4
330
DE
100
AcDbEntity
  8
001
370
     9
100
AcDb2dPolyline
 66
     1
 10
0.0
 20
0.0
 30
0.0
  0
VERTEX
  5
E6
330
E4
100
AcDbEntity
  8
001
370
     9
100
AcDbVertex
100
AcDb2dVertex
 10
306.009065
 20
356.90344
 30
0.0
  0
VERTEX
  5
E7
330
E4
100
AcDbEntity
  8
001
370
     9
100
AcDbVertex
100
AcDb2dVertex
 10
306.410989
 20
358.40344
 30
0.0
  0
VERTEX
  5
E8
330
E4
100
AcDbEntity
  8
001
370
     9
100
AcDbVertex
100
AcDb2dVertex
 10
306.812913
 20
356.90344
 30
0.0
  0
SEQEND
  5
E5
330
E4
100
AcDbEntity
  8
001
370
     9
  0
POLYLINE
  5
E9
330
DE
100
AcDbEntity
  8
001
370
     9
100
AcDb2dPolyline
 66
     1
 10
0.0
 20
0.0
 30
0.0
  0
VERTEX
  5
EB
330
E9
100
AcDbEntity
  8
001
370
     9
100
AcDbVertex
100
AcDb2dVertex
 10
306.812913
 20
327.90344
 30
0.0
  0
VERTEX
  5
EC
330
E9
100
AcDbEntity
  8
001
370
     9
100
AcDbVertex
100
AcDb2dVertex
 10
306.410989
 20
326.40344
 30
0.0
  0
VERTEX
  5
ED
330
E9
100
AcDbEntity
  8
001
370
     9
100
AcDbVertex
100
AcDb2dVertex
 10
306.009065
 20
327.90344
 30
0.0
  0
SEQEND
  5
EA
330
E9
100
AcDbEntity
  8
001
370
     9
  0
TEXT
  5
EE
330
DE
100
AcDbEntity
  8
001
370
    30
100
AcDbText
 10
305.410989
 20
336.40344
 30
0.0
 40
4.0
  1
%%c３２
 50
90.000003
 41
0.882353
100
AcDbText
  0
POINT
  5
EF
330
DE
100
AcDbEntity
  8
001
370
     9
100
AcDbPoint
 10
269.753162
 20
358.40344
 30
0.0
  0
POINT
  5
F0
330
DE
100
AcDbEntity
  8
001
370
     9
100
AcDbPoint
 10
269.753162
 20
326.40344
 30
0.0
  0
POINT
  5
F1
330
DE
100
AcDbEntity
  8
001
370
     9
100
AcDbPoint
 10
306.410989
 20
326.40344
 30
0.0
  0
ENDBLK
  5
E0
330
DE
100
AcDbEntity
  8
0
100
AcDbBlockEnd
  0
BLOCK
  5
F3
330
F2
100
AcDbEntity
  8
0
100
AcDbBlockBegin
  2
*D8
 70
     1
 10
0.0
 20
0.0
 30
0.0
  3
*D8
  1

  0
LINE
  5
F5
330
F2
100
AcDbEntity
  8
001
370
     9
100
AcDbLine
 10
92.753162
 20
311.033392
 30
0.0
 11
92.753162
 21
290.377191
 31
0.0
  0
LINE
  5
F6
330
F2
100
AcDbEntity
  8
001
370
     9
100
AcDbLine
 10
110.853162
 20
322.567663
 30
0.0
 11
110.853162
 21
290.377191
 31
0.0
  0
LINE
  5
F7
330
F2
100
AcDbEntity
  8
001
370
     9
100
AcDbLine
 10
92.753162
 20
293.127191
 30
0.0
 11
110.853162
 21
293.127191
 31
0.0
  0
POLYLINE
  5
F8
330
F2
100
AcDbEntity
  8
001
370
     9
100
AcDb2dPolyline
 66
     1
 10
0.0
 20
0.0
 30
0.0
  0
VERTEX
  5
FA
330
F8
100
AcDbEntity
  8
001
370
     9
100
AcDbVertex
100
AcDb2dVertex
 10
91.253162
 20
293.529115
 30
0.0
  0
VERTEX
  5
FB
330
F8
100
AcDbEntity
  8
001
370
     9
100
AcDbVertex
100
AcDb2dVertex
 10
92.753162
 20
293.127191
 30
0.0
  0
VERTEX
  5
FC
330
F8
100
AcDbEntity
  8
001
370
     9
100
AcDbVertex
100
AcDb2dVertex
 10
91.253162
 20
292.725268
 30
0.0
  0
SEQEND
  5
F9
330
F8
100
AcDbEntity
  8
001
370
     9
  0
POLYLINE
  5
FD
330
F2
100
AcDbEntity
  8
001
370
     9
100
AcDb2dPolyline
 66
     1
 10
0.0
 20
0.0
 30
0.0
  0
VERTEX
  5
FF
330
FD
100
AcDbEntity
  8
001
370
     9
100
AcDbVertex
100
AcDb2dVertex
 10
112.353162
 20
292.725268
 30
0.0
  0
VERTEX
  5
100
330
FD
100
AcDbEntity
  8
001
370
     9
100
AcDbVertex
100
AcDb2dVertex
 10
110.853162
 20
293.127191
 30
0.0
  0
VERTEX
  5
101
330
FD
100
AcDbEntity
  8
001
370
     9
100
AcDbVertex
100
AcDb2dVertex
 10
112.353162
 20
293.529115
 30
0.0
  0
SEQEND
  5
FE
330
FD
100
AcDbEntity
  8
001
370
     9
  0
TEXT
  5
102
330
F2
100
AcDbEntity
  8
001
370
    30
100
AcDbText
 10
65.253162
 20
294.127191
 30
0.0
 40
4.0
  1
（１８．１）
 41
0.833333
100
AcDbText
  0
POINT
  5
103
330
F2
100
AcDbEntity
  8
001
370
     9
100
AcDbPoint
 10
92.753162
 20
311.033392
 30
0.0
  0
POINT
  5
104
330
F2
100
AcDbEntity
  8
001
370
     9
100
AcDbPoint
 10
110.853162
 20
322.567663
 30
0.0
  0
POINT
  5
105
330
F2
100
AcDbEntity
  8
001
370
     9
100
AcDbPoint
 10
110.853162
 20
293.127191
 30
0.0
  0
LINE
  5
106
330
F2
100
AcDbEntity
  8
001
370
     9
100
AcDbLine
 10
92.753162
 20
293.127191
 30
0.0
 11
62.253162
 21
293.127191
 31
0.0
  0
LINE
  5
107
330
F2
100
AcDbEntity
  8
001
370
     9
100
AcDbLine
 10
110.853162
 20
293.127191
 30
0.0
 11
113.353162
 21
293.127191
 31
0.0
  0
ENDBLK
  5
F4
330
F2
100
AcDbEntity
  8
0
100
AcDbBlockEnd
  0
BLOCK
  5
109
330
108
100
AcDbEntity
  8
0
100
AcDbBlockBegin
  2
*D9
 70
     1
 10
0.0
 20
0.0
 30
0.0
  3
*D9
  1

  0
LINE
  5
10B
330
108
100
AcDbEntity
  8
001
370
     9
100
AcDbLine
 10
277.753162
 20
334.40344
 30
0.0
 11
277.753162
 21
265.918281
 31
0.0
  0
LINE
  5
10C
330
108
100
AcDbEntity
  8
001
370
     9
100
AcDbLine
 10
92.753162
 20
311.033392
 30
0.0
 11
92.753162
 21
265.918281
 31
0.0
  0
LINE
  5
10D
330
108
100
AcDbEntity
  8
001
370
     9
100
AcDbLine
 10
277.753162
 20
268.668281
 30
0.0
 11
92.753162
 21
268.668281
 31
0.0
  0
POLYLINE
  5
10E
330
108
100
AcDbEntity
  8
001
370
     9
100
AcDb2dPolyline
 66
     1
 10
0.0
 20
0.0
 30
0.0
  0
VERTEX
  5
110
330
10E
100
AcDbEntity
  8
001
370
     9
100
AcDbVertex
100
AcDb2dVertex
 10
276.253162
 20
269.070205
 30
0.0
  0
VERTEX
  5
111
330
10E
100
AcDbEntity
  8
001
370
     9
100
AcDbVertex
100
AcDb2dVertex
 10
277.753162
 20
268.668281
 30
0.0
  0
VERTEX
  5
112
330
10E
100
AcDbEntity
  8
001
370
     9
100
AcDbVertex
100
AcDb2dVertex
 10
276.253162
 20
268.266357
 30
0.0
  0
SEQEND
  5
10F
330
10E
100
AcDbEntity
  8
001
370
     9
  0
POLYLINE
  5
113
330
108
100
AcDbEntity
  8
001
370
     9
100
AcDb2dPolyline
 66
     1
 10
0.0
 20
0.0
 30
0.0
  0
VERTEX
  5
115
330
113
100
AcDbEntity
  8
001
370
     9
100
AcDbVertex
100
AcDb2dVertex
 10
94.253162
 20
268.266357
 30
0.0
  0
VERTEX
  5
116
330
113
100
AcDbEntity
  8
001
370
     9
100
AcDbVertex
100
AcDb2dVertex
 10
92.753162
 20
268.668281
 30
0.0
  0
VERTEX
  5
117
330
113
100
AcDbEntity
  8
001
370
     9
100
AcDbVertex
100
AcDb2dVertex
 10
94.253162
 20
269.070205
 30
0.0
  0
SEQEND
  5
114
330
113
100
AcDbEntity
  8
001
370
     9
  0
TEXT
  5
118
330
108
100
AcDbEntity
  8
001
370
    30
100
AcDbText
 10
179.253162
 20
269.668281
 30
0.0
 40
4.0
  1
１８５
 41
0.833333
100
AcDbText
  0
POINT
  5
119
330
108
100
AcDbEntity
  8
001
370
     9
100
AcDbPoint
 10
277.753162
 20
334.40344
 30
0.0
  0
POINT
  5
11A
330
108
100
AcDbEntity
  8
001
370
     9
100
AcDbPoint
 10
92.753162
 20
311.033392
 30
0.0
  0
POINT
  5
11B
330
108
100
AcDbEntity
  8
001
370
     9
100
AcDbPoint
 10
92.753162
 20
268.668281
 30
0.0
  0
ENDBLK
  5
10A
330
108
100
AcDbEntity
  8
0
100
AcDbBlockEnd
  0
BLOCK
  5
11D
330
11C
100
AcDbEntity
  8
0
100
AcDbBlockBegin
  2
*D10
 70
     1
 10
0.0
 20
0.0
 30
0.0
  3
*D10
  1

  0
LINE
  5
11F
330
11C
100
AcDbEntity
  8
001
370
     9
100
AcDbLine
 10
277.753162
 20
334.40344
 30
0.0
 11
277.753162
 21
278.679404
 31
0.0
  0
LINE
  5
120
330
11C
100
AcDbEntity
  8
001
370
     9
100
AcDbLine
 10
127.753162
 20
325.15344
 30
0.0
 11
127.753162
 21
278.679404
 31
0.0
  0
LINE
  5
121
330
11C
100
AcDbEntity
  8
001
370
     9
100
AcDbLine
 10
277.753162
 20
281.429404
 30
0.0
 11
127.753162
 21
281.429404
 31
0.0
  0
POLYLINE
  5
122
330
11C
100
AcDbEntity
  8
001
370
     9
100
AcDb2dPolyline
 66
     1
 10
0.0
 20
0.0
 30
0.0
  0
VERTEX
  5
124
330
122
100
AcDbEntity
  8
001
370
     9
100
AcDbVertex
100
AcDb2dVertex
 10
276.253162
 20
281.831328
 30
0.0
  0
VERTEX
  5
125
330
122
100
AcDbEntity
  8
001
370
     9
100
AcDbVertex
100
AcDb2dVertex
 10
277.753162
 20
281.429404
 30
0.0
  0
VERTEX
  5
126
330
122
100
AcDbEntity
  8
001
370
     9
100
AcDbVertex
100
AcDb2dVertex
 10
276.253162
 20
281.02748
 30
0.0
  0
SEQEND
  5
123
330
122
100
AcDbEntity
  8
001
370
     9
  0
POLYLINE
  5
127
330
11C
100
AcDbEntity
  8
001
370
     9
100
AcDb2dPolyline
 66
     1
 10
0.0
 20
0.0
 30
0.0
  0
VERTEX
  5
129
330
127
100
AcDbEntity
  8
001
370
     9
100
AcDbVertex
100
AcDb2dVertex
 10
129.253162
 20
281.02748
 30
0.0
  0
VERTEX
  5
12A
330
127
100
AcDbEntity
  8
001
370
     9
100
AcDbVertex
100
AcDb2dVertex
 10
127.753162
 20
281.429404
 30
0.0
  0
VERTEX
  5
12B
330
127
100
AcDbEntity
  8
001
370
     9
100
AcDbVertex
100
AcDb2dVertex
 10
129.253162
 20
281.831328
 30
0.0
  0
SEQEND
  5
128
330
127
100
AcDbEntity
  8
001
370
     9
  0
TEXT
  5
12C
330
11C
100
AcDbEntity
  8
001
370
    30
100
AcDbText
 10
196.753162
 20
282.429404
 30
0.0
 40
4.0
  1
１５０
 41
0.833333
100
AcDbText
  0
POINT
  5
12D
330
11C
100
AcDbEntity
  8
001
370
     9
100
AcDbPoint
 10
277.753162
 20
334.40344
 30
0.0
  0
POINT
  5
12E
330
11C
100
AcDbEntity
  8
001
370
     9
100
AcDbPoint
 10
127.753162
 20
325.15344
 30
0.0
  0
POINT
  5
12F
330
11C
100
AcDbEntity
  8
001
370
     9
100
AcDbPoint
 10
127.753162
 20
281.429404
 30
0.0
  0
ENDBLK
  5
11E
330
11C
100
AcDbEntity
  8
0
100
AcDbBlockEnd
  0
ENDSEC
  0
SECTION
  2
ENTITIES
  0
DIMENSION
  5
130
330
1F
100
AcDbEntity
  8
001
370
     9
100
AcDbDimension
  2
*D1
 10
92.753162
 20
46.922449
 30
0.0
 11
110.253162
 21
49.922449
 31
0.0
 70
   160
 71
     5
 42
-1.0
  3
Standard
100
AcDbAlignedDimension
 13
127.753162
 23
90.646486
 33
0.0
 14
92.753162
 24
76.526437
 34
0.0
 50
180.0
100
AcDbRotatedDimension
  0
DIMENSION
  5
131
330
1F
100
AcDbEntity
  8
001
370
     9
100
AcDbDimension
  2
*D2
 10
127.753162
 20
46.922449
 30
0.0
 11
177.753162
 21
49.922449
 31
0.0
 70
   160
 71
     5
 42
-1.0
  3
Standard
100
AcDbAlignedDimension
 13
227.753162
 23
99.896486
 33
0.0
 14
127.753162
 24
90.646486
 34
0.0
 50
180.0
100
AcDbRotatedDimension
  0
DIMENSION
  5
132
330
1F
100
AcDbEntity
  8
001
370
     9
100
AcDbDimension
  2
*D3
 10
92.753162
 20
34.161326
 30
0.0
 11
160.253162
 21
37.161326
 31
0.0
 70
   160
 71
     5
 42
-1.0
  3
Standard
100
AcDbAlignedDimension
 13
227.753162
 23
99.896486
 33
0.0
 14
92.753162
 24
76.526437
 34
0.0
 50
180.0
100
AcDbRotatedDimension
  0
TEXT
  5
133
330
1F
100
AcDbEntity
  8
001
370
    30
100
AcDbText
 10
65.300795
 20
101.896486
 30
0.0
 40
4.0
  1
%%c４０
 50
90.000003
 41
0.882353
100
AcDbText
  0
POLYLINE
  5
134
330
1F
100
AcDbEntity
  8
001
370
     9
100
AcDb2dPolyline
 66
     1
 10
0.0
 20
0.0
 30
0.0
  0
VERTEX
  5
136
330
134
100
AcDbEntity
  8
001
370
     9
100
AcDbVertex
100
AcDb2dVertex
 10
66.702719
 20
89.446486
 30
0.0
  0
VERTEX
  5
137
330
134
100
AcDbEntity
  8
001
370
     9
100
AcDbVertex
100
AcDb2dVertex
 10
66.300795
 20
87.946486
 30
0.0
  0
VERTEX
  5
138
330
134
100
AcDbEntity
  8
001
370
     9
100
AcDbVertex
100
AcDb2dVertex
 10
65.898871
 20
89.446486
 30
0.0
  0
SEQEND
  5
135
330
134
100
AcDbEntity
  8
001
370
     9
  0
LINE
  5
139
330
1F
100
AcDbEntity
  8
001
370
     9
100
AcDbLine
 10
66.300795
 20
127.846486
 30
0.0
 11
66.300795
 21
87.946486
 31
0.0
  0
POLYLINE
  5
13A
330
1F
100
AcDbEntity
  8
001
370
     9
100
AcDb2dPolyline
 66
     1
 10
0.0
 20
0.0
 30
0.0
  0
VERTEX
  5
13C
330
13A
100
AcDbEntity
  8
001
370
     9
100
AcDbVertex
100
AcDb2dVertex
 10
84.152404
 20
87.946486
 30
0.0
  0
VERTEX
  5
13D
330
13A
100
AcDbEntity
  8
001
370
     9
100
AcDbVertex
100
AcDb2dVertex
 10
66.300795
 20
87.946486
 30
0.0
  0
VERTEX
  5
13E
330
13A
100
AcDbEntity
  8
001
370
     9
100
AcDbVertex
100
AcDb2dVertex
 10
63.550795
 20
87.946486
 30
0.0
  0
SEQEND
  5
13B
330
13A
100
AcDbEntity
  8
001
370
     9
  0
DIMENSION
  5
13F
330
1F
100
AcDbEntity
  8
001
370
     9
100
AcDbDimension
  2
*D4
 10
256.410989
 20
91.896486
 30
0.0
 11
253.410989
 21
107.896485
 31
0.0
 70
   160
 71
     5
 42
-1.0
  3
Standard
100
AcDbAlignedDimension
 13
219.753162
 23
123.896486
 33
0.0
 14
219.753162
 24
91.896486
 34
0.0
 50
270.0
100
AcDbRotatedDimension
  0
DIMENSION
  5
140
330
1F
100
AcDbEntity
  8
001
370
     9
100
AcDbDimension
  2
*D5
 10
110.853162
 20
58.620237
 30
0.0
 11
77.253162
 21
61.620237
 31
0.0
 70
   160
 71
     5
 42
-1.0
  3
Standard
100
AcDbAlignedDimension
 13
92.753162
 23
76.526437
 33
0.0
 14
110.853162
 24
88.060709
 34
0.0
 50
360.0
100
AcDbRotatedDimension
  0
TEXT
  5
141
330
1F
100
AcDbEntity
  8
001
370
    30
100
AcDbText
 10
72.387113
 20
80.232491
 30
0.0
 40
4.0
  1
Ｒ５
 41
0.833333
100
AcDbText
  0
POLYLINE
  5
142
330
1F
100
AcDbEntity
  8
001
370
     9
100
AcDb2dPolyline
 66
     1
 10
0.0
 20
0.0
 30
0.0
  0
VERTEX
  5
144
330
142
100
AcDbEntity
  8
001
370
     9
100
AcDbVertex
100
AcDb2dVertex
 10
92.626932
 20
88.916513
 30
0.0
  0
VERTEX
  5
145
330
142
100
AcDbEntity
  8
001
370
     9
100
AcDbVertex
100
AcDb2dVertex
 10
94.013433
 20
89.615911
 30
0.0
  0
VERTEX
  5
146
330
142
100
AcDbEntity
  8
001
370
     9
100
AcDbVertex
100
AcDb2dVertex
 10
93.162387
 20
88.316964
 30
0.0
  0
SEQEND
  5
143
330
142
100
AcDbEntity
  8
001
370
     9
  0
POLYLINE
  5
147
330
1F
100
AcDbEntity
  8
001
370
     9
100
AcDb2dPolyline
 66
     1
 10
0.0
 20
0.0
 30
0.0
  0
VERTEX
  5
149
330
147
100
AcDbEntity
  8
001
370
     9
100
AcDbVertex
100
AcDb2dVertex
 10
94.013433
 20
89.615911
 30
0.0
  0
VERTEX
  5
14A
330
147
100
AcDbEntity
  8
001
370
     9
100
AcDbVertex
100
AcDb2dVertex
 10
82.387113
 20
79.232491
 30
0.0
  0
VERTEX
  5
14B
330
147
100
AcDbEntity
  8
001
370
     9
100
AcDbVertex
100
AcDb2dVertex
 10
70.387113
 20
79.232491
 30
0.0
  0
SEQEND
  5
148
330
147
100
AcDbEntity
  8
001
370
     9
  0
DIMENSION
  5
14C
330
1F
100
AcDbEntity
  8
001
370
     9
100
AcDbDimension
  2
*D6
 10
92.753162
 20
281.429404
 30
0.0
 11
110.253162
 21
284.429404
 31
0.0
 70
   160
 71
     5
 42
-1.0
  3
Standard
100
AcDbAlignedDimension
 13
127.753162
 23
325.15344
 33
0.0
 14
92.753162
 24
311.033392
 34
0.0
 50
180.0
100
AcDbRotatedDimension
  0
TEXT
  5
14D
330
1F
100
AcDbEntity
  8
001
370
    30
100
AcDbText
 10
65.300795
 20
336.40344
 30
0.0
 40
4.0
  1
%%c４０
 50
90.000003
 41
0.882353
100
AcDbText
  0
POLYLINE
  5
14E
330
1F
100
AcDbEntity
  8
001
370
     9
100
AcDb2dPolyline
 66
     1
 10
0.0
 20
0.0
 30
0.0
  0
VERTEX
  5
150
330
14E
100
AcDbEntity
  8
001
370
     9
100
AcDbVertex
100
AcDb2dVertex
 10
66.702719
 20
323.95344
 30
0.0
  0
VERTEX
  5
151
330
14E
100
AcDbEntity
  8
001
370
     9
100
AcDbVertex
100
AcDb2dVertex
 10
66.300795
 20
322.45344
 30
0.0
  0
VERTEX
  5
152
330
14E
100
AcDbEntity
  8
001
370
     9
100
AcDbVertex
100
AcDb2dVertex
 10
65.898871
 20
323.95344
 30
0.0
  0
SEQEND
  5
14F
330
14E
100
AcDbEntity
  8
001
370
     9
  0
LINE
  5
153
330
1F
100
AcDbEntity
  8
001
370
     9
100
AcDbLine
 10
66.300795
 20
362.35344
 30
0.0
 11
66.300795
 21
322.45344
 31
0.0
  0
POLYLINE
  5
154
330
1F
100
AcDbEntity
  8
001
370
     9
100
AcDb2dPolyline
 66
     1
 10
0.0
 20
0.0
 30
0.0
  0
VERTEX
  5
156
330
154
100
AcDbEntity
  8
001
370
     9
100
AcDbVertex
100
AcDb2dVertex
 10
84.152404
 20
322.45344
 30
0.0
  0
VERTEX
  5
157
330
154
100
AcDbEntity
  8
001
370
     9
100
AcDbVertex
100
AcDb2dVertex
 10
66.300795
 20
322.45344
 30
0.0
  0
VERTEX
  5
158
330
154
100
AcDbEntity
  8
001
370
     9
100
AcDbVertex
100
AcDb2dVertex
 10
63.550795
 20
322.45344
 30
0.0
  0
SEQEND
  5
155
330
154
100
AcDbEntity
  8
001
370
     9
  0
DIMENSION
  5
159
330
1F
100
AcDbEntity
  8
001
370
     9
100
AcDbDimension
  2
*D7
 10
306.410989
 20
326.40344
 30
0.0
 11
303.410989
 21
342.40344
 31
0.0
 70
   160
 71
     5
 42
-1.0
  3
Standard
100
AcDbAlignedDimension
 13
269.753162
 23
358.40344
 33
0.0
 14
269.753162
 24
326.40344
 34
0.0
 50
270.0
100
AcDbRotatedDimension
  0
DIMENSION
  5
15A
330
1F
100
AcDbEntity
  8
001
370
     9
100
AcDbDimension
  2
*D8
 10
110.853162
 20
293.127191
 30
0.0
 11
77.253162
 21
296.127191
 31
0.0
 70
   160
 71
     5
 42
-1.0
  3
Standard
100
AcDbAlignedDimension
 13
92.753162
 23
311.033392
 33
0.0
 14
110.853162
 24
322.567663
 34
0.0
100
AcDbRotatedDimension
  0
TEXT
  5
15B
330
1F
100
AcDbEntity
  8
001
370
    30
100
AcDbText
 10
72.387113
 20
314.739446
 30
0.0
 40
4.0
  1
Ｒ５
 41
0.833333
100
AcDbText
  0
POLYLINE
  5
15C
330
1F
100
AcDbEntity
  8
001
370
     9
100
AcDb2dPolyline
 66
     1
 10
0.0
 20
0.0
 30
0.0
  0
VERTEX
  5
15E
330
15C
100
AcDbEntity
  8
001
370
     9
100
AcDbVertex
100
AcDb2dVertex
 10
92.626932
 20
323.423468
 30
0.0
  0
VERTEX
  5
15F
330
15C
100
AcDbEntity
  8
001
370
     9
100
AcDbVertex
100
AcDb2dVertex
 10
94.013433
 20
324.122866
 30
0.0
  0
VERTEX
  5
160
330
15C
100
AcDbEntity
  8
001
370
     9
100
AcDbVertex
100
AcDb2dVertex
 10
93.162387
 20
322.823919
 30
0.0
  0
SEQEND
  5
15D
330
15C
100
AcDbEntity
  8
001
370
     9
  0
POLYLINE
  5
161
330
1F
100
AcDbEntity
  8
001
370
     9
100
AcDb2dPolyline
 66
     1
 10
0.0
 20
0.0
 30
0.0
  0
VERTEX
  5
163
330
161
100
AcDbEntity
  8
001
370
     9
100
AcDbVertex
100
AcDb2dVertex
 10
94.013433
 20
324.122866
 30
0.0
  0
VERTEX
  5
164
330
161
100
AcDbEntity
  8
001
370
     9
100
AcDbVertex
100
AcDb2dVertex
 10
82.387113
 20
313.739446
 30
0.0
  0
VERTEX
  5
165
330
161
100
AcDbEntity
  8
001
370
     9
100
AcDbVertex
100
AcDb2dVertex
 10
70.387113
 20
313.739446
 30
0.0
  0
SEQEND
  5
162
330
161
100
AcDbEntity
  8
001
370
     9
  0
DIMENSION
  5
166
330
1F
100
AcDbEntity
  8
001
370
     9
100
AcDbDimension
  2
*D9
 10
92.753162
 20
268.668281
 30
0.0
 11
185.253162
 21
271.668281
 31
0.0
 70
   160
 71
     5
 42
-1.0
  3
Standard
100
AcDbAlignedDimension
 13
277.753162
 23
334.40344
 33
0.0
 14
92.753162
 24
311.033392
 34
0.0
 50
180.0
100
AcDbRotatedDimension
  0
DIMENSION
  5
167
330
1F
100
AcDbEntity
  8
001
370
     9
100
AcDbDimension
  2
*D10
 10
127.753162
 20
281.429404
 30
0.0
 11
202.753162
 21
284.429404
 31
0.0
 70
   160
 71
     5
 42
-1.0
  3
Standard
100
AcDbAlignedDimension
 13
277.753162
 23
334.40344
 33
0.0
 14
127.753162
 24
325.15344
 34
0.0
 50
180.0
100
AcDbRotatedDimension
  0
TEXT
  5
168
330
1F
100
AcDbEntity
  8
001
370
    30
100
AcDbText
 10
347.975365
 20
136.760512
 30
0.0
 40
4.0
  1
%%c４０
 50
90.000003
 41
0.882353
100
AcDbText
  0
POLYLINE
  5
169
330
1F
100
AcDbEntity
  8
001
370
     9
100
AcDb2dPolyline
 66
     1
 10
0.0
 20
0.0
 30
0.0
  0
VERTEX
  5
16B
330
169
100
AcDbEntity
  8
001
370
     9
100
AcDbVertex
100
AcDb2dVertex
 10
349.377289
 20
124.310512
 30
0.0
  0
VERTEX
  5
16C
330
169
100
AcDbEntity
  8
001
370
     9
100
AcDbVertex
100
AcDb2dVertex
 10
348.975365
 20
122.810512
 30
0.0
  0
VERTEX
  5
16D
330
169
100
AcDbEntity
  8
001
370
     9
100
AcDbVertex
100
AcDb2dVertex
 10
348.573441
 20
124.310512
 30
0.0
  0
SEQEND
  5
16A
330
169
100
AcDbEntity
  8
001
370
     9
  0
LINE
  5
16E
330
1F
100
AcDbEntity
  8
001
370
     9
100
AcDbLine
 10
348.975365
 20
162.710512
 30
0.0
 11
348.975365
 21
122.810512
 31
0.0
  0
POLYLINE
  5
16F
330
1F
100
AcDbEntity
  8
001
370
     9
100
AcDb2dPolyline
 66
     1
 10
0.0
 20
0.0
 30
0.0
  0
VERTEX
  5
171
330
16F
100
AcDbEntity
  8
001
370
     9
100
AcDbVertex
100
AcDb2dVertex
 10
366.826975
 20
122.810512
 30
0.0
  0
VERTEX
  5
172
330
16F
100
AcDbEntity
  8
001
370
     9
100
AcDbVertex
100
AcDb2dVertex
 10
348.975365
 20
122.810512
 30
0.0
  0
VERTEX
  5
173
330
16F
100
AcDbEntity
  8
001
370
     9
100
AcDbVertex
100
AcDb2dVertex
 10
346.225365
 20
122.810512
 30
0.0
  0
SEQEND
  5
170
330
16F
100
AcDbEntity
  8
001
370
     9
  0
TEXT
  5
174
330
1F
100
AcDbEntity
  8
001
370
    30
100
AcDbText
 10
347.975365
 20
216.156973
 30
0.0
 40
4.0
  1
%%c４０
 50
90.000003
 41
0.882353
100
AcDbText
  0
POLYLINE
  5
175
330
1F
100
AcDbEntity
  8
001
370
     9
100
AcDb2dPolyline
 66
     1
 10
0.0
 20
0.0
 30
0.0
  0
VERTEX
  5
177
330
175
100
AcDbEntity
  8
001
370
     9
100
AcDbVertex
100
AcDb2dVertex
 10
349.377289
 20
203.706973
 30
0.0
  0
VERTEX
  5
178
330
175
100
AcDbEntity
  8
001
370
     9
100
AcDbVertex
100
AcDb2dVertex
 10
348.975365
 20
202.206973
 30
0.0
  0
VERTEX
  5
179
330
175
100
AcDbEntity
  8
001
370
     9
100
AcDbVertex
100
AcDb2dVertex
 10
348.573441
 20
203.706973
 30
0.0
  0
SEQEND
  5
176
330
175
100
AcDbEntity
  8
001
370
     9
  0
LINE
  5
17A
330
1F
100
AcDbEntity
  8
001
370
     9
100
AcDbLine
 10
348.975365
 20
242.106973
 30
0.0
 11
348.975365
 21
202.206973
 31
0.0
  0
POLYLINE
  5
17B
330
1F
100
AcDbEntity
  8
001
370
     9
100
AcDb2dPolyline
 66
     1
 10
0.0
 20
0.0
 30
0.0
  0
VERTEX
  5
17D
330
17B
100
AcDbEntity
  8
001
370
     9
100
AcDbVertex
100
AcDb2dVertex
 10
366.826975
 20
202.206973
 30
0.0
  0
VERTEX
  5
17E
330
17B
100
AcDbEntity
  8
001
370
     9
100
AcDbVertex
100
AcDb2dVertex
 10
348.975365
 20
202.206973
 30
0.0
  0
VERTEX
  5
17F
330
17B
100
AcDbEntity
  8
001
370
     9
100
AcDbVertex
100
AcDb2dVertex
 10
346.225365
 20
202.206973
 30
0.0
  0
SEQEND
  5
17C
330
17B
100
AcDbEntity
  8
001
370
     9
  0
TEXT
  5
180
330
1F
100
AcDbEntity
  8
001
370
    30
100
AcDbText
 10
356.473248
 20
114.227763
 30
0.0
 40
4.0
  1
Ｒ６
 41
0.833333
100
AcDbText
  0
POLYLINE
  5
181
330
1F
100
AcDbEntity
  8
001
370
     9
100
AcDb2dPolyline
 66
     1
 10
0.0
 20
0.0
 30
0.0
  0
VERTEX
  5
183
330
181
100
AcDbEntity
  8
001
370
     9
100
AcDbVertex
100
AcDb2dVertex
 10
376.005953
 20
123.698542
 30
0.0
  0
VERTEX
  5
184
330
181
100
AcDbEntity
  8
001
370
     9
100
AcDbVertex
100
AcDb2dVertex
 10
377.336244
 20
124.49971
 30
0.0
  0
VERTEX
  5
185
330
181
100
AcDbEntity
  8
001
370
     9
100
AcDbVertex
100
AcDb2dVertex
 10
376.584762
 20
123.140733
 30
0.0
  0
SEQEND
  5
182
330
181
100
AcDbEntity
  8
001
370
     9
  0
POLYLINE
  5
186
330
1F
100
AcDbEntity
  8
001
370
     9
100
AcDb2dPolyline
 66
     1
 10
0.0
 20
0.0
 30
0.0
  0
VERTEX
  5
188
330
186
100
AcDbEntity
  8
001
370
     9
100
AcDbVertex
100
AcDb2dVertex
 10
377.336244
 20
124.49971
 30
0.0
  0
VERTEX
  5
189
330
186
100
AcDbEntity
  8
001
370
     9
100
AcDbVertex
100
AcDb2dVertex
 10
366.473248
 20
113.227763
 30
0.0
  0
VERTEX
  5
18A
330
186
100
AcDbEntity
  8
001
370
     9
100
AcDbVertex
100
AcDb2dVertex
 10
354.473248
 20
113.227763
 30
0.0
  0
SEQEND
  5
187
330
186
100
AcDbEntity
  8
001
370
     9
  0
TEXT
  5
18B
330
1F
100
AcDbEntity
  8
001
370
    30
100
AcDbText
 10
356.19405
 20
193.492043
 30
0.0
 40
4.0
  1
Ｒ７
 41
0.833333
100
AcDbText
  0
POLYLINE
  5
18C
330
1F
100
AcDbEntity
  8
001
370
     9
100
AcDb2dPolyline
 66
     1
 10
0.0
 20
0.0
 30
0.0
  0
VERTEX
  5
18E
330
18C
100
AcDbEntity
  8
001
370
     9
100
AcDbVertex
100
AcDb2dVertex
 10
376.344481
 20
203.418721
 30
0.0
  0
VERTEX
  5
18F
330
18C
100
AcDbEntity
  8
001
370
     9
100
AcDbVertex
100
AcDb2dVertex
 10
377.681624
 20
204.208399
 30
0.0
  0
VERTEX
  5
190
330
18C
100
AcDbEntity
  8
001
370
     9
100
AcDbVertex
100
AcDb2dVertex
 10
376.918464
 20
202.855946
 30
0.0
  0
SEQEND
  5
18D
330
18C
100
AcDbEntity
  8
001
370
     9
  0
POLYLINE
  5
191
330
1F
100
AcDbEntity
  8
001
370
     9
100
AcDb2dPolyline
 66
     1
 10
0.0
 20
0.0
 30
0.0
  0
VERTEX
  5
193
330
191
100
AcDbEntity
  8
001
370
     9
100
AcDbVertex
100
AcDb2dVertex
 10
377.681624
 20
204.208399
 30
0.0
  0
VERTEX
  5
194
330
191
100
AcDbEntity
  8
001
370
     9
100
AcDbVertex
100
AcDb2dVertex
 10
366.19405
 20
192.492043
 30
0.0
  0
VERTEX
  5
195
330
191
100
AcDbEntity
  8
001
370
     9
100
AcDbVertex
100
AcDb2dVertex
 10
354.19405
 20
192.492043
 30
0.0
  0
SEQEND
  5
192
330
191
100
AcDbEntity
  8
001
370
     9
  0
TEXT
  5
196
330
1F
100
AcDbEntity
  8
001
370
    30
100
AcDbText
 10
55.04921
 20
164.432926
 30
0.0
 40
10.0
  1
デカスミ　ＤＣ３２－４０ＡＳＲ　（２枚刃）
 41
0.833333
100
AcDbText
  0
POLYLINE
  5
197
330
1F
100
AcDbEntity
  8
001
370
    50
100
AcDb2dPolyline
 66
     1
 10
0.0
 20
0.0
 30
0.0
  0
VERTEX
  5
199
330
197
100
AcDbEntity
  8
001
370
    50
100
AcDbVertex
100
AcDb2dVertex
 10
97.152872
 20
126.751908
 30
0.0
  0
VERTEX
  5
19A
330
197
100
AcDbEntity
  8
001
370
    50
100
AcDbVertex
100
AcDb2dVertex
 10
96.843099
 20
126.73779
 30
0.0
  0
VERTEX
  5
19B
330
197
100
AcDbEntity
  8
001
370
    50
100
AcDbVertex
100
AcDb2dVertex
 10
96.419154
 20
126.690553
 30
0.0
  0
VERTEX
  5
19C
330
197
100
AcDbEntity
  8
001
370
    50
100
AcDbVertex
100
AcDb2dVertex
 10
96.04374
 20
126.608889
 30
0.0
  0
VERTEX
  5
19D
330
197
100
AcDbEntity
  8
001
370
    50
100
AcDbVertex
100
AcDb2dVertex
 10
95.708921
 20
126.493754
 30
0.0
  0
VERTEX
  5
19E
330
197
100
AcDbEntity
  8
001
370
    50
100
AcDbVertex
100
AcDb2dVertex
 10
95.37422
 20
126.346303
 30
0.0
  0
VERTEX
  5
19F
330
197
100
AcDbEntity
  8
001
370
    50
100
AcDbVertex
100
AcDb2dVertex
 10
95.04621
 20
126.168171
 30
0.0
  0
VERTEX
  5
1A0
330
197
100
AcDbEntity
  8
001
370
    50
100
AcDbVertex
100
AcDb2dVertex
 10
94.738435
 20
125.960301
 30
0.0
  0
VERTEX
  5
1A1
330
197
100
AcDbEntity
  8
001
370
    50
100
AcDbVertex
100
AcDb2dVertex
 10
94.453451
 20
125.724824
 30
0.0
  0
VERTEX
  5
1A2
330
197
100
AcDbEntity
  8
001
370
    50
100
AcDbVertex
100
AcDb2dVertex
 10
94.189846
 20
125.46303
 30
0.0
  0
VERTEX
  5
1A3
330
197
100
AcDbEntity
  8
001
370
    50
100
AcDbVertex
100
AcDb2dVertex
 10
93.950705
 20
125.178717
 30
0.0
  0
VERTEX
  5
1A4
330
197
100
AcDbEntity
  8
001
370
    50
100
AcDbVertex
100
AcDb2dVertex
 10
93.738256
 20
124.873712
 30
0.0
  0
VERTEX
  5
1A5
330
197
100
AcDbEntity
  8
001
370
    50
100
AcDbVertex
100
AcDb2dVertex
 10
93.554988
 20
124.548334
 30
0.0
  0
VERTEX
  5
1A6
330
197
100
AcDbEntity
  8
001
370
    50
100
AcDbVertex
100
AcDb2dVertex
 10
93.401894
 20
124.203704
 30
0.0
  0
VERTEX
  5
1A7
330
197
100
AcDbEntity
  8
001
370
    50
100
AcDbVertex
100
AcDb2dVertex
 10
93.279692
 20
123.855008
 30
0.0
  0
VERTEX
  5
1A8
330
197
100
AcDbEntity
  8
001
370
    50
100
AcDbVertex
100
AcDb2dVertex
 10
93.189057
 20
123.507767
 30
0.0
  0
VERTEX
  5
1A9
330
197
100
AcDbEntity
  8
001
370
    50
100
AcDbVertex
100
AcDb2dVertex
 10
93.134134
 20
123.122206
 30
0.0
  0
VERTEX
  5
1AA
330
197
100
AcDbEntity
  8
001
370
    50
100
AcDbVertex
100
AcDb2dVertex
 10
93.116254
 20
122.689488
 30
0.0
  0
VERTEX
  5
1AB
330
197
100
AcDbEntity
  8
001
370
    50
100
AcDbVertex
100
AcDb2dVertex
 10
93.123241
 20
122.374729
 30
0.0
  0
SEQEND
  5
198
330
197
100
AcDbEntity
  8
001
370
    50
  0
LINE
  5
1AC
330
1F
100
AcDbEntity
  8
001
370
    50
100
AcDbLine
 10
97.152872
 20
126.751908
 30
0.0
 11
109.51467
 21
126.627027
 31
0.0
  0
POLYLINE
  5
1AD
330
1F
100
AcDbEntity
  8
001
370
    50
100
AcDb2dPolyline
 66
     1
 10
0.0
 20
0.0
 30
0.0
  0
VERTEX
  5
1AF
330
1AD
100
AcDbEntity
  8
001
370
    50
100
AcDbVertex
100
AcDb2dVertex
 10
120.813994
 20
88.64677
 30
0.0
  0
VERTEX
  5
1B0
330
1AD
100
AcDbEntity
  8
001
370
    50
100
AcDbVertex
100
AcDb2dVertex
 10
120.817743
 20
88.646668
 30
0.0
  0
VERTEX
  5
1B1
330
1AD
100
AcDbEntity
  8
001
370
    50
100
AcDbVertex
100
AcDb2dVertex
 10
120.823223
 20
88.646557
 30
0.0
  0
VERTEX
  5
1B2
330
1AD
100
AcDbEntity
  8
001
370
    50
100
AcDbVertex
100
AcDb2dVertex
 10
120.828703
 20
88.646499
 30
0.0
  0
VERTEX
  5
1B3
330
1AD
100
AcDbEntity
  8
001
370
    50
100
AcDbVertex
100
AcDb2dVertex
 10
120.832453
 20
88.646486
 30
0.0
  0
SEQEND
  5
1AE
330
1AD
100
AcDbEntity
  8
001
370
    50
  0
POLYLINE
  5
1B4
330
1F
100
AcDbEntity
  8
001
370
    50
100
AcDb2dPolyline
 66
     1
 10
0.0
 20
0.0
 30
0.0
  0
VERTEX
  5
1B6
330
1B4
100
AcDbEntity
  8
001
370
    50
100
AcDbVertex
100
AcDb2dVertex
 10
120.832453
 20
127.146486
 30
0.0
  0
VERTEX
  5
1B7
330
1B4
100
AcDbEntity
  8
001
370
    50
100
AcDbVertex
100
AcDb2dVertex
 10
120.828703
 20
127.146472
 30
0.0
  0
VERTEX
  5
1B8
330
1B4
100
AcDbEntity
  8
001
370
    50
100
AcDbVertex
100
AcDb2dVertex
 10
120.823223
 20
127.146414
 30
0.0
  0
VERTEX
  5
1B9
330
1B4
100
AcDbEntity
  8
001
370
    50
100
AcDbVertex
100
AcDb2dVertex
 10
120.817743
 20
127.146303
 30
0.0
  0
VERTEX
  5
1BA
330
1B4
100
AcDbEntity
  8
001
370
    50
100
AcDbVertex
100
AcDb2dVertex
 10
120.813994
 20
127.146201
 30
0.0
  0
SEQEND
  5
1B5
330
1B4
100
AcDbEntity
  8
001
370
    50
  0
LINE
  5
1BB
330
1F
100
AcDbEntity
  8
001
370
    50
100
AcDbLine
 10
125.753162
 20
127.146486
 30
0.0
 11
120.832453
 21
127.146486
 31
0.0
  0
LINE
  5
1BC
330
1F
100
AcDbEntity
  8
001
370
    50
100
AcDbLine
 10
120.832453
 20
88.646486
 30
0.0
 11
125.753162
 21
88.646486
 31
0.0
  0
POLYLINE
  5
1BD
330
1F
100
AcDbEntity
  8
001
370
    50
100
AcDb2dPolyline
 66
     1
 10
0.0
 20
0.0
 30
0.0
  0
VERTEX
  5
1BF
330
1BD
100
AcDbEntity
  8
001
370
    50
100
AcDbVertex
100
AcDb2dVertex
 10
112.447391
 20
88.719559
 30
0.0
  0
VERTEX
  5
1C0
330
1BD
100
AcDbEntity
  8
001
370
    50
100
AcDbVertex
100
AcDb2dVertex
 10
113.442176
 20
88.735804
 30
0.0
  0
VERTEX
  5
1C1
330
1BD
100
AcDbEntity
  8
001
370
    50
100
AcDbVertex
100
AcDb2dVertex
 10
114.896044
 20
88.762195
 30
0.0
  0
VERTEX
  5
1C2
330
1BD
100
AcDbEntity
  8
001
370
    50
100
AcDbVertex
100
AcDb2dVertex
 10
116.346349
 20
88.792206
 30
0.0
  0
VERTEX
  5
1C3
330
1BD
100
AcDbEntity
  8
001
370
    50
100
AcDbVertex
100
AcDb2dVertex
 10
117.338626
 20
88.814551
 30
0.0
  0
SEQEND
  5
1BE
330
1BD
100
AcDbEntity
  8
001
370
    50
  0
POLYLINE
  5
1C4
330
1F
100
AcDbEntity
  8
001
370
    50
100
AcDb2dPolyline
 66
     1
 10
0.0
 20
0.0
 30
0.0
  0
VERTEX
  5
1C6
330
1C4
100
AcDbEntity
  8
001
370
    50
100
AcDbVertex
100
AcDb2dVertex
 10
117.338626
 20
88.814551
 30
0.0
  0
VERTEX
  5
1C7
330
1C4
100
AcDbEntity
  8
001
370
    50
100
AcDbVertex
100
AcDb2dVertex
 10
117.588419
 20
88.818431
 30
0.0
  0
VERTEX
  5
1C8
330
1C4
100
AcDbEntity
  8
001
370
    50
100
AcDbVertex
100
AcDb2dVertex
 10
117.838224
 20
88.820571
 30
0.0
  0
VERTEX
  5
1C9
330
1C4
100
AcDbEntity
  8
001
370
    50
100
AcDbVertex
100
AcDb2dVertex
 10
118.088335
 20
88.819585
 30
0.0
  0
VERTEX
  5
1CA
330
1C4
100
AcDbEntity
  8
001
370
    50
100
AcDbVertex
100
AcDb2dVertex
 10
118.338424
 20
88.815499
 30
0.0
  0
VERTEX
  5
1CB
330
1C4
100
AcDbEntity
  8
001
370
    50
100
AcDbVertex
100
AcDb2dVertex
 10
118.58168
 20
88.808859
 30
0.0
  0
VERTEX
  5
1CC
330
1C4
100
AcDbEntity
  8
001
370
    50
100
AcDbVertex
100
AcDb2dVertex
 10
118.82485
 20
88.799669
 30
0.0
  0
VERTEX
  5
1CD
330
1C4
100
AcDbEntity
  8
001
370
    50
100
AcDbVertex
100
AcDb2dVertex
 10
119.054596
 20
88.788652
 30
0.0
  0
VERTEX
  5
1CE
330
1C4
100
AcDbEntity
  8
001
370
    50
100
AcDbVertex
100
AcDb2dVertex
 10
119.284222
 20
88.775376
 30
0.0
  0
VERTEX
  5
1CF
330
1C4
100
AcDbEntity
  8
001
370
    50
100
AcDbVertex
100
AcDb2dVertex
 10
119.494594
 20
88.761252
 30
0.0
  0
VERTEX
  5
1D0
330
1C4
100
AcDbEntity
  8
001
370
    50
100
AcDbVertex
100
AcDb2dVertex
 10
119.704842
 20
88.745386
 30
0.0
  0
VERTEX
  5
1D1
330
1C4
100
AcDbEntity
  8
001
370
    50
100
AcDbVertex
100
AcDb2dVertex
 10
119.889443
 20
88.73013
 30
0.0
  0
VERTEX
  5
1D2
330
1C4
100
AcDbEntity
  8
001
370
    50
100
AcDbVertex
100
AcDb2dVertex
 10
120.073947
 20
88.713741
 30
0.0
  0
VERTEX
  5
1D3
330
1C4
100
AcDbEntity
  8
001
370
    50
100
AcDbVertex
100
AcDb2dVertex
 10
120.228265
 20
88.699265
 30
0.0
  0
VERTEX
  5
1D4
330
1C4
100
AcDbEntity
  8
001
370
    50
100
AcDbVertex
100
AcDb2dVertex
 10
120.382542
 20
88.684374
 30
0.0
  0
VERTEX
  5
1D5
330
1C4
100
AcDbEntity
  8
001
370
    50
100
AcDbVertex
100
AcDb2dVertex
 10
120.501206
 20
88.672843
 30
0.0
  0
VERTEX
  5
1D6
330
1C4
100
AcDbEntity
  8
001
370
    50
100
AcDbVertex
100
AcDb2dVertex
 10
120.619889
 20
88.661445
 30
0.0
  0
VERTEX
  5
1D7
330
1C4
100
AcDbEntity
  8
001
370
    50
100
AcDbVertex
100
AcDb2dVertex
 10
120.677677
 20
88.656104
 30
0.0
  0
VERTEX
  5
1D8
330
1C4
100
AcDbEntity
  8
001
370
    50
100
AcDbVertex
100
AcDb2dVertex
 10
120.735517
 20
88.65147
 30
0.0
  0
VERTEX
  5
1D9
330
1C4
100
AcDbEntity
  8
001
370
    50
100
AcDbVertex
100
AcDb2dVertex
 10
120.774745
 20
88.648967
 30
0.0
  0
VERTEX
  5
1DA
330
1C4
100
AcDbEntity
  8
001
370
    50
100
AcDbVertex
100
AcDb2dVertex
 10
120.813994
 20
88.64677
 30
0.0
  0
SEQEND
  5
1C5
330
1C4
100
AcDbEntity
  8
001
370
    50
  0
POLYLINE
  5
1DB
330
1F
100
AcDbEntity
  8
001
370
    50
100
AcDb2dPolyline
 66
     1
 10
0.0
 20
0.0
 30
0.0
  0
VERTEX
  5
1DD
330
1DB
100
AcDbEntity
  8
001
370
    50
100
AcDbVertex
100
AcDb2dVertex
 10
120.832453
 20
88.646486
 30
0.0
  0
VERTEX
  5
1DE
330
1DB
100
AcDbEntity
  8
001
370
    50
100
AcDbVertex
100
AcDb2dVertex
 10
121.10065
 20
88.739148
 30
0.0
  0
VERTEX
  5
1DF
330
1DB
100
AcDbEntity
  8
001
370
    50
100
AcDbVertex
100
AcDb2dVertex
 10
121.438624
 20
88.95594
 30
0.0
  0
VERTEX
  5
1E0
330
1DB
100
AcDbEntity
  8
001
370
    50
100
AcDbVertex
100
AcDb2dVertex
 10
121.807168
 20
89.389619
 30
0.0
  0
VERTEX
  5
1E1
330
1DB
100
AcDbEntity
  8
001
370
    50
100
AcDbVertex
100
AcDb2dVertex
 10
122.025306
 20
89.874356
 30
0.0
  0
VERTEX
  5
1E2
330
1DB
100
AcDbEntity
  8
001
370
    50
100
AcDbVertex
100
AcDb2dVertex
 10
122.311291
 20
90.62034
 30
0.0
  0
VERTEX
  5
1E3
330
1DB
100
AcDbEntity
  8
001
370
    50
100
AcDbVertex
100
AcDb2dVertex
 10
122.573637
 20
91.372204
 30
0.0
  0
VERTEX
  5
1E4
330
1DB
100
AcDbEntity
  8
001
370
    50
100
AcDbVertex
100
AcDb2dVertex
 10
122.843267
 20
92.342776
 30
0.0
  0
VERTEX
  5
1E5
330
1DB
100
AcDbEntity
  8
001
370
    50
100
AcDbVertex
100
AcDb2dVertex
 10
123.065987
 20
93.401327
 30
0.0
  0
VERTEX
  5
1E6
330
1DB
100
AcDbEntity
  8
001
370
    50
100
AcDbVertex
100
AcDb2dVertex
 10
123.320319
 20
94.840296
 30
0.0
  0
VERTEX
  5
1E7
330
1DB
100
AcDbEntity
  8
001
370
    50
100
AcDbVertex
100
AcDb2dVertex
 10
123.486525
 20
95.896486
 30
0.0
  0
SEQEND
  5
1DC
330
1DB
100
AcDbEntity
  8
001
370
    50
  0
POLYLINE
  5
1E8
330
1F
100
AcDbEntity
  8
001
370
    50
100
AcDb2dPolyline
 66
     1
 10
0.0
 20
0.0
 30
0.0
  0
VERTEX
  5
1EA
330
1E8
100
AcDbEntity
  8
001
370
    50
100
AcDbVertex
100
AcDb2dVertex
 10
114.054112
 20
105.896486
 30
0.0
  0
VERTEX
  5
1EB
330
1E8
100
AcDbEntity
  8
001
370
    50
100
AcDbVertex
100
AcDb2dVertex
 10
114.472744
 20
105.884616
 30
0.0
  0
VERTEX
  5
1EC
330
1E8
100
AcDbEntity
  8
001
370
    50
100
AcDbVertex
100
AcDb2dVertex
 10
114.890673
 20
105.861938
 30
0.0
  0
VERTEX
  5
1ED
330
1E8
100
AcDbEntity
  8
001
370
    50
100
AcDbVertex
100
AcDb2dVertex
 10
115.308599
 20
105.819778
 30
0.0
  0
VERTEX
  5
1EE
330
1E8
100
AcDbEntity
  8
001
370
    50
100
AcDbVertex
100
AcDb2dVertex
 10
115.724428
 20
105.758942
 30
0.0
  0
VERTEX
  5
1EF
330
1E8
100
AcDbEntity
  8
001
370
    50
100
AcDbVertex
100
AcDb2dVertex
 10
116.137344
 20
105.681896
 30
0.0
  0
VERTEX
  5
1F0
330
1E8
100
AcDbEntity
  8
001
370
    50
100
AcDbVertex
100
AcDb2dVertex
 10
116.546773
 20
105.588472
 30
0.0
  0
VERTEX
  5
1F1
330
1E8
100
AcDbEntity
  8
001
370
    50
100
AcDbVertex
100
AcDb2dVertex
 10
116.950433
 20
105.478475
 30
0.0
  0
VERTEX
  5
1F2
330
1E8
100
AcDbEntity
  8
001
370
    50
100
AcDbVertex
100
AcDb2dVertex
 10
117.349105
 20
105.351497
 30
0.0
  0
VERTEX
  5
1F3
330
1E8
100
AcDbEntity
  8
001
370
    50
100
AcDbVertex
100
AcDb2dVertex
 10
117.742688
 20
105.207385
 30
0.0
  0
VERTEX
  5
1F4
330
1E8
100
AcDbEntity
  8
001
370
    50
100
AcDbVertex
100
AcDb2dVertex
 10
118.129787
 20
105.046675
 30
0.0
  0
VERTEX
  5
1F5
330
1E8
100
AcDbEntity
  8
001
370
    50
100
AcDbVertex
100
AcDb2dVertex
 10
118.510789
 20
104.869225
 30
0.0
  0
VERTEX
  5
1F6
330
1E8
100
AcDbEntity
  8
001
370
    50
100
AcDbVertex
100
AcDb2dVertex
 10
118.883932
 20
104.675792
 30
0.0
  0
VERTEX
  5
1F7
330
1E8
100
AcDbEntity
  8
001
370
    50
100
AcDbVertex
100
AcDb2dVertex
 10
119.247699
 20
104.467164
 30
0.0
  0
VERTEX
  5
1F8
330
1E8
100
AcDbEntity
  8
001
370
    50
100
AcDbVertex
100
AcDb2dVertex
 10
119.602181
 20
104.243113
 30
0.0
  0
VERTEX
  5
1F9
330
1E8
100
AcDbEntity
  8
001
370
    50
100
AcDbVertex
100
AcDb2dVertex
 10
119.944162
 20
104.005518
 30
0.0
  0
VERTEX
  5
1FA
330
1E8
100
AcDbEntity
  8
001
370
    50
100
AcDbVertex
100
AcDb2dVertex
 10
120.275178
 20
103.752899
 30
0.0
  0
VERTEX
  5
1FB
330
1E8
100
AcDbEntity
  8
001
370
    50
100
AcDbVertex
100
AcDb2dVertex
 10
120.57771
 20
103.499903
 30
0.0
  0
VERTEX
  5
1FC
330
1E8
100
AcDbEntity
  8
001
370
    50
100
AcDbVertex
100
AcDb2dVertex
 10
120.869034
 20
103.23407
 30
0.0
  0
VERTEX
  5
1FD
330
1E8
100
AcDbEntity
  8
001
370
    50
100
AcDbVertex
100
AcDb2dVertex
 10
121.148204
 20
102.956526
 30
0.0
  0
VERTEX
  5
1FE
330
1E8
100
AcDbEntity
  8
001
370
    50
100
AcDbVertex
100
AcDb2dVertex
 10
121.415282
 20
102.667327
 30
0.0
  0
VERTEX
  5
1FF
330
1E8
100
AcDbEntity
  8
001
370
    50
100
AcDbVertex
100
AcDb2dVertex
 10
121.667592
 20
102.369604
 30
0.0
  0
VERTEX
  5
200
330
1E8
100
AcDbEntity
  8
001
370
    50
100
AcDbVertex
100
AcDb2dVertex
 10
121.906824
 20
102.061276
 30
0.0
  0
VERTEX
  5
201
330
1E8
100
AcDbEntity
  8
001
370
    50
100
AcDbVertex
100
AcDb2dVertex
 10
122.128832
 20
101.747717
 30
0.0
  0
VERTEX
  5
202
330
1E8
100
AcDbEntity
  8
001
370
    50
100
AcDbVertex
100
AcDb2dVertex
 10
122.336561
 20
101.424522
 30
0.0
  0
VERTEX
  5
203
330
1E8
100
AcDbEntity
  8
001
370
    50
100
AcDbVertex
100
AcDb2dVertex
 10
122.562787
 20
101.030397
 30
0.0
  0
VERTEX
  5
204
330
1E8
100
AcDbEntity
  8
001
370
    50
100
AcDbVertex
100
AcDb2dVertex
 10
122.767536
 20
100.624651
 30
0.0
  0
VERTEX
  5
205
330
1E8
100
AcDbEntity
  8
001
370
    50
100
AcDbVertex
100
AcDb2dVertex
 10
122.947442
 20
100.21616
 30
0.0
  0
VERTEX
  5
206
330
1E8
100
AcDbEntity
  8
001
370
    50
100
AcDbVertex
100
AcDb2dVertex
 10
123.105785
 20
99.798856
 30
0.0
  0
VERTEX
  5
207
330
1E8
100
AcDbEntity
  8
001
370
    50
100
AcDbVertex
100
AcDb2dVertex
 10
123.238337
 20
99.3859
 30
0.0
  0
VERTEX
  5
208
330
1E8
100
AcDbEntity
  8
001
370
    50
100
AcDbVertex
100
AcDb2dVertex
 10
123.349049
 20
98.966571
 30
0.0
  0
VERTEX
  5
209
330
1E8
100
AcDbEntity
  8
001
370
    50
100
AcDbVertex
100
AcDb2dVertex
 10
123.433549
 20
98.561982
 30
0.0
  0
VERTEX
  5
20A
330
1E8
100
AcDbEntity
  8
001
370
    50
100
AcDbVertex
100
AcDb2dVertex
 10
123.49743
 20
98.153661
 30
0.0
  0
VERTEX
  5
20B
330
1E8
100
AcDbEntity
  8
001
370
    50
100
AcDbVertex
100
AcDb2dVertex
 10
123.539899
 20
97.754253
 30
0.0
  0
VERTEX
  5
20C
330
1E8
100
AcDbEntity
  8
001
370
    50
100
AcDbVertex
100
AcDb2dVertex
 10
123.563627
 20
97.353201
 30
0.0
  0
VERTEX
  5
20D
330
1E8
100
AcDbEntity
  8
001
370
    50
100
AcDbVertex
100
AcDb2dVertex
 10
123.56884
 20
96.965098
 30
0.0
  0
VERTEX
  5
20E
330
1E8
100
AcDbEntity
  8
001
370
    50
100
AcDbVertex
100
AcDb2dVertex
 10
123.55439
 20
96.577455
 30
0.0
  0
VERTEX
  5
20F
330
1E8
100
AcDbEntity
  8
001
370
    50
100
AcDbVertex
100
AcDb2dVertex
 10
123.524836
 20
96.236637
 30
0.0
  0
VERTEX
  5
210
330
1E8
100
AcDbEntity
  8
001
370
    50
100
AcDbVertex
100
AcDb2dVertex
 10
123.486525
 20
95.896486
 30
0.0
  0
SEQEND
  5
1E9
330
1E8
100
AcDbEntity
  8
001
370
    50
  0
LINE
  5
211
330
1F
100
AcDbEntity
  8
001
370
    50
100
AcDbLine
 10
112.447391
 20
127.073412
 30
0.0
 11
112.447391
 21
105.896486
 31
0.0
  0
POLYLINE
  5
212
330
1F
100
AcDbEntity
  8
001
370
    50
100
AcDb2dPolyline
 66
     1
 10
0.0
 20
0.0
 30
0.0
  0
VERTEX
  5
214
330
212
100
AcDbEntity
  8
001
370
    50
100
AcDbVertex
100
AcDb2dVertex
 10
117.338626
 20
126.97842
 30
0.0
  0
VERTEX
  5
215
330
212
100
AcDbEntity
  8
001
370
    50
100
AcDbVertex
100
AcDb2dVertex
 10
116.346349
 20
127.000765
 30
0.0
  0
VERTEX
  5
216
330
212
100
AcDbEntity
  8
001
370
    50
100
AcDbVertex
100
AcDb2dVertex
 10
114.896044
 20
127.030776
 30
0.0
  0
VERTEX
  5
217
330
212
100
AcDbEntity
  8
001
370
    50
100
AcDbVertex
100
AcDb2dVertex
 10
113.442176
 20
127.057167
 30
0.0
  0
VERTEX
  5
218
330
212
100
AcDbEntity
  8
001
370
    50
100
AcDbVertex
100
AcDb2dVertex
 10
112.447391
 20
127.073412
 30
0.0
  0
SEQEND
  5
213
330
212
100
AcDbEntity
  8
001
370
    50
  0
POLYLINE
  5
219
330
1F
100
AcDbEntity
  8
001
370
    50
100
AcDb2dPolyline
 66
     1
 10
0.0
 20
0.0
 30
0.0
  0
VERTEX
  5
21B
330
219
100
AcDbEntity
  8
001
370
    50
100
AcDbVertex
100
AcDb2dVertex
 10
117.338626
 20
126.97842
 30
0.0
  0
VERTEX
  5
21C
330
219
100
AcDbEntity
  8
001
370
    50
100
AcDbVertex
100
AcDb2dVertex
 10
117.588419
 20
126.97454
 30
0.0
  0
VERTEX
  5
21D
330
219
100
AcDbEntity
  8
001
370
    50
100
AcDbVertex
100
AcDb2dVertex
 10
117.838224
 20
126.9724
 30
0.0
  0
VERTEX
  5
21E
330
219
100
AcDbEntity
  8
001
370
    50
100
AcDbVertex
100
AcDb2dVertex
 10
118.088335
 20
126.973386
 30
0.0
  0
VERTEX
  5
21F
330
219
100
AcDbEntity
  8
001
370
    50
100
AcDbVertex
100
AcDb2dVertex
 10
118.338424
 20
126.977472
 30
0.0
  0
VERTEX
  5
220
330
219
100
AcDbEntity
  8
001
370
    50
100
AcDbVertex
100
AcDb2dVertex
 10
118.58168
 20
126.984112
 30
0.0
  0
VERTEX
  5
221
330
219
100
AcDbEntity
  8
001
370
    50
100
AcDbVertex
100
AcDb2dVertex
 10
118.82485
 20
126.993302
 30
0.0
  0
VERTEX
  5
222
330
219
100
AcDbEntity
  8
001
370
    50
100
AcDbVertex
100
AcDb2dVertex
 10
119.054596
 20
127.004319
 30
0.0
  0
VERTEX
  5
223
330
219
100
AcDbEntity
  8
001
370
    50
100
AcDbVertex
100
AcDb2dVertex
 10
119.284222
 20
127.017595
 30
0.0
  0
VERTEX
  5
224
330
219
100
AcDbEntity
  8
001
370
    50
100
AcDbVertex
100
AcDb2dVertex
 10
119.494594
 20
127.031719
 30
0.0
  0
VERTEX
  5
225
330
219
100
AcDbEntity
  8
001
370
    50
100
AcDbVertex
100
AcDb2dVertex
 10
119.704842
 20
127.047585
 30
0.0
  0
VERTEX
  5
226
330
219
100
AcDbEntity
  8
001
370
    50
100
AcDbVertex
100
AcDb2dVertex
 10
119.889443
 20
127.062841
 30
0.0
  0
VERTEX
  5
227
330
219
100
AcDbEntity
  8
001
370
    50
100
AcDbVertex
100
AcDb2dVertex
 10
120.073947
 20
127.07923
 30
0.0
  0
VERTEX
  5
228
330
219
100
AcDbEntity
  8
001
370
    50
100
AcDbVertex
100
AcDb2dVertex
 10
120.228265
 20
127.093706
 30
0.0
  0
VERTEX
  5
229
330
219
100
AcDbEntity
  8
001
370
    50
100
AcDbVertex
100
AcDb2dVertex
 10
120.382542
 20
127.108597
 30
0.0
  0
VERTEX
  5
22A
330
219
100
AcDbEntity
  8
001
370
    50
100
AcDbVertex
100
AcDb2dVertex
 10
120.501206
 20
127.120128
 30
0.0
  0
VERTEX
  5
22B
330
219
100
AcDbEntity
  8
001
370
    50
100
AcDbVertex
100
AcDb2dVertex
 10
120.619889
 20
127.131527
 30
0.0
  0
VERTEX
  5
22C
330
219
100
AcDbEntity
  8
001
370
    50
100
AcDbVertex
100
AcDb2dVertex
 10
120.677677
 20
127.136867
 30
0.0
  0
VERTEX
  5
22D
330
219
100
AcDbEntity
  8
001
370
    50
100
AcDbVertex
100
AcDb2dVertex
 10
120.735517
 20
127.141501
 30
0.0
  0
VERTEX
  5
22E
330
219
100
AcDbEntity
  8
001
370
    50
100
AcDbVertex
100
AcDb2dVertex
 10
120.774745
 20
127.144004
 30
0.0
  0
VERTEX
  5
22F
330
219
100
AcDbEntity
  8
001
370
    50
100
AcDbVertex
100
AcDb2dVertex
 10
120.813994
 20
127.146201
 30
0.0
  0
SEQEND
  5
21A
330
219
100
AcDbEntity
  8
001
370
    50
  0
POLYLINE
  5
230
330
1F
100
AcDbEntity
  8
001
370
    50
100
AcDb2dPolyline
 66
     1
 10
0.0
 20
0.0
 30
0.0
  0
VERTEX
  5
232
330
230
100
AcDbEntity
  8
001
370
    50
100
AcDbVertex
100
AcDb2dVertex
 10
109.531246
 20
126.40977
 30
0.0
  0
VERTEX
  5
233
330
230
100
AcDbEntity
  8
001
370
    50
100
AcDbVertex
100
AcDb2dVertex
 10
107.554732
 20
126.446383
 30
0.0
  0
VERTEX
  5
234
330
230
100
AcDbEntity
  8
001
370
    50
100
AcDbVertex
100
AcDb2dVertex
 10
104.665824
 20
126.489384
 30
0.0
  0
VERTEX
  5
235
330
230
100
AcDbEntity
  8
001
370
    50
100
AcDbVertex
100
AcDb2dVertex
 10
101.76765
 20
126.517856
 30
0.0
  0
VERTEX
  5
236
330
230
100
AcDbEntity
  8
001
370
    50
100
AcDbVertex
100
AcDb2dVertex
 10
99.784619
 20
126.530139
 30
0.0
  0
SEQEND
  5
231
330
230
100
AcDbEntity
  8
001
370
    50
  0
POLYLINE
  5
237
330
1F
100
AcDbEntity
  8
001
370
    50
100
AcDb2dPolyline
 66
     1
 10
0.0
 20
0.0
 30
0.0
  0
VERTEX
  5
239
330
237
100
AcDbEntity
  8
001
370
    50
100
AcDbVertex
100
AcDb2dVertex
 10
111.133826
 20
127.057749
 30
0.0
  0
VERTEX
  5
23A
330
237
100
AcDbEntity
  8
001
370
    50
100
AcDbVertex
100
AcDb2dVertex
 10
110.79705
 20
126.976729
 30
0.0
  0
VERTEX
  5
23B
330
237
100
AcDbEntity
  8
001
370
    50
100
AcDbVertex
100
AcDb2dVertex
 10
110.318591
 20
126.816753
 30
0.0
  0
VERTEX
  5
23C
330
237
100
AcDbEntity
  8
001
370
    50
100
AcDbVertex
100
AcDb2dVertex
 10
109.843423
 20
126.59142
 30
0.0
  0
VERTEX
  5
23D
330
237
100
AcDbEntity
  8
001
370
    50
100
AcDbVertex
100
AcDb2dVertex
 10
109.531246
 20
126.40977
 30
0.0
  0
SEQEND
  5
238
330
237
100
AcDbEntity
  8
001
370
    50
  0
POLYLINE
  5
23E
330
1F
100
AcDbEntity
  8
001
370
    50
100
AcDb2dPolyline
 66
     1
 10
0.0
 20
0.0
 30
0.0
  0
VERTEX
  5
240
330
23E
100
AcDbEntity
  8
001
370
    50
100
AcDbVertex
100
AcDb2dVertex
 10
112.447391
 20
127.073412
 30
0.0
  0
VERTEX
  5
241
330
23E
100
AcDbEntity
  8
001
370
    50
100
AcDbVertex
100
AcDb2dVertex
 10
112.180518
 20
127.070444
 30
0.0
  0
VERTEX
  5
242
330
23E
100
AcDbEntity
  8
001
370
    50
100
AcDbVertex
100
AcDb2dVertex
 10
111.790474
 20
127.065922
 30
0.0
  0
VERTEX
  5
243
330
23E
100
AcDbEntity
  8
001
370
    50
100
AcDbVertex
100
AcDb2dVertex
 10
111.400588
 20
127.061144
 30
0.0
  0
VERTEX
  5
244
330
23E
100
AcDbEntity
  8
001
370
    50
100
AcDbVertex
100
AcDb2dVertex
 10
111.133826
 20
127.057749
 30
0.0
  0
SEQEND
  5
23F
330
23E
100
AcDbEntity
  8
001
370
    50
  0
ARC
  5
245
330
1F
100
AcDbEntity
  8
001
370
    50
100
AcDbCircle
 10
125.753162
 20
125.146486
 30
0.0
 40
2.000000000000002
100
AcDbArc
 50
0.0
 51
90.0
  0
ARC
  5
246
330
1F
100
AcDbEntity
  8
001
370
    50
100
AcDbCircle
 10
125.753162
 20
90.646486
 30
0.0
 40
2.000000000000002
100
AcDbArc
 50
270.0
 51
0.0
  0
LINE
  5
247
330
1F
100
AcDbEntity
  8
001
370
    50
100
AcDbLine
 10
127.753162
 20
125.146486
 30
0.0
 11
127.753162
 21
90.646486
 31
0.0
  0
POLYLINE
  5
248
330
1F
100
AcDbEntity
  8
001
370
    50
100
AcDb2dPolyline
 66
     1
 10
0.0
 20
0.0
 30
0.0
  0
VERTEX
  5
24A
330
248
100
AcDbEntity
  8
001
370
    50
100
AcDbVertex
100
AcDb2dVertex
 10
93.552162
 20
120.215965
 30
0.0
  0
VERTEX
  5
24B
330
248
100
AcDbEntity
  8
001
370
    50
100
AcDbVertex
100
AcDb2dVertex
 10
93.552515
 20
120.277692
 30
0.0
  0
VERTEX
  5
24C
330
248
100
AcDbEntity
  8
001
370
    50
100
AcDbVertex
100
AcDb2dVertex
 10
93.553177
 20
120.339418
 30
0.0
  0
VERTEX
  5
24D
330
248
100
AcDbEntity
  8
001
370
    50
100
AcDbVertex
100
AcDb2dVertex
 10
93.565588
 20
120.650749
 30
0.0
  0
VERTEX
  5
24E
330
248
100
AcDbEntity
  8
001
370
    50
100
AcDbVertex
100
AcDb2dVertex
 10
93.593286
 20
120.961184
 30
0.0
  0
VERTEX
  5
24F
330
248
100
AcDbEntity
  8
001
370
    50
100
AcDbVertex
100
AcDb2dVertex
 10
93.645553
 20
121.327487
 30
0.0
  0
VERTEX
  5
250
330
248
100
AcDbEntity
  8
001
370
    50
100
AcDbVertex
100
AcDb2dVertex
 10
93.718636
 20
121.690198
 30
0.0
  0
VERTEX
  5
251
330
248
100
AcDbEntity
  8
001
370
    50
100
AcDbVertex
100
AcDb2dVertex
 10
93.812616
 20
122.04907
 30
0.0
  0
VERTEX
  5
252
330
248
100
AcDbEntity
  8
001
370
    50
100
AcDbVertex
100
AcDb2dVertex
 10
93.927034
 20
122.401974
 30
0.0
  0
VERTEX
  5
253
330
248
100
AcDbEntity
  8
001
370
    50
100
AcDbVertex
100
AcDb2dVertex
 10
94.060958
 20
122.746111
 30
0.0
  0
VERTEX
  5
254
330
248
100
AcDbEntity
  8
001
370
    50
100
AcDbVertex
100
AcDb2dVertex
 10
94.214843
 20
123.081765
 30
0.0
  0
VERTEX
  5
255
330
248
100
AcDbEntity
  8
001
370
    50
100
AcDbVertex
100
AcDb2dVertex
 10
94.380852
 20
123.394111
 30
0.0
  0
VERTEX
  5
256
330
248
100
AcDbEntity
  8
001
370
    50
100
AcDbVertex
100
AcDb2dVertex
 10
94.564329
 20
123.696542
 30
0.0
  0
VERTEX
  5
257
330
248
100
AcDbEntity
  8
001
370
    50
100
AcDbVertex
100
AcDb2dVertex
 10
94.764798
 20
123.988699
 30
0.0
  0
VERTEX
  5
258
330
248
100
AcDbEntity
  8
001
370
    50
100
AcDbVertex
100
AcDb2dVertex
 10
94.981331
 20
124.269158
 30
0.0
  0
VERTEX
  5
259
330
248
100
AcDbEntity
  8
001
370
    50
100
AcDbVertex
100
AcDb2dVertex
 10
95.212169
 20
124.535664
 30
0.0
  0
VERTEX
  5
25A
330
248
100
AcDbEntity
  8
001
370
    50
100
AcDbVertex
100
AcDb2dVertex
 10
95.457863
 20
124.788514
 30
0.0
  0
VERTEX
  5
25B
330
248
100
AcDbEntity
  8
001
370
    50
100
AcDbVertex
100
AcDb2dVertex
 10
95.713893
 20
125.023249
 30
0.0
  0
VERTEX
  5
25C
330
248
100
AcDbEntity
  8
001
370
    50
100
AcDbVertex
100
AcDb2dVertex
 10
95.982807
 20
125.24313
 30
0.0
  0
VERTEX
  5
25D
330
248
100
AcDbEntity
  8
001
370
    50
100
AcDbVertex
100
AcDb2dVertex
 10
96.264
 20
125.447964
 30
0.0
  0
VERTEX
  5
25E
330
248
100
AcDbEntity
  8
001
370
    50
100
AcDbVertex
100
AcDb2dVertex
 10
96.556172
 20
125.636799
 30
0.0
  0
VERTEX
  5
25F
330
248
100
AcDbEntity
  8
001
370
    50
100
AcDbVertex
100
AcDb2dVertex
 10
96.857044
 20
125.808213
 30
0.0
  0
VERTEX
  5
260
330
248
100
AcDbEntity
  8
001
370
    50
100
AcDbVertex
100
AcDb2dVertex
 10
97.167125
 20
125.962347
 30
0.0
  0
VERTEX
  5
261
330
248
100
AcDbEntity
  8
001
370
    50
100
AcDbVertex
100
AcDb2dVertex
 10
97.486007
 20
126.098672
 30
0.0
  0
VERTEX
  5
262
330
248
100
AcDbEntity
  8
001
370
    50
100
AcDbVertex
100
AcDb2dVertex
 10
97.812112
 20
126.216587
 30
0.0
  0
VERTEX
  5
263
330
248
100
AcDbEntity
  8
001
370
    50
100
AcDbVertex
100
AcDb2dVertex
 10
98.144991
 20
126.316148
 30
0.0
  0
VERTEX
  5
264
330
248
100
AcDbEntity
  8
001
370
    50
100
AcDbVertex
100
AcDb2dVertex
 10
98.482912
 20
126.39749
 30
0.0
  0
VERTEX
  5
265
330
248
100
AcDbEntity
  8
001
370
    50
100
AcDbVertex
100
AcDb2dVertex
 10
98.823566
 20
126.460292
 30
0.0
  0
VERTEX
  5
266
330
248
100
AcDbEntity
  8
001
370
    50
100
AcDbVertex
100
AcDb2dVertex
 10
99.167127
 20
126.502125
 30
0.0
  0
VERTEX
  5
267
330
248
100
AcDbEntity
  8
001
370
    50
100
AcDbVertex
100
AcDb2dVertex
 10
99.475512
 20
126.520996
 30
0.0
  0
VERTEX
  5
268
330
248
100
AcDbEntity
  8
001
370
    50
100
AcDbVertex
100
AcDb2dVertex
 10
99.784619
 20
126.530139
 30
0.0
  0
SEQEND
  5
249
330
248
100
AcDbEntity
  8
001
370
    50
  0
LINE
  5
269
330
1F
100
AcDbEntity
  8
001
  6
DASHED
370
    30
100
AcDbLine
 10
93.571881
 20
119.716585
 30
0.0
 11
93.552162
 21
120.215965
 31
0.0
  0
LINE
  5
26A
330
1F
100
AcDbEntity
  8
001
  6
DASHED
370
    30
100
AcDbLine
 10
94.242299
 20
111.396486
 30
0.0
 11
94.242299
 21
104.396486
 31
0.0
  0
LINE
  5
26B
330
1F
100
AcDbEntity
  8
001
  6
DASHED
370
    30
100
AcDbLine
 10
94.242299
 20
111.396486
 30
0.0
 11
94.034977
 21
114.030761
 31
0.0
  0
POLYLINE
  5
26C
330
1F
100
AcDbEntity
  8
001
  6
DASHED
370
    30
100
AcDb2dPolyline
 66
     1
 10
0.0
 20
0.0
 30
0.0
  0
VERTEX
  5
26E
330
26C
100
AcDbEntity
  8
001
  6
DASHED
370
    30
100
AcDbVertex
100
AcDb2dVertex
 10
93.959744
 20
114.622544
 30
0.0
  0
VERTEX
  5
26F
330
26C
100
AcDbEntity
  8
001
  6
DASHED
370
    30
100
AcDbVertex
100
AcDb2dVertex
 10
93.997271
 20
114.371437
 30
0.0
  0
VERTEX
  5
270
330
26C
100
AcDbEntity
  8
001
  6
DASHED
370
    30
100
AcDbVertex
100
AcDb2dVertex
 10
94.027268
 20
114.119498
 30
0.0
  0
VERTEX
  5
271
330
26C
100
AcDbEntity
  8
001
  6
DASHED
370
    30
100
AcDbVertex
100
AcDb2dVertex
 10
94.031257
 20
114.074919
 30
0.0
  0
VERTEX
  5
272
330
26C
100
AcDbEntity
  8
001
  6
DASHED
370
    30
100
AcDbVertex
100
AcDb2dVertex
 10
94.035012
 20
114.030314
 30
0.0
  0
SEQEND
  5
26D
330
26C
100
AcDbEntity
  8
001
  6
DASHED
370
    30
  0
LINE
  5
273
330
1F
100
AcDbEntity
  8
001
  6
DASHED
370
    30
100
AcDbLine
 10
93.959744
 20
114.622544
 30
0.0
 11
93.571881
 21
119.716585
 31
0.0
  0
POLYLINE
  5
274
330
1F
100
AcDbEntity
  8
001
370
    50
100
AcDb2dPolyline
 66
     1
 10
0.0
 20
0.0
 30
0.0
  0
VERTEX
  5
276
330
274
100
AcDbEntity
  8
001
370
    50
100
AcDbVertex
100
AcDb2dVertex
 10
94.122868
 20
105.896486
 30
0.0
  0
VERTEX
  5
277
330
274
100
AcDbEntity
  8
001
370
    50
100
AcDbVertex
100
AcDb2dVertex
 10
94.137273
 20
105.885214
 30
0.0
  0
VERTEX
  5
278
330
274
100
AcDbEntity
  8
001
370
    50
100
AcDbVertex
100
AcDb2dVertex
 10
94.149818
 20
105.872657
 30
0.0
  0
VERTEX
  5
279
330
274
100
AcDbEntity
  8
001
370
    50
100
AcDbVertex
100
AcDb2dVertex
 10
94.165995
 20
105.839676
 30
0.0
  0
VERTEX
  5
27A
330
274
100
AcDbEntity
  8
001
370
    50
100
AcDbVertex
100
AcDb2dVertex
 10
94.173994
 20
105.801649
 30
0.0
  0
VERTEX
  5
27B
330
274
100
AcDbEntity
  8
001
370
    50
100
AcDbVertex
100
AcDb2dVertex
 10
94.188681
 20
105.713405
 30
0.0
  0
VERTEX
  5
27C
330
274
100
AcDbEntity
  8
001
370
    50
100
AcDbVertex
100
AcDb2dVertex
 10
94.200753
 20
105.627239
 30
0.0
  0
VERTEX
  5
27D
330
274
100
AcDbEntity
  8
001
370
    50
100
AcDbVertex
100
AcDb2dVertex
 10
94.211844
 20
105.498726
 30
0.0
  0
VERTEX
  5
27E
330
274
100
AcDbEntity
  8
001
370
    50
100
AcDbVertex
100
AcDb2dVertex
 10
94.217394
 20
105.368622
 30
0.0
  0
VERTEX
  5
27F
330
274
100
AcDbEntity
  8
001
370
    50
100
AcDbVertex
100
AcDb2dVertex
 10
94.220817
 20
105.205425
 30
0.0
  0
VERTEX
  5
280
330
274
100
AcDbEntity
  8
001
370
    50
100
AcDbVertex
100
AcDb2dVertex
 10
94.221329
 20
105.042678
 30
0.0
  0
VERTEX
  5
281
330
274
100
AcDbEntity
  8
001
370
    50
100
AcDbVertex
100
AcDb2dVertex
 10
94.218575
 20
104.847539
 30
0.0
  0
VERTEX
  5
282
330
274
100
AcDbEntity
  8
001
370
    50
100
AcDbVertex
100
AcDb2dVertex
 10
94.212932
 20
104.652291
 30
0.0
  0
VERTEX
  5
283
330
274
100
AcDbEntity
  8
001
370
    50
100
AcDbVertex
100
AcDb2dVertex
 10
94.204421
 20
104.439778
 30
0.0
  0
VERTEX
  5
284
330
274
100
AcDbEntity
  8
001
370
    50
100
AcDbVertex
100
AcDb2dVertex
 10
94.194017
 20
104.227403
 30
0.0
  0
VERTEX
  5
285
330
274
100
AcDbEntity
  8
001
370
    50
100
AcDbVertex
100
AcDb2dVertex
 10
94.181088
 20
103.996565
 30
0.0
  0
VERTEX
  5
286
330
274
100
AcDbEntity
  8
001
370
    50
100
AcDbVertex
100
AcDb2dVertex
 10
94.166852
 20
103.765788
 30
0.0
  0
VERTEX
  5
287
330
274
100
AcDbEntity
  8
001
370
    50
100
AcDbVertex
100
AcDb2dVertex
 10
94.152672
 20
103.550636
 30
0.0
  0
VERTEX
  5
288
330
274
100
AcDbEntity
  8
001
370
    50
100
AcDbVertex
100
AcDb2dVertex
 10
94.137735
 20
103.33554
 30
0.0
  0
VERTEX
  5
289
330
274
100
AcDbEntity
  8
001
370
    50
100
AcDbVertex
100
AcDb2dVertex
 10
94.121832
 20
103.116
 30
0.0
  0
VERTEX
  5
28A
330
274
100
AcDbEntity
  8
001
370
    50
100
AcDbVertex
100
AcDb2dVertex
 10
94.105574
 20
102.896486
 30
0.0
  0
SEQEND
  5
275
330
274
100
AcDbEntity
  8
001
370
    50
  0
LINE
  5
28B
330
1F
100
AcDbEntity
  8
001
370
    50
100
AcDbLine
 10
114.054112
 20
105.896486
 30
0.0
 11
93.552152
 21
105.896486
 31
0.0
  0
LINE
  5
28C
330
1F
100
AcDbEntity
  8
001
  6
DASHED
370
    30
100
AcDbLine
 10
94.071646
 20
102.228138
 30
0.0
 11
94.242299
 21
104.396486
 31
0.0
  0
LINE
  5
28D
330
1F
100
AcDbEntity
  8
001
370
    50
100
AcDbLine
 10
94.054875
 20
102.227968
 30
0.0
 11
94.105574
 21
102.896486
 31
0.0
  0
LINE
  5
28E
330
1F
100
AcDbEntity
  8
001
370
    50
100
AcDbLine
 10
93.552152
 20
116.753032
 30
0.0
 11
93.123241
 21
122.374729
 31
0.0
  0
LINE
  5
28F
330
1F
100
AcDbEntity
  8
001
370
    50
100
AcDbLine
 10
109.51467
 20
126.627027
 30
0.0
 11
109.531246
 21
126.40977
 31
0.0
  0
LINE
  5
290
330
1F
100
AcDbEntity
  8
001
  6
CENTER
370
     9
100
AcDbLine
 10
90.583411
 20
107.896486
 30
0.0
 11
232.218052
 21
107.896486
 31
0.0
  0
LINE
  5
291
330
1F
100
AcDbEntity
  8
001
370
    50
100
AcDbLine
 10
129.753162
 20
91.896486
 30
0.0
 11
129.753162
 21
123.896486
 31
0.0
  0
LINE
  5
292
330
1F
100
AcDbEntity
  8
001
370
    50
100
AcDbLine
 10
219.753162
 20
123.896486
 30
0.0
 11
129.753162
 21
123.896486
 31
0.0
  0
LINE
  5
293
330
1F
100
AcDbEntity
  8
001
370
    50
100
AcDbLine
 10
219.753162
 20
91.896486
 30
0.0
 11
129.753162
 21
91.896486
 31
0.0
  0
LINE
  5
294
330
1F
100
AcDbEntity
  8
001
370
    50
100
AcDbLine
 10
227.753162
 20
107.896486
 30
0.0
 11
231.217263
 21
109.896486
 31
0.0
  0
LINE
  5
295
330
1F
100
AcDbEntity
  8
001
370
    50
100
AcDbLine
 10
227.753162
 20
107.896486
 30
0.0
 11
231.217263
 21
105.896486
 31
0.0
  0
CIRCLE
  5
296
330
1F
100
AcDbEntity
  8
001
370
    50
100
AcDbCircle
 10
102.178139
 20
120.029322
 30
0.0
 40
2.515342793189401
  0
LINE
  5
297
330
1F
100
AcDbEntity
  8
001
370
    50
100
AcDbLine
 10
129.753162
 20
123.396486
 30
0.0
 11
127.753162
 21
123.396486
 31
0.0
  0
LINE
  5
298
330
1F
100
AcDbEntity
  8
001
370
    50
100
AcDbLine
 10
127.753162
 20
92.396486
 30
0.0
 11
129.753162
 21
92.396486
 31
0.0
  0
LINE
  5
299
330
1F
100
AcDbEntity
  8
001
370
    50
100
AcDbLine
 10
227.753162
 20
99.896486
 30
0.0
 11
227.753162
 21
115.896486
 31
0.0
  0
ARC
  5
29A
330
1F
100
AcDbEntity
  8
001
370
    50
100
AcDbCircle
 10
219.753162
 20
115.896486
 30
0.0
 40
8.0
100
AcDbArc
 50
0.0
 51
90.0
  0
ARC
  5
29B
330
1F
100
AcDbEntity
  8
001
370
    50
100
AcDbCircle
 10
219.753162
 20
99.896486
 30
0.0
 40
8.0
100
AcDbArc
 50
270.0
 51
0.0
  0
ARC
  5
29C
330
1F
100
AcDbEntity
  8
001
370
    50
100
AcDbCircle
 10
110.849671
 20
88.460693
 30
0.0
 40
0.4
100
AcDbArc
 50
270.5
 51
355.5
  0
CIRCLE
  5
29D
330
1F
100
AcDbEntity
  8
001
370
    50
100
AcDbCircle
 10
102.45365
 20
95.131679
 30
0.0
 40
3.75
  0
ARC
  5
29E
330
1F
100
AcDbEntity
  8
001
370
    50
100
AcDbCircle
 10
93.825292
 20
101.800637
 30
0.0
 40
0.4
100
AcDbArc
 50
90.5
 51
175.5
  0
LINE
  5
29F
330
1F
100
AcDbEntity
  8
001
370
    50
100
AcDbLine
 10
92.758092
 20
93.338781
 30
0.0
 11
93.426525
 21
101.832021
 31
0.0
  0
LINE
  5
2A0
330
1F
100
AcDbEntity
  8
001
370
    50
100
AcDbLine
 10
110.853162
 20
88.060709
 30
0.0
 11
97.786312
 21
87.946676
 31
0.0
  0
LINE
  5
2A1
330
1F
100
AcDbEntity
  8
001
370
    50
100
AcDbLine
 10
111.916871
 20
96.92255
 30
0.0
 11
111.248438
 21
88.42931
 31
0.0
  0
LINE
  5
2A2
330
1F
100
AcDbEntity
  8
001
370
    50
100
AcDbLine
 10
106.888651
 20
102.314655
 30
0.0
 11
93.821801
 21
102.200622
 31
0.0
  0
ARC
  5
2A3
330
1F
100
AcDbEntity
  8
001
370
    50
100
AcDbCircle
 10
108.986573
 20
99.352747
 30
0.0
 40
4.0
100
AcDbArc
 50
316.57635
 51
132.338696
  0
CIRCLE
  5
2A4
330
1F
100
AcDbEntity
  8
001
370
    50
100
AcDbCircle
 10
102.45365
 20
95.131679
 30
0.0
 40
3.25
  0
LINE
  5
2A5
330
1F
100
AcDbEntity
  8
001
370
    50
100
AcDbLine
 10
101.659793
 20
96.506679
 30
0.0
 11
102.020637
 21
97.131679
 31
0.0
  0
LINE
  5
2A6
330
1F
100
AcDbEntity
  8
001
370
    50
100
AcDbLine
 10
103.247506
 20
96.506679
 30
0.0
 11
102.886662
 21
97.131679
 31
0.0
  0
ARC
  5
2A7
330
1F
100
AcDbEntity
  8
001
370
    50
100
AcDbCircle
 10
102.45365
 20
96.881679
 30
0.0
 40
0.5
100
AcDbArc
 50
30.0
 51
150.0
  0
LINE
  5
2A8
330
1F
100
AcDbEntity
  8
001
370
    50
100
AcDbLine
 10
100.865937
 20
95.131679
 30
0.0
 11
100.505093
 21
95.756679
 31
0.0
  0
LINE
  5
2A9
330
1F
100
AcDbEntity
  8
001
370
    50
100
AcDbLine
 10
101.659793
 20
96.506679
 30
0.0
 11
100.938105
 21
96.506679
 31
0.0
  0
ARC
  5
2AA
330
1F
100
AcDbEntity
  8
001
370
    50
100
AcDbCircle
 10
100.938105
 20
96.006679
 30
0.0
 40
0.5
100
AcDbArc
 50
90.0
 51
210.0
  0
LINE
  5
2AB
330
1F
100
AcDbEntity
  8
001
370
    50
100
AcDbLine
 10
101.659793
 20
93.756679
 30
0.0
 11
100.938105
 21
93.756679
 31
0.0
  0
LINE
  5
2AC
330
1F
100
AcDbEntity
  8
001
370
    50
100
AcDbLine
 10
100.865937
 20
95.131679
 30
0.0
 11
100.505093
 21
94.506679
 31
0.0
  0
ARC
  5
2AD
330
1F
100
AcDbEntity
  8
001
370
    50
100
AcDbCircle
 10
100.938105
 20
94.256679
 30
0.0
 40
0.5
100
AcDbArc
 50
150.0
 51
270.0
  0
LINE
  5
2AE
330
1F
100
AcDbEntity
  8
001
370
    50
100
AcDbLine
 10
103.247506
 20
93.756679
 30
0.0
 11
102.886662
 21
93.131679
 31
0.0
  0
LINE
  5
2AF
330
1F
100
AcDbEntity
  8
001
370
    50
100
AcDbLine
 10
101.659793
 20
93.756679
 30
0.0
 11
102.020637
 21
93.131679
 31
0.0
  0
ARC
  5
2B0
330
1F
100
AcDbEntity
  8
001
370
    50
100
AcDbCircle
 10
102.45365
 20
93.381679
 30
0.0
 40
0.5
100
AcDbArc
 50
210.0
 51
330.0
  0
LINE
  5
2B1
330
1F
100
AcDbEntity
  8
001
370
    50
100
AcDbLine
 10
104.041363
 20
95.131679
 30
0.0
 11
104.402207
 21
94.506679
 31
0.0
  0
LINE
  5
2B2
330
1F
100
AcDbEntity
  8
001
370
    50
100
AcDbLine
 10
103.247506
 20
93.756679
 30
0.0
 11
103.969194
 21
93.756679
 31
0.0
  0
ARC
  5
2B3
330
1F
100
AcDbEntity
  8
001
370
    50
100
AcDbCircle
 10
103.969194
 20
94.256679
 30
0.0
 40
0.5
100
AcDbArc
 50
270.0
 51
30.0
  0
LINE
  5
2B4
330
1F
100
AcDbEntity
  8
001
370
    50
100
AcDbLine
 10
103.247506
 20
96.506679
 30
0.0
 11
103.969194
 21
96.506679
 31
0.0
  0
LINE
  5
2B5
330
1F
100
AcDbEntity
  8
001
370
    50
100
AcDbLine
 10
104.041363
 20
95.131679
 30
0.0
 11
104.402207
 21
95.756679
 31
0.0
  0
ARC
  5
2B6
330
1F
100
AcDbEntity
  8
001
370
    50
100
AcDbCircle
 10
103.969194
 20
96.006679
 30
0.0
 40
0.5
100
AcDbArc
 50
330.0
 51
90.0
  0
LINE
  5
2B7
330
1F
100
AcDbEntity
  8
001
370
     9
100
AcDbLine
 10
92.753162
 20
93.023486
 30
0.0
 11
92.753162
 21
76.526437
 31
0.0
  0
LINE
  5
2B8
330
1F
100
AcDbEntity
  8
001
370
    50
100
AcDbLine
 10
93.552152
 20
120.226962
 30
0.0
 11
93.552152
 21
102.041656
 31
0.0
  0
POLYLINE
  5
2B9
330
1F
100
AcDbEntity
  8
001
370
    50
100
AcDb2dPolyline
 66
     1
 10
0.0
 20
0.0
 30
0.0
  0
VERTEX
  5
2BB
330
2B9
100
AcDbEntity
  8
001
370
    50
100
AcDbVertex
100
AcDb2dVertex
 10
111.508348
 20
88.730483
 30
0.0
  0
VERTEX
  5
2BC
330
2B9
100
AcDbEntity
  8
001
370
    50
100
AcDbVertex
100
AcDb2dVertex
 10
111.646715
 20
88.728783
 30
0.0
  0
VERTEX
  5
2BD
330
2B9
100
AcDbEntity
  8
001
370
    50
100
AcDbVertex
100
AcDb2dVertex
 10
111.790474
 20
88.727049
 30
0.0
  0
VERTEX
  5
2BE
330
2B9
100
AcDbEntity
  8
001
370
    50
100
AcDbVertex
100
AcDb2dVertex
 10
112.180518
 20
88.722527
 30
0.0
  0
VERTEX
  5
2BF
330
2B9
100
AcDbEntity
  8
001
370
    50
100
AcDbVertex
100
AcDb2dVertex
 10
112.447391
 20
88.719559
 30
0.0
  0
SEQEND
  5
2BA
330
2B9
100
AcDbEntity
  8
001
370
    50
  0
ARC
  5
2C0
330
1F
100
AcDbEntity
  8
001
370
    50
100
AcDbCircle
 10
106.932284
 20
97.314845
 30
0.0
 40
5.0
100
AcDbArc
 50
355.5
 51
90.5
  0
ARC
  5
2C1
330
1F
100
AcDbEntity
  8
001
370
    50
100
AcDbCircle
 10
97.742679
 20
92.946486
 30
0.0
 40
5.0
100
AcDbArc
 50
175.5
 51
270.5
  0
LINE
  5
2C2
330
1F
100
AcDbEntity
  8
001
370
     9
100
AcDbLine
 10
84.152404
 20
87.946486
 30
0.0
 11
97.742679
 21
87.946486
 31
0.0
  0
ARC
  5
2C3
330
1F
100
AcDbEntity
  8
001
370
    50
100
AcDbCircle
 10
111.082008
 20
127.33025
 30
0.0
 40
0.4
100
AcDbArc
 50
4.5
 51
89.5
  0
LINE
  5
2C4
330
1F
100
AcDbEntity
  8
001
370
    50
100
AcDbLine
 10
92.758092
 20
122.45419
 30
0.0
 11
93.426525
 21
113.96095
 31
0.0
  0
LINE
  5
2C5
330
1F
100
AcDbEntity
  8
001
370
    50
100
AcDbLine
 10
97.786312
 20
127.846295
 30
0.0
 11
111.085498
 21
127.730235
 31
0.0
  0
ARC
  5
2C6
330
1F
100
AcDbEntity
  8
001
370
    50
100
AcDbCircle
 10
97.742679
 20
122.846486
 30
0.0
 40
5.0
100
AcDbArc
 50
89.5
 51
184.5
  0
LINE
  5
2C7
330
1F
100
AcDbEntity
  8
001
370
    50
100
AcDbLine
 10
111.504322
 20
127.062438
 30
0.0
 11
111.480775
 21
127.361634
 31
0.0
  0
ARC
  5
2C8
330
1F
100
AcDbEntity
  8
001
370
    50
100
AcDbCircle
 10
93.825292
 20
113.992334
 30
0.0
 40
0.4
100
AcDbArc
 50
184.5
 51
226.933205
  0
POLYLINE
  5
2C9
330
1F
100
AcDbEntity
  8
001
370
    50
100
AcDb2dPolyline
 66
     1
 10
0.0
 20
0.0
 30
0.0
  0
VERTEX
  5
2CB
330
2C9
100
AcDbEntity
  8
001
370
    50
100
AcDbVertex
100
AcDb2dVertex
 10
97.152872
 20
361.258863
 30
0.0
  0
VERTEX
  5
2CC
330
2C9
100
AcDbEntity
  8
001
370
    50
100
AcDbVertex
100
AcDb2dVertex
 10
96.843099
 20
361.244745
 30
0.0
  0
VERTEX
  5
2CD
330
2C9
100
AcDbEntity
  8
001
370
    50
100
AcDbVertex
100
AcDb2dVertex
 10
96.419154
 20
361.197508
 30
0.0
  0
VERTEX
  5
2CE
330
2C9
100
AcDbEntity
  8
001
370
    50
100
AcDbVertex
100
AcDb2dVertex
 10
96.04374
 20
361.115843
 30
0.0
  0
VERTEX
  5
2CF
330
2C9
100
AcDbEntity
  8
001
370
    50
100
AcDbVertex
100
AcDb2dVertex
 10
95.708921
 20
361.000709
 30
0.0
  0
VERTEX
  5
2D0
330
2C9
100
AcDbEntity
  8
001
370
    50
100
AcDbVertex
100
AcDb2dVertex
 10
95.37422
 20
360.853258
 30
0.0
  0
VERTEX
  5
2D1
330
2C9
100
AcDbEntity
  8
001
370
    50
100
AcDbVertex
100
AcDb2dVertex
 10
95.04621
 20
360.675126
 30
0.0
  0
VERTEX
  5
2D2
330
2C9
100
AcDbEntity
  8
001
370
    50
100
AcDbVertex
100
AcDb2dVertex
 10
94.738435
 20
360.467255
 30
0.0
  0
VERTEX
  5
2D3
330
2C9
100
AcDbEntity
  8
001
370
    50
100
AcDbVertex
100
AcDb2dVertex
 10
94.453451
 20
360.231779
 30
0.0
  0
VERTEX
  5
2D4
330
2C9
100
AcDbEntity
  8
001
370
    50
100
AcDbVertex
100
AcDb2dVertex
 10
94.189846
 20
359.969985
 30
0.0
  0
VERTEX
  5
2D5
330
2C9
100
AcDbEntity
  8
001
370
    50
100
AcDbVertex
100
AcDb2dVertex
 10
93.950705
 20
359.685672
 30
0.0
  0
VERTEX
  5
2D6
330
2C9
100
AcDbEntity
  8
001
370
    50
100
AcDbVertex
100
AcDb2dVertex
 10
93.738256
 20
359.380667
 30
0.0
  0
VERTEX
  5
2D7
330
2C9
100
AcDbEntity
  8
001
370
    50
100
AcDbVertex
100
AcDb2dVertex
 10
93.554988
 20
359.055288
 30
0.0
  0
VERTEX
  5
2D8
330
2C9
100
AcDbEntity
  8
001
370
    50
100
AcDbVertex
100
AcDb2dVertex
 10
93.401894
 20
358.710658
 30
0.0
  0
VERTEX
  5
2D9
330
2C9
100
AcDbEntity
  8
001
370
    50
100
AcDbVertex
100
AcDb2dVertex
 10
93.279692
 20
358.361963
 30
0.0
  0
VERTEX
  5
2DA
330
2C9
100
AcDbEntity
  8
001
370
    50
100
AcDbVertex
100
AcDb2dVertex
 10
93.189057
 20
358.014722
 30
0.0
  0
VERTEX
  5
2DB
330
2C9
100
AcDbEntity
  8
001
370
    50
100
AcDbVertex
100
AcDb2dVertex
 10
93.134134
 20
357.629161
 30
0.0
  0
VERTEX
  5
2DC
330
2C9
100
AcDbEntity
  8
001
370
    50
100
AcDbVertex
100
AcDb2dVertex
 10
93.116254
 20
357.196442
 30
0.0
  0
VERTEX
  5
2DD
330
2C9
100
AcDbEntity
  8
001
370
    50
100
AcDbVertex
100
AcDb2dVertex
 10
93.123241
 20
356.881684
 30
0.0
  0
SEQEND
  5
2CA
330
2C9
100
AcDbEntity
  8
001
370
    50
  0
LINE
  5
2DE
330
1F
100
AcDbEntity
  8
001
370
    50
100
AcDbLine
 10
97.152872
 20
361.258863
 30
0.0
 11
109.51467
 21
361.133982
 31
0.0
  0
POLYLINE
  5
2DF
330
1F
100
AcDbEntity
  8
001
370
    50
100
AcDb2dPolyline
 66
     1
 10
0.0
 20
0.0
 30
0.0
  0
VERTEX
  5
2E1
330
2DF
100
AcDbEntity
  8
001
370
    50
100
AcDbVertex
100
AcDb2dVertex
 10
120.813994
 20
323.153725
 30
0.0
  0
VERTEX
  5
2E2
330
2DF
100
AcDbEntity
  8
001
370
    50
100
AcDbVertex
100
AcDb2dVertex
 10
120.817743
 20
323.153623
 30
0.0
  0
VERTEX
  5
2E3
330
2DF
100
AcDbEntity
  8
001
370
    50
100
AcDbVertex
100
AcDb2dVertex
 10
120.823223
 20
323.153512
 30
0.0
  0
VERTEX
  5
2E4
330
2DF
100
AcDbEntity
  8
001
370
    50
100
AcDbVertex
100
AcDb2dVertex
 10
120.828703
 20
323.153454
 30
0.0
  0
VERTEX
  5
2E5
330
2DF
100
AcDbEntity
  8
001
370
    50
100
AcDbVertex
100
AcDb2dVertex
 10
120.832453
 20
323.15344
 30
0.0
  0
SEQEND
  5
2E0
330
2DF
100
AcDbEntity
  8
001
370
    50
  0
POLYLINE
  5
2E6
330
1F
100
AcDbEntity
  8
001
370
    50
100
AcDb2dPolyline
 66
     1
 10
0.0
 20
0.0
 30
0.0
  0
VERTEX
  5
2E8
330
2E6
100
AcDbEntity
  8
001
370
    50
100
AcDbVertex
100
AcDb2dVertex
 10
120.832453
 20
361.65344
 30
0.0
  0
VERTEX
  5
2E9
330
2E6
100
AcDbEntity
  8
001
370
    50
100
AcDbVertex
100
AcDb2dVertex
 10
120.828703
 20
361.653427
 30
0.0
  0
VERTEX
  5
2EA
330
2E6
100
AcDbEntity
  8
001
370
    50
100
AcDbVertex
100
AcDb2dVertex
 10
120.823223
 20
361.653369
 30
0.0
  0
VERTEX
  5
2EB
330
2E6
100
AcDbEntity
  8
001
370
    50
100
AcDbVertex
100
AcDb2dVertex
 10
120.817743
 20
361.653258
 30
0.0
  0
VERTEX
  5
2EC
330
2E6
100
AcDbEntity
  8
001
370
    50
100
AcDbVertex
100
AcDb2dVertex
 10
120.813994
 20
361.653156
 30
0.0
  0
SEQEND
  5
2E7
330
2E6
100
AcDbEntity
  8
001
370
    50
  0
LINE
  5
2ED
330
1F
100
AcDbEntity
  8
001
370
    50
100
AcDbLine
 10
125.753162
 20
361.65344
 30
0.0
 11
120.832453
 21
361.65344
 31
0.0
  0
LINE
  5
2EE
330
1F
100
AcDbEntity
  8
001
370
    50
100
AcDbLine
 10
120.832453
 20
323.15344
 30
0.0
 11
125.753162
 21
323.15344
 31
0.0
  0
POLYLINE
  5
2EF
330
1F
100
AcDbEntity
  8
001
370
    50
100
AcDb2dPolyline
 66
     1
 10
0.0
 20
0.0
 30
0.0
  0
VERTEX
  5
2F1
330
2EF
100
AcDbEntity
  8
001
370
    50
100
AcDbVertex
100
AcDb2dVertex
 10
112.447391
 20
323.226514
 30
0.0
  0
VERTEX
  5
2F2
330
2EF
100
AcDbEntity
  8
001
370
    50
100
AcDbVertex
100
AcDb2dVertex
 10
113.442176
 20
323.242759
 30
0.0
  0
VERTEX
  5
2F3
330
2EF
100
AcDbEntity
  8
001
370
    50
100
AcDbVertex
100
AcDb2dVertex
 10
114.896044
 20
323.26915
 30
0.0
  0
VERTEX
  5
2F4
330
2EF
100
AcDbEntity
  8
001
370
    50
100
AcDbVertex
100
AcDb2dVertex
 10
116.346349
 20
323.299161
 30
0.0
  0
VERTEX
  5
2F5
330
2EF
100
AcDbEntity
  8
001
370
    50
100
AcDbVertex
100
AcDb2dVertex
 10
117.338626
 20
323.321506
 30
0.0
  0
SEQEND
  5
2F0
330
2EF
100
AcDbEntity
  8
001
370
    50
  0
POLYLINE
  5
2F6
330
1F
100
AcDbEntity
  8
001
370
    50
100
AcDb2dPolyline
 66
     1
 10
0.0
 20
0.0
 30
0.0
  0
VERTEX
  5
2F8
330
2F6
100
AcDbEntity
  8
001
370
    50
100
AcDbVertex
100
AcDb2dVertex
 10
117.338626
 20
323.321506
 30
0.0
  0
VERTEX
  5
2F9
330
2F6
100
AcDbEntity
  8
001
370
    50
100
AcDbVertex
100
AcDb2dVertex
 10
117.588419
 20
323.325386
 30
0.0
  0
VERTEX
  5
2FA
330
2F6
100
AcDbEntity
  8
001
370
    50
100
AcDbVertex
100
AcDb2dVertex
 10
117.838224
 20
323.327526
 30
0.0
  0
VERTEX
  5
2FB
330
2F6
100
AcDbEntity
  8
001
370
    50
100
AcDbVertex
100
AcDb2dVertex
 10
118.088335
 20
323.32654
 30
0.0
  0
VERTEX
  5
2FC
330
2F6
100
AcDbEntity
  8
001
370
    50
100
AcDbVertex
100
AcDb2dVertex
 10
118.338424
 20
323.322454
 30
0.0
  0
VERTEX
  5
2FD
330
2F6
100
AcDbEntity
  8
001
370
    50
100
AcDbVertex
100
AcDb2dVertex
 10
118.58168
 20
323.315814
 30
0.0
  0
VERTEX
  5
2FE
330
2F6
100
AcDbEntity
  8
001
370
    50
100
AcDbVertex
100
AcDb2dVertex
 10
118.82485
 20
323.306624
 30
0.0
  0
VERTEX
  5
2FF
330
2F6
100
AcDbEntity
  8
001
370
    50
100
AcDbVertex
100
AcDb2dVertex
 10
119.054596
 20
323.295607
 30
0.0
  0
VERTEX
  5
300
330
2F6
100
AcDbEntity
  8
001
370
    50
100
AcDbVertex
100
AcDb2dVertex
 10
119.284222
 20
323.282331
 30
0.0
  0
VERTEX
  5
301
330
2F6
100
AcDbEntity
  8
001
370
    50
100
AcDbVertex
100
AcDb2dVertex
 10
119.494594
 20
323.268207
 30
0.0
  0
VERTEX
  5
302
330
2F6
100
AcDbEntity
  8
001
370
    50
100
AcDbVertex
100
AcDb2dVertex
 10
119.704842
 20
323.252341
 30
0.0
  0
VERTEX
  5
303
330
2F6
100
AcDbEntity
  8
001
370
    50
100
AcDbVertex
100
AcDb2dVertex
 10
119.889443
 20
323.237085
 30
0.0
  0
VERTEX
  5
304
330
2F6
100
AcDbEntity
  8
001
370
    50
100
AcDbVertex
100
AcDb2dVertex
 10
120.073947
 20
323.220696
 30
0.0
  0
VERTEX
  5
305
330
2F6
100
AcDbEntity
  8
001
370
    50
100
AcDbVertex
100
AcDb2dVertex
 10
120.228265
 20
323.20622
 30
0.0
  0
VERTEX
  5
306
330
2F6
100
AcDbEntity
  8
001
370
    50
100
AcDbVertex
100
AcDb2dVertex
 10
120.382542
 20
323.191329
 30
0.0
  0
VERTEX
  5
307
330
2F6
100
AcDbEntity
  8
001
370
    50
100
AcDbVertex
100
AcDb2dVertex
 10
120.501206
 20
323.179797
 30
0.0
  0
VERTEX
  5
308
330
2F6
100
AcDbEntity
  8
001
370
    50
100
AcDbVertex
100
AcDb2dVertex
 10
120.619889
 20
323.168399
 30
0.0
  0
VERTEX
  5
309
330
2F6
100
AcDbEntity
  8
001
370
    50
100
AcDbVertex
100
AcDb2dVertex
 10
120.677677
 20
323.163059
 30
0.0
  0
VERTEX
  5
30A
330
2F6
100
AcDbEntity
  8
001
370
    50
100
AcDbVertex
100
AcDb2dVertex
 10
120.735517
 20
323.158425
 30
0.0
  0
VERTEX
  5
30B
330
2F6
100
AcDbEntity
  8
001
370
    50
100
AcDbVertex
100
AcDb2dVertex
 10
120.774745
 20
323.155922
 30
0.0
  0
VERTEX
  5
30C
330
2F6
100
AcDbEntity
  8
001
370
    50
100
AcDbVertex
100
AcDb2dVertex
 10
120.813994
 20
323.153725
 30
0.0
  0
SEQEND
  5
2F7
330
2F6
100
AcDbEntity
  8
001
370
    50
  0
POLYLINE
  5
30D
330
1F
100
AcDbEntity
  8
001
370
    50
100
AcDb2dPolyline
 66
     1
 10
0.0
 20
0.0
 30
0.0
  0
VERTEX
  5
30F
330
30D
100
AcDbEntity
  8
001
370
    50
100
AcDbVertex
100
AcDb2dVertex
 10
120.832453
 20
323.15344
 30
0.0
  0
VERTEX
  5
310
330
30D
100
AcDbEntity
  8
001
370
    50
100
AcDbVertex
100
AcDb2dVertex
 10
121.10065
 20
323.246103
 30
0.0
  0
VERTEX
  5
311
330
30D
100
AcDbEntity
  8
001
370
    50
100
AcDbVertex
100
AcDb2dVertex
 10
121.438624
 20
323.462895
 30
0.0
  0
VERTEX
  5
312
330
30D
100
AcDbEntity
  8
001
370
    50
100
AcDbVertex
100
AcDb2dVertex
 10
121.807168
 20
323.896574
 30
0.0
  0
VERTEX
  5
313
330
30D
100
AcDbEntity
  8
001
370
    50
100
AcDbVertex
100
AcDb2dVertex
 10
122.025306
 20
324.381311
 30
0.0
  0
VERTEX
  5
314
330
30D
100
AcDbEntity
  8
001
370
    50
100
AcDbVertex
100
AcDb2dVertex
 10
122.311291
 20
325.127295
 30
0.0
  0
VERTEX
  5
315
330
30D
100
AcDbEntity
  8
001
370
    50
100
AcDbVertex
100
AcDb2dVertex
 10
122.573637
 20
325.879159
 30
0.0
  0
VERTEX
  5
316
330
30D
100
AcDbEntity
  8
001
370
    50
100
AcDbVertex
100
AcDb2dVertex
 10
122.843267
 20
326.849731
 30
0.0
  0
VERTEX
  5
317
330
30D
100
AcDbEntity
  8
001
370
    50
100
AcDbVertex
100
AcDb2dVertex
 10
123.065987
 20
327.908281
 30
0.0
  0
VERTEX
  5
318
330
30D
100
AcDbEntity
  8
001
370
    50
100
AcDbVertex
100
AcDb2dVertex
 10
123.320319
 20
329.347251
 30
0.0
  0
VERTEX
  5
319
330
30D
100
AcDbEntity
  8
001
370
    50
100
AcDbVertex
100
AcDb2dVertex
 10
123.486525
 20
330.40344
 30
0.0
  0
SEQEND
  5
30E
330
30D
100
AcDbEntity
  8
001
370
    50
  0
POLYLINE
  5
31A
330
1F
100
AcDbEntity
  8
001
370
    50
100
AcDb2dPolyline
 66
     1
 10
0.0
 20
0.0
 30
0.0
  0
VERTEX
  5
31C
330
31A
100
AcDbEntity
  8
001
370
    50
100
AcDbVertex
100
AcDb2dVertex
 10
114.054112
 20
340.40344
 30
0.0
  0
VERTEX
  5
31D
330
31A
100
AcDbEntity
  8
001
370
    50
100
AcDbVertex
100
AcDb2dVertex
 10
114.472744
 20
340.391571
 30
0.0
  0
VERTEX
  5
31E
330
31A
100
AcDbEntity
  8
001
370
    50
100
AcDbVertex
100
AcDb2dVertex
 10
114.890673
 20
340.368893
 30
0.0
  0
VERTEX
  5
31F
330
31A
100
AcDbEntity
  8
001
370
    50
100
AcDbVertex
100
AcDb2dVertex
 10
115.308599
 20
340.326733
 30
0.0
  0
VERTEX
  5
320
330
31A
100
AcDbEntity
  8
001
370
    50
100
AcDbVertex
100
AcDb2dVertex
 10
115.724428
 20
340.265897
 30
0.0
  0
VERTEX
  5
321
330
31A
100
AcDbEntity
  8
001
370
    50
100
AcDbVertex
100
AcDb2dVertex
 10
116.137344
 20
340.18885
 30
0.0
  0
VERTEX
  5
322
330
31A
100
AcDbEntity
  8
001
370
    50
100
AcDbVertex
100
AcDb2dVertex
 10
116.546773
 20
340.095426
 30
0.0
  0
VERTEX
  5
323
330
31A
100
AcDbEntity
  8
001
370
    50
100
AcDbVertex
100
AcDb2dVertex
 10
116.950433
 20
339.985429
 30
0.0
  0
VERTEX
  5
324
330
31A
100
AcDbEntity
  8
001
370
    50
100
AcDbVertex
100
AcDb2dVertex
 10
117.349105
 20
339.858452
 30
0.0
  0
VERTEX
  5
325
330
31A
100
AcDbEntity
  8
001
370
    50
100
AcDbVertex
100
AcDb2dVertex
 10
117.742688
 20
339.71434
 30
0.0
  0
VERTEX
  5
326
330
31A
100
AcDbEntity
  8
001
370
    50
100
AcDbVertex
100
AcDb2dVertex
 10
118.129787
 20
339.55363
 30
0.0
  0
VERTEX
  5
327
330
31A
100
AcDbEntity
  8
001
370
    50
100
AcDbVertex
100
AcDb2dVertex
 10
118.510789
 20
339.37618
 30
0.0
  0
VERTEX
  5
328
330
31A
100
AcDbEntity
  8
001
370
    50
100
AcDbVertex
100
AcDb2dVertex
 10
118.883932
 20
339.182747
 30
0.0
  0
VERTEX
  5
329
330
31A
100
AcDbEntity
  8
001
370
    50
100
AcDbVertex
100
AcDb2dVertex
 10
119.247699
 20
338.974118
 30
0.0
  0
VERTEX
  5
32A
330
31A
100
AcDbEntity
  8
001
370
    50
100
AcDbVertex
100
AcDb2dVertex
 10
119.602181
 20
338.750067
 30
0.0
  0
VERTEX
  5
32B
330
31A
100
AcDbEntity
  8
001
370
    50
100
AcDbVertex
100
AcDb2dVertex
 10
119.944162
 20
338.512473
 30
0.0
  0
VERTEX
  5
32C
330
31A
100
AcDbEntity
  8
001
370
    50
100
AcDbVertex
100
AcDb2dVertex
 10
120.275178
 20
338.259854
 30
0.0
  0
VERTEX
  5
32D
330
31A
100
AcDbEntity
  8
001
370
    50
100
AcDbVertex
100
AcDb2dVertex
 10
120.57771
 20
338.006858
 30
0.0
  0
VERTEX
  5
32E
330
31A
100
AcDbEntity
  8
001
370
    50
100
AcDbVertex
100
AcDb2dVertex
 10
120.869034
 20
337.741025
 30
0.0
  0
VERTEX
  5
32F
330
31A
100
AcDbEntity
  8
001
370
    50
100
AcDbVertex
100
AcDb2dVertex
 10
121.148204
 20
337.463481
 30
0.0
  0
VERTEX
  5
330
330
31A
100
AcDbEntity
  8
001
370
    50
100
AcDbVertex
100
AcDb2dVertex
 10
121.415282
 20
337.174282
 30
0.0
  0
VERTEX
  5
331
330
31A
100
AcDbEntity
  8
001
370
    50
100
AcDbVertex
100
AcDb2dVertex
 10
121.667592
 20
336.876559
 30
0.0
  0
VERTEX
  5
332
330
31A
100
AcDbEntity
  8
001
370
    50
100
AcDbVertex
100
AcDb2dVertex
 10
121.906824
 20
336.568231
 30
0.0
  0
VERTEX
  5
333
330
31A
100
AcDbEntity
  8
001
370
    50
100
AcDbVertex
100
AcDb2dVertex
 10
122.128832
 20
336.254672
 30
0.0
  0
VERTEX
  5
334
330
31A
100
AcDbEntity
  8
001
370
    50
100
AcDbVertex
100
AcDb2dVertex
 10
122.336561
 20
335.931477
 30
0.0
  0
VERTEX
  5
335
330
31A
100
AcDbEntity
  8
001
370
    50
100
AcDbVertex
100
AcDb2dVertex
 10
122.562787
 20
335.537351
 30
0.0
  0
VERTEX
  5
336
330
31A
100
AcDbEntity
  8
001
370
    50
100
AcDbVertex
100
AcDb2dVertex
 10
122.767536
 20
335.131606
 30
0.0
  0
VERTEX
  5
337
330
31A
100
AcDbEntity
  8
001
370
    50
100
AcDbVertex
100
AcDb2dVertex
 10
122.947442
 20
334.723115
 30
0.0
  0
VERTEX
  5
338
330
31A
100
AcDbEntity
  8
001
370
    50
100
AcDbVertex
100
AcDb2dVertex
 10
123.105785
 20
334.305811
 30
0.0
  0
VERTEX
  5
339
330
31A
100
AcDbEntity
  8
001
370
    50
100
AcDbVertex
100
AcDb2dVertex
 10
123.238337
 20
333.892855
 30
0.0
  0
VERTEX
  5
33A
330
31A
100
AcDbEntity
  8
001
370
    50
100
AcDbVertex
100
AcDb2dVertex
 10
123.349049
 20
333.473526
 30
0.0
  0
VERTEX
  5
33B
330
31A
100
AcDbEntity
  8
001
370
    50
100
AcDbVertex
100
AcDb2dVertex
 10
123.433549
 20
333.068937
 30
0.0
  0
VERTEX
  5
33C
330
31A
100
AcDbEntity
  8
001
370
    50
100
AcDbVertex
100
AcDb2dVertex
 10
123.49743
 20
332.660615
 30
0.0
  0
VERTEX
  5
33D
330
31A
100
AcDbEntity
  8
001
370
    50
100
AcDbVertex
100
AcDb2dVertex
 10
123.539899
 20
332.261208
 30
0.0
  0
VERTEX
  5
33E
330
31A
100
AcDbEntity
  8
001
370
    50
100
AcDbVertex
100
AcDb2dVertex
 10
123.563627
 20
331.860156
 30
0.0
  0
VERTEX
  5
33F
330
31A
100
AcDbEntity
  8
001
370
    50
100
AcDbVertex
100
AcDb2dVertex
 10
123.56884
 20
331.472053
 30
0.0
  0
VERTEX
  5
340
330
31A
100
AcDbEntity
  8
001
370
    50
100
AcDbVertex
100
AcDb2dVertex
 10
123.55439
 20
331.08441
 30
0.0
  0
VERTEX
  5
341
330
31A
100
AcDbEntity
  8
001
370
    50
100
AcDbVertex
100
AcDb2dVertex
 10
123.524836
 20
330.743592
 30
0.0
  0
VERTEX
  5
342
330
31A
100
AcDbEntity
  8
001
370
    50
100
AcDbVertex
100
AcDb2dVertex
 10
123.486525
 20
330.40344
 30
0.0
  0
SEQEND
  5
31B
330
31A
100
AcDbEntity
  8
001
370
    50
  0
LINE
  5
343
330
1F
100
AcDbEntity
  8
001
370
    50
100
AcDbLine
 10
112.447391
 20
361.580367
 30
0.0
 11
112.447391
 21
340.40344
 31
0.0
  0
POLYLINE
  5
344
330
1F
100
AcDbEntity
  8
001
370
    50
100
AcDb2dPolyline
 66
     1
 10
0.0
 20
0.0
 30
0.0
  0
VERTEX
  5
346
330
344
100
AcDbEntity
  8
001
370
    50
100
AcDbVertex
100
AcDb2dVertex
 10
117.338626
 20
361.485375
 30
0.0
  0
VERTEX
  5
347
330
344
100
AcDbEntity
  8
001
370
    50
100
AcDbVertex
100
AcDb2dVertex
 10
116.346349
 20
361.507719
 30
0.0
  0
VERTEX
  5
348
330
344
100
AcDbEntity
  8
001
370
    50
100
AcDbVertex
100
AcDb2dVertex
 10
114.896044
 20
361.537731
 30
0.0
  0
VERTEX
  5
349
330
344
100
AcDbEntity
  8
001
370
    50
100
AcDbVertex
100
AcDb2dVertex
 10
113.442176
 20
361.564122
 30
0.0
  0
VERTEX
  5
34A
330
344
100
AcDbEntity
  8
001
370
    50
100
AcDbVertex
100
AcDb2dVertex
 10
112.447391
 20
361.580367
 30
0.0
  0
SEQEND
  5
345
330
344
100
AcDbEntity
  8
001
370
    50
  0
POLYLINE
  5
34B
330
1F
100
AcDbEntity
  8
001
370
    50
100
AcDb2dPolyline
 66
     1
 10
0.0
 20
0.0
 30
0.0
  0
VERTEX
  5
34D
330
34B
100
AcDbEntity
  8
001
370
    50
100
AcDbVertex
100
AcDb2dVertex
 10
117.338626
 20
361.485375
 30
0.0
  0
VERTEX
  5
34E
330
34B
100
AcDbEntity
  8
001
370
    50
100
AcDbVertex
100
AcDb2dVertex
 10
117.588419
 20
361.481495
 30
0.0
  0
VERTEX
  5
34F
330
34B
100
AcDbEntity
  8
001
370
    50
100
AcDbVertex
100
AcDb2dVertex
 10
117.838224
 20
361.479355
 30
0.0
  0
VERTEX
  5
350
330
34B
100
AcDbEntity
  8
001
370
    50
100
AcDbVertex
100
AcDb2dVertex
 10
118.088335
 20
361.480341
 30
0.0
  0
VERTEX
  5
351
330
34B
100
AcDbEntity
  8
001
370
    50
100
AcDbVertex
100
AcDb2dVertex
 10
118.338424
 20
361.484427
 30
0.0
  0
VERTEX
  5
352
330
34B
100
AcDbEntity
  8
001
370
    50
100
AcDbVertex
100
AcDb2dVertex
 10
118.58168
 20
361.491067
 30
0.0
  0
VERTEX
  5
353
330
34B
100
AcDbEntity
  8
001
370
    50
100
AcDbVertex
100
AcDb2dVertex
 10
118.82485
 20
361.500257
 30
0.0
  0
VERTEX
  5
354
330
34B
100
AcDbEntity
  8
001
370
    50
100
AcDbVertex
100
AcDb2dVertex
 10
119.054596
 20
361.511274
 30
0.0
  0
VERTEX
  5
355
330
34B
100
AcDbEntity
  8
001
370
    50
100
AcDbVertex
100
AcDb2dVertex
 10
119.284222
 20
361.52455
 30
0.0
  0
VERTEX
  5
356
330
34B
100
AcDbEntity
  8
001
370
    50
100
AcDbVertex
100
AcDb2dVertex
 10
119.494594
 20
361.538674
 30
0.0
  0
VERTEX
  5
357
330
34B
100
AcDbEntity
  8
001
370
    50
100
AcDbVertex
100
AcDb2dVertex
 10
119.704842
 20
361.55454
 30
0.0
  0
VERTEX
  5
358
330
34B
100
AcDbEntity
  8
001
370
    50
100
AcDbVertex
100
AcDb2dVertex
 10
119.889443
 20
361.569795
 30
0.0
  0
VERTEX
  5
359
330
34B
100
AcDbEntity
  8
001
370
    50
100
AcDbVertex
100
AcDb2dVertex
 10
120.073947
 20
361.586185
 30
0.0
  0
VERTEX
  5
35A
330
34B
100
AcDbEntity
  8
001
370
    50
100
AcDbVertex
100
AcDb2dVertex
 10
120.228265
 20
361.600661
 30
0.0
  0
VERTEX
  5
35B
330
34B
100
AcDbEntity
  8
001
370
    50
100
AcDbVertex
100
AcDb2dVertex
 10
120.382542
 20
361.615552
 30
0.0
  0
VERTEX
  5
35C
330
34B
100
AcDbEntity
  8
001
370
    50
100
AcDbVertex
100
AcDb2dVertex
 10
120.501206
 20
361.627083
 30
0.0
  0
VERTEX
  5
35D
330
34B
100
AcDbEntity
  8
001
370
    50
100
AcDbVertex
100
AcDb2dVertex
 10
120.619889
 20
361.638481
 30
0.0
  0
VERTEX
  5
35E
330
34B
100
AcDbEntity
  8
001
370
    50
100
AcDbVertex
100
AcDb2dVertex
 10
120.677677
 20
361.643821
 30
0.0
  0
VERTEX
  5
35F
330
34B
100
AcDbEntity
  8
001
370
    50
100
AcDbVertex
100
AcDb2dVertex
 10
120.735517
 20
361.648456
 30
0.0
  0
VERTEX
  5
360
330
34B
100
AcDbEntity
  8
001
370
    50
100
AcDbVertex
100
AcDb2dVertex
 10
120.774745
 20
361.650959
 30
0.0
  0
VERTEX
  5
361
330
34B
100
AcDbEntity
  8
001
370
    50
100
AcDbVertex
100
AcDb2dVertex
 10
120.813994
 20
361.653156
 30
0.0
  0
SEQEND
  5
34C
330
34B
100
AcDbEntity
  8
001
370
    50
  0
POLYLINE
  5
362
330
1F
100
AcDbEntity
  8
001
370
    50
100
AcDb2dPolyline
 66
     1
 10
0.0
 20
0.0
 30
0.0
  0
VERTEX
  5
364
330
362
100
AcDbEntity
  8
001
370
    50
100
AcDbVertex
100
AcDb2dVertex
 10
109.531246
 20
360.916725
 30
0.0
  0
VERTEX
  5
365
330
362
100
AcDbEntity
  8
001
370
    50
100
AcDbVertex
100
AcDb2dVertex
 10
107.554732
 20
360.953338
 30
0.0
  0
VERTEX
  5
366
330
362
100
AcDbEntity
  8
001
370
    50
100
AcDbVertex
100
AcDb2dVertex
 10
104.665824
 20
360.996339
 30
0.0
  0
VERTEX
  5
367
330
362
100
AcDbEntity
  8
001
370
    50
100
AcDbVertex
100
AcDb2dVertex
 10
101.76765
 20
361.024811
 30
0.0
  0
VERTEX
  5
368
330
362
100
AcDbEntity
  8
001
370
    50
100
AcDbVertex
100
AcDb2dVertex
 10
99.784619
 20
361.037094
 30
0.0
  0
SEQEND
  5
363
330
362
100
AcDbEntity
  8
001
370
    50
  0
POLYLINE
  5
369
330
1F
100
AcDbEntity
  8
001
370
    50
100
AcDb2dPolyline
 66
     1
 10
0.0
 20
0.0
 30
0.0
  0
VERTEX
  5
36B
330
369
100
AcDbEntity
  8
001
370
    50
100
AcDbVertex
100
AcDb2dVertex
 10
111.133826
 20
361.564703
 30
0.0
  0
VERTEX
  5
36C
330
369
100
AcDbEntity
  8
001
370
    50
100
AcDbVertex
100
AcDb2dVertex
 10
110.79705
 20
361.483684
 30
0.0
  0
VERTEX
  5
36D
330
369
100
AcDbEntity
  8
001
370
    50
100
AcDbVertex
100
AcDb2dVertex
 10
110.318591
 20
361.323708
 30
0.0
  0
VERTEX
  5
36E
330
369
100
AcDbEntity
  8
001
370
    50
100
AcDbVertex
100
AcDb2dVertex
 10
109.843423
 20
361.098375
 30
0.0
  0
VERTEX
  5
36F
330
369
100
AcDbEntity
  8
001
370
    50
100
AcDbVertex
100
AcDb2dVertex
 10
109.531246
 20
360.916725
 30
0.0
  0
SEQEND
  5
36A
330
369
100
AcDbEntity
  8
001
370
    50
  0
POLYLINE
  5
370
330
1F
100
AcDbEntity
  8
001
370
    50
100
AcDb2dPolyline
 66
     1
 10
0.0
 20
0.0
 30
0.0
  0
VERTEX
  5
372
330
370
100
AcDbEntity
  8
001
370
    50
100
AcDbVertex
100
AcDb2dVertex
 10
112.447391
 20
361.580367
 30
0.0
  0
VERTEX
  5
373
330
370
100
AcDbEntity
  8
001
370
    50
100
AcDbVertex
100
AcDb2dVertex
 10
112.180518
 20
361.577399
 30
0.0
  0
VERTEX
  5
374
330
370
100
AcDbEntity
  8
001
370
    50
100
AcDbVertex
100
AcDb2dVertex
 10
111.790474
 20
361.572877
 30
0.0
  0
VERTEX
  5
375
330
370
100
AcDbEntity
  8
001
370
    50
100
AcDbVertex
100
AcDb2dVertex
 10
111.400588
 20
361.568099
 30
0.0
  0
VERTEX
  5
376
330
370
100
AcDbEntity
  8
001
370
    50
100
AcDbVertex
100
AcDb2dVertex
 10
111.133826
 20
361.564703
 30
0.0
  0
SEQEND
  5
371
330
370
100
AcDbEntity
  8
001
370
    50
  0
ARC
  5
377
330
1F
100
AcDbEntity
  8
001
370
    50
100
AcDbCircle
 10
125.753162
 20
359.65344
 30
0.0
 40
2.000000000000002
100
AcDbArc
 50
0.0
 51
90.0
  0
ARC
  5
378
330
1F
100
AcDbEntity
  8
001
370
    50
100
AcDbCircle
 10
125.753162
 20
325.15344
 30
0.0
 40
2.000000000000002
100
AcDbArc
 50
270.0
 51
0.0
  0
LINE
  5
379
330
1F
100
AcDbEntity
  8
001
370
    50
100
AcDbLine
 10
127.753162
 20
359.65344
 30
0.0
 11
127.753162
 21
325.15344
 31
0.0
  0
POLYLINE
  5
37A
330
1F
100
AcDbEntity
  8
001
370
    50
100
AcDb2dPolyline
 66
     1
 10
0.0
 20
0.0
 30
0.0
  0
VERTEX
  5
37C
330
37A
100
AcDbEntity
  8
001
370
    50
100
AcDbVertex
100
AcDb2dVertex
 10
93.552162
 20
354.72292
 30
0.0
  0
VERTEX
  5
37D
330
37A
100
AcDbEntity
  8
001
370
    50
100
AcDbVertex
100
AcDb2dVertex
 10
93.552515
 20
354.784647
 30
0.0
  0
VERTEX
  5
37E
330
37A
100
AcDbEntity
  8
001
370
    50
100
AcDbVertex
100
AcDb2dVertex
 10
93.553177
 20
354.846373
 30
0.0
  0
VERTEX
  5
37F
330
37A
100
AcDbEntity
  8
001
370
    50
100
AcDbVertex
100
AcDb2dVertex
 10
93.565588
 20
355.157704
 30
0.0
  0
VERTEX
  5
380
330
37A
100
AcDbEntity
  8
001
370
    50
100
AcDbVertex
100
AcDb2dVertex
 10
93.593286
 20
355.468139
 30
0.0
  0
VERTEX
  5
381
330
37A
100
AcDbEntity
  8
001
370
    50
100
AcDbVertex
100
AcDb2dVertex
 10
93.645553
 20
355.834442
 30
0.0
  0
VERTEX
  5
382
330
37A
100
AcDbEntity
  8
001
370
    50
100
AcDbVertex
100
AcDb2dVertex
 10
93.718636
 20
356.197153
 30
0.0
  0
VERTEX
  5
383
330
37A
100
AcDbEntity
  8
001
370
    50
100
AcDbVertex
100
AcDb2dVertex
 10
93.812616
 20
356.556024
 30
0.0
  0
VERTEX
  5
384
330
37A
100
AcDbEntity
  8
001
370
    50
100
AcDbVertex
100
AcDb2dVertex
 10
93.927034
 20
356.908928
 30
0.0
  0
VERTEX
  5
385
330
37A
100
AcDbEntity
  8
001
370
    50
100
AcDbVertex
100
AcDb2dVertex
 10
94.060958
 20
357.253066
 30
0.0
  0
VERTEX
  5
386
330
37A
100
AcDbEntity
  8
001
370
    50
100
AcDbVertex
100
AcDb2dVertex
 10
94.214843
 20
357.58872
 30
0.0
  0
VERTEX
  5
387
330
37A
100
AcDbEntity
  8
001
370
    50
100
AcDbVertex
100
AcDb2dVertex
 10
94.380852
 20
357.901066
 30
0.0
  0
VERTEX
  5
388
330
37A
100
AcDbEntity
  8
001
370
    50
100
AcDbVertex
100
AcDb2dVertex
 10
94.564329
 20
358.203497
 30
0.0
  0
VERTEX
  5
389
330
37A
100
AcDbEntity
  8
001
370
    50
100
AcDbVertex
100
AcDb2dVertex
 10
94.764798
 20
358.495654
 30
0.0
  0
VERTEX
  5
38A
330
37A
100
AcDbEntity
  8
001
370
    50
100
AcDbVertex
100
AcDb2dVertex
 10
94.981331
 20
358.776113
 30
0.0
  0
VERTEX
  5
38B
330
37A
100
AcDbEntity
  8
001
370
    50
100
AcDbVertex
100
AcDb2dVertex
 10
95.212169
 20
359.042618
 30
0.0
  0
VERTEX
  5
38C
330
37A
100
AcDbEntity
  8
001
370
    50
100
AcDbVertex
100
AcDb2dVertex
 10
95.457863
 20
359.295469
 30
0.0
  0
VERTEX
  5
38D
330
37A
100
AcDbEntity
  8
001
370
    50
100
AcDbVertex
100
AcDb2dVertex
 10
95.713893
 20
359.530204
 30
0.0
  0
VERTEX
  5
38E
330
37A
100
AcDbEntity
  8
001
370
    50
100
AcDbVertex
100
AcDb2dVertex
 10
95.982807
 20
359.750085
 30
0.0
  0
VERTEX
  5
38F
330
37A
100
AcDbEntity
  8
001
370
    50
100
AcDbVertex
100
AcDb2dVertex
 10
96.264
 20
359.954919
 30
0.0
  0
VERTEX
  5
390
330
37A
100
AcDbEntity
  8
001
370
    50
100
AcDbVertex
100
AcDb2dVertex
 10
96.556172
 20
360.143754
 30
0.0
  0
VERTEX
  5
391
330
37A
100
AcDbEntity
  8
001
370
    50
100
AcDbVertex
100
AcDb2dVertex
 10
96.857044
 20
360.315168
 30
0.0
  0
VERTEX
  5
392
330
37A
100
AcDbEntity
  8
001
370
    50
100
AcDbVertex
100
AcDb2dVertex
 10
97.167125
 20
360.469302
 30
0.0
  0
VERTEX
  5
393
330
37A
100
AcDbEntity
  8
001
370
    50
100
AcDbVertex
100
AcDb2dVertex
 10
97.486007
 20
360.605627
 30
0.0
  0
VERTEX
  5
394
330
37A
100
AcDbEntity
  8
001
370
    50
100
AcDbVertex
100
AcDb2dVertex
 10
97.812112
 20
360.723542
 30
0.0
  0
VERTEX
  5
395
330
37A
100
AcDbEntity
  8
001
370
    50
100
AcDbVertex
100
AcDb2dVertex
 10
98.144991
 20
360.823103
 30
0.0
  0
VERTEX
  5
396
330
37A
100
AcDbEntity
  8
001
370
    50
100
AcDbVertex
100
AcDb2dVertex
 10
98.482912
 20
360.904445
 30
0.0
  0
VERTEX
  5
397
330
37A
100
AcDbEntity
  8
001
370
    50
100
AcDbVertex
100
AcDb2dVertex
 10
98.823566
 20
360.967247
 30
0.0
  0
VERTEX
  5
398
330
37A
100
AcDbEntity
  8
001
370
    50
100
AcDbVertex
100
AcDb2dVertex
 10
99.167127
 20
361.00908
 30
0.0
  0
VERTEX
  5
399
330
37A
100
AcDbEntity
  8
001
370
    50
100
AcDbVertex
100
AcDb2dVertex
 10
99.475512
 20
361.027951
 30
0.0
  0
VERTEX
  5
39A
330
37A
100
AcDbEntity
  8
001
370
    50
100
AcDbVertex
100
AcDb2dVertex
 10
99.784619
 20
361.037094
 30
0.0
  0
SEQEND
  5
37B
330
37A
100
AcDbEntity
  8
001
370
    50
  0
LINE
  5
39B
330
1F
100
AcDbEntity
  8
001
  6
DASHED
370
    30
100
AcDbLine
 10
93.571881
 20
354.22354
 30
0.0
 11
93.552162
 21
354.72292
 31
0.0
  0
LINE
  5
39C
330
1F
100
AcDbEntity
  8
001
  6
DASHED
370
    30
100
AcDbLine
 10
94.242299
 20
345.90344
 30
0.0
 11
94.242299
 21
338.90344
 31
0.0
  0
LINE
  5
39D
330
1F
100
AcDbEntity
  8
001
  6
DASHED
370
    30
100
AcDbLine
 10
94.242299
 20
345.90344
 30
0.0
 11
94.034977
 21
348.537716
 31
0.0
  0
POLYLINE
  5
39E
330
1F
100
AcDbEntity
  8
001
  6
DASHED
370
    30
100
AcDb2dPolyline
 66
     1
 10
0.0
 20
0.0
 30
0.0
  0
VERTEX
  5
3A0
330
39E
100
AcDbEntity
  8
001
  6
DASHED
370
    30
100
AcDbVertex
100
AcDb2dVertex
 10
93.959744
 20
349.129499
 30
0.0
  0
VERTEX
  5
3A1
330
39E
100
AcDbEntity
  8
001
  6
DASHED
370
    30
100
AcDbVertex
100
AcDb2dVertex
 10
93.997271
 20
348.878392
 30
0.0
  0
VERTEX
  5
3A2
330
39E
100
AcDbEntity
  8
001
  6
DASHED
370
    30
100
AcDbVertex
100
AcDb2dVertex
 10
94.027268
 20
348.626453
 30
0.0
  0
VERTEX
  5
3A3
330
39E
100
AcDbEntity
  8
001
  6
DASHED
370
    30
100
AcDbVertex
100
AcDb2dVertex
 10
94.031257
 20
348.581874
 30
0.0
  0
VERTEX
  5
3A4
330
39E
100
AcDbEntity
  8
001
  6
DASHED
370
    30
100
AcDbVertex
100
AcDb2dVertex
 10
94.035012
 20
348.537269
 30
0.0
  0
SEQEND
  5
39F
330
39E
100
AcDbEntity
  8
001
  6
DASHED
370
    30
  0
LINE
  5
3A5
330
1F
100
AcDbEntity
  8
001
  6
DASHED
370
    30
100
AcDbLine
 10
93.959744
 20
349.129499
 30
0.0
 11
93.571881
 21
354.22354
 31
0.0
  0
POLYLINE
  5
3A6
330
1F
100
AcDbEntity
  8
001
370
    50
100
AcDb2dPolyline
 66
     1
 10
0.0
 20
0.0
 30
0.0
  0
VERTEX
  5
3A8
330
3A6
100
AcDbEntity
  8
001
370
    50
100
AcDbVertex
100
AcDb2dVertex
 10
94.122868
 20
340.40344
 30
0.0
  0
VERTEX
  5
3A9
330
3A6
100
AcDbEntity
  8
001
370
    50
100
AcDbVertex
100
AcDb2dVertex
 10
94.137273
 20
340.392168
 30
0.0
  0
VERTEX
  5
3AA
330
3A6
100
AcDbEntity
  8
001
370
    50
100
AcDbVertex
100
AcDb2dVertex
 10
94.149818
 20
340.379611
 30
0.0
  0
VERTEX
  5
3AB
330
3A6
100
AcDbEntity
  8
001
370
    50
100
AcDbVertex
100
AcDb2dVertex
 10
94.165995
 20
340.346631
 30
0.0
  0
VERTEX
  5
3AC
330
3A6
100
AcDbEntity
  8
001
370
    50
100
AcDbVertex
100
AcDb2dVertex
 10
94.173994
 20
340.308604
 30
0.0
  0
VERTEX
  5
3AD
330
3A6
100
AcDbEntity
  8
001
370
    50
100
AcDbVertex
100
AcDb2dVertex
 10
94.188681
 20
340.22036
 30
0.0
  0
VERTEX
  5
3AE
330
3A6
100
AcDbEntity
  8
001
370
    50
100
AcDbVertex
100
AcDb2dVertex
 10
94.200753
 20
340.134194
 30
0.0
  0
VERTEX
  5
3AF
330
3A6
100
AcDbEntity
  8
001
370
    50
100
AcDbVertex
100
AcDb2dVertex
 10
94.211844
 20
340.005681
 30
0.0
  0
VERTEX
  5
3B0
330
3A6
100
AcDbEntity
  8
001
370
    50
100
AcDbVertex
100
AcDb2dVertex
 10
94.217394
 20
339.875577
 30
0.0
  0
VERTEX
  5
3B1
330
3A6
100
AcDbEntity
  8
001
370
    50
100
AcDbVertex
100
AcDb2dVertex
 10
94.220817
 20
339.71238
 30
0.0
  0
VERTEX
  5
3B2
330
3A6
100
AcDbEntity
  8
001
370
    50
100
AcDbVertex
100
AcDb2dVertex
 10
94.221329
 20
339.549633
 30
0.0
  0
VERTEX
  5
3B3
330
3A6
100
AcDbEntity
  8
001
370
    50
100
AcDbVertex
100
AcDb2dVertex
 10
94.218575
 20
339.354494
 30
0.0
  0
VERTEX
  5
3B4
330
3A6
100
AcDbEntity
  8
001
370
    50
100
AcDbVertex
100
AcDb2dVertex
 10
94.212932
 20
339.159246
 30
0.0
  0
VERTEX
  5
3B5
330
3A6
100
AcDbEntity
  8
001
370
    50
100
AcDbVertex
100
AcDb2dVertex
 10
94.204421
 20
338.946733
 30
0.0
  0
VERTEX
  5
3B6
330
3A6
100
AcDbEntity
  8
001
370
    50
100
AcDbVertex
100
AcDb2dVertex
 10
94.194017
 20
338.734357
 30
0.0
  0
VERTEX
  5
3B7
330
3A6
100
AcDbEntity
  8
001
370
    50
100
AcDbVertex
100
AcDb2dVertex
 10
94.181088
 20
338.50352
 30
0.0
  0
VERTEX
  5
3B8
330
3A6
100
AcDbEntity
  8
001
370
    50
100
AcDbVertex
100
AcDb2dVertex
 10
94.166852
 20
338.272743
 30
0.0
  0
VERTEX
  5
3B9
330
3A6
100
AcDbEntity
  8
001
370
    50
100
AcDbVertex
100
AcDb2dVertex
 10
94.152672
 20
338.057591
 30
0.0
  0
VERTEX
  5
3BA
330
3A6
100
AcDbEntity
  8
001
370
    50
100
AcDbVertex
100
AcDb2dVertex
 10
94.137735
 20
337.842494
 30
0.0
  0
VERTEX
  5
3BB
330
3A6
100
AcDbEntity
  8
001
370
    50
100
AcDbVertex
100
AcDb2dVertex
 10
94.121832
 20
337.622955
 30
0.0
  0
VERTEX
  5
3BC
330
3A6
100
AcDbEntity
  8
001
370
    50
100
AcDbVertex
100
AcDb2dVertex
 10
94.105574
 20
337.40344
 30
0.0
  0
SEQEND
  5
3A7
330
3A6
100
AcDbEntity
  8
001
370
    50
  0
LINE
  5
3BD
330
1F
100
AcDbEntity
  8
001
370
    50
100
AcDbLine
 10
114.054112
 20
340.40344
 30
0.0
 11
93.552152
 21
340.40344
 31
0.0
  0
LINE
  5
3BE
330
1F
100
AcDbEntity
  8
001
  6
DASHED
370
    30
100
AcDbLine
 10
94.071646
 20
336.735093
 30
0.0
 11
94.242299
 21
338.90344
 31
0.0
  0
LINE
  5
3BF
330
1F
100
AcDbEntity
  8
001
370
    50
100
AcDbLine
 10
94.054875
 20
336.734923
 30
0.0
 11
94.105574
 21
337.40344
 31
0.0
  0
LINE
  5
3C0
330
1F
100
AcDbEntity
  8
001
370
    50
100
AcDbLine
 10
93.552152
 20
351.259987
 30
0.0
 11
93.123241
 21
356.881684
 31
0.0
  0
LINE
  5
3C1
330
1F
100
AcDbEntity
  8
001
370
    50
100
AcDbLine
 10
109.51467
 20
361.133982
 30
0.0
 11
109.531246
 21
360.916725
 31
0.0
  0
LINE
  5
3C2
330
1F
100
AcDbEntity
  8
001
370
    50
100
AcDbLine
 10
129.753162
 20
326.40344
 30
0.0
 11
129.753162
 21
358.40344
 31
0.0
  0
LINE
  5
3C3
330
1F
100
AcDbEntity
  8
001
370
    50
100
AcDbLine
 10
269.753162
 20
358.40344
 30
0.0
 11
129.753162
 21
358.40344
 31
0.0
  0
LINE
  5
3C4
330
1F
100
AcDbEntity
  8
001
370
    50
100
AcDbLine
 10
269.753162
 20
326.40344
 30
0.0
 11
129.753162
 21
326.40344
 31
0.0
  0
LINE
  5
3C5
330
1F
100
AcDbEntity
  8
001
370
    50
100
AcDbLine
 10
277.753162
 20
342.40344
 30
0.0
 11
281.217263
 21
344.40344
 31
0.0
  0
LINE
  5
3C6
330
1F
100
AcDbEntity
  8
001
370
    50
100
AcDbLine
 10
277.753162
 20
342.40344
 30
0.0
 11
281.217263
 21
340.40344
 31
0.0
  0
CIRCLE
  5
3C7
330
1F
100
AcDbEntity
  8
001
370
    50
100
AcDbCircle
 10
102.178139
 20
354.536277
 30
0.0
 40
2.515342793189401
  0
LINE
  5
3C8
330
1F
100
AcDbEntity
  8
001
370
    50
100
AcDbLine
 10
129.753162
 20
357.90344
 30
0.0
 11
127.753162
 21
357.90344
 31
0.0
  0
LINE
  5
3C9
330
1F
100
AcDbEntity
  8
001
370
    50
100
AcDbLine
 10
127.753162
 20
326.90344
 30
0.0
 11
129.753162
 21
326.90344
 31
0.0
  0
LINE
  5
3CA
330
1F
100
AcDbEntity
  8
001
370
    50
100
AcDbLine
 10
277.753162
 20
334.40344
 30
0.0
 11
277.753162
 21
350.40344
 31
0.0
  0
ARC
  5
3CB
330
1F
100
AcDbEntity
  8
001
370
    50
100
AcDbCircle
 10
269.753162
 20
350.40344
 30
0.0
 40
8.0
100
AcDbArc
 50
0.0
 51
90.0
  0
ARC
  5
3CC
330
1F
100
AcDbEntity
  8
001
370
    50
100
AcDbCircle
 10
269.753162
 20
334.40344
 30
0.0
 40
8.0
100
AcDbArc
 50
270.0
 51
0.0
  0
ARC
  5
3CD
330
1F
100
AcDbEntity
  8
001
370
    50
100
AcDbCircle
 10
110.849671
 20
322.967648
 30
0.0
 40
0.4
100
AcDbArc
 50
270.5
 51
355.5
  0
CIRCLE
  5
3CE
330
1F
100
AcDbEntity
  8
001
370
    50
100
AcDbCircle
 10
102.45365
 20
329.638634
 30
0.0
 40
3.75
  0
ARC
  5
3CF
330
1F
100
AcDbEntity
  8
001
370
    50
100
AcDbCircle
 10
93.825292
 20
336.307592
 30
0.0
 40
0.4
100
AcDbArc
 50
90.5
 51
175.5
  0
LINE
  5
3D0
330
1F
100
AcDbEntity
  8
001
370
    50
100
AcDbLine
 10
92.758092
 20
327.845736
 30
0.0
 11
93.426525
 21
336.338976
 31
0.0
  0
LINE
  5
3D1
330
1F
100
AcDbEntity
  8
001
370
    50
100
AcDbLine
 10
110.853162
 20
322.567663
 30
0.0
 11
97.786312
 21
322.453631
 31
0.0
  0
LINE
  5
3D2
330
1F
100
AcDbEntity
  8
001
370
    50
100
AcDbLine
 10
111.916871
 20
331.429505
 30
0.0
 11
111.248438
 21
322.936265
 31
0.0
  0
LINE
  5
3D3
330
1F
100
AcDbEntity
  8
001
370
    50
100
AcDbLine
 10
106.888651
 20
336.82161
 30
0.0
 11
93.821801
 21
336.707577
 31
0.0
  0
ARC
  5
3D4
330
1F
100
AcDbEntity
  8
001
370
    50
100
AcDbCircle
 10
108.986573
 20
333.859702
 30
0.0
 40
4.0
100
AcDbArc
 50
316.57635
 51
132.338696
  0
CIRCLE
  5
3D5
330
1F
100
AcDbEntity
  8
001
370
    50
100
AcDbCircle
 10
102.45365
 20
329.638634
 30
0.0
 40
3.25
  0
LINE
  5
3D6
330
1F
100
AcDbEntity
  8
001
370
    50
100
AcDbLine
 10
101.659793
 20
331.013634
 30
0.0
 11
102.020637
 21
331.638634
 31
0.0
  0
LINE
  5
3D7
330
1F
100
AcDbEntity
  8
001
370
    50
100
AcDbLine
 10
103.247506
 20
331.013634
 30
0.0
 11
102.886662
 21
331.638634
 31
0.0
  0
ARC
  5
3D8
330
1F
100
AcDbEntity
  8
001
370
    50
100
AcDbCircle
 10
102.45365
 20
331.388634
 30
0.0
 40
0.5
100
AcDbArc
 50
30.0
 51
150.0
  0
LINE
  5
3D9
330
1F
100
AcDbEntity
  8
001
370
    50
100
AcDbLine
 10
100.865937
 20
329.638634
 30
0.0
 11
100.505093
 21
330.263634
 31
0.0
  0
LINE
  5
3DA
330
1F
100
AcDbEntity
  8
001
370
    50
100
AcDbLine
 10
101.659793
 20
331.013634
 30
0.0
 11
100.938105
 21
331.013634
 31
0.0
  0
ARC
  5
3DB
330
1F
100
AcDbEntity
  8
001
370
    50
100
AcDbCircle
 10
100.938105
 20
330.513634
 30
0.0
 40
0.5
100
AcDbArc
 50
90.0
 51
210.0
  0
LINE
  5
3DC
330
1F
100
AcDbEntity
  8
001
370
    50
100
AcDbLine
 10
101.659793
 20
328.263634
 30
0.0
 11
100.938105
 21
328.263634
 31
0.0
  0
LINE
  5
3DD
330
1F
100
AcDbEntity
  8
001
370
    50
100
AcDbLine
 10
100.865937
 20
329.638634
 30
0.0
 11
100.505093
 21
329.013634
 31
0.0
  0
ARC
  5
3DE
330
1F
100
AcDbEntity
  8
001
370
    50
100
AcDbCircle
 10
100.938105
 20
328.763634
 30
0.0
 40
0.5
100
AcDbArc
 50
150.0
 51
270.0
  0
LINE
  5
3DF
330
1F
100
AcDbEntity
  8
001
370
    50
100
AcDbLine
 10
103.247506
 20
328.263634
 30
0.0
 11
102.886662
 21
327.638634
 31
0.0
  0
LINE
  5
3E0
330
1F
100
AcDbEntity
  8
001
370
    50
100
AcDbLine
 10
101.659793
 20
328.263634
 30
0.0
 11
102.020637
 21
327.638634
 31
0.0
  0
ARC
  5
3E1
330
1F
100
AcDbEntity
  8
001
370
    50
100
AcDbCircle
 10
102.45365
 20
327.888634
 30
0.0
 40
0.5
100
AcDbArc
 50
210.0
 51
330.0
  0
LINE
  5
3E2
330
1F
100
AcDbEntity
  8
001
370
    50
100
AcDbLine
 10
104.041363
 20
329.638634
 30
0.0
 11
104.402207
 21
329.013634
 31
0.0
  0
LINE
  5
3E3
330
1F
100
AcDbEntity
  8
001
370
    50
100
AcDbLine
 10
103.247506
 20
328.263634
 30
0.0
 11
103.969194
 21
328.263634
 31
0.0
  0
ARC
  5
3E4
330
1F
100
AcDbEntity
  8
001
370
    50
100
AcDbCircle
 10
103.969194
 20
328.763634
 30
0.0
 40
0.5
100
AcDbArc
 50
270.0
 51
30.0
  0
LINE
  5
3E5
330
1F
100
AcDbEntity
  8
001
370
    50
100
AcDbLine
 10
103.247506
 20
331.013634
 30
0.0
 11
103.969194
 21
331.013634
 31
0.0
  0
LINE
  5
3E6
330
1F
100
AcDbEntity
  8
001
370
    50
100
AcDbLine
 10
104.041363
 20
329.638634
 30
0.0
 11
104.402207
 21
330.263634
 31
0.0
  0
ARC
  5
3E7
330
1F
100
AcDbEntity
  8
001
370
    50
100
AcDbCircle
 10
103.969194
 20
330.513634
 30
0.0
 40
0.5
100
AcDbArc
 50
330.0
 51
90.0
  0
LINE
  5
3E8
330
1F
100
AcDbEntity
  8
001
370
     9
100
AcDbLine
 10
92.753162
 20
327.53044
 30
0.0
 11
92.753162
 21
311.033392
 31
0.0
  0
LINE
  5
3E9
330
1F
100
AcDbEntity
  8
001
370
    50
100
AcDbLine
 10
93.552152
 20
354.733917
 30
0.0
 11
93.552152
 21
336.548611
 31
0.0
  0
POLYLINE
  5
3EA
330
1F
100
AcDbEntity
  8
001
370
    50
100
AcDb2dPolyline
 66
     1
 10
0.0
 20
0.0
 30
0.0
  0
VERTEX
  5
3EC
330
3EA
100
AcDbEntity
  8
001
370
    50
100
AcDbVertex
100
AcDb2dVertex
 10
111.508348
 20
323.237438
 30
0.0
  0
VERTEX
  5
3ED
330
3EA
100
AcDbEntity
  8
001
370
    50
100
AcDbVertex
100
AcDb2dVertex
 10
111.646715
 20
323.235737
 30
0.0
  0
VERTEX
  5
3EE
330
3EA
100
AcDbEntity
  8
001
370
    50
100
AcDbVertex
100
AcDb2dVertex
 10
111.790474
 20
323.234004
 30
0.0
  0
VERTEX
  5
3EF
330
3EA
100
AcDbEntity
  8
001
370
    50
100
AcDbVertex
100
AcDb2dVertex
 10
112.180518
 20
323.229482
 30
0.0
  0
VERTEX
  5
3F0
330
3EA
100
AcDbEntity
  8
001
370
    50
100
AcDbVertex
100
AcDb2dVertex
 10
112.447391
 20
323.226514
 30
0.0
  0
SEQEND
  5
3EB
330
3EA
100
AcDbEntity
  8
001
370
    50
  0
ARC
  5
3F1
330
1F
100
AcDbEntity
  8
001
370
    50
100
AcDbCircle
 10
106.932284
 20
331.8218
 30
0.0
 40
5.0
100
AcDbArc
 50
355.5
 51
90.5
  0
ARC
  5
3F2
330
1F
100
AcDbEntity
  8
001
370
    50
100
AcDbCircle
 10
97.742679
 20
327.45344
 30
0.0
 40
5.0
100
AcDbArc
 50
175.5
 51
270.5
  0
LINE
  5
3F3
330
1F
100
AcDbEntity
  8
001
370
     9
100
AcDbLine
 10
84.152404
 20
322.45344
 30
0.0
 11
97.742679
 21
322.45344
 31
0.0
  0
ARC
  5
3F4
330
1F
100
AcDbEntity
  8
001
370
    50
100
AcDbCircle
 10
111.082008
 20
361.837205
 30
0.0
 40
0.4
100
AcDbArc
 50
4.5
 51
89.5
  0
LINE
  5
3F5
330
1F
100
AcDbEntity
  8
001
370
    50
100
AcDbLine
 10
92.758092
 20
356.961145
 30
0.0
 11
93.426525
 21
348.467905
 31
0.0
  0
LINE
  5
3F6
330
1F
100
AcDbEntity
  8
001
370
    50
100
AcDbLine
 10
97.786312
 20
362.35325
 30
0.0
 11
111.085498
 21
362.23719
 31
0.0
  0
ARC
  5
3F7
330
1F
100
AcDbEntity
  8
001
370
    50
100
AcDbCircle
 10
97.742679
 20
357.35344
 30
0.0
 40
5.0
100
AcDbArc
 50
89.5
 51
184.5
  0
LINE
  5
3F8
330
1F
100
AcDbEntity
  8
001
370
    50
100
AcDbLine
 10
111.504322
 20
361.569393
 30
0.0
 11
111.480775
 21
361.868589
 31
0.0
  0
ARC
  5
3F9
330
1F
100
AcDbEntity
  8
001
370
    50
100
AcDbCircle
 10
93.825292
 20
348.499289
 30
0.0
 40
0.4
100
AcDbArc
 50
184.5
 51
226.933205
  0
LINE
  5
3FA
330
1F
100
AcDbEntity
  8
001
  6
CENTER
370
     9
100
AcDbLine
 10
90.583411
 20
342.40344
 30
0.0
 11
285.126476
 21
342.40344
 31
0.0
  0
LINE
  5
3FB
330
1F
100
AcDbEntity
  8
001
370
    50
100
AcDbLine
 10
382.001325
 20
161.593973
 30
0.0
 11
392.18924
 21
161.491053
 31
0.0
  0
POLYLINE
  5
3FC
330
1F
100
AcDbEntity
  8
001
370
    50
100
AcDb2dPolyline
 66
     1
 10
0.0
 20
0.0
 30
0.0
  0
VERTEX
  5
3FE
330
3FC
100
AcDbEntity
  8
001
370
    50
100
AcDbVertex
100
AcDb2dVertex
 10
403.488564
 20
123.510797
 30
0.0
  0
VERTEX
  5
3FF
330
3FC
100
AcDbEntity
  8
001
370
    50
100
AcDbVertex
100
AcDb2dVertex
 10
403.492313
 20
123.510695
 30
0.0
  0
VERTEX
  5
400
330
3FC
100
AcDbEntity
  8
001
370
    50
100
AcDbVertex
100
AcDb2dVertex
 10
403.497794
 20
123.510583
 30
0.0
  0
VERTEX
  5
401
330
3FC
100
AcDbEntity
  8
001
370
    50
100
AcDbVertex
100
AcDb2dVertex
 10
403.503273
 20
123.510525
 30
0.0
  0
VERTEX
  5
402
330
3FC
100
AcDbEntity
  8
001
370
    50
100
AcDbVertex
100
AcDb2dVertex
 10
403.507023
 20
123.510512
 30
0.0
  0
SEQEND
  5
3FD
330
3FC
100
AcDbEntity
  8
001
370
    50
  0
POLYLINE
  5
403
330
1F
100
AcDbEntity
  8
001
370
    50
100
AcDb2dPolyline
 66
     1
 10
0.0
 20
0.0
 30
0.0
  0
VERTEX
  5
405
330
403
100
AcDbEntity
  8
001
370
    50
100
AcDbVertex
100
AcDb2dVertex
 10
403.507023
 20
162.010512
 30
0.0
  0
VERTEX
  5
406
330
403
100
AcDbEntity
  8
001
370
    50
100
AcDbVertex
100
AcDb2dVertex
 10
403.503273
 20
162.010499
 30
0.0
  0
VERTEX
  5
407
330
403
100
AcDbEntity
  8
001
370
    50
100
AcDbVertex
100
AcDb2dVertex
 10
403.497794
 20
162.010441
 30
0.0
  0
VERTEX
  5
408
330
403
100
AcDbEntity
  8
001
370
    50
100
AcDbVertex
100
AcDb2dVertex
 10
403.492313
 20
162.01033
 30
0.0
  0
VERTEX
  5
409
330
403
100
AcDbEntity
  8
001
370
    50
100
AcDbVertex
100
AcDb2dVertex
 10
403.488564
 20
162.010227
 30
0.0
  0
SEQEND
  5
404
330
403
100
AcDbEntity
  8
001
370
    50
  0
LINE
  5
40A
330
1F
100
AcDbEntity
  8
001
370
    50
100
AcDbLine
 10
408.427732
 20
162.010512
 30
0.0
 11
403.507023
 21
162.010512
 31
0.0
  0
LINE
  5
40B
330
1F
100
AcDbEntity
  8
001
370
    50
100
AcDbLine
 10
403.507023
 20
123.510512
 30
0.0
 11
408.427732
 21
123.510512
 31
0.0
  0
POLYLINE
  5
40C
330
1F
100
AcDbEntity
  8
001
370
    50
100
AcDb2dPolyline
 66
     1
 10
0.0
 20
0.0
 30
0.0
  0
VERTEX
  5
40E
330
40C
100
AcDbEntity
  8
001
370
    50
100
AcDbVertex
100
AcDb2dVertex
 10
400.013196
 20
123.678578
 30
0.0
  0
VERTEX
  5
40F
330
40C
100
AcDbEntity
  8
001
370
    50
100
AcDbVertex
100
AcDb2dVertex
 10
400.26299
 20
123.682457
 30
0.0
  0
VERTEX
  5
410
330
40C
100
AcDbEntity
  8
001
370
    50
100
AcDbVertex
100
AcDb2dVertex
 10
400.512794
 20
123.684598
 30
0.0
  0
VERTEX
  5
411
330
40C
100
AcDbEntity
  8
001
370
    50
100
AcDbVertex
100
AcDb2dVertex
 10
400.762906
 20
123.683612
 30
0.0
  0
VERTEX
  5
412
330
40C
100
AcDbEntity
  8
001
370
    50
100
AcDbVertex
100
AcDb2dVertex
 10
401.012994
 20
123.679525
 30
0.0
  0
VERTEX
  5
413
330
40C
100
AcDbEntity
  8
001
370
    50
100
AcDbVertex
100
AcDb2dVertex
 10
401.25625
 20
123.672886
 30
0.0
  0
VERTEX
  5
414
330
40C
100
AcDbEntity
  8
001
370
    50
100
AcDbVertex
100
AcDb2dVertex
 10
401.49942
 20
123.663696
 30
0.0
  0
VERTEX
  5
415
330
40C
100
AcDbEntity
  8
001
370
    50
100
AcDbVertex
100
AcDb2dVertex
 10
401.729166
 20
123.652678
 30
0.0
  0
VERTEX
  5
416
330
40C
100
AcDbEntity
  8
001
370
    50
100
AcDbVertex
100
AcDb2dVertex
 10
401.958792
 20
123.639403
 30
0.0
  0
VERTEX
  5
417
330
40C
100
AcDbEntity
  8
001
370
    50
100
AcDbVertex
100
AcDb2dVertex
 10
402.169164
 20
123.625278
 30
0.0
  0
VERTEX
  5
418
330
40C
100
AcDbEntity
  8
001
370
    50
100
AcDbVertex
100
AcDb2dVertex
 10
402.379412
 20
123.609413
 30
0.0
  0
VERTEX
  5
419
330
40C
100
AcDbEntity
  8
001
370
    50
100
AcDbVertex
100
AcDb2dVertex
 10
402.564013
 20
123.594157
 30
0.0
  0
VERTEX
  5
41A
330
40C
100
AcDbEntity
  8
001
370
    50
100
AcDbVertex
100
AcDb2dVertex
 10
402.748517
 20
123.577767
 30
0.0
  0
VERTEX
  5
41B
330
40C
100
AcDbEntity
  8
001
370
    50
100
AcDbVertex
100
AcDb2dVertex
 10
402.902835
 20
123.563292
 30
0.0
  0
VERTEX
  5
41C
330
40C
100
AcDbEntity
  8
001
370
    50
100
AcDbVertex
100
AcDb2dVertex
 10
403.057112
 20
123.548401
 30
0.0
  0
VERTEX
  5
41D
330
40C
100
AcDbEntity
  8
001
370
    50
100
AcDbVertex
100
AcDb2dVertex
 10
403.175776
 20
123.536869
 30
0.0
  0
VERTEX
  5
41E
330
40C
100
AcDbEntity
  8
001
370
    50
100
AcDbVertex
100
AcDb2dVertex
 10
403.29446
 20
123.525471
 30
0.0
  0
VERTEX
  5
41F
330
40C
100
AcDbEntity
  8
001
370
    50
100
AcDbVertex
100
AcDb2dVertex
 10
403.352247
 20
123.520131
 30
0.0
  0
VERTEX
  5
420
330
40C
100
AcDbEntity
  8
001
370
    50
100
AcDbVertex
100
AcDb2dVertex
 10
403.410088
 20
123.515497
 30
0.0
  0
VERTEX
  5
421
330
40C
100
AcDbEntity
  8
001
370
    50
100
AcDbVertex
100
AcDb2dVertex
 10
403.449315
 20
123.512994
 30
0.0
  0
VERTEX
  5
422
330
40C
100
AcDbEntity
  8
001
370
    50
100
AcDbVertex
100
AcDb2dVertex
 10
403.488564
 20
123.510797
 30
0.0
  0
SEQEND
  5
40D
330
40C
100
AcDbEntity
  8
001
370
    50
  0
POLYLINE
  5
423
330
1F
100
AcDbEntity
  8
001
370
    50
100
AcDb2dPolyline
 66
     1
 10
0.0
 20
0.0
 30
0.0
  0
VERTEX
  5
425
330
423
100
AcDbEntity
  8
001
370
    50
100
AcDbVertex
100
AcDb2dVertex
 10
403.507023
 20
123.510512
 30
0.0
  0
VERTEX
  5
426
330
423
100
AcDbEntity
  8
001
370
    50
100
AcDbVertex
100
AcDb2dVertex
 10
403.77522
 20
123.603175
 30
0.0
  0
VERTEX
  5
427
330
423
100
AcDbEntity
  8
001
370
    50
100
AcDbVertex
100
AcDb2dVertex
 10
404.113195
 20
123.819967
 30
0.0
  0
VERTEX
  5
428
330
423
100
AcDbEntity
  8
001
370
    50
100
AcDbVertex
100
AcDb2dVertex
 10
404.481738
 20
124.253645
 30
0.0
  0
VERTEX
  5
429
330
423
100
AcDbEntity
  8
001
370
    50
100
AcDbVertex
100
AcDb2dVertex
 10
404.699877
 20
124.738383
 30
0.0
  0
VERTEX
  5
42A
330
423
100
AcDbEntity
  8
001
370
    50
100
AcDbVertex
100
AcDb2dVertex
 10
404.985861
 20
125.484366
 30
0.0
  0
VERTEX
  5
42B
330
423
100
AcDbEntity
  8
001
370
    50
100
AcDbVertex
100
AcDb2dVertex
 10
405.248207
 20
126.23623
 30
0.0
  0
VERTEX
  5
42C
330
423
100
AcDbEntity
  8
001
370
    50
100
AcDbVertex
100
AcDb2dVertex
 10
405.517837
 20
127.206802
 30
0.0
  0
VERTEX
  5
42D
330
423
100
AcDbEntity
  8
001
370
    50
100
AcDbVertex
100
AcDb2dVertex
 10
405.740557
 20
128.265353
 30
0.0
  0
VERTEX
  5
42E
330
423
100
AcDbEntity
  8
001
370
    50
100
AcDbVertex
100
AcDb2dVertex
 10
405.99489
 20
129.704323
 30
0.0
  0
VERTEX
  5
42F
330
423
100
AcDbEntity
  8
001
370
    50
100
AcDbVertex
100
AcDb2dVertex
 10
406.161096
 20
130.760512
 30
0.0
  0
SEQEND
  5
424
330
423
100
AcDbEntity
  8
001
370
    50
  0
POLYLINE
  5
430
330
1F
100
AcDbEntity
  8
001
370
    50
100
AcDb2dPolyline
 66
     1
 10
0.0
 20
0.0
 30
0.0
  0
VERTEX
  5
432
330
430
100
AcDbEntity
  8
001
370
    50
100
AcDbVertex
100
AcDb2dVertex
 10
396.728682
 20
140.760512
 30
0.0
  0
VERTEX
  5
433
330
430
100
AcDbEntity
  8
001
370
    50
100
AcDbVertex
100
AcDb2dVertex
 10
397.147314
 20
140.748643
 30
0.0
  0
VERTEX
  5
434
330
430
100
AcDbEntity
  8
001
370
    50
100
AcDbVertex
100
AcDb2dVertex
 10
397.565243
 20
140.725964
 30
0.0
  0
VERTEX
  5
435
330
430
100
AcDbEntity
  8
001
370
    50
100
AcDbVertex
100
AcDb2dVertex
 10
397.983169
 20
140.683805
 30
0.0
  0
VERTEX
  5
436
330
430
100
AcDbEntity
  8
001
370
    50
100
AcDbVertex
100
AcDb2dVertex
 10
398.398998
 20
140.622969
 30
0.0
  0
VERTEX
  5
437
330
430
100
AcDbEntity
  8
001
370
    50
100
AcDbVertex
100
AcDb2dVertex
 10
398.811914
 20
140.545922
 30
0.0
  0
VERTEX
  5
438
330
430
100
AcDbEntity
  8
001
370
    50
100
AcDbVertex
100
AcDb2dVertex
 10
399.221343
 20
140.452498
 30
0.0
  0
VERTEX
  5
439
330
430
100
AcDbEntity
  8
001
370
    50
100
AcDbVertex
100
AcDb2dVertex
 10
399.625003
 20
140.342501
 30
0.0
  0
VERTEX
  5
43A
330
430
100
AcDbEntity
  8
001
370
    50
100
AcDbVertex
100
AcDb2dVertex
 10
400.023675
 20
140.215524
 30
0.0
  0
VERTEX
  5
43B
330
430
100
AcDbEntity
  8
001
370
    50
100
AcDbVertex
100
AcDb2dVertex
 10
400.417258
 20
140.071411
 30
0.0
  0
VERTEX
  5
43C
330
430
100
AcDbEntity
  8
001
370
    50
100
AcDbVertex
100
AcDb2dVertex
 10
400.804358
 20
139.910701
 30
0.0
  0
VERTEX
  5
43D
330
430
100
AcDbEntity
  8
001
370
    50
100
AcDbVertex
100
AcDb2dVertex
 10
401.18536
 20
139.733252
 30
0.0
  0
VERTEX
  5
43E
330
430
100
AcDbEntity
  8
001
370
    50
100
AcDbVertex
100
AcDb2dVertex
 10
401.558502
 20
139.539819
 30
0.0
  0
VERTEX
  5
43F
330
430
100
AcDbEntity
  8
001
370
    50
100
AcDbVertex
100
AcDb2dVertex
 10
401.922269
 20
139.33119
 30
0.0
  0
VERTEX
  5
440
330
430
100
AcDbEntity
  8
001
370
    50
100
AcDbVertex
100
AcDb2dVertex
 10
402.276751
 20
139.107139
 30
0.0
  0
VERTEX
  5
441
330
430
100
AcDbEntity
  8
001
370
    50
100
AcDbVertex
100
AcDb2dVertex
 10
402.618733
 20
138.869545
 30
0.0
  0
VERTEX
  5
442
330
430
100
AcDbEntity
  8
001
370
    50
100
AcDbVertex
100
AcDb2dVertex
 10
402.949749
 20
138.616926
 30
0.0
  0
VERTEX
  5
443
330
430
100
AcDbEntity
  8
001
370
    50
100
AcDbVertex
100
AcDb2dVertex
 10
403.25228
 20
138.363929
 30
0.0
  0
VERTEX
  5
444
330
430
100
AcDbEntity
  8
001
370
    50
100
AcDbVertex
100
AcDb2dVertex
 10
403.543604
 20
138.098096
 30
0.0
  0
VERTEX
  5
445
330
430
100
AcDbEntity
  8
001
370
    50
100
AcDbVertex
100
AcDb2dVertex
 10
403.822775
 20
137.820553
 30
0.0
  0
VERTEX
  5
446
330
430
100
AcDbEntity
  8
001
370
    50
100
AcDbVertex
100
AcDb2dVertex
 10
404.089852
 20
137.531354
 30
0.0
  0
VERTEX
  5
447
330
430
100
AcDbEntity
  8
001
370
    50
100
AcDbVertex
100
AcDb2dVertex
 10
404.342162
 20
137.233631
 30
0.0
  0
VERTEX
  5
448
330
430
100
AcDbEntity
  8
001
370
    50
100
AcDbVertex
100
AcDb2dVertex
 10
404.581394
 20
136.925303
 30
0.0
  0
VERTEX
  5
449
330
430
100
AcDbEntity
  8
001
370
    50
100
AcDbVertex
100
AcDb2dVertex
 10
404.803402
 20
136.611744
 30
0.0
  0
VERTEX
  5
44A
330
430
100
AcDbEntity
  8
001
370
    50
100
AcDbVertex
100
AcDb2dVertex
 10
405.011132
 20
136.288549
 30
0.0
  0
VERTEX
  5
44B
330
430
100
AcDbEntity
  8
001
370
    50
100
AcDbVertex
100
AcDb2dVertex
 10
405.237357
 20
135.894423
 30
0.0
  0
VERTEX
  5
44C
330
430
100
AcDbEntity
  8
001
370
    50
100
AcDbVertex
100
AcDb2dVertex
 10
405.442107
 20
135.488677
 30
0.0
  0
VERTEX
  5
44D
330
430
100
AcDbEntity
  8
001
370
    50
100
AcDbVertex
100
AcDb2dVertex
 10
405.622012
 20
135.080187
 30
0.0
  0
VERTEX
  5
44E
330
430
100
AcDbEntity
  8
001
370
    50
100
AcDbVertex
100
AcDb2dVertex
 10
405.780355
 20
134.662883
 30
0.0
  0
VERTEX
  5
44F
330
430
100
AcDbEntity
  8
001
370
    50
100
AcDbVertex
100
AcDb2dVertex
 10
405.912907
 20
134.249927
 30
0.0
  0
VERTEX
  5
450
330
430
100
AcDbEntity
  8
001
370
    50
100
AcDbVertex
100
AcDb2dVertex
 10
406.023619
 20
133.830597
 30
0.0
  0
VERTEX
  5
451
330
430
100
AcDbEntity
  8
001
370
    50
100
AcDbVertex
100
AcDb2dVertex
 10
406.108119
 20
133.426009
 30
0.0
  0
VERTEX
  5
452
330
430
100
AcDbEntity
  8
001
370
    50
100
AcDbVertex
100
AcDb2dVertex
 10
406.172
 20
133.017687
 30
0.0
  0
VERTEX
  5
453
330
430
100
AcDbEntity
  8
001
370
    50
100
AcDbVertex
100
AcDb2dVertex
 10
406.21447
 20
132.618279
 30
0.0
  0
VERTEX
  5
454
330
430
100
AcDbEntity
  8
001
370
    50
100
AcDbVertex
100
AcDb2dVertex
 10
406.238197
 20
132.217228
 30
0.0
  0
VERTEX
  5
455
330
430
100
AcDbEntity
  8
001
370
    50
100
AcDbVertex
100
AcDb2dVertex
 10
406.24341
 20
131.829125
 30
0.0
  0
VERTEX
  5
456
330
430
100
AcDbEntity
  8
001
370
    50
100
AcDbVertex
100
AcDb2dVertex
 10
406.22896
 20
131.441481
 30
0.0
  0
VERTEX
  5
457
330
430
100
AcDbEntity
  8
001
370
    50
100
AcDbVertex
100
AcDb2dVertex
 10
406.199407
 20
131.100663
 30
0.0
  0
VERTEX
  5
458
330
430
100
AcDbEntity
  8
001
370
    50
100
AcDbVertex
100
AcDb2dVertex
 10
406.161096
 20
130.760512
 30
0.0
  0
SEQEND
  5
431
330
430
100
AcDbEntity
  8
001
370
    50
  0
LINE
  5
459
330
1F
100
AcDbEntity
  8
001
370
    50
100
AcDbLine
 10
395.121962
 20
161.937438
 30
0.0
 11
395.121962
 21
140.760512
 31
0.0
  0
POLYLINE
  5
45A
330
1F
100
AcDbEntity
  8
001
370
    50
100
AcDb2dPolyline
 66
     1
 10
0.0
 20
0.0
 30
0.0
  0
VERTEX
  5
45C
330
45A
100
AcDbEntity
  8
001
370
    50
100
AcDbVertex
100
AcDb2dVertex
 10
400.013196
 20
161.842446
 30
0.0
  0
VERTEX
  5
45D
330
45A
100
AcDbEntity
  8
001
370
    50
100
AcDbVertex
100
AcDb2dVertex
 10
399.02092
 20
161.864791
 30
0.0
  0
VERTEX
  5
45E
330
45A
100
AcDbEntity
  8
001
370
    50
100
AcDbVertex
100
AcDb2dVertex
 10
397.570615
 20
161.894802
 30
0.0
  0
VERTEX
  5
45F
330
45A
100
AcDbEntity
  8
001
370
    50
100
AcDbVertex
100
AcDb2dVertex
 10
396.116746
 20
161.921193
 30
0.0
  0
VERTEX
  5
460
330
45A
100
AcDbEntity
  8
001
370
    50
100
AcDbVertex
100
AcDb2dVertex
 10
395.121962
 20
161.937438
 30
0.0
  0
SEQEND
  5
45B
330
45A
100
AcDbEntity
  8
001
370
    50
  0
POLYLINE
  5
461
330
1F
100
AcDbEntity
  8
001
370
    50
100
AcDb2dPolyline
 66
     1
 10
0.0
 20
0.0
 30
0.0
  0
VERTEX
  5
463
330
461
100
AcDbEntity
  8
001
370
    50
100
AcDbVertex
100
AcDb2dVertex
 10
400.013196
 20
161.842446
 30
0.0
  0
VERTEX
  5
464
330
461
100
AcDbEntity
  8
001
370
    50
100
AcDbVertex
100
AcDb2dVertex
 10
400.26299
 20
161.838567
 30
0.0
  0
VERTEX
  5
465
330
461
100
AcDbEntity
  8
001
370
    50
100
AcDbVertex
100
AcDb2dVertex
 10
400.512794
 20
161.836426
 30
0.0
  0
VERTEX
  5
466
330
461
100
AcDbEntity
  8
001
370
    50
100
AcDbVertex
100
AcDb2dVertex
 10
400.762906
 20
161.837413
 30
0.0
  0
VERTEX
  5
467
330
461
100
AcDbEntity
  8
001
370
    50
100
AcDbVertex
100
AcDb2dVertex
 10
401.012994
 20
161.841499
 30
0.0
  0
VERTEX
  5
468
330
461
100
AcDbEntity
  8
001
370
    50
100
AcDbVertex
100
AcDb2dVertex
 10
401.25625
 20
161.848138
 30
0.0
  0
VERTEX
  5
469
330
461
100
AcDbEntity
  8
001
370
    50
100
AcDbVertex
100
AcDb2dVertex
 10
401.49942
 20
161.857329
 30
0.0
  0
VERTEX
  5
46A
330
461
100
AcDbEntity
  8
001
370
    50
100
AcDbVertex
100
AcDb2dVertex
 10
401.729166
 20
161.868346
 30
0.0
  0
VERTEX
  5
46B
330
461
100
AcDbEntity
  8
001
370
    50
100
AcDbVertex
100
AcDb2dVertex
 10
401.958792
 20
161.881621
 30
0.0
  0
VERTEX
  5
46C
330
461
100
AcDbEntity
  8
001
370
    50
100
AcDbVertex
100
AcDb2dVertex
 10
402.169164
 20
161.895746
 30
0.0
  0
VERTEX
  5
46D
330
461
100
AcDbEntity
  8
001
370
    50
100
AcDbVertex
100
AcDb2dVertex
 10
402.379412
 20
161.911611
 30
0.0
  0
VERTEX
  5
46E
330
461
100
AcDbEntity
  8
001
370
    50
100
AcDbVertex
100
AcDb2dVertex
 10
402.564013
 20
161.926867
 30
0.0
  0
VERTEX
  5
46F
330
461
100
AcDbEntity
  8
001
370
    50
100
AcDbVertex
100
AcDb2dVertex
 10
402.748517
 20
161.943257
 30
0.0
  0
VERTEX
  5
470
330
461
100
AcDbEntity
  8
001
370
    50
100
AcDbVertex
100
AcDb2dVertex
 10
402.902835
 20
161.957732
 30
0.0
  0
VERTEX
  5
471
330
461
100
AcDbEntity
  8
001
370
    50
100
AcDbVertex
100
AcDb2dVertex
 10
403.057112
 20
161.972623
 30
0.0
  0
VERTEX
  5
472
330
461
100
AcDbEntity
  8
001
370
    50
100
AcDbVertex
100
AcDb2dVertex
 10
403.175776
 20
161.984155
 30
0.0
  0
VERTEX
  5
473
330
461
100
AcDbEntity
  8
001
370
    50
100
AcDbVertex
100
AcDb2dVertex
 10
403.29446
 20
161.995553
 30
0.0
  0
VERTEX
  5
474
330
461
100
AcDbEntity
  8
001
370
    50
100
AcDbVertex
100
AcDb2dVertex
 10
403.352247
 20
162.000893
 30
0.0
  0
VERTEX
  5
475
330
461
100
AcDbEntity
  8
001
370
    50
100
AcDbVertex
100
AcDb2dVertex
 10
403.410088
 20
162.005527
 30
0.0
  0
VERTEX
  5
476
330
461
100
AcDbEntity
  8
001
370
    50
100
AcDbVertex
100
AcDb2dVertex
 10
403.449315
 20
162.008031
 30
0.0
  0
VERTEX
  5
477
330
461
100
AcDbEntity
  8
001
370
    50
100
AcDbVertex
100
AcDb2dVertex
 10
403.488564
 20
162.010227
 30
0.0
  0
SEQEND
  5
462
330
461
100
AcDbEntity
  8
001
370
    50
  0
POLYLINE
  5
478
330
1F
100
AcDbEntity
  8
001
370
    50
100
AcDb2dPolyline
 66
     1
 10
0.0
 20
0.0
 30
0.0
  0
VERTEX
  5
47A
330
478
100
AcDbEntity
  8
001
370
    50
100
AcDbVertex
100
AcDb2dVertex
 10
392.205816
 20
161.273796
 30
0.0
  0
VERTEX
  5
47B
330
478
100
AcDbEntity
  8
001
370
    50
100
AcDbVertex
100
AcDb2dVertex
 10
390.229302
 20
161.31041
 30
0.0
  0
VERTEX
  5
47C
330
478
100
AcDbEntity
  8
001
370
    50
100
AcDbVertex
100
AcDb2dVertex
 10
387.340394
 20
161.35341
 30
0.0
  0
VERTEX
  5
47D
330
478
100
AcDbEntity
  8
001
370
    50
100
AcDbVertex
100
AcDb2dVertex
 10
384.442221
 20
161.381883
 30
0.0
  0
VERTEX
  5
47E
330
478
100
AcDbEntity
  8
001
370
    50
100
AcDbVertex
100
AcDb2dVertex
 10
382.459189
 20
161.394166
 30
0.0
  0
SEQEND
  5
479
330
478
100
AcDbEntity
  8
001
370
    50
  0
POLYLINE
  5
47F
330
1F
100
AcDbEntity
  8
001
370
    50
100
AcDb2dPolyline
 66
     1
 10
0.0
 20
0.0
 30
0.0
  0
VERTEX
  5
481
330
47F
100
AcDbEntity
  8
001
370
    50
100
AcDbVertex
100
AcDb2dVertex
 10
393.808396
 20
161.921775
 30
0.0
  0
VERTEX
  5
482
330
47F
100
AcDbEntity
  8
001
370
    50
100
AcDbVertex
100
AcDb2dVertex
 10
393.471621
 20
161.840755
 30
0.0
  0
VERTEX
  5
483
330
47F
100
AcDbEntity
  8
001
370
    50
100
AcDbVertex
100
AcDb2dVertex
 10
392.993162
 20
161.68078
 30
0.0
  0
VERTEX
  5
484
330
47F
100
AcDbEntity
  8
001
370
    50
100
AcDbVertex
100
AcDb2dVertex
 10
392.517993
 20
161.455447
 30
0.0
  0
VERTEX
  5
485
330
47F
100
AcDbEntity
  8
001
370
    50
100
AcDbVertex
100
AcDb2dVertex
 10
392.205816
 20
161.273796
 30
0.0
  0
SEQEND
  5
480
330
47F
100
AcDbEntity
  8
001
370
    50
  0
POLYLINE
  5
486
330
1F
100
AcDbEntity
  8
001
370
    50
100
AcDb2dPolyline
 66
     1
 10
0.0
 20
0.0
 30
0.0
  0
VERTEX
  5
488
330
486
100
AcDbEntity
  8
001
370
    50
100
AcDbVertex
100
AcDb2dVertex
 10
395.121962
 20
161.937438
 30
0.0
  0
VERTEX
  5
489
330
486
100
AcDbEntity
  8
001
370
    50
100
AcDbVertex
100
AcDb2dVertex
 10
394.855088
 20
161.934471
 30
0.0
  0
VERTEX
  5
48A
330
486
100
AcDbEntity
  8
001
370
    50
100
AcDbVertex
100
AcDb2dVertex
 10
394.465045
 20
161.929949
 30
0.0
  0
VERTEX
  5
48B
330
486
100
AcDbEntity
  8
001
370
    50
100
AcDbVertex
100
AcDb2dVertex
 10
394.075159
 20
161.925171
 30
0.0
  0
VERTEX
  5
48C
330
486
100
AcDbEntity
  8
001
370
    50
100
AcDbVertex
100
AcDb2dVertex
 10
393.808396
 20
161.921775
 30
0.0
  0
SEQEND
  5
487
330
486
100
AcDbEntity
  8
001
370
    50
  0
ARC
  5
48D
330
1F
100
AcDbEntity
  8
001
370
    50
100
AcDbCircle
 10
408.427732
 20
160.010512
 30
0.0
 40
2.000000000000002
100
AcDbArc
 50
0.0
 51
90.0
  0
ARC
  5
48E
330
1F
100
AcDbEntity
  8
001
370
    50
100
AcDbCircle
 10
408.427732
 20
125.510512
 30
0.0
 40
2.000000000000002
100
AcDbArc
 50
270.0
 51
0.0
  0
LINE
  5
48F
330
1F
100
AcDbEntity
  8
001
370
    50
100
AcDbLine
 10
410.427732
 20
160.010512
 30
0.0
 11
410.427732
 21
125.510512
 31
0.0
  0
POLYLINE
  5
490
330
1F
100
AcDbEntity
  8
001
370
    50
100
AcDb2dPolyline
 66
     1
 10
0.0
 20
0.0
 30
0.0
  0
VERTEX
  5
492
330
490
100
AcDbEntity
  8
001
370
    50
100
AcDbVertex
100
AcDb2dVertex
 10
376.226732
 20
155.079991
 30
0.0
  0
VERTEX
  5
493
330
490
100
AcDbEntity
  8
001
370
    50
100
AcDbVertex
100
AcDb2dVertex
 10
376.227086
 20
155.141719
 30
0.0
  0
VERTEX
  5
494
330
490
100
AcDbEntity
  8
001
370
    50
100
AcDbVertex
100
AcDb2dVertex
 10
376.227747
 20
155.203445
 30
0.0
  0
VERTEX
  5
495
330
490
100
AcDbEntity
  8
001
370
    50
100
AcDbVertex
100
AcDb2dVertex
 10
376.240158
 20
155.514775
 30
0.0
  0
VERTEX
  5
496
330
490
100
AcDbEntity
  8
001
370
    50
100
AcDbVertex
100
AcDb2dVertex
 10
376.267857
 20
155.825211
 30
0.0
  0
VERTEX
  5
497
330
490
100
AcDbEntity
  8
001
370
    50
100
AcDbVertex
100
AcDb2dVertex
 10
376.320123
 20
156.191514
 30
0.0
  0
VERTEX
  5
498
330
490
100
AcDbEntity
  8
001
370
    50
100
AcDbVertex
100
AcDb2dVertex
 10
376.393206
 20
156.554224
 30
0.0
  0
VERTEX
  5
499
330
490
100
AcDbEntity
  8
001
370
    50
100
AcDbVertex
100
AcDb2dVertex
 10
376.487186
 20
156.913096
 30
0.0
  0
VERTEX
  5
49A
330
490
100
AcDbEntity
  8
001
370
    50
100
AcDbVertex
100
AcDb2dVertex
 10
376.601604
 20
157.266
 30
0.0
  0
VERTEX
  5
49B
330
490
100
AcDbEntity
  8
001
370
    50
100
AcDbVertex
100
AcDb2dVertex
 10
376.735528
 20
157.610138
 30
0.0
  0
VERTEX
  5
49C
330
490
100
AcDbEntity
  8
001
370
    50
100
AcDbVertex
100
AcDb2dVertex
 10
376.889413
 20
157.945792
 30
0.0
  0
VERTEX
  5
49D
330
490
100
AcDbEntity
  8
001
370
    50
100
AcDbVertex
100
AcDb2dVertex
 10
377.055422
 20
158.258138
 30
0.0
  0
VERTEX
  5
49E
330
490
100
AcDbEntity
  8
001
370
    50
100
AcDbVertex
100
AcDb2dVertex
 10
377.238899
 20
158.560569
 30
0.0
  0
VERTEX
  5
49F
330
490
100
AcDbEntity
  8
001
370
    50
100
AcDbVertex
100
AcDb2dVertex
 10
377.439369
 20
158.852726
 30
0.0
  0
VERTEX
  5
4A0
330
490
100
AcDbEntity
  8
001
370
    50
100
AcDbVertex
100
AcDb2dVertex
 10
377.655901
 20
159.133185
 30
0.0
  0
VERTEX
  5
4A1
330
490
100
AcDbEntity
  8
001
370
    50
100
AcDbVertex
100
AcDb2dVertex
 10
377.88674
 20
159.39969
 30
0.0
  0
VERTEX
  5
4A2
330
490
100
AcDbEntity
  8
001
370
    50
100
AcDbVertex
100
AcDb2dVertex
 10
378.132433
 20
159.65254
 30
0.0
  0
VERTEX
  5
4A3
330
490
100
AcDbEntity
  8
001
370
    50
100
AcDbVertex
100
AcDb2dVertex
 10
378.388463
 20
159.887275
 30
0.0
  0
VERTEX
  5
4A4
330
490
100
AcDbEntity
  8
001
370
    50
100
AcDbVertex
100
AcDb2dVertex
 10
378.657377
 20
160.107157
 30
0.0
  0
VERTEX
  5
4A5
330
490
100
AcDbEntity
  8
001
370
    50
100
AcDbVertex
100
AcDb2dVertex
 10
378.93857
 20
160.311991
 30
0.0
  0
VERTEX
  5
4A6
330
490
100
AcDbEntity
  8
001
370
    50
100
AcDbVertex
100
AcDb2dVertex
 10
379.230743
 20
160.500826
 30
0.0
  0
VERTEX
  5
4A7
330
490
100
AcDbEntity
  8
001
370
    50
100
AcDbVertex
100
AcDb2dVertex
 10
379.531615
 20
160.672239
 30
0.0
  0
VERTEX
  5
4A8
330
490
100
AcDbEntity
  8
001
370
    50
100
AcDbVertex
100
AcDb2dVertex
 10
379.841696
 20
160.826373
 30
0.0
  0
VERTEX
  5
4A9
330
490
100
AcDbEntity
  8
001
370
    50
100
AcDbVertex
100
AcDb2dVertex
 10
380.160578
 20
160.962698
 30
0.0
  0
VERTEX
  5
4AA
330
490
100
AcDbEntity
  8
001
370
    50
100
AcDbVertex
100
AcDb2dVertex
 10
380.486682
 20
161.080614
 30
0.0
  0
VERTEX
  5
4AB
330
490
100
AcDbEntity
  8
001
370
    50
100
AcDbVertex
100
AcDb2dVertex
 10
380.819561
 20
161.180175
 30
0.0
  0
VERTEX
  5
4AC
330
490
100
AcDbEntity
  8
001
370
    50
100
AcDbVertex
100
AcDb2dVertex
 10
381.157483
 20
161.261517
 30
0.0
  0
VERTEX
  5
4AD
330
490
100
AcDbEntity
  8
001
370
    50
100
AcDbVertex
100
AcDb2dVertex
 10
381.498136
 20
161.324318
 30
0.0
  0
VERTEX
  5
4AE
330
490
100
AcDbEntity
  8
001
370
    50
100
AcDbVertex
100
AcDb2dVertex
 10
381.841697
 20
161.366152
 30
0.0
  0
VERTEX
  5
4AF
330
490
100
AcDbEntity
  8
001
370
    50
100
AcDbVertex
100
AcDb2dVertex
 10
382.150082
 20
161.385022
 30
0.0
  0
VERTEX
  5
4B0
330
490
100
AcDbEntity
  8
001
370
    50
100
AcDbVertex
100
AcDb2dVertex
 10
382.459189
 20
161.394166
 30
0.0
  0
SEQEND
  5
491
330
490
100
AcDbEntity
  8
001
370
    50
  0
LINE
  5
4B1
330
1F
100
AcDbEntity
  8
001
  6
DASHED
370
    30
100
AcDbLine
 10
376.246451
 20
154.580611
 30
0.0
 11
376.226732
 21
155.079991
 31
0.0
  0
LINE
  5
4B2
330
1F
100
AcDbEntity
  8
001
  6
DASHED
370
    30
100
AcDbLine
 10
376.916869
 20
146.260512
 30
0.0
 11
376.916869
 21
139.260512
 31
0.0
  0
LINE
  5
4B3
330
1F
100
AcDbEntity
  8
001
  6
DASHED
370
    30
100
AcDbLine
 10
376.916869
 20
146.260512
 30
0.0
 11
376.709547
 21
148.894788
 31
0.0
  0
POLYLINE
  5
4B4
330
1F
100
AcDbEntity
  8
001
  6
DASHED
370
    30
100
AcDb2dPolyline
 66
     1
 10
0.0
 20
0.0
 30
0.0
  0
VERTEX
  5
4B6
330
4B4
100
AcDbEntity
  8
001
  6
DASHED
370
    30
100
AcDbVertex
100
AcDb2dVertex
 10
376.634315
 20
149.486571
 30
0.0
  0
VERTEX
  5
4B7
330
4B4
100
AcDbEntity
  8
001
  6
DASHED
370
    30
100
AcDbVertex
100
AcDb2dVertex
 10
376.671841
 20
149.235463
 30
0.0
  0
VERTEX
  5
4B8
330
4B4
100
AcDbEntity
  8
001
  6
DASHED
370
    30
100
AcDbVertex
100
AcDb2dVertex
 10
376.701839
 20
148.983524
 30
0.0
  0
VERTEX
  5
4B9
330
4B4
100
AcDbEntity
  8
001
  6
DASHED
370
    30
100
AcDbVertex
100
AcDb2dVertex
 10
376.705827
 20
148.938946
 30
0.0
  0
VERTEX
  5
4BA
330
4B4
100
AcDbEntity
  8
001
  6
DASHED
370
    30
100
AcDbVertex
100
AcDb2dVertex
 10
376.709582
 20
148.894341
 30
0.0
  0
SEQEND
  5
4B5
330
4B4
100
AcDbEntity
  8
001
  6
DASHED
370
    30
  0
LINE
  5
4BB
330
1F
100
AcDbEntity
  8
001
  6
DASHED
370
    30
100
AcDbLine
 10
376.634315
 20
149.486571
 30
0.0
 11
376.246451
 21
154.580611
 31
0.0
  0
POLYLINE
  5
4BC
330
1F
100
AcDbEntity
  8
001
370
    50
100
AcDb2dPolyline
 66
     1
 10
0.0
 20
0.0
 30
0.0
  0
VERTEX
  5
4BE
330
4BC
100
AcDbEntity
  8
001
370
    50
100
AcDbVertex
100
AcDb2dVertex
 10
376.797438
 20
140.760512
 30
0.0
  0
VERTEX
  5
4BF
330
4BC
100
AcDbEntity
  8
001
370
    50
100
AcDbVertex
100
AcDb2dVertex
 10
376.811843
 20
140.74924
 30
0.0
  0
VERTEX
  5
4C0
330
4BC
100
AcDbEntity
  8
001
370
    50
100
AcDbVertex
100
AcDb2dVertex
 10
376.824389
 20
140.736683
 30
0.0
  0
VERTEX
  5
4C1
330
4BC
100
AcDbEntity
  8
001
370
    50
100
AcDbVertex
100
AcDb2dVertex
 10
376.840565
 20
140.703703
 30
0.0
  0
VERTEX
  5
4C2
330
4BC
100
AcDbEntity
  8
001
370
    50
100
AcDbVertex
100
AcDb2dVertex
 10
376.848564
 20
140.665676
 30
0.0
  0
VERTEX
  5
4C3
330
4BC
100
AcDbEntity
  8
001
370
    50
100
AcDbVertex
100
AcDb2dVertex
 10
376.863251
 20
140.577432
 30
0.0
  0
VERTEX
  5
4C4
330
4BC
100
AcDbEntity
  8
001
370
    50
100
AcDbVertex
100
AcDb2dVertex
 10
376.875323
 20
140.491265
 30
0.0
  0
VERTEX
  5
4C5
330
4BC
100
AcDbEntity
  8
001
370
    50
100
AcDbVertex
100
AcDb2dVertex
 10
376.886414
 20
140.362753
 30
0.0
  0
VERTEX
  5
4C6
330
4BC
100
AcDbEntity
  8
001
370
    50
100
AcDbVertex
100
AcDb2dVertex
 10
376.891964
 20
140.232648
 30
0.0
  0
VERTEX
  5
4C7
330
4BC
100
AcDbEntity
  8
001
370
    50
100
AcDbVertex
100
AcDb2dVertex
 10
376.895387
 20
140.069452
 30
0.0
  0
VERTEX
  5
4C8
330
4BC
100
AcDbEntity
  8
001
370
    50
100
AcDbVertex
100
AcDb2dVertex
 10
376.8959
 20
139.906705
 30
0.0
  0
VERTEX
  5
4C9
330
4BC
100
AcDbEntity
  8
001
370
    50
100
AcDbVertex
100
AcDb2dVertex
 10
376.893146
 20
139.711566
 30
0.0
  0
VERTEX
  5
4CA
330
4BC
100
AcDbEntity
  8
001
370
    50
100
AcDbVertex
100
AcDb2dVertex
 10
376.887502
 20
139.516318
 30
0.0
  0
VERTEX
  5
4CB
330
4BC
100
AcDbEntity
  8
001
370
    50
100
AcDbVertex
100
AcDb2dVertex
 10
376.878991
 20
139.303805
 30
0.0
  0
VERTEX
  5
4CC
330
4BC
100
AcDbEntity
  8
001
370
    50
100
AcDbVertex
100
AcDb2dVertex
 10
376.868587
 20
139.091429
 30
0.0
  0
VERTEX
  5
4CD
330
4BC
100
AcDbEntity
  8
001
370
    50
100
AcDbVertex
100
AcDb2dVertex
 10
376.855658
 20
138.860591
 30
0.0
  0
VERTEX
  5
4CE
330
4BC
100
AcDbEntity
  8
001
370
    50
100
AcDbVertex
100
AcDb2dVertex
 10
376.841422
 20
138.629814
 30
0.0
  0
VERTEX
  5
4CF
330
4BC
100
AcDbEntity
  8
001
370
    50
100
AcDbVertex
100
AcDb2dVertex
 10
376.827242
 20
138.414663
 30
0.0
  0
VERTEX
  5
4D0
330
4BC
100
AcDbEntity
  8
001
370
    50
100
AcDbVertex
100
AcDb2dVertex
 10
376.812306
 20
138.199566
 30
0.0
  0
VERTEX
  5
4D1
330
4BC
100
AcDbEntity
  8
001
370
    50
100
AcDbVertex
100
AcDb2dVertex
 10
376.796402
 20
137.980027
 30
0.0
  0
VERTEX
  5
4D2
330
4BC
100
AcDbEntity
  8
001
370
    50
100
AcDbVertex
100
AcDb2dVertex
 10
376.780145
 20
137.760512
 30
0.0
  0
SEQEND
  5
4BD
330
4BC
100
AcDbEntity
  8
001
370
    50
  0
LINE
  5
4D3
330
1F
100
AcDbEntity
  8
001
370
    50
100
AcDbLine
 10
396.728682
 20
140.760512
 30
0.0
 11
376.226722
 21
140.760512
 31
0.0
  0
LINE
  5
4D4
330
1F
100
AcDbEntity
  8
001
  6
DASHED
370
    30
100
AcDbLine
 10
376.746216
 20
137.092164
 30
0.0
 11
376.916869
 21
139.260512
 31
0.0
  0
LINE
  5
4D5
330
1F
100
AcDbEntity
  8
001
370
    50
100
AcDbLine
 10
376.729446
 20
137.091995
 30
0.0
 11
376.780145
 21
137.760512
 31
0.0
  0
LINE
  5
4D6
330
1F
100
AcDbEntity
  8
001
370
    50
100
AcDbLine
 10
375.958103
 20
155.137833
 30
0.0
 11
376.226722
 21
151.617058
 31
0.0
  0
LINE
  5
4D7
330
1F
100
AcDbEntity
  8
001
370
    50
100
AcDbLine
 10
392.18924
 20
161.491053
 30
0.0
 11
392.205816
 21
161.273796
 31
0.0
  0
LINE
  5
4D8
330
1F
100
AcDbEntity
  8
001
370
    50
100
AcDbLine
 10
412.427732
 20
126.760512
 30
0.0
 11
412.427732
 21
158.760512
 31
0.0
  0
CIRCLE
  5
4D9
330
1F
100
AcDbEntity
  8
001
370
    50
100
AcDbCircle
 10
384.852709
 20
154.893349
 30
0.0
 40
2.515342793189401
  0
LINE
  5
4DA
330
1F
100
AcDbEntity
  8
001
370
    50
100
AcDbLine
 10
412.427732
 20
158.260512
 30
0.0
 11
410.427732
 21
158.260512
 31
0.0
  0
LINE
  5
4DB
330
1F
100
AcDbEntity
  8
001
370
    50
100
AcDbLine
 10
410.427732
 20
127.260512
 30
0.0
 11
412.427732
 21
127.260512
 31
0.0
  0
ARC
  5
4DC
330
1F
100
AcDbEntity
  8
001
370
    50
100
AcDbCircle
 10
393.524241
 20
123.32472
 30
0.0
 40
0.4
100
AcDbArc
 50
270.5
 51
355.5
  0
CIRCLE
  5
4DD
330
1F
100
AcDbEntity
  8
001
370
    50
100
AcDbCircle
 10
385.12822
 20
129.995706
 30
0.0
 40
3.75
  0
ARC
  5
4DE
330
1F
100
AcDbEntity
  8
001
370
    50
100
AcDbCircle
 10
376.499862
 20
136.664664
 30
0.0
 40
0.4
100
AcDbArc
 50
90.5
 51
175.5
  0
LINE
  5
4DF
330
1F
100
AcDbEntity
  8
001
370
    50
100
AcDbLine
 10
375.518286
 20
129.290752
 30
0.0
 11
376.101095
 21
136.696048
 31
0.0
  0
LINE
  5
4E0
330
1F
100
AcDbEntity
  8
001
370
    50
100
AcDbLine
 10
381.552149
 20
122.820226
 30
0.0
 11
393.527732
 21
122.924735
 31
0.0
  0
LINE
  5
4E1
330
1F
100
AcDbEntity
  8
001
370
    50
100
AcDbLine
 10
394.566307
 20
131.467224
 30
0.0
 11
393.923008
 21
123.293336
 31
0.0
  0
LINE
  5
4E2
330
1F
100
AcDbEntity
  8
001
370
    50
100
AcDbLine
 10
388.967096
 20
137.173479
 30
0.0
 11
376.496372
 21
137.064649
 31
0.0
  0
ARC
  5
4E3
330
1F
100
AcDbEntity
  8
001
370
    50
100
AcDbCircle
 10
391.661143
 20
134.216774
 30
0.0
 40
4.0
100
AcDbArc
 50
316.57635
 51
132.338696
  0
CIRCLE
  5
4E4
330
1F
100
AcDbEntity
  8
001
370
    50
100
AcDbCircle
 10
385.12822
 20
129.995706
 30
0.0
 40
3.25
  0
LINE
  5
4E5
330
1F
100
AcDbEntity
  8
001
370
    50
100
AcDbLine
 10
384.334363
 20
131.370706
 30
0.0
 11
384.695207
 21
131.995706
 31
0.0
  0
LINE
  5
4E6
330
1F
100
AcDbEntity
  8
001
370
    50
100
AcDbLine
 10
385.922077
 20
131.370706
 30
0.0
 11
385.561233
 21
131.995706
 31
0.0
  0
ARC
  5
4E7
330
1F
100
AcDbEntity
  8
001
370
    50
100
AcDbCircle
 10
385.12822
 20
131.745706
 30
0.0
 40
0.5
100
AcDbArc
 50
30.0
 51
150.0
  0
LINE
  5
4E8
330
1F
100
AcDbEntity
  8
001
370
    50
100
AcDbLine
 10
383.540507
 20
129.995706
 30
0.0
 11
383.179663
 21
130.620706
 31
0.0
  0
LINE
  5
4E9
330
1F
100
AcDbEntity
  8
001
370
    50
100
AcDbLine
 10
384.334363
 20
131.370706
 30
0.0
 11
383.612676
 21
131.370706
 31
0.0
  0
ARC
  5
4EA
330
1F
100
AcDbEntity
  8
001
370
    50
100
AcDbCircle
 10
383.612676
 20
130.870706
 30
0.0
 40
0.5
100
AcDbArc
 50
90.0
 51
210.0
  0
LINE
  5
4EB
330
1F
100
AcDbEntity
  8
001
370
    50
100
AcDbLine
 10
384.334363
 20
128.620706
 30
0.0
 11
383.612676
 21
128.620706
 31
0.0
  0
LINE
  5
4EC
330
1F
100
AcDbEntity
  8
001
370
    50
100
AcDbLine
 10
383.540507
 20
129.995706
 30
0.0
 11
383.179663
 21
129.370706
 31
0.0
  0
ARC
  5
4ED
330
1F
100
AcDbEntity
  8
001
370
    50
100
AcDbCircle
 10
383.612676
 20
129.120706
 30
0.0
 40
0.5
100
AcDbArc
 50
150.0
 51
270.0
  0
LINE
  5
4EE
330
1F
100
AcDbEntity
  8
001
370
    50
100
AcDbLine
 10
385.922077
 20
128.620706
 30
0.0
 11
385.561233
 21
127.995706
 31
0.0
  0
LINE
  5
4EF
330
1F
100
AcDbEntity
  8
001
370
    50
100
AcDbLine
 10
384.334363
 20
128.620706
 30
0.0
 11
384.695207
 21
127.995706
 31
0.0
  0
ARC
  5
4F0
330
1F
100
AcDbEntity
  8
001
370
    50
100
AcDbCircle
 10
385.12822
 20
128.245706
 30
0.0
 40
0.5
100
AcDbArc
 50
210.0
 51
330.0
  0
LINE
  5
4F1
330
1F
100
AcDbEntity
  8
001
370
    50
100
AcDbLine
 10
386.715933
 20
129.995706
 30
0.0
 11
387.076777
 21
129.370706
 31
0.0
  0
LINE
  5
4F2
330
1F
100
AcDbEntity
  8
001
370
    50
100
AcDbLine
 10
385.922077
 20
128.620706
 30
0.0
 11
386.643764
 21
128.620706
 31
0.0
  0
ARC
  5
4F3
330
1F
100
AcDbEntity
  8
001
370
    50
100
AcDbCircle
 10
386.643764
 20
129.120706
 30
0.0
 40
0.5
100
AcDbArc
 50
270.0
 51
30.0
  0
LINE
  5
4F4
330
1F
100
AcDbEntity
  8
001
370
    50
100
AcDbLine
 10
385.922077
 20
131.370706
 30
0.0
 11
386.643764
 21
131.370706
 31
0.0
  0
LINE
  5
4F5
330
1F
100
AcDbEntity
  8
001
370
    50
100
AcDbLine
 10
386.715933
 20
129.995706
 30
0.0
 11
387.076777
 21
130.620706
 31
0.0
  0
ARC
  5
4F6
330
1F
100
AcDbEntity
  8
001
370
    50
100
AcDbCircle
 10
386.643764
 20
130.870706
 30
0.0
 40
0.5
100
AcDbArc
 50
330.0
 51
90.0
  0
LINE
  5
4F7
330
1F
100
AcDbEntity
  8
001
370
    50
100
AcDbLine
 10
376.226722
 20
155.090989
 30
0.0
 11
376.226722
 21
136.905683
 31
0.0
  0
POLYLINE
  5
4F8
330
1F
100
AcDbEntity
  8
001
370
    50
100
AcDb2dPolyline
 66
     1
 10
0.0
 20
0.0
 30
0.0
  0
VERTEX
  5
4FA
330
4F8
100
AcDbEntity
  8
001
370
    50
100
AcDbVertex
100
AcDb2dVertex
 10
394.182918
 20
123.59451
 30
0.0
  0
VERTEX
  5
4FB
330
4F8
100
AcDbEntity
  8
001
370
    50
100
AcDbVertex
100
AcDb2dVertex
 10
394.321285
 20
123.592809
 30
0.0
  0
VERTEX
  5
4FC
330
4F8
100
AcDbEntity
  8
001
370
    50
100
AcDbVertex
100
AcDb2dVertex
 10
394.465045
 20
123.591075
 30
0.0
  0
VERTEX
  5
4FD
330
4F8
100
AcDbEntity
  8
001
370
    50
100
AcDbVertex
100
AcDb2dVertex
 10
394.855088
 20
123.586553
 30
0.0
  0
VERTEX
  5
4FE
330
4F8
100
AcDbEntity
  8
001
370
    50
100
AcDbVertex
100
AcDb2dVertex
 10
395.121962
 20
123.583586
 30
0.0
  0
SEQEND
  5
4F9
330
4F8
100
AcDbEntity
  8
001
370
    50
  0
LINE
  5
4FF
330
1F
100
AcDbEntity
  8
001
370
     9
100
AcDbLine
 10
366.826975
 20
122.810512
 30
0.0
 11
380.417249
 21
122.810512
 31
0.0
  0
ARC
  5
500
330
1F
100
AcDbEntity
  8
001
370
    50
100
AcDbCircle
 10
393.756578
 20
162.194277
 30
0.0
 40
0.4
100
AcDbArc
 50
4.5
 51
89.5
  0
LINE
  5
501
330
1F
100
AcDbEntity
  8
001
370
    50
100
AcDbLine
 10
375.518286
 20
156.230272
 30
0.0
 11
376.101095
 21
148.824977
 31
0.0
  0
LINE
  5
502
330
1F
100
AcDbEntity
  8
001
370
    50
100
AcDbLine
 10
381.552149
 20
162.700798
 30
0.0
 11
393.760069
 21
162.594262
 31
0.0
  0
LINE
  5
503
330
1F
100
AcDbEntity
  8
001
370
    50
100
AcDbLine
 10
394.178892
 20
161.926464
 30
0.0
 11
394.155345
 21
162.22566
 31
0.0
  0
ARC
  5
504
330
1F
100
AcDbEntity
  8
001
370
    50
100
AcDbCircle
 10
376.499862
 20
148.85636
 30
0.0
 40
0.4
100
AcDbArc
 50
184.5
 51
226.933205
  0
ARC
  5
505
330
1F
100
AcDbEntity
  8
001
370
    50
100
AcDbCircle
 10
388.524314
 20
131.169387
 30
0.0
 40
6.0
100
AcDbArc
 50
355.5
 51
90.5
  0
ARC
  5
506
330
1F
100
AcDbEntity
  8
001
370
    50
100
AcDbCircle
 10
381.49979
 20
128.819997
 30
0.0
 40
6.0
100
AcDbArc
 50
175.5
 51
270.5
  0
LINE
  5
507
330
1F
100
AcDbEntity
  8
001
370
    50
100
AcDbLine
 10
419.671353
 20
158.760512
 30
0.0
 11
412.427732
 21
158.760512
 31
0.0
  0
LINE
  5
508
330
1F
100
AcDbEntity
  8
001
  6
CENTER
370
     9
100
AcDbLine
 10
373.257981
 20
142.760512
 30
0.0
 11
423.013553
 21
142.760512
 31
0.0
  0
LINE
  5
509
330
1F
100
AcDbEntity
  8
001
370
    50
100
AcDbLine
 10
419.671353
 20
126.760512
 30
0.0
 11
412.427732
 21
126.760512
 31
0.0
  0
LINE
  5
50A
330
1F
100
AcDbEntity
  8
001
370
    50
100
AcDbLine
 10
383.091465
 20
240.960185
 30
0.0
 11
392.18924
 21
240.868277
 31
0.0
  0
POLYLINE
  5
50B
330
1F
100
AcDbEntity
  8
001
370
    50
100
AcDb2dPolyline
 66
     1
 10
0.0
 20
0.0
 30
0.0
  0
VERTEX
  5
50D
330
50B
100
AcDbEntity
  8
001
370
    50
100
AcDbVertex
100
AcDb2dVertex
 10
403.488564
 20
202.888021
 30
0.0
  0
VERTEX
  5
50E
330
50B
100
AcDbEntity
  8
001
370
    50
100
AcDbVertex
100
AcDb2dVertex
 10
403.492313
 20
202.887918
 30
0.0
  0
VERTEX
  5
50F
330
50B
100
AcDbEntity
  8
001
370
    50
100
AcDbVertex
100
AcDb2dVertex
 10
403.497794
 20
202.887807
 30
0.0
  0
VERTEX
  5
510
330
50B
100
AcDbEntity
  8
001
370
    50
100
AcDbVertex
100
AcDb2dVertex
 10
403.503273
 20
202.887749
 30
0.0
  0
VERTEX
  5
511
330
50B
100
AcDbEntity
  8
001
370
    50
100
AcDbVertex
100
AcDb2dVertex
 10
403.507023
 20
202.887736
 30
0.0
  0
SEQEND
  5
50C
330
50B
100
AcDbEntity
  8
001
370
    50
  0
POLYLINE
  5
512
330
1F
100
AcDbEntity
  8
001
370
    50
100
AcDb2dPolyline
 66
     1
 10
0.0
 20
0.0
 30
0.0
  0
VERTEX
  5
514
330
512
100
AcDbEntity
  8
001
370
    50
100
AcDbVertex
100
AcDb2dVertex
 10
403.507023
 20
241.387736
 30
0.0
  0
VERTEX
  5
515
330
512
100
AcDbEntity
  8
001
370
    50
100
AcDbVertex
100
AcDb2dVertex
 10
403.503273
 20
241.387723
 30
0.0
  0
VERTEX
  5
516
330
512
100
AcDbEntity
  8
001
370
    50
100
AcDbVertex
100
AcDb2dVertex
 10
403.497794
 20
241.387665
 30
0.0
  0
VERTEX
  5
517
330
512
100
AcDbEntity
  8
001
370
    50
100
AcDbVertex
100
AcDb2dVertex
 10
403.492313
 20
241.387554
 30
0.0
  0
VERTEX
  5
518
330
512
100
AcDbEntity
  8
001
370
    50
100
AcDbVertex
100
AcDb2dVertex
 10
403.488564
 20
241.387451
 30
0.0
  0
SEQEND
  5
513
330
512
100
AcDbEntity
  8
001
370
    50
  0
LINE
  5
519
330
1F
100
AcDbEntity
  8
001
370
    50
100
AcDbLine
 10
408.427732
 20
241.387736
 30
0.0
 11
403.507023
 21
241.387736
 31
0.0
  0
LINE
  5
51A
330
1F
100
AcDbEntity
  8
001
370
    50
100
AcDbLine
 10
403.507023
 20
202.887736
 30
0.0
 11
408.427732
 21
202.887736
 31
0.0
  0
POLYLINE
  5
51B
330
1F
100
AcDbEntity
  8
001
370
    50
100
AcDb2dPolyline
 66
     1
 10
0.0
 20
0.0
 30
0.0
  0
VERTEX
  5
51D
330
51B
100
AcDbEntity
  8
001
370
    50
100
AcDbVertex
100
AcDb2dVertex
 10
395.121962
 20
202.96081
 30
0.0
  0
VERTEX
  5
51E
330
51B
100
AcDbEntity
  8
001
370
    50
100
AcDbVertex
100
AcDb2dVertex
 10
396.116746
 20
202.977055
 30
0.0
  0
VERTEX
  5
51F
330
51B
100
AcDbEntity
  8
001
370
    50
100
AcDbVertex
100
AcDb2dVertex
 10
397.570615
 20
203.003446
 30
0.0
  0
VERTEX
  5
520
330
51B
100
AcDbEntity
  8
001
370
    50
100
AcDbVertex
100
AcDb2dVertex
 10
399.02092
 20
203.033457
 30
0.0
  0
VERTEX
  5
521
330
51B
100
AcDbEntity
  8
001
370
    50
100
AcDbVertex
100
AcDb2dVertex
 10
400.013196
 20
203.055802
 30
0.0
  0
SEQEND
  5
51C
330
51B
100
AcDbEntity
  8
001
370
    50
  0
POLYLINE
  5
522
330
1F
100
AcDbEntity
  8
001
370
    50
100
AcDb2dPolyline
 66
     1
 10
0.0
 20
0.0
 30
0.0
  0
VERTEX
  5
524
330
522
100
AcDbEntity
  8
001
370
    50
100
AcDbVertex
100
AcDb2dVertex
 10
400.013196
 20
203.055802
 30
0.0
  0
VERTEX
  5
525
330
522
100
AcDbEntity
  8
001
370
    50
100
AcDbVertex
100
AcDb2dVertex
 10
400.26299
 20
203.059681
 30
0.0
  0
VERTEX
  5
526
330
522
100
AcDbEntity
  8
001
370
    50
100
AcDbVertex
100
AcDb2dVertex
 10
400.512794
 20
203.061822
 30
0.0
  0
VERTEX
  5
527
330
522
100
AcDbEntity
  8
001
370
    50
100
AcDbVertex
100
AcDb2dVertex
 10
400.762906
 20
203.060836
 30
0.0
  0
VERTEX
  5
528
330
522
100
AcDbEntity
  8
001
370
    50
100
AcDbVertex
100
AcDb2dVertex
 10
401.012994
 20
203.056749
 30
0.0
  0
VERTEX
  5
529
330
522
100
AcDbEntity
  8
001
370
    50
100
AcDbVertex
100
AcDb2dVertex
 10
401.25625
 20
203.05011
 30
0.0
  0
VERTEX
  5
52A
330
522
100
AcDbEntity
  8
001
370
    50
100
AcDbVertex
100
AcDb2dVertex
 10
401.49942
 20
203.040919
 30
0.0
  0
VERTEX
  5
52B
330
522
100
AcDbEntity
  8
001
370
    50
100
AcDbVertex
100
AcDb2dVertex
 10
401.729166
 20
203.029902
 30
0.0
  0
VERTEX
  5
52C
330
522
100
AcDbEntity
  8
001
370
    50
100
AcDbVertex
100
AcDb2dVertex
 10
401.958792
 20
203.016627
 30
0.0
  0
VERTEX
  5
52D
330
522
100
AcDbEntity
  8
001
370
    50
100
AcDbVertex
100
AcDb2dVertex
 10
402.169164
 20
203.002502
 30
0.0
  0
VERTEX
  5
52E
330
522
100
AcDbEntity
  8
001
370
    50
100
AcDbVertex
100
AcDb2dVertex
 10
402.379412
 20
202.986637
 30
0.0
  0
VERTEX
  5
52F
330
522
100
AcDbEntity
  8
001
370
    50
100
AcDbVertex
100
AcDb2dVertex
 10
402.564013
 20
202.971381
 30
0.0
  0
VERTEX
  5
530
330
522
100
AcDbEntity
  8
001
370
    50
100
AcDbVertex
100
AcDb2dVertex
 10
402.748517
 20
202.954991
 30
0.0
  0
VERTEX
  5
531
330
522
100
AcDbEntity
  8
001
370
    50
100
AcDbVertex
100
AcDb2dVertex
 10
402.902835
 20
202.940516
 30
0.0
  0
VERTEX
  5
532
330
522
100
AcDbEntity
  8
001
370
    50
100
AcDbVertex
100
AcDb2dVertex
 10
403.057112
 20
202.925625
 30
0.0
  0
VERTEX
  5
533
330
522
100
AcDbEntity
  8
001
370
    50
100
AcDbVertex
100
AcDb2dVertex
 10
403.175776
 20
202.914093
 30
0.0
  0
VERTEX
  5
534
330
522
100
AcDbEntity
  8
001
370
    50
100
AcDbVertex
100
AcDb2dVertex
 10
403.29446
 20
202.902695
 30
0.0
  0
VERTEX
  5
535
330
522
100
AcDbEntity
  8
001
370
    50
100
AcDbVertex
100
AcDb2dVertex
 10
403.352247
 20
202.897355
 30
0.0
  0
VERTEX
  5
536
330
522
100
AcDbEntity
  8
001
370
    50
100
AcDbVertex
100
AcDb2dVertex
 10
403.410088
 20
202.892721
 30
0.0
  0
VERTEX
  5
537
330
522
100
AcDbEntity
  8
001
370
    50
100
AcDbVertex
100
AcDb2dVertex
 10
403.449315
 20
202.890218
 30
0.0
  0
VERTEX
  5
538
330
522
100
AcDbEntity
  8
001
370
    50
100
AcDbVertex
100
AcDb2dVertex
 10
403.488564
 20
202.888021
 30
0.0
  0
SEQEND
  5
523
330
522
100
AcDbEntity
  8
001
370
    50
  0
POLYLINE
  5
539
330
1F
100
AcDbEntity
  8
001
370
    50
100
AcDb2dPolyline
 66
     1
 10
0.0
 20
0.0
 30
0.0
  0
VERTEX
  5
53B
330
539
100
AcDbEntity
  8
001
370
    50
100
AcDbVertex
100
AcDb2dVertex
 10
403.507023
 20
202.887736
 30
0.0
  0
VERTEX
  5
53C
330
539
100
AcDbEntity
  8
001
370
    50
100
AcDbVertex
100
AcDb2dVertex
 10
403.77522
 20
202.980398
 30
0.0
  0
VERTEX
  5
53D
330
539
100
AcDbEntity
  8
001
370
    50
100
AcDbVertex
100
AcDb2dVertex
 10
404.113195
 20
203.197191
 30
0.0
  0
VERTEX
  5
53E
330
539
100
AcDbEntity
  8
001
370
    50
100
AcDbVertex
100
AcDb2dVertex
 10
404.481738
 20
203.630869
 30
0.0
  0
VERTEX
  5
53F
330
539
100
AcDbEntity
  8
001
370
    50
100
AcDbVertex
100
AcDb2dVertex
 10
404.699877
 20
204.115606
 30
0.0
  0
VERTEX
  5
540
330
539
100
AcDbEntity
  8
001
370
    50
100
AcDbVertex
100
AcDb2dVertex
 10
404.985861
 20
204.86159
 30
0.0
  0
VERTEX
  5
541
330
539
100
AcDbEntity
  8
001
370
    50
100
AcDbVertex
100
AcDb2dVertex
 10
405.248207
 20
205.613454
 30
0.0
  0
VERTEX
  5
542
330
539
100
AcDbEntity
  8
001
370
    50
100
AcDbVertex
100
AcDb2dVertex
 10
405.517837
 20
206.584026
 30
0.0
  0
VERTEX
  5
543
330
539
100
AcDbEntity
  8
001
370
    50
100
AcDbVertex
100
AcDb2dVertex
 10
405.740557
 20
207.642577
 30
0.0
  0
VERTEX
  5
544
330
539
100
AcDbEntity
  8
001
370
    50
100
AcDbVertex
100
AcDb2dVertex
 10
405.99489
 20
209.081547
 30
0.0
  0
VERTEX
  5
545
330
539
100
AcDbEntity
  8
001
370
    50
100
AcDbVertex
100
AcDb2dVertex
 10
406.161096
 20
210.137736
 30
0.0
  0
SEQEND
  5
53A
330
539
100
AcDbEntity
  8
001
370
    50
  0
POLYLINE
  5
546
330
1F
100
AcDbEntity
  8
001
370
    50
100
AcDb2dPolyline
 66
     1
 10
0.0
 20
0.0
 30
0.0
  0
VERTEX
  5
548
330
546
100
AcDbEntity
  8
001
370
    50
100
AcDbVertex
100
AcDb2dVertex
 10
396.728682
 20
220.137736
 30
0.0
  0
VERTEX
  5
549
330
546
100
AcDbEntity
  8
001
370
    50
100
AcDbVertex
100
AcDb2dVertex
 10
397.147314
 20
220.125866
 30
0.0
  0
VERTEX
  5
54A
330
546
100
AcDbEntity
  8
001
370
    50
100
AcDbVertex
100
AcDb2dVertex
 10
397.565243
 20
220.103188
 30
0.0
  0
VERTEX
  5
54B
330
546
100
AcDbEntity
  8
001
370
    50
100
AcDbVertex
100
AcDb2dVertex
 10
397.983169
 20
220.061029
 30
0.0
  0
VERTEX
  5
54C
330
546
100
AcDbEntity
  8
001
370
    50
100
AcDbVertex
100
AcDb2dVertex
 10
398.398998
 20
220.000193
 30
0.0
  0
VERTEX
  5
54D
330
546
100
AcDbEntity
  8
001
370
    50
100
AcDbVertex
100
AcDb2dVertex
 10
398.811914
 20
219.923146
 30
0.0
  0
VERTEX
  5
54E
330
546
100
AcDbEntity
  8
001
370
    50
100
AcDbVertex
100
AcDb2dVertex
 10
399.221343
 20
219.829722
 30
0.0
  0
VERTEX
  5
54F
330
546
100
AcDbEntity
  8
001
370
    50
100
AcDbVertex
100
AcDb2dVertex
 10
399.625003
 20
219.719725
 30
0.0
  0
VERTEX
  5
550
330
546
100
AcDbEntity
  8
001
370
    50
100
AcDbVertex
100
AcDb2dVertex
 10
400.023675
 20
219.592748
 30
0.0
  0
VERTEX
  5
551
330
546
100
AcDbEntity
  8
001
370
    50
100
AcDbVertex
100
AcDb2dVertex
 10
400.417258
 20
219.448635
 30
0.0
  0
VERTEX
  5
552
330
546
100
AcDbEntity
  8
001
370
    50
100
AcDbVertex
100
AcDb2dVertex
 10
400.804358
 20
219.287925
 30
0.0
  0
VERTEX
  5
553
330
546
100
AcDbEntity
  8
001
370
    50
100
AcDbVertex
100
AcDb2dVertex
 10
401.18536
 20
219.110476
 30
0.0
  0
VERTEX
  5
554
330
546
100
AcDbEntity
  8
001
370
    50
100
AcDbVertex
100
AcDb2dVertex
 10
401.558502
 20
218.917043
 30
0.0
  0
VERTEX
  5
555
330
546
100
AcDbEntity
  8
001
370
    50
100
AcDbVertex
100
AcDb2dVertex
 10
401.922269
 20
218.708414
 30
0.0
  0
VERTEX
  5
556
330
546
100
AcDbEntity
  8
001
370
    50
100
AcDbVertex
100
AcDb2dVertex
 10
402.276751
 20
218.484363
 30
0.0
  0
VERTEX
  5
557
330
546
100
AcDbEntity
  8
001
370
    50
100
AcDbVertex
100
AcDb2dVertex
 10
402.618733
 20
218.246769
 30
0.0
  0
VERTEX
  5
558
330
546
100
AcDbEntity
  8
001
370
    50
100
AcDbVertex
100
AcDb2dVertex
 10
402.949749
 20
217.994149
 30
0.0
  0
VERTEX
  5
559
330
546
100
AcDbEntity
  8
001
370
    50
100
AcDbVertex
100
AcDb2dVertex
 10
403.25228
 20
217.741153
 30
0.0
  0
VERTEX
  5
55A
330
546
100
AcDbEntity
  8
001
370
    50
100
AcDbVertex
100
AcDb2dVertex
 10
403.543604
 20
217.47532
 30
0.0
  0
VERTEX
  5
55B
330
546
100
AcDbEntity
  8
001
370
    50
100
AcDbVertex
100
AcDb2dVertex
 10
403.822775
 20
217.197777
 30
0.0
  0
VERTEX
  5
55C
330
546
100
AcDbEntity
  8
001
370
    50
100
AcDbVertex
100
AcDb2dVertex
 10
404.089852
 20
216.908578
 30
0.0
  0
VERTEX
  5
55D
330
546
100
AcDbEntity
  8
001
370
    50
100
AcDbVertex
100
AcDb2dVertex
 10
404.342162
 20
216.610854
 30
0.0
  0
VERTEX
  5
55E
330
546
100
AcDbEntity
  8
001
370
    50
100
AcDbVertex
100
AcDb2dVertex
 10
404.581394
 20
216.302527
 30
0.0
  0
VERTEX
  5
55F
330
546
100
AcDbEntity
  8
001
370
    50
100
AcDbVertex
100
AcDb2dVertex
 10
404.803402
 20
215.988967
 30
0.0
  0
VERTEX
  5
560
330
546
100
AcDbEntity
  8
001
370
    50
100
AcDbVertex
100
AcDb2dVertex
 10
405.011132
 20
215.665773
 30
0.0
  0
VERTEX
  5
561
330
546
100
AcDbEntity
  8
001
370
    50
100
AcDbVertex
100
AcDb2dVertex
 10
405.237357
 20
215.271647
 30
0.0
  0
VERTEX
  5
562
330
546
100
AcDbEntity
  8
001
370
    50
100
AcDbVertex
100
AcDb2dVertex
 10
405.442107
 20
214.865901
 30
0.0
  0
VERTEX
  5
563
330
546
100
AcDbEntity
  8
001
370
    50
100
AcDbVertex
100
AcDb2dVertex
 10
405.622012
 20
214.457411
 30
0.0
  0
VERTEX
  5
564
330
546
100
AcDbEntity
  8
001
370
    50
100
AcDbVertex
100
AcDb2dVertex
 10
405.780355
 20
214.040106
 30
0.0
  0
VERTEX
  5
565
330
546
100
AcDbEntity
  8
001
370
    50
100
AcDbVertex
100
AcDb2dVertex
 10
405.912907
 20
213.627151
 30
0.0
  0
VERTEX
  5
566
330
546
100
AcDbEntity
  8
001
370
    50
100
AcDbVertex
100
AcDb2dVertex
 10
406.023619
 20
213.207821
 30
0.0
  0
VERTEX
  5
567
330
546
100
AcDbEntity
  8
001
370
    50
100
AcDbVertex
100
AcDb2dVertex
 10
406.108119
 20
212.803233
 30
0.0
  0
VERTEX
  5
568
330
546
100
AcDbEntity
  8
001
370
    50
100
AcDbVertex
100
AcDb2dVertex
 10
406.172
 20
212.394911
 30
0.0
  0
VERTEX
  5
569
330
546
100
AcDbEntity
  8
001
370
    50
100
AcDbVertex
100
AcDb2dVertex
 10
406.21447
 20
211.995503
 30
0.0
  0
VERTEX
  5
56A
330
546
100
AcDbEntity
  8
001
370
    50
100
AcDbVertex
100
AcDb2dVertex
 10
406.238197
 20
211.594452
 30
0.0
  0
VERTEX
  5
56B
330
546
100
AcDbEntity
  8
001
370
    50
100
AcDbVertex
100
AcDb2dVertex
 10
406.24341
 20
211.206349
 30
0.0
  0
VERTEX
  5
56C
330
546
100
AcDbEntity
  8
001
370
    50
100
AcDbVertex
100
AcDb2dVertex
 10
406.22896
 20
210.818705
 30
0.0
  0
VERTEX
  5
56D
330
546
100
AcDbEntity
  8
001
370
    50
100
AcDbVertex
100
AcDb2dVertex
 10
406.199407
 20
210.477887
 30
0.0
  0
VERTEX
  5
56E
330
546
100
AcDbEntity
  8
001
370
    50
100
AcDbVertex
100
AcDb2dVertex
 10
406.161096
 20
210.137736
 30
0.0
  0
SEQEND
  5
547
330
546
100
AcDbEntity
  8
001
370
    50
  0
LINE
  5
56F
330
1F
100
AcDbEntity
  8
001
370
    50
100
AcDbLine
 10
395.121962
 20
241.314662
 30
0.0
 11
395.121962
 21
220.137736
 31
0.0
  0
POLYLINE
  5
570
330
1F
100
AcDbEntity
  8
001
370
    50
100
AcDb2dPolyline
 66
     1
 10
0.0
 20
0.0
 30
0.0
  0
VERTEX
  5
572
330
570
100
AcDbEntity
  8
001
370
    50
100
AcDbVertex
100
AcDb2dVertex
 10
400.013196
 20
241.21967
 30
0.0
  0
VERTEX
  5
573
330
570
100
AcDbEntity
  8
001
370
    50
100
AcDbVertex
100
AcDb2dVertex
 10
399.02092
 20
241.242015
 30
0.0
  0
VERTEX
  5
574
330
570
100
AcDbEntity
  8
001
370
    50
100
AcDbVertex
100
AcDb2dVertex
 10
397.570615
 20
241.272026
 30
0.0
  0
VERTEX
  5
575
330
570
100
AcDbEntity
  8
001
370
    50
100
AcDbVertex
100
AcDb2dVertex
 10
396.116746
 20
241.298417
 30
0.0
  0
VERTEX
  5
576
330
570
100
AcDbEntity
  8
001
370
    50
100
AcDbVertex
100
AcDb2dVertex
 10
395.121962
 20
241.314662
 30
0.0
  0
SEQEND
  5
571
330
570
100
AcDbEntity
  8
001
370
    50
  0
POLYLINE
  5
577
330
1F
100
AcDbEntity
  8
001
370
    50
100
AcDb2dPolyline
 66
     1
 10
0.0
 20
0.0
 30
0.0
  0
VERTEX
  5
579
330
577
100
AcDbEntity
  8
001
370
    50
100
AcDbVertex
100
AcDb2dVertex
 10
400.013196
 20
241.21967
 30
0.0
  0
VERTEX
  5
57A
330
577
100
AcDbEntity
  8
001
370
    50
100
AcDbVertex
100
AcDb2dVertex
 10
400.26299
 20
241.215791
 30
0.0
  0
VERTEX
  5
57B
330
577
100
AcDbEntity
  8
001
370
    50
100
AcDbVertex
100
AcDb2dVertex
 10
400.512794
 20
241.21365
 30
0.0
  0
VERTEX
  5
57C
330
577
100
AcDbEntity
  8
001
370
    50
100
AcDbVertex
100
AcDb2dVertex
 10
400.762906
 20
241.214636
 30
0.0
  0
VERTEX
  5
57D
330
577
100
AcDbEntity
  8
001
370
    50
100
AcDbVertex
100
AcDb2dVertex
 10
401.012994
 20
241.218723
 30
0.0
  0
VERTEX
  5
57E
330
577
100
AcDbEntity
  8
001
370
    50
100
AcDbVertex
100
AcDb2dVertex
 10
401.25625
 20
241.225362
 30
0.0
  0
VERTEX
  5
57F
330
577
100
AcDbEntity
  8
001
370
    50
100
AcDbVertex
100
AcDb2dVertex
 10
401.49942
 20
241.234553
 30
0.0
  0
VERTEX
  5
580
330
577
100
AcDbEntity
  8
001
370
    50
100
AcDbVertex
100
AcDb2dVertex
 10
401.729166
 20
241.24557
 30
0.0
  0
VERTEX
  5
581
330
577
100
AcDbEntity
  8
001
370
    50
100
AcDbVertex
100
AcDb2dVertex
 10
401.958792
 20
241.258845
 30
0.0
  0
VERTEX
  5
582
330
577
100
AcDbEntity
  8
001
370
    50
100
AcDbVertex
100
AcDb2dVertex
 10
402.169164
 20
241.27297
 30
0.0
  0
VERTEX
  5
583
330
577
100
AcDbEntity
  8
001
370
    50
100
AcDbVertex
100
AcDb2dVertex
 10
402.379412
 20
241.288835
 30
0.0
  0
VERTEX
  5
584
330
577
100
AcDbEntity
  8
001
370
    50
100
AcDbVertex
100
AcDb2dVertex
 10
402.564013
 20
241.304091
 30
0.0
  0
VERTEX
  5
585
330
577
100
AcDbEntity
  8
001
370
    50
100
AcDbVertex
100
AcDb2dVertex
 10
402.748517
 20
241.320481
 30
0.0
  0
VERTEX
  5
586
330
577
100
AcDbEntity
  8
001
370
    50
100
AcDbVertex
100
AcDb2dVertex
 10
402.902835
 20
241.334956
 30
0.0
  0
VERTEX
  5
587
330
577
100
AcDbEntity
  8
001
370
    50
100
AcDbVertex
100
AcDb2dVertex
 10
403.057112
 20
241.349847
 30
0.0
  0
VERTEX
  5
588
330
577
100
AcDbEntity
  8
001
370
    50
100
AcDbVertex
100
AcDb2dVertex
 10
403.175776
 20
241.361379
 30
0.0
  0
VERTEX
  5
589
330
577
100
AcDbEntity
  8
001
370
    50
100
AcDbVertex
100
AcDb2dVertex
 10
403.29446
 20
241.372777
 30
0.0
  0
VERTEX
  5
58A
330
577
100
AcDbEntity
  8
001
370
    50
100
AcDbVertex
100
AcDb2dVertex
 10
403.352247
 20
241.378117
 30
0.0
  0
VERTEX
  5
58B
330
577
100
AcDbEntity
  8
001
370
    50
100
AcDbVertex
100
AcDb2dVertex
 10
403.410088
 20
241.382751
 30
0.0
  0
VERTEX
  5
58C
330
577
100
AcDbEntity
  8
001
370
    50
100
AcDbVertex
100
AcDb2dVertex
 10
403.449315
 20
241.385254
 30
0.0
  0
VERTEX
  5
58D
330
577
100
AcDbEntity
  8
001
370
    50
100
AcDbVertex
100
AcDb2dVertex
 10
403.488564
 20
241.387451
 30
0.0
  0
SEQEND
  5
578
330
577
100
AcDbEntity
  8
001
370
    50
  0
POLYLINE
  5
58E
330
1F
100
AcDbEntity
  8
001
370
    50
100
AcDb2dPolyline
 66
     1
 10
0.0
 20
0.0
 30
0.0
  0
VERTEX
  5
590
330
58E
100
AcDbEntity
  8
001
370
    50
100
AcDbVertex
100
AcDb2dVertex
 10
392.205816
 20
240.65102
 30
0.0
  0
VERTEX
  5
591
330
58E
100
AcDbEntity
  8
001
370
    50
100
AcDbVertex
100
AcDb2dVertex
 10
390.229302
 20
240.687633
 30
0.0
  0
VERTEX
  5
592
330
58E
100
AcDbEntity
  8
001
370
    50
100
AcDbVertex
100
AcDb2dVertex
 10
387.340394
 20
240.730634
 30
0.0
  0
VERTEX
  5
593
330
58E
100
AcDbEntity
  8
001
370
    50
100
AcDbVertex
100
AcDb2dVertex
 10
384.442221
 20
240.759107
 30
0.0
  0
VERTEX
  5
594
330
58E
100
AcDbEntity
  8
001
370
    50
100
AcDbVertex
100
AcDb2dVertex
 10
382.459189
 20
240.77139
 30
0.0
  0
SEQEND
  5
58F
330
58E
100
AcDbEntity
  8
001
370
    50
  0
POLYLINE
  5
595
330
1F
100
AcDbEntity
  8
001
370
    50
100
AcDb2dPolyline
 66
     1
 10
0.0
 20
0.0
 30
0.0
  0
VERTEX
  5
597
330
595
100
AcDbEntity
  8
001
370
    50
100
AcDbVertex
100
AcDb2dVertex
 10
393.808396
 20
241.298999
 30
0.0
  0
VERTEX
  5
598
330
595
100
AcDbEntity
  8
001
370
    50
100
AcDbVertex
100
AcDb2dVertex
 10
393.471621
 20
241.217979
 30
0.0
  0
VERTEX
  5
599
330
595
100
AcDbEntity
  8
001
370
    50
100
AcDbVertex
100
AcDb2dVertex
 10
392.993162
 20
241.058003
 30
0.0
  0
VERTEX
  5
59A
330
595
100
AcDbEntity
  8
001
370
    50
100
AcDbVertex
100
AcDb2dVertex
 10
392.517993
 20
240.832671
 30
0.0
  0
VERTEX
  5
59B
330
595
100
AcDbEntity
  8
001
370
    50
100
AcDbVertex
100
AcDb2dVertex
 10
392.205816
 20
240.65102
 30
0.0
  0
SEQEND
  5
596
330
595
100
AcDbEntity
  8
001
370
    50
  0
POLYLINE
  5
59C
330
1F
100
AcDbEntity
  8
001
370
    50
100
AcDb2dPolyline
 66
     1
 10
0.0
 20
0.0
 30
0.0
  0
VERTEX
  5
59E
330
59C
100
AcDbEntity
  8
001
370
    50
100
AcDbVertex
100
AcDb2dVertex
 10
395.121962
 20
241.314662
 30
0.0
  0
VERTEX
  5
59F
330
59C
100
AcDbEntity
  8
001
370
    50
100
AcDbVertex
100
AcDb2dVertex
 10
394.855088
 20
241.311695
 30
0.0
  0
VERTEX
  5
5A0
330
59C
100
AcDbEntity
  8
001
370
    50
100
AcDbVertex
100
AcDb2dVertex
 10
394.465045
 20
241.307173
 30
0.0
  0
VERTEX
  5
5A1
330
59C
100
AcDbEntity
  8
001
370
    50
100
AcDbVertex
100
AcDb2dVertex
 10
394.075159
 20
241.302395
 30
0.0
  0
VERTEX
  5
5A2
330
59C
100
AcDbEntity
  8
001
370
    50
100
AcDbVertex
100
AcDb2dVertex
 10
393.808396
 20
241.298999
 30
0.0
  0
SEQEND
  5
59D
330
59C
100
AcDbEntity
  8
001
370
    50
  0
ARC
  5
5A3
330
1F
100
AcDbEntity
  8
001
370
    50
100
AcDbCircle
 10
408.427732
 20
239.387736
 30
0.0
 40
2.000000000000002
100
AcDbArc
 50
0.0
 51
90.0
  0
ARC
  5
5A4
330
1F
100
AcDbEntity
  8
001
370
    50
100
AcDbCircle
 10
408.427732
 20
204.887736
 30
0.0
 40
2.000000000000002
100
AcDbArc
 50
270.0
 51
0.0
  0
LINE
  5
5A5
330
1F
100
AcDbEntity
  8
001
370
    50
100
AcDbLine
 10
410.427732
 20
239.387736
 30
0.0
 11
410.427732
 21
204.887736
 31
0.0
  0
POLYLINE
  5
5A6
330
1F
100
AcDbEntity
  8
001
370
    50
100
AcDb2dPolyline
 66
     1
 10
0.0
 20
0.0
 30
0.0
  0
VERTEX
  5
5A8
330
5A6
100
AcDbEntity
  8
001
370
    50
100
AcDbVertex
100
AcDb2dVertex
 10
376.226732
 20
234.457215
 30
0.0
  0
VERTEX
  5
5A9
330
5A6
100
AcDbEntity
  8
001
370
    50
100
AcDbVertex
100
AcDb2dVertex
 10
376.227086
 20
234.518943
 30
0.0
  0
VERTEX
  5
5AA
330
5A6
100
AcDbEntity
  8
001
370
    50
100
AcDbVertex
100
AcDb2dVertex
 10
376.227747
 20
234.580669
 30
0.0
  0
VERTEX
  5
5AB
330
5A6
100
AcDbEntity
  8
001
370
    50
100
AcDbVertex
100
AcDb2dVertex
 10
376.240158
 20
234.891999
 30
0.0
  0
VERTEX
  5
5AC
330
5A6
100
AcDbEntity
  8
001
370
    50
100
AcDbVertex
100
AcDb2dVertex
 10
376.267857
 20
235.202435
 30
0.0
  0
VERTEX
  5
5AD
330
5A6
100
AcDbEntity
  8
001
370
    50
100
AcDbVertex
100
AcDb2dVertex
 10
376.320123
 20
235.568738
 30
0.0
  0
VERTEX
  5
5AE
330
5A6
100
AcDbEntity
  8
001
370
    50
100
AcDbVertex
100
AcDb2dVertex
 10
376.393206
 20
235.931448
 30
0.0
  0
VERTEX
  5
5AF
330
5A6
100
AcDbEntity
  8
001
370
    50
100
AcDbVertex
100
AcDb2dVertex
 10
376.487186
 20
236.29032
 30
0.0
  0
VERTEX
  5
5B0
330
5A6
100
AcDbEntity
  8
001
370
    50
100
AcDbVertex
100
AcDb2dVertex
 10
376.601604
 20
236.643224
 30
0.0
  0
VERTEX
  5
5B1
330
5A6
100
AcDbEntity
  8
001
370
    50
100
AcDbVertex
100
AcDb2dVertex
 10
376.735528
 20
236.987362
 30
0.0
  0
VERTEX
  5
5B2
330
5A6
100
AcDbEntity
  8
001
370
    50
100
AcDbVertex
100
AcDb2dVertex
 10
376.889413
 20
237.323016
 30
0.0
  0
VERTEX
  5
5B3
330
5A6
100
AcDbEntity
  8
001
370
    50
100
AcDbVertex
100
AcDb2dVertex
 10
377.055422
 20
237.635361
 30
0.0
  0
VERTEX
  5
5B4
330
5A6
100
AcDbEntity
  8
001
370
    50
100
AcDbVertex
100
AcDb2dVertex
 10
377.238899
 20
237.937793
 30
0.0
  0
VERTEX
  5
5B5
330
5A6
100
AcDbEntity
  8
001
370
    50
100
AcDbVertex
100
AcDb2dVertex
 10
377.439369
 20
238.229949
 30
0.0
  0
VERTEX
  5
5B6
330
5A6
100
AcDbEntity
  8
001
370
    50
100
AcDbVertex
100
AcDb2dVertex
 10
377.655901
 20
238.510409
 30
0.0
  0
VERTEX
  5
5B7
330
5A6
100
AcDbEntity
  8
001
370
    50
100
AcDbVertex
100
AcDb2dVertex
 10
377.88674
 20
238.776914
 30
0.0
  0
VERTEX
  5
5B8
330
5A6
100
AcDbEntity
  8
001
370
    50
100
AcDbVertex
100
AcDb2dVertex
 10
378.132433
 20
239.029764
 30
0.0
  0
VERTEX
  5
5B9
330
5A6
100
AcDbEntity
  8
001
370
    50
100
AcDbVertex
100
AcDb2dVertex
 10
378.388463
 20
239.264499
 30
0.0
  0
VERTEX
  5
5BA
330
5A6
100
AcDbEntity
  8
001
370
    50
100
AcDbVertex
100
AcDb2dVertex
 10
378.657377
 20
239.48438
 30
0.0
  0
VERTEX
  5
5BB
330
5A6
100
AcDbEntity
  8
001
370
    50
100
AcDbVertex
100
AcDb2dVertex
 10
378.93857
 20
239.689215
 30
0.0
  0
VERTEX
  5
5BC
330
5A6
100
AcDbEntity
  8
001
370
    50
100
AcDbVertex
100
AcDb2dVertex
 10
379.230743
 20
239.878049
 30
0.0
  0
VERTEX
  5
5BD
330
5A6
100
AcDbEntity
  8
001
370
    50
100
AcDbVertex
100
AcDb2dVertex
 10
379.531615
 20
240.049463
 30
0.0
  0
VERTEX
  5
5BE
330
5A6
100
AcDbEntity
  8
001
370
    50
100
AcDbVertex
100
AcDb2dVertex
 10
379.841696
 20
240.203597
 30
0.0
  0
VERTEX
  5
5BF
330
5A6
100
AcDbEntity
  8
001
370
    50
100
AcDbVertex
100
AcDb2dVertex
 10
380.160578
 20
240.339922
 30
0.0
  0
VERTEX
  5
5C0
330
5A6
100
AcDbEntity
  8
001
370
    50
100
AcDbVertex
100
AcDb2dVertex
 10
380.486682
 20
240.457838
 30
0.0
  0
VERTEX
  5
5C1
330
5A6
100
AcDbEntity
  8
001
370
    50
100
AcDbVertex
100
AcDb2dVertex
 10
380.819561
 20
240.557399
 30
0.0
  0
VERTEX
  5
5C2
330
5A6
100
AcDbEntity
  8
001
370
    50
100
AcDbVertex
100
AcDb2dVertex
 10
381.157483
 20
240.638741
 30
0.0
  0
VERTEX
  5
5C3
330
5A6
100
AcDbEntity
  8
001
370
    50
100
AcDbVertex
100
AcDb2dVertex
 10
381.498136
 20
240.701542
 30
0.0
  0
VERTEX
  5
5C4
330
5A6
100
AcDbEntity
  8
001
370
    50
100
AcDbVertex
100
AcDb2dVertex
 10
381.841697
 20
240.743376
 30
0.0
  0
VERTEX
  5
5C5
330
5A6
100
AcDbEntity
  8
001
370
    50
100
AcDbVertex
100
AcDb2dVertex
 10
382.150082
 20
240.762246
 30
0.0
  0
VERTEX
  5
5C6
330
5A6
100
AcDbEntity
  8
001
370
    50
100
AcDbVertex
100
AcDb2dVertex
 10
382.459189
 20
240.77139
 30
0.0
  0
SEQEND
  5
5A7
330
5A6
100
AcDbEntity
  8
001
370
    50
  0
LINE
  5
5C7
330
1F
100
AcDbEntity
  8
001
  6
DASHED
370
    30
100
AcDbLine
 10
376.246451
 20
233.957835
 30
0.0
 11
376.226732
 21
234.457215
 31
0.0
  0
LINE
  5
5C8
330
1F
100
AcDbEntity
  8
001
  6
DASHED
370
    30
100
AcDbLine
 10
376.916869
 20
225.637736
 30
0.0
 11
376.916869
 21
218.637736
 31
0.0
  0
LINE
  5
5C9
330
1F
100
AcDbEntity
  8
001
  6
DASHED
370
    30
100
AcDbLine
 10
376.916869
 20
225.637736
 30
0.0
 11
376.709547
 21
228.272012
 31
0.0
  0
POLYLINE
  5
5CA
330
1F
100
AcDbEntity
  8
001
  6
DASHED
370
    30
100
AcDb2dPolyline
 66
     1
 10
0.0
 20
0.0
 30
0.0
  0
VERTEX
  5
5CC
330
5CA
100
AcDbEntity
  8
001
  6
DASHED
370
    30
100
AcDbVertex
100
AcDb2dVertex
 10
376.634315
 20
228.863795
 30
0.0
  0
VERTEX
  5
5CD
330
5CA
100
AcDbEntity
  8
001
  6
DASHED
370
    30
100
AcDbVertex
100
AcDb2dVertex
 10
376.671841
 20
228.612687
 30
0.0
  0
VERTEX
  5
5CE
330
5CA
100
AcDbEntity
  8
001
  6
DASHED
370
    30
100
AcDbVertex
100
AcDb2dVertex
 10
376.701839
 20
228.360748
 30
0.0
  0
VERTEX
  5
5CF
330
5CA
100
AcDbEntity
  8
001
  6
DASHED
370
    30
100
AcDbVertex
100
AcDb2dVertex
 10
376.705827
 20
228.316169
 30
0.0
  0
VERTEX
  5
5D0
330
5CA
100
AcDbEntity
  8
001
  6
DASHED
370
    30
100
AcDbVertex
100
AcDb2dVertex
 10
376.709582
 20
228.271565
 30
0.0
  0
SEQEND
  5
5CB
330
5CA
100
AcDbEntity
  8
001
  6
DASHED
370
    30
  0
LINE
  5
5D1
330
1F
100
AcDbEntity
  8
001
  6
DASHED
370
    30
100
AcDbLine
 10
376.634315
 20
228.863795
 30
0.0
 11
376.246451
 21
233.957835
 31
0.0
  0
POLYLINE
  5
5D2
330
1F
100
AcDbEntity
  8
001
370
    50
100
AcDb2dPolyline
 66
     1
 10
0.0
 20
0.0
 30
0.0
  0
VERTEX
  5
5D4
330
5D2
100
AcDbEntity
  8
001
370
    50
100
AcDbVertex
100
AcDb2dVertex
 10
376.797438
 20
220.137736
 30
0.0
  0
VERTEX
  5
5D5
330
5D2
100
AcDbEntity
  8
001
370
    50
100
AcDbVertex
100
AcDb2dVertex
 10
376.811843
 20
220.126464
 30
0.0
  0
VERTEX
  5
5D6
330
5D2
100
AcDbEntity
  8
001
370
    50
100
AcDbVertex
100
AcDb2dVertex
 10
376.824389
 20
220.113907
 30
0.0
  0
VERTEX
  5
5D7
330
5D2
100
AcDbEntity
  8
001
370
    50
100
AcDbVertex
100
AcDb2dVertex
 10
376.840565
 20
220.080926
 30
0.0
  0
VERTEX
  5
5D8
330
5D2
100
AcDbEntity
  8
001
370
    50
100
AcDbVertex
100
AcDb2dVertex
 10
376.848564
 20
220.0429
 30
0.0
  0
VERTEX
  5
5D9
330
5D2
100
AcDbEntity
  8
001
370
    50
100
AcDbVertex
100
AcDb2dVertex
 10
376.863251
 20
219.954656
 30
0.0
  0
VERTEX
  5
5DA
330
5D2
100
AcDbEntity
  8
001
370
    50
100
AcDbVertex
100
AcDb2dVertex
 10
376.875323
 20
219.868489
 30
0.0
  0
VERTEX
  5
5DB
330
5D2
100
AcDbEntity
  8
001
370
    50
100
AcDbVertex
100
AcDb2dVertex
 10
376.886414
 20
219.739977
 30
0.0
  0
VERTEX
  5
5DC
330
5D2
100
AcDbEntity
  8
001
370
    50
100
AcDbVertex
100
AcDb2dVertex
 10
376.891964
 20
219.609872
 30
0.0
  0
VERTEX
  5
5DD
330
5D2
100
AcDbEntity
  8
001
370
    50
100
AcDbVertex
100
AcDb2dVertex
 10
376.895387
 20
219.446676
 30
0.0
  0
VERTEX
  5
5DE
330
5D2
100
AcDbEntity
  8
001
370
    50
100
AcDbVertex
100
AcDb2dVertex
 10
376.8959
 20
219.283929
 30
0.0
  0
VERTEX
  5
5DF
330
5D2
100
AcDbEntity
  8
001
370
    50
100
AcDbVertex
100
AcDb2dVertex
 10
376.893146
 20
219.08879
 30
0.0
  0
VERTEX
  5
5E0
330
5D2
100
AcDbEntity
  8
001
370
    50
100
AcDbVertex
100
AcDb2dVertex
 10
376.887502
 20
218.893541
 30
0.0
  0
VERTEX
  5
5E1
330
5D2
100
AcDbEntity
  8
001
370
    50
100
AcDbVertex
100
AcDb2dVertex
 10
376.878991
 20
218.681029
 30
0.0
  0
VERTEX
  5
5E2
330
5D2
100
AcDbEntity
  8
001
370
    50
100
AcDbVertex
100
AcDb2dVertex
 10
376.868587
 20
218.468653
 30
0.0
  0
VERTEX
  5
5E3
330
5D2
100
AcDbEntity
  8
001
370
    50
100
AcDbVertex
100
AcDb2dVertex
 10
376.855658
 20
218.237815
 30
0.0
  0
VERTEX
  5
5E4
330
5D2
100
AcDbEntity
  8
001
370
    50
100
AcDbVertex
100
AcDb2dVertex
 10
376.841422
 20
218.007038
 30
0.0
  0
VERTEX
  5
5E5
330
5D2
100
AcDbEntity
  8
001
370
    50
100
AcDbVertex
100
AcDb2dVertex
 10
376.827242
 20
217.791886
 30
0.0
  0
VERTEX
  5
5E6
330
5D2
100
AcDbEntity
  8
001
370
    50
100
AcDbVertex
100
AcDb2dVertex
 10
376.812306
 20
217.57679
 30
0.0
  0
VERTEX
  5
5E7
330
5D2
100
AcDbEntity
  8
001
370
    50
100
AcDbVertex
100
AcDb2dVertex
 10
376.796402
 20
217.357251
 30
0.0
  0
VERTEX
  5
5E8
330
5D2
100
AcDbEntity
  8
001
370
    50
100
AcDbVertex
100
AcDb2dVertex
 10
376.780145
 20
217.137736
 30
0.0
  0
SEQEND
  5
5D3
330
5D2
100
AcDbEntity
  8
001
370
    50
  0
LINE
  5
5E9
330
1F
100
AcDbEntity
  8
001
370
    50
100
AcDbLine
 10
396.728682
 20
220.137736
 30
0.0
 11
376.226722
 21
220.137736
 31
0.0
  0
LINE
  5
5EA
330
1F
100
AcDbEntity
  8
001
  6
DASHED
370
    30
100
AcDbLine
 10
376.746216
 20
216.469388
 30
0.0
 11
376.916869
 21
218.637736
 31
0.0
  0
LINE
  5
5EB
330
1F
100
AcDbEntity
  8
001
370
    50
100
AcDbLine
 10
376.729446
 20
216.469219
 30
0.0
 11
376.780145
 21
217.137736
 31
0.0
  0
LINE
  5
5EC
330
1F
100
AcDbEntity
  8
001
370
    50
100
AcDbLine
 10
376.041039
 20
233.428021
 30
0.0
 11
376.226722
 21
230.994282
 31
0.0
  0
LINE
  5
5ED
330
1F
100
AcDbEntity
  8
001
370
    50
100
AcDbLine
 10
392.18924
 20
240.868277
 30
0.0
 11
392.205816
 21
240.65102
 31
0.0
  0
LINE
  5
5EE
330
1F
100
AcDbEntity
  8
001
370
    50
100
AcDbLine
 10
412.427732
 20
206.137736
 30
0.0
 11
412.427732
 21
238.137736
 31
0.0
  0
CIRCLE
  5
5EF
330
1F
100
AcDbEntity
  8
001
370
    50
100
AcDbCircle
 10
384.852709
 20
234.270573
 30
0.0
 40
2.515342793189401
  0
LINE
  5
5F0
330
1F
100
AcDbEntity
  8
001
370
    50
100
AcDbLine
 10
412.427732
 20
237.637736
 30
0.0
 11
410.427732
 21
237.637736
 31
0.0
  0
LINE
  5
5F1
330
1F
100
AcDbEntity
  8
001
370
    50
100
AcDbLine
 10
410.427732
 20
206.637736
 30
0.0
 11
412.427732
 21
206.637736
 31
0.0
  0
ARC
  5
5F2
330
1F
100
AcDbEntity
  8
001
370
    50
100
AcDbCircle
 10
393.524241
 20
202.701944
 30
0.0
 40
0.4
100
AcDbArc
 50
270.5
 51
355.5
  0
CIRCLE
  5
5F3
330
1F
100
AcDbEntity
  8
001
370
    50
100
AcDbCircle
 10
385.12822
 20
209.37293
 30
0.0
 40
3.75
  0
ARC
  5
5F4
330
1F
100
AcDbEntity
  8
001
370
    50
100
AcDbCircle
 10
376.499862
 20
216.041888
 30
0.0
 40
0.4
100
AcDbArc
 50
90.5
 51
175.5
  0
LINE
  5
5F5
330
1F
100
AcDbEntity
  8
001
370
    50
100
AcDbLine
 10
375.603909
 20
209.75592
 30
0.0
 11
376.101095
 21
216.073272
 31
0.0
  0
LINE
  5
5F6
330
1F
100
AcDbEntity
  8
001
370
    50
100
AcDbLine
 10
382.643416
 20
202.206973
 30
0.0
 11
393.527732
 21
202.301959
 31
0.0
  0
LINE
  5
5F7
330
1F
100
AcDbEntity
  8
001
370
    50
100
AcDbLine
 10
394.566307
 20
210.844448
 30
0.0
 11
393.923008
 21
202.67056
 31
0.0
  0
LINE
  5
5F8
330
1F
100
AcDbEntity
  8
001
370
    50
100
AcDbLine
 10
388.967096
 20
216.550703
 30
0.0
 11
376.496372
 21
216.441873
 31
0.0
  0
ARC
  5
5F9
330
1F
100
AcDbEntity
  8
001
370
    50
100
AcDbCircle
 10
391.661143
 20
213.593997
 30
0.0
 40
4.0
100
AcDbArc
 50
316.57635
 51
132.338696
  0
CIRCLE
  5
5FA
330
1F
100
AcDbEntity
  8
001
370
    50
100
AcDbCircle
 10
385.12822
 20
209.37293
 30
0.0
 40
3.25
  0
LINE
  5
5FB
330
1F
100
AcDbEntity
  8
001
370
    50
100
AcDbLine
 10
384.334363
 20
210.74793
 30
0.0
 11
384.695207
 21
211.37293
 31
0.0
  0
LINE
  5
5FC
330
1F
100
AcDbEntity
  8
001
370
    50
100
AcDbLine
 10
385.922077
 20
210.74793
 30
0.0
 11
385.561233
 21
211.37293
 31
0.0
  0
ARC
  5
5FD
330
1F
100
AcDbEntity
  8
001
370
    50
100
AcDbCircle
 10
385.12822
 20
211.12293
 30
0.0
 40
0.5
100
AcDbArc
 50
30.0
 51
150.0
  0
LINE
  5
5FE
330
1F
100
AcDbEntity
  8
001
370
    50
100
AcDbLine
 10
383.540507
 20
209.37293
 30
0.0
 11
383.179663
 21
209.99793
 31
0.0
  0
LINE
  5
5FF
330
1F
100
AcDbEntity
  8
001
370
    50
100
AcDbLine
 10
384.334363
 20
210.74793
 30
0.0
 11
383.612676
 21
210.74793
 31
0.0
  0
ARC
  5
600
330
1F
100
AcDbEntity
  8
001
370
    50
100
AcDbCircle
 10
383.612676
 20
210.24793
 30
0.0
 40
0.5
100
AcDbArc
 50
90.0
 51
210.0
  0
LINE
  5
601
330
1F
100
AcDbEntity
  8
001
370
    50
100
AcDbLine
 10
384.334363
 20
207.99793
 30
0.0
 11
383.612676
 21
207.99793
 31
0.0
  0
LINE
  5
602
330
1F
100
AcDbEntity
  8
001
370
    50
100
AcDbLine
 10
383.540507
 20
209.37293
 30
0.0
 11
383.179663
 21
208.74793
 31
0.0
  0
ARC
  5
603
330
1F
100
AcDbEntity
  8
001
370
    50
100
AcDbCircle
 10
383.612676
 20
208.49793
 30
0.0
 40
0.5
100
AcDbArc
 50
150.0
 51
270.0
  0
LINE
  5
604
330
1F
100
AcDbEntity
  8
001
370
    50
100
AcDbLine
 10
385.922077
 20
207.99793
 30
0.0
 11
385.561233
 21
207.37293
 31
0.0
  0
LINE
  5
605
330
1F
100
AcDbEntity
  8
001
370
    50
100
AcDbLine
 10
384.334363
 20
207.99793
 30
0.0
 11
384.695207
 21
207.37293
 31
0.0
  0
ARC
  5
606
330
1F
100
AcDbEntity
  8
001
370
    50
100
AcDbCircle
 10
385.12822
 20
207.62293
 30
0.0
 40
0.5
100
AcDbArc
 50
210.0
 51
330.0
  0
LINE
  5
607
330
1F
100
AcDbEntity
  8
001
370
    50
100
AcDbLine
 10
386.715933
 20
209.37293
 30
0.0
 11
387.076777
 21
208.74793
 31
0.0
  0
LINE
  5
608
330
1F
100
AcDbEntity
  8
001
370
    50
100
AcDbLine
 10
385.922077
 20
207.99793
 30
0.0
 11
386.643764
 21
207.99793
 31
0.0
  0
ARC
  5
609
330
1F
100
AcDbEntity
  8
001
370
    50
100
AcDbCircle
 10
386.643764
 20
208.49793
 30
0.0
 40
0.5
100
AcDbArc
 50
270.0
 51
30.0
  0
LINE
  5
60A
330
1F
100
AcDbEntity
  8
001
370
    50
100
AcDbLine
 10
385.922077
 20
210.74793
 30
0.0
 11
386.643764
 21
210.74793
 31
0.0
  0
LINE
  5
60B
330
1F
100
AcDbEntity
  8
001
370
    50
100
AcDbLine
 10
386.715933
 20
209.37293
 30
0.0
 11
387.076777
 21
209.99793
 31
0.0
  0
ARC
  5
60C
330
1F
100
AcDbEntity
  8
001
370
    50
100
AcDbCircle
 10
386.643764
 20
210.24793
 30
0.0
 40
0.5
100
AcDbArc
 50
330.0
 51
90.0
  0
LINE
  5
60D
330
1F
100
AcDbEntity
  8
001
370
    50
100
AcDbLine
 10
376.226722
 20
234.468213
 30
0.0
 11
376.226722
 21
216.282907
 31
0.0
  0
ARC
  5
60E
330
1F
100
AcDbEntity
  8
001
370
    50
100
AcDbCircle
 10
393.756578
 20
241.571501
 30
0.0
 40
0.4
100
AcDbArc
 50
4.5
 51
89.5
  0
LINE
  5
60F
330
1F
100
AcDbEntity
  8
001
370
    50
100
AcDbLine
 10
375.603909
 20
234.519552
 30
0.0
 11
376.101095
 21
228.2022
 31
0.0
  0
LINE
  5
610
330
1F
100
AcDbEntity
  8
001
370
    50
100
AcDbLine
 10
382.643416
 20
242.068499
 30
0.0
 11
393.760069
 21
241.971485
 31
0.0
  0
LINE
  5
611
330
1F
100
AcDbEntity
  8
001
370
    50
100
AcDbLine
 10
394.178892
 20
241.303688
 30
0.0
 11
394.155345
 21
241.602884
 31
0.0
  0
ARC
  5
612
330
1F
100
AcDbEntity
  8
001
370
    50
100
AcDbCircle
 10
376.499862
 20
228.233584
 30
0.0
 40
0.4
100
AcDbArc
 50
184.5
 51
226.933205
  0
LINE
  5
613
330
1F
100
AcDbEntity
  8
001
370
    50
100
AcDbLine
 10
419.671353
 20
238.137736
 30
0.0
 11
412.427732
 21
238.137736
 31
0.0
  0
LINE
  5
614
330
1F
100
AcDbEntity
  8
001
  6
CENTER
370
     9
100
AcDbLine
 10
373.257981
 20
222.137736
 30
0.0
 11
423.013553
 21
222.137736
 31
0.0
  0
LINE
  5
615
330
1F
100
AcDbEntity
  8
001
370
    50
100
AcDbLine
 10
419.671353
 20
206.137736
 30
0.0
 11
412.427732
 21
206.137736
 31
0.0
  0
ARC
  5
616
330
1F
100
AcDbEntity
  8
001
370
    50
100
AcDbCircle
 10
381.49979
 20
156.701027
 30
0.0
 40
6.0
100
AcDbArc
 50
89.5
 51
184.5
  0
ARC
  5
617
330
1F
100
AcDbEntity
  8
001
370
    50
100
AcDbCircle
 10
381.940715
 20
155.59428
 30
0.0
 40
6.0
100
AcDbArc
 50
89.421207
 51
184.36296
  0
ARC
  5
618
330
1F
100
AcDbEntity
  8
001
370
    50
100
AcDbCircle
 10
382.58233
 20
235.068765
 30
0.0
 40
7.0
100
AcDbArc
 50
89.5
 51
184.5
  0
ARC
  5
619
330
1F
100
AcDbEntity
  8
001
370
    50
100
AcDbCircle
 10
383.020754
 20
233.960542
 30
0.0
 40
7.0
100
AcDbArc
 50
89.421207
 51
184.36296
  0
ARC
  5
61A
330
1F
100
AcDbEntity
  8
001
370
    50
100
AcDbCircle
 10
387.441773
 20
209.537125
 30
0.0
 40
7.0
100
AcDbArc
 50
355.5
 51
90.5
  0
ARC
  5
61B
330
1F
100
AcDbEntity
  8
001
370
    50
100
AcDbCircle
 10
382.58233
 20
209.206707
 30
0.0
 40
7.0
100
AcDbArc
 50
175.5
 51
270.5
  0
LINE
  5
61C
330
1F
100
AcDbEntity
  8
001
370
     9
100
AcDbLine
 10
366.826975
 20
202.206973
 30
0.0
 11
382.521244
 21
202.206973
 31
0.0
  0
POLYLINE
  5
61D
330
1F
100
AcDbEntity
  8
001
370
    50
100
AcDb2dPolyline
 66
     1
 10
0.0
 20
0.0
 30
0.0
  0
VERTEX
  5
61F
330
61D
100
AcDbEntity
  8
001
370
    50
100
AcDbVertex
100
AcDb2dVertex
 10
393.946941
 20
202.974658
 30
0.0
  0
VERTEX
  5
620
330
61D
100
AcDbEntity
  8
001
370
    50
100
AcDbVertex
100
AcDb2dVertex
 10
394.06493
 20
202.973196
 30
0.0
  0
VERTEX
  5
621
330
61D
100
AcDbEntity
  8
001
370
    50
100
AcDbVertex
100
AcDb2dVertex
 10
394.182918
 20
202.971734
 30
0.0
  0
VERTEX
  5
622
330
61D
100
AcDbEntity
  8
001
370
    50
100
AcDbVertex
100
AcDb2dVertex
 10
394.321285
 20
202.970033
 30
0.0
  0
VERTEX
  5
623
330
61D
100
AcDbEntity
  8
001
370
    50
100
AcDbVertex
100
AcDb2dVertex
 10
394.465045
 20
202.968299
 30
0.0
  0
VERTEX
  5
624
330
61D
100
AcDbEntity
  8
001
370
    50
100
AcDbVertex
100
AcDb2dVertex
 10
394.855088
 20
202.963777
 30
0.0
  0
VERTEX
  5
625
330
61D
100
AcDbEntity
  8
001
370
    50
100
AcDbVertex
100
AcDb2dVertex
 10
395.121962
 20
202.96081
 30
0.0
  0
SEQEND
  5
61E
330
61D
100
AcDbEntity
  8
001
370
    50
  0
POLYLINE
  5
626
330
1F
100
AcDbEntity
  8
001
370
    50
100
AcDb2dPolyline
 66
     1
 10
0.0
 20
0.0
 30
0.0
  0
VERTEX
  5
628
330
626
100
AcDbEntity
  8
001
370
    50
100
AcDbVertex
100
AcDb2dVertex
 10
393.944424
 20
123.565443
 30
0.0
  0
VERTEX
  5
629
330
626
100
AcDbEntity
  8
001
370
    50
100
AcDbVertex
100
AcDb2dVertex
 10
394.533193
 20
123.574514
 30
0.0
  0
VERTEX
  5
62A
330
626
100
AcDbEntity
  8
001
370
    50
100
AcDbVertex
100
AcDb2dVertex
 10
395.121962
 20
123.583586
 30
0.0
  0
VERTEX
  5
62B
330
626
100
AcDbEntity
  8
001
370
    50
100
AcDbVertex
100
AcDb2dVertex
 10
396.116746
 20
123.599831
 30
0.0
  0
VERTEX
  5
62C
330
626
100
AcDbEntity
  8
001
370
    50
100
AcDbVertex
100
AcDb2dVertex
 10
397.570615
 20
123.626222
 30
0.0
  0
VERTEX
  5
62D
330
626
100
AcDbEntity
  8
001
370
    50
100
AcDbVertex
100
AcDb2dVertex
 10
399.02092
 20
123.656233
 30
0.0
  0
VERTEX
  5
62E
330
626
100
AcDbEntity
  8
001
370
    50
100
AcDbVertex
100
AcDb2dVertex
 10
400.013196
 20
123.678578
 30
0.0
  0
SEQEND
  5
627
330
626
100
AcDbEntity
  8
001
370
    50
  0
TEXT
  5
62F
330
1F
100
AcDbEntity
  8
001
370
    30
100
AcDbText
 10
50.04921
 20
403.576055
 30
0.0
 40
10.0
  1
デカスミ　ＤＣ３２－４０ＡＳＲＬ　（２枚刃）
 41
0.833333
100
AcDbText
  0
ENDSEC
  0
SECTION
  2
OBJECTS
  0
DICTIONARY
  5
C
330
0
100
AcDbDictionary
281
     1
  3
ACAD_GROUP
350
D
  3
ACAD_LAYOUT
350
1A
  3
ACAD_MLEADERSTYLE
350
633
  3
ACAD_MLINESTYLE
350
17
  3
ACAD_PLOTSETTINGS
350
19
  3
ACAD_PLOTSTYLENAME
350
E
  3
ACAD_SCALELIST
350
3B
  3
ACAD_TABLESTYLE
350
632
  3
ACAD_VISUALSTYLE
350
2A
  3
AcDbVariableDictionary
350
630
  0
DICTIONARY
  5
D
102
{ACAD_REACTORS
330
C
102
}
330
C
100
AcDbDictionary
281
     1
  0
DICTIONARY
  5
1A
102
{ACAD_REACTORS
330
C
102
}
330
C
100
AcDbDictionary
281
     1
  3
Layout1
350
1E
  3
Layout2
350
26
  3
Model
350
22
  0
DICTIONARY
  5
633
102
{ACAD_REACTORS
330
C
102
}
330
C
100
AcDbDictionary
281
     1
  0
DICTIONARY
  5
17
102
{ACAD_REACTORS
330
C
102
}
330
C
100
AcDbDictionary
281
     1
  3
Standard
350
18
  0
DICTIONARY
  5
19
102
{ACAD_REACTORS
330
C
102
}
330
C
100
AcDbDictionary
281
     1
  0
ACDBDICTIONARYWDFLT
  5
E
102
{ACAD_REACTORS
330
C
102
}
330
C
100
AcDbDictionary
281
     1
  3
Normal
350
F
100
AcDbDictionaryWithDefault
340
F
  0
DICTIONARY
  5
3B
102
{ACAD_REACTORS
330
C
102
}
330
C
100
AcDbDictionary
281
     1
  3
A0
350
3C
  3
A1
350
3D
  3
A2
350
3E
  3
A3
350
3F
  3
A4
350
40
  3
A5
350
41
  3
A6
350
42
  3
A7
350
43
  3
A8
350
44
  3
A9
350
45
  3
B0
350
46
  3
B1
350
47
  3
B2
350
48
  3
B3
350
49
  3
B4
350
4A
  3
B5
350
4B
  3
B6
350
4C
  3
B7
350
4D
  3
B8
350
4E
  3
B9
350
4F
  3
C0
350
50
  3
C1
350
51
  3
C2
350
52
  3
C3
350
53
  3
C4
350
54
  3
C5
350
55
  3
C6
350
56
  3
C7
350
57
  3
C8
350
58
  3
C9
350
59
  3
D0
350
5A
  3
D1
350
5B
  3
D2
350
5C
  0
DICTIONARY
  5
632
102
{ACAD_REACTORS
330
C
102
}
330
C
100
AcDbDictionary
281
     1
  0
DICTIONARY
  5
2A
102
{ACAD_REACTORS
330
C
102
}
330
C
100
AcDbDictionary
281
     1
  3
2dWireframe
350
2F
  3
3D Hidden
350
31
  3
3dWireframe
350
30
  3
Basic
350
32
  3
Brighten
350
36
  3
ColorChange
350
3A
  3
Conceptual
350
34
  3
Dim
350
35
  3
Facepattern
350
39
  3
Flat
350
2B
  3
FlatWithEdges
350
2C
  3
Gouraud
350
2D
  3
GouraudWithEdges
350
2E
  3
Linepattern
350
38
  3
Realistic
350
33
  3
Thicken
350
37
  0
DICTIONARY
  5
630
102
{ACAD_REACTORS
330
C
102
}
330
C
100
AcDbDictionary
281
     1
  3
CANNOSCALE
350
631
  3
PSOLHEIGHT
350
635
  3
PSOLWIDTH
350
634
  0
LAYOUT
  5
1E
102
{ACAD_REACTORS
330
1A
102
}
330
1A
100
AcDbPlotSettings
  1

  2
none_device
  4

  6

 40
0.0
 41
0.0
 42
0.0
 43
0.0
 44
0.0
 45
0.0
 46
0.0
 47
0.0
 48
0.0
 49
0.0
140
0.0
141
0.0
142
1.0
143
1.0
 70
   688
 72
     0
 73
     0
 74
     5
  7

 75
    16
147
1.0
148
0.0
149
0.0
100
AcDbLayout
  1
Layout1
 70
     1
 71
     1
 10
0.0
 20
0.0
 11
12.0
 21
9.0
 12
0.0
 22
0.0
 32
0.0
 14
1.000000E+20
 24
1.000000E+20
 34
0.0
 15
-1.000000E+20
 25
-1.000000E+20
 35
0.0
146
0.0
 13
0.0
 23
0.0
 33
0.0
 16
1.0
 26
0.0
 36
0.0
 17
0.0
 27
1.0
 37
0.0
 76
     0
330
1B
  0
LAYOUT
  5
26
102
{ACAD_REACTORS
330
1A
102
}
330
1A
100
AcDbPlotSettings
  1

  2
none_device
  4

  6

 40
0.0
 41
0.0
 42
0.0
 43
0.0
 44
0.0
 45
0.0
 46
0.0
 47
0.0
 48
0.0
 49
0.0
140
0.0
141
0.0
142
1.0
143
1.0
 70
   688
 72
     0
 73
     0
 74
     5
  7

 75
    16
147
1.0
148
0.0
149
0.0
100
AcDbLayout
  1
Layout2
 70
     1
 71
     2
 10
0.0
 20
0.0
 11
0.0
 21
0.0
 12
0.0
 22
0.0
 32
0.0
 14
0.0
 24
0.0
 34
0.0
 15
0.0
 25
0.0
 35
0.0
146
0.0
 13
0.0
 23
0.0
 33
0.0
 16
1.0
 26
0.0
 36
0.0
 17
0.0
 27
1.0
 37
0.0
 76
     0
330
23
  0
LAYOUT
  5
22
102
{ACAD_REACTORS
330
1A
102
}
330
1A
100
AcDbPlotSettings
  1

  2
none_device
  4

  6

 40
0.0
 41
0.0
 42
0.0
 43
0.0
 44
0.0
 45
0.0
 46
0.0
 47
0.0
 48
0.0
 49
0.0
140
0.0
141
0.0
142
1.0
143
1.0
 70
  1712
 72
     0
 73
     0
 74
     0
  7

 75
     0
147
1.0
148
0.0
149
0.0
100
AcDbLayout
  1
Model
 70
     1
 71
     0
 10
0.0
 20
0.0
 11
12.0
 21
9.0
 12
0.0
 22
0.0
 32
0.0
 14
50.049194
 24
31.411316
 34
0.0
 15
423.01355
 25
413.57605
 35
0.0
146
0.0
 13
0.0
 23
0.0
 33
0.0
 16
1.0
 26
0.0
 36
0.0
 17
0.0
 27
1.0
 37
0.0
 76
     0
330
1F
331
29
  0
MLINESTYLE
  5
18
102
{ACAD_REACTORS
330
17
102
}
330
17
100
AcDbMlineStyle
  2
Standard
 70
     0
  3

 62
   256
 51
90.0
 52
90.0
 71
     2
 49
0.5
 62
   256
  6
BYLAYER
 49
-0.5
 62
   256
  6
BYLAYER
  0
ACDBPLACEHOLDER
  5
F
102
{ACAD_REACTORS
330
E
102
}
330
E
  0
SCALE
  5
3C
102
{ACAD_REACTORS
330
3B
102
}
330
3B
100
AcDbScale
 70
     0
300
1:1
140
1.0
141
1.0
290
     1
  0
SCALE
  5
3D
102
{ACAD_REACTORS
330
3B
102
}
330
3B
100
AcDbScale
 70
     0
300
1:2
140
1.0
141
2.0
290
     0
  0
SCALE
  5
3E
102
{ACAD_REACTORS
330
3B
102
}
330
3B
100
AcDbScale
 70
     0
300
1:4
140
1.0
141
4.0
290
     0
  0
SCALE
  5
3F
102
{ACAD_REACTORS
330
3B
102
}
330
3B
100
AcDbScale
 70
     0
300
1:5
140
1.0
141
5.0
290
     0
  0
SCALE
  5
40
102
{ACAD_REACTORS
330
3B
102
}
330
3B
100
AcDbScale
 70
     0
300
1:8
140
1.0
141
8.0
290
     0
  0
SCALE
  5
41
102
{ACAD_REACTORS
330
3B
102
}
330
3B
100
AcDbScale
 70
     0
300
1:10
140
1.0
141
10.0
290
     0
  0
SCALE
  5
42
102
{ACAD_REACTORS
330
3B
102
}
330
3B
100
AcDbScale
 70
     0
300
1:16
140
1.0
141
16.0
290
     0
  0
SCALE
  5
43
102
{ACAD_REACTORS
330
3B
102
}
330
3B
100
AcDbScale
 70
     0
300
1:20
140
1.0
141
20.0
290
     0
  0
SCALE
  5
44
102
{ACAD_REACTORS
330
3B
102
}
330
3B
100
AcDbScale
 70
     0
300
1:30
140
1.0
141
30.0
290
     0
  0
SCALE
  5
45
102
{ACAD_REACTORS
330
3B
102
}
330
3B
100
AcDbScale
 70
     0
300
1:40
140
1.0
141
40.0
290
     0
  0
SCALE
  5
46
102
{ACAD_REACTORS
330
3B
102
}
330
3B
100
AcDbScale
 70
     0
300
1:50
140
1.0
141
50.0
290
     0
  0
SCALE
  5
47
102
{ACAD_REACTORS
330
3B
102
}
330
3B
100
AcDbScale
 70
     0
300
1:100
140
1.0
141
100.0
290
     0
  0
SCALE
  5
48
102
{ACAD_REACTORS
330
3B
102
}
330
3B
100
AcDbScale
 70
     0
300
2:1
140
2.0
141
1.0
290
     0
  0
SCALE
  5
49
102
{ACAD_REACTORS
330
3B
102
}
330
3B
100
AcDbScale
 70
     0
300
4:1
140
4.0
141
1.0
290
     0
  0
SCALE
  5
4A
102
{ACAD_REACTORS
330
3B
102
}
330
3B
100
AcDbScale
 70
     0
300
8:1
140
8.0
141
1.0
290
     0
  0
SCALE
  5
4B
102
{ACAD_REACTORS
330
3B
102
}
330
3B
100
AcDbScale
 70
     0
300
10:1
140
10.0
141
1.0
290
     0
  0
SCALE
  5
4C
102
{ACAD_REACTORS
330
3B
102
}
330
3B
100
AcDbScale
 70
     0
300
100:1
140
100.0
141
1.0
290
     0
  0
SCALE
  5
4D
102
{ACAD_REACTORS
330
3B
102
}
330
3B
100
AcDbScale
 70
     0
300
1/128" = 1'-0"
140
0.007812
141
12.0
290
     0
  0
SCALE
  5
4E
102
{ACAD_REACTORS
330
3B
102
}
330
3B
100
AcDbScale
 70
     0
300
1/64" = 1'-0"
140
0.015625
141
12.0
290
     0
  0
SCALE
  5
4F
102
{ACAD_REACTORS
330
3B
102
}
330
3B
100
AcDbScale
 70
     0
300
1/32" = 1'-0"
140
0.03125
141
12.0
290
     0
  0
SCALE
  5
50
102
{ACAD_REACTORS
330
3B
102
}
330
3B
100
AcDbScale
 70
     0
300
1/16" = 1'-0"
140
0.0625
141
12.0
290
     0
  0
SCALE
  5
51
102
{ACAD_REACTORS
330
3B
102
}
330
3B
100
AcDbScale
 70
     0
300
3/32" = 1'-0"
140
0.09375
141
12.0
290
     0
  0
SCALE
  5
52
102
{ACAD_REACTORS
330
3B
102
}
330
3B
100
AcDbScale
 70
     0
300
1/8" = 1'-0"
140
0.125
141
12.0
290
     0
  0
SCALE
  5
53
102
{ACAD_REACTORS
330
3B
102
}
330
3B
100
AcDbScale
 70
     0
300
3/16" = 1'-0"
140
0.1875
141
12.0
290
     0
  0
SCALE
  5
54
102
{ACAD_REACTORS
330
3B
102
}
330
3B
100
AcDbScale
 70
     0
300
1/4" = 1'-0"
140
0.25
141
12.0
290
     0
  0
SCALE
  5
55
102
{ACAD_REACTORS
330
3B
102
}
330
3B
100
AcDbScale
 70
     0
300
3/8" = 1'-0"
140
0.375
141
12.0
290
     0
  0
SCALE
  5
56
102
{ACAD_REACTORS
330
3B
102
}
330
3B
100
AcDbScale
 70
     0
300
1/2" = 1'-0"
140
0.5
141
12.0
290
     0
  0
SCALE
  5
57
102
{ACAD_REACTORS
330
3B
102
}
330
3B
100
AcDbScale
 70
     0
300
3/4" = 1'-0"
140
0.75
141
12.0
290
     0
  0
SCALE
  5
58
102
{ACAD_REACTORS
330
3B
102
}
330
3B
100
AcDbScale
 70
     0
300
1" = 1'-0"
140
1.0
141
12.0
290
     0
  0
SCALE
  5
59
102
{ACAD_REACTORS
330
3B
102
}
330
3B
100
AcDbScale
 70
     0
300
1-1/2" = 1'-0"
140
1.5
141
12.0
290
     0
  0
SCALE
  5
5A
102
{ACAD_REACTORS
330
3B
102
}
330
3B
100
AcDbScale
 70
     0
300
3" = 1'-0"
140
3.0
141
12.0
290
     0
  0
SCALE
  5
5B
102
{ACAD_REACTORS
330
3B
102
}
330
3B
100
AcDbScale
 70
     0
300
6" = 1'-0"
140
6.0
141
12.0
290
     0
  0
SCALE
  5
5C
102
{ACAD_REACTORS
330
3B
102
}
330
3B
100
AcDbScale
 70
     0
300
1'-0" = 1'-0"
140
12.0
141
12.0
290
     0
  0
VISUALSTYLE
  5
2F
102
{ACAD_REACTORS
330
2A
102
}
330
2A
100
AcDbVisualStyle
  2
2dWireframe
 70
     4
 71
     0
 72
     2
 73
     0
 90
        0
 40
-0.6
 41
-30.0
 62
     5
 63
     7
 74
     1
 91
        4
 64
     7
 65
   257
 75
     1
175
     1
 42
1.0
 92
        0
 66
   257
 43
1.0
 76
     1
 77
     6
 78
     2
 67
     7
 79
     5
170
     0
171
     0
290
     0
174
     0
 93
        1
 44
0.0
173
     0
291
     0
 45
0.0
1001
ACAD
1000
AcDbSavedByObjectVersion
1070
     0
  0
VISUALSTYLE
  5
31
102
{ACAD_REACTORS
330
2A
102
}
330
2A
100
AcDbVisualStyle
  2
3D Hidden
 70
     6
 71
     1
 72
     2
 73
     2
 90
        0
 40
-0.6
 41
-30.0
 62
     5
 63
     7
 74
     2
 91
        2
 64
     7
 65
   257
 75
     2
175
     1
 42
40.0
 92
        0
 66
   257
 43
1.0
 76
     1
 77
     6
 78
     2
 67
     7
 79
     3
170
     0
171
     0
290
     0
174
     0
 93
        1
 44
0.0
173
     0
291
     0
 45
0.0
1001
ACAD
1000
AcDbSavedByObjectVersion
1070
     0
  0
VISUALSTYLE
  5
30
102
{ACAD_REACTORS
330
2A
102
}
330
2A
100
AcDbVisualStyle
  2
3dWireframe
 70
     5
 71
     0
 72
     2
 73
     0
 90
        0
 40
-0.6
 41
-30.0
 62
     5
 63
     7
 74
     1
 91
        4
 64
     7
 65
   257
 75
     1
175
     1
 42
1.0
 92
        0
 66
   257
 43
1.0
 76
     1
 77
     6
 78
     2
 67
     7
 79
     5
170
     0
171
     0
290
     0
174
     0
 93
        1
 44
0.0
173
     0
291
     0
 45
0.0
1001
ACAD
1000
AcDbSavedByObjectVersion
1070
     0
  0
VISUALSTYLE
  5
32
102
{ACAD_REACTORS
330
2A
102
}
330
2A
100
AcDbVisualStyle
  2
Basic
 70
     7
 71
     1
 72
     0
 73
     1
 90
        0
 40
-0.6
 41
-30.0
 62
     5
 63
     7
 74
     0
 91
        4
 64
     7
 65
   257
 75
     1
175
     1
 42
1.0
 92
        8
 66
     7
 43
1.0
 76
     1
 77
     6
 78
     2
 67
     7
 79
     5
170
     0
171
     0
290
     0
174
     0
 93
        1
 44
0.0
173
     0
291
     1
 45
0.0
1001
ACAD
1000
AcDbSavedByObjectVersion
1070
     0
  0
VISUALSTYLE
  5
36
102
{ACAD_REACTORS
330
2A
102
}
330
2A
100
AcDbVisualStyle
  2
Brighten
 70
    12
 71
     2
 72
     2
 73
     0
 90
        0
 40
-0.6
 41
-30.0
 62
     5
 63
     7
 74
     1
 91
        4
 64
     7
 65
   257
 75
     1
175
     1
 42
1.0
 92
        8
 66
     7
 43
1.0
 76
     1
 77
     6
 78
     2
 67
     7
 79
     5
170
     0
171
     0
290
     0
174
     0
 93
        1
 44
50.0
173
     0
291
     1
 45
0.0
1001
ACAD
1000
AcDbSavedByObjectVersion
1070
     0
  0
VISUALSTYLE
  5
3A
102
{ACAD_REACTORS
330
2A
102
}
330
2A
100
AcDbVisualStyle
  2
ColorChange
 70
    16
 71
     2
 72
     2
 73
     3
 90
        0
 40
-0.6
 41
-30.0
 62
     5
 63
     8
 74
     1
 91
        4
 64
     7
 65
   257
 75
     1
175
     1
 42
1.0
 92
        8
 66
     8
 43
1.0
 76
     1
 77
     6
 78
     2
 67
     7
 79
     5
170
     0
171
     0
290
     0
174
     0
 93
        1
 44
0.0
173
     0
291
     1
 45
0.0
1001
ACAD
1000
AcDbSavedByObjectVersion
1070
     0
  0
VISUALSTYLE
  5
34
102
{ACAD_REACTORS
330
2A
102
}
330
2A
100
AcDbVisualStyle
  2
Conceptual
 70
     9
 71
     3
 72
     2
 73
     0
 90
        0
 40
-0.6
 41
-30.0
 62
     5
 63
     7
 74
     2
 91
        2
 64
     7
 65
   257
 75
     1
175
     1
 42
40.0
 92
        8
 66
     7
 43
1.0
 76
     1
 77
     6
 78
     2
 67
     7
 79
     3
170
     0
171
     0
290
     0
174
     0
 93
        1
 44
0.0
173
     0
291
     0
 45
0.0
1001
ACAD
1000
AcDbSavedByObjectVersion
1070
     0
  0
VISUALSTYLE
  5
35
102
{ACAD_REACTORS
330
2A
102
}
330
2A
100
AcDbVisualStyle
  2
Dim
 70
    11
 71
     2
 72
     2
 73
     0
 90
        0
 40
-0.6
 41
-30.0
 62
     5
 63
     7
 74
     1
 91
        4
 64
     7
 65
   257
 75
     1
175
     1
 42
1.0
 92
        8
 66
     7
 43
1.0
 76
     1
 77
     6
 78
     2
 67
     7
 79
     5
170
     0
171
     0
290
     0
174
     0
 93
        1
 44
-50.0
173
     0
291
     1
 45
0.0
1001
ACAD
1000
AcDbSavedByObjectVersion
1070
     0
  0
VISUALSTYLE
  5
39
102
{ACAD_REACTORS
330
2A
102
}
330
2A
100
AcDbVisualStyle
  2
Facepattern
 70
    15
 71
     2
 72
     2
 73
     0
 90
        0
 40
-0.6
 41
-30.0
 62
     5
 63
     7
 74
     1
 91
        4
 64
     7
 65
   257
 75
     1
175
     1
 42
1.0
 92
        8
 66
     7
 43
1.0
 76
     1
 77
     6
 78
     2
 67
     7
 79
     5
170
     0
171
     0
290
     0
174
     0
 93
        1
 44
0.0
173
     0
291
     1
 45
0.0
1001
ACAD
1000
AcDbSavedByObjectVersion
1070
     0
  0
VISUALSTYLE
  5
2B
102
{ACAD_REACTORS
330
2A
102
}
330
2A
100
AcDbVisualStyle
  2
Flat
 70
     0
 71
     2
 72
     1
 73
     1
 90
        2
 40
-0.6
 41
30.0
 62
     5
 63
     7
 74
     0
 91
        4
 64
     7
 65
   257
 75
     1
175
     1
 42
1.0
 92
        8
 66
     7
 43
1.0
 76
     1
 77
     6
 78
     2
 67
     7
 79
     5
170
     0
171
     0
290
     0
174
     0
 93
       13
 44
0.0
173
     0
291
     1
 45
0.0
1001
ACAD
1000
AcDbSavedByObjectVersion
1070
     0
  0
VISUALSTYLE
  5
2C
102
{ACAD_REACTORS
330
2A
102
}
330
2A
100
AcDbVisualStyle
  2
FlatWithEdges
 70
     1
 71
     2
 72
     1
 73
     1
 90
        2
 40
-0.6
 41
30.0
 62
     5
 63
     7
 74
     1
 91
        4
 64
     7
 65
   257
 75
     1
175
     1
 42
1.0
 92
        0
 66
   257
 43
1.0
 76
     1
 77
     6
 78
     2
 67
     7
 79
     5
170
     0
171
     0
290
     0
174
     0
 93
       13
 44
0.0
173
     0
291
     1
 45
0.0
1001
ACAD
1000
AcDbSavedByObjectVersion
1070
     0
  0
VISUALSTYLE
  5
2D
102
{ACAD_REACTORS
330
2A
102
}
330
2A
100
AcDbVisualStyle
  2
Gouraud
 70
     2
 71
     2
 72
     2
 73
     1
 90
        2
 40
-0.6
 41
30.0
 62
     5
 63
     7
 74
     0
 91
        4
 64
     7
 65
   257
 75
     1
175
     1
 42
1.0
 92
        0
 66
     7
 43
1.0
 76
     1
 77
     6
 78
     2
 67
     7
 79
     5
170
     0
171
     0
290
     0
174
     0
 93
       13
 44
0.0
173
     0
291
     1
 45
0.0
1001
ACAD
1000
AcDbSavedByObjectVersion
1070
     0
  0
VISUALSTYLE
  5
2E
102
{ACAD_REACTORS
330
2A
102
}
330
2A
100
AcDbVisualStyle
  2
GouraudWithEdges
 70
     3
 71
     2
 72
     2
 73
     1
 90
        2
 40
-0.6
 41
30.0
 62
     5
 63
     7
 74
     1
 91
        4
 64
     7
 65
   257
 75
     1
175
     1
 42
1.0
 92
        0
 66
   257
 43
1.0
 76
     1
 77
     6
 78
     2
 67
     7
 79
     5
170
     0
171
     0
290
     0
174
     0
 93
       13
 44
0.0
173
     0
291
     1
 45
0.0
1001
ACAD
1000
AcDbSavedByObjectVersion
1070
     0
  0
VISUALSTYLE
  5
38
102
{ACAD_REACTORS
330
2A
102
}
330
2A
100
AcDbVisualStyle
  2
Linepattern
 70
    14
 71
     2
 72
     2
 73
     0
 90
        0
 40
-0.6
 41
-30.0
 62
     5
 63
     7
 74
     1
 91
        4
 64
     7
 65
   257
 75
     7
175
     7
 42
1.0
 92
        8
 66
     7
 43
1.0
 76
     1
 77
     6
 78
     2
 67
     7
 79
     5
170
     0
171
     0
290
     0
174
     0
 93
        1
 44
0.0
173
     0
291
     1
 45
0.0
1001
ACAD
1000
AcDbSavedByObjectVersion
1070
     0
  0
VISUALSTYLE
  5
33
102
{ACAD_REACTORS
330
2A
102
}
330
2A
100
AcDbVisualStyle
  2
Realistic
 70
     8
 71
     2
 72
     2
 73
     0
 90
        0
 40
-0.6
 41
-30.0
 62
     5
 63
     7
 74
     1
 91
        0
 64
     7
 65
   257
 75
     1
175
     1
 42
1.0
 92
        8
 66
     8
 43
1.0
 76
     1
 77
     6
 78
     2
 67
     7
 79
     5
170
     0
171
     0
290
     0
174
     0
 93
       13
 44
0.0
173
     0
291
     0
 45
0.0
1001
ACAD
1000
AcDbSavedByObjectVersion
1070
     0
  0
VISUALSTYLE
  5
37
102
{ACAD_REACTORS
330
2A
102
}
330
2A
100
AcDbVisualStyle
  2
Thicken
 70
    13
 71
     2
 72
     2
 73
     0
 90
        0
 40
-0.6
 41
-30.0
 62
     5
 63
     7
 74
     1
 91
        4
 64
     7
 65
   257
 75
     1
175
     1
 42
1.0
 92
       12
 66
     7
 43
1.0
 76
     1
 77
     6
 78
     2
 67
     7
 79
     5
170
     0
171
     0
290
     0
174
     0
 93
        1
 44
0.0
173
     0
291
     1
 45
0.0
1001
ACAD
1000
AcDbSavedByObjectVersion
1070
     0
  0
DICTIONARYVAR
  5
631
102
{ACAD_REACTORS
330
630
102
}
330
630
100
DictionaryVariables
280
     0
  1
1:1
  0
DICTIONARYVAR
  5
635
102
{ACAD_REACTORS
330
630
102
}
330
630
100
DictionaryVariables
280
     0
  1
80.000000
  0
DICTIONARYVAR
  5
634
102
{ACAD_REACTORS
330
630
102
}
330
630
100
DictionaryVariables
280
     0
  1
5.000000
  0
ENDSEC
  0
EOF
