  0
SECTION
  2
HEADER
  9
$ACADVER
  1
AC1015
  9
$ACADMAINTVER
 70
     6
  9
$DWGCODEPAGE
  3
ANSI_932
  9
$INSBASE
 10
0.0
 20
0.0
 30
0.0
  9
$EXTMIN
 10
120.796791
 20
89.892494
 30
0.0
  9
$EXTMAX
 10
293.282806
 20
207.091705
 30
0.0
  9
$LIMMIN
 10
0.0
 20
0.0
  9
$LIMMAX
 10
12.0
 20
9.0
  9
$ORTHOMODE
 70
     0
  9
$REGENMODE
 70
     1
  9
$FILLMODE
 70
     1
  9
$QTEXTMODE
 70
     0
  9
$MIRRTEXT
 70
     1
  9
$LTSCALE
 40
2.085356
  9
$ATTMODE
 70
     1
  9
$TEXTSIZE
 40
3.2
  9
$TRACEWID
 40
1.0
  9
$TEXTSTYLE
  7
Standard
  9
$CLAYER
  8
0
  9
$CELTYPE
  6
ByLayer
  9
$CECOLOR
 62
   256
  9
$CELTSCALE
 40
1.0
  9
$DISPSILH
 70
     0
  9
$DIMSCALE
 40
1.0
  9
$DIMASZ
 40
2.5
  9
$DIMEXO
 40
0.625
  9
$DIMDLI
 40
3.75
  9
$DIMRND
 40
0.0
  9
$DIMDLE
 40
0.0
  9
$DIMEXE
 40
1.25
  9
$DIMTP
 40
0.0
  9
$DIMTM
 40
0.0
  9
$DIMTXT
 40
2.5
  9
$DIMCEN
 40
0.09
  9
$DIMTSZ
 40
0.0
  9
$DIMTOL
 70
     0
  9
$DIMLIM
 70
     0
  9
$DIMTIH
 70
     0
  9
$DIMTOH
 70
     0
  9
$DIMSE1
 70
     0
  9
$DIMSE2
 70
     0
  9
$DIMTAD
 70
     0
  9
$DIMZIN
 70
     8
  9
$DIMBLK
  1

  9
$DIMASO
 70
     1
  9
$DIMSHO
 70
     0
  9
$DIMPOST
  1

  9
$DIMAPOST
  1

  9
$DIMALT
 70
     0
  9
$DIMALTD
 70
     3
  9
$DIMALTF
 40
0.03937
  9
$DIMLFAC
 40
1.0
  9
$DIMTOFL
 70
     1
  9
$DIMTVP
 40
0.0
  9
$DIMTIX
 70
     0
  9
$DIMSOXD
 70
     0
  9
$DIMSAH
 70
     0
  9
$DIMBLK1
  1

  9
$DIMBLK2
  1

  9
$DIMSTYLE
  2
ISO-25
  9
$DIMCLRD
 70
     0
  9
$DIMCLRE
 70
     0
  9
$DIMCLRT
 70
     0
  9
$DIMTFAC
 40
1.0
  9
$DIMGAP
 40
0.625
  9
$DIMJUST
 70
     0
  9
$DIMSD1
 70
     0
  9
$DIMSD2
 70
     0
  9
$DIMTOLJ
 70
     0
  9
$DIMTZIN
 70
     8
  9
$DIMALTZ
 70
     0
  9
$DIMALTTZ
 70
     0
  9
$DIMUPT
 70
     0
  9
$DIMDEC
 70
     2
  9
$DIMTDEC
 70
     2
  9
$DIMALTU
 70
     2
  9
$DIMALTTD
 70
     3
  9
$DIMTXSTY
  7
Standard
  9
$DIMAUNIT
 70
     0
  9
$DIMADEC
 70
     0
  9
$DIMALTRND
 40
0.0
  9
$DIMAZIN
 70
     0
  9
$DIMDSEP
 70
    44
  9
$DIMATFIT
 70
     3
  9
$DIMFRAC
 70
     0
  9
$DIMLDRBLK
  1

  9
$DIMLUNIT
 70
     2
  9
$DIMLWD
 70
    -2
  9
$DIMLWE
 70
    -2
  9
$DIMTMOVE
 70
     0
  9
$LUNITS
 70
     2
  9
$LUPREC
 70
     4
  9
$SKETCHINC
 40
1.0
  9
$FILLETRAD
 40
0.0
  9
$AUNITS
 70
     0
  9
$AUPREC
 70
     0
  9
$MENU
  1
.
  9
$ELEVATION
 40
0.0
  9
$PELEVATION
 40
0.0
  9
$THICKNESS
 40
0.0
  9
$LIMCHECK
 70
     0
  9
$CHAMFERA
 40
10.0
  9
$CHAMFERB
 40
10.0
  9
$CHAMFERC
 40
20.0
  9
$CHAMFERD
 40
0.0
  9
$SKPOLY
 70
     0
  9
$TDCREATE
 40
2456204.49001934
  9
$TDUCREATE
 40
2456204.11501934
  9
$TDUPDATE
 40
2456204.490019352
  9
$TDUUPDATE
 40
2456204.115019352
  9
$TDINDWG
 40
0.0000000116
  9
$TDUSRTIMER
 40
0.0000000116
  9
$USRTIMER
 70
     1
  9
$ANGBASE
 50
0.0
  9
$ANGDIR
 70
     0
  9
$PDMODE
 70
     0
  9
$PDSIZE
 40
0.0
  9
$PLINEWID
 40
0.0
  9
$SPLFRAME
 70
     0
  9
$SPLINETYPE
 70
     6
  9
$SPLINESEGS
 70
     8
  9
$HANDSEED
  5
390
  9
$SURFTAB1
 70
     6
  9
$SURFTAB2
 70
     6
  9
$SURFTYPE
 70
     6
  9
$SURFU
 70
     6
  9
$SURFV
 70
     6
  9
$UCSBASE
  2

  9
$UCSNAME
  2

  9
$UCSORG
 10
0.0
 20
0.0
 30
0.0
  9
$UCSXDIR
 10
1.0
 20
0.0
 30
0.0
  9
$UCSYDIR
 10
0.0
 20
1.0
 30
0.0
  9
$UCSORTHOREF
  2

  9
$UCSORTHOVIEW
 70
     0
  9
$UCSORGTOP
 10
0.0
 20
0.0
 30
0.0
  9
$UCSORGBOTTOM
 10
0.0
 20
0.0
 30
0.0
  9
$UCSORGLEFT
 10
0.0
 20
0.0
 30
0.0
  9
$UCSORGRIGHT
 10
0.0
 20
0.0
 30
0.0
  9
$UCSORGFRONT
 10
0.0
 20
0.0
 30
0.0
  9
$UCSORGBACK
 10
0.0
 20
0.0
 30
0.0
  9
$PUCSBASE
  2

  9
$PUCSNAME
  2

  9
$PUCSORG
 10
0.0
 20
0.0
 30
0.0
  9
$PUCSXDIR
 10
1.0
 20
0.0
 30
0.0
  9
$PUCSYDIR
 10
0.0
 20
1.0
 30
0.0
  9
$PUCSORTHOREF
  2

  9
$PUCSORTHOVIEW
 70
     0
  9
$PUCSORGTOP
 10
0.0
 20
0.0
 30
0.0
  9
$PUCSORGBOTTOM
 10
0.0
 20
0.0
 30
0.0
  9
$PUCSORGLEFT
 10
0.0
 20
0.0
 30
0.0
  9
$PUCSORGRIGHT
 10
0.0
 20
0.0
 30
0.0
  9
$PUCSORGFRONT
 10
0.0
 20
0.0
 30
0.0
  9
$PUCSORGBACK
 10
0.0
 20
0.0
 30
0.0
  9
$USERI1
 70
     0
  9
$USERI2
 70
     0
  9
$USERI3
 70
     0
  9
$USERI4
 70
     0
  9
$USERI5
 70
     0
  9
$USERR1
 40
0.0
  9
$USERR2
 40
0.0
  9
$USERR3
 40
0.0
  9
$USERR4
 40
0.0
  9
$USERR5
 40
0.0
  9
$WORLDVIEW
 70
     1
  9
$SHADEDGE
 70
     3
  9
$SHADEDIF
 70
    70
  9
$TILEMODE
 70
     1
  9
$MAXACTVP
 70
    64
  9
$PINSBASE
 10
0.0
 20
0.0
 30
0.0
  9
$PLIMCHECK
 70
     0
  9
$PEXTMIN
 10
1.000000E+20
 20
1.000000E+20
 30
0.0
  9
$PEXTMAX
 10
-1.000000E+20
 20
-1.000000E+20
 30
0.0
  9
$PLIMMIN
 10
0.0
 20
0.0
  9
$PLIMMAX
 10
12.0
 20
9.0
  9
$UNITMODE
 70
     0
  9
$VISRETAIN
 70
     1
  9
$PLINEGEN
 70
     0
  9
$PSLTSCALE
 70
     1
  9
$TREEDEPTH
 70
  3020
  9
$CMLSTYLE
  2
Standard
  9
$CMLJUST
 70
     0
  9
$CMLSCALE
 40
20.0
  9
$PROXYGRAPHICS
 70
     1
  9
$MEASUREMENT
 70
     1
  9
$CELWEIGHT
370
    -1
  9
$ENDCAPS
280
     0
  9
$JOINSTYLE
280
     0
  9
$LWDISPLAY
290
     0
  9
$INSUNITS
 70
     4
  9
$HYPERLINKBASE
  1

  9
$STYLESHEET
  1

  9
$XEDIT
290
     1
  9
$CEPSNTYPE
380
     0
  9
$PSTYLEMODE
290
     1
  9
$FINGERPRINTGUID
  2
{72A75521-7DA0-45C7-B41D-C52FF61A7BB7}
  9
$VERSIONGUID
  2
{FAEB1C32-E019-11D5-929B-00C0DF256EC4}
  9
$EXTNAMES
290
     1
  9
$PSVPSCALE
 40
0.0
  9
$OLESTARTUP
290
     0
  0
ENDSEC
  0
SECTION
  2
CLASSES
  0
CLASS
  1
ACDBDICTIONARYWDFLT
  2
AcDbDictionaryWithDefault
  3
ObjectDBX Classes
 90
        0
280
     0
281
     0
  0
CLASS
  1
VISUALSTYLE
  2
AcDbVisualStyle
  3
ObjectDBX Classes
 90
     4095
280
     0
281
     0
  0
CLASS
  1
SCALE
  2
AcDbScale
  3
ObjectDBX Classes
 90
     1153
280
     0
281
     0
  0
CLASS
  1
DICTIONARYVAR
  2
AcDbDictionaryVar
  3
ObjectDBX Classes
 90
        0
280
     0
281
     0
  0
CLASS
  1
ACDBPLACEHOLDER
  2
AcDbPlaceHolder
  3
ObjectDBX Classes
 90
        0
280
     0
281
     0
  0
CLASS
  1
LAYOUT
  2
AcDbLayout
  3
ObjectDBX Classes
 90
        0
280
     0
281
     0
  0
ENDSEC
  0
SECTION
  2
TABLES
  0
TABLE
  2
VPORT
  5
8
330
0
100
AcDbSymbolTable
 70
     1
  0
VPORT
  5
29
330
8
100
AcDbSymbolTableRecord
100
AcDbViewportTableRecord
  2
*Active
 70
     0
 10
0.0
 20
0.0
 11
1.0
 21
1.0
 12
207.039799
 22
148.4921
 13
0.0
 23
0.0
 14
1.0
 24
1.0
 15
0.0
 25
0.0
 16
0.0
 26
0.0
 36
1.0
 17
0.0
 27
0.0
 37
0.0
 40
118.371203
 41
1.691288
 42
50.0
 43
0.0
 44
0.0
 50
0.0
 51
0.0
 71
     0
 72
   100
 73
     1
 74
     3
 75
     0
 76
     0
 77
     0
 78
     0
281
     0
 65
     1
110
0.0
120
0.0
130
0.0
111
1.0
121
0.0
131
0.0
112
0.0
122
1.0
132
0.0
 79
     0
146
0.0
  0
ENDTAB
  0
TABLE
  2
LTYPE
  5
5
330
0
100
AcDbSymbolTable
 70
     5
  0
LTYPE
  5
14
330
5
100
AcDbSymbolTableRecord
100
AcDbLinetypeTableRecord
  2
ByBlock
 70
     0
  3

 72
    65
 73
     0
 40
0.0
  0
LTYPE
  5
15
330
5
100
AcDbSymbolTableRecord
100
AcDbLinetypeTableRecord
  2
ByLayer
 70
     0
  3

 72
    65
 73
     0
 40
0.0
  0
LTYPE
  5
16
330
5
100
AcDbSymbolTableRecord
100
AcDbLinetypeTableRecord
  2
Continuous
 70
     0
  3
Solid line
 72
    65
 73
     0
 40
0.0
  0
LTYPE
  5
5D
330
5
100
AcDbSymbolTableRecord
100
AcDbLinetypeTableRecord
  2
DASHED
 70
     0
  3
DASHED
 72
    83
 73
     2
 40
0.75
 49
0.5
 74
     0
 49
-0.25
 74
     0
  0
LTYPE
  5
5E
330
5
100
AcDbSymbolTableRecord
100
AcDbLinetypeTableRecord
  2
HIDDEN
 70
     0
  3
HIDDEN
 72
    83
 73
     2
 40
0.375
 49
0.25
 74
     0
 49
-0.125
 74
     0
  0
LTYPE
  5
5F
330
5
100
AcDbSymbolTableRecord
100
AcDbLinetypeTableRecord
  2
CENTER
 70
     0
  3
CENTER
 72
    83
 73
     4
 40
2.0
 49
1.25
 74
     0
 49
-0.25
 74
     0
 49
0.25
 74
     0
 49
-0.25
 74
     0
  0
LTYPE
  5
60
330
5
100
AcDbSymbolTableRecord
100
AcDbLinetypeTableRecord
  2
PHANTOM
 70
     0
  3
PHANTOM
 72
    83
 73
     6
 40
2.5
 49
1.25
 74
     0
 49
-0.25
 74
     0
 49
0.25
 74
     0
 49
-0.25
 74
     0
 49
0.25
 74
     0
 49
-0.25
 74
     0
  0
ENDTAB
  0
TABLE
  2
LAYER
  5
2
330
0
100
AcDbSymbolTable
 70
     2
  0
LAYER
  5
10
330
2
100
AcDbSymbolTableRecord
100
AcDbLayerTableRecord
  2
0
 70
     0
 62
     7
  6
Continuous
370
    -3
390
F
  0
LAYER
  5
61
330
2
100
AcDbSymbolTableRecord
100
AcDbLayerTableRecord
  2
001
 70
     0
 62
     7
  6
Continuous
370
    -3
390
F
  0
ENDTAB
  0
TABLE
  2
STYLE
  5
3
330
0
100
AcDbSymbolTable
 70
     2
  0
STYLE
  5
11
330
3
100
AcDbSymbolTableRecord
100
AcDbTextStyleTableRecord
  2
Standard
 70
     0
 40
0.0
 41
1.0
 50
0.0
 71
     0
 42
0.2
  3
TXT
  4
BIGFONT
  0
STYLE
  5
62
330
3
100
AcDbSymbolTableRecord
100
AcDbTextStyleTableRecord
  2
TATEGAKI
 70
     4
 40
1.0
 41
1.0
 50
0.0
 71
     0
 42
0.2
  3
TXT
  4
BIGFONT
  0
ENDTAB
  0
TABLE
  2
VIEW
  5
6
330
0
100
AcDbSymbolTable
 70
     0
  0
ENDTAB
  0
TABLE
  2
UCS
  5
7
330
0
100
AcDbSymbolTable
 70
     0
  0
ENDTAB
  0
TABLE
  2
APPID
  5
9
330
0
100
AcDbSymbolTable
 70
     1
  0
APPID
  5
12
330
9
100
AcDbSymbolTableRecord
100
AcDbRegAppTableRecord
  2
ACAD
 70
     0
  0
ENDTAB
  0
TABLE
  2
DIMSTYLE
  5
A
330
0
100
AcDbSymbolTable
 70
     2
100
AcDbDimStyleTable
  0
DIMSTYLE
105
27
330
A
100
AcDbSymbolTableRecord
100
AcDbDimStyleTableRecord
  2
ISO-25
 70
     0
 41
2.5
 42
0.625
 43
3.75
 44
1.25
 73
     0
 74
     0
 77
     1
 78
     8
140
2.5
141
2.5
143
0.03937
147
0.625
171
     3
172
     1
271
     2
272
     2
274
     3
278
    44
283
     0
284
     8
340
11
  0
DIMSTYLE
105
63
102
{ACAD_REACTORS
330
DF
330
E0
330
E1
330
E2
330
FB
330
FC
102
}
330
A
100
AcDbSymbolTableRecord
100
AcDbDimStyleTableRecord
  2
Standard
 70
     0
 41
1.5
 42
0.0
 44
2.75
 73
     0
 74
     0
 77
     1
 78
     8
 79
     2
140
4.0
146
0.8
147
1.0
172
     1
179
     1
271
     1
340
11
  0
ENDTAB
  0
TABLE
  2
BLOCK_RECORD
  5
1
330
0
100
AcDbSymbolTable
 70
     7
  0
BLOCK_RECORD
  5
1F
330
1
100
AcDbSymbolTableRecord
100
AcDbBlockTableRecord
  2
*Model_Space
340
22
  0
BLOCK_RECORD
  5
1B
330
1
100
AcDbSymbolTableRecord
100
AcDbBlockTableRecord
  2
*Paper_Space
340
1E
  0
BLOCK_RECORD
  5
23
330
1
100
AcDbSymbolTableRecord
100
AcDbBlockTableRecord
  2
*Paper_Space0
340
26
  0
BLOCK_RECORD
  5
64
330
1
100
AcDbSymbolTableRecord
100
AcDbBlockTableRecord
  2
*D1
340
0
  0
BLOCK_RECORD
  5
78
330
1
100
AcDbSymbolTableRecord
100
AcDbBlockTableRecord
  2
*D2
340
0
  0
BLOCK_RECORD
  5
8C
330
1
100
AcDbSymbolTableRecord
100
AcDbBlockTableRecord
  2
*D3
340
0
  0
BLOCK_RECORD
  5
A0
330
1
100
AcDbSymbolTableRecord
100
AcDbBlockTableRecord
  2
*D4
340
0
  0
BLOCK_RECORD
  5
B5
330
1
100
AcDbSymbolTableRecord
100
AcDbBlockTableRecord
  2
*D5
340
0
  0
BLOCK_RECORD
  5
CB
330
1
100
AcDbSymbolTableRecord
100
AcDbBlockTableRecord
  2
*D6
340
0
  0
ENDTAB
  0
ENDSEC
  0
SECTION
  2
BLOCKS
  0
BLOCK
  5
20
330
1F
100
AcDbEntity
  8
0
100
AcDbBlockBegin
  2
*Model_Space
 70
     0
 10
0.0
 20
0.0
 30
0.0
  3
*Model_Space
  1

  0
ENDBLK
  5
21
330
1F
100
AcDbEntity
  8
0
100
AcDbBlockEnd
  0
BLOCK
  5
1C
330
1B
100
AcDbEntity
 67
     1
  8
0
100
AcDbBlockBegin
  2
*Paper_Space
 70
     0
 10
0.0
 20
0.0
 30
0.0
  3
*Paper_Space
  1

  0
ENDBLK
  5
1D
330
1B
100
AcDbEntity
 67
     1
  8
0
100
AcDbBlockEnd
  0
BLOCK
  5
24
330
23
100
AcDbEntity
  8
0
100
AcDbBlockBegin
  2
*Paper_Space0
 70
     0
 10
0.0
 20
0.0
 30
0.0
  3
*Paper_Space0
  1

  0
ENDBLK
  5
25
330
23
100
AcDbEntity
  8
0
100
AcDbBlockEnd
  0
BLOCK
  5
65
330
64
100
AcDbEntity
  8
0
100
AcDbBlockBegin
  2
*D1
 70
     1
 10
0.0
 20
0.0
 30
0.0
  3
*D1
  1

  0
LINE
  5
67
330
64
100
AcDbEntity
  8
001
370
     9
100
AcDbLine
 10
192.446102
 20
134.282111
 30
0.0
 11
192.446102
 21
97.562265
 31
0.0
  0
LINE
  5
68
330
64
100
AcDbEntity
  8
001
370
     9
100
AcDbLine
 10
152.446102
 20
145.590122
 30
0.0
 11
152.446102
 21
97.562265
 31
0.0
  0
LINE
  5
69
330
64
100
AcDbEntity
  8
001
370
     9
100
AcDbLine
 10
192.446102
 20
99.762265
 30
0.0
 11
152.446102
 21
99.762265
 31
0.0
  0
POLYLINE
  5
6A
330
64
100
AcDbEntity
  8
001
370
     9
100
AcDb2dPolyline
 66
     1
 10
0.0
 20
0.0
 30
0.0
  0
VERTEX
  5
6C
330
6A
100
AcDbEntity
  8
001
370
     9
100
AcDbVertex
100
AcDb2dVertex
 10
191.246102
 20
100.083804
 30
0.0
  0
VERTEX
  5
6D
330
6A
100
AcDbEntity
  8
001
370
     9
100
AcDbVertex
100
AcDb2dVertex
 10
192.446102
 20
99.762265
 30
0.0
  0
VERTEX
  5
6E
330
6A
100
AcDbEntity
  8
001
370
     9
100
AcDbVertex
100
AcDb2dVertex
 10
191.246102
 20
99.440726
 30
0.0
  0
SEQEND
  5
6B
330
6A
100
AcDbEntity
  8
001
370
     9
  0
POLYLINE
  5
6F
330
64
100
AcDbEntity
  8
001
370
     9
100
AcDb2dPolyline
 66
     1
 10
0.0
 20
0.0
 30
0.0
  0
VERTEX
  5
71
330
6F
100
AcDbEntity
  8
001
370
     9
100
AcDbVertex
100
AcDb2dVertex
 10
153.646102
 20
99.440726
 30
0.0
  0
VERTEX
  5
72
330
6F
100
AcDbEntity
  8
001
370
     9
100
AcDbVertex
100
AcDb2dVertex
 10
152.446102
 20
99.762265
 30
0.0
  0
VERTEX
  5
73
330
6F
100
AcDbEntity
  8
001
370
     9
100
AcDbVertex
100
AcDb2dVertex
 10
153.646102
 20
100.083804
 30
0.0
  0
SEQEND
  5
70
330
6F
100
AcDbEntity
  8
001
370
     9
  0
TEXT
  5
74
330
64
100
AcDbEntity
  8
001
370
    30
100
AcDbText
 10
169.246102
 20
100.562265
 30
0.0
 40
3.2
  1
４０
 41
0.833333
100
AcDbText
  0
POINT
  5
75
330
64
100
AcDbEntity
  8
001
370
     9
100
AcDbPoint
 10
192.446102
 20
134.282111
 30
0.0
  0
POINT
  5
76
330
64
100
AcDbEntity
  8
001
370
     9
100
AcDbPoint
 10
152.446102
 20
145.590122
 30
0.0
  0
POINT
  5
77
330
64
100
AcDbEntity
  8
001
370
     9
100
AcDbPoint
 10
152.446102
 20
99.762265
 30
0.0
  0
ENDBLK
  5
66
330
64
100
AcDbEntity
  8
0
100
AcDbBlockEnd
  0
BLOCK
  5
79
330
78
100
AcDbEntity
  8
0
100
AcDbBlockBegin
  2
*D2
 70
     1
 10
0.0
 20
0.0
 30
0.0
  3
*D2
  1

  0
LINE
  5
7B
330
78
100
AcDbEntity
  8
001
370
     9
100
AcDbLine
 10
272.446102
 20
149.282111
 30
0.0
 11
272.446102
 21
97.562265
 31
0.0
  0
LINE
  5
7C
330
78
100
AcDbEntity
  8
001
370
     9
100
AcDbLine
 10
192.446102
 20
134.282111
 30
0.0
 11
192.446102
 21
97.562265
 31
0.0
  0
LINE
  5
7D
330
78
100
AcDbEntity
  8
001
370
     9
100
AcDbLine
 10
272.446102
 20
99.762265
 30
0.0
 11
192.446102
 21
99.762265
 31
0.0
  0
POLYLINE
  5
7E
330
78
100
AcDbEntity
  8
001
370
     9
100
AcDb2dPolyline
 66
     1
 10
0.0
 20
0.0
 30
0.0
  0
VERTEX
  5
80
330
7E
100
AcDbEntity
  8
001
370
     9
100
AcDbVertex
100
AcDb2dVertex
 10
271.246102
 20
100.083804
 30
0.0
  0
VERTEX
  5
81
330
7E
100
AcDbEntity
  8
001
370
     9
100
AcDbVertex
100
AcDb2dVertex
 10
272.446102
 20
99.762265
 30
0.0
  0
VERTEX
  5
82
330
7E
100
AcDbEntity
  8
001
370
     9
100
AcDbVertex
100
AcDb2dVertex
 10
271.246102
 20
99.440726
 30
0.0
  0
SEQEND
  5
7F
330
7E
100
AcDbEntity
  8
001
370
     9
  0
POLYLINE
  5
83
330
78
100
AcDbEntity
  8
001
370
     9
100
AcDb2dPolyline
 66
     1
 10
0.0
 20
0.0
 30
0.0
  0
VERTEX
  5
85
330
83
100
AcDbEntity
  8
001
370
     9
100
AcDbVertex
100
AcDb2dVertex
 10
193.646102
 20
99.440726
 30
0.0
  0
VERTEX
  5
86
330
83
100
AcDbEntity
  8
001
370
     9
100
AcDbVertex
100
AcDb2dVertex
 10
192.446102
 20
99.762265
 30
0.0
  0
VERTEX
  5
87
330
83
100
AcDbEntity
  8
001
370
     9
100
AcDbVertex
100
AcDb2dVertex
 10
193.646102
 20
100.083804
 30
0.0
  0
SEQEND
  5
84
330
83
100
AcDbEntity
  8
001
370
     9
  0
TEXT
  5
88
330
78
100
AcDbEntity
  8
001
370
    30
100
AcDbText
 10
229.246102
 20
100.562265
 30
0.0
 40
3.2
  1
８０
 41
0.833333
100
AcDbText
  0
POINT
  5
89
330
78
100
AcDbEntity
  8
001
370
     9
100
AcDbPoint
 10
272.446102
 20
149.282111
 30
0.0
  0
POINT
  5
8A
330
78
100
AcDbEntity
  8
001
370
     9
100
AcDbPoint
 10
192.446102
 20
134.282111
 30
0.0
  0
POINT
  5
8B
330
78
100
AcDbEntity
  8
001
370
     9
100
AcDbPoint
 10
192.446102
 20
99.762265
 30
0.0
  0
ENDBLK
  5
7A
330
78
100
AcDbEntity
  8
0
100
AcDbBlockEnd
  0
BLOCK
  5
8D
330
8C
100
AcDbEntity
  8
0
100
AcDbBlockBegin
  2
*D3
 70
     1
 10
0.0
 20
0.0
 30
0.0
  3
*D3
  1

  0
LINE
  5
8F
330
8C
100
AcDbEntity
  8
001
370
     9
100
AcDbLine
 10
272.446102
 20
149.282111
 30
0.0
 11
272.446102
 21
89.892503
 31
0.0
  0
LINE
  5
90
330
8C
100
AcDbEntity
  8
001
370
     9
100
AcDbLine
 10
152.446102
 20
145.590122
 30
0.0
 11
152.446102
 21
89.892503
 31
0.0
  0
LINE
  5
91
330
8C
100
AcDbEntity
  8
001
370
     9
100
AcDbLine
 10
272.446102
 20
92.092503
 30
0.0
 11
152.446102
 21
92.092503
 31
0.0
  0
POLYLINE
  5
92
330
8C
100
AcDbEntity
  8
001
370
     9
100
AcDb2dPolyline
 66
     1
 10
0.0
 20
0.0
 30
0.0
  0
VERTEX
  5
94
330
92
100
AcDbEntity
  8
001
370
     9
100
AcDbVertex
100
AcDb2dVertex
 10
271.246102
 20
92.414042
 30
0.0
  0
VERTEX
  5
95
330
92
100
AcDbEntity
  8
001
370
     9
100
AcDbVertex
100
AcDb2dVertex
 10
272.446102
 20
92.092503
 30
0.0
  0
VERTEX
  5
96
330
92
100
AcDbEntity
  8
001
370
     9
100
AcDbVertex
100
AcDb2dVertex
 10
271.246102
 20
91.770964
 30
0.0
  0
SEQEND
  5
93
330
92
100
AcDbEntity
  8
001
370
     9
  0
POLYLINE
  5
97
330
8C
100
AcDbEntity
  8
001
370
     9
100
AcDb2dPolyline
 66
     1
 10
0.0
 20
0.0
 30
0.0
  0
VERTEX
  5
99
330
97
100
AcDbEntity
  8
001
370
     9
100
AcDbVertex
100
AcDb2dVertex
 10
153.646102
 20
91.770964
 30
0.0
  0
VERTEX
  5
9A
330
97
100
AcDbEntity
  8
001
370
     9
100
AcDbVertex
100
AcDb2dVertex
 10
152.446102
 20
92.092503
 30
0.0
  0
VERTEX
  5
9B
330
97
100
AcDbEntity
  8
001
370
     9
100
AcDbVertex
100
AcDb2dVertex
 10
153.646102
 20
92.414042
 30
0.0
  0
SEQEND
  5
98
330
97
100
AcDbEntity
  8
001
370
     9
  0
TEXT
  5
9C
330
8C
100
AcDbEntity
  8
001
370
    30
100
AcDbText
 10
207.646102
 20
92.892503
 30
0.0
 40
3.2
  1
１２０
 41
0.833333
100
AcDbText
  0
POINT
  5
9D
330
8C
100
AcDbEntity
  8
001
370
     9
100
AcDbPoint
 10
272.446102
 20
149.282111
 30
0.0
  0
POINT
  5
9E
330
8C
100
AcDbEntity
  8
001
370
     9
100
AcDbPoint
 10
152.446102
 20
145.590122
 30
0.0
  0
POINT
  5
9F
330
8C
100
AcDbEntity
  8
001
370
     9
100
AcDbPoint
 10
152.446102
 20
92.092503
 30
0.0
  0
ENDBLK
  5
8E
330
8C
100
AcDbEntity
  8
0
100
AcDbBlockEnd
  0
BLOCK
  5
A1
330
A0
100
AcDbEntity
  8
0
100
AcDbBlockBegin
  2
*D4
 70
     1
 10
0.0
 20
0.0
 30
0.0
  3
*D4
  1

  0
LINE
  5
A3
330
A0
100
AcDbEntity
  8
001
370
     9
100
AcDbLine
 10
169.333733
 20
128.477767
 30
0.0
 11
184.243608
 21
113.544309
 31
0.0
  0
LINE
  5
A4
330
A0
100
AcDbEntity
  8
001
370
     9
100
AcDbLine
 10
152.446102
 20
115.74586
 30
0.0
 11
152.446102
 21
100.388068
 31
0.0
  0
ARC
  5
A5
330
A0
100
AcDbEntity
  8
001
370
     9
100
AcDbCircle
 10
152.446102
 20
145.392111
 30
0.0
 40
42.25404242178251
100
AcDbArc
 50
270.0
 51
314.954722
  0
POLYLINE
  5
A6
330
A0
100
AcDbEntity
  8
001
370
     9
100
AcDb2dPolyline
 66
     1
 10
0.0
 20
0.0
 30
0.0
  0
VERTEX
  5
A8
330
A6
100
AcDbEntity
  8
001
370
     9
100
AcDbVertex
100
AcDb2dVertex
 10
180.941574
 20
114.738997
 30
0.0
  0
VERTEX
  5
A9
330
A6
100
AcDbEntity
  8
001
370
     9
100
AcDbVertex
100
AcDb2dVertex
 10
182.300601
 20
115.490389
 30
0.0
  0
VERTEX
  5
AA
330
A6
100
AcDbEntity
  8
001
370
     9
100
AcDbVertex
100
AcDb2dVertex
 10
181.499345
 20
114.160151
 30
0.0
  0
SEQEND
  5
A7
330
A6
100
AcDbEntity
  8
001
370
     9
  0
POLYLINE
  5
AB
330
A0
100
AcDbEntity
  8
001
370
     9
100
AcDb2dPolyline
 66
     1
 10
0.0
 20
0.0
 30
0.0
  0
VERTEX
  5
AD
330
AB
100
AcDbEntity
  8
001
370
     9
100
AcDbVertex
100
AcDb2dVertex
 10
153.952999
 20
102.762831
 30
0.0
  0
VERTEX
  5
AE
330
AB
100
AcDbEntity
  8
001
370
     9
100
AcDbVertex
100
AcDb2dVertex
 10
152.446102
 20
103.138068
 30
0.0
  0
VERTEX
  5
AF
330
AB
100
AcDbEntity
  8
001
370
     9
100
AcDbVertex
100
AcDb2dVertex
 10
153.938732
 20
103.566552
 30
0.0
  0
SEQEND
  5
AC
330
AB
100
AcDbEntity
  8
001
370
     9
  0
TEXT
  5
B0
330
A0
100
AcDbEntity
  8
001
370
    30
100
AcDbText
 10
162.674095
 20
104.9782
 30
0.0
 40
4.0
  1
４５%%d
 50
22.477362
 41
0.978261
100
AcDbText
  0
POINT
  5
B1
330
A0
100
AcDbEntity
  8
001
370
     9
100
AcDbPoint
 10
169.333733
 20
128.477767
 30
0.0
  0
POINT
  5
B2
330
A0
100
AcDbEntity
  8
001
370
     9
100
AcDbPoint
 10
152.446102
 20
145.392111
 30
0.0
  0
POINT
  5
B3
330
A0
100
AcDbEntity
  8
001
370
     9
100
AcDbPoint
 10
152.446102
 20
145.392111
 30
0.0
  0
POINT
  5
B4
330
A0
100
AcDbEntity
  8
001
370
     9
100
AcDbPoint
 10
152.446102
 20
115.74586
 30
0.0
  0
ENDBLK
  5
A2
330
A0
100
AcDbEntity
  8
0
100
AcDbBlockEnd
  0
BLOCK
  5
B6
330
B5
100
AcDbEntity
  8
0
100
AcDbBlockBegin
  2
*D5
 70
     1
 10
0.0
 20
0.0
 30
0.0
  3
*D5
  1

  0
LINE
  5
B8
330
B5
100
AcDbEntity
  8
001
370
     9
100
AcDbLine
 10
169.643899
 20
128.167111
 30
0.0
 11
169.643899
 21
112.99586
 31
0.0
  0
LINE
  5
B9
330
B5
100
AcDbEntity
  8
001
370
     9
100
AcDbLine
 10
152.446102
 20
145.392111
 30
0.0
 11
152.446102
 21
112.99586
 31
0.0
  0
LINE
  5
BA
330
B5
100
AcDbEntity
  8
001
370
     9
100
AcDbLine
 10
169.643899
 20
115.74586
 30
0.0
 11
152.446102
 21
115.74586
 31
0.0
  0
POLYLINE
  5
BB
330
B5
100
AcDbEntity
  8
001
370
     9
100
AcDb2dPolyline
 66
     1
 10
0.0
 20
0.0
 30
0.0
  0
VERTEX
  5
BD
330
BB
100
AcDbEntity
  8
001
370
     9
100
AcDbVertex
100
AcDb2dVertex
 10
171.143899
 20
115.343937
 30
0.0
  0
VERTEX
  5
BE
330
BB
100
AcDbEntity
  8
001
370
     9
100
AcDbVertex
100
AcDb2dVertex
 10
169.643899
 20
115.74586
 30
0.0
  0
VERTEX
  5
BF
330
BB
100
AcDbEntity
  8
001
370
     9
100
AcDbVertex
100
AcDb2dVertex
 10
171.143899
 20
116.147784
 30
0.0
  0
SEQEND
  5
BC
330
BB
100
AcDbEntity
  8
001
370
     9
  0
POLYLINE
  5
C0
330
B5
100
AcDbEntity
  8
001
370
     9
100
AcDb2dPolyline
 66
     1
 10
0.0
 20
0.0
 30
0.0
  0
VERTEX
  5
C2
330
C0
100
AcDbEntity
  8
001
370
     9
100
AcDbVertex
100
AcDb2dVertex
 10
150.946102
 20
116.147784
 30
0.0
  0
VERTEX
  5
C3
330
C0
100
AcDbEntity
  8
001
370
     9
100
AcDbVertex
100
AcDb2dVertex
 10
152.446102
 20
115.74586
 30
0.0
  0
VERTEX
  5
C4
330
C0
100
AcDbEntity
  8
001
370
     9
100
AcDbVertex
100
AcDb2dVertex
 10
150.946102
 20
115.343937
 30
0.0
  0
SEQEND
  5
C1
330
C0
100
AcDbEntity
  8
001
370
     9
  0
TEXT
  5
C5
330
B5
100
AcDbEntity
  8
001
370
    30
100
AcDbText
 10
124.946102
 20
116.74586
 30
0.0
 40
4.0
  1
（１７．２）
 41
0.833333
100
AcDbText
  0
POINT
  5
C6
330
B5
100
AcDbEntity
  8
001
370
     9
100
AcDbPoint
 10
169.643899
 20
128.167111
 30
0.0
  0
POINT
  5
C7
330
B5
100
AcDbEntity
  8
001
370
     9
100
AcDbPoint
 10
152.446102
 20
145.392111
 30
0.0
  0
POINT
  5
C8
330
B5
100
AcDbEntity
  8
001
370
     9
100
AcDbPoint
 10
152.446102
 20
115.74586
 30
0.0
  0
LINE
  5
C9
330
B5
100
AcDbEntity
  8
001
370
     9
100
AcDbLine
 10
169.643899
 20
115.74586
 30
0.0
 11
172.143899
 21
115.74586
 31
0.0
  0
LINE
  5
CA
330
B5
100
AcDbEntity
  8
001
370
     9
100
AcDbLine
 10
152.446102
 20
115.74586
 30
0.0
 11
121.946102
 21
115.74586
 31
0.0
  0
ENDBLK
  5
B7
330
B5
100
AcDbEntity
  8
0
100
AcDbBlockEnd
  0
BLOCK
  5
CC
330
CB
100
AcDbEntity
  8
0
100
AcDbBlockBegin
  2
*D6
 70
     1
 10
0.0
 20
0.0
 30
0.0
  3
*D6
  1

  0
LINE
  5
CE
330
CB
100
AcDbEntity
  8
001
370
     9
100
AcDbLine
 10
264.446102
 20
173.282111
 30
0.0
 11
293.282814
 21
173.282111
 31
0.0
  0
LINE
  5
CF
330
CB
100
AcDbEntity
  8
001
370
     9
100
AcDbLine
 10
264.446102
 20
141.282111
 30
0.0
 11
293.282814
 21
141.282111
 31
0.0
  0
LINE
  5
D0
330
CB
100
AcDbEntity
  8
001
370
     9
100
AcDbLine
 10
290.532814
 20
173.282111
 30
0.0
 11
290.532814
 21
141.282111
 31
0.0
  0
POLYLINE
  5
D1
330
CB
100
AcDbEntity
  8
001
370
     9
100
AcDb2dPolyline
 66
     1
 10
0.0
 20
0.0
 30
0.0
  0
VERTEX
  5
D3
330
D1
100
AcDbEntity
  8
001
370
     9
100
AcDbVertex
100
AcDb2dVertex
 10
290.13089
 20
171.782111
 30
0.0
  0
VERTEX
  5
D4
330
D1
100
AcDbEntity
  8
001
370
     9
100
AcDbVertex
100
AcDb2dVertex
 10
290.532814
 20
173.282111
 30
0.0
  0
VERTEX
  5
D5
330
D1
100
AcDbEntity
  8
001
370
     9
100
AcDbVertex
100
AcDb2dVertex
 10
290.934738
 20
171.782111
 30
0.0
  0
SEQEND
  5
D2
330
D1
100
AcDbEntity
  8
001
370
     9
  0
POLYLINE
  5
D6
330
CB
100
AcDbEntity
  8
001
370
     9
100
AcDb2dPolyline
 66
     1
 10
0.0
 20
0.0
 30
0.0
  0
VERTEX
  5
D8
330
D6
100
AcDbEntity
  8
001
370
     9
100
AcDbVertex
100
AcDb2dVertex
 10
290.934738
 20
142.782111
 30
0.0
  0
VERTEX
  5
D9
330
D6
100
AcDbEntity
  8
001
370
     9
100
AcDbVertex
100
AcDb2dVertex
 10
290.532814
 20
141.282111
 30
0.0
  0
VERTEX
  5
DA
330
D6
100
AcDbEntity
  8
001
370
     9
100
AcDbVertex
100
AcDb2dVertex
 10
290.13089
 20
142.782111
 30
0.0
  0
SEQEND
  5
D7
330
D6
100
AcDbEntity
  8
001
370
     9
  0
TEXT
  5
DB
330
CB
100
AcDbEntity
  8
001
370
    30
100
AcDbText
 10
289.532814
 20
151.282111
 30
0.0
 40
4.0
  1
%%c３２
 50
90.000003
 41
0.882353
100
AcDbText
  0
POINT
  5
DC
330
CB
100
AcDbEntity
  8
001
370
     9
100
AcDbPoint
 10
264.446102
 20
173.282111
 30
0.0
  0
POINT
  5
DD
330
CB
100
AcDbEntity
  8
001
370
     9
100
AcDbPoint
 10
264.446102
 20
141.282111
 30
0.0
  0
POINT
  5
DE
330
CB
100
AcDbEntity
  8
001
370
     9
100
AcDbPoint
 10
290.532814
 20
141.282111
 30
0.0
  0
ENDBLK
  5
CD
330
CB
100
AcDbEntity
  8
0
100
AcDbBlockEnd
  0
ENDSEC
  0
SECTION
  2
ENTITIES
  0
DIMENSION
  5
DF
330
1F
100
AcDbEntity
  8
001
370
     9
100
AcDbDimension
  2
*D1
 10
152.446102
 20
99.762265
 30
0.0
 11
172.446102
 21
102.162265
 31
0.0
 70
   160
 71
     5
 42
-1.0
  3
Standard
100
AcDbAlignedDimension
 13
192.446102
 23
134.282111
 33
0.0
 14
152.446102
 24
145.590122
 34
0.0
 50
180.0
100
AcDbRotatedDimension
  0
DIMENSION
  5
E0
330
1F
100
AcDbEntity
  8
001
370
     9
100
AcDbDimension
  2
*D2
 10
192.446102
 20
99.762265
 30
0.0
 11
232.446102
 21
102.162265
 31
0.0
 70
   160
 71
     5
 42
-1.0
  3
Standard
100
AcDbAlignedDimension
 13
272.446102
 23
149.282111
 33
0.0
 14
192.446102
 24
134.282111
 34
0.0
 50
180.0
100
AcDbRotatedDimension
  0
DIMENSION
  5
E1
330
1F
100
AcDbEntity
  8
001
370
     9
100
AcDbDimension
  2
*D3
 10
152.446102
 20
92.092503
 30
0.0
 11
212.446102
 21
94.492503
 31
0.0
 70
   160
 71
     5
 42
-1.0
  3
Standard
100
AcDbAlignedDimension
 13
272.446102
 23
149.282111
 33
0.0
 14
152.446102
 24
145.590122
 34
0.0
 50
180.0
100
AcDbRotatedDimension
  0
DIMENSION
  5
E2
330
1F
100
AcDbEntity
  8
001
370
     9
100
AcDbDimension
  2
*D4
 10
152.446102
 20
145.392111
 30
0.0
 11
167.453643
 21
109.120172
 31
0.0
 70
    34
 71
     5
 42
-1.0
  3
Standard
100
AcDb2LineAngularDimension
 13
169.333733
 23
128.477767
 33
0.0
 14
152.446102
 24
145.392111
 34
0.0
 15
152.446102
 25
115.74586
 35
0.0
 16
168.600598
 26
106.348079
 36
0.0
  0
TEXT
  5
E3
330
1F
100
AcDbEntity
  8
001
370
    30
100
AcDbText
 10
124.796799
 20
145.28211
 30
0.0
 40
4.0
  1
%%c５８．２３
 50
90.000003
 41
0.857143
100
AcDbText
  0
POLYLINE
  5
E4
330
1F
100
AcDbEntity
  8
001
370
     9
100
AcDb2dPolyline
 66
     1
 10
0.0
 20
0.0
 30
0.0
  0
VERTEX
  5
E6
330
E4
100
AcDbEntity
  8
001
370
     9
100
AcDbVertex
100
AcDb2dVertex
 10
126.198723
 20
129.667111
 30
0.0
  0
VERTEX
  5
E7
330
E4
100
AcDbEntity
  8
001
370
     9
100
AcDbVertex
100
AcDb2dVertex
 10
125.796799
 20
128.167111
 30
0.0
  0
VERTEX
  5
E8
330
E4
100
AcDbEntity
  8
001
370
     9
100
AcDbVertex
100
AcDb2dVertex
 10
125.394875
 20
129.667111
 30
0.0
  0
SEQEND
  5
E5
330
E4
100
AcDbEntity
  8
001
370
     9
  0
LINE
  5
E9
330
1F
100
AcDbEntity
  8
001
370
     9
100
AcDbLine
 10
125.796799
 20
128.167111
 30
0.0
 11
125.796799
 21
186.39711
 31
0.0
  0
POLYLINE
  5
EA
330
1F
100
AcDbEntity
  8
001
370
     9
100
AcDb2dPolyline
 66
     1
 10
0.0
 20
0.0
 30
0.0
  0
VERTEX
  5
EC
330
EA
100
AcDbEntity
  8
001
370
     9
100
AcDbVertex
100
AcDb2dVertex
 10
169.643899
 20
128.167111
 30
0.0
  0
VERTEX
  5
ED
330
EA
100
AcDbEntity
  8
001
370
     9
100
AcDbVertex
100
AcDb2dVertex
 10
125.796799
 20
128.167111
 30
0.0
  0
VERTEX
  5
EE
330
EA
100
AcDbEntity
  8
001
370
     9
100
AcDbVertex
100
AcDb2dVertex
 10
123.046799
 20
128.167111
 30
0.0
  0
SEQEND
  5
EB
330
EA
100
AcDbEntity
  8
001
370
     9
  0
TEXT
  5
EF
330
1F
100
AcDbEntity
  8
001
370
    30
100
AcDbText
 10
135.031873
 20
145.653014
 30
0.0
 40
4.0
  1
%%c２３．７８
 50
90.000003
 41
0.857143
100
AcDbText
  0
POLYLINE
  5
F0
330
1F
100
AcDbEntity
  8
001
370
     9
100
AcDb2dPolyline
 66
     1
 10
0.0
 20
0.0
 30
0.0
  0
VERTEX
  5
F2
330
F0
100
AcDbEntity
  8
001
370
     9
100
AcDbVertex
100
AcDb2dVertex
 10
136.433796
 20
146.892111
 30
0.0
  0
VERTEX
  5
F3
330
F0
100
AcDbEntity
  8
001
370
     9
100
AcDbVertex
100
AcDb2dVertex
 10
136.031873
 20
145.392111
 30
0.0
  0
VERTEX
  5
F4
330
F0
100
AcDbEntity
  8
001
370
     9
100
AcDbVertex
100
AcDb2dVertex
 10
135.629949
 20
146.892111
 30
0.0
  0
SEQEND
  5
F1
330
F0
100
AcDbEntity
  8
001
370
     9
  0
LINE
  5
F5
330
1F
100
AcDbEntity
  8
001
370
     9
100
AcDbLine
 10
136.031873
 20
169.172111
 30
0.0
 11
136.031873
 21
145.392111
 31
0.0
  0
POLYLINE
  5
F6
330
1F
100
AcDbEntity
  8
001
370
     9
100
AcDb2dPolyline
 66
     1
 10
0.0
 20
0.0
 30
0.0
  0
VERTEX
  5
F8
330
F6
100
AcDbEntity
  8
001
370
     9
100
AcDbVertex
100
AcDb2dVertex
 10
152.446102
 20
145.392111
 30
0.0
  0
VERTEX
  5
F9
330
F6
100
AcDbEntity
  8
001
370
     9
100
AcDbVertex
100
AcDb2dVertex
 10
136.031873
 20
145.392111
 30
0.0
  0
VERTEX
  5
FA
330
F6
100
AcDbEntity
  8
001
370
     9
100
AcDbVertex
100
AcDb2dVertex
 10
133.281873
 20
145.392111
 30
0.0
  0
SEQEND
  5
F7
330
F6
100
AcDbEntity
  8
001
370
     9
  0
DIMENSION
  5
FB
330
1F
100
AcDbEntity
  8
001
370
     9
100
AcDbDimension
  2
*D5
 10
152.446102
 20
115.74586
 30
0.0
 11
136.946102
 21
118.74586
 31
0.0
 70
   160
 71
     5
 42
-1.0
  3
Standard
100
AcDbAlignedDimension
 13
169.643899
 23
128.167111
 33
0.0
 14
152.446102
 24
145.392111
 34
0.0
 50
180.0
100
AcDbRotatedDimension
  0
DIMENSION
  5
FC
330
1F
100
AcDbEntity
  8
001
370
     9
100
AcDbDimension
  2
*D6
 10
290.532814
 20
141.282111
 30
0.0
 11
287.532813
 21
157.28211
 31
0.0
 70
   160
 71
     5
 42
-1.0
  3
Standard
100
AcDbAlignedDimension
 13
264.446102
 23
173.282111
 33
0.0
 14
264.446102
 24
141.282111
 34
0.0
 50
270.0
100
AcDbRotatedDimension
  0
POLYLINE
  5
FD
330
1F
100
AcDbEntity
  8
001
370
    50
100
AcDb2dPolyline
 66
     1
 10
0.0
 20
0.0
 30
0.0
  0
VERTEX
  5
FF
330
FD
100
AcDbEntity
  8
001
370
    50
100
AcDbVertex
100
AcDb2dVertex
 10
165.647018
 20
156.157297
 30
0.0
  0
VERTEX
  5
100
330
FD
100
AcDbEntity
  8
001
370
    50
100
AcDbVertex
100
AcDb2dVertex
 10
165.522293
 20
156.216751
 30
0.0
  0
VERTEX
  5
101
330
FD
100
AcDbEntity
  8
001
370
    50
100
AcDbVertex
100
AcDb2dVertex
 10
165.400311
 20
156.281768
 30
0.0
  0
VERTEX
  5
102
330
FD
100
AcDbEntity
  8
001
370
    50
100
AcDbVertex
100
AcDb2dVertex
 10
165.23171
 20
156.395922
 30
0.0
  0
VERTEX
  5
103
330
FD
100
AcDbEntity
  8
001
370
    50
100
AcDbVertex
100
AcDb2dVertex
 10
165.082186
 20
156.533506
 30
0.0
  0
VERTEX
  5
104
330
FD
100
AcDbEntity
  8
001
370
    50
100
AcDbVertex
100
AcDb2dVertex
 10
165.072658
 20
156.543939
 30
0.0
  0
VERTEX
  5
105
330
FD
100
AcDbEntity
  8
001
370
    50
100
AcDbVertex
100
AcDb2dVertex
 10
165.063193
 20
156.554426
 30
0.0
  0
SEQEND
  5
FE
330
FD
100
AcDbEntity
  8
001
370
    50
  0
POLYLINE
  5
106
330
1F
100
AcDbEntity
  8
001
370
    50
100
AcDb2dPolyline
 66
     1
 10
0.0
 20
0.0
 30
0.0
  0
VERTEX
  5
108
330
106
100
AcDbEntity
  8
001
370
    50
100
AcDbVertex
100
AcDb2dVertex
 10
166.111083
 20
155.955259
 30
0.0
  0
VERTEX
  5
109
330
106
100
AcDbEntity
  8
001
370
    50
100
AcDbVertex
100
AcDb2dVertex
 10
166.19188
 20
155.923141
 30
0.0
  0
VERTEX
  5
10A
330
106
100
AcDbEntity
  8
001
370
    50
100
AcDbVertex
100
AcDb2dVertex
 10
166.273237
 20
155.892562
 30
0.0
  0
VERTEX
  5
10B
330
106
100
AcDbEntity
  8
001
370
    50
100
AcDbVertex
100
AcDb2dVertex
 10
166.499304
 20
155.823645
 30
0.0
  0
VERTEX
  5
10C
330
106
100
AcDbEntity
  8
001
370
    50
100
AcDbVertex
100
AcDb2dVertex
 10
166.730619
 20
155.773569
 30
0.0
  0
VERTEX
  5
10D
330
106
100
AcDbEntity
  8
001
370
    50
100
AcDbVertex
100
AcDb2dVertex
 10
166.97947
 20
155.737195
 30
0.0
  0
VERTEX
  5
10E
330
106
100
AcDbEntity
  8
001
370
    50
100
AcDbVertex
100
AcDb2dVertex
 10
167.230023
 20
155.716527
 30
0.0
  0
VERTEX
  5
10F
330
106
100
AcDbEntity
  8
001
370
    50
100
AcDbVertex
100
AcDb2dVertex
 10
167.500852
 20
155.710678
 30
0.0
  0
VERTEX
  5
110
330
106
100
AcDbEntity
  8
001
370
    50
100
AcDbVertex
100
AcDb2dVertex
 10
167.771448
 20
155.721437
 30
0.0
  0
VERTEX
  5
111
330
106
100
AcDbEntity
  8
001
370
    50
100
AcDbVertex
100
AcDb2dVertex
 10
168.063616
 20
155.750052
 30
0.0
  0
VERTEX
  5
112
330
106
100
AcDbEntity
  8
001
370
    50
100
AcDbVertex
100
AcDb2dVertex
 10
168.354896
 20
155.788297
 30
0.0
  0
SEQEND
  5
107
330
106
100
AcDbEntity
  8
001
370
    50
  0
POLYLINE
  5
113
330
1F
100
AcDbEntity
  8
001
370
    50
100
AcDb2dPolyline
 66
     1
 10
0.0
 20
0.0
 30
0.0
  0
VERTEX
  5
115
330
113
100
AcDbEntity
  8
001
370
    50
100
AcDbVertex
100
AcDb2dVertex
 10
170.941554
 20
156.987514
 30
0.0
  0
VERTEX
  5
116
330
113
100
AcDbEntity
  8
001
370
    50
100
AcDbVertex
100
AcDb2dVertex
 10
171.00986
 20
157.068606
 30
0.0
  0
VERTEX
  5
117
330
113
100
AcDbEntity
  8
001
370
    50
100
AcDbVertex
100
AcDb2dVertex
 10
171.075315
 20
157.152023
 30
0.0
  0
VERTEX
  5
118
330
113
100
AcDbEntity
  8
001
370
    50
100
AcDbVertex
100
AcDb2dVertex
 10
171.17182
 20
157.301074
 30
0.0
  0
VERTEX
  5
119
330
113
100
AcDbEntity
  8
001
370
    50
100
AcDbVertex
100
AcDb2dVertex
 10
171.246571
 20
157.46233
 30
0.0
  0
VERTEX
  5
11A
330
113
100
AcDbEntity
  8
001
370
    50
100
AcDbVertex
100
AcDb2dVertex
 10
171.288713
 20
157.610054
 30
0.0
  0
VERTEX
  5
11B
330
113
100
AcDbEntity
  8
001
370
    50
100
AcDbVertex
100
AcDb2dVertex
 10
171.304253
 20
157.762503
 30
0.0
  0
VERTEX
  5
11C
330
113
100
AcDbEntity
  8
001
370
    50
100
AcDbVertex
100
AcDb2dVertex
 10
171.290191
 20
157.906081
 30
0.0
  0
VERTEX
  5
11D
330
113
100
AcDbEntity
  8
001
370
    50
100
AcDbVertex
100
AcDb2dVertex
 10
171.248269
 20
158.044082
 30
0.0
  0
VERTEX
  5
11E
330
113
100
AcDbEntity
  8
001
370
    50
100
AcDbVertex
100
AcDb2dVertex
 10
171.174924
 20
158.179134
 30
0.0
  0
VERTEX
  5
11F
330
113
100
AcDbEntity
  8
001
370
    50
100
AcDbVertex
100
AcDb2dVertex
 10
171.078526
 20
158.299337
 30
0.0
  0
VERTEX
  5
120
330
113
100
AcDbEntity
  8
001
370
    50
100
AcDbVertex
100
AcDb2dVertex
 10
170.949842
 20
158.4169
 30
0.0
  0
VERTEX
  5
121
330
113
100
AcDbEntity
  8
001
370
    50
100
AcDbVertex
100
AcDb2dVertex
 10
170.806401
 20
158.515958
 30
0.0
  0
VERTEX
  5
122
330
113
100
AcDbEntity
  8
001
370
    50
100
AcDbVertex
100
AcDb2dVertex
 10
170.62858
 20
158.60975
 30
0.0
  0
VERTEX
  5
123
330
113
100
AcDbEntity
  8
001
370
    50
100
AcDbVertex
100
AcDb2dVertex
 10
170.441658
 20
158.683358
 30
0.0
  0
VERTEX
  5
124
330
113
100
AcDbEntity
  8
001
370
    50
100
AcDbVertex
100
AcDb2dVertex
 10
170.227897
 20
158.744901
 30
0.0
  0
VERTEX
  5
125
330
113
100
AcDbEntity
  8
001
370
    50
100
AcDbVertex
100
AcDb2dVertex
 10
170.010808
 20
158.795038
 30
0.0
  0
SEQEND
  5
114
330
113
100
AcDbEntity
  8
001
370
    50
  0
POLYLINE
  5
126
330
1F
100
AcDbEntity
  8
001
370
    50
100
AcDb2dPolyline
 66
     1
 10
0.0
 20
0.0
 30
0.0
  0
VERTEX
  5
128
330
126
100
AcDbEntity
  8
001
370
    50
100
AcDbVertex
100
AcDb2dVertex
 10
165.413666
 20
156.70549
 30
0.0
  0
VERTEX
  5
129
330
126
100
AcDbEntity
  8
001
370
    50
100
AcDbVertex
100
AcDb2dVertex
 10
165.435224
 20
156.616964
 30
0.0
  0
VERTEX
  5
12A
330
126
100
AcDbEntity
  8
001
370
    50
100
AcDbVertex
100
AcDb2dVertex
 10
165.463226
 20
156.530876
 30
0.0
  0
VERTEX
  5
12B
330
126
100
AcDbEntity
  8
001
370
    50
100
AcDbVertex
100
AcDb2dVertex
 10
165.536176
 20
156.395778
 30
0.0
  0
VERTEX
  5
12C
330
126
100
AcDbEntity
  8
001
370
    50
100
AcDbVertex
100
AcDb2dVertex
 10
165.634187
 20
156.275671
 30
0.0
  0
VERTEX
  5
12D
330
126
100
AcDbEntity
  8
001
370
    50
100
AcDbVertex
100
AcDb2dVertex
 10
165.71691
 20
156.196581
 30
0.0
  0
VERTEX
  5
12E
330
126
100
AcDbEntity
  8
001
370
    50
100
AcDbVertex
100
AcDb2dVertex
 10
165.806224
 20
156.125721
 30
0.0
  0
VERTEX
  5
12F
330
126
100
AcDbEntity
  8
001
370
    50
100
AcDbVertex
100
AcDb2dVertex
 10
165.909992
 20
156.057369
 30
0.0
  0
VERTEX
  5
130
330
126
100
AcDbEntity
  8
001
370
    50
100
AcDbVertex
100
AcDb2dVertex
 10
166.019241
 20
155.998018
 30
0.0
  0
VERTEX
  5
131
330
126
100
AcDbEntity
  8
001
370
    50
100
AcDbVertex
100
AcDb2dVertex
 10
166.064996
 20
155.976265
 30
0.0
  0
VERTEX
  5
132
330
126
100
AcDbEntity
  8
001
370
    50
100
AcDbVertex
100
AcDb2dVertex
 10
166.111083
 20
155.955259
 30
0.0
  0
SEQEND
  5
127
330
126
100
AcDbEntity
  8
001
370
    50
  0
POLYLINE
  5
133
330
1F
100
AcDbEntity
  8
001
370
    50
100
AcDb2dPolyline
 66
     1
 10
0.0
 20
0.0
 30
0.0
  0
VERTEX
  5
135
330
133
100
AcDbEntity
  8
001
370
    50
100
AcDbVertex
100
AcDb2dVertex
 10
165.648161
 20
156.157649
 30
0.0
  0
VERTEX
  5
136
330
133
100
AcDbEntity
  8
001
370
    50
100
AcDbVertex
100
AcDb2dVertex
 10
165.764026
 20
156.107043
 30
0.0
  0
VERTEX
  5
137
330
133
100
AcDbEntity
  8
001
370
    50
100
AcDbVertex
100
AcDb2dVertex
 10
165.87989
 20
156.056437
 30
0.0
  0
VERTEX
  5
138
330
133
100
AcDbEntity
  8
001
370
    50
100
AcDbVertex
100
AcDb2dVertex
 10
165.99576
 20
156.005829
 30
0.0
  0
VERTEX
  5
139
330
133
100
AcDbEntity
  8
001
370
    50
100
AcDbVertex
100
AcDb2dVertex
 10
166.11163
 20
155.955221
 30
0.0
  0
SEQEND
  5
134
330
133
100
AcDbEntity
  8
001
370
    50
  0
POLYLINE
  5
13A
330
1F
100
AcDbEntity
  8
001
370
    50
100
AcDb2dPolyline
 66
     1
 10
0.0
 20
0.0
 30
0.0
  0
VERTEX
  5
13C
330
13A
100
AcDbEntity
  8
001
370
    50
100
AcDbVertex
100
AcDb2dVertex
 10
170.942287
 20
156.988734
 30
0.0
  0
VERTEX
  5
13D
330
13A
100
AcDbEntity
  8
001
370
    50
100
AcDbVertex
100
AcDb2dVertex
 10
171.027178
 20
157.082692
 30
0.0
  0
VERTEX
  5
13E
330
13A
100
AcDbEntity
  8
001
370
    50
100
AcDbVertex
100
AcDb2dVertex
 10
171.112068
 20
157.17665
 30
0.0
  0
VERTEX
  5
13F
330
13A
100
AcDbEntity
  8
001
370
    50
100
AcDbVertex
100
AcDb2dVertex
 10
171.196947
 20
157.270595
 30
0.0
  0
VERTEX
  5
140
330
13A
100
AcDbEntity
  8
001
370
    50
100
AcDbVertex
100
AcDb2dVertex
 10
171.281825
 20
157.364539
 30
0.0
  0
SEQEND
  5
13B
330
13A
100
AcDbEntity
  8
001
370
    50
  0
POLYLINE
  5
141
330
1F
100
AcDbEntity
  8
001
370
    50
100
AcDb2dPolyline
 66
     1
 10
0.0
 20
0.0
 30
0.0
  0
VERTEX
  5
143
330
141
100
AcDbEntity
  8
001
370
    50
100
AcDbVertex
100
AcDb2dVertex
 10
168.354896
 20
155.788297
 30
0.0
  0
VERTEX
  5
144
330
141
100
AcDbEntity
  8
001
370
    50
100
AcDbVertex
100
AcDb2dVertex
 10
168.430135
 20
155.801806
 30
0.0
  0
VERTEX
  5
145
330
141
100
AcDbEntity
  8
001
370
    50
100
AcDbVertex
100
AcDb2dVertex
 10
168.505238
 20
155.816008
 30
0.0
  0
VERTEX
  5
146
330
141
100
AcDbEntity
  8
001
370
    50
100
AcDbVertex
100
AcDb2dVertex
 10
168.600993
 20
155.835893
 30
0.0
  0
VERTEX
  5
147
330
141
100
AcDbEntity
  8
001
370
    50
100
AcDbVertex
100
AcDb2dVertex
 10
168.696477
 20
155.857091
 30
0.0
  0
VERTEX
  5
148
330
141
100
AcDbEntity
  8
001
370
    50
100
AcDbVertex
100
AcDb2dVertex
 10
168.812687
 20
155.883718
 30
0.0
  0
VERTEX
  5
149
330
141
100
AcDbEntity
  8
001
370
    50
100
AcDbVertex
100
AcDb2dVertex
 10
168.928615
 20
155.911546
 30
0.0
  0
VERTEX
  5
14A
330
141
100
AcDbEntity
  8
001
370
    50
100
AcDbVertex
100
AcDb2dVertex
 10
169.07113
 20
155.948563
 30
0.0
  0
VERTEX
  5
14B
330
141
100
AcDbEntity
  8
001
370
    50
100
AcDbVertex
100
AcDb2dVertex
 10
169.212487
 20
155.989708
 30
0.0
  0
VERTEX
  5
14C
330
141
100
AcDbEntity
  8
001
370
    50
100
AcDbVertex
100
AcDb2dVertex
 10
169.347978
 20
156.034386
 30
0.0
  0
VERTEX
  5
14D
330
141
100
AcDbEntity
  8
001
370
    50
100
AcDbVertex
100
AcDb2dVertex
 10
169.482023
 20
156.083294
 30
0.0
  0
VERTEX
  5
14E
330
141
100
AcDbEntity
  8
001
370
    50
100
AcDbVertex
100
AcDb2dVertex
 10
169.664096
 20
156.156178
 30
0.0
  0
VERTEX
  5
14F
330
141
100
AcDbEntity
  8
001
370
    50
100
AcDbVertex
100
AcDb2dVertex
 10
169.843666
 20
156.235082
 30
0.0
  0
VERTEX
  5
150
330
141
100
AcDbEntity
  8
001
370
    50
100
AcDbVertex
100
AcDb2dVertex
 10
170.004625
 20
156.311979
 30
0.0
  0
VERTEX
  5
151
330
141
100
AcDbEntity
  8
001
370
    50
100
AcDbVertex
100
AcDb2dVertex
 10
170.162595
 20
156.394699
 30
0.0
  0
VERTEX
  5
152
330
141
100
AcDbEntity
  8
001
370
    50
100
AcDbVertex
100
AcDb2dVertex
 10
170.302403
 20
156.475491
 30
0.0
  0
VERTEX
  5
153
330
141
100
AcDbEntity
  8
001
370
    50
100
AcDbVertex
100
AcDb2dVertex
 10
170.43881
 20
156.562146
 30
0.0
  0
VERTEX
  5
154
330
141
100
AcDbEntity
  8
001
370
    50
100
AcDbVertex
100
AcDb2dVertex
 10
170.626767
 20
156.696924
 30
0.0
  0
VERTEX
  5
155
330
141
100
AcDbEntity
  8
001
370
    50
100
AcDbVertex
100
AcDb2dVertex
 10
170.802265
 20
156.847001
 30
0.0
  0
VERTEX
  5
156
330
141
100
AcDbEntity
  8
001
370
    50
100
AcDbVertex
100
AcDb2dVertex
 10
170.872715
 20
156.916416
 30
0.0
  0
VERTEX
  5
157
330
141
100
AcDbEntity
  8
001
370
    50
100
AcDbVertex
100
AcDb2dVertex
 10
170.941554
 20
156.987514
 30
0.0
  0
SEQEND
  5
142
330
141
100
AcDbEntity
  8
001
370
    50
  0
POLYLINE
  5
158
330
1F
100
AcDbEntity
  8
001
370
    50
100
AcDb2dPolyline
 66
     1
 10
0.0
 20
0.0
 30
0.0
  0
VERTEX
  5
15A
330
158
100
AcDbEntity
  8
001
370
    50
100
AcDbVertex
100
AcDb2dVertex
 10
171.685214
 20
158.449506
 30
0.0
  0
VERTEX
  5
15B
330
158
100
AcDbEntity
  8
001
370
    50
100
AcDbVertex
100
AcDb2dVertex
 10
171.697613
 20
158.359193
 30
0.0
  0
VERTEX
  5
15C
330
158
100
AcDbEntity
  8
001
370
    50
100
AcDbVertex
100
AcDb2dVertex
 10
171.704303
 20
158.268715
 30
0.0
  0
VERTEX
  5
15D
330
158
100
AcDbEntity
  8
001
370
    50
100
AcDbVertex
100
AcDb2dVertex
 10
171.687908
 20
158.091075
 30
0.0
  0
VERTEX
  5
15E
330
158
100
AcDbEntity
  8
001
370
    50
100
AcDbVertex
100
AcDb2dVertex
 10
171.63845
 20
157.917845
 30
0.0
  0
VERTEX
  5
15F
330
158
100
AcDbEntity
  8
001
370
    50
100
AcDbVertex
100
AcDb2dVertex
 10
171.55317
 20
157.730751
 30
0.0
  0
VERTEX
  5
160
330
158
100
AcDbEntity
  8
001
370
    50
100
AcDbVertex
100
AcDb2dVertex
 10
171.443163
 20
157.558093
 30
0.0
  0
VERTEX
  5
161
330
158
100
AcDbEntity
  8
001
370
    50
100
AcDbVertex
100
AcDb2dVertex
 10
171.366174
 20
157.459756
 30
0.0
  0
VERTEX
  5
162
330
158
100
AcDbEntity
  8
001
370
    50
100
AcDbVertex
100
AcDb2dVertex
 10
171.285383
 20
157.364326
 30
0.0
  0
SEQEND
  5
159
330
158
100
AcDbEntity
  8
001
370
    50
  0
POLYLINE
  5
163
330
1F
100
AcDbEntity
  8
001
370
    50
100
AcDb2dPolyline
 66
     1
 10
0.0
 20
0.0
 30
0.0
  0
VERTEX
  5
165
330
163
100
AcDbEntity
  8
001
370
    50
100
AcDbVertex
100
AcDb2dVertex
 10
171.248948
 20
159.065608
 30
0.0
  0
VERTEX
  5
166
330
163
100
AcDbEntity
  8
001
370
    50
100
AcDbVertex
100
AcDb2dVertex
 10
171.349329
 20
158.98308
 30
0.0
  0
VERTEX
  5
167
330
163
100
AcDbEntity
  8
001
370
    50
100
AcDbVertex
100
AcDb2dVertex
 10
171.444363
 20
158.894325
 30
0.0
  0
VERTEX
  5
168
330
163
100
AcDbEntity
  8
001
370
    50
100
AcDbVertex
100
AcDb2dVertex
 10
171.556322
 20
158.755424
 30
0.0
  0
VERTEX
  5
169
330
163
100
AcDbEntity
  8
001
370
    50
100
AcDbVertex
100
AcDb2dVertex
 10
171.638726
 20
158.598053
 30
0.0
  0
VERTEX
  5
16A
330
163
100
AcDbEntity
  8
001
370
    50
100
AcDbVertex
100
AcDb2dVertex
 10
171.663862
 20
158.524444
 30
0.0
  0
VERTEX
  5
16B
330
163
100
AcDbEntity
  8
001
370
    50
100
AcDbVertex
100
AcDb2dVertex
 10
171.685214
 20
158.449506
 30
0.0
  0
SEQEND
  5
164
330
163
100
AcDbEntity
  8
001
370
    50
  0
LINE
  5
16C
330
1F
100
AcDbEntity
  8
001
370
    50
100
AcDbLine
 10
171.685213
 20
158.44951
 30
0.0
 11
171.552972
 21
159.064712
 31
0.0
  0
POLYLINE
  5
16D
330
1F
100
AcDbEntity
  8
001
370
    50
100
AcDb2dPolyline
 66
     1
 10
0.0
 20
0.0
 30
0.0
  0
VERTEX
  5
16F
330
16D
100
AcDbEntity
  8
001
370
    50
100
AcDbVertex
100
AcDb2dVertex
 10
175.674301
 20
153.738354
 30
0.0
  0
VERTEX
  5
170
330
16D
100
AcDbEntity
  8
001
370
    50
100
AcDbVertex
100
AcDb2dVertex
 10
175.590619
 20
153.734904
 30
0.0
  0
VERTEX
  5
171
330
16D
100
AcDbEntity
  8
001
370
    50
100
AcDbVertex
100
AcDb2dVertex
 10
175.469443
 20
153.720123
 30
0.0
  0
VERTEX
  5
172
330
16D
100
AcDbEntity
  8
001
370
    50
100
AcDbVertex
100
AcDb2dVertex
 10
175.397792
 20
153.704774
 30
0.0
  0
VERTEX
  5
173
330
16D
100
AcDbEntity
  8
001
370
    50
100
AcDbVertex
100
AcDb2dVertex
 10
175.349262
 20
153.691908
 30
0.0
  0
SEQEND
  5
16E
330
16D
100
AcDbEntity
  8
001
370
    50
  0
LINE
  5
174
330
1F
100
AcDbEntity
  8
001
370
    50
100
AcDbLine
 10
176.545442
 20
153.738354
 30
0.0
 11
175.674301
 21
153.738354
 31
0.0
  0
POLYLINE
  5
175
330
1F
100
AcDbEntity
  8
001
370
    50
100
AcDb2dPolyline
 66
     1
 10
0.0
 20
0.0
 30
0.0
  0
VERTEX
  5
177
330
175
100
AcDbEntity
  8
001
370
    50
100
AcDbVertex
100
AcDb2dVertex
 10
176.818956
 20
152.247904
 30
0.0
  0
VERTEX
  5
178
330
175
100
AcDbEntity
  8
001
370
    50
100
AcDbVertex
100
AcDb2dVertex
 10
176.826528
 20
152.281807
 30
0.0
  0
VERTEX
  5
179
330
175
100
AcDbEntity
  8
001
370
    50
100
AcDbVertex
100
AcDb2dVertex
 10
176.836112
 20
152.329976
 30
0.0
  0
VERTEX
  5
17A
330
175
100
AcDbEntity
  8
001
370
    50
100
AcDbVertex
100
AcDb2dVertex
 10
176.851008
 20
152.439772
 30
0.0
  0
VERTEX
  5
17B
330
175
100
AcDbEntity
  8
001
370
    50
100
AcDbVertex
100
AcDb2dVertex
 10
176.854034
 20
152.538354
 30
0.0
  0
VERTEX
  5
17C
330
175
100
AcDbEntity
  8
001
370
    50
100
AcDbVertex
100
AcDb2dVertex
 10
176.849133
 20
152.641164
 30
0.0
  0
VERTEX
  5
17D
330
175
100
AcDbEntity
  8
001
370
    50
100
AcDbVertex
100
AcDb2dVertex
 10
176.836112
 20
152.746732
 30
0.0
  0
VERTEX
  5
17E
330
175
100
AcDbEntity
  8
001
370
    50
100
AcDbVertex
100
AcDb2dVertex
 10
176.783267
 20
152.949463
 30
0.0
  0
VERTEX
  5
17F
330
175
100
AcDbEntity
  8
001
370
    50
100
AcDbVertex
100
AcDb2dVertex
 10
176.69598
 20
153.138354
 30
0.0
  0
VERTEX
  5
180
330
175
100
AcDbEntity
  8
001
370
    50
100
AcDbVertex
100
AcDb2dVertex
 10
176.509366
 20
153.385739
 30
0.0
  0
VERTEX
  5
181
330
175
100
AcDbEntity
  8
001
370
    50
100
AcDbVertex
100
AcDb2dVertex
 10
176.264168
 20
153.577584
 30
0.0
  0
VERTEX
  5
182
330
175
100
AcDbEntity
  8
001
370
    50
100
AcDbVertex
100
AcDb2dVertex
 10
176.17156
 20
153.626016
 30
0.0
  0
VERTEX
  5
183
330
175
100
AcDbEntity
  8
001
370
    50
100
AcDbVertex
100
AcDb2dVertex
 10
176.077794
 20
153.665985
 30
0.0
  0
VERTEX
  5
184
330
175
100
AcDbEntity
  8
001
370
    50
100
AcDbVertex
100
AcDb2dVertex
 10
175.984112
 20
153.697419
 30
0.0
  0
VERTEX
  5
185
330
175
100
AcDbEntity
  8
001
370
    50
100
AcDbVertex
100
AcDb2dVertex
 10
175.87916
 20
153.720123
 30
0.0
  0
VERTEX
  5
186
330
175
100
AcDbEntity
  8
001
370
    50
100
AcDbVertex
100
AcDb2dVertex
 10
175.760782
 20
153.733789
 30
0.0
  0
VERTEX
  5
187
330
175
100
AcDbEntity
  8
001
370
    50
100
AcDbVertex
100
AcDb2dVertex
 10
175.674301
 20
153.738354
 30
0.0
  0
SEQEND
  5
176
330
175
100
AcDbEntity
  8
001
370
    50
  0
POLYLINE
  5
188
330
1F
100
AcDbEntity
  8
001
370
    50
100
AcDb2dPolyline
 66
     1
 10
0.0
 20
0.0
 30
0.0
  0
VERTEX
  5
18A
330
188
100
AcDbEntity
  8
001
370
    50
100
AcDbVertex
100
AcDb2dVertex
 10
177.690097
 20
152.247905
 30
0.0
  0
VERTEX
  5
18B
330
188
100
AcDbEntity
  8
001
370
    50
100
AcDbVertex
100
AcDb2dVertex
 10
177.697669
 20
152.281807
 30
0.0
  0
VERTEX
  5
18C
330
188
100
AcDbEntity
  8
001
370
    50
100
AcDbVertex
100
AcDb2dVertex
 10
177.707252
 20
152.329976
 30
0.0
  0
VERTEX
  5
18D
330
188
100
AcDbEntity
  8
001
370
    50
100
AcDbVertex
100
AcDb2dVertex
 10
177.722149
 20
152.439772
 30
0.0
  0
VERTEX
  5
18E
330
188
100
AcDbEntity
  8
001
370
    50
100
AcDbVertex
100
AcDb2dVertex
 10
177.725175
 20
152.538354
 30
0.0
  0
VERTEX
  5
18F
330
188
100
AcDbEntity
  8
001
370
    50
100
AcDbVertex
100
AcDb2dVertex
 10
177.720273
 20
152.641164
 30
0.0
  0
VERTEX
  5
190
330
188
100
AcDbEntity
  8
001
370
    50
100
AcDbVertex
100
AcDb2dVertex
 10
177.707252
 20
152.746732
 30
0.0
  0
VERTEX
  5
191
330
188
100
AcDbEntity
  8
001
370
    50
100
AcDbVertex
100
AcDb2dVertex
 10
177.654408
 20
152.949463
 30
0.0
  0
VERTEX
  5
192
330
188
100
AcDbEntity
  8
001
370
    50
100
AcDbVertex
100
AcDb2dVertex
 10
177.567121
 20
153.138354
 30
0.0
  0
VERTEX
  5
193
330
188
100
AcDbEntity
  8
001
370
    50
100
AcDbVertex
100
AcDb2dVertex
 10
177.380506
 20
153.385739
 30
0.0
  0
VERTEX
  5
194
330
188
100
AcDbEntity
  8
001
370
    50
100
AcDbVertex
100
AcDb2dVertex
 10
177.135308
 20
153.577584
 30
0.0
  0
VERTEX
  5
195
330
188
100
AcDbEntity
  8
001
370
    50
100
AcDbVertex
100
AcDb2dVertex
 10
177.042701
 20
153.626016
 30
0.0
  0
VERTEX
  5
196
330
188
100
AcDbEntity
  8
001
370
    50
100
AcDbVertex
100
AcDb2dVertex
 10
176.948934
 20
153.665985
 30
0.0
  0
VERTEX
  5
197
330
188
100
AcDbEntity
  8
001
370
    50
100
AcDbVertex
100
AcDb2dVertex
 10
176.855252
 20
153.69742
 30
0.0
  0
VERTEX
  5
198
330
188
100
AcDbEntity
  8
001
370
    50
100
AcDbVertex
100
AcDb2dVertex
 10
176.7503
 20
153.720123
 30
0.0
  0
VERTEX
  5
199
330
188
100
AcDbEntity
  8
001
370
    50
100
AcDbVertex
100
AcDb2dVertex
 10
176.631922
 20
153.733789
 30
0.0
  0
VERTEX
  5
19A
330
188
100
AcDbEntity
  8
001
370
    50
100
AcDbVertex
100
AcDb2dVertex
 10
176.545442
 20
153.738354
 30
0.0
  0
SEQEND
  5
189
330
188
100
AcDbEntity
  8
001
370
    50
  0
LINE
  5
19B
330
1F
100
AcDbEntity
  8
001
370
    50
100
AcDbLine
 10
171.111045
 20
128.973586
 30
0.0
 11
176.818956
 21
152.247904
 31
0.0
  0
LINE
  5
19C
330
1F
100
AcDbEntity
  8
001
370
    50
100
AcDbLine
 10
176.685892
 20
148.153205
 30
0.0
 11
177.690097
 21
152.247905
 31
0.0
  0
POLYLINE
  5
19D
330
1F
100
AcDbEntity
  8
001
370
    50
100
AcDb2dPolyline
 66
     1
 10
0.0
 20
0.0
 30
0.0
  0
VERTEX
  5
19F
330
19D
100
AcDbEntity
  8
001
370
    50
100
AcDbVertex
100
AcDb2dVertex
 10
170.991767
 20
128.167111
 30
0.0
  0
VERTEX
  5
1A0
330
19D
100
AcDbEntity
  8
001
370
    50
100
AcDbVertex
100
AcDb2dVertex
 10
171.078274
 20
128.171726
 30
0.0
  0
VERTEX
  5
1A1
330
19D
100
AcDbEntity
  8
001
370
    50
100
AcDbVertex
100
AcDb2dVertex
 10
171.196625
 20
128.185342
 30
0.0
  0
VERTEX
  5
1A2
330
19D
100
AcDbEntity
  8
001
370
    50
100
AcDbVertex
100
AcDb2dVertex
 10
171.301444
 20
128.207792
 30
0.0
  0
VERTEX
  5
1A3
330
19D
100
AcDbEntity
  8
001
370
    50
100
AcDbVertex
100
AcDb2dVertex
 10
171.395259
 20
128.23948
 30
0.0
  0
VERTEX
  5
1A4
330
19D
100
AcDbEntity
  8
001
370
    50
100
AcDbVertex
100
AcDb2dVertex
 10
171.489535
 20
128.280412
 30
0.0
  0
VERTEX
  5
1A5
330
19D
100
AcDbEntity
  8
001
370
    50
100
AcDbVertex
100
AcDb2dVertex
 10
171.581633
 20
128.327881
 30
0.0
  0
VERTEX
  5
1A6
330
19D
100
AcDbEntity
  8
001
370
    50
100
AcDbVertex
100
AcDb2dVertex
 10
171.817024
 20
128.501166
 30
0.0
  0
VERTEX
  5
1A7
330
19D
100
AcDbEntity
  8
001
370
    50
100
AcDbVertex
100
AcDb2dVertex
 10
172.013445
 20
128.767111
 30
0.0
  0
VERTEX
  5
1A8
330
19D
100
AcDbEntity
  8
001
370
    50
100
AcDbVertex
100
AcDb2dVertex
 10
172.019106
 20
128.777224
 30
0.0
  0
VERTEX
  5
1A9
330
19D
100
AcDbEntity
  8
001
370
    50
100
AcDbVertex
100
AcDb2dVertex
 10
172.022956
 20
128.784188
 30
0.0
  0
SEQEND
  5
19E
330
19D
100
AcDbEntity
  8
001
370
    50
  0
POLYLINE
  5
1AA
330
1F
100
AcDbEntity
  8
001
370
    50
100
AcDb2dPolyline
 66
     1
 10
0.0
 20
0.0
 30
0.0
  0
VERTEX
  5
1AC
330
1AA
100
AcDbEntity
  8
001
370
    50
100
AcDbVertex
100
AcDb2dVertex
 10
171.265281
 20
176.074357
 30
0.0
  0
VERTEX
  5
1AD
330
1AA
100
AcDbEntity
  8
001
370
    50
100
AcDbVertex
100
AcDb2dVertex
 10
171.260945
 20
176.082108
 30
0.0
  0
VERTEX
  5
1AE
330
1AA
100
AcDbEntity
  8
001
370
    50
100
AcDbVertex
100
AcDb2dVertex
 10
171.254478
 20
176.093092
 30
0.0
  0
VERTEX
  5
1AF
330
1AA
100
AcDbEntity
  8
001
370
    50
100
AcDbVertex
100
AcDb2dVertex
 10
171.218916
 20
176.142057
 30
0.0
  0
VERTEX
  5
1B0
330
1AA
100
AcDbEntity
  8
001
370
    50
100
AcDbVertex
100
AcDb2dVertex
 10
171.180677
 20
176.178814
 30
0.0
  0
VERTEX
  5
1B1
330
1AA
100
AcDbEntity
  8
001
370
    50
100
AcDbVertex
100
AcDb2dVertex
 10
171.130366
 20
176.216804
 30
0.0
  0
VERTEX
  5
1B2
330
1AA
100
AcDbEntity
  8
001
370
    50
100
AcDbVertex
100
AcDb2dVertex
 10
171.074667
 20
176.251342
 30
0.0
  0
VERTEX
  5
1B3
330
1AA
100
AcDbEntity
  8
001
370
    50
100
AcDbVertex
100
AcDb2dVertex
 10
170.844299
 20
176.337896
 30
0.0
  0
VERTEX
  5
1B4
330
1AA
100
AcDbEntity
  8
001
370
    50
100
AcDbVertex
100
AcDb2dVertex
 10
170.599872
 20
176.37012
 30
0.0
  0
VERTEX
  5
1B5
330
1AA
100
AcDbEntity
  8
001
370
    50
100
AcDbVertex
100
AcDb2dVertex
 10
170.4002
 20
176.372075
 30
0.0
  0
VERTEX
  5
1B6
330
1AA
100
AcDbEntity
  8
001
370
    50
100
AcDbVertex
100
AcDb2dVertex
 10
170.20227
 20
176.356319
 30
0.0
  0
VERTEX
  5
1B7
330
1AA
100
AcDbEntity
  8
001
370
    50
100
AcDbVertex
100
AcDb2dVertex
 10
170.099385
 20
176.341251
 30
0.0
  0
VERTEX
  5
1B8
330
1AA
100
AcDbEntity
  8
001
370
    50
100
AcDbVertex
100
AcDb2dVertex
 10
169.996663
 20
176.321289
 30
0.0
  0
VERTEX
  5
1B9
330
1AA
100
AcDbEntity
  8
001
370
    50
100
AcDbVertex
100
AcDb2dVertex
 10
169.894211
 20
176.296535
 30
0.0
  0
VERTEX
  5
1BA
330
1AA
100
AcDbEntity
  8
001
370
    50
100
AcDbVertex
100
AcDb2dVertex
 10
169.794822
 20
176.268736
 30
0.0
  0
VERTEX
  5
1BB
330
1AA
100
AcDbEntity
  8
001
370
    50
100
AcDbVertex
100
AcDb2dVertex
 10
169.616392
 20
176.208156
 30
0.0
  0
VERTEX
  5
1BC
330
1AA
100
AcDbEntity
  8
001
370
    50
100
AcDbVertex
100
AcDb2dVertex
 10
169.42667
 20
176.117934
 30
0.0
  0
VERTEX
  5
1BD
330
1AA
100
AcDbEntity
  8
001
370
    50
100
AcDbVertex
100
AcDb2dVertex
 10
169.352504
 20
176.075522
 30
0.0
  0
VERTEX
  5
1BE
330
1AA
100
AcDbEntity
  8
001
370
    50
100
AcDbVertex
100
AcDb2dVertex
 10
169.301011
 20
176.044013
 30
0.0
  0
SEQEND
  5
1AB
330
1AA
100
AcDbEntity
  8
001
370
    50
  0
POLYLINE
  5
1BF
330
1F
100
AcDbEntity
  8
001
370
    50
100
AcDb2dPolyline
 66
     1
 10
0.0
 20
0.0
 30
0.0
  0
VERTEX
  5
1C1
330
1BF
100
AcDbEntity
  8
001
370
    50
100
AcDbVertex
100
AcDb2dVertex
 10
172.017745
 20
172.153522
 30
0.0
  0
VERTEX
  5
1C2
330
1BF
100
AcDbEntity
  8
001
370
    50
100
AcDbVertex
100
AcDb2dVertex
 10
171.988694
 20
172.172823
 30
0.0
  0
VERTEX
  5
1C3
330
1BF
100
AcDbEntity
  8
001
370
    50
100
AcDbVertex
100
AcDb2dVertex
 10
171.945807
 20
172.198684
 30
0.0
  0
VERTEX
  5
1C4
330
1BF
100
AcDbEntity
  8
001
370
    50
100
AcDbVertex
100
AcDb2dVertex
 10
171.70313
 20
172.293173
 30
0.0
  0
VERTEX
  5
1C5
330
1BF
100
AcDbEntity
  8
001
370
    50
100
AcDbVertex
100
AcDb2dVertex
 10
171.471012
 20
172.317462
 30
0.0
  0
VERTEX
  5
1C6
330
1BF
100
AcDbEntity
  8
001
370
    50
100
AcDbVertex
100
AcDb2dVertex
 10
171.273616
 20
172.31795
 30
0.0
  0
VERTEX
  5
1C7
330
1BF
100
AcDbEntity
  8
001
370
    50
100
AcDbVertex
100
AcDb2dVertex
 10
171.073411
 20
172.303661
 30
0.0
  0
VERTEX
  5
1C8
330
1BF
100
AcDbEntity
  8
001
370
    50
100
AcDbVertex
100
AcDb2dVertex
 10
170.970285
 20
172.288749
 30
0.0
  0
VERTEX
  5
1C9
330
1BF
100
AcDbEntity
  8
001
370
    50
100
AcDbVertex
100
AcDb2dVertex
 10
170.867803
 20
172.268631
 30
0.0
  0
VERTEX
  5
1CA
330
1BF
100
AcDbEntity
  8
001
370
    50
100
AcDbVertex
100
AcDb2dVertex
 10
170.765421
 20
172.243833
 30
0.0
  0
VERTEX
  5
1CB
330
1BF
100
AcDbEntity
  8
001
370
    50
100
AcDbVertex
100
AcDb2dVertex
 10
170.665962
 20
172.216078
 30
0.0
  0
VERTEX
  5
1CC
330
1BF
100
AcDbEntity
  8
001
370
    50
100
AcDbVertex
100
AcDb2dVertex
 10
170.487495
 20
172.155523
 30
0.0
  0
VERTEX
  5
1CD
330
1BF
100
AcDbEntity
  8
001
370
    50
100
AcDbVertex
100
AcDb2dVertex
 10
170.29781
 20
172.065276
 30
0.0
  0
VERTEX
  5
1CE
330
1BF
100
AcDbEntity
  8
001
370
    50
100
AcDbVertex
100
AcDb2dVertex
 10
170.223646
 20
172.022863
 30
0.0
  0
VERTEX
  5
1CF
330
1BF
100
AcDbEntity
  8
001
370
    50
100
AcDbVertex
100
AcDb2dVertex
 10
170.172151
 20
171.991355
 30
0.0
  0
SEQEND
  5
1C0
330
1BF
100
AcDbEntity
  8
001
370
    50
  0
POLYLINE
  5
1D0
330
1F
100
AcDbEntity
  8
001
370
    50
100
AcDb2dPolyline
 66
     1
 10
0.0
 20
0.0
 30
0.0
  0
VERTEX
  5
1D2
330
1D0
100
AcDbEntity
  8
001
370
    50
100
AcDbVertex
100
AcDb2dVertex
 10
153.315128
 20
160.671647
 30
0.0
  0
VERTEX
  5
1D3
330
1D0
100
AcDbEntity
  8
001
370
    50
100
AcDbVertex
100
AcDb2dVertex
 10
153.328803
 20
160.630059
 30
0.0
  0
VERTEX
  5
1D4
330
1D0
100
AcDbEntity
  8
001
370
    50
100
AcDbVertex
100
AcDb2dVertex
 10
153.354477
 20
160.575336
 30
0.0
  0
VERTEX
  5
1D5
330
1D0
100
AcDbEntity
  8
001
370
    50
100
AcDbVertex
100
AcDb2dVertex
 10
153.389314
 20
160.527088
 30
0.0
  0
VERTEX
  5
1D6
330
1D0
100
AcDbEntity
  8
001
370
    50
100
AcDbVertex
100
AcDb2dVertex
 10
153.428278
 20
160.489615
 30
0.0
  0
VERTEX
  5
1D7
330
1D0
100
AcDbEntity
  8
001
370
    50
100
AcDbVertex
100
AcDb2dVertex
 10
153.476457
 20
160.45202
 30
0.0
  0
VERTEX
  5
1D8
330
1D0
100
AcDbEntity
  8
001
370
    50
100
AcDbVertex
100
AcDb2dVertex
 10
153.534289
 20
160.417087
 30
0.0
  0
VERTEX
  5
1D9
330
1D0
100
AcDbEntity
  8
001
370
    50
100
AcDbVertex
100
AcDb2dVertex
 10
153.598472
 20
160.386977
 30
0.0
  0
VERTEX
  5
1DA
330
1D0
100
AcDbEntity
  8
001
370
    50
100
AcDbVertex
100
AcDb2dVertex
 10
153.646102
 20
160.367912
 30
0.0
  0
SEQEND
  5
1D1
330
1D0
100
AcDbEntity
  8
001
370
    50
  0
LINE
  5
1DB
330
1F
100
AcDbEntity
  8
001
370
    50
100
AcDbLine
 10
153.668714
 20
161.22325
 30
0.0
 11
170.172151
 21
171.991355
 31
0.0
  0
LINE
  5
1DC
330
1F
100
AcDbEntity
  8
001
370
    50
100
AcDbLine
 10
152.797574
 20
165.275908
 30
0.0
 11
169.301011
 21
176.044013
 31
0.0
  0
LINE
  5
1DD
330
1F
100
AcDbEntity
  8
001
370
    50
100
AcDbLine
 10
171.265281
 20
176.074357
 30
0.0
 11
171.408969
 21
175.804573
 31
0.0
  0
POLYLINE
  5
1DE
330
1F
100
AcDbEntity
  8
001
370
    50
100
AcDb2dPolyline
 66
     1
 10
0.0
 20
0.0
 30
0.0
  0
VERTEX
  5
1E0
330
1DE
100
AcDbEntity
  8
001
370
    50
100
AcDbVertex
100
AcDb2dVertex
 10
152.797574
 20
165.275908
 30
0.0
  0
VERTEX
  5
1E1
330
1DE
100
AcDbEntity
  8
001
370
    50
100
AcDbVertex
100
AcDb2dVertex
 10
152.67914
 20
165.186176
 30
0.0
  0
VERTEX
  5
1E2
330
1DE
100
AcDbEntity
  8
001
370
    50
100
AcDbVertex
100
AcDb2dVertex
 10
152.539185
 20
165.046438
 30
0.0
  0
VERTEX
  5
1E3
330
1DE
100
AcDbEntity
  8
001
370
    50
100
AcDbVertex
100
AcDb2dVertex
 10
152.501577
 20
164.991775
 30
0.0
  0
VERTEX
  5
1E4
330
1DE
100
AcDbEntity
  8
001
370
    50
100
AcDbVertex
100
AcDb2dVertex
 10
152.472342
 20
164.936754
 30
0.0
  0
VERTEX
  5
1E5
330
1DE
100
AcDbEntity
  8
001
370
    50
100
AcDbVertex
100
AcDb2dVertex
 10
152.452052
 20
164.886372
 30
0.0
  0
VERTEX
  5
1E6
330
1DE
100
AcDbEntity
  8
001
370
    50
100
AcDbVertex
100
AcDb2dVertex
 10
152.440285
 20
164.828278
 30
0.0
  0
VERTEX
  5
1E7
330
1DE
100
AcDbEntity
  8
001
370
    50
100
AcDbVertex
100
AcDb2dVertex
 10
152.439395
 20
164.767876
 30
0.0
  0
VERTEX
  5
1E8
330
1DE
100
AcDbEntity
  8
001
370
    50
100
AcDbVertex
100
AcDb2dVertex
 10
152.443987
 20
164.724305
 30
0.0
  0
SEQEND
  5
1DF
330
1DE
100
AcDbEntity
  8
001
370
    50
  0
POLYLINE
  5
1E9
330
1F
100
AcDbEntity
  8
001
370
    50
100
AcDb2dPolyline
 66
     1
 10
0.0
 20
0.0
 30
0.0
  0
VERTEX
  5
1EB
330
1E9
100
AcDbEntity
  8
001
370
    50
100
AcDbVertex
100
AcDb2dVertex
 10
153.668714
 20
161.22325
 30
0.0
  0
VERTEX
  5
1EC
330
1E9
100
AcDbEntity
  8
001
370
    50
100
AcDbVertex
100
AcDb2dVertex
 10
153.550281
 20
161.133518
 30
0.0
  0
VERTEX
  5
1ED
330
1E9
100
AcDbEntity
  8
001
370
    50
100
AcDbVertex
100
AcDb2dVertex
 10
153.410325
 20
160.99378
 30
0.0
  0
VERTEX
  5
1EE
330
1E9
100
AcDbEntity
  8
001
370
    50
100
AcDbVertex
100
AcDb2dVertex
 10
153.372717
 20
160.939117
 30
0.0
  0
VERTEX
  5
1EF
330
1E9
100
AcDbEntity
  8
001
370
    50
100
AcDbVertex
100
AcDb2dVertex
 10
153.343482
 20
160.884096
 30
0.0
  0
VERTEX
  5
1F0
330
1E9
100
AcDbEntity
  8
001
370
    50
100
AcDbVertex
100
AcDb2dVertex
 10
153.323193
 20
160.833714
 30
0.0
  0
VERTEX
  5
1F1
330
1E9
100
AcDbEntity
  8
001
370
    50
100
AcDbVertex
100
AcDb2dVertex
 10
153.311425
 20
160.77562
 30
0.0
  0
VERTEX
  5
1F2
330
1E9
100
AcDbEntity
  8
001
370
    50
100
AcDbVertex
100
AcDb2dVertex
 10
153.310535
 20
160.715218
 30
0.0
  0
VERTEX
  5
1F3
330
1E9
100
AcDbEntity
  8
001
370
    50
100
AcDbVertex
100
AcDb2dVertex
 10
153.315128
 20
160.671647
 30
0.0
  0
SEQEND
  5
1EA
330
1E9
100
AcDbEntity
  8
001
370
    50
  0
LINE
  5
1F4
330
1F
100
AcDbEntity
  8
001
370
    50
100
AcDbLine
 10
152.443987
 20
164.724305
 30
0.0
 11
153.315128
 21
160.671647
 31
0.0
  0
LINE
  5
1F5
330
1F
100
AcDbEntity
  8
001
370
    50
100
AcDbLine
 10
153.646102
 20
160.128908
 30
0.0
 11
153.29215
 21
160.237566
 31
0.0
  0
LINE
  5
1F6
330
1F
100
AcDbEntity
  8
001
370
    50
100
AcDbLine
 10
152.842748
 20
162.869216
 30
0.0
 11
152.443987
 21
161.014128
 31
0.0
  0
POLYLINE
  5
1F7
330
1F
100
AcDbEntity
  8
001
370
    50
100
AcDb2dPolyline
 66
     1
 10
0.0
 20
0.0
 30
0.0
  0
VERTEX
  5
1F9
330
1F7
100
AcDbEntity
  8
001
370
    50
100
AcDbVertex
100
AcDb2dVertex
 10
152.443987
 20
161.014128
 30
0.0
  0
VERTEX
  5
1FA
330
1F7
100
AcDbEntity
  8
001
370
    50
100
AcDbVertex
100
AcDb2dVertex
 10
152.43944
 20
160.970529
 30
0.0
  0
VERTEX
  5
1FB
330
1F7
100
AcDbEntity
  8
001
370
    50
100
AcDbVertex
100
AcDb2dVertex
 10
152.440285
 20
160.910155
 30
0.0
  0
VERTEX
  5
1FC
330
1F7
100
AcDbEntity
  8
001
370
    50
100
AcDbVertex
100
AcDb2dVertex
 10
152.451799
 20
160.852218
 30
0.0
  0
VERTEX
  5
1FD
330
1F7
100
AcDbEntity
  8
001
370
    50
100
AcDbVertex
100
AcDb2dVertex
 10
152.472342
 20
160.801678
 30
0.0
  0
VERTEX
  5
1FE
330
1F7
100
AcDbEntity
  8
001
370
    50
100
AcDbVertex
100
AcDb2dVertex
 10
152.502737
 20
160.745935
 30
0.0
  0
VERTEX
  5
1FF
330
1F7
100
AcDbEntity
  8
001
370
    50
100
AcDbVertex
100
AcDb2dVertex
 10
152.539185
 20
160.691994
 30
0.0
  0
VERTEX
  5
200
330
1F7
100
AcDbEntity
  8
001
370
    50
100
AcDbVertex
100
AcDb2dVertex
 10
152.717923
 20
160.517681
 30
0.0
  0
VERTEX
  5
201
330
1F7
100
AcDbEntity
  8
001
370
    50
100
AcDbVertex
100
AcDb2dVertex
 10
152.923233
 20
160.388603
 30
0.0
  0
VERTEX
  5
202
330
1F7
100
AcDbEntity
  8
001
370
    50
100
AcDbVertex
100
AcDb2dVertex
 10
153.089047
 20
160.309257
 30
0.0
  0
VERTEX
  5
203
330
1F7
100
AcDbEntity
  8
001
370
    50
100
AcDbVertex
100
AcDb2dVertex
 10
153.291385
 20
160.237801
 30
0.0
  0
VERTEX
  5
204
330
1F7
100
AcDbEntity
  8
001
370
    50
100
AcDbVertex
100
AcDb2dVertex
 10
153.291839
 20
160.237662
 30
0.0
  0
VERTEX
  5
205
330
1F7
100
AcDbEntity
  8
001
370
    50
100
AcDbVertex
100
AcDb2dVertex
 10
153.29215
 20
160.237566
 30
0.0
  0
SEQEND
  5
1F8
330
1F7
100
AcDbEntity
  8
001
370
    50
  0
LINE
  5
206
330
1F
100
AcDbEntity
  8
001
370
    50
100
AcDbLine
 10
170.914913
 20
159.247172
 30
0.0
 11
170.241346
 21
159.217929
 31
0.0
  0
POLYLINE
  5
207
330
1F
100
AcDbEntity
  8
001
370
    50
100
AcDb2dPolyline
 66
     1
 10
0.0
 20
0.0
 30
0.0
  0
VERTEX
  5
209
330
207
100
AcDbEntity
  8
001
370
    50
100
AcDbVertex
100
AcDb2dVertex
 10
172.986623
 20
158.973687
 30
0.0
  0
VERTEX
  5
20A
330
207
100
AcDbEntity
  8
001
370
    50
100
AcDbVertex
100
AcDb2dVertex
 10
172.762021
 20
158.905769
 30
0.0
  0
VERTEX
  5
20B
330
207
100
AcDbEntity
  8
001
370
    50
100
AcDbVertex
100
AcDb2dVertex
 10
172.437761
 20
158.794867
 30
0.0
  0
VERTEX
  5
20C
330
207
100
AcDbEntity
  8
001
370
    50
100
AcDbVertex
100
AcDb2dVertex
 10
171.984991
 20
158.608609
 30
0.0
  0
VERTEX
  5
20D
330
207
100
AcDbEntity
  8
001
370
    50
100
AcDbVertex
100
AcDb2dVertex
 10
171.681773
 20
158.465327
 30
0.0
  0
SEQEND
  5
208
330
207
100
AcDbEntity
  8
001
370
    50
  0
POLYLINE
  5
20E
330
1F
100
AcDbEntity
  8
001
370
    50
100
AcDb2dPolyline
 66
     1
 10
0.0
 20
0.0
 30
0.0
  0
VERTEX
  5
210
330
20E
100
AcDbEntity
  8
001
370
    50
100
AcDbVertex
100
AcDb2dVertex
 10
170.241346
 20
159.217929
 30
0.0
  0
VERTEX
  5
211
330
20E
100
AcDbEntity
  8
001
370
    50
100
AcDbVertex
100
AcDb2dVertex
 10
169.902027
 20
159.168687
 30
0.0
  0
VERTEX
  5
212
330
20E
100
AcDbEntity
  8
001
370
    50
100
AcDbVertex
100
AcDb2dVertex
 10
169.565283
 20
159.10666
 30
0.0
  0
VERTEX
  5
213
330
20E
100
AcDbEntity
  8
001
370
    50
100
AcDbVertex
100
AcDb2dVertex
 10
169.227964
 20
159.020275
 30
0.0
  0
VERTEX
  5
214
330
20E
100
AcDbEntity
  8
001
370
    50
100
AcDbVertex
100
AcDb2dVertex
 10
168.896704
 20
158.911674
 30
0.0
  0
VERTEX
  5
215
330
20E
100
AcDbEntity
  8
001
370
    50
100
AcDbVertex
100
AcDb2dVertex
 10
168.553196
 20
158.77616
 30
0.0
  0
VERTEX
  5
216
330
20E
100
AcDbEntity
  8
001
370
    50
100
AcDbVertex
100
AcDb2dVertex
 10
168.218705
 20
158.620215
 30
0.0
  0
VERTEX
  5
217
330
20E
100
AcDbEntity
  8
001
370
    50
100
AcDbVertex
100
AcDb2dVertex
 10
167.88588
 20
158.43898
 30
0.0
  0
VERTEX
  5
218
330
20E
100
AcDbEntity
  8
001
370
    50
100
AcDbVertex
100
AcDb2dVertex
 10
167.564366
 20
158.237985
 30
0.0
  0
VERTEX
  5
219
330
20E
100
AcDbEntity
  8
001
370
    50
100
AcDbVertex
100
AcDb2dVertex
 10
167.281884
 20
158.038804
 30
0.0
  0
VERTEX
  5
21A
330
20E
100
AcDbEntity
  8
001
370
    50
100
AcDbVertex
100
AcDb2dVertex
 10
167.011806
 20
157.823605
 30
0.0
  0
VERTEX
  5
21B
330
20E
100
AcDbEntity
  8
001
370
    50
100
AcDbVertex
100
AcDb2dVertex
 10
166.745973
 20
157.584043
 30
0.0
  0
VERTEX
  5
21C
330
20E
100
AcDbEntity
  8
001
370
    50
100
AcDbVertex
100
AcDb2dVertex
 10
166.488268
 20
157.335196
 30
0.0
  0
SEQEND
  5
20F
330
20E
100
AcDbEntity
  8
001
370
    50
  0
POLYLINE
  5
21D
330
1F
100
AcDbEntity
  8
001
370
    50
100
AcDb2dPolyline
 66
     1
 10
0.0
 20
0.0
 30
0.0
  0
VERTEX
  5
21F
330
21D
100
AcDbEntity
  8
001
370
    50
100
AcDbVertex
100
AcDb2dVertex
 10
178.393473
 20
149.529773
 30
0.0
  0
VERTEX
  5
220
330
21D
100
AcDbEntity
  8
001
370
    50
100
AcDbVertex
100
AcDb2dVertex
 10
178.487763
 20
149.959826
 30
0.0
  0
VERTEX
  5
221
330
21D
100
AcDbEntity
  8
001
370
    50
100
AcDbVertex
100
AcDb2dVertex
 10
178.565543
 20
150.392586
 30
0.0
  0
VERTEX
  5
222
330
21D
100
AcDbEntity
  8
001
370
    50
100
AcDbVertex
100
AcDb2dVertex
 10
178.603622
 20
150.708137
 30
0.0
  0
VERTEX
  5
223
330
21D
100
AcDbEntity
  8
001
370
    50
100
AcDbVertex
100
AcDb2dVertex
 10
178.627097
 20
151.025331
 30
0.0
  0
VERTEX
  5
224
330
21D
100
AcDbEntity
  8
001
370
    50
100
AcDbVertex
100
AcDb2dVertex
 10
178.638077
 20
151.344731
 30
0.0
  0
VERTEX
  5
225
330
21D
100
AcDbEntity
  8
001
370
    50
100
AcDbVertex
100
AcDb2dVertex
 10
178.636279
 20
151.664221
 30
0.0
  0
VERTEX
  5
226
330
21D
100
AcDbEntity
  8
001
370
    50
100
AcDbVertex
100
AcDb2dVertex
 10
178.620419
 20
151.994482
 30
0.0
  0
VERTEX
  5
227
330
21D
100
AcDbEntity
  8
001
370
    50
100
AcDbVertex
100
AcDb2dVertex
 10
178.590498
 20
152.323808
 30
0.0
  0
VERTEX
  5
228
330
21D
100
AcDbEntity
  8
001
370
    50
100
AcDbVertex
100
AcDb2dVertex
 10
178.546586
 20
152.653055
 30
0.0
  0
VERTEX
  5
229
330
21D
100
AcDbEntity
  8
001
370
    50
100
AcDbVertex
100
AcDb2dVertex
 10
178.488847
 20
152.980143
 30
0.0
  0
VERTEX
  5
22A
330
21D
100
AcDbEntity
  8
001
370
    50
100
AcDbVertex
100
AcDb2dVertex
 10
178.420106
 20
153.292981
 30
0.0
  0
VERTEX
  5
22B
330
21D
100
AcDbEntity
  8
001
370
    50
100
AcDbVertex
100
AcDb2dVertex
 10
178.338722
 20
153.602776
 30
0.0
  0
VERTEX
  5
22C
330
21D
100
AcDbEntity
  8
001
370
    50
100
AcDbVertex
100
AcDb2dVertex
 10
178.24458
 20
153.909969
 30
0.0
  0
VERTEX
  5
22D
330
21D
100
AcDbEntity
  8
001
370
    50
100
AcDbVertex
100
AcDb2dVertex
 10
178.138025
 20
154.213078
 30
0.0
  0
VERTEX
  5
22E
330
21D
100
AcDbEntity
  8
001
370
    50
100
AcDbVertex
100
AcDb2dVertex
 10
178.015117
 20
154.521188
 30
0.0
  0
VERTEX
  5
22F
330
21D
100
AcDbEntity
  8
001
370
    50
100
AcDbVertex
100
AcDb2dVertex
 10
177.879361
 20
154.823864
 30
0.0
  0
VERTEX
  5
230
330
21D
100
AcDbEntity
  8
001
370
    50
100
AcDbVertex
100
AcDb2dVertex
 10
177.730745
 20
155.121108
 30
0.0
  0
VERTEX
  5
231
330
21D
100
AcDbEntity
  8
001
370
    50
100
AcDbVertex
100
AcDb2dVertex
 10
177.569705
 20
155.411798
 30
0.0
  0
VERTEX
  5
232
330
21D
100
AcDbEntity
  8
001
370
    50
100
AcDbVertex
100
AcDb2dVertex
 10
177.403893
 20
155.683736
 30
0.0
  0
VERTEX
  5
233
330
21D
100
AcDbEntity
  8
001
370
    50
100
AcDbVertex
100
AcDb2dVertex
 10
177.227153
 20
155.948703
 30
0.0
  0
VERTEX
  5
234
330
21D
100
AcDbEntity
  8
001
370
    50
100
AcDbVertex
100
AcDb2dVertex
 10
177.039655
 20
156.206443
 30
0.0
  0
VERTEX
  5
235
330
21D
100
AcDbEntity
  8
001
370
    50
100
AcDbVertex
100
AcDb2dVertex
 10
176.841767
 20
156.456292
 30
0.0
  0
VERTEX
  5
236
330
21D
100
AcDbEntity
  8
001
370
    50
100
AcDbVertex
100
AcDb2dVertex
 10
176.62744
 20
156.704801
 30
0.0
  0
VERTEX
  5
237
330
21D
100
AcDbEntity
  8
001
370
    50
100
AcDbVertex
100
AcDb2dVertex
 10
176.402776
 20
156.944015
 30
0.0
  0
VERTEX
  5
238
330
21D
100
AcDbEntity
  8
001
370
    50
100
AcDbVertex
100
AcDb2dVertex
 10
176.168163
 20
157.173535
 30
0.0
  0
VERTEX
  5
239
330
21D
100
AcDbEntity
  8
001
370
    50
100
AcDbVertex
100
AcDb2dVertex
 10
175.923999
 20
157.392856
 30
0.0
  0
VERTEX
  5
23A
330
21D
100
AcDbEntity
  8
001
370
    50
100
AcDbVertex
100
AcDb2dVertex
 10
175.678833
 20
157.595069
 30
0.0
  0
VERTEX
  5
23B
330
21D
100
AcDbEntity
  8
001
370
    50
100
AcDbVertex
100
AcDb2dVertex
 10
175.425508
 20
157.786965
 30
0.0
  0
VERTEX
  5
23C
330
21D
100
AcDbEntity
  8
001
370
    50
100
AcDbVertex
100
AcDb2dVertex
 10
175.164491
 20
157.968222
 30
0.0
  0
VERTEX
  5
23D
330
21D
100
AcDbEntity
  8
001
370
    50
100
AcDbVertex
100
AcDb2dVertex
 10
174.89618
 20
158.138492
 30
0.0
  0
VERTEX
  5
23E
330
21D
100
AcDbEntity
  8
001
370
    50
100
AcDbVertex
100
AcDb2dVertex
 10
174.612926
 20
158.301862
 30
0.0
  0
VERTEX
  5
23F
330
21D
100
AcDbEntity
  8
001
370
    50
100
AcDbVertex
100
AcDb2dVertex
 10
174.322942
 20
158.452978
 30
0.0
  0
VERTEX
  5
240
330
21D
100
AcDbEntity
  8
001
370
    50
100
AcDbVertex
100
AcDb2dVertex
 10
174.026789
 20
158.5916
 30
0.0
  0
VERTEX
  5
241
330
21D
100
AcDbEntity
  8
001
370
    50
100
AcDbVertex
100
AcDb2dVertex
 10
173.724989
 20
158.71743
 30
0.0
  0
VERTEX
  5
242
330
21D
100
AcDbEntity
  8
001
370
    50
100
AcDbVertex
100
AcDb2dVertex
 10
173.426753
 20
158.827207
 30
0.0
  0
VERTEX
  5
243
330
21D
100
AcDbEntity
  8
001
370
    50
100
AcDbVertex
100
AcDb2dVertex
 10
173.124216
 20
158.924534
 30
0.0
  0
VERTEX
  5
244
330
21D
100
AcDbEntity
  8
001
370
    50
100
AcDbVertex
100
AcDb2dVertex
 10
172.817903
 20
159.00931
 30
0.0
  0
VERTEX
  5
245
330
21D
100
AcDbEntity
  8
001
370
    50
100
AcDbVertex
100
AcDb2dVertex
 10
172.50835
 20
159.081278
 30
0.0
  0
VERTEX
  5
246
330
21D
100
AcDbEntity
  8
001
370
    50
100
AcDbVertex
100
AcDb2dVertex
 10
172.187034
 20
159.141775
 30
0.0
  0
VERTEX
  5
247
330
21D
100
AcDbEntity
  8
001
370
    50
100
AcDbVertex
100
AcDb2dVertex
 10
171.863423
 20
159.188815
 30
0.0
  0
VERTEX
  5
248
330
21D
100
AcDbEntity
  8
001
370
    50
100
AcDbVertex
100
AcDb2dVertex
 10
171.538092
 20
159.22247
 30
0.0
  0
VERTEX
  5
249
330
21D
100
AcDbEntity
  8
001
370
    50
100
AcDbVertex
100
AcDb2dVertex
 10
171.211684
 20
159.241487
 30
0.0
  0
VERTEX
  5
24A
330
21D
100
AcDbEntity
  8
001
370
    50
100
AcDbVertex
100
AcDb2dVertex
 10
171.063321
 20
159.245165
 30
0.0
  0
VERTEX
  5
24B
330
21D
100
AcDbEntity
  8
001
370
    50
100
AcDbVertex
100
AcDb2dVertex
 10
170.914913
 20
159.247172
 30
0.0
  0
SEQEND
  5
21E
330
21D
100
AcDbEntity
  8
001
370
    50
  0
POLYLINE
  5
24C
330
1F
100
AcDbEntity
  8
001
370
    50
100
AcDb2dPolyline
 66
     1
 10
0.0
 20
0.0
 30
0.0
  0
VERTEX
  5
24E
330
24C
100
AcDbEntity
  8
001
370
    50
100
AcDbVertex
100
AcDb2dVertex
 10
167.337465
 20
157.335196
 30
0.0
  0
VERTEX
  5
24F
330
24C
100
AcDbEntity
  8
001
370
    50
100
AcDbVertex
100
AcDb2dVertex
 10
167.601185
 20
157.551921
 30
0.0
  0
VERTEX
  5
250
330
24C
100
AcDbEntity
  8
001
370
    50
100
AcDbVertex
100
AcDb2dVertex
 10
167.871522
 20
157.759789
 30
0.0
  0
VERTEX
  5
251
330
24C
100
AcDbEntity
  8
001
370
    50
100
AcDbVertex
100
AcDb2dVertex
 10
168.157243
 20
157.954161
 30
0.0
  0
VERTEX
  5
252
330
24C
100
AcDbEntity
  8
001
370
    50
100
AcDbVertex
100
AcDb2dVertex
 10
168.453509
 20
158.132572
 30
0.0
  0
VERTEX
  5
253
330
24C
100
AcDbEntity
  8
001
370
    50
100
AcDbVertex
100
AcDb2dVertex
 10
168.738363
 20
158.286824
 30
0.0
  0
VERTEX
  5
254
330
24C
100
AcDbEntity
  8
001
370
    50
100
AcDbVertex
100
AcDb2dVertex
 10
169.029586
 20
158.42841
 30
0.0
  0
VERTEX
  5
255
330
24C
100
AcDbEntity
  8
001
370
    50
100
AcDbVertex
100
AcDb2dVertex
 10
169.316524
 20
158.552676
 30
0.0
  0
VERTEX
  5
256
330
24C
100
AcDbEntity
  8
001
370
    50
100
AcDbVertex
100
AcDb2dVertex
 10
169.60845
 20
158.664866
 30
0.0
  0
VERTEX
  5
257
330
24C
100
AcDbEntity
  8
001
370
    50
100
AcDbVertex
100
AcDb2dVertex
 10
169.863956
 20
158.752172
 30
0.0
  0
VERTEX
  5
258
330
24C
100
AcDbEntity
  8
001
370
    50
100
AcDbVertex
100
AcDb2dVertex
 10
170.122286
 20
158.830472
 30
0.0
  0
VERTEX
  5
259
330
24C
100
AcDbEntity
  8
001
370
    50
100
AcDbVertex
100
AcDb2dVertex
 10
170.355264
 20
158.892791
 30
0.0
  0
VERTEX
  5
25A
330
24C
100
AcDbEntity
  8
001
370
    50
100
AcDbVertex
100
AcDb2dVertex
 10
170.59007
 20
158.948475
 30
0.0
  0
VERTEX
  5
25B
330
24C
100
AcDbEntity
  8
001
370
    50
100
AcDbVertex
100
AcDb2dVertex
 10
170.778403
 20
158.988148
 30
0.0
  0
VERTEX
  5
25C
330
24C
100
AcDbEntity
  8
001
370
    50
100
AcDbVertex
100
AcDb2dVertex
 10
170.967559
 20
159.021745
 30
0.0
  0
VERTEX
  5
25D
330
24C
100
AcDbEntity
  8
001
370
    50
100
AcDbVertex
100
AcDb2dVertex
 10
171.114882
 20
159.043075
 30
0.0
  0
VERTEX
  5
25E
330
24C
100
AcDbEntity
  8
001
370
    50
100
AcDbVertex
100
AcDb2dVertex
 10
171.263033
 20
159.063819
 30
0.0
  0
VERTEX
  5
25F
330
24C
100
AcDbEntity
  8
001
370
    50
100
AcDbVertex
100
AcDb2dVertex
 10
171.359924
 20
159.076856
 30
0.0
  0
VERTEX
  5
260
330
24C
100
AcDbEntity
  8
001
370
    50
100
AcDbVertex
100
AcDb2dVertex
 10
171.456575
 20
159.07917
 30
0.0
  0
VERTEX
  5
261
330
24C
100
AcDbEntity
  8
001
370
    50
100
AcDbVertex
100
AcDb2dVertex
 10
171.504909
 20
159.073126
 30
0.0
  0
VERTEX
  5
262
330
24C
100
AcDbEntity
  8
001
370
    50
100
AcDbVertex
100
AcDb2dVertex
 10
171.553112
 20
159.064159
 30
0.0
  0
SEQEND
  5
24D
330
24C
100
AcDbEntity
  8
001
370
    50
  0
LINE
  5
263
330
1F
100
AcDbEntity
  8
001
370
    50
100
AcDbLine
 10
166.488268
 20
157.335196
 30
0.0
 11
167.337465
 21
157.335196
 31
0.0
  0
LINE
  5
264
330
1F
100
AcDbEntity
  8
001
370
    50
100
AcDbLine
 10
187.446102
 20
185.282111
 30
0.0
 11
187.446102
 21
184.150023
 31
0.0
  0
LINE
  5
265
330
1F
100
AcDbEntity
  8
001
370
    50
100
AcDbLine
 10
192.446102
 20
180.282111
 30
0.0
 11
192.446102
 21
134.282111
 31
0.0
  0
LINE
  5
266
330
1F
100
AcDbEntity
  8
001
370
    50
100
AcDbLine
 10
187.446102
 20
129.282111
 30
0.0
 11
192.446102
 21
134.282111
 31
0.0
  0
LINE
  5
267
330
1F
100
AcDbEntity
  8
001
370
    50
100
AcDbLine
 10
192.446102
 20
180.282111
 30
0.0
 11
187.446102
 21
185.282111
 31
0.0
  0
LINE
  5
268
330
1F
100
AcDbEntity
  8
001
370
    50
100
AcDbLine
 10
190.882883
 20
134.493603
 30
0.0
 11
187.446102
 21
130.612186
 31
0.0
  0
POLYLINE
  5
269
330
1F
100
AcDbEntity
  8
001
370
    50
100
AcDb2dPolyline
 66
     1
 10
0.0
 20
0.0
 30
0.0
  0
VERTEX
  5
26B
330
269
100
AcDbEntity
  8
001
370
    50
100
AcDbVertex
100
AcDb2dVertex
 10
187.446102
 20
137.022726
 30
0.0
  0
VERTEX
  5
26C
330
269
100
AcDbEntity
  8
001
370
    50
100
AcDbVertex
100
AcDb2dVertex
 10
187.641625
 20
136.848337
 30
0.0
  0
VERTEX
  5
26D
330
269
100
AcDbEntity
  8
001
370
    50
100
AcDbVertex
100
AcDb2dVertex
 10
187.920072
 20
136.60113
 30
0.0
  0
VERTEX
  5
26E
330
269
100
AcDbEntity
  8
001
370
    50
100
AcDbVertex
100
AcDb2dVertex
 10
189.247997
 20
135.464328
 30
0.0
  0
VERTEX
  5
26F
330
269
100
AcDbEntity
  8
001
370
    50
100
AcDbVertex
100
AcDb2dVertex
 10
190.768209
 20
134.548819
 30
0.0
  0
VERTEX
  5
270
330
269
100
AcDbEntity
  8
001
370
    50
100
AcDbVertex
100
AcDb2dVertex
 10
190.836037
 20
134.515941
 30
0.0
  0
VERTEX
  5
271
330
269
100
AcDbEntity
  8
001
370
    50
100
AcDbVertex
100
AcDb2dVertex
 10
190.882883
 20
134.493603
 30
0.0
  0
SEQEND
  5
26A
330
269
100
AcDbEntity
  8
001
370
    50
  0
LINE
  5
272
330
1F
100
AcDbEntity
  8
001
370
    50
100
AcDbLine
 10
187.446102
 20
178.001945
 30
0.0
 11
187.446102
 21
137.022726
 31
0.0
  0
LINE
  5
273
330
1F
100
AcDbEntity
  8
001
370
    50
100
AcDbLine
 10
190.882883
 20
176.615303
 30
0.0
 11
187.446102
 21
178.001945
 31
0.0
  0
POLYLINE
  5
274
330
1F
100
AcDbEntity
  8
001
370
    50
100
AcDb2dPolyline
 66
     1
 10
0.0
 20
0.0
 30
0.0
  0
VERTEX
  5
276
330
274
100
AcDbEntity
  8
001
370
    50
100
AcDbVertex
100
AcDb2dVertex
 10
190.882883
 20
176.615303
 30
0.0
  0
VERTEX
  5
277
330
274
100
AcDbEntity
  8
001
370
    50
100
AcDbVertex
100
AcDb2dVertex
 10
190.443811
 20
177.888474
 30
0.0
  0
VERTEX
  5
278
330
274
100
AcDbEntity
  8
001
370
    50
100
AcDbVertex
100
AcDb2dVertex
 10
189.726268
 20
179.719179
 30
0.0
  0
VERTEX
  5
279
330
274
100
AcDbEntity
  8
001
370
    50
100
AcDbVertex
100
AcDb2dVertex
 10
188.444178
 20
182.385108
 30
0.0
  0
VERTEX
  5
27A
330
274
100
AcDbEntity
  8
001
370
    50
100
AcDbVertex
100
AcDb2dVertex
 10
187.446102
 20
184.150023
 30
0.0
  0
SEQEND
  5
275
330
274
100
AcDbEntity
  8
001
370
    50
  0
LINE
  5
27B
330
1F
100
AcDbEntity
  8
001
370
    50
100
AcDbLine
 10
187.446102
 20
130.612186
 30
0.0
 11
187.446102
 21
129.282111
 31
0.0
  0
POLYLINE
  5
27C
330
1F
100
AcDbEntity
  8
001
370
    50
100
AcDb2dPolyline
 66
     1
 10
0.0
 20
0.0
 30
0.0
  0
VERTEX
  5
27E
330
27C
100
AcDbEntity
  8
001
370
    50
100
AcDbVertex
100
AcDb2dVertex
 10
178.393473
 20
149.529773
 30
0.0
  0
VERTEX
  5
27F
330
27C
100
AcDbEntity
  8
001
370
    50
100
AcDbVertex
100
AcDb2dVertex
 10
179.109011
 20
148.460055
 30
0.0
  0
VERTEX
  5
280
330
27C
100
AcDbEntity
  8
001
370
    50
100
AcDbVertex
100
AcDb2dVertex
 10
180.102871
 20
146.995752
 30
0.0
  0
VERTEX
  5
281
330
27C
100
AcDbEntity
  8
001
370
    50
100
AcDbVertex
100
AcDb2dVertex
 10
181.31519
 20
145.242652
 30
0.0
  0
VERTEX
  5
282
330
27C
100
AcDbEntity
  8
001
370
    50
100
AcDbVertex
100
AcDb2dVertex
 10
182.686103
 20
143.306546
 30
0.0
  0
VERTEX
  5
283
330
27C
100
AcDbEntity
  8
001
370
    50
100
AcDbVertex
100
AcDb2dVertex
 10
184.155744
 20
141.293222
 30
0.0
  0
VERTEX
  5
284
330
27C
100
AcDbEntity
  8
001
370
    50
100
AcDbVertex
100
AcDb2dVertex
 10
186.091931
 20
138.744314
 30
0.0
  0
VERTEX
  5
285
330
27C
100
AcDbEntity
  8
001
370
    50
100
AcDbVertex
100
AcDb2dVertex
 10
187.446102
 20
137.022726
 30
0.0
  0
SEQEND
  5
27D
330
27C
100
AcDbEntity
  8
001
370
    50
  0
LINE
  5
286
330
1F
100
AcDbEntity
  8
001
370
    50
100
AcDbLine
 10
170.241346
 20
171.872168
 30
0.0
 11
170.241346
 21
159.217929
 31
0.0
  0
POLYLINE
  5
287
330
1F
100
AcDbEntity
  8
001
370
    50
100
AcDb2dPolyline
 66
     1
 10
0.0
 20
0.0
 30
0.0
  0
VERTEX
  5
289
330
287
100
AcDbEntity
  8
001
370
    50
100
AcDbVertex
100
AcDb2dVertex
 10
172.062454
 20
172.160578
 30
0.0
  0
VERTEX
  5
28A
330
287
100
AcDbEntity
  8
001
370
    50
100
AcDbVertex
100
AcDb2dVertex
 10
171.692567
 20
172.102159
 30
0.0
  0
VERTEX
  5
28B
330
287
100
AcDbEntity
  8
001
370
    50
100
AcDbVertex
100
AcDb2dVertex
 10
171.151984
 20
172.016643
 30
0.0
  0
VERTEX
  5
28C
330
287
100
AcDbEntity
  8
001
370
    50
100
AcDbVertex
100
AcDb2dVertex
 10
170.611284
 20
171.930916
 30
0.0
  0
VERTEX
  5
28D
330
287
100
AcDbEntity
  8
001
370
    50
100
AcDbVertex
100
AcDb2dVertex
 10
170.241346
 20
171.872168
 30
0.0
  0
SEQEND
  5
288
330
287
100
AcDbEntity
  8
001
370
    50
  0
POLYLINE
  5
28E
330
1F
100
AcDbEntity
  8
001
370
    50
100
AcDb2dPolyline
 66
     1
 10
0.0
 20
0.0
 30
0.0
  0
VERTEX
  5
290
330
28E
100
AcDbEntity
  8
001
370
    50
100
AcDbVertex
100
AcDb2dVertex
 10
171.358694
 20
175.797412
 30
0.0
  0
VERTEX
  5
291
330
28E
100
AcDbEntity
  8
001
370
    50
100
AcDbVertex
100
AcDb2dVertex
 10
171.488341
 20
175.080496
 30
0.0
  0
VERTEX
  5
292
330
28E
100
AcDbEntity
  8
001
370
    50
100
AcDbVertex
100
AcDb2dVertex
 10
171.685347
 20
174.034107
 30
0.0
  0
VERTEX
  5
293
330
28E
100
AcDbEntity
  8
001
370
    50
100
AcDbVertex
100
AcDb2dVertex
 10
171.90615
 20
172.921084
 30
0.0
  0
VERTEX
  5
294
330
28E
100
AcDbEntity
  8
001
370
    50
100
AcDbVertex
100
AcDb2dVertex
 10
172.062454
 20
172.160578
 30
0.0
  0
SEQEND
  5
28F
330
28E
100
AcDbEntity
  8
001
370
    50
  0
POLYLINE
  5
295
330
1F
100
AcDbEntity
  8
001
370
    50
100
AcDb2dPolyline
 66
     1
 10
0.0
 20
0.0
 30
0.0
  0
VERTEX
  5
297
330
295
100
AcDbEntity
  8
001
370
    50
100
AcDbVertex
100
AcDb2dVertex
 10
187.446102
 20
178.001945
 30
0.0
  0
VERTEX
  5
298
330
295
100
AcDbEntity
  8
001
370
    50
100
AcDbVertex
100
AcDb2dVertex
 10
186.104338
 20
177.824652
 30
0.0
  0
VERTEX
  5
299
330
295
100
AcDbEntity
  8
001
370
    50
100
AcDbVertex
100
AcDb2dVertex
 10
184.201178
 20
177.571081
 30
0.0
  0
VERTEX
  5
29A
330
295
100
AcDbEntity
  8
001
370
    50
100
AcDbVertex
100
AcDb2dVertex
 10
181.923999
 20
177.264879
 30
0.0
  0
VERTEX
  5
29B
330
295
100
AcDbEntity
  8
001
370
    50
100
AcDbVertex
100
AcDb2dVertex
 10
179.460175
 20
176.929693
 30
0.0
  0
VERTEX
  5
29C
330
295
100
AcDbEntity
  8
001
370
    50
100
AcDbVertex
100
AcDb2dVertex
 10
176.959508
 20
176.584626
 30
0.0
  0
VERTEX
  5
29D
330
295
100
AcDbEntity
  8
001
370
    50
100
AcDbVertex
100
AcDb2dVertex
 10
174.649261
 20
176.262157
 30
0.0
  0
VERTEX
  5
29E
330
295
100
AcDbEntity
  8
001
370
    50
100
AcDbVertex
100
AcDb2dVertex
 10
172.719101
 20
175.990386
 30
0.0
  0
VERTEX
  5
29F
330
295
100
AcDbEntity
  8
001
370
    50
100
AcDbVertex
100
AcDb2dVertex
 10
171.358694
 20
175.797412
 30
0.0
  0
SEQEND
  5
296
330
295
100
AcDbEntity
  8
001
370
    50
  0
POLYLINE
  5
2A0
330
1F
100
AcDbEntity
  8
001
370
    50
100
AcDb2dPolyline
 66
     1
 10
0.0
 20
0.0
 30
0.0
  0
VERTEX
  5
2A2
330
2A0
100
AcDbEntity
  8
001
370
    50
100
AcDbVertex
100
AcDb2dVertex
 10
153.646102
 20
153.025098
 30
0.0
  0
VERTEX
  5
2A3
330
2A0
100
AcDbEntity
  8
001
370
    50
100
AcDbVertex
100
AcDb2dVertex
 10
154.79444
 20
153.416663
 30
0.0
  0
VERTEX
  5
2A4
330
2A0
100
AcDbEntity
  8
001
370
    50
100
AcDbVertex
100
AcDb2dVertex
 10
155.943169
 20
153.807075
 30
0.0
  0
VERTEX
  5
2A5
330
2A0
100
AcDbEntity
  8
001
370
    50
100
AcDbVertex
100
AcDb2dVertex
 10
157.127599
 20
154.207305
 30
0.0
  0
VERTEX
  5
2A6
330
2A0
100
AcDbEntity
  8
001
370
    50
100
AcDbVertex
100
AcDb2dVertex
 10
158.312576
 20
154.605914
 30
0.0
  0
VERTEX
  5
2A7
330
2A0
100
AcDbEntity
  8
001
370
    50
100
AcDbVertex
100
AcDb2dVertex
 10
159.520646
 20
155.011237
 30
0.0
  0
VERTEX
  5
2A8
330
2A0
100
AcDbEntity
  8
001
370
    50
100
AcDbVertex
100
AcDb2dVertex
 10
160.728974
 20
155.415793
 30
0.0
  0
VERTEX
  5
2A9
330
2A0
100
AcDbEntity
  8
001
370
    50
100
AcDbVertex
100
AcDb2dVertex
 10
161.951811
 20
155.824405
 30
0.0
  0
VERTEX
  5
2AA
330
2A0
100
AcDbEntity
  8
001
370
    50
100
AcDbVertex
100
AcDb2dVertex
 10
163.174864
 20
156.232372
 30
0.0
  0
VERTEX
  5
2AB
330
2A0
100
AcDbEntity
  8
001
370
    50
100
AcDbVertex
100
AcDb2dVertex
 10
164.83148
 20
156.784041
 30
0.0
  0
VERTEX
  5
2AC
330
2A0
100
AcDbEntity
  8
001
370
    50
100
AcDbVertex
100
AcDb2dVertex
 10
166.488268
 20
157.335196
 30
0.0
  0
SEQEND
  5
2A1
330
2A0
100
AcDbEntity
  8
001
370
    50
  0
POLYLINE
  5
2AD
330
1F
100
AcDbEntity
  8
001
370
    50
100
AcDb2dPolyline
 66
     1
 10
0.0
 20
0.0
 30
0.0
  0
VERTEX
  5
2AF
330
2AD
100
AcDbEntity
  8
001
370
    50
100
AcDbVertex
100
AcDb2dVertex
 10
153.646102
 20
161.066215
 30
0.0
  0
VERTEX
  5
2B0
330
2AD
100
AcDbEntity
  8
001
370
    50
100
AcDbVertex
100
AcDb2dVertex
 10
154.876845
 20
161.888866
 30
0.0
  0
VERTEX
  5
2B1
330
2AD
100
AcDbEntity
  8
001
370
    50
100
AcDbVertex
100
AcDb2dVertex
 10
156.109443
 20
162.708719
 30
0.0
  0
VERTEX
  5
2B2
330
2AD
100
AcDbEntity
  8
001
370
    50
100
AcDbVertex
100
AcDb2dVertex
 10
157.35137
 20
163.527784
 30
0.0
  0
VERTEX
  5
2B3
330
2AD
100
AcDbEntity
  8
001
370
    50
100
AcDbVertex
100
AcDb2dVertex
 10
158.595776
 20
164.343093
 30
0.0
  0
VERTEX
  5
2B4
330
2AD
100
AcDbEntity
  8
001
370
    50
100
AcDbVertex
100
AcDb2dVertex
 10
161.098739
 20
165.974323
 30
0.0
  0
VERTEX
  5
2B5
330
2AD
100
AcDbEntity
  8
001
370
    50
100
AcDbVertex
100
AcDb2dVertex
 10
163.605822
 20
167.599201
 30
0.0
  0
VERTEX
  5
2B6
330
2AD
100
AcDbEntity
  8
001
370
    50
100
AcDbVertex
100
AcDb2dVertex
 10
165.816218
 20
169.025762
 30
0.0
  0
VERTEX
  5
2B7
330
2AD
100
AcDbEntity
  8
001
370
    50
100
AcDbVertex
100
AcDb2dVertex
 10
168.028348
 20
170.449636
 30
0.0
  0
VERTEX
  5
2B8
330
2AD
100
AcDbEntity
  8
001
370
    50
100
AcDbVertex
100
AcDb2dVertex
 10
170.241346
 20
171.872168
 30
0.0
  0
SEQEND
  5
2AE
330
2AD
100
AcDbEntity
  8
001
370
    50
  0
LINE
  5
2B9
330
1F
100
AcDbEntity
  8
001
370
    50
100
AcDbLine
 10
165.790029
 20
156.095686
 30
0.0
 11
153.646102
 21
152.555287
 31
0.0
  0
POLYLINE
  5
2BA
330
1F
100
AcDbEntity
  8
001
370
    50
100
AcDb2dPolyline
 66
     1
 10
0.0
 20
0.0
 30
0.0
  0
VERTEX
  5
2BC
330
2BA
100
AcDbEntity
  8
001
370
    50
100
AcDbVertex
100
AcDb2dVertex
 10
167.337465
 20
157.335196
 30
0.0
  0
VERTEX
  5
2BD
330
2BA
100
AcDbEntity
  8
001
370
    50
100
AcDbVertex
100
AcDb2dVertex
 10
167.025879
 20
157.240273
 30
0.0
  0
VERTEX
  5
2BE
330
2BA
100
AcDbEntity
  8
001
370
    50
100
AcDbVertex
100
AcDb2dVertex
 10
166.593114
 20
157.107332
 30
0.0
  0
VERTEX
  5
2BF
330
2BA
100
AcDbEntity
  8
001
370
    50
100
AcDbVertex
100
AcDb2dVertex
 10
165.959133
 20
156.908168
 30
0.0
  0
VERTEX
  5
2C0
330
2BA
100
AcDbEntity
  8
001
370
    50
100
AcDbVertex
100
AcDb2dVertex
 10
165.376663
 20
156.691605
 30
0.0
  0
VERTEX
  5
2C1
330
2BA
100
AcDbEntity
  8
001
370
    50
100
AcDbVertex
100
AcDb2dVertex
 10
165.253784
 20
156.639876
 30
0.0
  0
VERTEX
  5
2C2
330
2BA
100
AcDbEntity
  8
001
370
    50
100
AcDbVertex
100
AcDb2dVertex
 10
165.136324
 20
156.591916
 30
0.0
  0
VERTEX
  5
2C3
330
2BA
100
AcDbEntity
  8
001
370
    50
100
AcDbVertex
100
AcDb2dVertex
 10
165.067791
 20
156.563437
 30
0.0
  0
VERTEX
  5
2C4
330
2BA
100
AcDbEntity
  8
001
370
    50
100
AcDbVertex
100
AcDb2dVertex
 10
164.992947
 20
156.517258
 30
0.0
  0
VERTEX
  5
2C5
330
2BA
100
AcDbEntity
  8
001
370
    50
100
AcDbVertex
100
AcDb2dVertex
 10
164.963027
 20
156.491679
 30
0.0
  0
VERTEX
  5
2C6
330
2BA
100
AcDbEntity
  8
001
370
    50
100
AcDbVertex
100
AcDb2dVertex
 10
164.950726
 20
156.47056
 30
0.0
  0
SEQEND
  5
2BB
330
2BA
100
AcDbEntity
  8
001
370
    50
  0
POLYLINE
  5
2C7
330
1F
100
AcDbEntity
  8
001
370
    50
100
AcDb2dPolyline
 66
     1
 10
0.0
 20
0.0
 30
0.0
  0
VERTEX
  5
2C9
330
2C7
100
AcDbEntity
  8
001
370
    50
100
AcDbVertex
100
AcDb2dVertex
 10
164.950726
 20
156.47056
 30
0.0
  0
VERTEX
  5
2CA
330
2C7
100
AcDbEntity
  8
001
370
    50
100
AcDbVertex
100
AcDb2dVertex
 10
164.95079
 20
156.47029
 30
0.0
  0
VERTEX
  5
2CB
330
2C7
100
AcDbEntity
  8
001
370
    50
100
AcDbVertex
100
AcDb2dVertex
 10
164.95089
 20
156.469898
 30
0.0
  0
VERTEX
  5
2CC
330
2C7
100
AcDbEntity
  8
001
370
    50
100
AcDbVertex
100
AcDb2dVertex
 10
164.973592
 20
156.450027
 30
0.0
  0
VERTEX
  5
2CD
330
2C7
100
AcDbEntity
  8
001
370
    50
100
AcDbVertex
100
AcDb2dVertex
 10
165.011429
 20
156.451275
 30
0.0
  0
VERTEX
  5
2CE
330
2C7
100
AcDbEntity
  8
001
370
    50
100
AcDbVertex
100
AcDb2dVertex
 10
165.094448
 20
156.45663
 30
0.0
  0
VERTEX
  5
2CF
330
2C7
100
AcDbEntity
  8
001
370
    50
100
AcDbVertex
100
AcDb2dVertex
 10
165.150582
 20
156.459394
 30
0.0
  0
SEQEND
  5
2C8
330
2C7
100
AcDbEntity
  8
001
370
    50
  0
LINE
  5
2D0
330
1F
100
AcDbEntity
  8
001
370
    50
100
AcDbLine
 10
195.446102
 20
173.282111
 30
0.0
 11
195.446102
 21
141.282111
 31
0.0
  0
LINE
  5
2D1
330
1F
100
AcDbEntity
  8
001
370
    50
100
AcDbLine
 10
264.446102
 20
173.282111
 30
0.0
 11
195.446102
 21
173.282111
 31
0.0
  0
LINE
  5
2D2
330
1F
100
AcDbEntity
  8
001
370
    50
100
AcDbLine
 10
264.446102
 20
141.282111
 30
0.0
 11
195.446102
 21
141.282111
 31
0.0
  0
LINE
  5
2D3
330
1F
100
AcDbEntity
  8
001
370
    50
100
AcDbLine
 10
272.446102
 20
149.282111
 30
0.0
 11
272.446102
 21
165.282111
 31
0.0
  0
LINE
  5
2D4
330
1F
100
AcDbEntity
  8
001
370
    50
100
AcDbLine
 10
195.446102
 20
172.782111
 30
0.0
 11
192.446102
 21
172.782111
 31
0.0
  0
LINE
  5
2D5
330
1F
100
AcDbEntity
  8
001
370
    50
100
AcDbLine
 10
192.446102
 20
141.782111
 30
0.0
 11
195.446102
 21
141.782111
 31
0.0
  0
POLYLINE
  5
2D6
330
1F
100
AcDbEntity
  8
001
370
    50
100
AcDb2dPolyline
 66
     1
 10
0.0
 20
0.0
 30
0.0
  0
VERTEX
  5
2D8
330
2D6
100
AcDbEntity
  8
001
370
    50
100
AcDbVertex
100
AcDb2dVertex
 10
182.705442
 20
185.282111
 30
0.0
  0
VERTEX
  5
2D9
330
2D6
100
AcDbEntity
  8
001
370
    50
100
AcDbVertex
100
AcDb2dVertex
 10
182.441712
 20
185.276955
 30
0.0
  0
VERTEX
  5
2DA
330
2D6
100
AcDbEntity
  8
001
370
    50
100
AcDbVertex
100
AcDb2dVertex
 10
182.067633
 20
185.2635
 30
0.0
  0
VERTEX
  5
2DB
330
2D6
100
AcDbEntity
  8
001
370
    50
100
AcDbVertex
100
AcDb2dVertex
 10
180.493594
 20
185.094228
 30
0.0
  0
VERTEX
  5
2DC
330
2D6
100
AcDbEntity
  8
001
370
    50
100
AcDbVertex
100
AcDb2dVertex
 10
178.966998
 20
184.661154
 30
0.0
  0
VERTEX
  5
2DD
330
2D6
100
AcDbEntity
  8
001
370
    50
100
AcDbVertex
100
AcDb2dVertex
 10
178.629779
 20
184.544156
 30
0.0
  0
VERTEX
  5
2DE
330
2D6
100
AcDbEntity
  8
001
370
    50
100
AcDbVertex
100
AcDb2dVertex
 10
178.393473
 20
184.459051
 30
0.0
  0
SEQEND
  5
2D7
330
2D6
100
AcDbEntity
  8
001
370
    50
  0
LINE
  5
2DF
330
1F
100
AcDbEntity
  8
001
370
    50
100
AcDbLine
 10
179.996181
 20
177.003046
 30
0.0
 11
178.393473
 21
184.459051
 31
0.0
  0
POLYLINE
  5
2E0
330
1F
100
AcDbEntity
  8
001
370
    50
100
AcDb2dPolyline
 66
     1
 10
0.0
 20
0.0
 30
0.0
  0
VERTEX
  5
2E2
330
2E0
100
AcDbEntity
  8
001
370
    50
100
AcDbVertex
100
AcDb2dVertex
 10
171.358694
 20
129.834141
 30
0.0
  0
VERTEX
  5
2E3
330
2E0
100
AcDbEntity
  8
001
370
    50
100
AcDbVertex
100
AcDb2dVertex
 10
172.719735
 20
129.886862
 30
0.0
  0
VERTEX
  5
2E4
330
2E0
100
AcDbEntity
  8
001
370
    50
100
AcDbVertex
100
AcDb2dVertex
 10
174.650355
 20
129.965693
 30
0.0
  0
VERTEX
  5
2E5
330
2E0
100
AcDbEntity
  8
001
370
    50
100
AcDbVertex
100
AcDb2dVertex
 10
176.960515
 20
130.065653
 30
0.0
  0
VERTEX
  5
2E6
330
2E0
100
AcDbEntity
  8
001
370
    50
100
AcDbVertex
100
AcDb2dVertex
 10
179.460176
 20
130.181764
 30
0.0
  0
VERTEX
  5
2E7
330
2E0
100
AcDbEntity
  8
001
370
    50
100
AcDbVertex
100
AcDb2dVertex
 10
182.7142
 20
130.347367
 30
0.0
  0
VERTEX
  5
2E8
330
2E0
100
AcDbEntity
  8
001
370
    50
100
AcDbVertex
100
AcDb2dVertex
 10
185.523955
 20
130.501202
 30
0.0
  0
VERTEX
  5
2E9
330
2E0
100
AcDbEntity
  8
001
370
    50
100
AcDbVertex
100
AcDb2dVertex
 10
187.446102
 20
130.612186
 30
0.0
  0
SEQEND
  5
2E1
330
2E0
100
AcDbEntity
  8
001
370
    50
  0
LINE
  5
2EA
330
1F
100
AcDbEntity
  8
001
370
    50
100
AcDbLine
 10
175.772991
 20
147.833678
 30
0.0
 11
171.358694
 21
129.834141
 31
0.0
  0
POLYLINE
  5
2EB
330
1F
100
AcDbEntity
  8
001
370
    50
100
AcDb2dPolyline
 66
     1
 10
0.0
 20
0.0
 30
0.0
  0
VERTEX
  5
2ED
330
2EB
100
AcDbEntity
  8
001
370
    50
100
AcDbVertex
100
AcDb2dVertex
 10
175.772991
 20
147.833678
 30
0.0
  0
VERTEX
  5
2EE
330
2EB
100
AcDbEntity
  8
001
370
    50
100
AcDbVertex
100
AcDb2dVertex
 10
175.997229
 20
147.891696
 30
0.0
  0
VERTEX
  5
2EF
330
2EB
100
AcDbEntity
  8
001
370
    50
100
AcDbVertex
100
AcDb2dVertex
 10
176.304566
 20
147.988403
 30
0.0
  0
VERTEX
  5
2F0
330
2EB
100
AcDbEntity
  8
001
370
    50
100
AcDbVertex
100
AcDb2dVertex
 10
176.640312
 20
148.128256
 30
0.0
  0
VERTEX
  5
2F1
330
2EB
100
AcDbEntity
  8
001
370
    50
100
AcDbVertex
100
AcDb2dVertex
 10
176.925812
 20
148.283072
 30
0.0
  0
VERTEX
  5
2F2
330
2EB
100
AcDbEntity
  8
001
370
    50
100
AcDbVertex
100
AcDb2dVertex
 10
177.698215
 20
148.861714
 30
0.0
  0
VERTEX
  5
2F3
330
2EB
100
AcDbEntity
  8
001
370
    50
100
AcDbVertex
100
AcDb2dVertex
 10
178.365186
 20
149.747174
 30
0.0
  0
VERTEX
  5
2F4
330
2EB
100
AcDbEntity
  8
001
370
    50
100
AcDbVertex
100
AcDb2dVertex
 10
178.454827
 20
149.916131
 30
0.0
  0
VERTEX
  5
2F5
330
2EB
100
AcDbEntity
  8
001
370
    50
100
AcDbVertex
100
AcDb2dVertex
 10
178.513649
 20
150.035176
 30
0.0
  0
SEQEND
  5
2EC
330
2EB
100
AcDbEntity
  8
001
370
    50
  0
POLYLINE
  5
2F6
330
1F
100
AcDbEntity
  8
001
370
    50
100
AcDb2dPolyline
 66
     1
 10
0.0
 20
0.0
 30
0.0
  0
VERTEX
  5
2F8
330
2F6
100
AcDbEntity
  8
001
370
    50
100
AcDbVertex
100
AcDb2dVertex
 10
178.231359
 20
153.966311
 30
0.0
  0
VERTEX
  5
2F9
330
2F6
100
AcDbEntity
  8
001
370
    50
100
AcDbVertex
100
AcDb2dVertex
 10
177.724392
 20
154.553649
 30
0.0
  0
VERTEX
  5
2FA
330
2F6
100
AcDbEntity
  8
001
370
    50
100
AcDbVertex
100
AcDb2dVertex
 10
176.92581
 20
155.211276
 30
0.0
  0
VERTEX
  5
2FB
330
2F6
100
AcDbEntity
  8
001
370
    50
100
AcDbVertex
100
AcDb2dVertex
 10
176.61257
 20
155.379599
 30
0.0
  0
VERTEX
  5
2FC
330
2F6
100
AcDbEntity
  8
001
370
    50
100
AcDbVertex
100
AcDb2dVertex
 10
176.304564
 20
155.505944
 30
0.0
  0
VERTEX
  5
2FD
330
2F6
100
AcDbEntity
  8
001
370
    50
100
AcDbVertex
100
AcDb2dVertex
 10
175.993484
 20
155.60892
 30
0.0
  0
VERTEX
  5
2FE
330
2F6
100
AcDbEntity
  8
001
370
    50
100
AcDbVertex
100
AcDb2dVertex
 10
175.642451
 20
155.686405
 30
0.0
  0
VERTEX
  5
2FF
330
2F6
100
AcDbEntity
  8
001
370
    50
100
AcDbVertex
100
AcDb2dVertex
 10
175.247619
 20
155.732319
 30
0.0
  0
VERTEX
  5
300
330
2F6
100
AcDbEntity
  8
001
370
    50
100
AcDbVertex
100
AcDb2dVertex
 10
174.959589
 20
155.747173
 30
0.0
  0
SEQEND
  5
2F7
330
2F6
100
AcDbEntity
  8
001
370
    50
  0
LINE
  5
301
330
1F
100
AcDbEntity
  8
001
370
    50
100
AcDbLine
 10
172.145069
 20
129.282111
 30
0.0
 11
187.446102
 21
129.282111
 31
0.0
  0
POLYLINE
  5
302
330
1F
100
AcDbEntity
  8
001
370
    50
100
AcDb2dPolyline
 66
     1
 10
0.0
 20
0.0
 30
0.0
  0
VERTEX
  5
304
330
302
100
AcDbEntity
  8
001
370
    50
100
AcDbVertex
100
AcDb2dVertex
 10
187.446102
 20
184.150023
 30
0.0
  0
VERTEX
  5
305
330
302
100
AcDbEntity
  8
001
370
    50
100
AcDbVertex
100
AcDb2dVertex
 10
186.498822
 20
184.56556
 30
0.0
  0
VERTEX
  5
306
330
302
100
AcDbEntity
  8
001
370
    50
100
AcDbVertex
100
AcDb2dVertex
 10
185.064891
 20
185.015645
 30
0.0
  0
VERTEX
  5
307
330
302
100
AcDbEntity
  8
001
370
    50
100
AcDbVertex
100
AcDb2dVertex
 10
183.673109
 20
185.232052
 30
0.0
  0
VERTEX
  5
308
330
302
100
AcDbEntity
  8
001
370
    50
100
AcDbVertex
100
AcDb2dVertex
 10
182.705442
 20
185.282111
 30
0.0
  0
SEQEND
  5
303
330
302
100
AcDbEntity
  8
001
370
    50
  0
LINE
  5
309
330
1F
100
AcDbEntity
  8
001
370
    50
100
AcDbLine
 10
187.446102
 20
185.282111
 30
0.0
 11
182.705442
 21
185.282111
 31
0.0
  0
POLYLINE
  5
30A
330
1F
100
AcDbEntity
  8
001
370
    50
100
AcDb2dPolyline
 66
     1
 10
0.0
 20
0.0
 30
0.0
  0
VERTEX
  5
30C
330
30A
100
AcDbEntity
  8
001
370
    50
100
AcDbVertex
100
AcDb2dVertex
 10
174.959589
 20
155.747173
 30
0.0
  0
VERTEX
  5
30D
330
30A
100
AcDbEntity
  8
001
370
    50
100
AcDbVertex
100
AcDb2dVertex
 10
174.671332
 20
155.732014
 30
0.0
  0
VERTEX
  5
30E
330
30A
100
AcDbEntity
  8
001
370
    50
100
AcDbVertex
100
AcDb2dVertex
 10
174.276728
 20
155.686404
 30
0.0
  0
VERTEX
  5
30F
330
30A
100
AcDbEntity
  8
001
370
    50
100
AcDbVertex
100
AcDb2dVertex
 10
173.926832
 20
155.610449
 30
0.0
  0
VERTEX
  5
310
330
30A
100
AcDbEntity
  8
001
370
    50
100
AcDbVertex
100
AcDb2dVertex
 10
173.614615
 20
155.505944
 30
0.0
  0
VERTEX
  5
311
330
30A
100
AcDbEntity
  8
001
370
    50
100
AcDbVertex
100
AcDb2dVertex
 10
173.302274
 20
155.373769
 30
0.0
  0
VERTEX
  5
312
330
30A
100
AcDbEntity
  8
001
370
    50
100
AcDbVertex
100
AcDb2dVertex
 10
172.993368
 20
155.211275
 30
0.0
  0
VERTEX
  5
313
330
30A
100
AcDbEntity
  8
001
370
    50
100
AcDbVertex
100
AcDb2dVertex
 10
172.171915
 20
154.55144
 30
0.0
  0
VERTEX
  5
314
330
30A
100
AcDbEntity
  8
001
370
    50
100
AcDbVertex
100
AcDb2dVertex
 10
171.553995
 20
153.747172
 30
0.0
  0
VERTEX
  5
315
330
30A
100
AcDbEntity
  8
001
370
    50
100
AcDbVertex
100
AcDb2dVertex
 10
171.273451
 20
153.168873
 30
0.0
  0
VERTEX
  5
316
330
30A
100
AcDbEntity
  8
001
370
    50
100
AcDbVertex
100
AcDb2dVertex
 10
171.086891
 20
152.441765
 30
0.0
  0
VERTEX
  5
317
330
30A
100
AcDbEntity
  8
001
370
    50
100
AcDbVertex
100
AcDb2dVertex
 10
171.086548
 20
152.439786
 30
0.0
  0
VERTEX
  5
318
330
30A
100
AcDbEntity
  8
001
370
    50
100
AcDbVertex
100
AcDb2dVertex
 10
171.086314
 20
152.438432
 30
0.0
  0
SEQEND
  5
30B
330
30A
100
AcDbEntity
  8
001
370
    50
  0
POLYLINE
  5
319
330
1F
100
AcDbEntity
  8
001
370
    50
100
AcDb2dPolyline
 66
     1
 10
0.0
 20
0.0
 30
0.0
  0
VERTEX
  5
31B
330
319
100
AcDbEntity
  8
001
370
    50
100
AcDbVertex
100
AcDb2dVertex
 10
175.376858
 20
155.724591
 30
0.0
  0
VERTEX
  5
31C
330
319
100
AcDbEntity
  8
001
370
    50
100
AcDbVertex
100
AcDb2dVertex
 10
175.266652
 20
155.710268
 30
0.0
  0
VERTEX
  5
31D
330
319
100
AcDbEntity
  8
001
370
    50
100
AcDbVertex
100
AcDb2dVertex
 10
175.111266
 20
155.686405
 30
0.0
  0
VERTEX
  5
31E
330
319
100
AcDbEntity
  8
001
370
    50
100
AcDbVertex
100
AcDb2dVertex
 10
174.756037
 20
155.609119
 30
0.0
  0
VERTEX
  5
31F
330
319
100
AcDbEntity
  8
001
370
    50
100
AcDbVertex
100
AcDb2dVertex
 10
174.449153
 20
155.505944
 30
0.0
  0
VERTEX
  5
320
330
319
100
AcDbEntity
  8
001
370
    50
100
AcDbVertex
100
AcDb2dVertex
 10
174.137688
 20
155.370886
 30
0.0
  0
VERTEX
  5
321
330
319
100
AcDbEntity
  8
001
370
    50
100
AcDbVertex
100
AcDb2dVertex
 10
173.827906
 20
155.211275
 30
0.0
  0
VERTEX
  5
322
330
319
100
AcDbEntity
  8
001
370
    50
100
AcDbVertex
100
AcDb2dVertex
 10
173.019999
 20
154.619478
 30
0.0
  0
VERTEX
  5
323
330
319
100
AcDbEntity
  8
001
370
    50
100
AcDbVertex
100
AcDb2dVertex
 10
172.388533
 20
153.747173
 30
0.0
  0
VERTEX
  5
324
330
319
100
AcDbEntity
  8
001
370
    50
100
AcDbVertex
100
AcDb2dVertex
 10
172.124549
 20
153.151097
 30
0.0
  0
VERTEX
  5
325
330
319
100
AcDbEntity
  8
001
370
    50
100
AcDbVertex
100
AcDb2dVertex
 10
171.977009
 20
152.708773
 30
0.0
  0
SEQEND
  5
31A
330
319
100
AcDbEntity
  8
001
370
    50
  0
POLYLINE
  5
326
330
1F
100
AcDbEntity
  8
001
370
    50
100
AcDb2dPolyline
 66
     1
 10
0.0
 20
0.0
 30
0.0
  0
VERTEX
  5
328
330
326
100
AcDbEntity
  8
001
370
    50
100
AcDbVertex
100
AcDb2dVertex
 10
153.646102
 20
169.103075
 30
0.0
  0
VERTEX
  5
329
330
326
100
AcDbEntity
  8
001
370
    50
100
AcDbVertex
100
AcDb2dVertex
 10
154.789545
 20
170.026323
 30
0.0
  0
VERTEX
  5
32A
330
326
100
AcDbEntity
  8
001
370
    50
100
AcDbVertex
100
AcDb2dVertex
 10
155.943169
 20
170.936486
 30
0.0
  0
VERTEX
  5
32B
330
326
100
AcDbEntity
  8
001
370
    50
100
AcDbVertex
100
AcDb2dVertex
 10
157.120999
 20
171.828982
 30
0.0
  0
VERTEX
  5
32C
330
326
100
AcDbEntity
  8
001
370
    50
100
AcDbVertex
100
AcDb2dVertex
 10
158.312576
 20
172.703325
 30
0.0
  0
VERTEX
  5
32D
330
326
100
AcDbEntity
  8
001
370
    50
100
AcDbVertex
100
AcDb2dVertex
 10
159.51753
 20
173.570423
 30
0.0
  0
VERTEX
  5
32E
330
326
100
AcDbEntity
  8
001
370
    50
100
AcDbVertex
100
AcDb2dVertex
 10
160.728974
 20
174.428315
 30
0.0
  0
VERTEX
  5
32F
330
326
100
AcDbEntity
  8
001
370
    50
100
AcDbVertex
100
AcDb2dVertex
 10
161.949235
 20
175.279701
 30
0.0
  0
VERTEX
  5
330
330
326
100
AcDbEntity
  8
001
370
    50
100
AcDbVertex
100
AcDb2dVertex
 10
163.174864
 20
176.123368
 30
0.0
  0
VERTEX
  5
331
330
326
100
AcDbEntity
  8
001
370
    50
100
AcDbVertex
100
AcDb2dVertex
 10
164.829445
 20
177.247554
 30
0.0
  0
VERTEX
  5
332
330
326
100
AcDbEntity
  8
001
370
    50
100
AcDbVertex
100
AcDb2dVertex
 10
166.488268
 20
178.365489
 30
0.0
  0
SEQEND
  5
327
330
326
100
AcDbEntity
  8
001
370
    50
  0
LINE
  5
333
330
1F
100
AcDbEntity
  8
001
370
    50
100
AcDbLine
 10
166.488268
 20
178.365489
 30
0.0
 11
167.271875
 21
174.720049
 31
0.0
  0
LINE
  5
334
330
1F
100
AcDbEntity
  8
001
370
    50
100
AcDbLine
 10
153.646102
 20
165.829553
 30
0.0
 11
153.646102
 21
169.103075
 31
0.0
  0
POLYLINE
  5
335
330
1F
100
AcDbEntity
  8
001
370
    50
100
AcDb2dPolyline
 66
     1
 10
0.0
 20
0.0
 30
0.0
  0
VERTEX
  5
337
330
335
100
AcDbEntity
  8
001
370
    50
100
AcDbVertex
100
AcDb2dVertex
 10
178.586046
 20
183.613189
 30
0.0
  0
VERTEX
  5
338
330
335
100
AcDbEntity
  8
001
370
    50
100
AcDbVertex
100
AcDb2dVertex
 10
178.539889
 20
183.502284
 30
0.0
  0
VERTEX
  5
339
330
335
100
AcDbEntity
  8
001
370
    50
100
AcDbVertex
100
AcDb2dVertex
 10
178.488847
 20
183.393892
 30
0.0
  0
VERTEX
  5
33A
330
335
100
AcDbEntity
  8
001
370
    50
100
AcDbVertex
100
AcDb2dVertex
 10
178.389444
 20
183.2297
 30
0.0
  0
VERTEX
  5
33B
330
335
100
AcDbEntity
  8
001
370
    50
100
AcDbVertex
100
AcDb2dVertex
 10
178.273267
 20
183.075948
 30
0.0
  0
VERTEX
  5
33C
330
335
100
AcDbEntity
  8
001
370
    50
100
AcDbVertex
100
AcDb2dVertex
 10
178.124388
 20
182.905679
 30
0.0
  0
VERTEX
  5
33D
330
335
100
AcDbEntity
  8
001
370
    50
100
AcDbVertex
100
AcDb2dVertex
 10
177.965206
 20
182.745515
 30
0.0
  0
VERTEX
  5
33E
330
335
100
AcDbEntity
  8
001
370
    50
100
AcDbVertex
100
AcDb2dVertex
 10
177.772102
 20
182.573282
 30
0.0
  0
VERTEX
  5
33F
330
335
100
AcDbEntity
  8
001
370
    50
100
AcDbVertex
100
AcDb2dVertex
 10
177.569705
 20
182.411821
 30
0.0
  0
VERTEX
  5
340
330
335
100
AcDbEntity
  8
001
370
    50
100
AcDbVertex
100
AcDb2dVertex
 10
177.336484
 20
182.243661
 30
0.0
  0
VERTEX
  5
341
330
335
100
AcDbEntity
  8
001
370
    50
100
AcDbVertex
100
AcDb2dVertex
 10
177.09602
 20
182.086105
 30
0.0
  0
VERTEX
  5
342
330
335
100
AcDbEntity
  8
001
370
    50
100
AcDbVertex
100
AcDb2dVertex
 10
176.823177
 20
181.922963
 30
0.0
  0
VERTEX
  5
343
330
335
100
AcDbEntity
  8
001
370
    50
100
AcDbVertex
100
AcDb2dVertex
 10
176.544148
 20
181.770598
 30
0.0
  0
VERTEX
  5
344
330
335
100
AcDbEntity
  8
001
370
    50
100
AcDbVertex
100
AcDb2dVertex
 10
176.23676
 20
181.61728
 30
0.0
  0
VERTEX
  5
345
330
335
100
AcDbEntity
  8
001
370
    50
100
AcDbVertex
100
AcDb2dVertex
 10
175.923999
 20
181.475259
 30
0.0
  0
VERTEX
  5
346
330
335
100
AcDbEntity
  8
001
370
    50
100
AcDbVertex
100
AcDb2dVertex
 10
175.585586
 20
181.335904
 30
0.0
  0
VERTEX
  5
347
330
335
100
AcDbEntity
  8
001
370
    50
100
AcDbVertex
100
AcDb2dVertex
 10
175.242579
 20
181.208243
 30
0.0
  0
VERTEX
  5
348
330
335
100
AcDbEntity
  8
001
370
    50
100
AcDbVertex
100
AcDb2dVertex
 10
174.875686
 20
181.085294
 30
0.0
  0
VERTEX
  5
349
330
335
100
AcDbEntity
  8
001
370
    50
100
AcDbVertex
100
AcDb2dVertex
 10
174.504994
 20
180.974322
 30
0.0
  0
VERTEX
  5
34A
330
335
100
AcDbEntity
  8
001
370
    50
100
AcDbVertex
100
AcDb2dVertex
 10
174.116554
 20
180.871492
 30
0.0
  0
VERTEX
  5
34B
330
335
100
AcDbEntity
  8
001
370
    50
100
AcDbVertex
100
AcDb2dVertex
 10
173.724989
 20
180.781282
 30
0.0
  0
VERTEX
  5
34C
330
335
100
AcDbEntity
  8
001
370
    50
100
AcDbVertex
100
AcDb2dVertex
 10
173.318347
 20
180.701441
 30
0.0
  0
VERTEX
  5
34D
330
335
100
AcDbEntity
  8
001
370
    50
100
AcDbVertex
100
AcDb2dVertex
 10
172.909357
 20
180.634722
 30
0.0
  0
VERTEX
  5
34E
330
335
100
AcDbEntity
  8
001
370
    50
100
AcDbVertex
100
AcDb2dVertex
 10
172.488611
 20
180.579585
 30
0.0
  0
VERTEX
  5
34F
330
335
100
AcDbEntity
  8
001
370
    50
100
AcDbVertex
100
AcDb2dVertex
 10
172.066338
 20
180.537155
 30
0.0
  0
VERTEX
  5
350
330
335
100
AcDbEntity
  8
001
370
    50
100
AcDbVertex
100
AcDb2dVertex
 10
171.639334
 20
180.507065
 30
0.0
  0
VERTEX
  5
351
330
335
100
AcDbEntity
  8
001
370
    50
100
AcDbVertex
100
AcDb2dVertex
 10
171.211684
 20
180.491689
 30
0.0
  0
VERTEX
  5
352
330
335
100
AcDbEntity
  8
001
370
    50
100
AcDbVertex
100
AcDb2dVertex
 10
170.726554
 20
180.492759
 30
0.0
  0
VERTEX
  5
353
330
335
100
AcDbEntity
  8
001
370
    50
100
AcDbVertex
100
AcDb2dVertex
 10
170.241346
 20
180.504891
 30
0.0
  0
SEQEND
  5
336
330
335
100
AcDbEntity
  8
001
370
    50
  0
POLYLINE
  5
354
330
1F
100
AcDbEntity
  8
001
370
    50
100
AcDb2dPolyline
 66
     1
 10
0.0
 20
0.0
 30
0.0
  0
VERTEX
  5
356
330
354
100
AcDbEntity
  8
001
370
    50
100
AcDbVertex
100
AcDb2dVertex
 10
170.241346
 20
180.504891
 30
0.0
  0
VERTEX
  5
357
330
354
100
AcDbEntity
  8
001
370
    50
100
AcDbVertex
100
AcDb2dVertex
 10
169.905134
 20
180.250147
 30
0.0
  0
VERTEX
  5
358
330
354
100
AcDbEntity
  8
001
370
    50
100
AcDbVertex
100
AcDb2dVertex
 10
169.565283
 20
180.000411
 30
0.0
  0
VERTEX
  5
359
330
354
100
AcDbEntity
  8
001
370
    50
100
AcDbVertex
100
AcDb2dVertex
 10
169.234011
 20
179.769998
 30
0.0
  0
VERTEX
  5
35A
330
354
100
AcDbEntity
  8
001
370
    50
100
AcDbVertex
100
AcDb2dVertex
 10
168.896704
 20
179.548397
 30
0.0
  0
VERTEX
  5
35B
330
354
100
AcDbEntity
  8
001
370
    50
100
AcDbVertex
100
AcDb2dVertex
 10
168.560556
 20
179.339642
 30
0.0
  0
VERTEX
  5
35C
330
354
100
AcDbEntity
  8
001
370
    50
100
AcDbVertex
100
AcDb2dVertex
 10
168.218705
 20
179.140471
 30
0.0
  0
VERTEX
  5
35D
330
354
100
AcDbEntity
  8
001
370
    50
100
AcDbVertex
100
AcDb2dVertex
 10
167.89422
 20
178.964443
 30
0.0
  0
VERTEX
  5
35E
330
354
100
AcDbEntity
  8
001
370
    50
100
AcDbVertex
100
AcDb2dVertex
 10
167.564366
 20
178.798524
 30
0.0
  0
VERTEX
  5
35F
330
354
100
AcDbEntity
  8
001
370
    50
100
AcDbVertex
100
AcDb2dVertex
 10
167.290299
 20
178.67111
 30
0.0
  0
VERTEX
  5
360
330
354
100
AcDbEntity
  8
001
370
    50
100
AcDbVertex
100
AcDb2dVertex
 10
167.011806
 20
178.554071
 30
0.0
  0
VERTEX
  5
361
330
354
100
AcDbEntity
  8
001
370
    50
100
AcDbVertex
100
AcDb2dVertex
 10
166.751156
 20
178.456887
 30
0.0
  0
VERTEX
  5
362
330
354
100
AcDbEntity
  8
001
370
    50
100
AcDbVertex
100
AcDb2dVertex
 10
166.488268
 20
178.365489
 30
0.0
  0
SEQEND
  5
355
330
354
100
AcDbEntity
  8
001
370
    50
  0
ARC
  5
363
330
1F
100
AcDbEntity
  8
001
370
    50
100
AcDbCircle
 10
166.470706
 20
144.426398
 30
0.0
 40
0.3950000000000001
100
AcDbArc
 50
13.633617
 51
166.366383
  0
ARC
  5
364
330
1F
100
AcDbEntity
  8
001
370
    50
100
AcDbCircle
 10
165.40995
 20
144.683681
 30
0.0
 40
0.6965113125890092
100
AcDbArc
 50
253.633617
 51
346.366383
  0
ARC
  5
365
330
1F
100
AcDbEntity
  8
001
370
    50
100
AcDbCircle
 10
165.102385
 20
143.636398
 30
0.0
 40
0.3950000000000001
100
AcDbArc
 50
73.633617
 51
226.366383
  0
ARC
  5
366
330
1F
100
AcDbEntity
  8
001
370
    50
100
AcDbCircle
 10
164.349194
 20
142.846398
 30
0.0
 40
0.6965113125890092
100
AcDbArc
 50
313.633617
 51
46.366383
  0
ARC
  5
367
330
1F
100
AcDbEntity
  8
001
370
    50
100
AcDbCircle
 10
165.102385
 20
142.056398
 30
0.0
 40
0.3950000000000001
100
AcDbArc
 50
133.633617
 51
286.366383
  0
ARC
  5
368
330
1F
100
AcDbEntity
  8
001
370
    50
100
AcDbCircle
 10
165.40995
 20
141.009115
 30
0.0
 40
0.6965113125890092
100
AcDbArc
 50
13.633617
 51
106.366383
  0
ARC
  5
369
330
1F
100
AcDbEntity
  8
001
370
    50
100
AcDbCircle
 10
166.470706
 20
141.266398
 30
0.0
 40
0.3950000000000001
100
AcDbArc
 50
193.633617
 51
346.366383
  0
ARC
  5
36A
330
1F
100
AcDbEntity
  8
001
370
    50
100
AcDbCircle
 10
167.531461
 20
141.009115
 30
0.0
 40
0.6965113125890092
100
AcDbArc
 50
73.633617
 51
166.366383
  0
ARC
  5
36B
330
1F
100
AcDbEntity
  8
001
370
    50
100
AcDbCircle
 10
167.839026
 20
142.056398
 30
0.0
 40
0.3950000000000001
100
AcDbArc
 50
253.633617
 51
46.366383
  0
ARC
  5
36C
330
1F
100
AcDbEntity
  8
001
370
    50
100
AcDbCircle
 10
168.592217
 20
142.846398
 30
0.0
 40
0.6965113125890092
100
AcDbArc
 50
133.633617
 51
226.366383
  0
ARC
  5
36D
330
1F
100
AcDbEntity
  8
001
370
    50
100
AcDbCircle
 10
167.839026
 20
143.636398
 30
0.0
 40
0.3950000000000001
100
AcDbArc
 50
313.633617
 51
106.366383
  0
ARC
  5
36E
330
1F
100
AcDbEntity
  8
001
370
    50
100
AcDbCircle
 10
167.531461
 20
144.683681
 30
0.0
 40
0.6965113125890092
100
AcDbArc
 50
193.633617
 51
286.366383
  0
CIRCLE
  5
36F
330
1F
100
AcDbEntity
  8
001
370
    50
100
AcDbCircle
 10
166.470706
 20
142.846398
 30
0.0
 40
3.5
  0
ARC
  5
370
330
1F
100
AcDbEntity
  8
001
370
    50
100
AcDbCircle
 10
264.446102
 20
165.282111
 30
0.0
 40
8.0
100
AcDbArc
 50
0.0
 51
90.0
  0
ARC
  5
371
330
1F
100
AcDbEntity
  8
001
370
    50
100
AcDbCircle
 10
264.446102
 20
149.282111
 30
0.0
 40
8.0
100
AcDbArc
 50
270.0
 51
0.0
  0
LINE
  5
372
330
1F
100
AcDbEntity
  8
001
370
    50
100
AcDbLine
 10
272.446102
 20
157.282111
 30
0.0
 11
275.044178
 21
158.782111
 31
0.0
  0
LINE
  5
373
330
1F
100
AcDbEntity
  8
001
370
    50
100
AcDbLine
 10
272.446102
 20
157.282111
 30
0.0
 11
275.044178
 21
155.782111
 31
0.0
  0
LINE
  5
374
330
1F
100
AcDbEntity
  8
001
370
    50
100
AcDbLine
 10
153.646102
 20
157.282111
 30
0.0
 11
151.048026
 21
158.782111
 31
0.0
  0
LINE
  5
375
330
1F
100
AcDbEntity
  8
001
370
    50
100
AcDbLine
 10
153.646102
 20
157.282111
 30
0.0
 11
151.048026
 21
155.782111
 31
0.0
  0
LINE
  5
376
330
1F
100
AcDbEntity
  8
001
  6
CENTER
370
     9
100
AcDbLine
 10
150.865818
 20
157.282111
 30
0.0
 11
274.688776
 21
157.282111
 31
0.0
  0
LINE
  5
377
330
1F
100
AcDbEntity
  8
001
370
    50
100
AcDbLine
 10
170.120847
 20
128.167111
 30
0.0
 11
170.991767
 21
128.167111
 31
0.0
  0
LINE
  5
378
330
1F
100
AcDbEntity
  8
001
  6
PHANTOM
370
     9
100
AcDbLine
 10
169.643899
 20
128.167111
 30
0.0
 11
170.120378
 21
128.167111
 31
0.0
  0
TEXT
  5
379
330
1F
100
AcDbEntity
  8
001
370
    30
100
AcDbText
 10
150.740381
 20
199.09171
 30
0.0
 40
8.0
  1
ヤングメン　ＢＮＫ４５５８Ｔ
 41
0.833333
100
AcDbText
  0
LINE
  5
37A
330
1F
100
AcDbEntity
  8
001
370
    50
100
AcDbLine
 10
153.318094
 20
147.071252
 30
0.0
 11
175.349262
 21
153.691908
 31
0.0
  0
LINE
  5
37B
330
1F
100
AcDbEntity
  8
001
370
    50
100
AcDbLine
 10
153.646102
 20
147.169822
 30
0.0
 11
153.646102
 21
161.066215
 31
0.0
  0
LINE
  5
37C
330
1F
100
AcDbEntity
  8
001
  6
PHANTOM
370
     9
100
AcDbLine
 10
152.446102
 20
145.392111
 30
0.0
 11
152.446102
 21
145.898691
 31
0.0
  0
LINE
  5
37D
330
1F
100
AcDbEntity
  8
001
  6
PHANTOM
370
     9
100
AcDbLine
 10
152.804025
 20
145.033621
 30
0.0
 11
152.446102
 21
145.392111
 31
0.0
  0
ARC
  5
37E
330
1F
100
AcDbEntity
  8
001
370
    50
100
AcDbCircle
 10
153.670464
 20
145.898691
 30
0.0
 40
1.224362104788087
100
AcDbArc
 50
106.726216
 51
224.954722
  0
ARC
  5
37F
330
1F
100
AcDbEntity
  8
001
370
    50
100
AcDbCircle
 10
170.082886
 20
129.225737
 30
0.0
 40
1.058626041812506
100
AcDbArc
 50
224.954722
 51
346.220454
  0
LINE
  5
380
330
1F
100
AcDbEntity
  8
001
370
    50
100
AcDbLine
 10
172.146661
 20
129.288603
 30
0.0
 11
172.015034
 21
128.751887
 31
0.0
  0
POLYLINE
  5
381
330
1F
100
AcDbEntity
  8
001
370
    50
100
AcDb2dPolyline
 66
     1
 10
0.0
 20
0.0
 30
0.0
  0
VERTEX
  5
383
330
381
100
AcDbEntity
  8
001
370
    50
100
AcDbVertex
100
AcDb2dVertex
 10
171.358694
 20
129.834141
 30
0.0
  0
VERTEX
  5
384
330
381
100
AcDbEntity
  8
001
370
    50
100
AcDbVertex
100
AcDb2dVertex
 10
171.591849
 20
129.56115
 30
0.0
  0
VERTEX
  5
385
330
381
100
AcDbEntity
  8
001
370
    50
100
AcDbVertex
100
AcDb2dVertex
 10
172.017617
 20
129.311401
 30
0.0
  0
VERTEX
  5
386
330
381
100
AcDbEntity
  8
001
370
    50
100
AcDbVertex
100
AcDb2dVertex
 10
172.083682
 20
129.297465
 30
0.0
  0
VERTEX
  5
387
330
381
100
AcDbEntity
  8
001
370
    50
100
AcDbVertex
100
AcDb2dVertex
 10
172.146661
 20
129.288603
 30
0.0
  0
SEQEND
  5
382
330
381
100
AcDbEntity
  8
001
370
    50
  0
LINE
  5
388
330
1F
100
AcDbEntity
  8
001
  6
PHANTOM
370
     9
100
AcDbLine
 10
169.333733
 20
128.477767
 30
0.0
 11
169.643899
 21
128.167111
 31
0.0
  0
LINE
  5
389
330
1F
100
AcDbEntity
  8
001
370
    50
100
AcDbLine
 10
169.333733
 20
128.477767
 30
0.0
 11
152.804025
 21
145.033621
 31
0.0
  0
ENDSEC
  0
SECTION
  2
OBJECTS
  0
DICTIONARY
  5
C
330
0
100
AcDbDictionary
281
     1
  3
ACAD_GROUP
350
D
  3
ACAD_LAYOUT
350
1A
  3
ACAD_MLEADERSTYLE
350
38D
  3
ACAD_MLINESTYLE
350
17
  3
ACAD_PLOTSETTINGS
350
19
  3
ACAD_PLOTSTYLENAME
350
E
  3
ACAD_SCALELIST
350
3B
  3
ACAD_TABLESTYLE
350
38C
  3
ACAD_VISUALSTYLE
350
2A
  3
AcDbVariableDictionary
350
38A
  0
DICTIONARY
  5
D
102
{ACAD_REACTORS
330
C
102
}
330
C
100
AcDbDictionary
281
     1
  0
DICTIONARY
  5
1A
102
{ACAD_REACTORS
330
C
102
}
330
C
100
AcDbDictionary
281
     1
  3
Layout1
350
1E
  3
Layout2
350
26
  3
Model
350
22
  0
DICTIONARY
  5
38D
102
{ACAD_REACTORS
330
C
102
}
330
C
100
AcDbDictionary
281
     1
  0
DICTIONARY
  5
17
102
{ACAD_REACTORS
330
C
102
}
330
C
100
AcDbDictionary
281
     1
  3
Standard
350
18
  0
DICTIONARY
  5
19
102
{ACAD_REACTORS
330
C
102
}
330
C
100
AcDbDictionary
281
     1
  0
ACDBDICTIONARYWDFLT
  5
E
102
{ACAD_REACTORS
330
C
102
}
330
C
100
AcDbDictionary
281
     1
  3
Normal
350
F
100
AcDbDictionaryWithDefault
340
F
  0
DICTIONARY
  5
3B
102
{ACAD_REACTORS
330
C
102
}
330
C
100
AcDbDictionary
281
     1
  3
A0
350
3C
  3
A1
350
3D
  3
A2
350
3E
  3
A3
350
3F
  3
A4
350
40
  3
A5
350
41
  3
A6
350
42
  3
A7
350
43
  3
A8
350
44
  3
A9
350
45
  3
B0
350
46
  3
B1
350
47
  3
B2
350
48
  3
B3
350
49
  3
B4
350
4A
  3
B5
350
4B
  3
B6
350
4C
  3
B7
350
4D
  3
B8
350
4E
  3
B9
350
4F
  3
C0
350
50
  3
C1
350
51
  3
C2
350
52
  3
C3
350
53
  3
C4
350
54
  3
C5
350
55
  3
C6
350
56
  3
C7
350
57
  3
C8
350
58
  3
C9
350
59
  3
D0
350
5A
  3
D1
350
5B
  3
D2
350
5C
  0
DICTIONARY
  5
38C
102
{ACAD_REACTORS
330
C
102
}
330
C
100
AcDbDictionary
281
     1
  0
DICTIONARY
  5
2A
102
{ACAD_REACTORS
330
C
102
}
330
C
100
AcDbDictionary
281
     1
  3
2dWireframe
350
2F
  3
3D Hidden
350
31
  3
3dWireframe
350
30
  3
Basic
350
32
  3
Brighten
350
36
  3
ColorChange
350
3A
  3
Conceptual
350
34
  3
Dim
350
35
  3
Facepattern
350
39
  3
Flat
350
2B
  3
FlatWithEdges
350
2C
  3
Gouraud
350
2D
  3
GouraudWithEdges
350
2E
  3
Linepattern
350
38
  3
Realistic
350
33
  3
Thicken
350
37
  0
DICTIONARY
  5
38A
102
{ACAD_REACTORS
330
C
102
}
330
C
100
AcDbDictionary
281
     1
  3
CANNOSCALE
350
38B
  3
PSOLHEIGHT
350
38F
  3
PSOLWIDTH
350
38E
  0
LAYOUT
  5
1E
102
{ACAD_REACTORS
330
1A
102
}
330
1A
100
AcDbPlotSettings
  1

  2
none_device
  4

  6

 40
0.0
 41
0.0
 42
0.0
 43
0.0
 44
0.0
 45
0.0
 46
0.0
 47
0.0
 48
0.0
 49
0.0
140
0.0
141
0.0
142
1.0
143
1.0
 70
   688
 72
     0
 73
     0
 74
     5
  7

 75
    16
147
1.0
148
0.0
149
0.0
100
AcDbLayout
  1
Layout1
 70
     1
 71
     1
 10
0.0
 20
0.0
 11
12.0
 21
9.0
 12
0.0
 22
0.0
 32
0.0
 14
1.000000E+20
 24
1.000000E+20
 34
0.0
 15
-1.000000E+20
 25
-1.000000E+20
 35
0.0
146
0.0
 13
0.0
 23
0.0
 33
0.0
 16
1.0
 26
0.0
 36
0.0
 17
0.0
 27
1.0
 37
0.0
 76
     0
330
1B
  0
LAYOUT
  5
26
102
{ACAD_REACTORS
330
1A
102
}
330
1A
100
AcDbPlotSettings
  1

  2
none_device
  4

  6

 40
0.0
 41
0.0
 42
0.0
 43
0.0
 44
0.0
 45
0.0
 46
0.0
 47
0.0
 48
0.0
 49
0.0
140
0.0
141
0.0
142
1.0
143
1.0
 70
   688
 72
     0
 73
     0
 74
     5
  7

 75
    16
147
1.0
148
0.0
149
0.0
100
AcDbLayout
  1
Layout2
 70
     1
 71
     2
 10
0.0
 20
0.0
 11
0.0
 21
0.0
 12
0.0
 22
0.0
 32
0.0
 14
0.0
 24
0.0
 34
0.0
 15
0.0
 25
0.0
 35
0.0
146
0.0
 13
0.0
 23
0.0
 33
0.0
 16
1.0
 26
0.0
 36
0.0
 17
0.0
 27
1.0
 37
0.0
 76
     0
330
23
  0
LAYOUT
  5
22
102
{ACAD_REACTORS
330
1A
102
}
330
1A
100
AcDbPlotSettings
  1

  2
none_device
  4

  6

 40
0.0
 41
0.0
 42
0.0
 43
0.0
 44
0.0
 45
0.0
 46
0.0
 47
0.0
 48
0.0
 49
0.0
140
0.0
141
0.0
142
1.0
143
1.0
 70
  1712
 72
     0
 73
     0
 74
     0
  7

 75
     0
147
1.0
148
0.0
149
0.0
100
AcDbLayout
  1
Model
 70
     1
 71
     0
 10
0.0
 20
0.0
 11
12.0
 21
9.0
 12
0.0
 22
0.0
 32
0.0
 14
120.796791
 24
89.892494
 34
0.0
 15
293.282806
 25
207.091705
 35
0.0
146
0.0
 13
0.0
 23
0.0
 33
0.0
 16
1.0
 26
0.0
 36
0.0
 17
0.0
 27
1.0
 37
0.0
 76
     0
330
1F
331
29
  0
MLINESTYLE
  5
18
102
{ACAD_REACTORS
330
17
102
}
330
17
100
AcDbMlineStyle
  2
Standard
 70
     0
  3

 62
   256
 51
90.0
 52
90.0
 71
     2
 49
0.5
 62
   256
  6
BYLAYER
 49
-0.5
 62
   256
  6
BYLAYER
  0
ACDBPLACEHOLDER
  5
F
102
{ACAD_REACTORS
330
E
102
}
330
E
  0
SCALE
  5
3C
102
{ACAD_REACTORS
330
3B
102
}
330
3B
100
AcDbScale
 70
     0
300
1:1
140
1.0
141
1.0
290
     1
  0
SCALE
  5
3D
102
{ACAD_REACTORS
330
3B
102
}
330
3B
100
AcDbScale
 70
     0
300
1:2
140
1.0
141
2.0
290
     0
  0
SCALE
  5
3E
102
{ACAD_REACTORS
330
3B
102
}
330
3B
100
AcDbScale
 70
     0
300
1:4
140
1.0
141
4.0
290
     0
  0
SCALE
  5
3F
102
{ACAD_REACTORS
330
3B
102
}
330
3B
100
AcDbScale
 70
     0
300
1:5
140
1.0
141
5.0
290
     0
  0
SCALE
  5
40
102
{ACAD_REACTORS
330
3B
102
}
330
3B
100
AcDbScale
 70
     0
300
1:8
140
1.0
141
8.0
290
     0
  0
SCALE
  5
41
102
{ACAD_REACTORS
330
3B
102
}
330
3B
100
AcDbScale
 70
     0
300
1:10
140
1.0
141
10.0
290
     0
  0
SCALE
  5
42
102
{ACAD_REACTORS
330
3B
102
}
330
3B
100
AcDbScale
 70
     0
300
1:16
140
1.0
141
16.0
290
     0
  0
SCALE
  5
43
102
{ACAD_REACTORS
330
3B
102
}
330
3B
100
AcDbScale
 70
     0
300
1:20
140
1.0
141
20.0
290
     0
  0
SCALE
  5
44
102
{ACAD_REACTORS
330
3B
102
}
330
3B
100
AcDbScale
 70
     0
300
1:30
140
1.0
141
30.0
290
     0
  0
SCALE
  5
45
102
{ACAD_REACTORS
330
3B
102
}
330
3B
100
AcDbScale
 70
     0
300
1:40
140
1.0
141
40.0
290
     0
  0
SCALE
  5
46
102
{ACAD_REACTORS
330
3B
102
}
330
3B
100
AcDbScale
 70
     0
300
1:50
140
1.0
141
50.0
290
     0
  0
SCALE
  5
47
102
{ACAD_REACTORS
330
3B
102
}
330
3B
100
AcDbScale
 70
     0
300
1:100
140
1.0
141
100.0
290
     0
  0
SCALE
  5
48
102
{ACAD_REACTORS
330
3B
102
}
330
3B
100
AcDbScale
 70
     0
300
2:1
140
2.0
141
1.0
290
     0
  0
SCALE
  5
49
102
{ACAD_REACTORS
330
3B
102
}
330
3B
100
AcDbScale
 70
     0
300
4:1
140
4.0
141
1.0
290
     0
  0
SCALE
  5
4A
102
{ACAD_REACTORS
330
3B
102
}
330
3B
100
AcDbScale
 70
     0
300
8:1
140
8.0
141
1.0
290
     0
  0
SCALE
  5
4B
102
{ACAD_REACTORS
330
3B
102
}
330
3B
100
AcDbScale
 70
     0
300
10:1
140
10.0
141
1.0
290
     0
  0
SCALE
  5
4C
102
{ACAD_REACTORS
330
3B
102
}
330
3B
100
AcDbScale
 70
     0
300
100:1
140
100.0
141
1.0
290
     0
  0
SCALE
  5
4D
102
{ACAD_REACTORS
330
3B
102
}
330
3B
100
AcDbScale
 70
     0
300
1/128" = 1'-0"
140
0.007812
141
12.0
290
     0
  0
SCALE
  5
4E
102
{ACAD_REACTORS
330
3B
102
}
330
3B
100
AcDbScale
 70
     0
300
1/64" = 1'-0"
140
0.015625
141
12.0
290
     0
  0
SCALE
  5
4F
102
{ACAD_REACTORS
330
3B
102
}
330
3B
100
AcDbScale
 70
     0
300
1/32" = 1'-0"
140
0.03125
141
12.0
290
     0
  0
SCALE
  5
50
102
{ACAD_REACTORS
330
3B
102
}
330
3B
100
AcDbScale
 70
     0
300
1/16" = 1'-0"
140
0.0625
141
12.0
290
     0
  0
SCALE
  5
51
102
{ACAD_REACTORS
330
3B
102
}
330
3B
100
AcDbScale
 70
     0
300
3/32" = 1'-0"
140
0.09375
141
12.0
290
     0
  0
SCALE
  5
52
102
{ACAD_REACTORS
330
3B
102
}
330
3B
100
AcDbScale
 70
     0
300
1/8" = 1'-0"
140
0.125
141
12.0
290
     0
  0
SCALE
  5
53
102
{ACAD_REACTORS
330
3B
102
}
330
3B
100
AcDbScale
 70
     0
300
3/16" = 1'-0"
140
0.1875
141
12.0
290
     0
  0
SCALE
  5
54
102
{ACAD_REACTORS
330
3B
102
}
330
3B
100
AcDbScale
 70
     0
300
1/4" = 1'-0"
140
0.25
141
12.0
290
     0
  0
SCALE
  5
55
102
{ACAD_REACTORS
330
3B
102
}
330
3B
100
AcDbScale
 70
     0
300
3/8" = 1'-0"
140
0.375
141
12.0
290
     0
  0
SCALE
  5
56
102
{ACAD_REACTORS
330
3B
102
}
330
3B
100
AcDbScale
 70
     0
300
1/2" = 1'-0"
140
0.5
141
12.0
290
     0
  0
SCALE
  5
57
102
{ACAD_REACTORS
330
3B
102
}
330
3B
100
AcDbScale
 70
     0
300
3/4" = 1'-0"
140
0.75
141
12.0
290
     0
  0
SCALE
  5
58
102
{ACAD_REACTORS
330
3B
102
}
330
3B
100
AcDbScale
 70
     0
300
1" = 1'-0"
140
1.0
141
12.0
290
     0
  0
SCALE
  5
59
102
{ACAD_REACTORS
330
3B
102
}
330
3B
100
AcDbScale
 70
     0
300
1-1/2" = 1'-0"
140
1.5
141
12.0
290
     0
  0
SCALE
  5
5A
102
{ACAD_REACTORS
330
3B
102
}
330
3B
100
AcDbScale
 70
     0
300
3" = 1'-0"
140
3.0
141
12.0
290
     0
  0
SCALE
  5
5B
102
{ACAD_REACTORS
330
3B
102
}
330
3B
100
AcDbScale
 70
     0
300
6" = 1'-0"
140
6.0
141
12.0
290
     0
  0
SCALE
  5
5C
102
{ACAD_REACTORS
330
3B
102
}
330
3B
100
AcDbScale
 70
     0
300
1'-0" = 1'-0"
140
12.0
141
12.0
290
     0
  0
VISUALSTYLE
  5
2F
102
{ACAD_REACTORS
330
2A
102
}
330
2A
100
AcDbVisualStyle
  2
2dWireframe
 70
     4
 71
     0
 72
     2
 73
     0
 90
        0
 40
-0.6
 41
-30.0
 62
     5
 63
     7
 74
     1
 91
        4
 64
     7
 65
   257
 75
     1
175
     1
 42
1.0
 92
        0
 66
   257
 43
1.0
 76
     1
 77
     6
 78
     2
 67
     7
 79
     5
170
     0
171
     0
290
     0
174
     0
 93
        1
 44
0.0
173
     0
291
     0
 45
0.0
1001
ACAD
1000
AcDbSavedByObjectVersion
1070
     0
  0
VISUALSTYLE
  5
31
102
{ACAD_REACTORS
330
2A
102
}
330
2A
100
AcDbVisualStyle
  2
3D Hidden
 70
     6
 71
     1
 72
     2
 73
     2
 90
        0
 40
-0.6
 41
-30.0
 62
     5
 63
     7
 74
     2
 91
        2
 64
     7
 65
   257
 75
     2
175
     1
 42
40.0
 92
        0
 66
   257
 43
1.0
 76
     1
 77
     6
 78
     2
 67
     7
 79
     3
170
     0
171
     0
290
     0
174
     0
 93
        1
 44
0.0
173
     0
291
     0
 45
0.0
1001
ACAD
1000
AcDbSavedByObjectVersion
1070
     0
  0
VISUALSTYLE
  5
30
102
{ACAD_REACTORS
330
2A
102
}
330
2A
100
AcDbVisualStyle
  2
3dWireframe
 70
     5
 71
     0
 72
     2
 73
     0
 90
        0
 40
-0.6
 41
-30.0
 62
     5
 63
     7
 74
     1
 91
        4
 64
     7
 65
   257
 75
     1
175
     1
 42
1.0
 92
        0
 66
   257
 43
1.0
 76
     1
 77
     6
 78
     2
 67
     7
 79
     5
170
     0
171
     0
290
     0
174
     0
 93
        1
 44
0.0
173
     0
291
     0
 45
0.0
1001
ACAD
1000
AcDbSavedByObjectVersion
1070
     0
  0
VISUALSTYLE
  5
32
102
{ACAD_REACTORS
330
2A
102
}
330
2A
100
AcDbVisualStyle
  2
Basic
 70
     7
 71
     1
 72
     0
 73
     1
 90
        0
 40
-0.6
 41
-30.0
 62
     5
 63
     7
 74
     0
 91
        4
 64
     7
 65
   257
 75
     1
175
     1
 42
1.0
 92
        8
 66
     7
 43
1.0
 76
     1
 77
     6
 78
     2
 67
     7
 79
     5
170
     0
171
     0
290
     0
174
     0
 93
        1
 44
0.0
173
     0
291
     1
 45
0.0
1001
ACAD
1000
AcDbSavedByObjectVersion
1070
     0
  0
VISUALSTYLE
  5
36
102
{ACAD_REACTORS
330
2A
102
}
330
2A
100
AcDbVisualStyle
  2
Brighten
 70
    12
 71
     2
 72
     2
 73
     0
 90
        0
 40
-0.6
 41
-30.0
 62
     5
 63
     7
 74
     1
 91
        4
 64
     7
 65
   257
 75
     1
175
     1
 42
1.0
 92
        8
 66
     7
 43
1.0
 76
     1
 77
     6
 78
     2
 67
     7
 79
     5
170
     0
171
     0
290
     0
174
     0
 93
        1
 44
50.0
173
     0
291
     1
 45
0.0
1001
ACAD
1000
AcDbSavedByObjectVersion
1070
     0
  0
VISUALSTYLE
  5
3A
102
{ACAD_REACTORS
330
2A
102
}
330
2A
100
AcDbVisualStyle
  2
ColorChange
 70
    16
 71
     2
 72
     2
 73
     3
 90
        0
 40
-0.6
 41
-30.0
 62
     5
 63
     8
 74
     1
 91
        4
 64
     7
 65
   257
 75
     1
175
     1
 42
1.0
 92
        8
 66
     8
 43
1.0
 76
     1
 77
     6
 78
     2
 67
     7
 79
     5
170
     0
171
     0
290
     0
174
     0
 93
        1
 44
0.0
173
     0
291
     1
 45
0.0
1001
ACAD
1000
AcDbSavedByObjectVersion
1070
     0
  0
VISUALSTYLE
  5
34
102
{ACAD_REACTORS
330
2A
102
}
330
2A
100
AcDbVisualStyle
  2
Conceptual
 70
     9
 71
     3
 72
     2
 73
     0
 90
        0
 40
-0.6
 41
-30.0
 62
     5
 63
     7
 74
     2
 91
        2
 64
     7
 65
   257
 75
     1
175
     1
 42
40.0
 92
        8
 66
     7
 43
1.0
 76
     1
 77
     6
 78
     2
 67
     7
 79
     3
170
     0
171
     0
290
     0
174
     0
 93
        1
 44
0.0
173
     0
291
     0
 45
0.0
1001
ACAD
1000
AcDbSavedByObjectVersion
1070
     0
  0
VISUALSTYLE
  5
35
102
{ACAD_REACTORS
330
2A
102
}
330
2A
100
AcDbVisualStyle
  2
Dim
 70
    11
 71
     2
 72
     2
 73
     0
 90
        0
 40
-0.6
 41
-30.0
 62
     5
 63
     7
 74
     1
 91
        4
 64
     7
 65
   257
 75
     1
175
     1
 42
1.0
 92
        8
 66
     7
 43
1.0
 76
     1
 77
     6
 78
     2
 67
     7
 79
     5
170
     0
171
     0
290
     0
174
     0
 93
        1
 44
-50.0
173
     0
291
     1
 45
0.0
1001
ACAD
1000
AcDbSavedByObjectVersion
1070
     0
  0
VISUALSTYLE
  5
39
102
{ACAD_REACTORS
330
2A
102
}
330
2A
100
AcDbVisualStyle
  2
Facepattern
 70
    15
 71
     2
 72
     2
 73
     0
 90
        0
 40
-0.6
 41
-30.0
 62
     5
 63
     7
 74
     1
 91
        4
 64
     7
 65
   257
 75
     1
175
     1
 42
1.0
 92
        8
 66
     7
 43
1.0
 76
     1
 77
     6
 78
     2
 67
     7
 79
     5
170
     0
171
     0
290
     0
174
     0
 93
        1
 44
0.0
173
     0
291
     1
 45
0.0
1001
ACAD
1000
AcDbSavedByObjectVersion
1070
     0
  0
VISUALSTYLE
  5
2B
102
{ACAD_REACTORS
330
2A
102
}
330
2A
100
AcDbVisualStyle
  2
Flat
 70
     0
 71
     2
 72
     1
 73
     1
 90
        2
 40
-0.6
 41
30.0
 62
     5
 63
     7
 74
     0
 91
        4
 64
     7
 65
   257
 75
     1
175
     1
 42
1.0
 92
        8
 66
     7
 43
1.0
 76
     1
 77
     6
 78
     2
 67
     7
 79
     5
170
     0
171
     0
290
     0
174
     0
 93
       13
 44
0.0
173
     0
291
     1
 45
0.0
1001
ACAD
1000
AcDbSavedByObjectVersion
1070
     0
  0
VISUALSTYLE
  5
2C
102
{ACAD_REACTORS
330
2A
102
}
330
2A
100
AcDbVisualStyle
  2
FlatWithEdges
 70
     1
 71
     2
 72
     1
 73
     1
 90
        2
 40
-0.6
 41
30.0
 62
     5
 63
     7
 74
     1
 91
        4
 64
     7
 65
   257
 75
     1
175
     1
 42
1.0
 92
        0
 66
   257
 43
1.0
 76
     1
 77
     6
 78
     2
 67
     7
 79
     5
170
     0
171
     0
290
     0
174
     0
 93
       13
 44
0.0
173
     0
291
     1
 45
0.0
1001
ACAD
1000
AcDbSavedByObjectVersion
1070
     0
  0
VISUALSTYLE
  5
2D
102
{ACAD_REACTORS
330
2A
102
}
330
2A
100
AcDbVisualStyle
  2
Gouraud
 70
     2
 71
     2
 72
     2
 73
     1
 90
        2
 40
-0.6
 41
30.0
 62
     5
 63
     7
 74
     0
 91
        4
 64
     7
 65
   257
 75
     1
175
     1
 42
1.0
 92
        0
 66
     7
 43
1.0
 76
     1
 77
     6
 78
     2
 67
     7
 79
     5
170
     0
171
     0
290
     0
174
     0
 93
       13
 44
0.0
173
     0
291
     1
 45
0.0
1001
ACAD
1000
AcDbSavedByObjectVersion
1070
     0
  0
VISUALSTYLE
  5
2E
102
{ACAD_REACTORS
330
2A
102
}
330
2A
100
AcDbVisualStyle
  2
GouraudWithEdges
 70
     3
 71
     2
 72
     2
 73
     1
 90
        2
 40
-0.6
 41
30.0
 62
     5
 63
     7
 74
     1
 91
        4
 64
     7
 65
   257
 75
     1
175
     1
 42
1.0
 92
        0
 66
   257
 43
1.0
 76
     1
 77
     6
 78
     2
 67
     7
 79
     5
170
     0
171
     0
290
     0
174
     0
 93
       13
 44
0.0
173
     0
291
     1
 45
0.0
1001
ACAD
1000
AcDbSavedByObjectVersion
1070
     0
  0
VISUALSTYLE
  5
38
102
{ACAD_REACTORS
330
2A
102
}
330
2A
100
AcDbVisualStyle
  2
Linepattern
 70
    14
 71
     2
 72
     2
 73
     0
 90
        0
 40
-0.6
 41
-30.0
 62
     5
 63
     7
 74
     1
 91
        4
 64
     7
 65
   257
 75
     7
175
     7
 42
1.0
 92
        8
 66
     7
 43
1.0
 76
     1
 77
     6
 78
     2
 67
     7
 79
     5
170
     0
171
     0
290
     0
174
     0
 93
        1
 44
0.0
173
     0
291
     1
 45
0.0
1001
ACAD
1000
AcDbSavedByObjectVersion
1070
     0
  0
VISUALSTYLE
  5
33
102
{ACAD_REACTORS
330
2A
102
}
330
2A
100
AcDbVisualStyle
  2
Realistic
 70
     8
 71
     2
 72
     2
 73
     0
 90
        0
 40
-0.6
 41
-30.0
 62
     5
 63
     7
 74
     1
 91
        0
 64
     7
 65
   257
 75
     1
175
     1
 42
1.0
 92
        8
 66
     8
 43
1.0
 76
     1
 77
     6
 78
     2
 67
     7
 79
     5
170
     0
171
     0
290
     0
174
     0
 93
       13
 44
0.0
173
     0
291
     0
 45
0.0
1001
ACAD
1000
AcDbSavedByObjectVersion
1070
     0
  0
VISUALSTYLE
  5
37
102
{ACAD_REACTORS
330
2A
102
}
330
2A
100
AcDbVisualStyle
  2
Thicken
 70
    13
 71
     2
 72
     2
 73
     0
 90
        0
 40
-0.6
 41
-30.0
 62
     5
 63
     7
 74
     1
 91
        4
 64
     7
 65
   257
 75
     1
175
     1
 42
1.0
 92
       12
 66
     7
 43
1.0
 76
     1
 77
     6
 78
     2
 67
     7
 79
     5
170
     0
171
     0
290
     0
174
     0
 93
        1
 44
0.0
173
     0
291
     1
 45
0.0
1001
ACAD
1000
AcDbSavedByObjectVersion
1070
     0
  0
DICTIONARYVAR
  5
38B
102
{ACAD_REACTORS
330
38A
102
}
330
38A
100
DictionaryVariables
280
     0
  1
1:1
  0
DICTIONARYVAR
  5
38F
102
{ACAD_REACTORS
330
38A
102
}
330
38A
100
DictionaryVariables
280
     0
  1
80.000000
  0
DICTIONARYVAR
  5
38E
102
{ACAD_REACTORS
330
38A
102
}
330
38A
100
DictionaryVariables
280
     0
  1
5.000000
  0
ENDSEC
  0
EOF
