  0
SECTION
  2
HEADER
  9
$ACADVER
  1
AC1015
  9
$ACADMAINTVER
 70
     6
  9
$DWGCODEPAGE
  3
ANSI_932
  9
$INSBASE
 10
0.0
 20
0.0
 30
0.0
  9
$EXTMIN
 10
8.90493
 20
9.487442
 30
0.0
  9
$EXTMAX
 10
123.563927
 20
97.260651
 30
0.0
  9
$LIMMIN
 10
0.0
 20
0.0
  9
$LIMMAX
 10
12.0
 20
9.0
  9
$ORTHOMODE
 70
     0
  9
$REGENMODE
 70
     1
  9
$FILLMODE
 70
     1
  9
$QTEXTMODE
 70
     0
  9
$MIRRTEXT
 70
     1
  9
$LTSCALE
 40
1.443981
  9
$ATTMODE
 70
     1
  9
$TEXTSIZE
 40
3.2
  9
$TRACEWID
 40
1.0
  9
$TEXTSTYLE
  7
Standard
  9
$CLAYER
  8
0
  9
$CELTYPE
  6
ByLayer
  9
$CECOLOR
 62
   256
  9
$CELTSCALE
 40
1.0
  9
$DISPSILH
 70
     0
  9
$DIMSCALE
 40
1.0
  9
$DIMASZ
 40
2.5
  9
$DIMEXO
 40
0.625
  9
$DIMDLI
 40
3.75
  9
$DIMRND
 40
0.0
  9
$DIMDLE
 40
0.0
  9
$DIMEXE
 40
1.25
  9
$DIMTP
 40
0.0
  9
$DIMTM
 40
0.0
  9
$DIMTXT
 40
2.5
  9
$DIMCEN
 40
0.09
  9
$DIMTSZ
 40
0.0
  9
$DIMTOL
 70
     0
  9
$DIMLIM
 70
     0
  9
$DIMTIH
 70
     0
  9
$DIMTOH
 70
     0
  9
$DIMSE1
 70
     0
  9
$DIMSE2
 70
     0
  9
$DIMTAD
 70
     0
  9
$DIMZIN
 70
     8
  9
$DIMBLK
  1

  9
$DIMASO
 70
     1
  9
$DIMSHO
 70
     0
  9
$DIMPOST
  1

  9
$DIMAPOST
  1

  9
$DIMALT
 70
     0
  9
$DIMALTD
 70
     3
  9
$DIMALTF
 40
0.03937
  9
$DIMLFAC
 40
1.0
  9
$DIMTOFL
 70
     1
  9
$DIMTVP
 40
0.0
  9
$DIMTIX
 70
     0
  9
$DIMSOXD
 70
     0
  9
$DIMSAH
 70
     0
  9
$DIMBLK1
  1

  9
$DIMBLK2
  1

  9
$DIMSTYLE
  2
ISO-25
  9
$DIMCLRD
 70
     0
  9
$DIMCLRE
 70
     0
  9
$DIMCLRT
 70
     0
  9
$DIMTFAC
 40
1.0
  9
$DIMGAP
 40
0.625
  9
$DIMJUST
 70
     0
  9
$DIMSD1
 70
     0
  9
$DIMSD2
 70
     0
  9
$DIMTOLJ
 70
     0
  9
$DIMTZIN
 70
     8
  9
$DIMALTZ
 70
     0
  9
$DIMALTTZ
 70
     0
  9
$DIMUPT
 70
     0
  9
$DIMDEC
 70
     2
  9
$DIMTDEC
 70
     2
  9
$DIMALTU
 70
     2
  9
$DIMALTTD
 70
     3
  9
$DIMTXSTY
  7
Standard
  9
$DIMAUNIT
 70
     0
  9
$DIMADEC
 70
     0
  9
$DIMALTRND
 40
0.0
  9
$DIMAZIN
 70
     0
  9
$DIMDSEP
 70
    44
  9
$DIMATFIT
 70
     3
  9
$DIMFRAC
 70
     0
  9
$DIMLDRBLK
  1

  9
$DIMLUNIT
 70
     2
  9
$DIMLWD
 70
    -2
  9
$DIMLWE
 70
    -2
  9
$DIMTMOVE
 70
     0
  9
$LUNITS
 70
     2
  9
$LUPREC
 70
     4
  9
$SKETCHINC
 40
1.0
  9
$FILLETRAD
 40
0.0
  9
$AUNITS
 70
     0
  9
$AUPREC
 70
     0
  9
$MENU
  1
.
  9
$ELEVATION
 40
0.0
  9
$PELEVATION
 40
0.0
  9
$THICKNESS
 40
0.0
  9
$LIMCHECK
 70
     0
  9
$CHAMFERA
 40
10.0
  9
$CHAMFERB
 40
10.0
  9
$CHAMFERC
 40
20.0
  9
$CHAMFERD
 40
0.0
  9
$SKPOLY
 70
     0
  9
$TDCREATE
 40
2456276.39906213
  9
$TDUCREATE
 40
2456276.02406213
  9
$TDUPDATE
 40
2456276.399062141
  9
$TDUUPDATE
 40
2456276.024062141
  9
$TDINDWG
 40
0.0000000116
  9
$TDUSRTIMER
 40
0.0000000116
  9
$USRTIMER
 70
     1
  9
$ANGBASE
 50
0.0
  9
$ANGDIR
 70
     0
  9
$PDMODE
 70
     0
  9
$PDSIZE
 40
0.0
  9
$PLINEWID
 40
0.0
  9
$SPLFRAME
 70
     0
  9
$SPLINETYPE
 70
     6
  9
$SPLINESEGS
 70
     8
  9
$HANDSEED
  5
199
  9
$SURFTAB1
 70
     6
  9
$SURFTAB2
 70
     6
  9
$SURFTYPE
 70
     6
  9
$SURFU
 70
     6
  9
$SURFV
 70
     6
  9
$UCSBASE
  2

  9
$UCSNAME
  2

  9
$UCSORG
 10
0.0
 20
0.0
 30
0.0
  9
$UCSXDIR
 10
1.0
 20
0.0
 30
0.0
  9
$UCSYDIR
 10
0.0
 20
1.0
 30
0.0
  9
$UCSORTHOREF
  2

  9
$UCSORTHOVIEW
 70
     0
  9
$UCSORGTOP
 10
0.0
 20
0.0
 30
0.0
  9
$UCSORGBOTTOM
 10
0.0
 20
0.0
 30
0.0
  9
$UCSORGLEFT
 10
0.0
 20
0.0
 30
0.0
  9
$UCSORGRIGHT
 10
0.0
 20
0.0
 30
0.0
  9
$UCSORGFRONT
 10
0.0
 20
0.0
 30
0.0
  9
$UCSORGBACK
 10
0.0
 20
0.0
 30
0.0
  9
$PUCSBASE
  2

  9
$PUCSNAME
  2

  9
$PUCSORG
 10
0.0
 20
0.0
 30
0.0
  9
$PUCSXDIR
 10
1.0
 20
0.0
 30
0.0
  9
$PUCSYDIR
 10
0.0
 20
1.0
 30
0.0
  9
$PUCSORTHOREF
  2

  9
$PUCSORTHOVIEW
 70
     0
  9
$PUCSORGTOP
 10
0.0
 20
0.0
 30
0.0
  9
$PUCSORGBOTTOM
 10
0.0
 20
0.0
 30
0.0
  9
$PUCSORGLEFT
 10
0.0
 20
0.0
 30
0.0
  9
$PUCSORGRIGHT
 10
0.0
 20
0.0
 30
0.0
  9
$PUCSORGFRONT
 10
0.0
 20
0.0
 30
0.0
  9
$PUCSORGBACK
 10
0.0
 20
0.0
 30
0.0
  9
$USERI1
 70
     0
  9
$USERI2
 70
     0
  9
$USERI3
 70
     0
  9
$USERI4
 70
     0
  9
$USERI5
 70
     0
  9
$USERR1
 40
0.0
  9
$USERR2
 40
0.0
  9
$USERR3
 40
0.0
  9
$USERR4
 40
0.0
  9
$USERR5
 40
0.0
  9
$WORLDVIEW
 70
     1
  9
$SHADEDGE
 70
     3
  9
$SHADEDIF
 70
    70
  9
$TILEMODE
 70
     1
  9
$MAXACTVP
 70
    64
  9
$PINSBASE
 10
0.0
 20
0.0
 30
0.0
  9
$PLIMCHECK
 70
     0
  9
$PEXTMIN
 10
1.000000E+20
 20
1.000000E+20
 30
0.0
  9
$PEXTMAX
 10
-1.000000E+20
 20
-1.000000E+20
 30
0.0
  9
$PLIMMIN
 10
0.0
 20
0.0
  9
$PLIMMAX
 10
12.0
 20
9.0
  9
$UNITMODE
 70
     0
  9
$VISRETAIN
 70
     1
  9
$PLINEGEN
 70
     0
  9
$PSLTSCALE
 70
     1
  9
$TREEDEPTH
 70
  3020
  9
$CMLSTYLE
  2
Standard
  9
$CMLJUST
 70
     0
  9
$CMLSCALE
 40
20.0
  9
$PROXYGRAPHICS
 70
     1
  9
$MEASUREMENT
 70
     1
  9
$CELWEIGHT
370
    -1
  9
$ENDCAPS
280
     0
  9
$JOINSTYLE
280
     0
  9
$LWDISPLAY
290
     0
  9
$INSUNITS
 70
     4
  9
$HYPERLINKBASE
  1

  9
$STYLESHEET
  1

  9
$XEDIT
290
     1
  9
$CEPSNTYPE
380
     0
  9
$PSTYLEMODE
290
     1
  9
$FINGERPRINTGUID
  2
{F8E17806-9549-472A-A394-E5CAC343B805}
  9
$VERSIONGUID
  2
{FAEB1C32-E019-11D5-929B-00C0DF256EC4}
  9
$EXTNAMES
290
     1
  9
$PSVPSCALE
 40
0.0
  9
$OLESTARTUP
290
     0
  0
ENDSEC
  0
SECTION
  2
CLASSES
  0
CLASS
  1
ACDBDICTIONARYWDFLT
  2
AcDbDictionaryWithDefault
  3
ObjectDBX Classes
 90
        0
280
     0
281
     0
  0
CLASS
  1
VISUALSTYLE
  2
AcDbVisualStyle
  3
ObjectDBX Classes
 90
     4095
280
     0
281
     0
  0
CLASS
  1
SCALE
  2
AcDbScale
  3
ObjectDBX Classes
 90
     1153
280
     0
281
     0
  0
CLASS
  1
DICTIONARYVAR
  2
AcDbDictionaryVar
  3
ObjectDBX Classes
 90
        0
280
     0
281
     0
  0
CLASS
  1
ACDBPLACEHOLDER
  2
AcDbPlaceHolder
  3
ObjectDBX Classes
 90
        0
280
     0
281
     0
  0
CLASS
  1
LAYOUT
  2
AcDbLayout
  3
ObjectDBX Classes
 90
        0
280
     0
281
     0
  0
ENDSEC
  0
SECTION
  2
TABLES
  0
TABLE
  2
VPORT
  5
8
330
0
100
AcDbSymbolTable
 70
     1
  0
VPORT
  5
29
330
8
100
AcDbSymbolTableRecord
100
AcDbViewportTableRecord
  2
*Active
 70
     0
 10
0.0
 20
0.0
 11
1.0
 21
1.0
 12
66.234428
 22
53.374046
 13
0.0
 23
0.0
 14
1.0
 24
1.0
 15
0.0
 25
0.0
 16
0.0
 26
0.0
 36
1.0
 17
0.0
 27
0.0
 37
0.0
 40
88.650941
 41
1.691288
 42
50.0
 43
0.0
 44
0.0
 50
0.0
 51
0.0
 71
     0
 72
   100
 73
     1
 74
     3
 75
     0
 76
     0
 77
     0
 78
     0
281
     0
 65
     1
110
0.0
120
0.0
130
0.0
111
1.0
121
0.0
131
0.0
112
0.0
122
1.0
132
0.0
 79
     0
146
0.0
  0
ENDTAB
  0
TABLE
  2
LTYPE
  5
5
330
0
100
AcDbSymbolTable
 70
     5
  0
LTYPE
  5
14
330
5
100
AcDbSymbolTableRecord
100
AcDbLinetypeTableRecord
  2
ByBlock
 70
     0
  3

 72
    65
 73
     0
 40
0.0
  0
LTYPE
  5
15
330
5
100
AcDbSymbolTableRecord
100
AcDbLinetypeTableRecord
  2
ByLayer
 70
     0
  3

 72
    65
 73
     0
 40
0.0
  0
LTYPE
  5
16
330
5
100
AcDbSymbolTableRecord
100
AcDbLinetypeTableRecord
  2
Continuous
 70
     0
  3
Solid line
 72
    65
 73
     0
 40
0.0
  0
LTYPE
  5
5D
330
5
100
AcDbSymbolTableRecord
100
AcDbLinetypeTableRecord
  2
DASHED
 70
     0
  3
DASHED
 72
    83
 73
     2
 40
0.75
 49
0.5
 74
     0
 49
-0.25
 74
     0
  0
LTYPE
  5
5E
330
5
100
AcDbSymbolTableRecord
100
AcDbLinetypeTableRecord
  2
HIDDEN
 70
     0
  3
HIDDEN
 72
    83
 73
     2
 40
0.375
 49
0.25
 74
     0
 49
-0.125
 74
     0
  0
LTYPE
  5
5F
330
5
100
AcDbSymbolTableRecord
100
AcDbLinetypeTableRecord
  2
CENTER
 70
     0
  3
CENTER
 72
    83
 73
     4
 40
2.0
 49
1.25
 74
     0
 49
-0.25
 74
     0
 49
0.25
 74
     0
 49
-0.25
 74
     0
  0
LTYPE
  5
60
330
5
100
AcDbSymbolTableRecord
100
AcDbLinetypeTableRecord
  2
PHANTOM
 70
     0
  3
PHANTOM
 72
    83
 73
     6
 40
2.5
 49
1.25
 74
     0
 49
-0.25
 74
     0
 49
0.25
 74
     0
 49
-0.25
 74
     0
 49
0.25
 74
     0
 49
-0.25
 74
     0
  0
ENDTAB
  0
TABLE
  2
LAYER
  5
2
330
0
100
AcDbSymbolTable
 70
     2
  0
LAYER
  5
10
330
2
100
AcDbSymbolTableRecord
100
AcDbLayerTableRecord
  2
0
 70
     0
 62
     7
  6
Continuous
370
    -3
390
F
  0
LAYER
  5
61
330
2
100
AcDbSymbolTableRecord
100
AcDbLayerTableRecord
  2
001
 70
     0
 62
     7
  6
Continuous
370
    -3
390
F
  0
ENDTAB
  0
TABLE
  2
STYLE
  5
3
330
0
100
AcDbSymbolTable
 70
     2
  0
STYLE
  5
11
330
3
100
AcDbSymbolTableRecord
100
AcDbTextStyleTableRecord
  2
Standard
 70
     0
 40
0.0
 41
1.0
 50
0.0
 71
     0
 42
0.2
  3
TXT
  4
BIGFONT
  0
STYLE
  5
62
330
3
100
AcDbSymbolTableRecord
100
AcDbTextStyleTableRecord
  2
TATEGAKI
 70
     4
 40
1.0
 41
1.0
 50
0.0
 71
     0
 42
0.2
  3
TXT
  4
BIGFONT
  0
ENDTAB
  0
TABLE
  2
VIEW
  5
6
330
0
100
AcDbSymbolTable
 70
     0
  0
ENDTAB
  0
TABLE
  2
UCS
  5
7
330
0
100
AcDbSymbolTable
 70
     0
  0
ENDTAB
  0
TABLE
  2
APPID
  5
9
330
0
100
AcDbSymbolTable
 70
     1
  0
APPID
  5
12
330
9
100
AcDbSymbolTableRecord
100
AcDbRegAppTableRecord
  2
ACAD
 70
     0
  0
ENDTAB
  0
TABLE
  2
DIMSTYLE
  5
A
330
0
100
AcDbSymbolTable
 70
     2
100
AcDbDimStyleTable
  0
DIMSTYLE
105
27
330
A
100
AcDbSymbolTableRecord
100
AcDbDimStyleTableRecord
  2
ISO-25
 70
     0
 41
2.5
 42
0.625
 43
3.75
 44
1.25
 73
     0
 74
     0
 77
     1
 78
     8
140
2.5
141
2.5
143
0.03937
147
0.625
171
     3
172
     1
271
     2
272
     2
274
     3
278
    44
283
     0
284
     8
340
11
  0
DIMSTYLE
105
63
102
{ACAD_REACTORS
330
FF
330
100
330
101
330
102
330
10F
330
110
330
111
102
}
330
A
100
AcDbSymbolTableRecord
100
AcDbDimStyleTableRecord
  2
Standard
 70
     0
 41
1.5
 42
0.0
 44
0.5
 73
     0
 74
     0
 77
     1
 78
     8
 79
     2
140
4.0
146
0.8
147
1.0
172
     1
179
     1
271
     1
340
11
  0
ENDTAB
  0
TABLE
  2
BLOCK_RECORD
  5
1
330
0
100
AcDbSymbolTable
 70
     8
  0
BLOCK_RECORD
  5
1F
330
1
100
AcDbSymbolTableRecord
100
AcDbBlockTableRecord
  2
*Model_Space
340
22
  0
BLOCK_RECORD
  5
1B
330
1
100
AcDbSymbolTableRecord
100
AcDbBlockTableRecord
  2
*Paper_Space
340
1E
  0
BLOCK_RECORD
  5
23
330
1
100
AcDbSymbolTableRecord
100
AcDbBlockTableRecord
  2
*Paper_Space0
340
26
  0
BLOCK_RECORD
  5
64
330
1
100
AcDbSymbolTableRecord
100
AcDbBlockTableRecord
  2
*D1
340
0
  0
BLOCK_RECORD
  5
78
330
1
100
AcDbSymbolTableRecord
100
AcDbBlockTableRecord
  2
*D2
340
0
  0
BLOCK_RECORD
  5
8C
330
1
100
AcDbSymbolTableRecord
100
AcDbBlockTableRecord
  2
*D3
340
0
  0
BLOCK_RECORD
  5
A0
330
1
100
AcDbSymbolTableRecord
100
AcDbBlockTableRecord
  2
*D4
340
0
  0
BLOCK_RECORD
  5
B4
330
1
100
AcDbSymbolTableRecord
100
AcDbBlockTableRecord
  2
*D5
340
0
  0
BLOCK_RECORD
  5
C8
330
1
100
AcDbSymbolTableRecord
100
AcDbBlockTableRecord
  2
*D6
340
0
  0
BLOCK_RECORD
  5
DE
330
1
100
AcDbSymbolTableRecord
100
AcDbBlockTableRecord
  2
*D7
340
0
  0
ENDTAB
  0
ENDSEC
  0
SECTION
  2
BLOCKS
  0
BLOCK
  5
20
330
1F
100
AcDbEntity
  8
0
100
AcDbBlockBegin
  2
*Model_Space
 70
     0
 10
0.0
 20
0.0
 30
0.0
  3
*Model_Space
  1

  0
ENDBLK
  5
21
330
1F
100
AcDbEntity
  8
0
100
AcDbBlockEnd
  0
BLOCK
  5
1C
330
1B
100
AcDbEntity
 67
     1
  8
0
100
AcDbBlockBegin
  2
*Paper_Space
 70
     0
 10
0.0
 20
0.0
 30
0.0
  3
*Paper_Space
  1

  0
ENDBLK
  5
1D
330
1B
100
AcDbEntity
 67
     1
  8
0
100
AcDbBlockEnd
  0
BLOCK
  5
24
330
23
100
AcDbEntity
  8
0
100
AcDbBlockBegin
  2
*Paper_Space0
 70
     0
 10
0.0
 20
0.0
 30
0.0
  3
*Paper_Space0
  1

  0
ENDBLK
  5
25
330
23
100
AcDbEntity
  8
0
100
AcDbBlockEnd
  0
BLOCK
  5
65
330
64
100
AcDbEntity
  8
0
100
AcDbBlockBegin
  2
*D1
 70
     1
 10
0.0
 20
0.0
 30
0.0
  3
*D1
  1

  0
LINE
  5
67
330
64
100
AcDbEntity
  8
001
370
     9
100
AcDbLine
 10
57.978795
 20
41.910624
 30
0.0
 11
57.978795
 21
15.814043
 31
0.0
  0
LINE
  5
68
330
64
100
AcDbEntity
  8
001
370
     9
100
AcDbLine
 10
32.978795
 20
50.910624
 30
0.0
 11
32.978795
 21
15.814043
 31
0.0
  0
LINE
  5
69
330
64
100
AcDbEntity
  8
001
370
     9
100
AcDbLine
 10
57.978795
 20
17.647376
 30
0.0
 11
32.978795
 21
17.647376
 31
0.0
  0
POLYLINE
  5
6A
330
64
100
AcDbEntity
  8
001
370
     9
100
AcDb2dPolyline
 66
     1
 10
0.0
 20
0.0
 30
0.0
  0
VERTEX
  5
6C
330
6A
100
AcDbEntity
  8
001
370
     9
100
AcDbVertex
100
AcDb2dVertex
 10
56.978795
 20
17.915325
 30
0.0
  0
VERTEX
  5
6D
330
6A
100
AcDbEntity
  8
001
370
     9
100
AcDbVertex
100
AcDb2dVertex
 10
57.978795
 20
17.647376
 30
0.0
  0
VERTEX
  5
6E
330
6A
100
AcDbEntity
  8
001
370
     9
100
AcDbVertex
100
AcDb2dVertex
 10
56.978795
 20
17.379427
 30
0.0
  0
SEQEND
  5
6B
330
6A
100
AcDbEntity
  8
001
370
     9
  0
POLYLINE
  5
6F
330
64
100
AcDbEntity
  8
001
370
     9
100
AcDb2dPolyline
 66
     1
 10
0.0
 20
0.0
 30
0.0
  0
VERTEX
  5
71
330
6F
100
AcDbEntity
  8
001
370
     9
100
AcDbVertex
100
AcDb2dVertex
 10
33.978795
 20
17.379427
 30
0.0
  0
VERTEX
  5
72
330
6F
100
AcDbEntity
  8
001
370
     9
100
AcDbVertex
100
AcDb2dVertex
 10
32.978795
 20
17.647376
 30
0.0
  0
VERTEX
  5
73
330
6F
100
AcDbEntity
  8
001
370
     9
100
AcDbVertex
100
AcDb2dVertex
 10
33.978795
 20
17.915325
 30
0.0
  0
SEQEND
  5
70
330
6F
100
AcDbEntity
  8
001
370
     9
  0
TEXT
  5
74
330
64
100
AcDbEntity
  8
001
370
    30
100
AcDbText
 10
42.812128
 20
18.314043
 30
0.0
 40
2.666667
  1
２５
 41
0.833333
100
AcDbText
  0
POINT
  5
75
330
64
100
AcDbEntity
  8
001
370
     9
100
AcDbPoint
 10
57.978795
 20
41.910624
 30
0.0
  0
POINT
  5
76
330
64
100
AcDbEntity
  8
001
370
     9
100
AcDbPoint
 10
32.978795
 20
50.910624
 30
0.0
  0
POINT
  5
77
330
64
100
AcDbEntity
  8
001
370
     9
100
AcDbPoint
 10
32.978795
 20
17.647376
 30
0.0
  0
ENDBLK
  5
66
330
64
100
AcDbEntity
  8
0
100
AcDbBlockEnd
  0
BLOCK
  5
79
330
78
100
AcDbEntity
  8
0
100
AcDbBlockBegin
  2
*D2
 70
     1
 10
0.0
 20
0.0
 30
0.0
  3
*D2
  1

  0
LINE
  5
7B
330
78
100
AcDbEntity
  8
001
370
     9
100
AcDbLine
 10
107.978795
 20
54.910624
 30
0.0
 11
107.978795
 21
15.814043
 31
0.0
  0
LINE
  5
7C
330
78
100
AcDbEntity
  8
001
370
     9
100
AcDbLine
 10
57.978795
 20
41.910624
 30
0.0
 11
57.978795
 21
15.814043
 31
0.0
  0
LINE
  5
7D
330
78
100
AcDbEntity
  8
001
370
     9
100
AcDbLine
 10
107.978795
 20
17.647376
 30
0.0
 11
57.978795
 21
17.647376
 31
0.0
  0
POLYLINE
  5
7E
330
78
100
AcDbEntity
  8
001
370
     9
100
AcDb2dPolyline
 66
     1
 10
0.0
 20
0.0
 30
0.0
  0
VERTEX
  5
80
330
7E
100
AcDbEntity
  8
001
370
     9
100
AcDbVertex
100
AcDb2dVertex
 10
106.978795
 20
17.915325
 30
0.0
  0
VERTEX
  5
81
330
7E
100
AcDbEntity
  8
001
370
     9
100
AcDbVertex
100
AcDb2dVertex
 10
107.978795
 20
17.647376
 30
0.0
  0
VERTEX
  5
82
330
7E
100
AcDbEntity
  8
001
370
     9
100
AcDbVertex
100
AcDb2dVertex
 10
106.978795
 20
17.379427
 30
0.0
  0
SEQEND
  5
7F
330
7E
100
AcDbEntity
  8
001
370
     9
  0
POLYLINE
  5
83
330
78
100
AcDbEntity
  8
001
370
     9
100
AcDb2dPolyline
 66
     1
 10
0.0
 20
0.0
 30
0.0
  0
VERTEX
  5
85
330
83
100
AcDbEntity
  8
001
370
     9
100
AcDbVertex
100
AcDb2dVertex
 10
58.978795
 20
17.379427
 30
0.0
  0
VERTEX
  5
86
330
83
100
AcDbEntity
  8
001
370
     9
100
AcDbVertex
100
AcDb2dVertex
 10
57.978795
 20
17.647376
 30
0.0
  0
VERTEX
  5
87
330
83
100
AcDbEntity
  8
001
370
     9
100
AcDbVertex
100
AcDb2dVertex
 10
58.978795
 20
17.915325
 30
0.0
  0
SEQEND
  5
84
330
83
100
AcDbEntity
  8
001
370
     9
  0
TEXT
  5
88
330
78
100
AcDbEntity
  8
001
370
    30
100
AcDbText
 10
80.312128
 20
18.314043
 30
0.0
 40
2.666667
  1
５０
 41
0.833333
100
AcDbText
  0
POINT
  5
89
330
78
100
AcDbEntity
  8
001
370
     9
100
AcDbPoint
 10
107.978795
 20
54.910624
 30
0.0
  0
POINT
  5
8A
330
78
100
AcDbEntity
  8
001
370
     9
100
AcDbPoint
 10
57.978795
 20
41.910624
 30
0.0
  0
POINT
  5
8B
330
78
100
AcDbEntity
  8
001
370
     9
100
AcDbPoint
 10
57.978795
 20
17.647376
 30
0.0
  0
ENDBLK
  5
7A
330
78
100
AcDbEntity
  8
0
100
AcDbBlockEnd
  0
BLOCK
  5
8D
330
8C
100
AcDbEntity
  8
0
100
AcDbBlockBegin
  2
*D3
 70
     1
 10
0.0
 20
0.0
 30
0.0
  3
*D3
  1

  0
LINE
  5
8F
330
8C
100
AcDbEntity
  8
001
370
     9
100
AcDbLine
 10
107.978795
 20
54.910624
 30
0.0
 11
107.978795
 21
9.48744
 31
0.0
  0
LINE
  5
90
330
8C
100
AcDbEntity
  8
001
370
     9
100
AcDbLine
 10
32.978795
 20
50.910624
 30
0.0
 11
32.978795
 21
9.48744
 31
0.0
  0
LINE
  5
91
330
8C
100
AcDbEntity
  8
001
370
     9
100
AcDbLine
 10
107.978795
 20
11.320773
 30
0.0
 11
32.978795
 21
11.320773
 31
0.0
  0
POLYLINE
  5
92
330
8C
100
AcDbEntity
  8
001
370
     9
100
AcDb2dPolyline
 66
     1
 10
0.0
 20
0.0
 30
0.0
  0
VERTEX
  5
94
330
92
100
AcDbEntity
  8
001
370
     9
100
AcDbVertex
100
AcDb2dVertex
 10
106.978795
 20
11.588723
 30
0.0
  0
VERTEX
  5
95
330
92
100
AcDbEntity
  8
001
370
     9
100
AcDbVertex
100
AcDb2dVertex
 10
107.978795
 20
11.320773
 30
0.0
  0
VERTEX
  5
96
330
92
100
AcDbEntity
  8
001
370
     9
100
AcDbVertex
100
AcDb2dVertex
 10
106.978795
 20
11.052824
 30
0.0
  0
SEQEND
  5
93
330
92
100
AcDbEntity
  8
001
370
     9
  0
POLYLINE
  5
97
330
8C
100
AcDbEntity
  8
001
370
     9
100
AcDb2dPolyline
 66
     1
 10
0.0
 20
0.0
 30
0.0
  0
VERTEX
  5
99
330
97
100
AcDbEntity
  8
001
370
     9
100
AcDbVertex
100
AcDb2dVertex
 10
33.978795
 20
11.052824
 30
0.0
  0
VERTEX
  5
9A
330
97
100
AcDbEntity
  8
001
370
     9
100
AcDbVertex
100
AcDb2dVertex
 10
32.978795
 20
11.320773
 30
0.0
  0
VERTEX
  5
9B
330
97
100
AcDbEntity
  8
001
370
     9
100
AcDbVertex
100
AcDb2dVertex
 10
33.978795
 20
11.588723
 30
0.0
  0
SEQEND
  5
98
330
97
100
AcDbEntity
  8
001
370
     9
  0
TEXT
  5
9C
330
8C
100
AcDbEntity
  8
001
370
    30
100
AcDbText
 10
67.812128
 20
11.98744
 30
0.0
 40
2.666667
  1
７５
 41
0.833333
100
AcDbText
  0
POINT
  5
9D
330
8C
100
AcDbEntity
  8
001
370
     9
100
AcDbPoint
 10
107.978795
 20
54.910624
 30
0.0
  0
POINT
  5
9E
330
8C
100
AcDbEntity
  8
001
370
     9
100
AcDbPoint
 10
32.978795
 20
50.910624
 30
0.0
  0
POINT
  5
9F
330
8C
100
AcDbEntity
  8
001
370
     9
100
AcDbPoint
 10
32.978795
 20
11.320773
 30
0.0
  0
ENDBLK
  5
8E
330
8C
100
AcDbEntity
  8
0
100
AcDbBlockEnd
  0
BLOCK
  5
A1
330
A0
100
AcDbEntity
  8
0
100
AcDbBlockBegin
  2
*D4
 70
     1
 10
0.0
 20
0.0
 30
0.0
  3
*D4
  1

  0
LINE
  5
A3
330
A0
100
AcDbEntity
  8
001
370
     9
100
AcDbLine
 10
54.978795
 20
78.910624
 30
0.0
 11
70.710435
 21
78.910624
 31
0.0
  0
LINE
  5
A4
330
A0
100
AcDbEntity
  8
001
370
     9
100
AcDbLine
 10
54.978795
 20
38.910624
 30
0.0
 11
70.710435
 21
38.910624
 31
0.0
  0
LINE
  5
A5
330
A0
100
AcDbEntity
  8
001
370
     9
100
AcDbLine
 10
68.877101
 20
78.910624
 30
0.0
 11
68.877101
 21
38.910624
 31
0.0
  0
POLYLINE
  5
A6
330
A0
100
AcDbEntity
  8
001
370
     9
100
AcDb2dPolyline
 66
     1
 10
0.0
 20
0.0
 30
0.0
  0
VERTEX
  5
A8
330
A6
100
AcDbEntity
  8
001
370
     9
100
AcDbVertex
100
AcDb2dVertex
 10
68.609152
 20
77.910624
 30
0.0
  0
VERTEX
  5
A9
330
A6
100
AcDbEntity
  8
001
370
     9
100
AcDbVertex
100
AcDb2dVertex
 10
68.877101
 20
78.910624
 30
0.0
  0
VERTEX
  5
AA
330
A6
100
AcDbEntity
  8
001
370
     9
100
AcDbVertex
100
AcDb2dVertex
 10
69.145051
 20
77.910624
 30
0.0
  0
SEQEND
  5
A7
330
A6
100
AcDbEntity
  8
001
370
     9
  0
POLYLINE
  5
AB
330
A0
100
AcDbEntity
  8
001
370
     9
100
AcDb2dPolyline
 66
     1
 10
0.0
 20
0.0
 30
0.0
  0
VERTEX
  5
AD
330
AB
100
AcDbEntity
  8
001
370
     9
100
AcDbVertex
100
AcDb2dVertex
 10
69.145051
 20
39.910624
 30
0.0
  0
VERTEX
  5
AE
330
AB
100
AcDbEntity
  8
001
370
     9
100
AcDbVertex
100
AcDb2dVertex
 10
68.877101
 20
38.910624
 30
0.0
  0
VERTEX
  5
AF
330
AB
100
AcDbEntity
  8
001
370
     9
100
AcDbVertex
100
AcDb2dVertex
 10
68.609152
 20
39.910624
 30
0.0
  0
SEQEND
  5
AC
330
AB
100
AcDbEntity
  8
001
370
     9
  0
TEXT
  5
B0
330
A0
100
AcDbEntity
  8
001
370
    30
100
AcDbText
 10
68.210435
 20
43.435132
 30
0.0
 40
2.666667
  1
%%c４０
 50
90.000003
 41
0.882353
100
AcDbText
  0
POINT
  5
B1
330
A0
100
AcDbEntity
  8
001
370
     9
100
AcDbPoint
 10
54.978795
 20
78.910624
 30
0.0
  0
POINT
  5
B2
330
A0
100
AcDbEntity
  8
001
370
     9
100
AcDbPoint
 10
54.978795
 20
38.910624
 30
0.0
  0
POINT
  5
B3
330
A0
100
AcDbEntity
  8
001
370
     9
100
AcDbPoint
 10
68.877101
 20
38.910624
 30
0.0
  0
ENDBLK
  5
A2
330
A0
100
AcDbEntity
  8
0
100
AcDbBlockEnd
  0
BLOCK
  5
B5
330
B4
100
AcDbEntity
  8
0
100
AcDbBlockBegin
  2
*D5
 70
     1
 10
0.0
 20
0.0
 30
0.0
  3
*D5
  1

  0
LINE
  5
B7
330
B4
100
AcDbEntity
  8
001
370
     9
100
AcDbLine
 10
105.978795
 20
64.910624
 30
0.0
 11
123.56393
 21
64.910624
 31
0.0
  0
LINE
  5
B8
330
B4
100
AcDbEntity
  8
001
370
     9
100
AcDbLine
 10
105.978795
 20
52.910624
 30
0.0
 11
123.56393
 21
52.910624
 31
0.0
  0
LINE
  5
B9
330
B4
100
AcDbEntity
  8
001
370
     9
100
AcDbLine
 10
121.730597
 20
64.910624
 30
0.0
 11
121.730597
 21
52.910624
 31
0.0
  0
POLYLINE
  5
BA
330
B4
100
AcDbEntity
  8
001
370
     9
100
AcDb2dPolyline
 66
     1
 10
0.0
 20
0.0
 30
0.0
  0
VERTEX
  5
BC
330
BA
100
AcDbEntity
  8
001
370
     9
100
AcDbVertex
100
AcDb2dVertex
 10
121.462648
 20
63.910624
 30
0.0
  0
VERTEX
  5
BD
330
BA
100
AcDbEntity
  8
001
370
     9
100
AcDbVertex
100
AcDb2dVertex
 10
121.730597
 20
64.910624
 30
0.0
  0
VERTEX
  5
BE
330
BA
100
AcDbEntity
  8
001
370
     9
100
AcDbVertex
100
AcDb2dVertex
 10
121.998546
 20
63.910624
 30
0.0
  0
SEQEND
  5
BB
330
BA
100
AcDbEntity
  8
001
370
     9
  0
POLYLINE
  5
BF
330
B4
100
AcDbEntity
  8
001
370
     9
100
AcDb2dPolyline
 66
     1
 10
0.0
 20
0.0
 30
0.0
  0
VERTEX
  5
C1
330
BF
100
AcDbEntity
  8
001
370
     9
100
AcDbVertex
100
AcDb2dVertex
 10
121.998546
 20
53.910624
 30
0.0
  0
VERTEX
  5
C2
330
BF
100
AcDbEntity
  8
001
370
     9
100
AcDbVertex
100
AcDb2dVertex
 10
121.730597
 20
52.910624
 30
0.0
  0
VERTEX
  5
C3
330
BF
100
AcDbEntity
  8
001
370
     9
100
AcDbVertex
100
AcDb2dVertex
 10
121.462648
 20
53.910624
 30
0.0
  0
SEQEND
  5
C0
330
BF
100
AcDbEntity
  8
001
370
     9
  0
TEXT
  5
C4
330
B4
100
AcDbEntity
  8
001
370
    30
100
AcDbText
 10
121.06393
 20
54.776881
 30
0.0
 40
2.666667
  1
%%c１２
 50
90.000003
 41
0.882353
100
AcDbText
  0
POINT
  5
C5
330
B4
100
AcDbEntity
  8
001
370
     9
100
AcDbPoint
 10
105.978795
 20
64.910624
 30
0.0
  0
POINT
  5
C6
330
B4
100
AcDbEntity
  8
001
370
     9
100
AcDbPoint
 10
105.978795
 20
52.910624
 30
0.0
  0
POINT
  5
C7
330
B4
100
AcDbEntity
  8
001
370
     9
100
AcDbPoint
 10
121.730597
 20
52.910624
 30
0.0
  0
ENDBLK
  5
B6
330
B4
100
AcDbEntity
  8
0
100
AcDbBlockEnd
  0
BLOCK
  5
C9
330
C8
100
AcDbEntity
  8
0
100
AcDbBlockBegin
  2
*D6
 70
     1
 10
0.0
 20
0.0
 30
0.0
  3
*D6
  1

  0
LINE
  5
CB
330
C8
100
AcDbEntity
  8
001
370
     9
100
AcDbLine
 10
33.781154
 20
49.825624
 30
0.0
 11
33.781154
 21
20.690799
 31
0.0
  0
LINE
  5
CC
330
C8
100
AcDbEntity
  8
001
370
     9
100
AcDbLine
 10
32.978795
 20
50.910624
 30
0.0
 11
32.978795
 21
20.690799
 31
0.0
  0
LINE
  5
CD
330
C8
100
AcDbEntity
  8
001
370
     9
100
AcDbLine
 10
33.781154
 20
22.524133
 30
0.0
 11
32.978795
 21
22.524133
 31
0.0
  0
POLYLINE
  5
CE
330
C8
100
AcDbEntity
  8
001
370
     9
100
AcDb2dPolyline
 66
     1
 10
0.0
 20
0.0
 30
0.0
  0
VERTEX
  5
D0
330
CE
100
AcDbEntity
  8
001
370
     9
100
AcDbVertex
100
AcDb2dVertex
 10
34.781154
 20
22.256184
 30
0.0
  0
VERTEX
  5
D1
330
CE
100
AcDbEntity
  8
001
370
     9
100
AcDbVertex
100
AcDb2dVertex
 10
33.781154
 20
22.524133
 30
0.0
  0
VERTEX
  5
D2
330
CE
100
AcDbEntity
  8
001
370
     9
100
AcDbVertex
100
AcDb2dVertex
 10
34.781154
 20
22.792082
 30
0.0
  0
SEQEND
  5
CF
330
CE
100
AcDbEntity
  8
001
370
     9
  0
POLYLINE
  5
D3
330
C8
100
AcDbEntity
  8
001
370
     9
100
AcDb2dPolyline
 66
     1
 10
0.0
 20
0.0
 30
0.0
  0
VERTEX
  5
D5
330
D3
100
AcDbEntity
  8
001
370
     9
100
AcDbVertex
100
AcDb2dVertex
 10
31.978795
 20
22.792082
 30
0.0
  0
VERTEX
  5
D6
330
D3
100
AcDbEntity
  8
001
370
     9
100
AcDbVertex
100
AcDb2dVertex
 10
32.978795
 20
22.524133
 30
0.0
  0
VERTEX
  5
D7
330
D3
100
AcDbEntity
  8
001
370
     9
100
AcDbVertex
100
AcDb2dVertex
 10
31.978795
 20
22.256184
 30
0.0
  0
SEQEND
  5
D4
330
D3
100
AcDbEntity
  8
001
370
     9
  0
TEXT
  5
D8
330
C8
100
AcDbEntity
  8
001
370
    30
100
AcDbText
 10
22.645461
 20
23.190799
 30
0.0
 40
2.666667
  1
０．８
 41
0.833333
100
AcDbText
  0
POINT
  5
D9
330
C8
100
AcDbEntity
  8
001
370
     9
100
AcDbPoint
 10
33.781154
 20
49.825624
 30
0.0
  0
POINT
  5
DA
330
C8
100
AcDbEntity
  8
001
370
     9
100
AcDbPoint
 10
32.978795
 20
50.910624
 30
0.0
  0
POINT
  5
DB
330
C8
100
AcDbEntity
  8
001
370
     9
100
AcDbPoint
 10
32.978795
 20
22.524133
 30
0.0
  0
LINE
  5
DC
330
C8
100
AcDbEntity
  8
001
370
     9
100
AcDbLine
 10
33.781154
 20
22.524133
 30
0.0
 11
35.44782
 21
22.524133
 31
0.0
  0
LINE
  5
DD
330
C8
100
AcDbEntity
  8
001
370
     9
100
AcDbLine
 10
32.978795
 20
22.524133
 30
0.0
 11
20.645461
 21
22.524133
 31
0.0
  0
ENDBLK
  5
CA
330
C8
100
AcDbEntity
  8
0
100
AcDbBlockEnd
  0
BLOCK
  5
DF
330
DE
100
AcDbEntity
  8
0
100
AcDbBlockBegin
  2
*D7
 70
     1
 10
0.0
 20
0.0
 30
0.0
  3
*D7
  1

  0
LINE
  5
E1
330
DE
100
AcDbEntity
  8
001
370
     9
100
AcDbLine
 10
32.978795
 20
50.910624
 30
0.0
 11
32.978795
 21
26.57027
 31
0.0
  0
LINE
  5
E2
330
DE
100
AcDbEntity
  8
001
370
     9
100
AcDbLine
 10
44.483648
 20
39.125297
 30
0.0
 11
49.991775
 21
33.618286
 31
0.0
  0
ARC
  5
E3
330
DE
100
AcDbEntity
  8
001
370
     9
100
AcDbCircle
 10
32.978795
 20
50.627821
 30
0.0
 40
22.22421788592343
100
AcDbArc
 50
270.0
 51
315.005803
  0
POLYLINE
  5
E4
330
DE
100
AcDbEntity
  8
001
370
     9
100
AcDb2dPolyline
 66
     1
 10
0.0
 20
0.0
 30
0.0
  0
VERTEX
  5
E6
330
E4
100
AcDbEntity
  8
001
370
     9
100
AcDbVertex
100
AcDb2dVertex
 10
47.787338
 20
34.417088
 30
0.0
  0
VERTEX
  5
E7
330
E4
100
AcDbEntity
  8
001
370
     9
100
AcDbVertex
100
AcDb2dVertex
 10
48.695281
 20
34.914517
 30
0.0
  0
VERTEX
  5
E8
330
E4
100
AcDbEntity
  8
001
370
     9
100
AcDbVertex
100
AcDb2dVertex
 10
48.157694
 20
34.029759
 30
0.0
  0
SEQEND
  5
E5
330
E4
100
AcDbEntity
  8
001
370
     9
  0
POLYLINE
  5
E9
330
DE
100
AcDbEntity
  8
001
370
     9
100
AcDb2dPolyline
 66
     1
 10
0.0
 20
0.0
 30
0.0
  0
VERTEX
  5
EB
330
E9
100
AcDbEntity
  8
001
370
     9
100
AcDbVertex
100
AcDb2dVertex
 10
33.984569
 20
28.158218
 30
0.0
  0
VERTEX
  5
EC
330
E9
100
AcDbEntity
  8
001
370
     9
100
AcDbVertex
100
AcDb2dVertex
 10
32.978795
 20
28.403603
 30
0.0
  0
VERTEX
  5
ED
330
E9
100
AcDbEntity
  8
001
370
     9
100
AcDbVertex
100
AcDb2dVertex
 10
33.972514
 20
28.69398
 30
0.0
  0
SEQEND
  5
EA
330
E9
100
AcDbEntity
  8
001
370
     9
  0
TEXT
  5
EE
330
DE
100
AcDbEntity
  8
001
370
    30
100
AcDbText
 10
37.53408
 20
29.180737
 30
0.0
 40
2.666667
  1
４５%%d
 50
22.502902
 41
0.978261
100
AcDbText
  0
POINT
  5
EF
330
DE
100
AcDbEntity
  8
001
370
     9
100
AcDbPoint
 10
32.978795
 20
50.910624
 30
0.0
  0
POINT
  5
F0
330
DE
100
AcDbEntity
  8
001
370
     9
100
AcDbPoint
 10
32.978795
 20
50.627821
 30
0.0
  0
POINT
  5
F1
330
DE
100
AcDbEntity
  8
001
370
     9
100
AcDbPoint
 10
32.978795
 20
50.627821
 30
0.0
  0
POINT
  5
F2
330
DE
100
AcDbEntity
  8
001
370
     9
100
AcDbPoint
 10
44.483648
 20
39.125297
 30
0.0
  0
ENDBLK
  5
E0
330
DE
100
AcDbEntity
  8
0
100
AcDbBlockEnd
  0
ENDSEC
  0
SECTION
  2
ENTITIES
  0
TEXT
  5
F3
330
1F
100
AcDbEntity
  8
001
370
    30
100
AcDbText
 10
21.956795
 20
49.771617
 30
0.0
 40
2.666667
  1
（%%c１８．１７）
 50
90.000003
 41
0.851064
100
AcDbText
  0
POLYLINE
  5
F4
330
1F
100
AcDbEntity
  8
001
370
     9
100
AcDb2dPolyline
 66
     1
 10
0.0
 20
0.0
 30
0.0
  0
VERTEX
  5
F6
330
F4
100
AcDbEntity
  8
001
370
     9
100
AcDbVertex
100
AcDb2dVertex
 10
22.891411
 20
50.825624
 30
0.0
  0
VERTEX
  5
F7
330
F4
100
AcDbEntity
  8
001
370
     9
100
AcDbVertex
100
AcDb2dVertex
 10
22.623461
 20
49.825624
 30
0.0
  0
VERTEX
  5
F8
330
F4
100
AcDbEntity
  8
001
370
     9
100
AcDbVertex
100
AcDb2dVertex
 10
22.355512
 20
50.825624
 30
0.0
  0
SEQEND
  5
F5
330
F4
100
AcDbEntity
  8
001
370
     9
  0
LINE
  5
F9
330
1F
100
AcDbEntity
  8
001
370
     9
100
AcDbLine
 10
22.623461
 20
66.59031
 30
0.0
 11
22.623461
 21
49.825624
 31
0.0
  0
POLYLINE
  5
FA
330
1F
100
AcDbEntity
  8
001
370
     9
100
AcDb2dPolyline
 66
     1
 10
0.0
 20
0.0
 30
0.0
  0
VERTEX
  5
FC
330
FA
100
AcDbEntity
  8
001
370
     9
100
AcDbVertex
100
AcDb2dVertex
 10
33.781154
 20
49.825624
 30
0.0
  0
VERTEX
  5
FD
330
FA
100
AcDbEntity
  8
001
370
     9
100
AcDbVertex
100
AcDb2dVertex
 10
22.623461
 20
49.825624
 30
0.0
  0
VERTEX
  5
FE
330
FA
100
AcDbEntity
  8
001
370
     9
100
AcDbVertex
100
AcDb2dVertex
 10
20.790128
 20
49.825624
 30
0.0
  0
SEQEND
  5
FB
330
FA
100
AcDbEntity
  8
001
370
     9
  0
DIMENSION
  5
FF
330
1F
100
AcDbEntity
  8
001
370
     9
100
AcDbDimension
  2
*D1
 10
32.978795
 20
17.647376
 30
0.0
 11
45.478795
 21
19.647376
 31
0.0
 70
   160
 71
     5
 42
-1.0
  3
Standard
100
AcDbAlignedDimension
 13
57.978795
 23
41.910624
 33
0.0
 14
32.978795
 24
50.910624
 34
0.0
 50
180.0
100
AcDbRotatedDimension
  0
DIMENSION
  5
100
330
1F
100
AcDbEntity
  8
001
370
     9
100
AcDbDimension
  2
*D2
 10
57.978795
 20
17.647376
 30
0.0
 11
82.978795
 21
19.647376
 31
0.0
 70
   160
 71
     5
 42
-1.0
  3
Standard
100
AcDbAlignedDimension
 13
107.978795
 23
54.910624
 33
0.0
 14
57.978795
 24
41.910624
 34
0.0
 50
180.0
100
AcDbRotatedDimension
  0
DIMENSION
  5
101
330
1F
100
AcDbEntity
  8
001
370
     9
100
AcDbDimension
  2
*D3
 10
32.978795
 20
11.320773
 30
0.0
 11
70.478795
 21
13.320773
 31
0.0
 70
   160
 71
     5
 42
-1.0
  3
Standard
100
AcDbAlignedDimension
 13
107.978795
 23
54.910624
 33
0.0
 14
32.978795
 24
50.910624
 34
0.0
 50
180.0
100
AcDbRotatedDimension
  0
DIMENSION
  5
102
330
1F
100
AcDbEntity
  8
001
370
     9
100
AcDbDimension
  2
*D4
 10
68.877101
 20
38.910624
 30
0.0
 11
66.877101
 21
47.435132
 31
0.0
 70
   160
 71
     5
 42
-1.0
  3
Standard
100
AcDbAlignedDimension
 13
54.978795
 23
78.910624
 33
0.0
 14
54.978795
 24
38.910624
 34
0.0
 50
270.0
100
AcDbRotatedDimension
  0
TEXT
  5
103
330
1F
100
AcDbEntity
  8
001
370
    30
100
AcDbText
 10
11.571595
 20
50.881736
 30
0.0
 40
2.666667
  1
%%c３９．８３
 50
90.000003
 41
0.857143
100
AcDbText
  0
POLYLINE
  5
104
330
1F
100
AcDbEntity
  8
001
370
     9
100
AcDb2dPolyline
 66
     1
 10
0.0
 20
0.0
 30
0.0
  0
VERTEX
  5
106
330
104
100
AcDbEntity
  8
001
370
     9
100
AcDbVertex
100
AcDb2dVertex
 10
12.506211
 20
39.995624
 30
0.0
  0
VERTEX
  5
107
330
104
100
AcDbEntity
  8
001
370
     9
100
AcDbVertex
100
AcDb2dVertex
 10
12.238262
 20
38.995624
 30
0.0
  0
VERTEX
  5
108
330
104
100
AcDbEntity
  8
001
370
     9
100
AcDbVertex
100
AcDb2dVertex
 10
11.970313
 20
39.995624
 30
0.0
  0
SEQEND
  5
105
330
104
100
AcDbEntity
  8
001
370
     9
  0
LINE
  5
109
330
1F
100
AcDbEntity
  8
001
370
     9
100
AcDbLine
 10
12.238262
 20
78.767848
 30
0.0
 11
12.238262
 21
38.995624
 31
0.0
  0
POLYLINE
  5
10A
330
1F
100
AcDbEntity
  8
001
370
     9
100
AcDb2dPolyline
 66
     1
 10
0.0
 20
0.0
 30
0.0
  0
VERTEX
  5
10C
330
10A
100
AcDbEntity
  8
001
370
     9
100
AcDbVertex
100
AcDb2dVertex
 10
44.613348
 20
38.995624
 30
0.0
  0
VERTEX
  5
10D
330
10A
100
AcDbEntity
  8
001
370
     9
100
AcDbVertex
100
AcDb2dVertex
 10
12.238262
 20
38.995624
 30
0.0
  0
VERTEX
  5
10E
330
10A
100
AcDbEntity
  8
001
370
     9
100
AcDbVertex
100
AcDb2dVertex
 10
10.404929
 20
38.995624
 30
0.0
  0
SEQEND
  5
10B
330
10A
100
AcDbEntity
  8
001
370
     9
  0
DIMENSION
  5
10F
330
1F
100
AcDbEntity
  8
001
370
     9
100
AcDbDimension
  2
*D5
 10
121.730597
 20
52.910624
 30
0.0
 11
119.730597
 21
58.776881
 31
0.0
 70
   160
 71
     5
 42
-1.0
  3
Standard
100
AcDbAlignedDimension
 13
105.978795
 23
64.910624
 33
0.0
 14
105.978795
 24
52.910624
 34
0.0
 50
270.0
100
AcDbRotatedDimension
  0
DIMENSION
  5
110
330
1F
100
AcDbEntity
  8
001
370
     9
100
AcDbDimension
  2
*D6
 10
32.978795
 20
22.524133
 30
0.0
 11
26.645461
 21
24.524133
 31
0.0
 70
   160
 71
     5
 42
-1.0
  3
Standard
100
AcDbAlignedDimension
 13
33.781154
 23
49.825624
 33
0.0
 14
32.978795
 24
50.910624
 34
0.0
 50
180.0
100
AcDbRotatedDimension
  0
DIMENSION
  5
111
330
1F
100
AcDbEntity
  8
001
370
     9
100
AcDbDimension
  2
*D7
 10
32.978795
 20
50.627821
 30
0.0
 11
40.719214
 21
31.943472
 31
0.0
 70
    34
 71
     5
 42
-1.0
  3
Standard
100
AcDb2LineAngularDimension
 13
32.978795
 23
50.910624
 33
0.0
 14
32.978795
 24
50.627821
 34
0.0
 15
44.483648
 25
39.125297
 35
0.0
 16
41.484674
 26
30.095751
 36
0.0
  0
CIRCLE
  5
112
330
1F
100
AcDbEntity
  8
001
370
    50
100
AcDbCircle
 10
42.590455
 20
47.983961
 30
0.0
 40
1.9
  0
LINE
  5
113
330
1F
100
AcDbEntity
  8
001
370
    50
100
AcDbLine
 10
34.081073
 20
50.379129
 30
0.0
 11
48.708872
 21
54.173032
 31
0.0
  0
ARC
  5
114
330
1F
100
AcDbEntity
  8
001
370
    50
100
AcDbCircle
 10
48.809294
 20
53.785843
 30
0.0
 40
0.4000000000000001
100
AcDbArc
 50
344.54
 51
104.54
  0
LINE
  5
115
330
1F
100
AcDbEntity
  8
001
370
    50
100
AcDbLine
 10
45.223941
 20
39.32177
 30
0.0
 11
49.194821
 21
53.679217
 31
0.0
  0
ARC
  5
116
330
1F
100
AcDbEntity
  8
001
370
    50
100
AcDbCircle
 10
48.105443
 20
56.011098
 30
0.0
 40
6.000000000000002
100
AcDbArc
 50
0.0
 51
165.527161
  0
POLYLINE
  5
117
330
1F
100
AcDbEntity
  8
001
370
    50
100
AcDb2dPolyline
 66
     1
 10
0.0
 20
0.0
 30
0.0
  0
VERTEX
  5
119
330
117
100
AcDbEntity
  8
001
370
    50
100
AcDbVertex
100
AcDb2dVertex
 10
44.978795
 20
62.906736
 30
0.0
  0
VERTEX
  5
11A
330
117
100
AcDbEntity
  8
001
370
    50
100
AcDbVertex
100
AcDb2dVertex
 10
44.685416
 20
62.605901
 30
0.0
  0
VERTEX
  5
11B
330
117
100
AcDbEntity
  8
001
370
    50
100
AcDbVertex
100
AcDb2dVertex
 10
44.399644
 20
62.298132
 30
0.0
  0
VERTEX
  5
11C
330
117
100
AcDbEntity
  8
001
370
    50
100
AcDbVertex
100
AcDb2dVertex
 10
44.122021
 20
61.971016
 30
0.0
  0
VERTEX
  5
11D
330
117
100
AcDbEntity
  8
001
370
    50
100
AcDbVertex
100
AcDb2dVertex
 10
43.859316
 20
61.631568
 30
0.0
  0
VERTEX
  5
11E
330
117
100
AcDbEntity
  8
001
370
    50
100
AcDbVertex
100
AcDb2dVertex
 10
43.597947
 20
61.262325
 30
0.0
  0
VERTEX
  5
11F
330
117
100
AcDbEntity
  8
001
370
    50
100
AcDbVertex
100
AcDb2dVertex
 10
43.353634
 20
60.881666
 30
0.0
  0
VERTEX
  5
120
330
117
100
AcDbEntity
  8
001
370
    50
100
AcDbVertex
100
AcDb2dVertex
 10
43.123471
 20
60.481633
 30
0.0
  0
VERTEX
  5
121
330
117
100
AcDbEntity
  8
001
370
    50
100
AcDbVertex
100
AcDb2dVertex
 10
42.913788
 20
60.070516
 30
0.0
  0
VERTEX
  5
122
330
117
100
AcDbEntity
  8
001
370
    50
100
AcDbVertex
100
AcDb2dVertex
 10
42.784433
 20
59.787298
 30
0.0
  0
VERTEX
  5
123
330
117
100
AcDbEntity
  8
001
370
    50
100
AcDbVertex
100
AcDb2dVertex
 10
42.66518
 20
59.499699
 30
0.0
  0
VERTEX
  5
124
330
117
100
AcDbEntity
  8
001
370
    50
100
AcDbVertex
100
AcDb2dVertex
 10
42.555119
 20
59.204604
 30
0.0
  0
VERTEX
  5
125
330
117
100
AcDbEntity
  8
001
370
    50
100
AcDbVertex
100
AcDb2dVertex
 10
42.45608
 20
58.905632
 30
0.0
  0
VERTEX
  5
126
330
117
100
AcDbEntity
  8
001
370
    50
100
AcDbVertex
100
AcDb2dVertex
 10
42.365327
 20
58.591645
 30
0.0
  0
VERTEX
  5
127
330
117
100
AcDbEntity
  8
001
370
    50
100
AcDbVertex
100
AcDb2dVertex
 10
42.286909
 20
58.274321
 30
0.0
  0
VERTEX
  5
128
330
117
100
AcDbEntity
  8
001
370
    50
100
AcDbVertex
100
AcDb2dVertex
 10
42.220423
 20
57.950993
 30
0.0
  0
VERTEX
  5
129
330
117
100
AcDbEntity
  8
001
370
    50
100
AcDbVertex
100
AcDb2dVertex
 10
42.167561
 20
57.625233
 30
0.0
  0
VERTEX
  5
12A
330
117
100
AcDbEntity
  8
001
370
    50
100
AcDbVertex
100
AcDb2dVertex
 10
42.15974
 20
57.567944
 30
0.0
  0
VERTEX
  5
12B
330
117
100
AcDbEntity
  8
001
370
    50
100
AcDbVertex
100
AcDb2dVertex
 10
42.152143
 20
57.510624
 30
0.0
  0
SEQEND
  5
118
330
117
100
AcDbEntity
  8
001
370
    50
  0
POLYLINE
  5
12C
330
1F
100
AcDbEntity
  8
001
370
    50
100
AcDb2dPolyline
 66
     1
 10
0.0
 20
0.0
 30
0.0
  0
VERTEX
  5
12E
330
12C
100
AcDbEntity
  8
001
370
    50
100
AcDbVertex
100
AcDb2dVertex
 10
54.978795
 20
59.688922
 30
0.0
  0
VERTEX
  5
12F
330
12C
100
AcDbEntity
  8
001
370
    50
100
AcDbVertex
100
AcDb2dVertex
 10
54.744855
 20
60.064744
 30
0.0
  0
VERTEX
  5
130
330
12C
100
AcDbEntity
  8
001
370
    50
100
AcDbVertex
100
AcDb2dVertex
 10
54.496333
 20
60.430266
 30
0.0
  0
VERTEX
  5
131
330
12C
100
AcDbEntity
  8
001
370
    50
100
AcDbVertex
100
AcDb2dVertex
 10
54.221159
 20
60.778215
 30
0.0
  0
VERTEX
  5
132
330
12C
100
AcDbEntity
  8
001
370
    50
100
AcDbVertex
100
AcDb2dVertex
 10
53.922539
 20
61.107019
 30
0.0
  0
VERTEX
  5
133
330
12C
100
AcDbEntity
  8
001
370
    50
100
AcDbVertex
100
AcDb2dVertex
 10
53.606912
 20
61.416288
 30
0.0
  0
VERTEX
  5
134
330
12C
100
AcDbEntity
  8
001
370
    50
100
AcDbVertex
100
AcDb2dVertex
 10
53.273915
 20
61.706357
 30
0.0
  0
VERTEX
  5
135
330
12C
100
AcDbEntity
  8
001
370
    50
100
AcDbVertex
100
AcDb2dVertex
 10
52.963796
 20
61.946694
 30
0.0
  0
VERTEX
  5
136
330
12C
100
AcDbEntity
  8
001
370
    50
100
AcDbVertex
100
AcDb2dVertex
 10
52.641477
 20
62.170531
 30
0.0
  0
VERTEX
  5
137
330
12C
100
AcDbEntity
  8
001
370
    50
100
AcDbVertex
100
AcDb2dVertex
 10
52.307403
 20
62.378432
 30
0.0
  0
VERTEX
  5
138
330
12C
100
AcDbEntity
  8
001
370
    50
100
AcDbVertex
100
AcDb2dVertex
 10
51.963452
 20
62.569498
 30
0.0
  0
VERTEX
  5
139
330
12C
100
AcDbEntity
  8
001
370
    50
100
AcDbVertex
100
AcDb2dVertex
 10
51.611139
 20
62.743105
 30
0.0
  0
VERTEX
  5
13A
330
12C
100
AcDbEntity
  8
001
370
    50
100
AcDbVertex
100
AcDb2dVertex
 10
51.250726
 20
62.899227
 30
0.0
  0
VERTEX
  5
13B
330
12C
100
AcDbEntity
  8
001
370
    50
100
AcDbVertex
100
AcDb2dVertex
 10
50.8379
 20
63.053169
 30
0.0
  0
VERTEX
  5
13C
330
12C
100
AcDbEntity
  8
001
370
    50
100
AcDbVertex
100
AcDb2dVertex
 10
50.417375
 20
63.184721
 30
0.0
  0
VERTEX
  5
13D
330
12C
100
AcDbEntity
  8
001
370
    50
100
AcDbVertex
100
AcDb2dVertex
 10
49.988791
 20
63.29435
 30
0.0
  0
VERTEX
  5
13E
330
12C
100
AcDbEntity
  8
001
370
    50
100
AcDbVertex
100
AcDb2dVertex
 10
49.555071
 20
63.381412
 30
0.0
  0
VERTEX
  5
13F
330
12C
100
AcDbEntity
  8
001
370
    50
100
AcDbVertex
100
AcDb2dVertex
 10
49.118292
 20
63.445662
 30
0.0
  0
VERTEX
  5
140
330
12C
100
AcDbEntity
  8
001
370
    50
100
AcDbVertex
100
AcDb2dVertex
 10
48.678738
 20
63.48701
 30
0.0
  0
VERTEX
  5
141
330
12C
100
AcDbEntity
  8
001
370
    50
100
AcDbVertex
100
AcDb2dVertex
 10
48.21688
 20
63.505483
 30
0.0
  0
VERTEX
  5
142
330
12C
100
AcDbEntity
  8
001
370
    50
100
AcDbVertex
100
AcDb2dVertex
 10
47.754753
 20
63.498579
 30
0.0
  0
VERTEX
  5
143
330
12C
100
AcDbEntity
  8
001
370
    50
100
AcDbVertex
100
AcDb2dVertex
 10
47.29244
 20
63.466426
 30
0.0
  0
VERTEX
  5
144
330
12C
100
AcDbEntity
  8
001
370
    50
100
AcDbVertex
100
AcDb2dVertex
 10
46.832267
 20
63.409981
 30
0.0
  0
VERTEX
  5
145
330
12C
100
AcDbEntity
  8
001
370
    50
100
AcDbVertex
100
AcDb2dVertex
 10
46.377293
 20
63.329836
 30
0.0
  0
VERTEX
  5
146
330
12C
100
AcDbEntity
  8
001
370
    50
100
AcDbVertex
100
AcDb2dVertex
 10
45.928467
 20
63.222349
 30
0.0
  0
VERTEX
  5
147
330
12C
100
AcDbEntity
  8
001
370
    50
100
AcDbVertex
100
AcDb2dVertex
 10
45.450899
 20
63.073867
 30
0.0
  0
VERTEX
  5
148
330
12C
100
AcDbEntity
  8
001
370
    50
100
AcDbVertex
100
AcDb2dVertex
 10
44.978795
 20
62.906736
 30
0.0
  0
SEQEND
  5
12D
330
12C
100
AcDbEntity
  8
001
370
    50
  0
POLYLINE
  5
149
330
1F
100
AcDbEntity
  8
001
370
    50
100
AcDb2dPolyline
 66
     1
 10
0.0
 20
0.0
 30
0.0
  0
VERTEX
  5
14B
330
149
100
AcDbEntity
  8
001
370
    50
100
AcDbVertex
100
AcDb2dVertex
 10
54.978795
 20
53.391076
 30
0.0
  0
VERTEX
  5
14C
330
149
100
AcDbEntity
  8
001
370
    50
100
AcDbVertex
100
AcDb2dVertex
 10
55.120864
 20
53.671912
 30
0.0
  0
VERTEX
  5
14D
330
149
100
AcDbEntity
  8
001
370
    50
100
AcDbVertex
100
AcDb2dVertex
 10
55.252902
 20
53.957194
 30
0.0
  0
VERTEX
  5
14E
330
149
100
AcDbEntity
  8
001
370
    50
100
AcDbVertex
100
AcDb2dVertex
 10
55.368362
 20
54.253815
 30
0.0
  0
VERTEX
  5
14F
330
149
100
AcDbEntity
  8
001
370
    50
100
AcDbVertex
100
AcDb2dVertex
 10
55.466583
 20
54.556907
 30
0.0
  0
VERTEX
  5
150
330
149
100
AcDbEntity
  8
001
370
    50
100
AcDbVertex
100
AcDb2dVertex
 10
55.550405
 20
54.864901
 30
0.0
  0
VERTEX
  5
151
330
149
100
AcDbEntity
  8
001
370
    50
100
AcDbVertex
100
AcDb2dVertex
 10
55.619673
 20
55.176351
 30
0.0
  0
VERTEX
  5
152
330
149
100
AcDbEntity
  8
001
370
    50
100
AcDbVertex
100
AcDb2dVertex
 10
55.675304
 20
55.49961
 30
0.0
  0
VERTEX
  5
153
330
149
100
AcDbEntity
  8
001
370
    50
100
AcDbVertex
100
AcDb2dVertex
 10
55.715491
 20
55.825208
 30
0.0
  0
VERTEX
  5
154
330
149
100
AcDbEntity
  8
001
370
    50
100
AcDbVertex
100
AcDb2dVertex
 10
55.74074
 20
56.153528
 30
0.0
  0
VERTEX
  5
155
330
149
100
AcDbEntity
  8
001
370
    50
100
AcDbVertex
100
AcDb2dVertex
 10
55.750951
 20
56.482633
 30
0.0
  0
VERTEX
  5
156
330
149
100
AcDbEntity
  8
001
370
    50
100
AcDbVertex
100
AcDb2dVertex
 10
55.746132
 20
56.811587
 30
0.0
  0
VERTEX
  5
157
330
149
100
AcDbEntity
  8
001
370
    50
100
AcDbVertex
100
AcDb2dVertex
 10
55.726312
 20
57.140002
 30
0.0
  0
VERTEX
  5
158
330
149
100
AcDbEntity
  8
001
370
    50
100
AcDbVertex
100
AcDb2dVertex
 10
55.691024
 20
57.470347
 30
0.0
  0
VERTEX
  5
159
330
149
100
AcDbEntity
  8
001
370
    50
100
AcDbVertex
100
AcDb2dVertex
 10
55.64001
 20
57.798574
 30
0.0
  0
VERTEX
  5
15A
330
149
100
AcDbEntity
  8
001
370
    50
100
AcDbVertex
100
AcDb2dVertex
 10
55.572664
 20
58.125189
 30
0.0
  0
VERTEX
  5
15B
330
149
100
AcDbEntity
  8
001
370
    50
100
AcDbVertex
100
AcDb2dVertex
 10
55.489487
 20
58.448297
 30
0.0
  0
VERTEX
  5
15C
330
149
100
AcDbEntity
  8
001
370
    50
100
AcDbVertex
100
AcDb2dVertex
 10
55.390397
 20
58.766628
 30
0.0
  0
VERTEX
  5
15D
330
149
100
AcDbEntity
  8
001
370
    50
100
AcDbVertex
100
AcDb2dVertex
 10
55.2723
 20
59.078021
 30
0.0
  0
VERTEX
  5
15E
330
149
100
AcDbEntity
  8
001
370
    50
100
AcDbVertex
100
AcDb2dVertex
 10
55.131424
 20
59.386036
 30
0.0
  0
VERTEX
  5
15F
330
149
100
AcDbEntity
  8
001
370
    50
100
AcDbVertex
100
AcDb2dVertex
 10
54.978795
 20
59.688922
 30
0.0
  0
SEQEND
  5
14A
330
149
100
AcDbEntity
  8
001
370
    50
  0
POLYLINE
  5
160
330
1F
100
AcDbEntity
  8
001
370
    50
100
AcDb2dPolyline
 66
     1
 10
0.0
 20
0.0
 30
0.0
  0
VERTEX
  5
162
330
160
100
AcDbEntity
  8
001
370
    50
100
AcDbVertex
100
AcDb2dVertex
 10
54.105443
 20
52.16403
 30
0.0
  0
VERTEX
  5
163
330
160
100
AcDbEntity
  8
001
370
    50
100
AcDbVertex
100
AcDb2dVertex
 10
54.345086
 20
52.45261
 30
0.0
  0
VERTEX
  5
164
330
160
100
AcDbEntity
  8
001
370
    50
100
AcDbVertex
100
AcDb2dVertex
 10
54.57245
 20
52.749935
 30
0.0
  0
VERTEX
  5
165
330
160
100
AcDbEntity
  8
001
370
    50
100
AcDbVertex
100
AcDb2dVertex
 10
54.781924
 20
53.066018
 30
0.0
  0
VERTEX
  5
166
330
160
100
AcDbEntity
  8
001
370
    50
100
AcDbVertex
100
AcDb2dVertex
 10
54.978795
 20
53.391076
 30
0.0
  0
SEQEND
  5
161
330
160
100
AcDbEntity
  8
001
370
    50
  0
ARC
  5
167
330
1F
100
AcDbEntity
  8
001
370
    50
100
AcDbCircle
 10
54.978795
 20
75.910624
 30
0.0
 40
3.000000000000003
100
AcDbArc
 50
0.0
 51
90.0
  0
ARC
  5
168
330
1F
100
AcDbEntity
  8
001
370
    50
100
AcDbCircle
 10
54.978795
 20
41.910624
 30
0.0
 40
3.000000000000003
100
AcDbArc
 50
270.0
 51
0.0
  0
LINE
  5
169
330
1F
100
AcDbEntity
  8
001
370
    50
100
AcDbLine
 10
57.978795
 20
75.910624
 30
0.0
 11
57.978795
 21
41.910624
 31
0.0
  0
LINE
  5
16A
330
1F
100
AcDbEntity
  8
001
370
    50
100
AcDbLine
 10
54.978795
 20
78.910624
 30
0.0
 11
44.978795
 21
78.910624
 31
0.0
  0
LINE
  5
16B
330
1F
100
AcDbEntity
  8
001
370
    50
100
AcDbLine
 10
45.022308
 20
38.910624
 30
0.0
 11
54.978795
 21
38.910624
 31
0.0
  0
LINE
  5
16C
330
1F
100
AcDbEntity
  8
001
370
    50
100
AcDbLine
 10
45.026516
 20
38.92584
 30
0.0
 11
44.978795
 21
38.92584
 31
0.0
  0
LINE
  5
16D
330
1F
100
AcDbEntity
  8
001
370
    50
100
AcDbLine
 10
54.105443
 20
39.031992
 30
0.0
 11
45.055875
 21
39.031992
 31
0.0
  0
LINE
  5
16E
330
1F
100
AcDbEntity
  8
001
370
    50
100
AcDbLine
 10
32.978795
 20
66.910624
 30
0.0
 11
32.978795
 21
50.910624
 31
0.0
  0
LINE
  5
16F
330
1F
100
AcDbEntity
  8
001
370
    50
100
AcDbLine
 10
44.978795
 20
78.910624
 30
0.0
 11
32.978795
 21
66.910624
 31
0.0
  0
LINE
  5
170
330
1F
100
AcDbEntity
  8
001
370
    50
100
AcDbLine
 10
107.978795
 20
54.910624
 30
0.0
 11
107.978795
 21
62.910624
 31
0.0
  0
LINE
  5
171
330
1F
100
AcDbEntity
  8
001
370
    50
100
AcDbLine
 10
105.978795
 20
64.910624
 30
0.0
 11
60.978795
 21
64.910624
 31
0.0
  0
LINE
  5
172
330
1F
100
AcDbEntity
  8
001
370
    50
100
AcDbLine
 10
105.978795
 20
52.910624
 30
0.0
 11
60.978795
 21
52.910624
 31
0.0
  0
ARC
  5
173
330
1F
100
AcDbEntity
  8
001
370
    50
100
AcDbCircle
 10
48.105443
 20
53.093204
 30
0.0
 40
3.0
100
AcDbArc
 50
271.872516
 51
177.207484
  0
LINE
  5
174
330
1F
100
AcDbEntity
  8
001
370
    50
100
AcDbLine
 10
54.105443
 20
39.031992
 30
0.0
 11
54.105443
 21
56.011098
 31
0.0
  0
LINE
  5
175
330
1F
100
AcDbEntity
  8
001
370
    50
100
AcDbLine
 10
42.295846
 20
57.510624
 30
0.0
 11
32.978795
 21
57.510624
 31
0.0
  0
LINE
  5
176
330
1F
100
AcDbEntity
  8
001
370
    50
100
AcDbLine
 10
44.978795
 20
62.906736
 30
0.0
 11
44.978795
 21
78.910624
 31
0.0
  0
LINE
  5
177
330
1F
100
AcDbEntity
  8
001
370
    50
100
AcDbLine
 10
60.978795
 20
52.910624
 30
0.0
 11
60.978795
 21
64.910624
 31
0.0
  0
LINE
  5
178
330
1F
100
AcDbEntity
  8
001
370
    50
100
AcDbLine
 10
60.978795
 20
64.410624
 30
0.0
 11
57.978795
 21
64.410624
 31
0.0
  0
LINE
  5
179
330
1F
100
AcDbEntity
  8
001
370
    50
100
AcDbLine
 10
57.978795
 20
53.410624
 30
0.0
 11
60.978795
 21
53.410624
 31
0.0
  0
ARC
  5
17A
330
1F
100
AcDbEntity
  8
001
370
    50
100
AcDbCircle
 10
105.978795
 20
62.910624
 30
0.0
 40
2.0
100
AcDbArc
 50
0.0
 51
90.0
  0
ARC
  5
17B
330
1F
100
AcDbEntity
  8
001
370
    50
100
AcDbCircle
 10
105.978795
 20
54.910624
 30
0.0
 40
2.0
100
AcDbArc
 50
270.0
 51
0.0
  0
LINE
  5
17C
330
1F
100
AcDbEntity
  8
001
370
    50
100
AcDbLine
 10
107.978795
 20
58.910624
 30
0.0
 11
110.576871
 21
60.410624
 31
0.0
  0
LINE
  5
17D
330
1F
100
AcDbEntity
  8
001
370
    50
100
AcDbLine
 10
107.978795
 20
58.910624
 30
0.0
 11
110.576871
 21
57.410624
 31
0.0
  0
LINE
  5
17E
330
1F
100
AcDbEntity
  8
001
  6
CENTER
370
     9
100
AcDbLine
 10
31.890144
 20
58.910624
 30
0.0
 11
110.315996
 21
58.910624
 31
0.0
  0
LINE
  5
17F
330
1F
100
AcDbEntity
  8
001
370
    50
100
AcDbLine
 10
32.978795
 20
58.910624
 30
0.0
 11
31.246744
 21
59.910624
 31
0.0
  0
LINE
  5
180
330
1F
100
AcDbEntity
  8
001
370
    50
100
AcDbLine
 10
32.978795
 20
58.910624
 30
0.0
 11
31.246744
 21
57.910624
 31
0.0
  0
TEXT
  5
181
330
1F
100
AcDbEntity
  8
001
370
    30
100
AcDbText
 10
28.158393
 20
92.260648
 30
0.0
 40
5.0
  1
メントルビー　ＢＭ４５３８Ｔ
 41
0.833333
100
AcDbText
  0
LINE
  5
182
330
1F
100
AcDbEntity
  8
001
  6
PHANTOM
370
     9
100
AcDbLine
 10
33.781154
 20
49.825624
 30
0.0
 11
33.781154
 21
49.991851
 31
0.0
  0
LINE
  5
183
330
1F
100
AcDbEntity
  8
001
  6
PHANTOM
370
     9
100
AcDbLine
 10
44.613348
 20
38.995624
 30
0.0
 11
44.796751
 21
38.995624
 31
0.0
  0
LINE
  5
184
330
1F
100
AcDbEntity
  8
001
370
    50
100
AcDbLine
 10
45.072447
 20
39.091912
 30
0.0
 11
45.022308
 21
38.910624
 31
0.0
  0
POLYLINE
  5
185
330
1F
100
AcDbEntity
  8
001
370
    50
100
AcDb2dPolyline
 66
     1
 10
0.0
 20
0.0
 30
0.0
  0
VERTEX
  5
187
330
185
100
AcDbEntity
  8
001
370
    50
100
AcDbVertex
100
AcDb2dVertex
 10
44.978795
 20
38.92584
 30
0.0
  0
VERTEX
  5
188
330
185
100
AcDbEntity
  8
001
370
    50
100
AcDbVertex
100
AcDb2dVertex
 10
44.938129
 20
38.966536
 30
0.0
  0
VERTEX
  5
189
330
185
100
AcDbEntity
  8
001
370
    50
100
AcDbVertex
100
AcDb2dVertex
 10
44.897463
 20
39.007232
 30
0.0
  0
SEQEND
  5
186
330
185
100
AcDbEntity
  8
001
370
    50
  0
LINE
  5
18A
330
1F
100
AcDbEntity
  8
001
370
    50
100
AcDbLine
 10
45.973804
 20
42.033038
 30
0.0
 11
48.927045
 21
39.031992
 31
0.0
  0
LINE
  5
18B
330
1F
100
AcDbEntity
  8
001
  6
PHANTOM
370
     9
100
AcDbLine
 10
33.781154
 20
49.825624
 30
0.0
 11
33.872728
 21
49.73405
 31
0.0
  0
ARC
  5
18C
330
1F
100
AcDbEntity
  8
001
370
    50
100
AcDbCircle
 10
34.18161
 20
49.991499
 30
0.0
 40
0.400456015531271
100
AcDbArc
 50
104.54
 51
225.0
  0
LINE
  5
18D
330
1F
100
AcDbEntity
  8
001
370
    50
100
AcDbLine
 10
33.89391
 20
50.270055
 30
0.0
 11
32.978795
 21
51.21907
 31
0.0
  0
LINE
  5
18E
330
1F
100
AcDbEntity
  8
001
370
    50
100
AcDbLine
 10
32.978795
 20
50.910624
 30
0.0
 11
33.794688
 21
50.094731
 31
0.0
  0
LINE
  5
18F
330
1F
100
AcDbEntity
  8
001
370
    50
100
AcDbLine
 10
44.480909
 20
39.125869
 30
0.0
 11
33.898445
 21
49.708333
 31
0.0
  0
ARC
  5
190
330
1F
100
AcDbEntity
  8
001
370
    50
100
AcDbCircle
 10
44.795348
 20
39.440308
 30
0.0
 40
0.4446834722014557
100
AcDbArc
 50
225.0
 51
344.54
  0
LINE
  5
191
330
1F
100
AcDbEntity
  8
001
  6
PHANTOM
370
     9
100
AcDbLine
 10
44.483648
 20
39.125297
 30
0.0
 11
44.613348
 21
38.995624
 31
0.0
  0
LINE
  5
192
330
1F
100
AcDbEntity
  8
001
370
    50
100
AcDbLine
 10
32.978795
 20
55.238402
 30
0.0
 11
37.012477
 21
51.139425
 31
0.0
  0
ENDSEC
  0
SECTION
  2
OBJECTS
  0
DICTIONARY
  5
C
330
0
100
AcDbDictionary
281
     1
  3
ACAD_GROUP
350
D
  3
ACAD_LAYOUT
350
1A
  3
ACAD_MLEADERSTYLE
350
196
  3
ACAD_MLINESTYLE
350
17
  3
ACAD_PLOTSETTINGS
350
19
  3
ACAD_PLOTSTYLENAME
350
E
  3
ACAD_SCALELIST
350
3B
  3
ACAD_TABLESTYLE
350
195
  3
ACAD_VISUALSTYLE
350
2A
  3
AcDbVariableDictionary
350
193
  0
DICTIONARY
  5
D
102
{ACAD_REACTORS
330
C
102
}
330
C
100
AcDbDictionary
281
     1
  0
DICTIONARY
  5
1A
102
{ACAD_REACTORS
330
C
102
}
330
C
100
AcDbDictionary
281
     1
  3
Layout1
350
1E
  3
Layout2
350
26
  3
Model
350
22
  0
DICTIONARY
  5
196
102
{ACAD_REACTORS
330
C
102
}
330
C
100
AcDbDictionary
281
     1
  0
DICTIONARY
  5
17
102
{ACAD_REACTORS
330
C
102
}
330
C
100
AcDbDictionary
281
     1
  3
Standard
350
18
  0
DICTIONARY
  5
19
102
{ACAD_REACTORS
330
C
102
}
330
C
100
AcDbDictionary
281
     1
  0
ACDBDICTIONARYWDFLT
  5
E
102
{ACAD_REACTORS
330
C
102
}
330
C
100
AcDbDictionary
281
     1
  3
Normal
350
F
100
AcDbDictionaryWithDefault
340
F
  0
DICTIONARY
  5
3B
102
{ACAD_REACTORS
330
C
102
}
330
C
100
AcDbDictionary
281
     1
  3
A0
350
3C
  3
A1
350
3D
  3
A2
350
3E
  3
A3
350
3F
  3
A4
350
40
  3
A5
350
41
  3
A6
350
42
  3
A7
350
43
  3
A8
350
44
  3
A9
350
45
  3
B0
350
46
  3
B1
350
47
  3
B2
350
48
  3
B3
350
49
  3
B4
350
4A
  3
B5
350
4B
  3
B6
350
4C
  3
B7
350
4D
  3
B8
350
4E
  3
B9
350
4F
  3
C0
350
50
  3
C1
350
51
  3
C2
350
52
  3
C3
350
53
  3
C4
350
54
  3
C5
350
55
  3
C6
350
56
  3
C7
350
57
  3
C8
350
58
  3
C9
350
59
  3
D0
350
5A
  3
D1
350
5B
  3
D2
350
5C
  0
DICTIONARY
  5
195
102
{ACAD_REACTORS
330
C
102
}
330
C
100
AcDbDictionary
281
     1
  0
DICTIONARY
  5
2A
102
{ACAD_REACTORS
330
C
102
}
330
C
100
AcDbDictionary
281
     1
  3
2dWireframe
350
2F
  3
3D Hidden
350
31
  3
3dWireframe
350
30
  3
Basic
350
32
  3
Brighten
350
36
  3
ColorChange
350
3A
  3
Conceptual
350
34
  3
Dim
350
35
  3
Facepattern
350
39
  3
Flat
350
2B
  3
FlatWithEdges
350
2C
  3
Gouraud
350
2D
  3
GouraudWithEdges
350
2E
  3
Linepattern
350
38
  3
Realistic
350
33
  3
Thicken
350
37
  0
DICTIONARY
  5
193
102
{ACAD_REACTORS
330
C
102
}
330
C
100
AcDbDictionary
281
     1
  3
CANNOSCALE
350
194
  3
PSOLHEIGHT
350
198
  3
PSOLWIDTH
350
197
  0
LAYOUT
  5
1E
102
{ACAD_REACTORS
330
1A
102
}
330
1A
100
AcDbPlotSettings
  1

  2
none_device
  4

  6

 40
0.0
 41
0.0
 42
0.0
 43
0.0
 44
0.0
 45
0.0
 46
0.0
 47
0.0
 48
0.0
 49
0.0
140
0.0
141
0.0
142
1.0
143
1.0
 70
   688
 72
     0
 73
     0
 74
     5
  7

 75
    16
147
1.0
148
0.0
149
0.0
100
AcDbLayout
  1
Layout1
 70
     1
 71
     1
 10
0.0
 20
0.0
 11
12.0
 21
9.0
 12
0.0
 22
0.0
 32
0.0
 14
1.000000E+20
 24
1.000000E+20
 34
0.0
 15
-1.000000E+20
 25
-1.000000E+20
 35
0.0
146
0.0
 13
0.0
 23
0.0
 33
0.0
 16
1.0
 26
0.0
 36
0.0
 17
0.0
 27
1.0
 37
0.0
 76
     0
330
1B
  0
LAYOUT
  5
26
102
{ACAD_REACTORS
330
1A
102
}
330
1A
100
AcDbPlotSettings
  1

  2
none_device
  4

  6

 40
0.0
 41
0.0
 42
0.0
 43
0.0
 44
0.0
 45
0.0
 46
0.0
 47
0.0
 48
0.0
 49
0.0
140
0.0
141
0.0
142
1.0
143
1.0
 70
   688
 72
     0
 73
     0
 74
     5
  7

 75
    16
147
1.0
148
0.0
149
0.0
100
AcDbLayout
  1
Layout2
 70
     1
 71
     2
 10
0.0
 20
0.0
 11
0.0
 21
0.0
 12
0.0
 22
0.0
 32
0.0
 14
0.0
 24
0.0
 34
0.0
 15
0.0
 25
0.0
 35
0.0
146
0.0
 13
0.0
 23
0.0
 33
0.0
 16
1.0
 26
0.0
 36
0.0
 17
0.0
 27
1.0
 37
0.0
 76
     0
330
23
  0
LAYOUT
  5
22
102
{ACAD_REACTORS
330
1A
102
}
330
1A
100
AcDbPlotSettings
  1

  2
none_device
  4

  6

 40
0.0
 41
0.0
 42
0.0
 43
0.0
 44
0.0
 45
0.0
 46
0.0
 47
0.0
 48
0.0
 49
0.0
140
0.0
141
0.0
142
1.0
143
1.0
 70
  1712
 72
     0
 73
     0
 74
     0
  7

 75
     0
147
1.0
148
0.0
149
0.0
100
AcDbLayout
  1
Model
 70
     1
 71
     0
 10
0.0
 20
0.0
 11
12.0
 21
9.0
 12
0.0
 22
0.0
 32
0.0
 14
8.90493
 24
9.487442
 34
0.0
 15
123.563927
 25
97.260651
 35
0.0
146
0.0
 13
0.0
 23
0.0
 33
0.0
 16
1.0
 26
0.0
 36
0.0
 17
0.0
 27
1.0
 37
0.0
 76
     0
330
1F
331
29
  0
MLINESTYLE
  5
18
102
{ACAD_REACTORS
330
17
102
}
330
17
100
AcDbMlineStyle
  2
Standard
 70
     0
  3

 62
   256
 51
90.0
 52
90.0
 71
     2
 49
0.5
 62
   256
  6
BYLAYER
 49
-0.5
 62
   256
  6
BYLAYER
  0
ACDBPLACEHOLDER
  5
F
102
{ACAD_REACTORS
330
E
102
}
330
E
  0
SCALE
  5
3C
102
{ACAD_REACTORS
330
3B
102
}
330
3B
100
AcDbScale
 70
     0
300
1:1
140
1.0
141
1.0
290
     1
  0
SCALE
  5
3D
102
{ACAD_REACTORS
330
3B
102
}
330
3B
100
AcDbScale
 70
     0
300
1:2
140
1.0
141
2.0
290
     0
  0
SCALE
  5
3E
102
{ACAD_REACTORS
330
3B
102
}
330
3B
100
AcDbScale
 70
     0
300
1:4
140
1.0
141
4.0
290
     0
  0
SCALE
  5
3F
102
{ACAD_REACTORS
330
3B
102
}
330
3B
100
AcDbScale
 70
     0
300
1:5
140
1.0
141
5.0
290
     0
  0
SCALE
  5
40
102
{ACAD_REACTORS
330
3B
102
}
330
3B
100
AcDbScale
 70
     0
300
1:8
140
1.0
141
8.0
290
     0
  0
SCALE
  5
41
102
{ACAD_REACTORS
330
3B
102
}
330
3B
100
AcDbScale
 70
     0
300
1:10
140
1.0
141
10.0
290
     0
  0
SCALE
  5
42
102
{ACAD_REACTORS
330
3B
102
}
330
3B
100
AcDbScale
 70
     0
300
1:16
140
1.0
141
16.0
290
     0
  0
SCALE
  5
43
102
{ACAD_REACTORS
330
3B
102
}
330
3B
100
AcDbScale
 70
     0
300
1:20
140
1.0
141
20.0
290
     0
  0
SCALE
  5
44
102
{ACAD_REACTORS
330
3B
102
}
330
3B
100
AcDbScale
 70
     0
300
1:30
140
1.0
141
30.0
290
     0
  0
SCALE
  5
45
102
{ACAD_REACTORS
330
3B
102
}
330
3B
100
AcDbScale
 70
     0
300
1:40
140
1.0
141
40.0
290
     0
  0
SCALE
  5
46
102
{ACAD_REACTORS
330
3B
102
}
330
3B
100
AcDbScale
 70
     0
300
1:50
140
1.0
141
50.0
290
     0
  0
SCALE
  5
47
102
{ACAD_REACTORS
330
3B
102
}
330
3B
100
AcDbScale
 70
     0
300
1:100
140
1.0
141
100.0
290
     0
  0
SCALE
  5
48
102
{ACAD_REACTORS
330
3B
102
}
330
3B
100
AcDbScale
 70
     0
300
2:1
140
2.0
141
1.0
290
     0
  0
SCALE
  5
49
102
{ACAD_REACTORS
330
3B
102
}
330
3B
100
AcDbScale
 70
     0
300
4:1
140
4.0
141
1.0
290
     0
  0
SCALE
  5
4A
102
{ACAD_REACTORS
330
3B
102
}
330
3B
100
AcDbScale
 70
     0
300
8:1
140
8.0
141
1.0
290
     0
  0
SCALE
  5
4B
102
{ACAD_REACTORS
330
3B
102
}
330
3B
100
AcDbScale
 70
     0
300
10:1
140
10.0
141
1.0
290
     0
  0
SCALE
  5
4C
102
{ACAD_REACTORS
330
3B
102
}
330
3B
100
AcDbScale
 70
     0
300
100:1
140
100.0
141
1.0
290
     0
  0
SCALE
  5
4D
102
{ACAD_REACTORS
330
3B
102
}
330
3B
100
AcDbScale
 70
     0
300
1/128" = 1'-0"
140
0.007812
141
12.0
290
     0
  0
SCALE
  5
4E
102
{ACAD_REACTORS
330
3B
102
}
330
3B
100
AcDbScale
 70
     0
300
1/64" = 1'-0"
140
0.015625
141
12.0
290
     0
  0
SCALE
  5
4F
102
{ACAD_REACTORS
330
3B
102
}
330
3B
100
AcDbScale
 70
     0
300
1/32" = 1'-0"
140
0.03125
141
12.0
290
     0
  0
SCALE
  5
50
102
{ACAD_REACTORS
330
3B
102
}
330
3B
100
AcDbScale
 70
     0
300
1/16" = 1'-0"
140
0.0625
141
12.0
290
     0
  0
SCALE
  5
51
102
{ACAD_REACTORS
330
3B
102
}
330
3B
100
AcDbScale
 70
     0
300
3/32" = 1'-0"
140
0.09375
141
12.0
290
     0
  0
SCALE
  5
52
102
{ACAD_REACTORS
330
3B
102
}
330
3B
100
AcDbScale
 70
     0
300
1/8" = 1'-0"
140
0.125
141
12.0
290
     0
  0
SCALE
  5
53
102
{ACAD_REACTORS
330
3B
102
}
330
3B
100
AcDbScale
 70
     0
300
3/16" = 1'-0"
140
0.1875
141
12.0
290
     0
  0
SCALE
  5
54
102
{ACAD_REACTORS
330
3B
102
}
330
3B
100
AcDbScale
 70
     0
300
1/4" = 1'-0"
140
0.25
141
12.0
290
     0
  0
SCALE
  5
55
102
{ACAD_REACTORS
330
3B
102
}
330
3B
100
AcDbScale
 70
     0
300
3/8" = 1'-0"
140
0.375
141
12.0
290
     0
  0
SCALE
  5
56
102
{ACAD_REACTORS
330
3B
102
}
330
3B
100
AcDbScale
 70
     0
300
1/2" = 1'-0"
140
0.5
141
12.0
290
     0
  0
SCALE
  5
57
102
{ACAD_REACTORS
330
3B
102
}
330
3B
100
AcDbScale
 70
     0
300
3/4" = 1'-0"
140
0.75
141
12.0
290
     0
  0
SCALE
  5
58
102
{ACAD_REACTORS
330
3B
102
}
330
3B
100
AcDbScale
 70
     0
300
1" = 1'-0"
140
1.0
141
12.0
290
     0
  0
SCALE
  5
59
102
{ACAD_REACTORS
330
3B
102
}
330
3B
100
AcDbScale
 70
     0
300
1-1/2" = 1'-0"
140
1.5
141
12.0
290
     0
  0
SCALE
  5
5A
102
{ACAD_REACTORS
330
3B
102
}
330
3B
100
AcDbScale
 70
     0
300
3" = 1'-0"
140
3.0
141
12.0
290
     0
  0
SCALE
  5
5B
102
{ACAD_REACTORS
330
3B
102
}
330
3B
100
AcDbScale
 70
     0
300
6" = 1'-0"
140
6.0
141
12.0
290
     0
  0
SCALE
  5
5C
102
{ACAD_REACTORS
330
3B
102
}
330
3B
100
AcDbScale
 70
     0
300
1'-0" = 1'-0"
140
12.0
141
12.0
290
     0
  0
VISUALSTYLE
  5
2F
102
{ACAD_REACTORS
330
2A
102
}
330
2A
100
AcDbVisualStyle
  2
2dWireframe
 70
     4
 71
     0
 72
     2
 73
     0
 90
        0
 40
-0.6
 41
-30.0
 62
     5
 63
     7
 74
     1
 91
        4
 64
     7
 65
   257
 75
     1
175
     1
 42
1.0
 92
        0
 66
   257
 43
1.0
 76
     1
 77
     6
 78
     2
 67
     7
 79
     5
170
     0
171
     0
290
     0
174
     0
 93
        1
 44
0.0
173
     0
291
     0
 45
0.0
1001
ACAD
1000
AcDbSavedByObjectVersion
1070
     0
  0
VISUALSTYLE
  5
31
102
{ACAD_REACTORS
330
2A
102
}
330
2A
100
AcDbVisualStyle
  2
3D Hidden
 70
     6
 71
     1
 72
     2
 73
     2
 90
        0
 40
-0.6
 41
-30.0
 62
     5
 63
     7
 74
     2
 91
        2
 64
     7
 65
   257
 75
     2
175
     1
 42
40.0
 92
        0
 66
   257
 43
1.0
 76
     1
 77
     6
 78
     2
 67
     7
 79
     3
170
     0
171
     0
290
     0
174
     0
 93
        1
 44
0.0
173
     0
291
     0
 45
0.0
1001
ACAD
1000
AcDbSavedByObjectVersion
1070
     0
  0
VISUALSTYLE
  5
30
102
{ACAD_REACTORS
330
2A
102
}
330
2A
100
AcDbVisualStyle
  2
3dWireframe
 70
     5
 71
     0
 72
     2
 73
     0
 90
        0
 40
-0.6
 41
-30.0
 62
     5
 63
     7
 74
     1
 91
        4
 64
     7
 65
   257
 75
     1
175
     1
 42
1.0
 92
        0
 66
   257
 43
1.0
 76
     1
 77
     6
 78
     2
 67
     7
 79
     5
170
     0
171
     0
290
     0
174
     0
 93
        1
 44
0.0
173
     0
291
     0
 45
0.0
1001
ACAD
1000
AcDbSavedByObjectVersion
1070
     0
  0
VISUALSTYLE
  5
32
102
{ACAD_REACTORS
330
2A
102
}
330
2A
100
AcDbVisualStyle
  2
Basic
 70
     7
 71
     1
 72
     0
 73
     1
 90
        0
 40
-0.6
 41
-30.0
 62
     5
 63
     7
 74
     0
 91
        4
 64
     7
 65
   257
 75
     1
175
     1
 42
1.0
 92
        8
 66
     7
 43
1.0
 76
     1
 77
     6
 78
     2
 67
     7
 79
     5
170
     0
171
     0
290
     0
174
     0
 93
        1
 44
0.0
173
     0
291
     1
 45
0.0
1001
ACAD
1000
AcDbSavedByObjectVersion
1070
     0
  0
VISUALSTYLE
  5
36
102
{ACAD_REACTORS
330
2A
102
}
330
2A
100
AcDbVisualStyle
  2
Brighten
 70
    12
 71
     2
 72
     2
 73
     0
 90
        0
 40
-0.6
 41
-30.0
 62
     5
 63
     7
 74
     1
 91
        4
 64
     7
 65
   257
 75
     1
175
     1
 42
1.0
 92
        8
 66
     7
 43
1.0
 76
     1
 77
     6
 78
     2
 67
     7
 79
     5
170
     0
171
     0
290
     0
174
     0
 93
        1
 44
50.0
173
     0
291
     1
 45
0.0
1001
ACAD
1000
AcDbSavedByObjectVersion
1070
     0
  0
VISUALSTYLE
  5
3A
102
{ACAD_REACTORS
330
2A
102
}
330
2A
100
AcDbVisualStyle
  2
ColorChange
 70
    16
 71
     2
 72
     2
 73
     3
 90
        0
 40
-0.6
 41
-30.0
 62
     5
 63
     8
 74
     1
 91
        4
 64
     7
 65
   257
 75
     1
175
     1
 42
1.0
 92
        8
 66
     8
 43
1.0
 76
     1
 77
     6
 78
     2
 67
     7
 79
     5
170
     0
171
     0
290
     0
174
     0
 93
        1
 44
0.0
173
     0
291
     1
 45
0.0
1001
ACAD
1000
AcDbSavedByObjectVersion
1070
     0
  0
VISUALSTYLE
  5
34
102
{ACAD_REACTORS
330
2A
102
}
330
2A
100
AcDbVisualStyle
  2
Conceptual
 70
     9
 71
     3
 72
     2
 73
     0
 90
        0
 40
-0.6
 41
-30.0
 62
     5
 63
     7
 74
     2
 91
        2
 64
     7
 65
   257
 75
     1
175
     1
 42
40.0
 92
        8
 66
     7
 43
1.0
 76
     1
 77
     6
 78
     2
 67
     7
 79
     3
170
     0
171
     0
290
     0
174
     0
 93
        1
 44
0.0
173
     0
291
     0
 45
0.0
1001
ACAD
1000
AcDbSavedByObjectVersion
1070
     0
  0
VISUALSTYLE
  5
35
102
{ACAD_REACTORS
330
2A
102
}
330
2A
100
AcDbVisualStyle
  2
Dim
 70
    11
 71
     2
 72
     2
 73
     0
 90
        0
 40
-0.6
 41
-30.0
 62
     5
 63
     7
 74
     1
 91
        4
 64
     7
 65
   257
 75
     1
175
     1
 42
1.0
 92
        8
 66
     7
 43
1.0
 76
     1
 77
     6
 78
     2
 67
     7
 79
     5
170
     0
171
     0
290
     0
174
     0
 93
        1
 44
-50.0
173
     0
291
     1
 45
0.0
1001
ACAD
1000
AcDbSavedByObjectVersion
1070
     0
  0
VISUALSTYLE
  5
39
102
{ACAD_REACTORS
330
2A
102
}
330
2A
100
AcDbVisualStyle
  2
Facepattern
 70
    15
 71
     2
 72
     2
 73
     0
 90
        0
 40
-0.6
 41
-30.0
 62
     5
 63
     7
 74
     1
 91
        4
 64
     7
 65
   257
 75
     1
175
     1
 42
1.0
 92
        8
 66
     7
 43
1.0
 76
     1
 77
     6
 78
     2
 67
     7
 79
     5
170
     0
171
     0
290
     0
174
     0
 93
        1
 44
0.0
173
     0
291
     1
 45
0.0
1001
ACAD
1000
AcDbSavedByObjectVersion
1070
     0
  0
VISUALSTYLE
  5
2B
102
{ACAD_REACTORS
330
2A
102
}
330
2A
100
AcDbVisualStyle
  2
Flat
 70
     0
 71
     2
 72
     1
 73
     1
 90
        2
 40
-0.6
 41
30.0
 62
     5
 63
     7
 74
     0
 91
        4
 64
     7
 65
   257
 75
     1
175
     1
 42
1.0
 92
        8
 66
     7
 43
1.0
 76
     1
 77
     6
 78
     2
 67
     7
 79
     5
170
     0
171
     0
290
     0
174
     0
 93
       13
 44
0.0
173
     0
291
     1
 45
0.0
1001
ACAD
1000
AcDbSavedByObjectVersion
1070
     0
  0
VISUALSTYLE
  5
2C
102
{ACAD_REACTORS
330
2A
102
}
330
2A
100
AcDbVisualStyle
  2
FlatWithEdges
 70
     1
 71
     2
 72
     1
 73
     1
 90
        2
 40
-0.6
 41
30.0
 62
     5
 63
     7
 74
     1
 91
        4
 64
     7
 65
   257
 75
     1
175
     1
 42
1.0
 92
        0
 66
   257
 43
1.0
 76
     1
 77
     6
 78
     2
 67
     7
 79
     5
170
     0
171
     0
290
     0
174
     0
 93
       13
 44
0.0
173
     0
291
     1
 45
0.0
1001
ACAD
1000
AcDbSavedByObjectVersion
1070
     0
  0
VISUALSTYLE
  5
2D
102
{ACAD_REACTORS
330
2A
102
}
330
2A
100
AcDbVisualStyle
  2
Gouraud
 70
     2
 71
     2
 72
     2
 73
     1
 90
        2
 40
-0.6
 41
30.0
 62
     5
 63
     7
 74
     0
 91
        4
 64
     7
 65
   257
 75
     1
175
     1
 42
1.0
 92
        0
 66
     7
 43
1.0
 76
     1
 77
     6
 78
     2
 67
     7
 79
     5
170
     0
171
     0
290
     0
174
     0
 93
       13
 44
0.0
173
     0
291
     1
 45
0.0
1001
ACAD
1000
AcDbSavedByObjectVersion
1070
     0
  0
VISUALSTYLE
  5
2E
102
{ACAD_REACTORS
330
2A
102
}
330
2A
100
AcDbVisualStyle
  2
GouraudWithEdges
 70
     3
 71
     2
 72
     2
 73
     1
 90
        2
 40
-0.6
 41
30.0
 62
     5
 63
     7
 74
     1
 91
        4
 64
     7
 65
   257
 75
     1
175
     1
 42
1.0
 92
        0
 66
   257
 43
1.0
 76
     1
 77
     6
 78
     2
 67
     7
 79
     5
170
     0
171
     0
290
     0
174
     0
 93
       13
 44
0.0
173
     0
291
     1
 45
0.0
1001
ACAD
1000
AcDbSavedByObjectVersion
1070
     0
  0
VISUALSTYLE
  5
38
102
{ACAD_REACTORS
330
2A
102
}
330
2A
100
AcDbVisualStyle
  2
Linepattern
 70
    14
 71
     2
 72
     2
 73
     0
 90
        0
 40
-0.6
 41
-30.0
 62
     5
 63
     7
 74
     1
 91
        4
 64
     7
 65
   257
 75
     7
175
     7
 42
1.0
 92
        8
 66
     7
 43
1.0
 76
     1
 77
     6
 78
     2
 67
     7
 79
     5
170
     0
171
     0
290
     0
174
     0
 93
        1
 44
0.0
173
     0
291
     1
 45
0.0
1001
ACAD
1000
AcDbSavedByObjectVersion
1070
     0
  0
VISUALSTYLE
  5
33
102
{ACAD_REACTORS
330
2A
102
}
330
2A
100
AcDbVisualStyle
  2
Realistic
 70
     8
 71
     2
 72
     2
 73
     0
 90
        0
 40
-0.6
 41
-30.0
 62
     5
 63
     7
 74
     1
 91
        0
 64
     7
 65
   257
 75
     1
175
     1
 42
1.0
 92
        8
 66
     8
 43
1.0
 76
     1
 77
     6
 78
     2
 67
     7
 79
     5
170
     0
171
     0
290
     0
174
     0
 93
       13
 44
0.0
173
     0
291
     0
 45
0.0
1001
ACAD
1000
AcDbSavedByObjectVersion
1070
     0
  0
VISUALSTYLE
  5
37
102
{ACAD_REACTORS
330
2A
102
}
330
2A
100
AcDbVisualStyle
  2
Thicken
 70
    13
 71
     2
 72
     2
 73
     0
 90
        0
 40
-0.6
 41
-30.0
 62
     5
 63
     7
 74
     1
 91
        4
 64
     7
 65
   257
 75
     1
175
     1
 42
1.0
 92
       12
 66
     7
 43
1.0
 76
     1
 77
     6
 78
     2
 67
     7
 79
     5
170
     0
171
     0
290
     0
174
     0
 93
        1
 44
0.0
173
     0
291
     1
 45
0.0
1001
ACAD
1000
AcDbSavedByObjectVersion
1070
     0
  0
DICTIONARYVAR
  5
194
102
{ACAD_REACTORS
330
193
102
}
330
193
100
DictionaryVariables
280
     0
  1
1:1
  0
DICTIONARYVAR
  5
198
102
{ACAD_REACTORS
330
193
102
}
330
193
100
DictionaryVariables
280
     0
  1
80.000000
  0
DICTIONARYVAR
  5
197
102
{ACAD_REACTORS
330
193
102
}
330
193
100
DictionaryVariables
280
     0
  1
5.000000
  0
ENDSEC
  0
EOF
