  0
SECTION
  2
HEADER
  9
$ACADVER
  1
AC1015
  9
$ACADMAINTVER
 70
     6
  9
$DWGCODEPAGE
  3
ANSI_932
  9
$INSBASE
 10
0.0
 20
0.0
 30
0.0
  9
$EXTMIN
 10
22.868637
 20
12.502876
 30
0.0
  9
$EXTMAX
 10
172.868637
 20
115.000237
 30
0.0
  9
$LIMMIN
 10
0.0
 20
0.0
  9
$LIMMAX
 10
12.0
 20
9.0
  9
$ORTHOMODE
 70
     0
  9
$REGENMODE
 70
     1
  9
$FILLMODE
 70
     1
  9
$QTEXTMODE
 70
     0
  9
$MIRRTEXT
 70
     1
  9
$LTSCALE
 40
1.816747
  9
$ATTMODE
 70
     1
  9
$TEXTSIZE
 40
3.2
  9
$TRACEWID
 40
1.0
  9
$TEXTSTYLE
  7
Standard
  9
$CLAYER
  8
0
  9
$CELTYPE
  6
ByLayer
  9
$CECOLOR
 62
   256
  9
$CELTSCALE
 40
1.0
  9
$DISPSILH
 70
     0
  9
$DIMSCALE
 40
1.0
  9
$DIMASZ
 40
2.5
  9
$DIMEXO
 40
0.625
  9
$DIMDLI
 40
3.75
  9
$DIMRND
 40
0.0
  9
$DIMDLE
 40
0.0
  9
$DIMEXE
 40
1.25
  9
$DIMTP
 40
0.0
  9
$DIMTM
 40
0.0
  9
$DIMTXT
 40
2.5
  9
$DIMCEN
 40
0.09
  9
$DIMTSZ
 40
0.0
  9
$DIMTOL
 70
     0
  9
$DIMLIM
 70
     0
  9
$DIMTIH
 70
     0
  9
$DIMTOH
 70
     0
  9
$DIMSE1
 70
     0
  9
$DIMSE2
 70
     0
  9
$DIMTAD
 70
     0
  9
$DIMZIN
 70
     8
  9
$DIMBLK
  1

  9
$DIMASO
 70
     1
  9
$DIMSHO
 70
     0
  9
$DIMPOST
  1

  9
$DIMAPOST
  1

  9
$DIMALT
 70
     0
  9
$DIMALTD
 70
     3
  9
$DIMALTF
 40
0.03937
  9
$DIMLFAC
 40
1.0
  9
$DIMTOFL
 70
     1
  9
$DIMTVP
 40
0.0
  9
$DIMTIX
 70
     0
  9
$DIMSOXD
 70
     0
  9
$DIMSAH
 70
     0
  9
$DIMBLK1
  1

  9
$DIMBLK2
  1

  9
$DIMSTYLE
  2
ISO-25
  9
$DIMCLRD
 70
     0
  9
$DIMCLRE
 70
     0
  9
$DIMCLRT
 70
     0
  9
$DIMTFAC
 40
1.0
  9
$DIMGAP
 40
0.625
  9
$DIMJUST
 70
     0
  9
$DIMSD1
 70
     0
  9
$DIMSD2
 70
     0
  9
$DIMTOLJ
 70
     0
  9
$DIMTZIN
 70
     8
  9
$DIMALTZ
 70
     0
  9
$DIMALTTZ
 70
     0
  9
$DIMUPT
 70
     0
  9
$DIMDEC
 70
     2
  9
$DIMTDEC
 70
     2
  9
$DIMALTU
 70
     2
  9
$DIMALTTD
 70
     3
  9
$DIMTXSTY
  7
Standard
  9
$DIMAUNIT
 70
     0
  9
$DIMADEC
 70
     0
  9
$DIMALTRND
 40
0.0
  9
$DIMAZIN
 70
     0
  9
$DIMDSEP
 70
    44
  9
$DIMATFIT
 70
     3
  9
$DIMFRAC
 70
     0
  9
$DIMLDRBLK
  1

  9
$DIMLUNIT
 70
     2
  9
$DIMLWD
 70
    -2
  9
$DIMLWE
 70
    -2
  9
$DIMTMOVE
 70
     0
  9
$LUNITS
 70
     2
  9
$LUPREC
 70
     4
  9
$SKETCHINC
 40
1.0
  9
$FILLETRAD
 40
0.0
  9
$AUNITS
 70
     0
  9
$AUPREC
 70
     0
  9
$MENU
  1
.
  9
$ELEVATION
 40
0.0
  9
$PELEVATION
 40
0.0
  9
$THICKNESS
 40
0.0
  9
$LIMCHECK
 70
     0
  9
$CHAMFERA
 40
10.0
  9
$CHAMFERB
 40
10.0
  9
$CHAMFERC
 40
20.0
  9
$CHAMFERD
 40
0.0
  9
$SKPOLY
 70
     0
  9
$TDCREATE
 40
2454805.778714734
  9
$TDUCREATE
 40
2454805.403714734
  9
$TDUPDATE
 40
2454805.778714745
  9
$TDUUPDATE
 40
2454805.403714745
  9
$TDINDWG
 40
0.0000000116
  9
$TDUSRTIMER
 40
0.0000000116
  9
$USRTIMER
 70
     1
  9
$ANGBASE
 50
0.0
  9
$ANGDIR
 70
     0
  9
$PDMODE
 70
     0
  9
$PDSIZE
 40
0.0
  9
$PLINEWID
 40
0.0
  9
$SPLFRAME
 70
     0
  9
$SPLINETYPE
 70
     6
  9
$SPLINESEGS
 70
     8
  9
$HANDSEED
  5
3D3
  9
$SURFTAB1
 70
     6
  9
$SURFTAB2
 70
     6
  9
$SURFTYPE
 70
     6
  9
$SURFU
 70
     6
  9
$SURFV
 70
     6
  9
$UCSBASE
  2

  9
$UCSNAME
  2

  9
$UCSORG
 10
0.0
 20
0.0
 30
0.0
  9
$UCSXDIR
 10
1.0
 20
0.0
 30
0.0
  9
$UCSYDIR
 10
0.0
 20
1.0
 30
0.0
  9
$UCSORTHOREF
  2

  9
$UCSORTHOVIEW
 70
     0
  9
$UCSORGTOP
 10
0.0
 20
0.0
 30
0.0
  9
$UCSORGBOTTOM
 10
0.0
 20
0.0
 30
0.0
  9
$UCSORGLEFT
 10
0.0
 20
0.0
 30
0.0
  9
$UCSORGRIGHT
 10
0.0
 20
0.0
 30
0.0
  9
$UCSORGFRONT
 10
0.0
 20
0.0
 30
0.0
  9
$UCSORGBACK
 10
0.0
 20
0.0
 30
0.0
  9
$PUCSBASE
  2

  9
$PUCSNAME
  2

  9
$PUCSORG
 10
0.0
 20
0.0
 30
0.0
  9
$PUCSXDIR
 10
1.0
 20
0.0
 30
0.0
  9
$PUCSYDIR
 10
0.0
 20
1.0
 30
0.0
  9
$PUCSORTHOREF
  2

  9
$PUCSORTHOVIEW
 70
     0
  9
$PUCSORGTOP
 10
0.0
 20
0.0
 30
0.0
  9
$PUCSORGBOTTOM
 10
0.0
 20
0.0
 30
0.0
  9
$PUCSORGLEFT
 10
0.0
 20
0.0
 30
0.0
  9
$PUCSORGRIGHT
 10
0.0
 20
0.0
 30
0.0
  9
$PUCSORGFRONT
 10
0.0
 20
0.0
 30
0.0
  9
$PUCSORGBACK
 10
0.0
 20
0.0
 30
0.0
  9
$USERI1
 70
     0
  9
$USERI2
 70
     0
  9
$USERI3
 70
     0
  9
$USERI4
 70
     0
  9
$USERI5
 70
     0
  9
$USERR1
 40
0.0
  9
$USERR2
 40
0.0
  9
$USERR3
 40
0.0
  9
$USERR4
 40
0.0
  9
$USERR5
 40
0.0
  9
$WORLDVIEW
 70
     1
  9
$SHADEDGE
 70
     3
  9
$SHADEDIF
 70
    70
  9
$TILEMODE
 70
     1
  9
$MAXACTVP
 70
    64
  9
$PINSBASE
 10
0.0
 20
0.0
 30
0.0
  9
$PLIMCHECK
 70
     0
  9
$PEXTMIN
 10
1.000000E+20
 20
1.000000E+20
 30
0.0
  9
$PEXTMAX
 10
-1.000000E+20
 20
-1.000000E+20
 30
0.0
  9
$PLIMMIN
 10
0.0
 20
0.0
  9
$PLIMMAX
 10
12.0
 20
9.0
  9
$UNITMODE
 70
     0
  9
$VISRETAIN
 70
     1
  9
$PLINEGEN
 70
     0
  9
$PSLTSCALE
 70
     1
  9
$TREEDEPTH
 70
  3020
  9
$CMLSTYLE
  2
Standard
  9
$CMLJUST
 70
     0
  9
$CMLSCALE
 40
20.0
  9
$PROXYGRAPHICS
 70
     1
  9
$MEASUREMENT
 70
     1
  9
$CELWEIGHT
370
    -1
  9
$ENDCAPS
280
     0
  9
$JOINSTYLE
280
     0
  9
$LWDISPLAY
290
     0
  9
$INSUNITS
 70
     4
  9
$HYPERLINKBASE
  1

  9
$STYLESHEET
  1

  9
$XEDIT
290
     1
  9
$CEPSNTYPE
380
     0
  9
$PSTYLEMODE
290
     1
  9
$FINGERPRINTGUID
  2
{B87B75C3-A76E-454E-9DE7-74D505AB26C9}
  9
$VERSIONGUID
  2
{FAEB1C32-E019-11D5-929B-00C0DF256EC4}
  9
$EXTNAMES
290
     1
  9
$PSVPSCALE
 40
0.0
  9
$OLESTARTUP
290
     0
  0
ENDSEC
  0
SECTION
  2
CLASSES
  0
CLASS
  1
ACDBDICTIONARYWDFLT
  2
AcDbDictionaryWithDefault
  3
ObjectDBX Classes
 90
        0
280
     0
281
     0
  0
CLASS
  1
VISUALSTYLE
  2
AcDbVisualStyle
  3
ObjectDBX Classes
 90
     4095
280
     0
281
     0
  0
CLASS
  1
SCALE
  2
AcDbScale
  3
ObjectDBX Classes
 90
     1153
280
     0
281
     0
  0
CLASS
  1
DICTIONARYVAR
  2
AcDbDictionaryVar
  3
ObjectDBX Classes
 90
        0
280
     0
281
     0
  0
CLASS
  1
ACDBPLACEHOLDER
  2
AcDbPlaceHolder
  3
ObjectDBX Classes
 90
        0
280
     0
281
     0
  0
CLASS
  1
LAYOUT
  2
AcDbLayout
  3
ObjectDBX Classes
 90
        0
280
     0
281
     0
  0
ENDSEC
  0
SECTION
  2
TABLES
  0
TABLE
  2
VPORT
  5
8
330
0
100
AcDbSymbolTable
 70
     1
  0
VPORT
  5
29
330
8
100
AcDbSymbolTableRecord
100
AcDbViewportTableRecord
  2
*Active
 70
     0
 10
0.0
 20
0.0
 11
1.0
 21
1.0
 12
97.868637
 22
63.751556
 13
0.0
 23
0.0
 14
1.0
 24
1.0
 15
0.0
 25
0.0
 16
0.0
 26
0.0
 36
1.0
 17
0.0
 27
0.0
 37
0.0
 40
103.522334
 41
1.691288
 42
50.0
 43
0.0
 44
0.0
 50
0.0
 51
0.0
 71
     0
 72
   100
 73
     1
 74
     3
 75
     0
 76
     0
 77
     0
 78
     0
281
     0
 65
     1
110
0.0
120
0.0
130
0.0
111
1.0
121
0.0
131
0.0
112
0.0
122
1.0
132
0.0
 79
     0
146
0.0
  0
ENDTAB
  0
TABLE
  2
LTYPE
  5
5
330
0
100
AcDbSymbolTable
 70
     5
  0
LTYPE
  5
14
330
5
100
AcDbSymbolTableRecord
100
AcDbLinetypeTableRecord
  2
ByBlock
 70
     0
  3

 72
    65
 73
     0
 40
0.0
  0
LTYPE
  5
15
330
5
100
AcDbSymbolTableRecord
100
AcDbLinetypeTableRecord
  2
ByLayer
 70
     0
  3

 72
    65
 73
     0
 40
0.0
  0
LTYPE
  5
16
330
5
100
AcDbSymbolTableRecord
100
AcDbLinetypeTableRecord
  2
Continuous
 70
     0
  3
Solid line
 72
    65
 73
     0
 40
0.0
  0
LTYPE
  5
5D
330
5
100
AcDbSymbolTableRecord
100
AcDbLinetypeTableRecord
  2
DASHED
 70
     0
  3
DASHED
 72
    83
 73
     2
 40
0.75
 49
0.5
 74
     0
 49
-0.25
 74
     0
  0
LTYPE
  5
5E
330
5
100
AcDbSymbolTableRecord
100
AcDbLinetypeTableRecord
  2
HIDDEN
 70
     0
  3
HIDDEN
 72
    83
 73
     2
 40
0.375
 49
0.25
 74
     0
 49
-0.125
 74
     0
  0
LTYPE
  5
5F
330
5
100
AcDbSymbolTableRecord
100
AcDbLinetypeTableRecord
  2
CENTER
 70
     0
  3
CENTER
 72
    83
 73
     4
 40
2.0
 49
1.25
 74
     0
 49
-0.25
 74
     0
 49
0.25
 74
     0
 49
-0.25
 74
     0
  0
LTYPE
  5
60
330
5
100
AcDbSymbolTableRecord
100
AcDbLinetypeTableRecord
  2
PHANTOM
 70
     0
  3
PHANTOM
 72
    83
 73
     6
 40
2.5
 49
1.25
 74
     0
 49
-0.25
 74
     0
 49
0.25
 74
     0
 49
-0.25
 74
     0
 49
0.25
 74
     0
 49
-0.25
 74
     0
  0
ENDTAB
  0
TABLE
  2
LAYER
  5
2
330
0
100
AcDbSymbolTable
 70
     2
  0
LAYER
  5
10
330
2
100
AcDbSymbolTableRecord
100
AcDbLayerTableRecord
  2
0
 70
     0
 62
     7
  6
Continuous
370
    -3
390
F
  0
LAYER
  5
61
330
2
100
AcDbSymbolTableRecord
100
AcDbLayerTableRecord
  2
001
 70
     0
 62
     7
  6
Continuous
370
    -3
390
F
  0
ENDTAB
  0
TABLE
  2
STYLE
  5
3
330
0
100
AcDbSymbolTable
 70
     2
  0
STYLE
  5
11
330
3
100
AcDbSymbolTableRecord
100
AcDbTextStyleTableRecord
  2
Standard
 70
     0
 40
0.0
 41
1.0
 50
0.0
 71
     0
 42
0.2
  3
TXT
  4
BIGFONT
  0
STYLE
  5
62
330
3
100
AcDbSymbolTableRecord
100
AcDbTextStyleTableRecord
  2
TATEGAKI
 70
     4
 40
1.0
 41
1.0
 50
0.0
 71
     0
 42
0.2
  3
TXT
  4
BIGFONT
  0
ENDTAB
  0
TABLE
  2
VIEW
  5
6
330
0
100
AcDbSymbolTable
 70
     0
  0
ENDTAB
  0
TABLE
  2
UCS
  5
7
330
0
100
AcDbSymbolTable
 70
     0
  0
ENDTAB
  0
TABLE
  2
APPID
  5
9
330
0
100
AcDbSymbolTable
 70
     1
  0
APPID
  5
12
330
9
100
AcDbSymbolTableRecord
100
AcDbRegAppTableRecord
  2
ACAD
 70
     0
  0
ENDTAB
  0
TABLE
  2
DIMSTYLE
  5
A
330
0
100
AcDbSymbolTable
 70
     2
100
AcDbDimStyleTable
  0
DIMSTYLE
105
27
330
A
100
AcDbSymbolTableRecord
100
AcDbDimStyleTableRecord
  2
ISO-25
 70
     0
 41
2.5
 42
0.625
 43
3.75
 44
1.25
 73
     0
 74
     0
 77
     1
 78
     8
140
2.5
141
2.5
143
0.03937
147
0.625
171
     3
172
     1
271
     2
272
     2
274
     3
278
    44
283
     0
284
     8
340
11
  0
DIMSTYLE
105
63
102
{ACAD_REACTORS
330
10B
330
10C
330
10D
330
10E
330
10F
330
110
330
111
330
112
102
}
330
A
100
AcDbSymbolTableRecord
100
AcDbDimStyleTableRecord
  2
Standard
 70
     0
 41
1.5
 42
0.0
 44
2.75
 73
     0
 74
     0
 77
     1
 78
     8
 79
     2
140
4.0
146
0.8
147
1.0
172
     1
179
     1
271
     1
340
11
  0
ENDTAB
  0
TABLE
  2
BLOCK_RECORD
  5
1
330
0
100
AcDbSymbolTable
 70
     9
  0
BLOCK_RECORD
  5
1F
330
1
100
AcDbSymbolTableRecord
100
AcDbBlockTableRecord
  2
*Model_Space
340
22
  0
BLOCK_RECORD
  5
1B
330
1
100
AcDbSymbolTableRecord
100
AcDbBlockTableRecord
  2
*Paper_Space
340
1E
  0
BLOCK_RECORD
  5
23
330
1
100
AcDbSymbolTableRecord
100
AcDbBlockTableRecord
  2
*Paper_Space0
340
26
  0
BLOCK_RECORD
  5
64
330
1
100
AcDbSymbolTableRecord
100
AcDbBlockTableRecord
  2
*D1
340
0
  0
BLOCK_RECORD
  5
78
330
1
100
AcDbSymbolTableRecord
100
AcDbBlockTableRecord
  2
*D2
340
0
  0
BLOCK_RECORD
  5
8C
330
1
100
AcDbSymbolTableRecord
100
AcDbBlockTableRecord
  2
*D3
340
0
  0
BLOCK_RECORD
  5
A0
330
1
100
AcDbSymbolTableRecord
100
AcDbBlockTableRecord
  2
*D4
340
0
  0
BLOCK_RECORD
  5
B4
330
1
100
AcDbSymbolTableRecord
100
AcDbBlockTableRecord
  2
*D5
340
0
  0
BLOCK_RECORD
  5
C8
330
1
100
AcDbSymbolTableRecord
100
AcDbBlockTableRecord
  2
*D6
340
0
  0
BLOCK_RECORD
  5
DE
330
1
100
AcDbSymbolTableRecord
100
AcDbBlockTableRecord
  2
*D7
340
0
  0
BLOCK_RECORD
  5
F4
330
1
100
AcDbSymbolTableRecord
100
AcDbBlockTableRecord
  2
*D8
340
0
  0
ENDTAB
  0
ENDSEC
  0
SECTION
  2
BLOCKS
  0
BLOCK
  5
20
330
1F
100
AcDbEntity
  8
0
100
AcDbBlockBegin
  2
*Model_Space
 70
     0
 10
0.0
 20
0.0
 30
0.0
  3
*Model_Space
  1

  0
ENDBLK
  5
21
330
1F
100
AcDbEntity
  8
0
100
AcDbBlockEnd
  0
BLOCK
  5
1C
330
1B
100
AcDbEntity
 67
     1
  8
0
100
AcDbBlockBegin
  2
*Paper_Space
 70
     0
 10
0.0
 20
0.0
 30
0.0
  3
*Paper_Space
  1

  0
ENDBLK
  5
1D
330
1B
100
AcDbEntity
 67
     1
  8
0
100
AcDbBlockEnd
  0
BLOCK
  5
24
330
23
100
AcDbEntity
  8
0
100
AcDbBlockBegin
  2
*Paper_Space0
 70
     0
 10
0.0
 20
0.0
 30
0.0
  3
*Paper_Space0
  1

  0
ENDBLK
  5
25
330
23
100
AcDbEntity
  8
0
100
AcDbBlockEnd
  0
BLOCK
  5
65
330
64
100
AcDbEntity
  8
0
100
AcDbBlockBegin
  2
*D1
 70
     1
 10
0.0
 20
0.0
 30
0.0
  3
*D1
  1

  0
LINE
  5
67
330
64
100
AcDbEntity
  8
001
370
     9
100
AcDbLine
 10
52.482666
 20
82.274326
 30
0.0
 11
37.888729
 21
82.274326
 31
0.0
  0
LINE
  5
68
330
64
100
AcDbEntity
  8
001
370
     9
100
AcDbLine
 10
52.482666
 20
52.274326
 30
0.0
 11
37.888729
 21
52.274326
 31
0.0
  0
LINE
  5
69
330
64
100
AcDbEntity
  8
001
370
     9
100
AcDbLine
 10
40.638729
 20
82.274326
 30
0.0
 11
40.638729
 21
52.274326
 31
0.0
  0
POLYLINE
  5
6A
330
64
100
AcDbEntity
  8
001
370
     9
100
AcDb2dPolyline
 66
     1
 10
0.0
 20
0.0
 30
0.0
  0
VERTEX
  5
6C
330
6A
100
AcDbEntity
  8
001
370
     9
100
AcDbVertex
100
AcDb2dVertex
 10
40.236806
 20
80.774326
 30
0.0
  0
VERTEX
  5
6D
330
6A
100
AcDbEntity
  8
001
370
     9
100
AcDbVertex
100
AcDb2dVertex
 10
40.638729
 20
82.274326
 30
0.0
  0
VERTEX
  5
6E
330
6A
100
AcDbEntity
  8
001
370
     9
100
AcDbVertex
100
AcDb2dVertex
 10
41.040653
 20
80.774326
 30
0.0
  0
SEQEND
  5
6B
330
6A
100
AcDbEntity
  8
001
370
     9
  0
POLYLINE
  5
6F
330
64
100
AcDbEntity
  8
001
370
     9
100
AcDb2dPolyline
 66
     1
 10
0.0
 20
0.0
 30
0.0
  0
VERTEX
  5
71
330
6F
100
AcDbEntity
  8
001
370
     9
100
AcDbVertex
100
AcDb2dVertex
 10
41.040653
 20
53.774326
 30
0.0
  0
VERTEX
  5
72
330
6F
100
AcDbEntity
  8
001
370
     9
100
AcDbVertex
100
AcDb2dVertex
 10
40.638729
 20
52.274326
 30
0.0
  0
VERTEX
  5
73
330
6F
100
AcDbEntity
  8
001
370
     9
100
AcDbVertex
100
AcDb2dVertex
 10
40.236806
 20
53.774326
 30
0.0
  0
SEQEND
  5
70
330
6F
100
AcDbEntity
  8
001
370
     9
  0
TEXT
  5
74
330
64
100
AcDbEntity
  8
001
370
    30
100
AcDbText
 10
39.638729
 20
61.274326
 30
0.0
 40
4.0
  1
%%c３０
 50
90.000003
 41
0.882353
100
AcDbText
  0
POINT
  5
75
330
64
100
AcDbEntity
  8
001
370
     9
100
AcDbPoint
 10
52.482666
 20
82.274326
 30
0.0
  0
POINT
  5
76
330
64
100
AcDbEntity
  8
001
370
     9
100
AcDbPoint
 10
52.482666
 20
52.274326
 30
0.0
  0
POINT
  5
77
330
64
100
AcDbEntity
  8
001
370
     9
100
AcDbPoint
 10
40.638729
 20
52.274326
 30
0.0
  0
ENDBLK
  5
66
330
64
100
AcDbEntity
  8
0
100
AcDbBlockEnd
  0
BLOCK
  5
79
330
78
100
AcDbEntity
  8
0
100
AcDbBlockBegin
  2
*D2
 70
     1
 10
0.0
 20
0.0
 30
0.0
  3
*D2
  1

  0
LINE
  5
7B
330
78
100
AcDbEntity
  8
001
370
     9
100
AcDbLine
 10
79.259933
 20
59.774326
 30
0.0
 11
79.259933
 21
22.225641
 31
0.0
  0
LINE
  5
7C
330
78
100
AcDbEntity
  8
001
370
     9
100
AcDbLine
 10
54.259933
 20
34.115038
 30
0.0
 11
54.259933
 21
22.225641
 31
0.0
  0
LINE
  5
7D
330
78
100
AcDbEntity
  8
001
370
     9
100
AcDbLine
 10
79.259933
 20
24.975641
 30
0.0
 11
54.259933
 21
24.975641
 31
0.0
  0
POLYLINE
  5
7E
330
78
100
AcDbEntity
  8
001
370
     9
100
AcDb2dPolyline
 66
     1
 10
0.0
 20
0.0
 30
0.0
  0
VERTEX
  5
80
330
7E
100
AcDbEntity
  8
001
370
     9
100
AcDbVertex
100
AcDb2dVertex
 10
77.759933
 20
25.377565
 30
0.0
  0
VERTEX
  5
81
330
7E
100
AcDbEntity
  8
001
370
     9
100
AcDbVertex
100
AcDb2dVertex
 10
79.259933
 20
24.975641
 30
0.0
  0
VERTEX
  5
82
330
7E
100
AcDbEntity
  8
001
370
     9
100
AcDbVertex
100
AcDb2dVertex
 10
77.759933
 20
24.573717
 30
0.0
  0
SEQEND
  5
7F
330
7E
100
AcDbEntity
  8
001
370
     9
  0
POLYLINE
  5
83
330
78
100
AcDbEntity
  8
001
370
     9
100
AcDb2dPolyline
 66
     1
 10
0.0
 20
0.0
 30
0.0
  0
VERTEX
  5
85
330
83
100
AcDbEntity
  8
001
370
     9
100
AcDbVertex
100
AcDb2dVertex
 10
55.759933
 20
24.573717
 30
0.0
  0
VERTEX
  5
86
330
83
100
AcDbEntity
  8
001
370
     9
100
AcDbVertex
100
AcDb2dVertex
 10
54.259933
 20
24.975641
 30
0.0
  0
VERTEX
  5
87
330
83
100
AcDbEntity
  8
001
370
     9
100
AcDbVertex
100
AcDb2dVertex
 10
55.759933
 20
25.377565
 30
0.0
  0
SEQEND
  5
84
330
83
100
AcDbEntity
  8
001
370
     9
  0
TEXT
  5
88
330
78
100
AcDbEntity
  8
001
370
    30
100
AcDbText
 10
62.759933
 20
25.975641
 30
0.0
 40
4.0
  1
２５
 41
0.833333
100
AcDbText
  0
POINT
  5
89
330
78
100
AcDbEntity
  8
001
370
     9
100
AcDbPoint
 10
79.259933
 20
59.774326
 30
0.0
  0
POINT
  5
8A
330
78
100
AcDbEntity
  8
001
370
     9
100
AcDbPoint
 10
54.259933
 20
34.115038
 30
0.0
  0
POINT
  5
8B
330
78
100
AcDbEntity
  8
001
370
     9
100
AcDbPoint
 10
54.259933
 20
24.975641
 30
0.0
  0
ENDBLK
  5
7A
330
78
100
AcDbEntity
  8
0
100
AcDbBlockEnd
  0
BLOCK
  5
8D
330
8C
100
AcDbEntity
  8
0
100
AcDbBlockBegin
  2
*D3
 70
     1
 10
0.0
 20
0.0
 30
0.0
  3
*D3
  1

  0
LINE
  5
8F
330
8C
100
AcDbEntity
  8
001
370
     9
100
AcDbLine
 10
139.259933
 20
63.274326
 30
0.0
 11
139.259933
 21
22.225641
 31
0.0
  0
LINE
  5
90
330
8C
100
AcDbEntity
  8
001
370
     9
100
AcDbLine
 10
79.259933
 20
59.774326
 30
0.0
 11
79.259933
 21
22.225641
 31
0.0
  0
LINE
  5
91
330
8C
100
AcDbEntity
  8
001
370
     9
100
AcDbLine
 10
139.259933
 20
24.975641
 30
0.0
 11
79.259933
 21
24.975641
 31
0.0
  0
POLYLINE
  5
92
330
8C
100
AcDbEntity
  8
001
370
     9
100
AcDb2dPolyline
 66
     1
 10
0.0
 20
0.0
 30
0.0
  0
VERTEX
  5
94
330
92
100
AcDbEntity
  8
001
370
     9
100
AcDbVertex
100
AcDb2dVertex
 10
137.759933
 20
25.377565
 30
0.0
  0
VERTEX
  5
95
330
92
100
AcDbEntity
  8
001
370
     9
100
AcDbVertex
100
AcDb2dVertex
 10
139.259933
 20
24.975641
 30
0.0
  0
VERTEX
  5
96
330
92
100
AcDbEntity
  8
001
370
     9
100
AcDbVertex
100
AcDb2dVertex
 10
137.759933
 20
24.573717
 30
0.0
  0
SEQEND
  5
93
330
92
100
AcDbEntity
  8
001
370
     9
  0
POLYLINE
  5
97
330
8C
100
AcDbEntity
  8
001
370
     9
100
AcDb2dPolyline
 66
     1
 10
0.0
 20
0.0
 30
0.0
  0
VERTEX
  5
99
330
97
100
AcDbEntity
  8
001
370
     9
100
AcDbVertex
100
AcDb2dVertex
 10
80.759933
 20
24.573717
 30
0.0
  0
VERTEX
  5
9A
330
97
100
AcDbEntity
  8
001
370
     9
100
AcDbVertex
100
AcDb2dVertex
 10
79.259933
 20
24.975641
 30
0.0
  0
VERTEX
  5
9B
330
97
100
AcDbEntity
  8
001
370
     9
100
AcDbVertex
100
AcDb2dVertex
 10
80.759933
 20
25.377565
 30
0.0
  0
SEQEND
  5
98
330
97
100
AcDbEntity
  8
001
370
     9
  0
TEXT
  5
9C
330
8C
100
AcDbEntity
  8
001
370
    30
100
AcDbText
 10
105.259933
 20
25.975641
 30
0.0
 40
4.0
  1
６０
 41
0.833333
100
AcDbText
  0
POINT
  5
9D
330
8C
100
AcDbEntity
  8
001
370
     9
100
AcDbPoint
 10
139.259933
 20
63.274326
 30
0.0
  0
POINT
  5
9E
330
8C
100
AcDbEntity
  8
001
370
     9
100
AcDbPoint
 10
79.259933
 20
59.774326
 30
0.0
  0
POINT
  5
9F
330
8C
100
AcDbEntity
  8
001
370
     9
100
AcDbPoint
 10
79.259933
 20
24.975641
 30
0.0
  0
ENDBLK
  5
8E
330
8C
100
AcDbEntity
  8
0
100
AcDbBlockEnd
  0
BLOCK
  5
A1
330
A0
100
AcDbEntity
  8
0
100
AcDbBlockBegin
  2
*D4
 70
     1
 10
0.0
 20
0.0
 30
0.0
  3
*D4
  1

  0
LINE
  5
A3
330
A0
100
AcDbEntity
  8
001
370
     9
100
AcDbLine
 10
54.259933
 20
34.115038
 30
0.0
 11
54.259933
 21
12.502878
 31
0.0
  0
LINE
  5
A4
330
A0
100
AcDbEntity
  8
001
370
     9
100
AcDbLine
 10
139.259933
 20
63.274326
 30
0.0
 11
139.259933
 21
12.502878
 31
0.0
  0
LINE
  5
A5
330
A0
100
AcDbEntity
  8
001
370
     9
100
AcDbLine
 10
54.259933
 20
15.252878
 30
0.0
 11
139.259933
 21
15.252878
 31
0.0
  0
POLYLINE
  5
A6
330
A0
100
AcDbEntity
  8
001
370
     9
100
AcDb2dPolyline
 66
     1
 10
0.0
 20
0.0
 30
0.0
  0
VERTEX
  5
A8
330
A6
100
AcDbEntity
  8
001
370
     9
100
AcDbVertex
100
AcDb2dVertex
 10
55.759933
 20
14.850954
 30
0.0
  0
VERTEX
  5
A9
330
A6
100
AcDbEntity
  8
001
370
     9
100
AcDbVertex
100
AcDb2dVertex
 10
54.259933
 20
15.252878
 30
0.0
  0
VERTEX
  5
AA
330
A6
100
AcDbEntity
  8
001
370
     9
100
AcDbVertex
100
AcDb2dVertex
 10
55.759933
 20
15.654802
 30
0.0
  0
SEQEND
  5
A7
330
A6
100
AcDbEntity
  8
001
370
     9
  0
POLYLINE
  5
AB
330
A0
100
AcDbEntity
  8
001
370
     9
100
AcDb2dPolyline
 66
     1
 10
0.0
 20
0.0
 30
0.0
  0
VERTEX
  5
AD
330
AB
100
AcDbEntity
  8
001
370
     9
100
AcDbVertex
100
AcDb2dVertex
 10
137.759933
 20
15.654802
 30
0.0
  0
VERTEX
  5
AE
330
AB
100
AcDbEntity
  8
001
370
     9
100
AcDbVertex
100
AcDb2dVertex
 10
139.259933
 20
15.252878
 30
0.0
  0
VERTEX
  5
AF
330
AB
100
AcDbEntity
  8
001
370
     9
100
AcDbVertex
100
AcDb2dVertex
 10
137.759933
 20
14.850954
 30
0.0
  0
SEQEND
  5
AC
330
AB
100
AcDbEntity
  8
001
370
     9
  0
TEXT
  5
B0
330
A0
100
AcDbEntity
  8
001
370
    30
100
AcDbText
 10
92.759933
 20
16.252878
 30
0.0
 40
4.0
  1
８５
 41
0.833333
100
AcDbText
  0
POINT
  5
B1
330
A0
100
AcDbEntity
  8
001
370
     9
100
AcDbPoint
 10
54.259933
 20
34.115038
 30
0.0
  0
POINT
  5
B2
330
A0
100
AcDbEntity
  8
001
370
     9
100
AcDbPoint
 10
139.259933
 20
63.274326
 30
0.0
  0
POINT
  5
B3
330
A0
100
AcDbEntity
  8
001
370
     9
100
AcDbPoint
 10
139.259933
 20
15.252878
 30
0.0
  0
ENDBLK
  5
A2
330
A0
100
AcDbEntity
  8
0
100
AcDbBlockEnd
  0
BLOCK
  5
B5
330
B4
100
AcDbEntity
  8
0
100
AcDbBlockBegin
  2
*D5
 70
     1
 10
0.0
 20
0.0
 30
0.0
  3
*D5
  1

  0
LINE
  5
B7
330
B4
100
AcDbEntity
  8
001
370
     9
100
AcDbLine
 10
60.653032
 20
88.889326
 30
0.0
 11
28.251216
 21
88.889326
 31
0.0
  0
LINE
  5
B8
330
B4
100
AcDbEntity
  8
001
370
     9
100
AcDbLine
 10
60.653032
 20
45.659326
 30
0.0
 11
28.251216
 21
45.659326
 31
0.0
  0
LINE
  5
B9
330
B4
100
AcDbEntity
  8
001
370
     9
100
AcDbLine
 10
31.001216
 20
88.889326
 30
0.0
 11
31.001216
 21
45.659326
 31
0.0
  0
POLYLINE
  5
BA
330
B4
100
AcDbEntity
  8
001
370
     9
100
AcDb2dPolyline
 66
     1
 10
0.0
 20
0.0
 30
0.0
  0
VERTEX
  5
BC
330
BA
100
AcDbEntity
  8
001
370
     9
100
AcDbVertex
100
AcDb2dVertex
 10
30.599292
 20
87.389326
 30
0.0
  0
VERTEX
  5
BD
330
BA
100
AcDbEntity
  8
001
370
     9
100
AcDbVertex
100
AcDb2dVertex
 10
31.001216
 20
88.889326
 30
0.0
  0
VERTEX
  5
BE
330
BA
100
AcDbEntity
  8
001
370
     9
100
AcDbVertex
100
AcDb2dVertex
 10
31.40314
 20
87.389326
 30
0.0
  0
SEQEND
  5
BB
330
BA
100
AcDbEntity
  8
001
370
     9
  0
POLYLINE
  5
BF
330
B4
100
AcDbEntity
  8
001
370
     9
100
AcDb2dPolyline
 66
     1
 10
0.0
 20
0.0
 30
0.0
  0
VERTEX
  5
C1
330
BF
100
AcDbEntity
  8
001
370
     9
100
AcDbVertex
100
AcDb2dVertex
 10
31.40314
 20
47.159326
 30
0.0
  0
VERTEX
  5
C2
330
BF
100
AcDbEntity
  8
001
370
     9
100
AcDbVertex
100
AcDb2dVertex
 10
31.001216
 20
45.659326
 30
0.0
  0
VERTEX
  5
C3
330
BF
100
AcDbEntity
  8
001
370
     9
100
AcDbVertex
100
AcDb2dVertex
 10
30.599292
 20
47.159326
 30
0.0
  0
SEQEND
  5
C0
330
BF
100
AcDbEntity
  8
001
370
     9
  0
TEXT
  5
C4
330
B4
100
AcDbEntity
  8
001
370
    30
100
AcDbText
 10
30.001216
 20
53.274326
 30
0.0
 40
4.0
  1
（%%c４３．２）
 50
90.000003
 41
0.853659
100
AcDbText
  0
POINT
  5
C5
330
B4
100
AcDbEntity
  8
001
370
     9
100
AcDbPoint
 10
60.653032
 20
88.889326
 30
0.0
  0
POINT
  5
C6
330
B4
100
AcDbEntity
  8
001
370
     9
100
AcDbPoint
 10
60.653032
 20
45.659326
 30
0.0
  0
POINT
  5
C7
330
B4
100
AcDbEntity
  8
001
370
     9
100
AcDbPoint
 10
31.001216
 20
45.659326
 30
0.0
  0
ENDBLK
  5
B6
330
B4
100
AcDbEntity
  8
0
100
AcDbBlockEnd
  0
BLOCK
  5
C9
330
C8
100
AcDbEntity
  8
0
100
AcDbBlockBegin
  2
*D6
 70
     1
 10
0.0
 20
0.0
 30
0.0
  3
*D6
  1

  0
LINE
  5
CB
330
C8
100
AcDbEntity
  8
001
370
     9
100
AcDbLine
 10
137.259933
 20
73.274326
 30
0.0
 11
164.484418
 21
73.274326
 31
0.0
  0
LINE
  5
CC
330
C8
100
AcDbEntity
  8
001
370
     9
100
AcDbLine
 10
137.259933
 20
61.274326
 30
0.0
 11
164.484418
 21
61.274326
 31
0.0
  0
LINE
  5
CD
330
C8
100
AcDbEntity
  8
001
370
     9
100
AcDbLine
 10
161.734418
 20
73.274326
 30
0.0
 11
161.734418
 21
61.274326
 31
0.0
  0
POLYLINE
  5
CE
330
C8
100
AcDbEntity
  8
001
370
     9
100
AcDb2dPolyline
 66
     1
 10
0.0
 20
0.0
 30
0.0
  0
VERTEX
  5
D0
330
CE
100
AcDbEntity
  8
001
370
     9
100
AcDbVertex
100
AcDb2dVertex
 10
162.136342
 20
74.774326
 30
0.0
  0
VERTEX
  5
D1
330
CE
100
AcDbEntity
  8
001
370
     9
100
AcDbVertex
100
AcDb2dVertex
 10
161.734418
 20
73.274326
 30
0.0
  0
VERTEX
  5
D2
330
CE
100
AcDbEntity
  8
001
370
     9
100
AcDbVertex
100
AcDb2dVertex
 10
161.332494
 20
74.774326
 30
0.0
  0
SEQEND
  5
CF
330
CE
100
AcDbEntity
  8
001
370
     9
  0
POLYLINE
  5
D3
330
C8
100
AcDbEntity
  8
001
370
     9
100
AcDb2dPolyline
 66
     1
 10
0.0
 20
0.0
 30
0.0
  0
VERTEX
  5
D5
330
D3
100
AcDbEntity
  8
001
370
     9
100
AcDbVertex
100
AcDb2dVertex
 10
161.332494
 20
59.774326
 30
0.0
  0
VERTEX
  5
D6
330
D3
100
AcDbEntity
  8
001
370
     9
100
AcDbVertex
100
AcDb2dVertex
 10
161.734418
 20
61.274326
 30
0.0
  0
VERTEX
  5
D7
330
D3
100
AcDbEntity
  8
001
370
     9
100
AcDbVertex
100
AcDb2dVertex
 10
162.136342
 20
59.774326
 30
0.0
  0
SEQEND
  5
D4
330
D3
100
AcDbEntity
  8
001
370
     9
  0
TEXT
  5
D8
330
C8
100
AcDbEntity
  8
001
370
    30
100
AcDbText
 10
160.734418
 20
45.774326
 30
0.0
 40
4.0
  1
%%c１２
 50
90.000003
 41
0.882353
100
AcDbText
  0
POINT
  5
D9
330
C8
100
AcDbEntity
  8
001
370
     9
100
AcDbPoint
 10
137.259933
 20
73.274326
 30
0.0
  0
POINT
  5
DA
330
C8
100
AcDbEntity
  8
001
370
     9
100
AcDbPoint
 10
137.259933
 20
61.274326
 30
0.0
  0
POINT
  5
DB
330
C8
100
AcDbEntity
  8
001
370
     9
100
AcDbPoint
 10
161.734418
 20
61.274326
 30
0.0
  0
LINE
  5
DC
330
C8
100
AcDbEntity
  8
001
370
     9
100
AcDbLine
 10
161.734418
 20
73.274326
 30
0.0
 11
161.734418
 21
75.774326
 31
0.0
  0
LINE
  5
DD
330
C8
100
AcDbEntity
  8
001
370
     9
100
AcDbLine
 10
161.734418
 20
61.274326
 30
0.0
 11
161.734418
 21
42.774326
 31
0.0
  0
ENDBLK
  5
CA
330
C8
100
AcDbEntity
  8
0
100
AcDbBlockEnd
  0
BLOCK
  5
DF
330
DE
100
AcDbEntity
  8
0
100
AcDbBlockBegin
  2
*D7
 70
     1
 10
0.0
 20
0.0
 30
0.0
  3
*D7
  1

  0
LINE
  5
E1
330
DE
100
AcDbEntity
  8
001
370
     9
100
AcDbLine
 10
60.259933
 20
45.659326
 30
0.0
 11
60.259933
 21
34.853196
 31
0.0
  0
LINE
  5
E2
330
DE
100
AcDbEntity
  8
001
370
     9
100
AcDbLine
 10
54.259933
 20
51.674326
 30
0.0
 11
54.259933
 21
34.853196
 31
0.0
  0
LINE
  5
E3
330
DE
100
AcDbEntity
  8
001
370
     9
100
AcDbLine
 10
60.259933
 20
37.603196
 30
0.0
 11
54.259933
 21
37.603196
 31
0.0
  0
POLYLINE
  5
E4
330
DE
100
AcDbEntity
  8
001
370
     9
100
AcDb2dPolyline
 66
     1
 10
0.0
 20
0.0
 30
0.0
  0
VERTEX
  5
E6
330
E4
100
AcDbEntity
  8
001
370
     9
100
AcDbVertex
100
AcDb2dVertex
 10
61.759933
 20
37.201272
 30
0.0
  0
VERTEX
  5
E7
330
E4
100
AcDbEntity
  8
001
370
     9
100
AcDbVertex
100
AcDb2dVertex
 10
60.259933
 20
37.603196
 30
0.0
  0
VERTEX
  5
E8
330
E4
100
AcDbEntity
  8
001
370
     9
100
AcDbVertex
100
AcDb2dVertex
 10
61.759933
 20
38.005119
 30
0.0
  0
SEQEND
  5
E5
330
E4
100
AcDbEntity
  8
001
370
     9
  0
POLYLINE
  5
E9
330
DE
100
AcDbEntity
  8
001
370
     9
100
AcDb2dPolyline
 66
     1
 10
0.0
 20
0.0
 30
0.0
  0
VERTEX
  5
EB
330
E9
100
AcDbEntity
  8
001
370
     9
100
AcDbVertex
100
AcDb2dVertex
 10
52.759933
 20
38.005119
 30
0.0
  0
VERTEX
  5
EC
330
E9
100
AcDbEntity
  8
001
370
     9
100
AcDbVertex
100
AcDb2dVertex
 10
54.259933
 20
37.603196
 30
0.0
  0
VERTEX
  5
ED
330
E9
100
AcDbEntity
  8
001
370
     9
100
AcDbVertex
100
AcDb2dVertex
 10
52.759933
 20
37.201272
 30
0.0
  0
SEQEND
  5
EA
330
E9
100
AcDbEntity
  8
001
370
     9
  0
TEXT
  5
EE
330
DE
100
AcDbEntity
  8
001
370
    30
100
AcDbText
 10
41.021631
 20
38.603196
 30
0.0
 40
4.0
  1
（６）
 41
0.833333
100
AcDbText
  0
POINT
  5
EF
330
DE
100
AcDbEntity
  8
001
370
     9
100
AcDbPoint
 10
60.259933
 20
45.659326
 30
0.0
  0
POINT
  5
F0
330
DE
100
AcDbEntity
  8
001
370
     9
100
AcDbPoint
 10
54.259933
 20
51.674326
 30
0.0
  0
POINT
  5
F1
330
DE
100
AcDbEntity
  8
001
370
     9
100
AcDbPoint
 10
54.259933
 20
37.603196
 30
0.0
  0
LINE
  5
F2
330
DE
100
AcDbEntity
  8
001
370
     9
100
AcDbLine
 10
60.259933
 20
37.603196
 30
0.0
 11
62.759933
 21
37.603196
 31
0.0
  0
LINE
  5
F3
330
DE
100
AcDbEntity
  8
001
370
     9
100
AcDbLine
 10
54.259933
 20
37.603196
 30
0.0
 11
38.021631
 21
37.603196
 31
0.0
  0
ENDBLK
  5
E0
330
DE
100
AcDbEntity
  8
0
100
AcDbBlockEnd
  0
BLOCK
  5
F5
330
F4
100
AcDbEntity
  8
0
100
AcDbBlockBegin
  2
*D8
 70
     1
 10
0.0
 20
0.0
 30
0.0
  3
*D8
  1

  0
LINE
  5
F7
330
F4
100
AcDbEntity
  8
001
370
     9
100
AcDbLine
 10
59.972062
 20
45.927015
 30
0.0
 11
73.069585
 21
33.747733
 31
0.0
  0
LINE
  5
F8
330
F4
100
AcDbEntity
  8
001
370
     9
100
AcDbLine
 10
54.259933
 20
34.115038
 30
0.0
 11
54.259933
 21
25.553348
 31
0.0
  0
ARC
  5
F9
330
F4
100
AcDbEntity
  8
001
370
     9
100
AcDbCircle
 10
54.259933
 20
51.238678
 30
0.0
 40
22.935330107993
100
AcDbArc
 50
270.0
 51
317.080492
  0
POLYLINE
  5
FA
330
F4
100
AcDbEntity
  8
001
370
     9
100
AcDb2dPolyline
 66
     1
 10
0.0
 20
0.0
 30
0.0
  0
VERTEX
  5
FC
330
FA
100
AcDbEntity
  8
001
370
     9
100
AcDbVertex
100
AcDb2dVertex
 10
72.343849
 20
36.487748
 30
0.0
  0
VERTEX
  5
FD
330
FA
100
AcDbEntity
  8
001
370
     9
100
AcDbVertex
100
AcDb2dVertex
 10
71.05573
 20
35.620401
 30
0.0
  0
VERTEX
  5
FE
330
FA
100
AcDbEntity
  8
001
370
     9
100
AcDbVertex
100
AcDb2dVertex
 10
71.7376
 20
37.015605
 30
0.0
  0
SEQEND
  5
FB
330
FA
100
AcDbEntity
  8
001
370
     9
  0
POLYLINE
  5
FF
330
F4
100
AcDbEntity
  8
001
370
     9
100
AcDb2dPolyline
 66
     1
 10
0.0
 20
0.0
 30
0.0
  0
VERTEX
  5
101
330
FF
100
AcDbEntity
  8
001
370
     9
100
AcDbVertex
100
AcDb2dVertex
 10
52.773876
 20
28.754099
 30
0.0
  0
VERTEX
  5
102
330
FF
100
AcDbEntity
  8
001
370
     9
100
AcDbVertex
100
AcDb2dVertex
 10
54.259933
 20
28.303348
 30
0.0
  0
VERTEX
  5
103
330
FF
100
AcDbEntity
  8
001
370
     9
100
AcDbVertex
100
AcDb2dVertex
 10
52.747594
 20
27.950682
 30
0.0
  0
SEQEND
  5
100
330
FF
100
AcDbEntity
  8
001
370
     9
  0
TEXT
  5
104
330
F4
100
AcDbEntity
  8
001
370
    30
100
AcDbText
 10
53.852956
 20
27.13488
 30
0.0
 40
4.0
  1
（４５%%d）
 50
23.540247
 41
0.914634
100
AcDbText
  0
POINT
  5
105
330
F4
100
AcDbEntity
  8
001
370
     9
100
AcDbPoint
 10
59.972062
 20
45.927015
 30
0.0
  0
POINT
  5
106
330
F4
100
AcDbEntity
  8
001
370
     9
100
AcDbPoint
 10
54.259933
 20
51.238678
 30
0.0
  0
POINT
  5
107
330
F4
100
AcDbEntity
  8
001
370
     9
100
AcDbPoint
 10
54.259933
 20
51.238678
 30
0.0
  0
POINT
  5
108
330
F4
100
AcDbEntity
  8
001
370
     9
100
AcDbPoint
 10
54.259933
 20
34.115038
 30
0.0
  0
ARC
  5
109
330
F4
100
AcDbEntity
  8
001
370
     9
100
AcDbCircle
 10
54.259933
 20
51.238678
 30
0.0
 40
22.935330107993
100
AcDbArc
 50
263.754638
 51
270.0
  0
ARC
  5
10A
330
F4
100
AcDbEntity
  8
001
370
     9
100
AcDbCircle
 10
54.259933
 20
51.238678
 30
0.0
 40
22.935330107993
100
AcDbArc
 50
317.080492
 51
323.325855
  0
ENDBLK
  5
F6
330
F4
100
AcDbEntity
  8
0
100
AcDbBlockEnd
  0
ENDSEC
  0
SECTION
  2
ENTITIES
  0
DIMENSION
  5
10B
330
1F
100
AcDbEntity
  8
001
370
     9
100
AcDbDimension
  2
*D1
 10
40.638729
 20
52.274326
 30
0.0
 11
37.638729
 21
67.274326
 31
0.0
 70
   160
 71
     5
 42
-1.0
  3
Standard
100
AcDbAlignedDimension
 13
52.482666
 23
82.274326
 33
0.0
 14
52.482666
 24
52.274326
 34
0.0
 50
270.0
100
AcDbRotatedDimension
  0
DIMENSION
  5
10C
330
1F
100
AcDbEntity
  8
001
370
     9
100
AcDbDimension
  2
*D2
 10
54.259933
 20
24.975641
 30
0.0
 11
66.759933
 21
27.975641
 31
0.0
 70
   160
 71
     5
 42
-1.0
  3
Standard
100
AcDbAlignedDimension
 13
79.259933
 23
59.774326
 33
0.0
 14
54.259933
 24
34.115038
 34
0.0
 50
180.0
100
AcDbRotatedDimension
  0
DIMENSION
  5
10D
330
1F
100
AcDbEntity
  8
001
370
     9
100
AcDbDimension
  2
*D3
 10
79.259933
 20
24.975641
 30
0.0
 11
109.259933
 21
27.975641
 31
0.0
 70
   160
 71
     5
 42
-1.0
  3
Standard
100
AcDbAlignedDimension
 13
139.259933
 23
63.274326
 33
0.0
 14
79.259933
 24
59.774326
 34
0.0
 50
180.0
100
AcDbRotatedDimension
  0
DIMENSION
  5
10E
330
1F
100
AcDbEntity
  8
001
370
     9
100
AcDbDimension
  2
*D4
 10
139.259933
 20
15.252878
 30
0.0
 11
96.759933
 21
18.252878
 31
0.0
 70
   160
 71
     5
 42
-1.0
  3
Standard
100
AcDbAlignedDimension
 13
54.259933
 23
34.115038
 33
0.0
 14
139.259933
 24
63.274326
 34
0.0
100
AcDbRotatedDimension
  0
DIMENSION
  5
10F
330
1F
100
AcDbEntity
  8
001
370
     9
100
AcDbDimension
  2
*D5
 10
31.001216
 20
45.659326
 30
0.0
 11
28.001215
 21
67.274326
 31
0.0
 70
   160
 71
     5
 42
-1.0
  3
Standard
100
AcDbAlignedDimension
 13
60.653032
 23
88.889326
 33
0.0
 14
60.653032
 24
45.659326
 34
0.0
 50
270.0
100
AcDbRotatedDimension
  0
DIMENSION
  5
110
330
1F
100
AcDbEntity
  8
001
370
     9
100
AcDbDimension
  2
*D6
 10
161.734418
 20
61.274326
 30
0.0
 11
158.734418
 21
51.774326
 31
0.0
 70
   160
 71
     5
 42
-1.0
  3
Standard
100
AcDbAlignedDimension
 13
137.259933
 23
73.274326
 33
0.0
 14
137.259933
 24
61.274326
 34
0.0
 50
270.0
100
AcDbRotatedDimension
  0
DIMENSION
  5
111
330
1F
100
AcDbEntity
  8
001
370
     9
100
AcDbDimension
  2
*D7
 10
54.259933
 20
37.603196
 30
0.0
 11
47.021631
 21
40.603196
 31
0.0
 70
   160
 71
     5
 42
-1.0
  3
Standard
100
AcDbAlignedDimension
 13
60.259933
 23
45.659326
 33
0.0
 14
54.259933
 24
51.674326
 34
0.0
 50
180.0
100
AcDbRotatedDimension
  0
DIMENSION
  5
112
330
1F
100
AcDbEntity
  8
001
370
     9
100
AcDbDimension
  2
*D8
 10
54.259933
 20
51.238678
 30
0.0
 11
62.221967
 21
32.962371
 31
0.0
 70
    34
 71
     5
 42
-1.0
  3
Standard
100
AcDb2LineAngularDimension
 13
59.972062
 23
45.927015
 33
0.0
 14
54.259933
 24
51.238678
 34
0.0
 15
54.259933
 25
34.115038
 35
0.0
 16
63.420147
 26
30.212032
 36
0.0
  0
TEXT
  5
113
330
1F
100
AcDbEntity
  8
001
370
    30
100
AcDbText
 10
22.868634
 20
105.000238
 30
0.0
 40
10.0
  1
エアロミル　ＡＲＰ１２－３０Ｓ
 41
0.833333
100
AcDbText
  0
LINE
  5
114
330
1F
100
AcDbEntity
  8
001
370
    50
100
AcDbLine
 10
139.259933
 20
63.274326
 30
0.0
 11
139.259933
 21
71.274326
 31
0.0
  0
LINE
  5
115
330
1F
100
AcDbEntity
  8
001
370
    50
100
AcDbLine
 10
54.683062
 20
75.525995
 30
0.0
 11
54.683062
 21
74.127352
 31
0.0
  0
LINE
  5
116
330
1F
100
AcDbEntity
  8
001
370
    50
100
AcDbLine
 10
54.683062
 20
75.525995
 30
0.0
 11
58.398798
 21
76.331869
 31
0.0
  0
LINE
  5
117
330
1F
100
AcDbEntity
  8
001
370
    50
100
AcDbLine
 10
61.027387
 20
75.503318
 30
0.0
 11
58.398798
 21
76.331869
 31
0.0
  0
LINE
  5
118
330
1F
100
AcDbEntity
  8
001
370
    50
100
AcDbLine
 10
61.027387
 20
75.503318
 30
0.0
 11
64.743122
 21
72.354989
 31
0.0
  0
LINE
  5
119
330
1F
100
AcDbEntity
  8
001
370
    50
100
AcDbLine
 10
62.17103
 20
80.223772
 30
0.0
 11
61.027387
 21
75.503318
 31
0.0
  0
LINE
  5
11A
330
1F
100
AcDbEntity
  8
001
370
    50
100
AcDbLine
 10
62.17103
 20
80.223772
 30
0.0
 11
68.176029
 21
75.135758
 31
0.0
  0
LINE
  5
11B
330
1F
100
AcDbEntity
  8
001
370
    50
100
AcDbLine
 10
64.743122
 20
72.354989
 30
0.0
 11
68.176029
 21
75.135758
 31
0.0
  0
LINE
  5
11C
330
1F
100
AcDbEntity
  8
001
370
    50
100
AcDbLine
 10
60.264932
 20
80.824588
 30
0.0
 11
58.398798
 21
76.331869
 31
0.0
  0
LINE
  5
11D
330
1F
100
AcDbEntity
  8
001
370
    50
100
AcDbLine
 10
60.264932
 20
80.824588
 30
0.0
 11
62.17103
 21
80.223772
 31
0.0
  0
LINE
  5
11E
330
1F
100
AcDbEntity
  8
001
370
    50
100
AcDbLine
 10
54.683062
 20
75.525995
 30
0.0
 11
54.259933
 21
79.522216
 31
0.0
  0
LINE
  5
11F
330
1F
100
AcDbEntity
  8
001
370
    50
100
AcDbLine
 10
54.259933
 20
79.522216
 30
0.0
 11
60.264932
 21
80.824588
 31
0.0
  0
LINE
  5
120
330
1F
100
AcDbEntity
  8
001
370
    50
100
AcDbLine
 10
68.176029
 20
75.135758
 30
0.0
 11
68.176029
 21
74.121545
 31
0.0
  0
LINE
  5
121
330
1F
100
AcDbEntity
  8
001
370
    50
100
AcDbLine
 10
54.683062
 20
74.127352
 30
0.0
 11
54.259933
 21
78.508002
 31
0.0
  0
LINE
  5
122
330
1F
100
AcDbEntity
  8
001
370
    50
100
AcDbLine
 10
54.259933
 20
78.508002
 30
0.0
 11
54.259933
 21
79.522216
 31
0.0
  0
LINE
  5
123
330
1F
100
AcDbEntity
  8
001
370
    50
100
AcDbLine
 10
54.683062
 20
74.127352
 30
0.0
 11
54.683062
 21
72.977943
 31
0.0
  0
LINE
  5
124
330
1F
100
AcDbEntity
  8
001
370
    50
100
AcDbLine
 10
54.683062
 20
72.977943
 30
0.0
 11
54.259933
 21
68.981723
 31
0.0
  0
LINE
  5
125
330
1F
100
AcDbEntity
  8
001
370
    50
100
AcDbLine
 10
54.259933
 20
68.981723
 30
0.0
 11
54.259933
 21
69.995936
 31
0.0
  0
POLYLINE
  5
126
330
1F
100
AcDbEntity
  8
001
370
    50
100
AcDb2dPolyline
 66
     1
 10
0.0
 20
0.0
 30
0.0
  0
VERTEX
  5
128
330
126
100
AcDbEntity
  8
001
370
    50
100
AcDbVertex
100
AcDb2dVertex
 10
67.833652
 20
65.217642
 30
0.0
  0
VERTEX
  5
129
330
126
100
AcDbEntity
  8
001
370
    50
100
AcDbVertex
100
AcDb2dVertex
 10
68.012347
 20
65.155788
 30
0.0
  0
VERTEX
  5
12A
330
126
100
AcDbEntity
  8
001
370
    50
100
AcDbVertex
100
AcDb2dVertex
 10
68.191257
 20
65.094571
 30
0.0
  0
VERTEX
  5
12B
330
126
100
AcDbEntity
  8
001
370
    50
100
AcDbVertex
100
AcDb2dVertex
 10
68.381295
 20
65.030842
 30
0.0
  0
VERTEX
  5
12C
330
126
100
AcDbEntity
  8
001
370
    50
100
AcDbVertex
100
AcDb2dVertex
 10
68.571575
 20
64.96783
 30
0.0
  0
SEQEND
  5
127
330
126
100
AcDbEntity
  8
001
370
    50
  0
POLYLINE
  5
12D
330
1F
100
AcDbEntity
  8
001
370
    50
100
AcDb2dPolyline
 66
     1
 10
0.0
 20
0.0
 30
0.0
  0
VERTEX
  5
12F
330
12D
100
AcDbEntity
  8
001
370
    50
100
AcDbVertex
100
AcDb2dVertex
 10
54.859933
 20
68.725276
 30
0.0
  0
VERTEX
  5
130
330
12D
100
AcDbEntity
  8
001
370
    50
100
AcDbVertex
100
AcDb2dVertex
 10
54.874126
 20
68.733176
 30
0.0
  0
VERTEX
  5
131
330
12D
100
AcDbEntity
  8
001
370
    50
100
AcDbVertex
100
AcDb2dVertex
 10
54.888616
 20
68.739819
 30
0.0
  0
VERTEX
  5
132
330
12D
100
AcDbEntity
  8
001
370
    50
100
AcDbVertex
100
AcDb2dVertex
 10
54.950615
 20
68.746023
 30
0.0
  0
VERTEX
  5
133
330
12D
100
AcDbEntity
  8
001
370
    50
100
AcDbVertex
100
AcDb2dVertex
 10
55.015859
 20
68.735298
 30
0.0
  0
VERTEX
  5
134
330
12D
100
AcDbEntity
  8
001
370
    50
100
AcDbVertex
100
AcDb2dVertex
 10
55.074001
 20
68.726548
 30
0.0
  0
VERTEX
  5
135
330
12D
100
AcDbEntity
  8
001
370
    50
100
AcDbVertex
100
AcDb2dVertex
 10
55.130965
 20
68.7201
 30
0.0
  0
SEQEND
  5
12E
330
12D
100
AcDbEntity
  8
001
370
    50
  0
LINE
  5
136
330
1F
100
AcDbEntity
  8
001
370
    50
100
AcDbLine
 10
55.130965
 20
68.7201
 30
0.0
 11
56.187247
 21
68.558856
 31
0.0
  0
POLYLINE
  5
137
330
1F
100
AcDbEntity
  8
001
370
    50
100
AcDb2dPolyline
 66
     1
 10
0.0
 20
0.0
 30
0.0
  0
VERTEX
  5
139
330
137
100
AcDbEntity
  8
001
370
    50
100
AcDbVertex
100
AcDb2dVertex
 10
56.187247
 20
68.558856
 30
0.0
  0
VERTEX
  5
13A
330
137
100
AcDbEntity
  8
001
370
    50
100
AcDbVertex
100
AcDb2dVertex
 10
56.119014
 20
68.566183
 30
0.0
  0
VERTEX
  5
13B
330
137
100
AcDbEntity
  8
001
370
    50
100
AcDbVertex
100
AcDb2dVertex
 10
56.016556
 20
68.564102
 30
0.0
  0
VERTEX
  5
13C
330
137
100
AcDbEntity
  8
001
370
    50
100
AcDbVertex
100
AcDb2dVertex
 10
55.971994
 20
68.554781
 30
0.0
  0
VERTEX
  5
13D
330
137
100
AcDbEntity
  8
001
370
    50
100
AcDbVertex
100
AcDb2dVertex
 10
55.947605
 20
68.540247
 30
0.0
  0
SEQEND
  5
138
330
137
100
AcDbEntity
  8
001
370
    50
  0
LINE
  5
13E
330
1F
100
AcDbEntity
  8
001
370
    50
100
AcDbLine
 10
56.70201
 20
68.480148
 30
0.0
 11
58.179094
 21
68.253917
 31
0.0
  0
POLYLINE
  5
13F
330
1F
100
AcDbEntity
  8
001
370
    50
100
AcDb2dPolyline
 66
     1
 10
0.0
 20
0.0
 30
0.0
  0
VERTEX
  5
141
330
13F
100
AcDbEntity
  8
001
370
    50
100
AcDbVertex
100
AcDb2dVertex
 10
58.179094
 20
68.253917
 30
0.0
  0
VERTEX
  5
142
330
13F
100
AcDbEntity
  8
001
370
    50
100
AcDbVertex
100
AcDb2dVertex
 10
58.241233
 20
68.243689
 30
0.0
  0
VERTEX
  5
143
330
13F
100
AcDbEntity
  8
001
370
    50
100
AcDbVertex
100
AcDb2dVertex
 10
58.303293
 20
68.233008
 30
0.0
  0
VERTEX
  5
144
330
13F
100
AcDbEntity
  8
001
370
    50
100
AcDbVertex
100
AcDb2dVertex
 10
58.37573
 20
68.219502
 30
0.0
  0
VERTEX
  5
145
330
13F
100
AcDbEntity
  8
001
370
    50
100
AcDbVertex
100
AcDb2dVertex
 10
58.447998
 20
68.205095
 30
0.0
  0
VERTEX
  5
146
330
13F
100
AcDbEntity
  8
001
370
    50
100
AcDbVertex
100
AcDb2dVertex
 10
58.524474
 20
68.189152
 30
0.0
  0
VERTEX
  5
147
330
13F
100
AcDbEntity
  8
001
370
    50
100
AcDbVertex
100
AcDb2dVertex
 10
58.600821
 20
68.172607
 30
0.0
  0
VERTEX
  5
148
330
13F
100
AcDbEntity
  8
001
370
    50
100
AcDbVertex
100
AcDb2dVertex
 10
58.68347
 20
68.154005
 30
0.0
  0
VERTEX
  5
149
330
13F
100
AcDbEntity
  8
001
370
    50
100
AcDbVertex
100
AcDb2dVertex
 10
58.765957
 20
68.134695
 30
0.0
  0
VERTEX
  5
14A
330
13F
100
AcDbEntity
  8
001
370
    50
100
AcDbVertex
100
AcDb2dVertex
 10
58.837043
 20
68.117478
 30
0.0
  0
VERTEX
  5
14B
330
13F
100
AcDbEntity
  8
001
370
    50
100
AcDbVertex
100
AcDb2dVertex
 10
58.908062
 20
68.099985
 30
0.0
  0
SEQEND
  5
140
330
13F
100
AcDbEntity
  8
001
370
    50
  0
POLYLINE
  5
14C
330
1F
100
AcDbEntity
  8
001
370
    50
100
AcDb2dPolyline
 66
     1
 10
0.0
 20
0.0
 30
0.0
  0
VERTEX
  5
14E
330
14C
100
AcDbEntity
  8
001
370
    50
100
AcDbVertex
100
AcDb2dVertex
 10
60.64572
 20
67.663733
 30
0.0
  0
VERTEX
  5
14F
330
14C
100
AcDbEntity
  8
001
370
    50
100
AcDbVertex
100
AcDb2dVertex
 10
60.292884
 20
67.752387
 30
0.0
  0
VERTEX
  5
150
330
14C
100
AcDbEntity
  8
001
370
    50
100
AcDbVertex
100
AcDb2dVertex
 10
59.777187
 20
67.881899
 30
0.0
  0
VERTEX
  5
151
330
14C
100
AcDbEntity
  8
001
370
    50
100
AcDbVertex
100
AcDb2dVertex
 10
59.26115
 20
68.011411
 30
0.0
  0
VERTEX
  5
152
330
14C
100
AcDbEntity
  8
001
370
    50
100
AcDbVertex
100
AcDb2dVertex
 10
58.908062
 20
68.099985
 30
0.0
  0
SEQEND
  5
14D
330
14C
100
AcDbEntity
  8
001
370
    50
  0
POLYLINE
  5
153
330
1F
100
AcDbEntity
  8
001
370
    50
100
AcDb2dPolyline
 66
     1
 10
0.0
 20
0.0
 30
0.0
  0
VERTEX
  5
155
330
153
100
AcDbEntity
  8
001
370
    50
100
AcDbVertex
100
AcDb2dVertex
 10
60.64572
 20
67.663733
 30
0.0
  0
VERTEX
  5
156
330
153
100
AcDbEntity
  8
001
370
    50
100
AcDbVertex
100
AcDb2dVertex
 10
60.730918
 20
67.641865
 30
0.0
  0
VERTEX
  5
157
330
153
100
AcDbEntity
  8
001
370
    50
100
AcDbVertex
100
AcDb2dVertex
 10
60.816011
 20
67.619595
 30
0.0
  0
VERTEX
  5
158
330
153
100
AcDbEntity
  8
001
370
    50
100
AcDbVertex
100
AcDb2dVertex
 10
60.901004
 20
67.59657
 30
0.0
  0
VERTEX
  5
159
330
153
100
AcDbEntity
  8
001
370
    50
100
AcDbVertex
100
AcDb2dVertex
 10
60.98579
 20
67.572794
 30
0.0
  0
VERTEX
  5
15A
330
153
100
AcDbEntity
  8
001
370
    50
100
AcDbVertex
100
AcDb2dVertex
 10
61.06344
 20
67.550338
 30
0.0
  0
VERTEX
  5
15B
330
153
100
AcDbEntity
  8
001
370
    50
100
AcDbVertex
100
AcDb2dVertex
 10
61.140901
 20
67.527236
 30
0.0
  0
VERTEX
  5
15C
330
153
100
AcDbEntity
  8
001
370
    50
100
AcDbVertex
100
AcDb2dVertex
 10
61.213431
 20
67.504873
 30
0.0
  0
VERTEX
  5
15D
330
153
100
AcDbEntity
  8
001
370
    50
100
AcDbVertex
100
AcDb2dVertex
 10
61.285682
 20
67.481633
 30
0.0
  0
VERTEX
  5
15E
330
153
100
AcDbEntity
  8
001
370
    50
100
AcDbVertex
100
AcDb2dVertex
 10
61.319275
 20
67.470443
 30
0.0
  0
VERTEX
  5
15F
330
153
100
AcDbEntity
  8
001
370
    50
100
AcDbVertex
100
AcDb2dVertex
 10
61.352826
 20
67.45913
 30
0.0
  0
SEQEND
  5
154
330
153
100
AcDbEntity
  8
001
370
    50
  0
POLYLINE
  5
160
330
1F
100
AcDbEntity
  8
001
370
    50
100
AcDb2dPolyline
 66
     1
 10
0.0
 20
0.0
 30
0.0
  0
VERTEX
  5
162
330
160
100
AcDbEntity
  8
001
370
    50
100
AcDbVertex
100
AcDb2dVertex
 10
61.352826
 20
67.45913
 30
0.0
  0
VERTEX
  5
163
330
160
100
AcDbEntity
  8
001
370
    50
100
AcDbVertex
100
AcDb2dVertex
 10
62.987439
 20
66.897184
 30
0.0
  0
VERTEX
  5
164
330
160
100
AcDbEntity
  8
001
370
    50
100
AcDbVertex
100
AcDb2dVertex
 10
64.621621
 20
66.333988
 30
0.0
  0
VERTEX
  5
165
330
160
100
AcDbEntity
  8
001
370
    50
100
AcDbVertex
100
AcDb2dVertex
 10
65.4296
 20
66.054568
 30
0.0
  0
VERTEX
  5
166
330
160
100
AcDbEntity
  8
001
370
    50
100
AcDbVertex
100
AcDb2dVertex
 10
66.237285
 20
65.774297
 30
0.0
  0
VERTEX
  5
167
330
160
100
AcDbEntity
  8
001
370
    50
100
AcDbVertex
100
AcDb2dVertex
 10
67.035561
 20
65.496236
 30
0.0
  0
VERTEX
  5
168
330
160
100
AcDbEntity
  8
001
370
    50
100
AcDbVertex
100
AcDb2dVertex
 10
67.833652
 20
65.217642
 30
0.0
  0
SEQEND
  5
161
330
160
100
AcDbEntity
  8
001
370
    50
  0
POLYLINE
  5
169
330
1F
100
AcDbEntity
  8
001
370
    50
100
AcDb2dPolyline
 66
     1
 10
0.0
 20
0.0
 30
0.0
  0
VERTEX
  5
16B
330
169
100
AcDbEntity
  8
001
370
    50
100
AcDbVertex
100
AcDb2dVertex
 10
58.908062
 20
76.057272
 30
0.0
  0
VERTEX
  5
16C
330
169
100
AcDbEntity
  8
001
370
    50
100
AcDbVertex
100
AcDb2dVertex
 10
58.822692
 20
76.082401
 30
0.0
  0
VERTEX
  5
16D
330
169
100
AcDbEntity
  8
001
370
    50
100
AcDbVertex
100
AcDb2dVertex
 10
58.736728
 20
76.105255
 30
0.0
  0
VERTEX
  5
16E
330
169
100
AcDbEntity
  8
001
370
    50
100
AcDbVertex
100
AcDb2dVertex
 10
58.651249
 20
76.123657
 30
0.0
  0
VERTEX
  5
16F
330
169
100
AcDbEntity
  8
001
370
    50
100
AcDbVertex
100
AcDb2dVertex
 10
58.564932
 20
76.137705
 30
0.0
  0
VERTEX
  5
170
330
169
100
AcDbEntity
  8
001
370
    50
100
AcDbVertex
100
AcDb2dVertex
 10
58.486106
 20
76.146646
 30
0.0
  0
VERTEX
  5
171
330
169
100
AcDbEntity
  8
001
370
    50
100
AcDbVertex
100
AcDb2dVertex
 10
58.406888
 20
76.151616
 30
0.0
  0
VERTEX
  5
172
330
169
100
AcDbEntity
  8
001
370
    50
100
AcDbVertex
100
AcDb2dVertex
 10
58.332572
 20
76.152049
 30
0.0
  0
VERTEX
  5
173
330
169
100
AcDbEntity
  8
001
370
    50
100
AcDbVertex
100
AcDb2dVertex
 10
58.258565
 20
76.146794
 30
0.0
  0
VERTEX
  5
174
330
169
100
AcDbEntity
  8
001
370
    50
100
AcDbVertex
100
AcDb2dVertex
 10
58.218762
 20
76.141148
 30
0.0
  0
VERTEX
  5
175
330
169
100
AcDbEntity
  8
001
370
    50
100
AcDbVertex
100
AcDb2dVertex
 10
58.179094
 20
76.134394
 30
0.0
  0
SEQEND
  5
16A
330
169
100
AcDbEntity
  8
001
370
    50
  0
POLYLINE
  5
176
330
1F
100
AcDbEntity
  8
001
370
    50
100
AcDb2dPolyline
 66
     1
 10
0.0
 20
0.0
 30
0.0
  0
VERTEX
  5
178
330
176
100
AcDbEntity
  8
001
370
    50
100
AcDbVertex
100
AcDb2dVertex
 10
61.352826
 20
75.10877
 30
0.0
  0
VERTEX
  5
179
330
176
100
AcDbEntity
  8
001
370
    50
100
AcDbVertex
100
AcDb2dVertex
 10
61.286504
 20
75.160206
 30
0.0
  0
VERTEX
  5
17A
330
176
100
AcDbEntity
  8
001
370
    50
100
AcDbVertex
100
AcDb2dVertex
 10
61.218807
 20
75.209708
 30
0.0
  0
VERTEX
  5
17B
330
176
100
AcDbEntity
  8
001
370
    50
100
AcDbVertex
100
AcDb2dVertex
 10
61.142449
 20
75.259639
 30
0.0
  0
VERTEX
  5
17C
330
176
100
AcDbEntity
  8
001
370
    50
100
AcDbVertex
100
AcDb2dVertex
 10
61.063676
 20
75.305791
 30
0.0
  0
VERTEX
  5
17D
330
176
100
AcDbEntity
  8
001
370
    50
100
AcDbVertex
100
AcDb2dVertex
 10
60.982945
 20
75.348947
 30
0.0
  0
VERTEX
  5
17E
330
176
100
AcDbEntity
  8
001
370
    50
100
AcDbVertex
100
AcDb2dVertex
 10
60.900681
 20
75.389066
 30
0.0
  0
VERTEX
  5
17F
330
176
100
AcDbEntity
  8
001
370
    50
100
AcDbVertex
100
AcDb2dVertex
 10
60.813727
 20
75.427394
 30
0.0
  0
VERTEX
  5
180
330
176
100
AcDbEntity
  8
001
370
    50
100
AcDbVertex
100
AcDb2dVertex
 10
60.72524
 20
75.461989
 30
0.0
  0
VERTEX
  5
181
330
176
100
AcDbEntity
  8
001
370
    50
100
AcDbVertex
100
AcDb2dVertex
 10
60.685552
 20
75.476098
 30
0.0
  0
VERTEX
  5
182
330
176
100
AcDbEntity
  8
001
370
    50
100
AcDbVertex
100
AcDb2dVertex
 10
60.64572
 20
75.489799
 30
0.0
  0
SEQEND
  5
177
330
176
100
AcDbEntity
  8
001
370
    50
  0
POLYLINE
  5
183
330
1F
100
AcDbEntity
  8
001
370
    50
100
AcDb2dPolyline
 66
     1
 10
0.0
 20
0.0
 30
0.0
  0
VERTEX
  5
185
330
183
100
AcDbEntity
  8
001
370
    50
100
AcDbVertex
100
AcDb2dVertex
 10
60.64572
 20
75.489799
 30
0.0
  0
VERTEX
  5
186
330
183
100
AcDbEntity
  8
001
370
    50
100
AcDbVertex
100
AcDb2dVertex
 10
60.293026
 20
75.605802
 30
0.0
  0
VERTEX
  5
187
330
183
100
AcDbEntity
  8
001
370
    50
100
AcDbVertex
100
AcDb2dVertex
 10
59.777341
 20
75.774705
 30
0.0
  0
VERTEX
  5
188
330
183
100
AcDbEntity
  8
001
370
    50
100
AcDbVertex
100
AcDb2dVertex
 10
59.261292
 20
75.942739
 30
0.0
  0
VERTEX
  5
189
330
183
100
AcDbEntity
  8
001
370
    50
100
AcDbVertex
100
AcDb2dVertex
 10
58.908062
 20
76.057272
 30
0.0
  0
SEQEND
  5
184
330
183
100
AcDbEntity
  8
001
370
    50
  0
POLYLINE
  5
18A
330
1F
100
AcDbEntity
  8
001
370
    50
100
AcDb2dPolyline
 66
     1
 10
0.0
 20
0.0
 30
0.0
  0
VERTEX
  5
18C
330
18A
100
AcDbEntity
  8
001
370
    50
100
AcDbVertex
100
AcDb2dVertex
 10
65.925737
 20
71.212833
 30
0.0
  0
VERTEX
  5
18D
330
18A
100
AcDbEntity
  8
001
370
    50
100
AcDbVertex
100
AcDb2dVertex
 10
64.795588
 20
72.191368
 30
0.0
  0
VERTEX
  5
18E
330
18A
100
AcDbEntity
  8
001
370
    50
100
AcDbVertex
100
AcDb2dVertex
 10
63.661243
 20
73.164976
 30
0.0
  0
VERTEX
  5
18F
330
18A
100
AcDbEntity
  8
001
370
    50
100
AcDbVertex
100
AcDb2dVertex
 10
62.509173
 20
74.139383
 30
0.0
  0
VERTEX
  5
190
330
18A
100
AcDbEntity
  8
001
370
    50
100
AcDbVertex
100
AcDb2dVertex
 10
61.352826
 20
75.10877
 30
0.0
  0
SEQEND
  5
18B
330
18A
100
AcDbEntity
  8
001
370
    50
  0
POLYLINE
  5
191
330
1F
100
AcDbEntity
  8
001
370
    50
100
AcDb2dPolyline
 66
     1
 10
0.0
 20
0.0
 30
0.0
  0
VERTEX
  5
193
330
191
100
AcDbEntity
  8
001
370
    50
100
AcDbVertex
100
AcDb2dVertex
 10
56.70201
 20
68.480148
 30
0.0
  0
VERTEX
  5
194
330
191
100
AcDbEntity
  8
001
370
    50
100
AcDbVertex
100
AcDb2dVertex
 10
56.693962
 20
68.486285
 30
0.0
  0
VERTEX
  5
195
330
191
100
AcDbEntity
  8
001
370
    50
100
AcDbVertex
100
AcDb2dVertex
 10
56.685869
 20
68.492366
 30
0.0
  0
VERTEX
  5
196
330
191
100
AcDbEntity
  8
001
370
    50
100
AcDbVertex
100
AcDb2dVertex
 10
56.632766
 20
68.528061
 30
0.0
  0
VERTEX
  5
197
330
191
100
AcDbEntity
  8
001
370
    50
100
AcDbVertex
100
AcDb2dVertex
 10
56.576364
 20
68.558331
 30
0.0
  0
VERTEX
  5
198
330
191
100
AcDbEntity
  8
001
370
    50
100
AcDbVertex
100
AcDb2dVertex
 10
56.519588
 20
68.581264
 30
0.0
  0
VERTEX
  5
199
330
191
100
AcDbEntity
  8
001
370
    50
100
AcDbVertex
100
AcDb2dVertex
 10
56.460291
 20
68.596955
 30
0.0
  0
VERTEX
  5
19A
330
191
100
AcDbEntity
  8
001
370
    50
100
AcDbVertex
100
AcDb2dVertex
 10
56.357734
 20
68.604066
 30
0.0
  0
VERTEX
  5
19B
330
191
100
AcDbEntity
  8
001
370
    50
100
AcDbVertex
100
AcDb2dVertex
 10
56.256911
 20
68.586143
 30
0.0
  0
VERTEX
  5
19C
330
191
100
AcDbEntity
  8
001
370
    50
100
AcDbVertex
100
AcDb2dVertex
 10
56.221745
 20
68.573377
 30
0.0
  0
VERTEX
  5
19D
330
191
100
AcDbEntity
  8
001
370
    50
100
AcDbVertex
100
AcDb2dVertex
 10
56.187247
 20
68.558856
 30
0.0
  0
SEQEND
  5
192
330
191
100
AcDbEntity
  8
001
370
    50
  0
LINE
  5
19E
330
1F
100
AcDbEntity
  8
001
370
    50
100
AcDbLine
 10
58.179094
 20
76.134394
 30
0.0
 11
55.130965
 21
75.473125
 31
0.0
  0
POLYLINE
  5
19F
330
1F
100
AcDbEntity
  8
001
370
    50
100
AcDb2dPolyline
 66
     1
 10
0.0
 20
0.0
 30
0.0
  0
VERTEX
  5
1A1
330
19F
100
AcDbEntity
  8
001
370
    50
100
AcDbVertex
100
AcDb2dVertex
 10
59.175759
 20
67.704025
 30
0.0
  0
VERTEX
  5
1A2
330
19F
100
AcDbEntity
  8
001
370
    50
100
AcDbVertex
100
AcDb2dVertex
 10
59.172475
 20
67.718325
 30
0.0
  0
VERTEX
  5
1A3
330
19F
100
AcDbEntity
  8
001
370
    50
100
AcDbVertex
100
AcDb2dVertex
 10
59.160605
 20
67.737439
 30
0.0
  0
VERTEX
  5
1A4
330
19F
100
AcDbEntity
  8
001
370
    50
100
AcDbVertex
100
AcDb2dVertex
 10
59.128311
 20
67.766528
 30
0.0
  0
VERTEX
  5
1A5
330
19F
100
AcDbEntity
  8
001
370
    50
100
AcDbVertex
100
AcDb2dVertex
 10
59.093284
 20
67.783404
 30
0.0
  0
VERTEX
  5
1A6
330
19F
100
AcDbEntity
  8
001
370
    50
100
AcDbVertex
100
AcDb2dVertex
 10
59.035277
 20
67.81117
 30
0.0
  0
VERTEX
  5
1A7
330
19F
100
AcDbEntity
  8
001
370
    50
100
AcDbVertex
100
AcDb2dVertex
 10
58.975993
 20
67.840421
 30
0.0
  0
VERTEX
  5
1A8
330
19F
100
AcDbEntity
  8
001
370
    50
100
AcDbVertex
100
AcDb2dVertex
 10
58.894703
 20
67.875428
 30
0.0
  0
VERTEX
  5
1A9
330
19F
100
AcDbEntity
  8
001
370
    50
100
AcDbVertex
100
AcDb2dVertex
 10
58.812558
 20
67.906629
 30
0.0
  0
VERTEX
  5
1AA
330
19F
100
AcDbEntity
  8
001
370
    50
100
AcDbVertex
100
AcDb2dVertex
 10
58.710739
 20
67.943789
 30
0.0
  0
VERTEX
  5
1AB
330
19F
100
AcDbEntity
  8
001
370
    50
100
AcDbVertex
100
AcDb2dVertex
 10
58.608312
 20
67.979868
 30
0.0
  0
VERTEX
  5
1AC
330
19F
100
AcDbEntity
  8
001
370
    50
100
AcDbVertex
100
AcDb2dVertex
 10
58.489352
 20
68.019656
 30
0.0
  0
VERTEX
  5
1AD
330
19F
100
AcDbEntity
  8
001
370
    50
100
AcDbVertex
100
AcDb2dVertex
 10
58.369918
 20
68.057749
 30
0.0
  0
VERTEX
  5
1AE
330
19F
100
AcDbEntity
  8
001
370
    50
100
AcDbVertex
100
AcDb2dVertex
 10
58.237771
 20
68.09838
 30
0.0
  0
VERTEX
  5
1AF
330
19F
100
AcDbEntity
  8
001
370
    50
100
AcDbVertex
100
AcDb2dVertex
 10
58.105155
 20
68.13773
 30
0.0
  0
VERTEX
  5
1B0
330
19F
100
AcDbEntity
  8
001
370
    50
100
AcDbVertex
100
AcDb2dVertex
 10
57.963966
 20
68.178141
 30
0.0
  0
VERTEX
  5
1B1
330
19F
100
AcDbEntity
  8
001
370
    50
100
AcDbVertex
100
AcDb2dVertex
 10
57.82266
 20
68.217203
 30
0.0
  0
VERTEX
  5
1B2
330
19F
100
AcDbEntity
  8
001
370
    50
100
AcDbVertex
100
AcDb2dVertex
 10
57.677796
 20
68.255924
 30
0.0
  0
VERTEX
  5
1B3
330
19F
100
AcDbEntity
  8
001
370
    50
100
AcDbVertex
100
AcDb2dVertex
 10
57.53165
 20
68.293574
 30
0.0
  0
VERTEX
  5
1B4
330
19F
100
AcDbEntity
  8
001
370
    50
100
AcDbVertex
100
AcDb2dVertex
 10
57.385027
 20
68.329938
 30
0.0
  0
VERTEX
  5
1B5
330
19F
100
AcDbEntity
  8
001
370
    50
100
AcDbVertex
100
AcDb2dVertex
 10
57.241621
 20
68.364352
 30
0.0
  0
VERTEX
  5
1B6
330
19F
100
AcDbEntity
  8
001
370
    50
100
AcDbVertex
100
AcDb2dVertex
 10
57.1082
 20
68.395265
 30
0.0
  0
VERTEX
  5
1B7
330
19F
100
AcDbEntity
  8
001
370
    50
100
AcDbVertex
100
AcDb2dVertex
 10
56.962033
 20
68.427227
 30
0.0
  0
VERTEX
  5
1B8
330
19F
100
AcDbEntity
  8
001
370
    50
100
AcDbVertex
100
AcDb2dVertex
 10
56.811353
 20
68.458397
 30
0.0
  0
VERTEX
  5
1B9
330
19F
100
AcDbEntity
  8
001
370
    50
100
AcDbVertex
100
AcDb2dVertex
 10
56.70201
 20
68.480148
 30
0.0
  0
SEQEND
  5
1A0
330
19F
100
AcDbEntity
  8
001
370
    50
  0
POLYLINE
  5
1BA
330
1F
100
AcDbEntity
  8
001
370
    50
100
AcDb2dPolyline
 66
     1
 10
0.0
 20
0.0
 30
0.0
  0
VERTEX
  5
1BC
330
1BA
100
AcDbEntity
  8
001
370
    50
100
AcDbVertex
100
AcDb2dVertex
 10
55.947605
 20
68.540247
 30
0.0
  0
VERTEX
  5
1BD
330
1BA
100
AcDbEntity
  8
001
370
    50
100
AcDbVertex
100
AcDb2dVertex
 10
55.951143
 20
68.525558
 30
0.0
  0
VERTEX
  5
1BE
330
1BA
100
AcDbEntity
  8
001
370
    50
100
AcDbVertex
100
AcDb2dVertex
 10
55.963671
 20
68.505963
 30
0.0
  0
VERTEX
  5
1BF
330
1BA
100
AcDbEntity
  8
001
370
    50
100
AcDbVertex
100
AcDb2dVertex
 10
55.997627
 20
68.475935
 30
0.0
  0
VERTEX
  5
1C0
330
1BA
100
AcDbEntity
  8
001
370
    50
100
AcDbVertex
100
AcDb2dVertex
 10
56.034156
 20
68.45861
 30
0.0
  0
VERTEX
  5
1C1
330
1BA
100
AcDbEntity
  8
001
370
    50
100
AcDbVertex
100
AcDb2dVertex
 10
56.09471
 20
68.430008
 30
0.0
  0
VERTEX
  5
1C2
330
1BA
100
AcDbEntity
  8
001
370
    50
100
AcDbVertex
100
AcDb2dVertex
 10
56.156658
 20
68.399797
 30
0.0
  0
VERTEX
  5
1C3
330
1BA
100
AcDbEntity
  8
001
370
    50
100
AcDbVertex
100
AcDb2dVertex
 10
56.241419
 20
68.363695
 30
0.0
  0
VERTEX
  5
1C4
330
1BA
100
AcDbEntity
  8
001
370
    50
100
AcDbVertex
100
AcDb2dVertex
 10
56.327007
 20
68.33153
 30
0.0
  0
VERTEX
  5
1C5
330
1BA
100
AcDbEntity
  8
001
370
    50
100
AcDbVertex
100
AcDb2dVertex
 10
56.432889
 20
68.293279
 30
0.0
  0
VERTEX
  5
1C6
330
1BA
100
AcDbEntity
  8
001
370
    50
100
AcDbVertex
100
AcDb2dVertex
 10
56.539402
 20
68.256131
 30
0.0
  0
VERTEX
  5
1C7
330
1BA
100
AcDbEntity
  8
001
370
    50
100
AcDbVertex
100
AcDb2dVertex
 10
56.662759
 20
68.215278
 30
0.0
  0
VERTEX
  5
1C8
330
1BA
100
AcDbEntity
  8
001
370
    50
100
AcDbVertex
100
AcDb2dVertex
 10
56.786609
 20
68.17617
 30
0.0
  0
VERTEX
  5
1C9
330
1BA
100
AcDbEntity
  8
001
370
    50
100
AcDbVertex
100
AcDb2dVertex
 10
56.9232
 20
68.134601
 30
0.0
  0
VERTEX
  5
1CA
330
1BA
100
AcDbEntity
  8
001
370
    50
100
AcDbVertex
100
AcDb2dVertex
 10
57.06021
 20
68.094369
 30
0.0
  0
VERTEX
  5
1CB
330
1BA
100
AcDbEntity
  8
001
370
    50
100
AcDbVertex
100
AcDb2dVertex
 10
57.205363
 20
68.053264
 30
0.0
  0
VERTEX
  5
1CC
330
1BA
100
AcDbEntity
  8
001
370
    50
100
AcDbVertex
100
AcDb2dVertex
 10
57.350888
 20
68.013513
 30
0.0
  0
VERTEX
  5
1CD
330
1BA
100
AcDbEntity
  8
001
370
    50
100
AcDbVertex
100
AcDb2dVertex
 10
57.499648
 20
67.974282
 30
0.0
  0
VERTEX
  5
1CE
330
1BA
100
AcDbEntity
  8
001
370
    50
100
AcDbVertex
100
AcDb2dVertex
 10
57.648745
 20
67.936356
 30
0.0
  0
VERTEX
  5
1CF
330
1BA
100
AcDbEntity
  8
001
370
    50
100
AcDbVertex
100
AcDb2dVertex
 10
57.796024
 20
67.900265
 30
0.0
  0
VERTEX
  5
1D0
330
1BA
100
AcDbEntity
  8
001
370
    50
100
AcDbVertex
100
AcDb2dVertex
 10
57.943636
 20
67.865526
 30
0.0
  0
VERTEX
  5
1D1
330
1BA
100
AcDbEntity
  8
001
370
    50
100
AcDbVertex
100
AcDb2dVertex
 10
58.084442
 20
67.833792
 30
0.0
  0
VERTEX
  5
1D2
330
1BA
100
AcDbEntity
  8
001
370
    50
100
AcDbVertex
100
AcDb2dVertex
 10
58.225521
 20
67.803434
 30
0.0
  0
VERTEX
  5
1D3
330
1BA
100
AcDbEntity
  8
001
370
    50
100
AcDbVertex
100
AcDb2dVertex
 10
58.354945
 20
67.776977
 30
0.0
  0
VERTEX
  5
1D4
330
1BA
100
AcDbEntity
  8
001
370
    50
100
AcDbVertex
100
AcDb2dVertex
 10
58.484799
 20
67.752195
 30
0.0
  0
VERTEX
  5
1D5
330
1BA
100
AcDbEntity
  8
001
370
    50
100
AcDbVertex
100
AcDb2dVertex
 10
58.598758
 20
67.732169
 30
0.0
  0
VERTEX
  5
1D6
330
1BA
100
AcDbEntity
  8
001
370
    50
100
AcDbVertex
100
AcDb2dVertex
 10
58.712642
 20
67.713554
 30
0.0
  0
VERTEX
  5
1D7
330
1BA
100
AcDbEntity
  8
001
370
    50
100
AcDbVertex
100
AcDb2dVertex
 10
58.806288
 20
67.699561
 30
0.0
  0
VERTEX
  5
1D8
330
1BA
100
AcDbEntity
  8
001
370
    50
100
AcDbVertex
100
AcDb2dVertex
 10
58.90129
 20
67.688827
 30
0.0
  0
VERTEX
  5
1D9
330
1BA
100
AcDbEntity
  8
001
370
    50
100
AcDbVertex
100
AcDb2dVertex
 10
58.974035
 20
67.683707
 30
0.0
  0
VERTEX
  5
1DA
330
1BA
100
AcDbEntity
  8
001
370
    50
100
AcDbVertex
100
AcDb2dVertex
 10
59.04432
 20
67.678856
 30
0.0
  0
VERTEX
  5
1DB
330
1BA
100
AcDbEntity
  8
001
370
    50
100
AcDbVertex
100
AcDb2dVertex
 10
59.087977
 20
67.676445
 30
0.0
  0
VERTEX
  5
1DC
330
1BA
100
AcDbEntity
  8
001
370
    50
100
AcDbVertex
100
AcDb2dVertex
 10
59.13686
 20
67.68398
 30
0.0
  0
VERTEX
  5
1DD
330
1BA
100
AcDbEntity
  8
001
370
    50
100
AcDbVertex
100
AcDb2dVertex
 10
59.161644
 20
67.693393
 30
0.0
  0
VERTEX
  5
1DE
330
1BA
100
AcDbEntity
  8
001
370
    50
100
AcDbVertex
100
AcDb2dVertex
 10
59.175759
 20
67.704025
 30
0.0
  0
SEQEND
  5
1BB
330
1BA
100
AcDbEntity
  8
001
370
    50
  0
POLYLINE
  5
1DF
330
1F
100
AcDbEntity
  8
001
370
    50
100
AcDb2dPolyline
 66
     1
 10
0.0
 20
0.0
 30
0.0
  0
VERTEX
  5
1E1
330
1DF
100
AcDbEntity
  8
001
370
    50
100
AcDbVertex
100
AcDb2dVertex
 10
55.130965
 20
75.473125
 30
0.0
  0
VERTEX
  5
1E2
330
1DF
100
AcDbEntity
  8
001
370
    50
100
AcDbVertex
100
AcDb2dVertex
 10
55.080214
 20
75.458867
 30
0.0
  0
VERTEX
  5
1E3
330
1DF
100
AcDbEntity
  8
001
370
    50
100
AcDbVertex
100
AcDb2dVertex
 10
55.030672
 20
75.441248
 30
0.0
  0
VERTEX
  5
1E4
330
1DF
100
AcDbEntity
  8
001
370
    50
100
AcDbVertex
100
AcDb2dVertex
 10
54.988341
 20
75.420189
 30
0.0
  0
VERTEX
  5
1E5
330
1DF
100
AcDbEntity
  8
001
370
    50
100
AcDbVertex
100
AcDb2dVertex
 10
54.94928
 20
75.393478
 30
0.0
  0
VERTEX
  5
1E6
330
1DF
100
AcDbEntity
  8
001
370
    50
100
AcDbVertex
100
AcDb2dVertex
 10
54.9192
 20
75.365597
 30
0.0
  0
VERTEX
  5
1E7
330
1DF
100
AcDbEntity
  8
001
370
    50
100
AcDbVertex
100
AcDb2dVertex
 10
54.893985
 20
75.333251
 30
0.0
  0
VERTEX
  5
1E8
330
1DF
100
AcDbEntity
  8
001
370
    50
100
AcDbVertex
100
AcDb2dVertex
 10
54.8753
 20
75.297289
 30
0.0
  0
VERTEX
  5
1E9
330
1DF
100
AcDbEntity
  8
001
370
    50
100
AcDbVertex
100
AcDb2dVertex
 10
54.864085
 20
75.258541
 30
0.0
  0
VERTEX
  5
1EA
330
1DF
100
AcDbEntity
  8
001
370
    50
100
AcDbVertex
100
AcDb2dVertex
 10
54.861333
 20
75.236498
 30
0.0
  0
VERTEX
  5
1EB
330
1DF
100
AcDbEntity
  8
001
370
    50
100
AcDbVertex
100
AcDb2dVertex
 10
54.859933
 20
75.214269
 30
0.0
  0
SEQEND
  5
1E0
330
1DF
100
AcDbEntity
  8
001
370
    50
  0
POLYLINE
  5
1EC
330
1F
100
AcDbEntity
  8
001
370
    50
100
AcDb2dPolyline
 66
     1
 10
0.0
 20
0.0
 30
0.0
  0
VERTEX
  5
1EE
330
1EC
100
AcDbEntity
  8
001
370
    50
100
AcDbVertex
100
AcDb2dVertex
 10
70.530027
 20
72.039543
 30
0.0
  0
VERTEX
  5
1EF
330
1EC
100
AcDbEntity
  8
001
370
    50
100
AcDbVertex
100
AcDb2dVertex
 10
70.287077
 20
72.163304
 30
0.0
  0
VERTEX
  5
1F0
330
1EC
100
AcDbEntity
  8
001
370
    50
100
AcDbVertex
100
AcDb2dVertex
 10
70.045393
 20
72.289468
 30
0.0
  0
VERTEX
  5
1F1
330
1EC
100
AcDbEntity
  8
001
370
    50
100
AcDbVertex
100
AcDb2dVertex
 10
69.808402
 20
72.418605
 30
0.0
  0
VERTEX
  5
1F2
330
1EC
100
AcDbEntity
  8
001
370
    50
100
AcDbVertex
100
AcDb2dVertex
 10
69.573705
 20
72.551906
 30
0.0
  0
VERTEX
  5
1F3
330
1EC
100
AcDbEntity
  8
001
370
    50
100
AcDbVertex
100
AcDb2dVertex
 10
69.340233
 20
72.689549
 30
0.0
  0
VERTEX
  5
1F4
330
1EC
100
AcDbEntity
  8
001
370
    50
100
AcDbVertex
100
AcDb2dVertex
 10
69.109175
 20
72.831177
 30
0.0
  0
VERTEX
  5
1F5
330
1EC
100
AcDbEntity
  8
001
370
    50
100
AcDbVertex
100
AcDb2dVertex
 10
68.884931
 20
72.97434
 30
0.0
  0
VERTEX
  5
1F6
330
1EC
100
AcDbEntity
  8
001
370
    50
100
AcDbVertex
100
AcDb2dVertex
 10
68.663297
 20
73.121547
 30
0.0
  0
VERTEX
  5
1F7
330
1EC
100
AcDbEntity
  8
001
370
    50
100
AcDbVertex
100
AcDb2dVertex
 10
68.44853
 20
73.269982
 30
0.0
  0
VERTEX
  5
1F8
330
1EC
100
AcDbEntity
  8
001
370
    50
100
AcDbVertex
100
AcDb2dVertex
 10
68.237195
 20
73.423194
 30
0.0
  0
VERTEX
  5
1F9
330
1EC
100
AcDbEntity
  8
001
370
    50
100
AcDbVertex
100
AcDb2dVertex
 10
68.034386
 20
73.577872
 30
0.0
  0
VERTEX
  5
1FA
330
1EC
100
AcDbEntity
  8
001
370
    50
100
AcDbVertex
100
AcDb2dVertex
 10
67.833652
 20
73.735309
 30
0.0
  0
SEQEND
  5
1ED
330
1EC
100
AcDbEntity
  8
001
370
    50
  0
POLYLINE
  5
1FB
330
1F
100
AcDbEntity
  8
001
370
    50
100
AcDb2dPolyline
 66
     1
 10
0.0
 20
0.0
 30
0.0
  0
VERTEX
  5
1FD
330
1FB
100
AcDbEntity
  8
001
370
    50
100
AcDbVertex
100
AcDb2dVertex
 10
70.530027
 20
72.039543
 30
0.0
  0
VERTEX
  5
1FE
330
1FB
100
AcDbEntity
  8
001
370
    50
100
AcDbVertex
100
AcDb2dVertex
 10
70.553187
 20
72.028181
 30
0.0
  0
VERTEX
  5
1FF
330
1FB
100
AcDbEntity
  8
001
370
    50
100
AcDbVertex
100
AcDb2dVertex
 10
70.576406
 20
72.01695
 30
0.0
  0
VERTEX
  5
200
330
1FB
100
AcDbEntity
  8
001
370
    50
100
AcDbVertex
100
AcDb2dVertex
 10
70.772049
 20
71.932439
 30
0.0
  0
VERTEX
  5
201
330
1FB
100
AcDbEntity
  8
001
370
    50
100
AcDbVertex
100
AcDb2dVertex
 10
70.971666
 20
71.856849
 30
0.0
  0
SEQEND
  5
1FC
330
1FB
100
AcDbEntity
  8
001
370
    50
  0
POLYLINE
  5
202
330
1F
100
AcDbEntity
  8
001
370
    50
100
AcDb2dPolyline
 66
     1
 10
0.0
 20
0.0
 30
0.0
  0
VERTEX
  5
204
330
202
100
AcDbEntity
  8
001
370
    50
100
AcDbVertex
100
AcDb2dVertex
 10
68.571575
 20
64.96783
 30
0.0
  0
VERTEX
  5
205
330
202
100
AcDbEntity
  8
001
370
    50
100
AcDbVertex
100
AcDb2dVertex
 10
68.862858
 20
64.863792
 30
0.0
  0
VERTEX
  5
206
330
202
100
AcDbEntity
  8
001
370
    50
100
AcDbVertex
100
AcDb2dVertex
 10
69.151495
 20
64.753122
 30
0.0
  0
VERTEX
  5
207
330
202
100
AcDbEntity
  8
001
370
    50
100
AcDbVertex
100
AcDb2dVertex
 10
69.453715
 20
64.62232
 30
0.0
  0
VERTEX
  5
208
330
202
100
AcDbEntity
  8
001
370
    50
100
AcDbVertex
100
AcDb2dVertex
 10
69.75065
 20
64.479439
 30
0.0
  0
VERTEX
  5
209
330
202
100
AcDbEntity
  8
001
370
    50
100
AcDbVertex
100
AcDb2dVertex
 10
70.061805
 20
64.316142
 30
0.0
  0
VERTEX
  5
20A
330
202
100
AcDbEntity
  8
001
370
    50
100
AcDbVertex
100
AcDb2dVertex
 10
70.365781
 20
64.140287
 30
0.0
  0
VERTEX
  5
20B
330
202
100
AcDbEntity
  8
001
370
    50
100
AcDbVertex
100
AcDb2dVertex
 10
70.671167
 20
63.944924
 30
0.0
  0
VERTEX
  5
20C
330
202
100
AcDbEntity
  8
001
370
    50
100
AcDbVertex
100
AcDb2dVertex
 10
70.971666
 20
63.741693
 30
0.0
  0
SEQEND
  5
203
330
202
100
AcDbEntity
  8
001
370
    50
  0
POLYLINE
  5
20D
330
1F
100
AcDbEntity
  8
001
370
    50
100
AcDb2dPolyline
 66
     1
 10
0.0
 20
0.0
 30
0.0
  0
VERTEX
  5
20F
330
20D
100
AcDbEntity
  8
001
370
    50
100
AcDbVertex
100
AcDb2dVertex
 10
70.971666
 20
63.741693
 30
0.0
  0
VERTEX
  5
210
330
20D
100
AcDbEntity
  8
001
370
    50
100
AcDbVertex
100
AcDb2dVertex
 10
71.172378
 20
63.590894
 30
0.0
  0
VERTEX
  5
211
330
20D
100
AcDbEntity
  8
001
370
    50
100
AcDbVertex
100
AcDb2dVertex
 10
71.369602
 20
63.43577
 30
0.0
  0
VERTEX
  5
212
330
20D
100
AcDbEntity
  8
001
370
    50
100
AcDbVertex
100
AcDb2dVertex
 10
71.558653
 20
63.274664
 30
0.0
  0
VERTEX
  5
213
330
20D
100
AcDbEntity
  8
001
370
    50
100
AcDbVertex
100
AcDb2dVertex
 10
71.741659
 20
63.106528
 30
0.0
  0
VERTEX
  5
214
330
20D
100
AcDbEntity
  8
001
370
    50
100
AcDbVertex
100
AcDb2dVertex
 10
71.918449
 20
62.932867
 30
0.0
  0
VERTEX
  5
215
330
20D
100
AcDbEntity
  8
001
370
    50
100
AcDbVertex
100
AcDb2dVertex
 10
72.088068
 20
62.752398
 30
0.0
  0
VERTEX
  5
216
330
20D
100
AcDbEntity
  8
001
370
    50
100
AcDbVertex
100
AcDb2dVertex
 10
72.246991
 20
62.567968
 30
0.0
  0
VERTEX
  5
217
330
20D
100
AcDbEntity
  8
001
370
    50
100
AcDbVertex
100
AcDb2dVertex
 10
72.401508
 20
62.379639
 30
0.0
  0
SEQEND
  5
20E
330
20D
100
AcDbEntity
  8
001
370
    50
  0
POLYLINE
  5
218
330
1F
100
AcDbEntity
  8
001
370
    50
100
AcDb2dPolyline
 66
     1
 10
0.0
 20
0.0
 30
0.0
  0
VERTEX
  5
21A
330
218
100
AcDbEntity
  8
001
370
    50
100
AcDbVertex
100
AcDb2dVertex
 10
74.487828
 20
72.995456
 30
0.0
  0
VERTEX
  5
21B
330
218
100
AcDbEntity
  8
001
370
    50
100
AcDbVertex
100
AcDb2dVertex
 10
74.614381
 20
73.866126
 30
0.0
  0
VERTEX
  5
21C
330
218
100
AcDbEntity
  8
001
370
    50
100
AcDbVertex
100
AcDb2dVertex
 10
74.631163
 20
75.058001
 30
0.0
  0
VERTEX
  5
21D
330
218
100
AcDbEntity
  8
001
370
    50
100
AcDbVertex
100
AcDb2dVertex
 10
74.44261
 20
75.873794
 30
0.0
  0
VERTEX
  5
21E
330
218
100
AcDbEntity
  8
001
370
    50
100
AcDbVertex
100
AcDb2dVertex
 10
73.963823
 20
76.54367
 30
0.0
  0
VERTEX
  5
21F
330
218
100
AcDbEntity
  8
001
370
    50
100
AcDbVertex
100
AcDb2dVertex
 10
73.174524
 20
77.087691
 30
0.0
  0
VERTEX
  5
220
330
218
100
AcDbEntity
  8
001
370
    50
100
AcDbVertex
100
AcDb2dVertex
 10
72.521197
 20
77.373678
 30
0.0
  0
SEQEND
  5
219
330
218
100
AcDbEntity
  8
001
370
    50
  0
POLYLINE
  5
221
330
1F
100
AcDbEntity
  8
001
370
    50
100
AcDb2dPolyline
 66
     1
 10
0.0
 20
0.0
 30
0.0
  0
VERTEX
  5
223
330
221
100
AcDbEntity
  8
001
370
    50
100
AcDbVertex
100
AcDb2dVertex
 10
73.901503
 20
57.544827
 30
0.0
  0
VERTEX
  5
224
330
221
100
AcDbEntity
  8
001
370
    50
100
AcDbVertex
100
AcDb2dVertex
 10
73.943142
 20
57.556068
 30
0.0
  0
VERTEX
  5
225
330
221
100
AcDbEntity
  8
001
370
    50
100
AcDbVertex
100
AcDb2dVertex
 10
73.984707
 20
57.567492
 30
0.0
  0
VERTEX
  5
226
330
221
100
AcDbEntity
  8
001
370
    50
100
AcDbVertex
100
AcDb2dVertex
 10
74.109335
 20
57.604027
 30
0.0
  0
VERTEX
  5
227
330
221
100
AcDbEntity
  8
001
370
    50
100
AcDbVertex
100
AcDb2dVertex
 10
74.233432
 20
57.643552
 30
0.0
  0
VERTEX
  5
228
330
221
100
AcDbEntity
  8
001
370
    50
100
AcDbVertex
100
AcDb2dVertex
 10
74.324234
 20
57.675628
 30
0.0
  0
VERTEX
  5
229
330
221
100
AcDbEntity
  8
001
370
    50
100
AcDbVertex
100
AcDb2dVertex
 10
74.41071
 20
57.716452
 30
0.0
  0
VERTEX
  5
22A
330
221
100
AcDbEntity
  8
001
370
    50
100
AcDbVertex
100
AcDb2dVertex
 10
74.449781
 20
57.740976
 30
0.0
  0
VERTEX
  5
22B
330
221
100
AcDbEntity
  8
001
370
    50
100
AcDbVertex
100
AcDb2dVertex
 10
74.487828
 20
57.767367
 30
0.0
  0
SEQEND
  5
222
330
221
100
AcDbEntity
  8
001
370
    50
  0
LINE
  5
22C
330
1F
100
AcDbEntity
  8
001
370
    50
100
AcDbLine
 10
73.896249
 20
57.543418
 30
0.0
 11
77.658063
 21
58.551393
 31
0.0
  0
LINE
  5
22D
330
1F
100
AcDbEntity
  8
001
370
    50
100
AcDbLine
 10
77.658063
 20
75.997259
 30
0.0
 11
72.521197
 21
77.373678
 31
0.0
  0
POLYLINE
  5
22E
330
1F
100
AcDbEntity
  8
001
370
    50
100
AcDb2dPolyline
 66
     1
 10
0.0
 20
0.0
 30
0.0
  0
VERTEX
  5
230
330
22E
100
AcDbEntity
  8
001
370
    50
100
AcDbVertex
100
AcDb2dVertex
 10
70.971666
 20
71.856849
 30
0.0
  0
VERTEX
  5
231
330
22E
100
AcDbEntity
  8
001
370
    50
100
AcDbVertex
100
AcDb2dVertex
 10
71.268693
 20
71.772739
 30
0.0
  0
VERTEX
  5
232
330
22E
100
AcDbEntity
  8
001
370
    50
100
AcDbVertex
100
AcDb2dVertex
 10
71.568769
 20
71.702957
 30
0.0
  0
VERTEX
  5
233
330
22E
100
AcDbEntity
  8
001
370
    50
100
AcDbVertex
100
AcDb2dVertex
 10
71.869043
 20
71.659472
 30
0.0
  0
VERTEX
  5
234
330
22E
100
AcDbEntity
  8
001
370
    50
100
AcDbVertex
100
AcDb2dVertex
 10
72.172393
 20
71.641104
 30
0.0
  0
VERTEX
  5
235
330
22E
100
AcDbEntity
  8
001
370
    50
100
AcDbVertex
100
AcDb2dVertex
 10
72.372598
 20
71.642037
 30
0.0
  0
VERTEX
  5
236
330
22E
100
AcDbEntity
  8
001
370
    50
100
AcDbVertex
100
AcDb2dVertex
 10
72.572008
 20
71.655471
 30
0.0
  0
VERTEX
  5
237
330
22E
100
AcDbEntity
  8
001
370
    50
100
AcDbVertex
100
AcDb2dVertex
 10
72.759152
 20
71.680602
 30
0.0
  0
VERTEX
  5
238
330
22E
100
AcDbEntity
  8
001
370
    50
100
AcDbVertex
100
AcDb2dVertex
 10
72.945538
 20
71.712537
 30
0.0
  0
SEQEND
  5
22F
330
22E
100
AcDbEntity
  8
001
370
    50
  0
POLYLINE
  5
239
330
1F
100
AcDbEntity
  8
001
370
    50
100
AcDb2dPolyline
 66
     1
 10
0.0
 20
0.0
 30
0.0
  0
VERTEX
  5
23B
330
239
100
AcDbEntity
  8
001
370
    50
100
AcDbVertex
100
AcDb2dVertex
 10
72.521197
 20
77.373678
 30
0.0
  0
VERTEX
  5
23C
330
239
100
AcDbEntity
  8
001
370
    50
100
AcDbVertex
100
AcDb2dVertex
 10
72.497061
 20
77.380055
 30
0.0
  0
VERTEX
  5
23D
330
239
100
AcDbEntity
  8
001
370
    50
100
AcDbVertex
100
AcDb2dVertex
 10
72.461726
 20
77.389138
 30
0.0
  0
VERTEX
  5
23E
330
239
100
AcDbEntity
  8
001
370
    50
100
AcDbVertex
100
AcDb2dVertex
 10
72.425996
 20
77.397967
 30
0.0
  0
VERTEX
  5
23F
330
239
100
AcDbEntity
  8
001
370
    50
100
AcDbVertex
100
AcDb2dVertex
 10
72.401508
 20
77.403845
 30
0.0
  0
SEQEND
  5
23A
330
239
100
AcDbEntity
  8
001
370
    50
  0
POLYLINE
  5
240
330
1F
100
AcDbEntity
  8
001
370
    50
100
AcDb2dPolyline
 66
     1
 10
0.0
 20
0.0
 30
0.0
  0
VERTEX
  5
242
330
240
100
AcDbEntity
  8
001
370
    50
100
AcDbVertex
100
AcDb2dVertex
 10
70.971666
 20
77.61719
 30
0.0
  0
VERTEX
  5
243
330
240
100
AcDbEntity
  8
001
370
    50
100
AcDbVertex
100
AcDb2dVertex
 10
71.170692
 20
77.594922
 30
0.0
  0
VERTEX
  5
244
330
240
100
AcDbEntity
  8
001
370
    50
100
AcDbVertex
100
AcDb2dVertex
 10
71.369602
 20
77.571715
 30
0.0
  0
VERTEX
  5
245
330
240
100
AcDbEntity
  8
001
370
    50
100
AcDbVertex
100
AcDb2dVertex
 10
71.555742
 20
77.548382
 30
0.0
  0
VERTEX
  5
246
330
240
100
AcDbEntity
  8
001
370
    50
100
AcDbVertex
100
AcDb2dVertex
 10
71.741659
 20
77.523198
 30
0.0
  0
VERTEX
  5
247
330
240
100
AcDbEntity
  8
001
370
    50
100
AcDbVertex
100
AcDb2dVertex
 10
71.915178
 20
77.497511
 30
0.0
  0
VERTEX
  5
248
330
240
100
AcDbEntity
  8
001
370
    50
100
AcDbVertex
100
AcDb2dVertex
 10
72.088068
 20
77.468137
 30
0.0
  0
VERTEX
  5
249
330
240
100
AcDbEntity
  8
001
370
    50
100
AcDbVertex
100
AcDb2dVertex
 10
72.245006
 20
77.437151
 30
0.0
  0
VERTEX
  5
24A
330
240
100
AcDbEntity
  8
001
370
    50
100
AcDbVertex
100
AcDb2dVertex
 10
72.401508
 20
77.403845
 30
0.0
  0
SEQEND
  5
241
330
240
100
AcDbEntity
  8
001
370
    50
  0
POLYLINE
  5
24B
330
1F
100
AcDbEntity
  8
001
370
    50
100
AcDb2dPolyline
 66
     1
 10
0.0
 20
0.0
 30
0.0
  0
VERTEX
  5
24D
330
24B
100
AcDbEntity
  8
001
370
    50
100
AcDbVertex
100
AcDb2dVertex
 10
70.971666
 20
56.787508
 30
0.0
  0
VERTEX
  5
24E
330
24B
100
AcDbEntity
  8
001
370
    50
100
AcDbVertex
100
AcDb2dVertex
 10
71.270069
 20
56.87137
 30
0.0
  0
VERTEX
  5
24F
330
24B
100
AcDbEntity
  8
001
370
    50
100
AcDbVertex
100
AcDb2dVertex
 10
71.568769
 20
56.954156
 30
0.0
  0
VERTEX
  5
250
330
24B
100
AcDbEntity
  8
001
370
    50
100
AcDbVertex
100
AcDb2dVertex
 10
71.87029
 20
57.035576
 30
0.0
  0
VERTEX
  5
251
330
24B
100
AcDbEntity
  8
001
370
    50
100
AcDbVertex
100
AcDb2dVertex
 10
72.172393
 20
57.114815
 30
0.0
  0
VERTEX
  5
252
330
24B
100
AcDbEntity
  8
001
370
    50
100
AcDbVertex
100
AcDb2dVertex
 10
72.372094
 20
57.16594
 30
0.0
  0
VERTEX
  5
253
330
24B
100
AcDbEntity
  8
001
370
    50
100
AcDbVertex
100
AcDb2dVertex
 10
72.572008
 20
57.216228
 30
0.0
  0
VERTEX
  5
254
330
24B
100
AcDbEntity
  8
001
370
    50
100
AcDbVertex
100
AcDb2dVertex
 10
72.766773
 20
57.264494
 30
0.0
  0
VERTEX
  5
255
330
24B
100
AcDbEntity
  8
001
370
    50
100
AcDbVertex
100
AcDb2dVertex
 10
72.961659
 20
57.312268
 30
0.0
  0
VERTEX
  5
256
330
24B
100
AcDbEntity
  8
001
370
    50
100
AcDbVertex
100
AcDb2dVertex
 10
73.145918
 20
57.357128
 30
0.0
  0
VERTEX
  5
257
330
24B
100
AcDbEntity
  8
001
370
    50
100
AcDbVertex
100
AcDb2dVertex
 10
73.330226
 20
57.401797
 30
0.0
  0
VERTEX
  5
258
330
24B
100
AcDbEntity
  8
001
370
    50
100
AcDbVertex
100
AcDb2dVertex
 10
73.504829
 20
57.444163
 30
0.0
  0
VERTEX
  5
259
330
24B
100
AcDbEntity
  8
001
370
    50
100
AcDbVertex
100
AcDb2dVertex
 10
73.679202
 20
57.487445
 30
0.0
  0
VERTEX
  5
25A
330
24B
100
AcDbEntity
  8
001
370
    50
100
AcDbVertex
100
AcDb2dVertex
 10
73.790403
 20
57.515938
 30
0.0
  0
VERTEX
  5
25B
330
24B
100
AcDbEntity
  8
001
370
    50
100
AcDbVertex
100
AcDb2dVertex
 10
73.901503
 20
57.544827
 30
0.0
  0
SEQEND
  5
24C
330
24B
100
AcDbEntity
  8
001
370
    50
  0
POLYLINE
  5
25C
330
1F
100
AcDbEntity
  8
001
370
    50
100
AcDb2dPolyline
 66
     1
 10
0.0
 20
0.0
 30
0.0
  0
VERTEX
  5
25E
330
25C
100
AcDbEntity
  8
001
370
    50
100
AcDbVertex
100
AcDb2dVertex
 10
74.487828
 20
57.767367
 30
0.0
  0
VERTEX
  5
25F
330
25C
100
AcDbEntity
  8
001
370
    50
100
AcDbVertex
100
AcDb2dVertex
 10
74.601018
 20
57.996772
 30
0.0
  0
VERTEX
  5
260
330
25C
100
AcDbEntity
  8
001
370
    50
100
AcDbVertex
100
AcDb2dVertex
 10
74.670676
 20
58.354758
 30
0.0
  0
VERTEX
  5
261
330
25C
100
AcDbEntity
  8
001
370
    50
100
AcDbVertex
100
AcDb2dVertex
 10
74.593484
 20
58.890229
 30
0.0
  0
VERTEX
  5
262
330
25C
100
AcDbEntity
  8
001
370
    50
100
AcDbVertex
100
AcDb2dVertex
 10
74.375323
 20
59.341714
 30
0.0
  0
VERTEX
  5
263
330
25C
100
AcDbEntity
  8
001
370
    50
100
AcDbVertex
100
AcDb2dVertex
 10
74.020401
 20
60.000598
 30
0.0
  0
VERTEX
  5
264
330
25C
100
AcDbEntity
  8
001
370
    50
100
AcDbVertex
100
AcDb2dVertex
 10
73.610985
 20
60.697442
 30
0.0
  0
VERTEX
  5
265
330
25C
100
AcDbEntity
  8
001
370
    50
100
AcDbVertex
100
AcDb2dVertex
 10
72.930462
 20
61.680397
 30
0.0
  0
VERTEX
  5
266
330
25C
100
AcDbEntity
  8
001
370
    50
100
AcDbVertex
100
AcDb2dVertex
 10
72.401508
 20
62.379639
 30
0.0
  0
SEQEND
  5
25D
330
25C
100
AcDbEntity
  8
001
370
    50
  0
POLYLINE
  5
267
330
1F
100
AcDbEntity
  8
001
370
    50
100
AcDb2dPolyline
 66
     1
 10
0.0
 20
0.0
 30
0.0
  0
VERTEX
  5
269
330
267
100
AcDbEntity
  8
001
370
    50
100
AcDbVertex
100
AcDb2dVertex
 10
72.945538
 20
71.712537
 30
0.0
  0
VERTEX
  5
26A
330
267
100
AcDbEntity
  8
001
370
    50
100
AcDbVertex
100
AcDb2dVertex
 10
72.953599
 20
71.714461
 30
0.0
  0
VERTEX
  5
26B
330
267
100
AcDbEntity
  8
001
370
    50
100
AcDbVertex
100
AcDb2dVertex
 10
72.961659
 20
71.716391
 30
0.0
  0
VERTEX
  5
26C
330
267
100
AcDbEntity
  8
001
370
    50
100
AcDbVertex
100
AcDb2dVertex
 10
73.14757
 20
71.765195
 30
0.0
  0
VERTEX
  5
26D
330
267
100
AcDbEntity
  8
001
370
    50
100
AcDbVertex
100
AcDb2dVertex
 10
73.330226
 20
71.824827
 30
0.0
  0
VERTEX
  5
26E
330
267
100
AcDbEntity
  8
001
370
    50
100
AcDbVertex
100
AcDb2dVertex
 10
73.508048
 20
71.899053
 30
0.0
  0
VERTEX
  5
26F
330
267
100
AcDbEntity
  8
001
370
    50
100
AcDbVertex
100
AcDb2dVertex
 10
73.679202
 20
71.987939
 30
0.0
  0
VERTEX
  5
270
330
267
100
AcDbEntity
  8
001
370
    50
100
AcDbVertex
100
AcDb2dVertex
 10
73.837032
 20
72.08754
 30
0.0
  0
VERTEX
  5
271
330
267
100
AcDbEntity
  8
001
370
    50
100
AcDbVertex
100
AcDb2dVertex
 10
73.984707
 20
72.201301
 30
0.0
  0
VERTEX
  5
272
330
267
100
AcDbEntity
  8
001
370
    50
100
AcDbVertex
100
AcDb2dVertex
 10
74.115857
 20
72.32592
 30
0.0
  0
VERTEX
  5
273
330
267
100
AcDbEntity
  8
001
370
    50
100
AcDbVertex
100
AcDb2dVertex
 10
74.233432
 20
72.463875
 30
0.0
  0
VERTEX
  5
274
330
267
100
AcDbEntity
  8
001
370
    50
100
AcDbVertex
100
AcDb2dVertex
 10
74.33191
 20
72.60862
 30
0.0
  0
VERTEX
  5
275
330
267
100
AcDbEntity
  8
001
370
    50
100
AcDbVertex
100
AcDb2dVertex
 10
74.41071
 20
72.764154
 30
0.0
  0
VERTEX
  5
276
330
267
100
AcDbEntity
  8
001
370
    50
100
AcDbVertex
100
AcDb2dVertex
 10
74.452384
 20
72.878571
 30
0.0
  0
VERTEX
  5
277
330
267
100
AcDbEntity
  8
001
370
    50
100
AcDbVertex
100
AcDb2dVertex
 10
74.487828
 20
72.995456
 30
0.0
  0
SEQEND
  5
268
330
267
100
AcDbEntity
  8
001
370
    50
  0
ARC
  5
278
330
1F
100
AcDbEntity
  8
001
370
    50
100
AcDbCircle
 10
77.140425
 20
74.065408
 30
0.0
 40
2.000000000000001
100
AcDbArc
 50
45.0
 51
75.0
  0
ARC
  5
279
330
1F
100
AcDbEntity
  8
001
370
    50
100
AcDbCircle
 10
77.140425
 20
60.483245
 30
0.0
 40
2.000000000000001
100
AcDbArc
 50
285.0
 51
315.0
  0
POLYLINE
  5
27A
330
1F
100
AcDbEntity
  8
001
370
    50
100
AcDb2dPolyline
 66
     1
 10
0.0
 20
0.0
 30
0.0
  0
VERTEX
  5
27C
330
27A
100
AcDbEntity
  8
001
370
    50
100
AcDbVertex
100
AcDb2dVertex
 10
55.44572
 20
67.37275
 30
0.0
  0
VERTEX
  5
27D
330
27A
100
AcDbEntity
  8
001
370
    50
100
AcDbVertex
100
AcDb2dVertex
 10
55.671644
 20
67.20532
 30
0.0
  0
VERTEX
  5
27E
330
27A
100
AcDbEntity
  8
001
370
    50
100
AcDbVertex
100
AcDb2dVertex
 10
55.892281
 20
67.031236
 30
0.0
  0
VERTEX
  5
27F
330
27A
100
AcDbEntity
  8
001
370
    50
100
AcDbVertex
100
AcDb2dVertex
 10
56.104603
 20
66.843437
 30
0.0
  0
VERTEX
  5
280
330
27A
100
AcDbEntity
  8
001
370
    50
100
AcDbVertex
100
AcDb2dVertex
 10
56.304515
 20
66.642351
 30
0.0
  0
VERTEX
  5
281
330
27A
100
AcDbEntity
  8
001
370
    50
100
AcDbVertex
100
AcDb2dVertex
 10
56.432874
 20
66.497063
 30
0.0
  0
VERTEX
  5
282
330
27A
100
AcDbEntity
  8
001
370
    50
100
AcDbVertex
100
AcDb2dVertex
 10
56.55208
 20
66.344215
 30
0.0
  0
VERTEX
  5
283
330
27A
100
AcDbEntity
  8
001
370
    50
100
AcDbVertex
100
AcDb2dVertex
 10
56.661411
 20
66.179409
 30
0.0
  0
VERTEX
  5
284
330
27A
100
AcDbEntity
  8
001
370
    50
100
AcDbVertex
100
AcDb2dVertex
 10
56.755248
 20
66.005445
 30
0.0
  0
VERTEX
  5
285
330
27A
100
AcDbEntity
  8
001
370
    50
100
AcDbVertex
100
AcDb2dVertex
 10
56.799633
 20
65.90442
 30
0.0
  0
VERTEX
  5
286
330
27A
100
AcDbEntity
  8
001
370
    50
100
AcDbVertex
100
AcDb2dVertex
 10
56.837331
 20
65.800727
 30
0.0
  0
VERTEX
  5
287
330
27A
100
AcDbEntity
  8
001
370
    50
100
AcDbVertex
100
AcDb2dVertex
 10
56.868389
 20
65.691039
 30
0.0
  0
VERTEX
  5
288
330
27A
100
AcDbEntity
  8
001
370
    50
100
AcDbVertex
100
AcDb2dVertex
 10
56.890623
 20
65.57925
 30
0.0
  0
VERTEX
  5
289
330
27A
100
AcDbEntity
  8
001
370
    50
100
AcDbVertex
100
AcDb2dVertex
 10
56.902087
 20
65.482752
 30
0.0
  0
VERTEX
  5
28A
330
27A
100
AcDbEntity
  8
001
370
    50
100
AcDbVertex
100
AcDb2dVertex
 10
56.90656
 20
65.385669
 30
0.0
  0
VERTEX
  5
28B
330
27A
100
AcDbEntity
  8
001
370
    50
100
AcDbVertex
100
AcDb2dVertex
 10
56.903811
 20
65.28479
 30
0.0
  0
VERTEX
  5
28C
330
27A
100
AcDbEntity
  8
001
370
    50
100
AcDbVertex
100
AcDb2dVertex
 10
56.893492
 20
65.184417
 30
0.0
  0
VERTEX
  5
28D
330
27A
100
AcDbEntity
  8
001
370
    50
100
AcDbVertex
100
AcDb2dVertex
 10
56.874809
 20
65.081093
 30
0.0
  0
VERTEX
  5
28E
330
27A
100
AcDbEntity
  8
001
370
    50
100
AcDbVertex
100
AcDb2dVertex
 10
56.848709
 20
64.979359
 30
0.0
  0
VERTEX
  5
28F
330
27A
100
AcDbEntity
  8
001
370
    50
100
AcDbVertex
100
AcDb2dVertex
 10
56.815157
 20
64.877403
 30
0.0
  0
VERTEX
  5
290
330
27A
100
AcDbEntity
  8
001
370
    50
100
AcDbVertex
100
AcDb2dVertex
 10
56.775159
 20
64.777821
 30
0.0
  0
VERTEX
  5
291
330
27A
100
AcDbEntity
  8
001
370
    50
100
AcDbVertex
100
AcDb2dVertex
 10
56.72156
 20
64.665991
 30
0.0
  0
VERTEX
  5
292
330
27A
100
AcDbEntity
  8
001
370
    50
100
AcDbVertex
100
AcDb2dVertex
 10
56.661154
 20
64.557631
 30
0.0
  0
VERTEX
  5
293
330
27A
100
AcDbEntity
  8
001
370
    50
100
AcDbVertex
100
AcDb2dVertex
 10
56.595454
 20
64.453393
 30
0.0
  0
VERTEX
  5
294
330
27A
100
AcDbEntity
  8
001
370
    50
100
AcDbVertex
100
AcDb2dVertex
 10
56.524423
 20
64.352774
 30
0.0
  0
VERTEX
  5
295
330
27A
100
AcDbEntity
  8
001
370
    50
100
AcDbVertex
100
AcDb2dVertex
 10
56.493682
 20
64.312334
 30
0.0
  0
VERTEX
  5
296
330
27A
100
AcDbEntity
  8
001
370
    50
100
AcDbVertex
100
AcDb2dVertex
 10
56.462503
 20
64.272228
 30
0.0
  0
SEQEND
  5
27B
330
27A
100
AcDbEntity
  8
001
370
    50
  0
POLYLINE
  5
297
330
1F
100
AcDbEntity
  8
001
370
    50
100
AcDb2dPolyline
 66
     1
 10
0.0
 20
0.0
 30
0.0
  0
VERTEX
  5
299
330
297
100
AcDbEntity
  8
001
370
    50
100
AcDbVertex
100
AcDb2dVertex
 10
54.859933
 20
68.050343
 30
0.0
  0
VERTEX
  5
29A
330
297
100
AcDbEntity
  8
001
370
    50
100
AcDbVertex
100
AcDb2dVertex
 10
54.86751
 20
68.011972
 30
0.0
  0
VERTEX
  5
29B
330
297
100
AcDbEntity
  8
001
370
    50
100
AcDbVertex
100
AcDb2dVertex
 10
54.877855
 20
67.974581
 30
0.0
  0
VERTEX
  5
29C
330
297
100
AcDbEntity
  8
001
370
    50
100
AcDbVertex
100
AcDb2dVertex
 10
54.901312
 20
67.923198
 30
0.0
  0
VERTEX
  5
29D
330
297
100
AcDbEntity
  8
001
370
    50
100
AcDbVertex
100
AcDb2dVertex
 10
54.931512
 20
67.874729
 30
0.0
  0
VERTEX
  5
29E
330
297
100
AcDbEntity
  8
001
370
    50
100
AcDbVertex
100
AcDb2dVertex
 10
54.996593
 20
67.785698
 30
0.0
  0
VERTEX
  5
29F
330
297
100
AcDbEntity
  8
001
370
    50
100
AcDbVertex
100
AcDb2dVertex
 10
55.067535
 20
67.70192
 30
0.0
  0
VERTEX
  5
2A0
330
297
100
AcDbEntity
  8
001
370
    50
100
AcDbVertex
100
AcDb2dVertex
 10
55.165387
 20
67.60145
 30
0.0
  0
VERTEX
  5
2A1
330
297
100
AcDbEntity
  8
001
370
    50
100
AcDbVertex
100
AcDb2dVertex
 10
55.270284
 20
67.50814
 30
0.0
  0
VERTEX
  5
2A2
330
297
100
AcDbEntity
  8
001
370
    50
100
AcDbVertex
100
AcDb2dVertex
 10
55.357104
 20
67.439276
 30
0.0
  0
VERTEX
  5
2A3
330
297
100
AcDbEntity
  8
001
370
    50
100
AcDbVertex
100
AcDb2dVertex
 10
55.44572
 20
67.37275
 30
0.0
  0
SEQEND
  5
298
330
297
100
AcDbEntity
  8
001
370
    50
  0
LINE
  5
2A4
330
1F
100
AcDbEntity
  8
001
370
    50
100
AcDbLine
 10
79.259933
 20
74.774326
 30
0.0
 11
79.259933
 21
59.774326
 31
0.0
  0
LINE
  5
2A5
330
1F
100
AcDbEntity
  8
001
370
    50
100
AcDbLine
 10
78.554638
 20
59.069031
 30
0.0
 11
79.259933
 21
59.774326
 31
0.0
  0
LINE
  5
2A6
330
1F
100
AcDbEntity
  8
001
370
    50
100
AcDbLine
 10
79.259933
 20
74.774326
 30
0.0
 11
78.554638
 21
75.479621
 31
0.0
  0
LINE
  5
2A7
330
1F
100
AcDbEntity
  8
001
370
    50
100
AcDbLine
 10
81.259933
 20
73.274326
 30
0.0
 11
137.259933
 21
73.274326
 31
0.0
  0
LINE
  5
2A8
330
1F
100
AcDbEntity
  8
001
370
    50
100
AcDbLine
 10
81.259933
 20
61.274326
 30
0.0
 11
137.259933
 21
61.274326
 31
0.0
  0
LINE
  5
2A9
330
1F
100
AcDbEntity
  8
001
  6
DASHED
370
    30
100
AcDbLine
 10
55.44572
 20
60.860113
 30
0.0
 11
59.274147
 21
64.68854
 31
0.0
  0
POLYLINE
  5
2AA
330
1F
100
AcDbEntity
  8
001
370
    50
100
AcDb2dPolyline
 66
     1
 10
0.0
 20
0.0
 30
0.0
  0
VERTEX
  5
2AC
330
2AA
100
AcDbEntity
  8
001
370
    50
100
AcDbVertex
100
AcDb2dVertex
 10
56.746205
 20
64.719865
 30
0.0
  0
VERTEX
  5
2AD
330
2AA
100
AcDbEntity
  8
001
370
    50
100
AcDbVertex
100
AcDb2dVertex
 10
56.704683
 20
64.758204
 30
0.0
  0
VERTEX
  5
2AE
330
2AA
100
AcDbEntity
  8
001
370
    50
100
AcDbVertex
100
AcDb2dVertex
 10
56.661154
 20
64.794017
 30
0.0
  0
VERTEX
  5
2AF
330
2AA
100
AcDbEntity
  8
001
370
    50
100
AcDbVertex
100
AcDb2dVertex
 10
56.595344
 20
64.835846
 30
0.0
  0
VERTEX
  5
2B0
330
2AA
100
AcDbEntity
  8
001
370
    50
100
AcDbVertex
100
AcDb2dVertex
 10
56.524423
 20
64.86869
 30
0.0
  0
VERTEX
  5
2B1
330
2AA
100
AcDbEntity
  8
001
370
    50
100
AcDbVertex
100
AcDb2dVertex
 10
56.493578
 20
64.880128
 30
0.0
  0
VERTEX
  5
2B2
330
2AA
100
AcDbEntity
  8
001
370
    50
100
AcDbVertex
100
AcDb2dVertex
 10
56.462503
 20
64.890823
 30
0.0
  0
SEQEND
  5
2AB
330
2AA
100
AcDbEntity
  8
001
370
    50
  0
POLYLINE
  5
2B3
330
1F
100
AcDbEntity
  8
001
370
    50
100
AcDb2dPolyline
 66
     1
 10
0.0
 20
0.0
 30
0.0
  0
VERTEX
  5
2B5
330
2B3
100
AcDbEntity
  8
001
370
    50
100
AcDbVertex
100
AcDb2dVertex
 10
55.44572
 20
65.164839
 30
0.0
  0
VERTEX
  5
2B6
330
2B3
100
AcDbEntity
  8
001
370
    50
100
AcDbVertex
100
AcDb2dVertex
 10
55.704449
 20
65.101328
 30
0.0
  0
VERTEX
  5
2B7
330
2B3
100
AcDbEntity
  8
001
370
    50
100
AcDbVertex
100
AcDb2dVertex
 10
55.962311
 20
65.034603
 30
0.0
  0
VERTEX
  5
2B8
330
2B3
100
AcDbEntity
  8
001
370
    50
100
AcDbVertex
100
AcDb2dVertex
 10
56.21282
 20
64.964247
 30
0.0
  0
VERTEX
  5
2B9
330
2B3
100
AcDbEntity
  8
001
370
    50
100
AcDbVertex
100
AcDb2dVertex
 10
56.462503
 20
64.890823
 30
0.0
  0
SEQEND
  5
2B4
330
2B3
100
AcDbEntity
  8
001
370
    50
  0
POLYLINE
  5
2BA
330
1F
100
AcDbEntity
  8
001
370
    50
100
AcDb2dPolyline
 66
     1
 10
0.0
 20
0.0
 30
0.0
  0
VERTEX
  5
2BC
330
2BA
100
AcDbEntity
  8
001
370
    50
100
AcDbVertex
100
AcDb2dVertex
 10
55.44572
 20
63.0832
 30
0.0
  0
VERTEX
  5
2BD
330
2BA
100
AcDbEntity
  8
001
370
    50
100
AcDbVertex
100
AcDb2dVertex
 10
55.705674
 20
63.37485
 30
0.0
  0
VERTEX
  5
2BE
330
2BA
100
AcDbEntity
  8
001
370
    50
100
AcDbVertex
100
AcDb2dVertex
 10
55.962311
 20
63.669339
 30
0.0
  0
VERTEX
  5
2BF
330
2BA
100
AcDbEntity
  8
001
370
    50
100
AcDbVertex
100
AcDb2dVertex
 10
56.214075
 20
63.969357
 30
0.0
  0
VERTEX
  5
2C0
330
2BA
100
AcDbEntity
  8
001
370
    50
100
AcDbVertex
100
AcDb2dVertex
 10
56.462503
 20
64.272228
 30
0.0
  0
SEQEND
  5
2BB
330
2BA
100
AcDbEntity
  8
001
370
    50
  0
ARC
  5
2C1
330
1F
100
AcDbEntity
  8
001
  6
DASHED
370
    30
100
AcDbCircle
 10
56.859933
 20
59.445899
 30
0.0
 40
2.0
100
AcDbArc
 50
135.0
 51
180.0
  0
POLYLINE
  5
2C2
330
1F
100
AcDbEntity
  8
001
370
    50
100
AcDb2dPolyline
 66
     1
 10
0.0
 20
0.0
 30
0.0
  0
VERTEX
  5
2C4
330
2C2
100
AcDbEntity
  8
001
370
    50
100
AcDbVertex
100
AcDb2dVertex
 10
54.859933
 20
61.308447
 30
0.0
  0
VERTEX
  5
2C5
330
2C2
100
AcDbEntity
  8
001
370
    50
100
AcDbVertex
100
AcDb2dVertex
 10
54.860078
 20
61.334486
 30
0.0
  0
VERTEX
  5
2C6
330
2C2
100
AcDbEntity
  8
001
370
    50
100
AcDbVertex
100
AcDb2dVertex
 10
54.860327
 20
61.360527
 30
0.0
  0
VERTEX
  5
2C7
330
2C2
100
AcDbEntity
  8
001
370
    50
100
AcDbVertex
100
AcDb2dVertex
 10
54.874918
 20
61.629773
 30
0.0
  0
VERTEX
  5
2C8
330
2C2
100
AcDbEntity
  8
001
370
    50
100
AcDbVertex
100
AcDb2dVertex
 10
54.911586
 20
61.897036
 30
0.0
  0
VERTEX
  5
2C9
330
2C2
100
AcDbEntity
  8
001
370
    50
100
AcDbVertex
100
AcDb2dVertex
 10
54.939151
 20
62.033489
 30
0.0
  0
VERTEX
  5
2CA
330
2C2
100
AcDbEntity
  8
001
370
    50
100
AcDbVertex
100
AcDb2dVertex
 10
54.972915
 20
62.168435
 30
0.0
  0
VERTEX
  5
2CB
330
2C2
100
AcDbEntity
  8
001
370
    50
100
AcDbVertex
100
AcDb2dVertex
 10
55.013
 20
62.301101
 30
0.0
  0
VERTEX
  5
2CC
330
2C2
100
AcDbEntity
  8
001
370
    50
100
AcDbVertex
100
AcDb2dVertex
 10
55.05937
 20
62.43189
 30
0.0
  0
VERTEX
  5
2CD
330
2C2
100
AcDbEntity
  8
001
370
    50
100
AcDbVertex
100
AcDb2dVertex
 10
55.132592
 20
62.605493
 30
0.0
  0
VERTEX
  5
2CE
330
2C2
100
AcDbEntity
  8
001
370
    50
100
AcDbVertex
100
AcDb2dVertex
 10
55.220829
 20
62.77138
 30
0.0
  0
VERTEX
  5
2CF
330
2C2
100
AcDbEntity
  8
001
370
    50
100
AcDbVertex
100
AcDb2dVertex
 10
55.328326
 20
62.930419
 30
0.0
  0
VERTEX
  5
2D0
330
2C2
100
AcDbEntity
  8
001
370
    50
100
AcDbVertex
100
AcDb2dVertex
 10
55.44572
 20
63.0832
 30
0.0
  0
SEQEND
  5
2C3
330
2C2
100
AcDbEntity
  8
001
370
    50
  0
POLYLINE
  5
2D1
330
1F
100
AcDbEntity
  8
001
370
    50
100
AcDb2dPolyline
 66
     1
 10
0.0
 20
0.0
 30
0.0
  0
VERTEX
  5
2D3
330
2D1
100
AcDbEntity
  8
001
370
    50
100
AcDbVertex
100
AcDb2dVertex
 10
70.530027
 20
56.644619
 30
0.0
  0
VERTEX
  5
2D4
330
2D1
100
AcDbEntity
  8
001
370
    50
100
AcDbVertex
100
AcDb2dVertex
 10
70.286597
 20
56.550063
 30
0.0
  0
VERTEX
  5
2D5
330
2D1
100
AcDbEntity
  8
001
370
    50
100
AcDbVertex
100
AcDb2dVertex
 10
70.045393
 20
56.45029
 30
0.0
  0
VERTEX
  5
2D6
330
2D1
100
AcDbEntity
  8
001
370
    50
100
AcDbVertex
100
AcDb2dVertex
 10
69.807509
 20
56.340904
 30
0.0
  0
VERTEX
  5
2D7
330
2D1
100
AcDbEntity
  8
001
370
    50
100
AcDbVertex
100
AcDb2dVertex
 10
69.573705
 20
56.222773
 30
0.0
  0
VERTEX
  5
2D8
330
2D1
100
AcDbEntity
  8
001
370
    50
100
AcDbVertex
100
AcDb2dVertex
 10
69.338872
 20
56.094295
 30
0.0
  0
VERTEX
  5
2D9
330
2D1
100
AcDbEntity
  8
001
370
    50
100
AcDbVertex
100
AcDb2dVertex
 10
69.109175
 20
55.957078
 30
0.0
  0
VERTEX
  5
2DA
330
2D1
100
AcDbEntity
  8
001
370
    50
100
AcDbVertex
100
AcDb2dVertex
 10
68.946905
 20
55.852307
 30
0.0
  0
VERTEX
  5
2DB
330
2D1
100
AcDbEntity
  8
001
370
    50
100
AcDbVertex
100
AcDb2dVertex
 10
68.78631
 20
55.744886
 30
0.0
  0
SEQEND
  5
2D2
330
2D1
100
AcDbEntity
  8
001
370
    50
  0
POLYLINE
  5
2DC
330
1F
100
AcDbEntity
  8
001
370
    50
100
AcDb2dPolyline
 66
     1
 10
0.0
 20
0.0
 30
0.0
  0
VERTEX
  5
2DE
330
2DC
100
AcDbEntity
  8
001
370
    50
100
AcDbVertex
100
AcDb2dVertex
 10
68.571575
 20
78.347908
 30
0.0
  0
VERTEX
  5
2DF
330
2DC
100
AcDbEntity
  8
001
370
    50
100
AcDbVertex
100
AcDb2dVertex
 10
68.874441
 20
78.195175
 30
0.0
  0
VERTEX
  5
2E0
330
2DC
100
AcDbEntity
  8
001
370
    50
100
AcDbVertex
100
AcDb2dVertex
 10
69.1825
 20
78.054415
 30
0.0
  0
VERTEX
  5
2E1
330
2DC
100
AcDbEntity
  8
001
370
    50
100
AcDbVertex
100
AcDb2dVertex
 10
69.494881
 20
77.936466
 30
0.0
  0
VERTEX
  5
2E2
330
2DC
100
AcDbEntity
  8
001
370
    50
100
AcDbVertex
100
AcDb2dVertex
 10
69.814267
 20
77.837634
 30
0.0
  0
VERTEX
  5
2E3
330
2DC
100
AcDbEntity
  8
001
370
    50
100
AcDbVertex
100
AcDb2dVertex
 10
70.10444
 20
77.762664
 30
0.0
  0
VERTEX
  5
2E4
330
2DC
100
AcDbEntity
  8
001
370
    50
100
AcDbVertex
100
AcDb2dVertex
 10
70.397564
 20
77.70153
 30
0.0
  0
VERTEX
  5
2E5
330
2DC
100
AcDbEntity
  8
001
370
    50
100
AcDbVertex
100
AcDb2dVertex
 10
70.683971
 20
77.655694
 30
0.0
  0
VERTEX
  5
2E6
330
2DC
100
AcDbEntity
  8
001
370
    50
100
AcDbVertex
100
AcDb2dVertex
 10
70.971666
 20
77.61719
 30
0.0
  0
SEQEND
  5
2DD
330
2DC
100
AcDbEntity
  8
001
370
    50
  0
POLYLINE
  5
2E7
330
1F
100
AcDbEntity
  8
001
370
    50
100
AcDb2dPolyline
 66
     1
 10
0.0
 20
0.0
 30
0.0
  0
VERTEX
  5
2E9
330
2E7
100
AcDbEntity
  8
001
370
    50
100
AcDbVertex
100
AcDb2dVertex
 10
70.530027
 20
56.644619
 30
0.0
  0
VERTEX
  5
2EA
330
2E7
100
AcDbEntity
  8
001
370
    50
100
AcDbVertex
100
AcDb2dVertex
 10
70.632324
 20
56.680542
 30
0.0
  0
VERTEX
  5
2EB
330
2E7
100
AcDbEntity
  8
001
370
    50
100
AcDbVertex
100
AcDb2dVertex
 10
70.735031
 20
56.715201
 30
0.0
  0
VERTEX
  5
2EC
330
2E7
100
AcDbEntity
  8
001
370
    50
100
AcDbVertex
100
AcDb2dVertex
 10
70.853081
 20
56.752178
 30
0.0
  0
VERTEX
  5
2ED
330
2E7
100
AcDbEntity
  8
001
370
    50
100
AcDbVertex
100
AcDb2dVertex
 10
70.971666
 20
56.787508
 30
0.0
  0
SEQEND
  5
2E8
330
2E7
100
AcDbEntity
  8
001
370
    50
  0
ARC
  5
2EE
330
1F
100
AcDbEntity
  8
001
  6
DASHED
370
    30
100
AcDbCircle
 10
57.859933
 20
68.445899
 30
0.0
 40
2.000000000000001
100
AcDbArc
 50
0.0
 51
45.0
  0
ARC
  5
2EF
330
1F
100
AcDbEntity
  8
001
  6
DASHED
370
    30
100
AcDbCircle
 10
57.859933
 20
66.102753
 30
0.0
 40
2.000000000000001
100
AcDbArc
 50
315.0
 51
0.0
  0
LINE
  5
2F0
330
1F
100
AcDbEntity
  8
001
  6
DASHED
370
    30
100
AcDbLine
 10
59.859933
 20
68.445899
 30
0.0
 11
59.859933
 21
66.102753
 31
0.0
  0
POLYLINE
  5
2F1
330
1F
100
AcDbEntity
  8
001
370
    50
100
AcDb2dPolyline
 66
     1
 10
0.0
 20
0.0
 30
0.0
  0
VERTEX
  5
2F3
330
2F1
100
AcDbEntity
  8
001
370
    50
100
AcDbVertex
100
AcDb2dVertex
 10
68.78631
 20
55.744886
 30
0.0
  0
VERTEX
  5
2F4
330
2F1
100
AcDbEntity
  8
001
370
    50
100
AcDbVertex
100
AcDb2dVertex
 10
68.724692
 20
55.701318
 30
0.0
  0
VERTEX
  5
2F5
330
2F1
100
AcDbEntity
  8
001
370
    50
100
AcDbVertex
100
AcDb2dVertex
 10
68.663297
 20
55.657426
 30
0.0
  0
VERTEX
  5
2F6
330
2F1
100
AcDbEntity
  8
001
370
    50
100
AcDbVertex
100
AcDb2dVertex
 10
68.446679
 20
55.494593
 30
0.0
  0
VERTEX
  5
2F7
330
2F1
100
AcDbEntity
  8
001
370
    50
100
AcDbVertex
100
AcDb2dVertex
 10
68.237195
 20
55.322752
 30
0.0
  0
VERTEX
  5
2F8
330
2F1
100
AcDbEntity
  8
001
370
    50
100
AcDbVertex
100
AcDb2dVertex
 10
68.033252
 20
55.140295
 30
0.0
  0
VERTEX
  5
2F9
330
2F1
100
AcDbEntity
  8
001
370
    50
100
AcDbVertex
100
AcDb2dVertex
 10
67.833652
 20
54.952923
 30
0.0
  0
SEQEND
  5
2F2
330
2F1
100
AcDbEntity
  8
001
370
    50
  0
ARC
  5
2FA
330
1F
100
AcDbEntity
  8
001
370
    50
100
AcDbCircle
 10
72.7834
 20
49.998298
 30
0.0
 40
7.0
100
AcDbArc
 50
124.822697
 51
135.0
  0
POLYLINE
  5
2FB
330
1F
100
AcDbEntity
  8
001
370
    50
100
AcDb2dPolyline
 66
     1
 10
0.0
 20
0.0
 30
0.0
  0
VERTEX
  5
2FD
330
2FB
100
AcDbEntity
  8
001
370
    50
100
AcDbVertex
100
AcDb2dVertex
 10
67.833652
 20
78.827897
 30
0.0
  0
VERTEX
  5
2FE
330
2FB
100
AcDbEntity
  8
001
370
    50
100
AcDbVertex
100
AcDb2dVertex
 10
68.010938
 20
78.700271
 30
0.0
  0
VERTEX
  5
2FF
330
2FB
100
AcDbEntity
  8
001
370
    50
100
AcDbVertex
100
AcDb2dVertex
 10
68.191257
 20
78.577304
 30
0.0
  0
VERTEX
  5
300
330
2FB
100
AcDbEntity
  8
001
370
    50
100
AcDbVertex
100
AcDb2dVertex
 10
68.379847
 20
78.460196
 30
0.0
  0
VERTEX
  5
301
330
2FB
100
AcDbEntity
  8
001
370
    50
100
AcDbVertex
100
AcDb2dVertex
 10
68.571575
 20
78.347908
 30
0.0
  0
SEQEND
  5
2FC
330
2FB
100
AcDbEntity
  8
001
370
    50
  0
LINE
  5
302
330
1F
100
AcDbEntity
  8
001
370
    50
100
AcDbLine
 10
55.130965
 20
79.949902
 30
0.0
 11
56.187247
 21
81.020087
 31
0.0
  0
LINE
  5
303
330
1F
100
AcDbEntity
  8
001
370
    50
100
AcDbLine
 10
56.70201
 20
81.540484
 30
0.0
 11
58.179094
 21
83.030291
 31
0.0
  0
POLYLINE
  5
304
330
1F
100
AcDbEntity
  8
001
370
    50
100
AcDb2dPolyline
 66
     1
 10
0.0
 20
0.0
 30
0.0
  0
VERTEX
  5
306
330
304
100
AcDbEntity
  8
001
370
    50
100
AcDbVertex
100
AcDb2dVertex
 10
58.179094
 20
83.030291
 30
0.0
  0
VERTEX
  5
307
330
304
100
AcDbEntity
  8
001
370
    50
100
AcDbVertex
100
AcDb2dVertex
 10
58.206825
 20
83.056875
 30
0.0
  0
VERTEX
  5
308
330
304
100
AcDbEntity
  8
001
370
    50
100
AcDbVertex
100
AcDb2dVertex
 10
58.235038
 20
83.082948
 30
0.0
  0
VERTEX
  5
309
330
304
100
AcDbEntity
  8
001
370
    50
100
AcDbVertex
100
AcDb2dVertex
 10
58.365947
 20
83.183657
 30
0.0
  0
VERTEX
  5
30A
330
304
100
AcDbEntity
  8
001
370
    50
100
AcDbVertex
100
AcDb2dVertex
 10
58.509717
 20
83.265547
 30
0.0
  0
VERTEX
  5
30B
330
304
100
AcDbEntity
  8
001
370
    50
100
AcDbVertex
100
AcDb2dVertex
 10
58.588043
 20
83.300707
 30
0.0
  0
VERTEX
  5
30C
330
304
100
AcDbEntity
  8
001
370
    50
100
AcDbVertex
100
AcDb2dVertex
 10
58.66837
 20
83.330822
 30
0.0
  0
VERTEX
  5
30D
330
304
100
AcDbEntity
  8
001
370
    50
100
AcDbVertex
100
AcDb2dVertex
 10
58.749987
 20
83.35565
 30
0.0
  0
VERTEX
  5
30E
330
304
100
AcDbEntity
  8
001
370
    50
100
AcDbVertex
100
AcDb2dVertex
 10
58.833096
 20
83.374706
 30
0.0
  0
VERTEX
  5
30F
330
304
100
AcDbEntity
  8
001
370
    50
100
AcDbVertex
100
AcDb2dVertex
 10
58.870522
 20
83.381241
 30
0.0
  0
VERTEX
  5
310
330
304
100
AcDbEntity
  8
001
370
    50
100
AcDbVertex
100
AcDb2dVertex
 10
58.908062
 20
83.38712
 30
0.0
  0
SEQEND
  5
305
330
304
100
AcDbEntity
  8
001
370
    50
  0
POLYLINE
  5
311
330
1F
100
AcDbEntity
  8
001
370
    50
100
AcDb2dPolyline
 66
     1
 10
0.0
 20
0.0
 30
0.0
  0
VERTEX
  5
313
330
311
100
AcDbEntity
  8
001
370
    50
100
AcDbVertex
100
AcDb2dVertex
 10
60.64572
 20
83.61727
 30
0.0
  0
VERTEX
  5
314
330
311
100
AcDbEntity
  8
001
370
    50
100
AcDbVertex
100
AcDb2dVertex
 10
60.292849
 20
83.57117
 30
0.0
  0
VERTEX
  5
315
330
311
100
AcDbEntity
  8
001
370
    50
100
AcDbVertex
100
AcDb2dVertex
 10
59.777187
 20
83.503254
 30
0.0
  0
VERTEX
  5
316
330
311
100
AcDbEntity
  8
001
370
    50
100
AcDbVertex
100
AcDb2dVertex
 10
59.261115
 20
83.434519
 30
0.0
  0
VERTEX
  5
317
330
311
100
AcDbEntity
  8
001
370
    50
100
AcDbVertex
100
AcDb2dVertex
 10
58.908062
 20
83.38712
 30
0.0
  0
SEQEND
  5
312
330
311
100
AcDbEntity
  8
001
370
    50
  0
POLYLINE
  5
318
330
1F
100
AcDbEntity
  8
001
370
    50
100
AcDb2dPolyline
 66
     1
 10
0.0
 20
0.0
 30
0.0
  0
VERTEX
  5
31A
330
318
100
AcDbEntity
  8
001
370
    50
100
AcDbVertex
100
AcDb2dVertex
 10
60.64572
 20
83.61727
 30
0.0
  0
VERTEX
  5
31B
330
318
100
AcDbEntity
  8
001
370
    50
100
AcDbVertex
100
AcDb2dVertex
 10
60.730821
 20
83.624291
 30
0.0
  0
VERTEX
  5
31C
330
318
100
AcDbEntity
  8
001
370
    50
100
AcDbVertex
100
AcDb2dVertex
 10
60.816011
 20
83.627423
 30
0.0
  0
VERTEX
  5
31D
330
318
100
AcDbEntity
  8
001
370
    50
100
AcDbVertex
100
AcDb2dVertex
 10
60.901166
 20
83.623538
 30
0.0
  0
VERTEX
  5
31E
330
318
100
AcDbEntity
  8
001
370
    50
100
AcDbVertex
100
AcDb2dVertex
 10
60.98579
 20
83.612536
 30
0.0
  0
VERTEX
  5
31F
330
318
100
AcDbEntity
  8
001
370
    50
100
AcDbVertex
100
AcDb2dVertex
 10
61.064086
 20
83.596189
 30
0.0
  0
VERTEX
  5
320
330
318
100
AcDbEntity
  8
001
370
    50
100
AcDbVertex
100
AcDb2dVertex
 10
61.140901
 20
83.573865
 30
0.0
  0
VERTEX
  5
321
330
318
100
AcDbEntity
  8
001
370
    50
100
AcDbVertex
100
AcDb2dVertex
 10
61.214893
 20
83.545519
 30
0.0
  0
VERTEX
  5
322
330
318
100
AcDbEntity
  8
001
370
    50
100
AcDbVertex
100
AcDb2dVertex
 10
61.285682
 20
83.510206
 30
0.0
  0
VERTEX
  5
323
330
318
100
AcDbEntity
  8
001
370
    50
100
AcDbVertex
100
AcDb2dVertex
 10
61.31954
 20
83.489875
 30
0.0
  0
VERTEX
  5
324
330
318
100
AcDbEntity
  8
001
370
    50
100
AcDbVertex
100
AcDb2dVertex
 10
61.352826
 20
83.46857
 30
0.0
  0
SEQEND
  5
319
330
318
100
AcDbEntity
  8
001
370
    50
  0
POLYLINE
  5
325
330
1F
100
AcDbEntity
  8
001
370
    50
100
AcDb2dPolyline
 66
     1
 10
0.0
 20
0.0
 30
0.0
  0
VERTEX
  5
327
330
325
100
AcDbEntity
  8
001
370
    50
100
AcDbVertex
100
AcDb2dVertex
 10
61.352826
 20
83.46857
 30
0.0
  0
VERTEX
  5
328
330
325
100
AcDbEntity
  8
001
370
    50
100
AcDbVertex
100
AcDb2dVertex
 10
62.990162
 20
82.326659
 30
0.0
  0
VERTEX
  5
329
330
325
100
AcDbEntity
  8
001
370
    50
100
AcDbVertex
100
AcDb2dVertex
 10
64.621621
 20
81.176405
 30
0.0
  0
VERTEX
  5
32A
330
325
100
AcDbEntity
  8
001
370
    50
100
AcDbVertex
100
AcDb2dVertex
 10
65.431472
 20
80.596754
 30
0.0
  0
VERTEX
  5
32B
330
325
100
AcDbEntity
  8
001
370
    50
100
AcDbVertex
100
AcDb2dVertex
 10
66.237285
 20
80.011523
 30
0.0
  0
VERTEX
  5
32C
330
325
100
AcDbEntity
  8
001
370
    50
100
AcDbVertex
100
AcDb2dVertex
 10
67.03675
 20
79.421454
 30
0.0
  0
VERTEX
  5
32D
330
325
100
AcDbEntity
  8
001
370
    50
100
AcDbVertex
100
AcDb2dVertex
 10
67.833652
 20
78.827897
 30
0.0
  0
SEQEND
  5
326
330
325
100
AcDbEntity
  8
001
370
    50
  0
POLYLINE
  5
32E
330
1F
100
AcDbEntity
  8
001
370
    50
100
AcDb2dPolyline
 66
     1
 10
0.0
 20
0.0
 30
0.0
  0
VERTEX
  5
330
330
32E
100
AcDbEntity
  8
001
370
    50
100
AcDbVertex
100
AcDb2dVertex
 10
54.859933
 20
65.867572
 30
0.0
  0
VERTEX
  5
331
330
32E
100
AcDbEntity
  8
001
370
    50
100
AcDbVertex
100
AcDb2dVertex
 10
54.868814
 20
65.763591
 30
0.0
  0
VERTEX
  5
332
330
32E
100
AcDbEntity
  8
001
370
    50
100
AcDbVertex
100
AcDb2dVertex
 10
54.887109
 20
65.661561
 30
0.0
  0
VERTEX
  5
333
330
32E
100
AcDbEntity
  8
001
370
    50
100
AcDbVertex
100
AcDb2dVertex
 10
54.921861
 20
65.56435
 30
0.0
  0
VERTEX
  5
334
330
32E
100
AcDbEntity
  8
001
370
    50
100
AcDbVertex
100
AcDb2dVertex
 10
54.97246
 20
65.473888
 30
0.0
  0
VERTEX
  5
335
330
32E
100
AcDbEntity
  8
001
370
    50
100
AcDbVertex
100
AcDb2dVertex
 10
55.027351
 20
65.402753
 30
0.0
  0
VERTEX
  5
336
330
32E
100
AcDbEntity
  8
001
370
    50
100
AcDbVertex
100
AcDb2dVertex
 10
55.091069
 20
65.339476
 30
0.0
  0
VERTEX
  5
337
330
32E
100
AcDbEntity
  8
001
370
    50
100
AcDbVertex
100
AcDb2dVertex
 10
55.172237
 20
65.278228
 30
0.0
  0
VERTEX
  5
338
330
32E
100
AcDbEntity
  8
001
370
    50
100
AcDbVertex
100
AcDb2dVertex
 10
55.261135
 20
65.229274
 30
0.0
  0
VERTEX
  5
339
330
32E
100
AcDbEntity
  8
001
370
    50
100
AcDbVertex
100
AcDb2dVertex
 10
55.352122
 20
65.193837
 30
0.0
  0
VERTEX
  5
33A
330
32E
100
AcDbEntity
  8
001
370
    50
100
AcDbVertex
100
AcDb2dVertex
 10
55.44572
 20
65.164839
 30
0.0
  0
SEQEND
  5
32F
330
32E
100
AcDbEntity
  8
001
370
    50
  0
POLYLINE
  5
33B
330
1F
100
AcDbEntity
  8
001
370
    50
100
AcDb2dPolyline
 66
     1
 10
0.0
 20
0.0
 30
0.0
  0
VERTEX
  5
33D
330
33B
100
AcDbEntity
  8
001
370
    50
100
AcDbVertex
100
AcDb2dVertex
 10
59.078225
 20
81.031984
 30
0.0
  0
VERTEX
  5
33E
330
33B
100
AcDbEntity
  8
001
370
    50
100
AcDbVertex
100
AcDb2dVertex
 10
59.030589
 20
81.128405
 30
0.0
  0
VERTEX
  5
33F
330
33B
100
AcDbEntity
  8
001
370
    50
100
AcDbVertex
100
AcDb2dVertex
 10
58.95576
 20
81.256045
 30
0.0
  0
VERTEX
  5
340
330
33B
100
AcDbEntity
  8
001
370
    50
100
AcDbVertex
100
AcDb2dVertex
 10
58.87528
 20
81.363525
 30
0.0
  0
VERTEX
  5
341
330
33B
100
AcDbEntity
  8
001
370
    50
100
AcDbVertex
100
AcDb2dVertex
 10
58.789214
 20
81.452462
 30
0.0
  0
VERTEX
  5
342
330
33B
100
AcDbEntity
  8
001
370
    50
100
AcDbVertex
100
AcDb2dVertex
 10
58.691073
 20
81.537329
 30
0.0
  0
VERTEX
  5
343
330
33B
100
AcDbEntity
  8
001
370
    50
100
AcDbVertex
100
AcDb2dVertex
 10
58.583852
 20
81.615024
 30
0.0
  0
VERTEX
  5
344
330
33B
100
AcDbEntity
  8
001
370
    50
100
AcDbVertex
100
AcDb2dVertex
 10
58.467713
 20
81.682709
 30
0.0
  0
VERTEX
  5
345
330
33B
100
AcDbEntity
  8
001
370
    50
100
AcDbVertex
100
AcDb2dVertex
 10
58.346168
 20
81.738591
 30
0.0
  0
VERTEX
  5
346
330
33B
100
AcDbEntity
  8
001
370
    50
100
AcDbVertex
100
AcDb2dVertex
 10
58.216779
 20
81.784633
 30
0.0
  0
VERTEX
  5
347
330
33B
100
AcDbEntity
  8
001
370
    50
100
AcDbVertex
100
AcDb2dVertex
 10
58.083679
 20
81.819255
 30
0.0
  0
VERTEX
  5
348
330
33B
100
AcDbEntity
  8
001
370
    50
100
AcDbVertex
100
AcDb2dVertex
 10
57.94482
 20
81.84271
 30
0.0
  0
VERTEX
  5
349
330
33B
100
AcDbEntity
  8
001
370
    50
100
AcDbVertex
100
AcDb2dVertex
 10
57.804684
 20
81.854466
 30
0.0
  0
VERTEX
  5
34A
330
33B
100
AcDbEntity
  8
001
370
    50
100
AcDbVertex
100
AcDb2dVertex
 10
57.661479
 20
81.854827
 30
0.0
  0
VERTEX
  5
34B
330
33B
100
AcDbEntity
  8
001
370
    50
100
AcDbVertex
100
AcDb2dVertex
 10
57.518005
 20
81.843111
 30
0.0
  0
VERTEX
  5
34C
330
33B
100
AcDbEntity
  8
001
370
    50
100
AcDbVertex
100
AcDb2dVertex
 10
57.372849
 20
81.819033
 30
0.0
  0
VERTEX
  5
34D
330
33B
100
AcDbEntity
  8
001
370
    50
100
AcDbVertex
100
AcDb2dVertex
 10
57.232707
 20
81.785548
 30
0.0
  0
VERTEX
  5
34E
330
33B
100
AcDbEntity
  8
001
370
    50
100
AcDbVertex
100
AcDb2dVertex
 10
57.098467
 20
81.743362
 30
0.0
  0
VERTEX
  5
34F
330
33B
100
AcDbEntity
  8
001
370
    50
100
AcDbVertex
100
AcDb2dVertex
 10
56.957811
 20
81.683598
 30
0.0
  0
VERTEX
  5
350
330
33B
100
AcDbEntity
  8
001
370
    50
100
AcDbVertex
100
AcDb2dVertex
 10
56.807765
 20
81.604097
 30
0.0
  0
VERTEX
  5
351
330
33B
100
AcDbEntity
  8
001
370
    50
100
AcDbVertex
100
AcDb2dVertex
 10
56.70201
 20
81.540484
 30
0.0
  0
SEQEND
  5
33C
330
33B
100
AcDbEntity
  8
001
370
    50
  0
POLYLINE
  5
352
330
1F
100
AcDbEntity
  8
001
370
    50
100
AcDb2dPolyline
 66
     1
 10
0.0
 20
0.0
 30
0.0
  0
VERTEX
  5
354
330
352
100
AcDbEntity
  8
001
370
    50
100
AcDbVertex
100
AcDb2dVertex
 10
56.70201
 20
81.540484
 30
0.0
  0
VERTEX
  5
355
330
352
100
AcDbEntity
  8
001
370
    50
100
AcDbVertex
100
AcDb2dVertex
 10
56.692023
 20
81.526997
 30
0.0
  0
VERTEX
  5
356
330
352
100
AcDbEntity
  8
001
370
    50
100
AcDbVertex
100
AcDb2dVertex
 10
56.682
 20
81.513537
 30
0.0
  0
VERTEX
  5
357
330
352
100
AcDbEntity
  8
001
370
    50
100
AcDbVertex
100
AcDb2dVertex
 10
56.628333
 20
81.443885
 30
0.0
  0
VERTEX
  5
358
330
352
100
AcDbEntity
  8
001
370
    50
100
AcDbVertex
100
AcDb2dVertex
 10
56.572637
 20
81.375855
 30
0.0
  0
VERTEX
  5
359
330
352
100
AcDbEntity
  8
001
370
    50
100
AcDbVertex
100
AcDb2dVertex
 10
56.51582
 20
81.310705
 30
0.0
  0
VERTEX
  5
35A
330
352
100
AcDbEntity
  8
001
370
    50
100
AcDbVertex
100
AcDb2dVertex
 10
56.456814
 20
81.247451
 30
0.0
  0
VERTEX
  5
35B
330
352
100
AcDbEntity
  8
001
370
    50
100
AcDbVertex
100
AcDb2dVertex
 10
56.358926
 20
81.152621
 30
0.0
  0
VERTEX
  5
35C
330
352
100
AcDbEntity
  8
001
370
    50
100
AcDbVertex
100
AcDb2dVertex
 10
56.253554
 20
81.066523
 30
0.0
  0
VERTEX
  5
35D
330
352
100
AcDbEntity
  8
001
370
    50
100
AcDbVertex
100
AcDb2dVertex
 10
56.220601
 20
81.043031
 30
0.0
  0
VERTEX
  5
35E
330
352
100
AcDbEntity
  8
001
370
    50
100
AcDbVertex
100
AcDb2dVertex
 10
56.187247
 20
81.020087
 30
0.0
  0
SEQEND
  5
353
330
352
100
AcDbEntity
  8
001
370
    50
  0
LINE
  5
35F
330
1F
100
AcDbEntity
  8
001
370
    50
100
AcDbLine
 10
67.833652
 20
54.952923
 30
0.0
 11
67.709315
 21
54.82992
 31
0.0
  0
LINE
  5
360
330
1F
100
AcDbEntity
  8
001
370
    50
100
AcDbLine
 10
54.859933
 20
68.851594
 30
0.0
 11
54.259933
 21
68.981723
 31
0.0
  0
LINE
  5
361
330
1F
100
AcDbEntity
  8
001
370
    50
100
AcDbLine
 10
54.859933
 20
72.939583
 30
0.0
 11
54.683062
 21
72.977943
 31
0.0
  0
LINE
  5
362
330
1F
100
AcDbEntity
  8
001
370
    50
100
AcDbLine
 10
54.671026
 20
74.251969
 30
0.0
 11
54.259933
 21
69.995936
 31
0.0
  0
LINE
  5
363
330
1F
100
AcDbEntity
  8
001
370
    50
100
AcDbLine
 10
54.859933
 20
75.214269
 30
0.0
 11
54.859933
 21
65.867572
 31
0.0
  0
POLYLINE
  5
364
330
1F
100
AcDbEntity
  8
001
370
    50
100
AcDb2dPolyline
 66
     1
 10
0.0
 20
0.0
 30
0.0
  0
VERTEX
  5
366
330
364
100
AcDbEntity
  8
001
370
    50
100
AcDbVertex
100
AcDb2dVertex
 10
54.932294
 20
79.668038
 30
0.0
  0
VERTEX
  5
367
330
364
100
AcDbEntity
  8
001
370
    50
100
AcDbVertex
100
AcDb2dVertex
 10
54.94982
 20
79.703377
 30
0.0
  0
VERTEX
  5
368
330
364
100
AcDbEntity
  8
001
370
    50
100
AcDbVertex
100
AcDb2dVertex
 10
54.968883
 20
79.737965
 30
0.0
  0
VERTEX
  5
369
330
364
100
AcDbEntity
  8
001
370
    50
100
AcDbVertex
100
AcDb2dVertex
 10
55.011488
 20
79.805893
 30
0.0
  0
VERTEX
  5
36A
330
364
100
AcDbEntity
  8
001
370
    50
100
AcDbVertex
100
AcDb2dVertex
 10
55.05941
 20
79.869889
 30
0.0
  0
VERTEX
  5
36B
330
364
100
AcDbEntity
  8
001
370
    50
100
AcDbVertex
100
AcDb2dVertex
 10
55.094536
 20
79.910431
 30
0.0
  0
VERTEX
  5
36C
330
364
100
AcDbEntity
  8
001
370
    50
100
AcDbVertex
100
AcDb2dVertex
 10
55.130965
 20
79.949902
 30
0.0
  0
SEQEND
  5
365
330
364
100
AcDbEntity
  8
001
370
    50
  0
POLYLINE
  5
36D
330
1F
100
AcDbEntity
  8
001
370
    50
100
AcDb2dPolyline
 66
     1
 10
0.0
 20
0.0
 30
0.0
  0
VERTEX
  5
36F
330
36D
100
AcDbEntity
  8
001
370
    50
100
AcDbVertex
100
AcDb2dVertex
 10
59.177259
 20
80.588692
 30
0.0
  0
VERTEX
  5
370
330
36D
100
AcDbEntity
  8
001
370
    50
100
AcDbVertex
100
AcDb2dVertex
 10
59.170919
 20
80.679711
 30
0.0
  0
VERTEX
  5
371
330
36D
100
AcDbEntity
  8
001
370
    50
100
AcDbVertex
100
AcDb2dVertex
 10
59.154578
 20
80.777799
 30
0.0
  0
VERTEX
  5
372
330
36D
100
AcDbEntity
  8
001
370
    50
100
AcDbVertex
100
AcDb2dVertex
 10
59.114927
 20
80.926396
 30
0.0
  0
VERTEX
  5
373
330
36D
100
AcDbEntity
  8
001
370
    50
100
AcDbVertex
100
AcDb2dVertex
 10
59.078225
 20
81.031984
 30
0.0
  0
SEQEND
  5
36E
330
36D
100
AcDbEntity
  8
001
370
    50
  0
POLYLINE
  5
374
330
1F
100
AcDbEntity
  8
001
370
    50
100
AcDb2dPolyline
 66
     1
 10
0.0
 20
0.0
 30
0.0
  0
VERTEX
  5
376
330
374
100
AcDbEntity
  8
001
370
    50
100
AcDbVertex
100
AcDb2dVertex
 10
56.187247
 20
81.020087
 30
0.0
  0
VERTEX
  5
377
330
374
100
AcDbEntity
  8
001
370
    50
100
AcDbVertex
100
AcDb2dVertex
 10
56.128653
 20
80.91692
 30
0.0
  0
VERTEX
  5
378
330
374
100
AcDbEntity
  8
001
370
    50
100
AcDbVertex
100
AcDb2dVertex
 10
56.057003
 20
80.770579
 30
0.0
  0
VERTEX
  5
379
330
374
100
AcDbEntity
  8
001
370
    50
100
AcDbVertex
100
AcDb2dVertex
 10
56.007091
 20
80.636901
 30
0.0
  0
VERTEX
  5
37A
330
374
100
AcDbEntity
  8
001
370
    50
100
AcDbVertex
100
AcDb2dVertex
 10
55.97587
 20
80.508381
 30
0.0
  0
VERTEX
  5
37B
330
374
100
AcDbEntity
  8
001
370
    50
100
AcDbVertex
100
AcDb2dVertex
 10
55.956104
 20
80.375746
 30
0.0
  0
VERTEX
  5
37C
330
374
100
AcDbEntity
  8
001
370
    50
100
AcDbVertex
100
AcDb2dVertex
 10
55.946496
 20
80.242052
 30
0.0
  0
VERTEX
  5
37D
330
374
100
AcDbEntity
  8
001
370
    50
100
AcDbVertex
100
AcDb2dVertex
 10
55.949157
 20
80.115459
 30
0.0
  0
VERTEX
  5
37E
330
374
100
AcDbEntity
  8
001
370
    50
100
AcDbVertex
100
AcDb2dVertex
 10
55.96984
 20
79.980284
 30
0.0
  0
VERTEX
  5
37F
330
374
100
AcDbEntity
  8
001
370
    50
100
AcDbVertex
100
AcDb2dVertex
 10
55.979585
 20
79.939194
 30
0.0
  0
VERTEX
  5
380
330
374
100
AcDbEntity
  8
001
370
    50
100
AcDbVertex
100
AcDb2dVertex
 10
55.990645
 20
79.897575
 30
0.0
  0
SEQEND
  5
375
330
374
100
AcDbEntity
  8
001
370
    50
  0
LINE
  5
381
330
1F
100
AcDbEntity
  8
001
370
    50
100
AcDbLine
 10
54.859933
 20
73.97749
 30
0.0
 11
54.683062
 21
74.127352
 31
0.0
  0
LINE
  5
382
330
1F
100
AcDbEntity
  8
001
370
    50
100
AcDbLine
 10
67.833652
 20
73.735309
 30
0.0
 11
67.792911
 21
73.768303
 31
0.0
  0
POLYLINE
  5
383
330
1F
100
AcDbEntity
  8
001
370
    50
100
AcDb2dPolyline
 66
     1
 10
0.0
 20
0.0
 30
0.0
  0
VERTEX
  5
385
330
383
100
AcDbEntity
  8
001
370
    50
100
AcDbVertex
100
AcDb2dVertex
 10
65.925737
 20
71.212833
 30
0.0
  0
VERTEX
  5
386
330
383
100
AcDbEntity
  8
001
370
    50
100
AcDbVertex
100
AcDb2dVertex
 10
66.16395
 20
71.553677
 30
0.0
  0
VERTEX
  5
387
330
383
100
AcDbEntity
  8
001
370
    50
100
AcDbVertex
100
AcDb2dVertex
 10
66.399631
 20
71.896247
 30
0.0
  0
VERTEX
  5
388
330
383
100
AcDbEntity
  8
001
370
    50
100
AcDbVertex
100
AcDb2dVertex
 10
66.624529
 20
72.232486
 30
0.0
  0
VERTEX
  5
389
330
383
100
AcDbEntity
  8
001
370
    50
100
AcDbVertex
100
AcDb2dVertex
 10
66.845051
 20
72.571647
 30
0.0
  0
VERTEX
  5
38A
330
383
100
AcDbEntity
  8
001
370
    50
100
AcDbVertex
100
AcDb2dVertex
 10
67.055043
 20
72.903717
 30
0.0
  0
VERTEX
  5
38B
330
383
100
AcDbEntity
  8
001
370
    50
100
AcDbVertex
100
AcDb2dVertex
 10
67.259412
 20
73.239224
 30
0.0
  0
VERTEX
  5
38C
330
383
100
AcDbEntity
  8
001
370
    50
100
AcDbVertex
100
AcDb2dVertex
 10
67.283675
 20
73.280109
 30
0.0
  0
VERTEX
  5
38D
330
383
100
AcDbEntity
  8
001
370
    50
100
AcDbVertex
100
AcDb2dVertex
 10
67.307835
 20
73.321055
 30
0.0
  0
SEQEND
  5
384
330
383
100
AcDbEntity
  8
001
370
    50
  0
LINE
  5
38E
330
1F
100
AcDbEntity
  8
001
370
    50
100
AcDbLine
 10
68.176029
 20
74.121545
 30
0.0
 11
65.459585
 21
71.616937
 31
0.0
  0
LINE
  5
38F
330
1F
100
AcDbEntity
  8
001
370
    50
100
AcDbLine
 10
64.743122
 20
72.236654
 30
0.0
 11
64.743122
 21
72.354989
 31
0.0
  0
LINE
  5
390
330
1F
100
AcDbEntity
  8
001
  6
DASHED
370
    30
100
AcDbLine
 10
55.44572
 20
73.68854
 30
0.0
 11
59.274147
 21
69.860113
 31
0.0
  0
ARC
  5
391
330
1F
100
AcDbEntity
  8
001
  6
DASHED
370
    30
100
AcDbCircle
 10
56.859933
 20
75.102753
 30
0.0
 40
2.0
100
AcDbArc
 50
180.0
 51
225.0
  0
LINE
  5
392
330
1F
100
AcDbEntity
  8
001
370
    50
100
AcDbLine
 10
81.259933
 20
61.274326
 30
0.0
 11
81.259933
 21
73.274326
 31
0.0
  0
ARC
  5
393
330
1F
100
AcDbEntity
  8
001
370
    50
100
AcDbCircle
 10
137.259933
 20
71.274326
 30
0.0
 40
2.0
100
AcDbArc
 50
0.0
 51
90.0
  0
ARC
  5
394
330
1F
100
AcDbEntity
  8
001
370
    50
100
AcDbCircle
 10
137.259933
 20
63.274326
 30
0.0
 40
2.0
100
AcDbArc
 50
270.0
 51
0.0
  0
LINE
  5
395
330
1F
100
AcDbEntity
  8
001
370
    50
100
AcDbLine
 10
139.259933
 20
67.274326
 30
0.0
 11
141.858009
 21
68.774326
 31
0.0
  0
LINE
  5
396
330
1F
100
AcDbEntity
  8
001
370
    50
100
AcDbLine
 10
139.259933
 20
67.274326
 30
0.0
 11
141.858009
 21
65.774326
 31
0.0
  0
LINE
  5
397
330
1F
100
AcDbEntity
  8
001
  6
CENTER
370
     9
100
AcDbLine
 10
52.482666
 20
67.274326
 30
0.0
 11
141.61141
 21
67.274326
 31
0.0
  0
LINE
  5
398
330
1F
100
AcDbEntity
  8
001
370
    50
100
AcDbLine
 10
81.259933
 20
72.774326
 30
0.0
 11
79.259933
 21
72.774326
 31
0.0
  0
LINE
  5
399
330
1F
100
AcDbEntity
  8
001
370
    50
100
AcDbLine
 10
79.259933
 20
61.774326
 30
0.0
 11
81.259933
 21
61.774326
 31
0.0
  0
LINE
  5
39A
330
1F
100
AcDbEntity
  8
001
370
    50
100
AcDbLine
 10
54.259933
 20
52.874326
 30
0.0
 11
54.259933
 21
51.674326
 31
0.0
  0
ARC
  5
39B
330
1F
100
AcDbEntity
  8
001
370
    50
100
AcDbCircle
 10
55.259933
 20
52.874326
 30
0.0
 40
1.0
100
AcDbArc
 50
132.919508
 51
180.0
  0
ARC
  5
39C
330
1F
100
AcDbEntity
  8
001
370
    50
100
AcDbCircle
 10
55.259933
 20
51.674326
 30
0.0
 40
1.0
100
AcDbArc
 50
180.0
 51
227.080492
  0
CIRCLE
  5
39D
330
1F
100
AcDbEntity
  8
001
370
    50
100
AcDbCircle
 10
61.217981
 20
52.274326
 30
0.0
 40
3.0
  0
CIRCLE
  5
39E
330
1F
100
AcDbEntity
  8
001
370
    50
100
AcDbCircle
 10
61.217981
 20
52.274326
 30
0.0
 40
2.25
  0
LINE
  5
39F
330
1F
100
AcDbEntity
  8
001
370
    50
100
AcDbLine
 10
61.723162
 20
53.149326
 30
0.0
 11
61.477789
 21
53.574326
 31
0.0
  0
LINE
  5
3A0
330
1F
100
AcDbEntity
  8
001
370
    50
100
AcDbLine
 10
60.712799
 20
53.149326
 30
0.0
 11
60.958173
 21
53.574326
 31
0.0
  0
ARC
  5
3A1
330
1F
100
AcDbEntity
  8
001
370
    50
100
AcDbCircle
 10
61.217981
 20
53.424326
 30
0.0
 40
0.3
100
AcDbArc
 50
30.0
 51
150.0
  0
LINE
  5
3A2
330
1F
100
AcDbEntity
  8
001
370
    50
100
AcDbLine
 10
60.712799
 20
53.149326
 30
0.0
 11
60.222052
 21
53.149326
 31
0.0
  0
LINE
  5
3A3
330
1F
100
AcDbEntity
  8
001
370
    50
100
AcDbLine
 10
60.207618
 20
52.274326
 30
0.0
 11
59.962244
 21
52.699326
 31
0.0
  0
ARC
  5
3A4
330
1F
100
AcDbEntity
  8
001
370
    50
100
AcDbCircle
 10
60.222052
 20
52.849326
 30
0.0
 40
0.3
100
AcDbArc
 50
90.0
 51
210.0
  0
LINE
  5
3A5
330
1F
100
AcDbEntity
  8
001
370
    50
100
AcDbLine
 10
60.207618
 20
52.274326
 30
0.0
 11
59.962244
 21
51.849326
 31
0.0
  0
LINE
  5
3A6
330
1F
100
AcDbEntity
  8
001
370
    50
100
AcDbLine
 10
60.712799
 20
51.399326
 30
0.0
 11
60.222052
 21
51.399326
 31
0.0
  0
ARC
  5
3A7
330
1F
100
AcDbEntity
  8
001
370
    50
100
AcDbCircle
 10
60.222052
 20
51.699326
 30
0.0
 40
0.3
100
AcDbArc
 50
150.0
 51
270.0
  0
LINE
  5
3A8
330
1F
100
AcDbEntity
  8
001
370
    50
100
AcDbLine
 10
60.712799
 20
51.399326
 30
0.0
 11
60.958173
 21
50.974326
 31
0.0
  0
LINE
  5
3A9
330
1F
100
AcDbEntity
  8
001
370
    50
100
AcDbLine
 10
61.723162
 20
51.399326
 30
0.0
 11
61.477789
 21
50.974326
 31
0.0
  0
ARC
  5
3AA
330
1F
100
AcDbEntity
  8
001
370
    50
100
AcDbCircle
 10
61.217981
 20
51.124326
 30
0.0
 40
0.3
100
AcDbArc
 50
210.0
 51
330.0
  0
LINE
  5
3AB
330
1F
100
AcDbEntity
  8
001
370
    50
100
AcDbLine
 10
61.723162
 20
51.399326
 30
0.0
 11
62.21391
 21
51.399326
 31
0.0
  0
LINE
  5
3AC
330
1F
100
AcDbEntity
  8
001
370
    50
100
AcDbLine
 10
62.228344
 20
52.274326
 30
0.0
 11
62.473718
 21
51.849326
 31
0.0
  0
ARC
  5
3AD
330
1F
100
AcDbEntity
  8
001
370
    50
100
AcDbCircle
 10
62.21391
 20
51.699326
 30
0.0
 40
0.3
100
AcDbArc
 50
270.0
 51
30.0
  0
LINE
  5
3AE
330
1F
100
AcDbEntity
  8
001
370
    50
100
AcDbLine
 10
62.228344
 20
52.274326
 30
0.0
 11
62.473718
 21
52.699326
 31
0.0
  0
LINE
  5
3AF
330
1F
100
AcDbEntity
  8
001
370
    50
100
AcDbLine
 10
61.723162
 20
53.149326
 30
0.0
 11
62.21391
 21
53.149326
 31
0.0
  0
ARC
  5
3B0
330
1F
100
AcDbEntity
  8
001
370
    50
100
AcDbCircle
 10
62.21391
 20
52.849326
 30
0.0
 40
0.3
100
AcDbArc
 50
330.0
 51
90.0
  0
LINE
  5
3B1
330
1F
100
AcDbEntity
  8
001
370
    50
100
AcDbLine
 10
54.859933
 20
53.88854
 30
0.0
 11
54.859933
 21
61.308447
 31
0.0
  0
ARC
  5
3B2
330
1F
100
AcDbEntity
  8
001
370
    50
100
AcDbCircle
 10
60.653032
 20
46.659326
 30
0.0
 40
1.0
100
AcDbArc
 50
227.080492
 51
270.0
  0
LINE
  5
3B3
330
1F
100
AcDbEntity
  8
001
370
    50
100
AcDbLine
 10
61.782929
 20
58.889326
 30
0.0
 11
60.653032
 21
58.889326
 31
0.0
  0
LINE
  5
3B4
330
1F
100
AcDbEntity
  8
001
370
    50
100
AcDbLine
 10
54.578963
 20
53.606637
 30
0.0
 11
59.972062
 21
58.621637
 31
0.0
  0
ARC
  5
3B5
330
1F
100
AcDbEntity
  8
001
370
    50
100
AcDbCircle
 10
60.653032
 20
57.889326
 30
0.0
 40
1.0
100
AcDbArc
 50
90.0
 51
132.919508
  0
LINE
  5
3B6
330
1F
100
AcDbEntity
  8
001
370
    50
100
AcDbLine
 10
68.176029
 20
51.674326
 30
0.0
 11
68.176029
 21
52.874326
 31
0.0
  0
ARC
  5
3B7
330
1F
100
AcDbEntity
  8
001
370
    50
100
AcDbCircle
 10
67.176029
 20
52.874326
 30
0.0
 40
1.0
100
AcDbArc
 50
360.0
 51
45.0
  0
ARC
  5
3B8
330
1F
100
AcDbEntity
  8
001
370
    50
100
AcDbCircle
 10
67.176029
 20
51.674326
 30
0.0
 40
1.0
100
AcDbArc
 50
312.919508
 51
0.0
  0
LINE
  5
3B9
330
1F
100
AcDbEntity
  8
001
370
    50
100
AcDbLine
 10
62.4639
 20
45.927015
 30
0.0
 11
67.856999
 21
50.942015
 31
0.0
  0
LINE
  5
3BA
330
1F
100
AcDbEntity
  8
001
370
    50
100
AcDbLine
 10
62.4639
 20
58.621637
 30
0.0
 11
67.856999
 21
53.606637
 31
0.0
  0
ARC
  5
3BB
330
1F
100
AcDbEntity
  8
001
370
    50
100
AcDbCircle
 10
61.782929
 20
57.889326
 30
0.0
 40
1.0
100
AcDbArc
 50
47.080492
 51
90.0
  0
ARC
  5
3BC
330
1F
100
AcDbEntity
  8
001
370
    50
100
AcDbCircle
 10
61.782929
 20
46.659326
 30
0.0
 40
1.0
100
AcDbArc
 50
270.0
 51
312.919508
  0
ARC
  5
3BD
330
1F
100
AcDbEntity
  8
001
370
    50
100
AcDbCircle
 10
61.217981
 20
57.389326
 30
0.0
 40
2.5
100
AcDbArc
 50
1.53538
 51
178.46462
  0
LINE
  5
3BE
330
1F
100
AcDbEntity
  8
001
  6
PHANTOM
370
     9
100
AcDbLine
 10
59.972062
 20
45.927015
 30
0.0
 11
60.259933
 21
45.659326
 31
0.0
  0
LINE
  5
3BF
330
1F
100
AcDbEntity
  8
001
370
    50
100
AcDbLine
 10
59.972062
 20
45.927015
 30
0.0
 11
54.578963
 21
50.942015
 31
0.0
  0
LINE
  5
3C0
330
1F
100
AcDbEntity
  8
001
  6
PHANTOM
370
     9
100
AcDbLine
 10
60.653032
 20
45.659326
 30
0.0
 11
60.259933
 21
45.659326
 31
0.0
  0
LINE
  5
3C1
330
1F
100
AcDbEntity
  8
001
370
    50
100
AcDbLine
 10
60.653032
 20
45.659326
 30
0.0
 11
61.782929
 21
45.659326
 31
0.0
  0
LINE
  5
3C2
330
1F
100
AcDbEntity
  8
001
370
    50
100
AcDbLine
 10
67.149833
 20
54.264226
 30
0.0
 11
67.833652
 21
54.948045
 31
0.0
  0
ARC
  5
3C3
330
1F
100
AcDbEntity
  8
001
  6
PHANTOM
370
     9
100
AcDbCircle
 10
60.653032
 20
87.889326
 30
0.0
 40
1.0
100
AcDbArc
 50
90.0
 51
132.919508
  0
LINE
  5
3C4
330
1F
100
AcDbEntity
  8
001
  6
PHANTOM
370
     9
100
AcDbLine
 10
62.4639
 20
88.621637
 30
0.0
 11
67.856999
 21
83.606637
 31
0.0
  0
ARC
  5
3C5
330
1F
100
AcDbEntity
  8
001
  6
PHANTOM
370
     9
100
AcDbCircle
 10
61.782929
 20
87.889326
 30
0.0
 40
1.0
100
AcDbArc
 50
47.080492
 51
90.0
  0
LINE
  5
3C6
330
1F
100
AcDbEntity
  8
001
  6
PHANTOM
370
     9
100
AcDbLine
 10
59.972062
 20
88.621637
 30
0.0
 11
54.578963
 21
83.606637
 31
0.0
  0
LINE
  5
3C7
330
1F
100
AcDbEntity
  8
001
  6
PHANTOM
370
     9
100
AcDbLine
 10
60.653032
 20
88.889326
 30
0.0
 11
61.782929
 21
88.889326
 31
0.0
  0
LINE
  5
3C8
330
1F
100
AcDbEntity
  8
001
  6
PHANTOM
370
     9
100
AcDbLine
 10
54.259933
 20
81.674326
 30
0.0
 11
54.259933
 21
82.874326
 31
0.0
  0
ARC
  5
3C9
330
1F
100
AcDbEntity
  8
001
  6
PHANTOM
370
     9
100
AcDbCircle
 10
55.259933
 20
81.674326
 30
0.0
 40
1.0
100
AcDbArc
 50
180.0
 51
227.080492
  0
ARC
  5
3CA
330
1F
100
AcDbEntity
  8
001
  6
PHANTOM
370
     9
100
AcDbCircle
 10
55.259933
 20
82.874326
 30
0.0
 40
1.0
100
AcDbArc
 50
132.919508
 51
180.0
  0
LINE
  5
3CB
330
1F
100
AcDbEntity
  8
001
370
     9
100
AcDbLine
 10
52.482666
 20
82.274326
 30
0.0
 11
55.180224
 21
82.274326
 31
0.0
  0
LINE
  5
3CC
330
1F
100
AcDbEntity
  8
001
370
     9
100
AcDbLine
 10
52.482666
 20
52.274326
 30
0.0
 11
55.537052
 21
52.274326
 31
0.0
  0
ENDSEC
  0
SECTION
  2
OBJECTS
  0
DICTIONARY
  5
C
330
0
100
AcDbDictionary
281
     1
  3
ACAD_GROUP
350
D
  3
ACAD_LAYOUT
350
1A
  3
ACAD_MLEADERSTYLE
350
3D0
  3
ACAD_MLINESTYLE
350
17
  3
ACAD_PLOTSETTINGS
350
19
  3
ACAD_PLOTSTYLENAME
350
E
  3
ACAD_SCALELIST
350
3B
  3
ACAD_TABLESTYLE
350
3CF
  3
ACAD_VISUALSTYLE
350
2A
  3
AcDbVariableDictionary
350
3CD
  0
DICTIONARY
  5
D
102
{ACAD_REACTORS
330
C
102
}
330
C
100
AcDbDictionary
281
     1
  0
DICTIONARY
  5
1A
102
{ACAD_REACTORS
330
C
102
}
330
C
100
AcDbDictionary
281
     1
  3
Layout1
350
1E
  3
Layout2
350
26
  3
Model
350
22
  0
DICTIONARY
  5
3D0
102
{ACAD_REACTORS
330
C
102
}
330
C
100
AcDbDictionary
281
     1
  0
DICTIONARY
  5
17
102
{ACAD_REACTORS
330
C
102
}
330
C
100
AcDbDictionary
281
     1
  3
Standard
350
18
  0
DICTIONARY
  5
19
102
{ACAD_REACTORS
330
C
102
}
330
C
100
AcDbDictionary
281
     1
  0
ACDBDICTIONARYWDFLT
  5
E
102
{ACAD_REACTORS
330
C
102
}
330
C
100
AcDbDictionary
281
     1
  3
Normal
350
F
100
AcDbDictionaryWithDefault
340
F
  0
DICTIONARY
  5
3B
102
{ACAD_REACTORS
330
C
102
}
330
C
100
AcDbDictionary
281
     1
  3
A0
350
3C
  3
A1
350
3D
  3
A2
350
3E
  3
A3
350
3F
  3
A4
350
40
  3
A5
350
41
  3
A6
350
42
  3
A7
350
43
  3
A8
350
44
  3
A9
350
45
  3
B0
350
46
  3
B1
350
47
  3
B2
350
48
  3
B3
350
49
  3
B4
350
4A
  3
B5
350
4B
  3
B6
350
4C
  3
B7
350
4D
  3
B8
350
4E
  3
B9
350
4F
  3
C0
350
50
  3
C1
350
51
  3
C2
350
52
  3
C3
350
53
  3
C4
350
54
  3
C5
350
55
  3
C6
350
56
  3
C7
350
57
  3
C8
350
58
  3
C9
350
59
  3
D0
350
5A
  3
D1
350
5B
  3
D2
350
5C
  0
DICTIONARY
  5
3CF
102
{ACAD_REACTORS
330
C
102
}
330
C
100
AcDbDictionary
281
     1
  0
DICTIONARY
  5
2A
102
{ACAD_REACTORS
330
C
102
}
330
C
100
AcDbDictionary
281
     1
  3
2dWireframe
350
2F
  3
3D Hidden
350
31
  3
3dWireframe
350
30
  3
Basic
350
32
  3
Brighten
350
36
  3
ColorChange
350
3A
  3
Conceptual
350
34
  3
Dim
350
35
  3
Facepattern
350
39
  3
Flat
350
2B
  3
FlatWithEdges
350
2C
  3
Gouraud
350
2D
  3
GouraudWithEdges
350
2E
  3
Linepattern
350
38
  3
Realistic
350
33
  3
Thicken
350
37
  0
DICTIONARY
  5
3CD
102
{ACAD_REACTORS
330
C
102
}
330
C
100
AcDbDictionary
281
     1
  3
CANNOSCALE
350
3CE
  3
PSOLHEIGHT
350
3D2
  3
PSOLWIDTH
350
3D1
  0
LAYOUT
  5
1E
102
{ACAD_REACTORS
330
1A
102
}
330
1A
100
AcDbPlotSettings
  1

  2
none_device
  4

  6

 40
0.0
 41
0.0
 42
0.0
 43
0.0
 44
0.0
 45
0.0
 46
0.0
 47
0.0
 48
0.0
 49
0.0
140
0.0
141
0.0
142
1.0
143
1.0
 70
   688
 72
     0
 73
     0
 74
     5
  7

 75
    16
147
1.0
148
0.0
149
0.0
100
AcDbLayout
  1
Layout1
 70
     1
 71
     1
 10
0.0
 20
0.0
 11
12.0
 21
9.0
 12
0.0
 22
0.0
 32
0.0
 14
1.000000E+20
 24
1.000000E+20
 34
0.0
 15
-1.000000E+20
 25
-1.000000E+20
 35
0.0
146
0.0
 13
0.0
 23
0.0
 33
0.0
 16
1.0
 26
0.0
 36
0.0
 17
0.0
 27
1.0
 37
0.0
 76
     0
330
1B
  0
LAYOUT
  5
26
102
{ACAD_REACTORS
330
1A
102
}
330
1A
100
AcDbPlotSettings
  1

  2
none_device
  4

  6

 40
0.0
 41
0.0
 42
0.0
 43
0.0
 44
0.0
 45
0.0
 46
0.0
 47
0.0
 48
0.0
 49
0.0
140
0.0
141
0.0
142
1.0
143
1.0
 70
   688
 72
     0
 73
     0
 74
     5
  7

 75
    16
147
1.0
148
0.0
149
0.0
100
AcDbLayout
  1
Layout2
 70
     1
 71
     2
 10
0.0
 20
0.0
 11
0.0
 21
0.0
 12
0.0
 22
0.0
 32
0.0
 14
0.0
 24
0.0
 34
0.0
 15
0.0
 25
0.0
 35
0.0
146
0.0
 13
0.0
 23
0.0
 33
0.0
 16
1.0
 26
0.0
 36
0.0
 17
0.0
 27
1.0
 37
0.0
 76
     0
330
23
  0
LAYOUT
  5
22
102
{ACAD_REACTORS
330
1A
102
}
330
1A
100
AcDbPlotSettings
  1

  2
none_device
  4

  6

 40
0.0
 41
0.0
 42
0.0
 43
0.0
 44
0.0
 45
0.0
 46
0.0
 47
0.0
 48
0.0
 49
0.0
140
0.0
141
0.0
142
1.0
143
1.0
 70
  1712
 72
     0
 73
     0
 74
     0
  7

 75
     0
147
1.0
148
0.0
149
0.0
100
AcDbLayout
  1
Model
 70
     1
 71
     0
 10
0.0
 20
0.0
 11
12.0
 21
9.0
 12
0.0
 22
0.0
 32
0.0
 14
22.868637
 24
12.502876
 34
0.0
 15
172.868637
 25
115.000237
 35
0.0
146
0.0
 13
0.0
 23
0.0
 33
0.0
 16
1.0
 26
0.0
 36
0.0
 17
0.0
 27
1.0
 37
0.0
 76
     0
330
1F
331
29
  0
MLINESTYLE
  5
18
102
{ACAD_REACTORS
330
17
102
}
330
17
100
AcDbMlineStyle
  2
Standard
 70
     0
  3

 62
   256
 51
90.0
 52
90.0
 71
     2
 49
0.5
 62
   256
  6
BYLAYER
 49
-0.5
 62
   256
  6
BYLAYER
  0
ACDBPLACEHOLDER
  5
F
102
{ACAD_REACTORS
330
E
102
}
330
E
  0
SCALE
  5
3C
102
{ACAD_REACTORS
330
3B
102
}
330
3B
100
AcDbScale
 70
     0
300
1:1
140
1.0
141
1.0
290
     1
  0
SCALE
  5
3D
102
{ACAD_REACTORS
330
3B
102
}
330
3B
100
AcDbScale
 70
     0
300
1:2
140
1.0
141
2.0
290
     0
  0
SCALE
  5
3E
102
{ACAD_REACTORS
330
3B
102
}
330
3B
100
AcDbScale
 70
     0
300
1:4
140
1.0
141
4.0
290
     0
  0
SCALE
  5
3F
102
{ACAD_REACTORS
330
3B
102
}
330
3B
100
AcDbScale
 70
     0
300
1:5
140
1.0
141
5.0
290
     0
  0
SCALE
  5
40
102
{ACAD_REACTORS
330
3B
102
}
330
3B
100
AcDbScale
 70
     0
300
1:8
140
1.0
141
8.0
290
     0
  0
SCALE
  5
41
102
{ACAD_REACTORS
330
3B
102
}
330
3B
100
AcDbScale
 70
     0
300
1:10
140
1.0
141
10.0
290
     0
  0
SCALE
  5
42
102
{ACAD_REACTORS
330
3B
102
}
330
3B
100
AcDbScale
 70
     0
300
1:16
140
1.0
141
16.0
290
     0
  0
SCALE
  5
43
102
{ACAD_REACTORS
330
3B
102
}
330
3B
100
AcDbScale
 70
     0
300
1:20
140
1.0
141
20.0
290
     0
  0
SCALE
  5
44
102
{ACAD_REACTORS
330
3B
102
}
330
3B
100
AcDbScale
 70
     0
300
1:30
140
1.0
141
30.0
290
     0
  0
SCALE
  5
45
102
{ACAD_REACTORS
330
3B
102
}
330
3B
100
AcDbScale
 70
     0
300
1:40
140
1.0
141
40.0
290
     0
  0
SCALE
  5
46
102
{ACAD_REACTORS
330
3B
102
}
330
3B
100
AcDbScale
 70
     0
300
1:50
140
1.0
141
50.0
290
     0
  0
SCALE
  5
47
102
{ACAD_REACTORS
330
3B
102
}
330
3B
100
AcDbScale
 70
     0
300
1:100
140
1.0
141
100.0
290
     0
  0
SCALE
  5
48
102
{ACAD_REACTORS
330
3B
102
}
330
3B
100
AcDbScale
 70
     0
300
2:1
140
2.0
141
1.0
290
     0
  0
SCALE
  5
49
102
{ACAD_REACTORS
330
3B
102
}
330
3B
100
AcDbScale
 70
     0
300
4:1
140
4.0
141
1.0
290
     0
  0
SCALE
  5
4A
102
{ACAD_REACTORS
330
3B
102
}
330
3B
100
AcDbScale
 70
     0
300
8:1
140
8.0
141
1.0
290
     0
  0
SCALE
  5
4B
102
{ACAD_REACTORS
330
3B
102
}
330
3B
100
AcDbScale
 70
     0
300
10:1
140
10.0
141
1.0
290
     0
  0
SCALE
  5
4C
102
{ACAD_REACTORS
330
3B
102
}
330
3B
100
AcDbScale
 70
     0
300
100:1
140
100.0
141
1.0
290
     0
  0
SCALE
  5
4D
102
{ACAD_REACTORS
330
3B
102
}
330
3B
100
AcDbScale
 70
     0
300
1/128" = 1'-0"
140
0.007812
141
12.0
290
     0
  0
SCALE
  5
4E
102
{ACAD_REACTORS
330
3B
102
}
330
3B
100
AcDbScale
 70
     0
300
1/64" = 1'-0"
140
0.015625
141
12.0
290
     0
  0
SCALE
  5
4F
102
{ACAD_REACTORS
330
3B
102
}
330
3B
100
AcDbScale
 70
     0
300
1/32" = 1'-0"
140
0.03125
141
12.0
290
     0
  0
SCALE
  5
50
102
{ACAD_REACTORS
330
3B
102
}
330
3B
100
AcDbScale
 70
     0
300
1/16" = 1'-0"
140
0.0625
141
12.0
290
     0
  0
SCALE
  5
51
102
{ACAD_REACTORS
330
3B
102
}
330
3B
100
AcDbScale
 70
     0
300
3/32" = 1'-0"
140
0.09375
141
12.0
290
     0
  0
SCALE
  5
52
102
{ACAD_REACTORS
330
3B
102
}
330
3B
100
AcDbScale
 70
     0
300
1/8" = 1'-0"
140
0.125
141
12.0
290
     0
  0
SCALE
  5
53
102
{ACAD_REACTORS
330
3B
102
}
330
3B
100
AcDbScale
 70
     0
300
3/16" = 1'-0"
140
0.1875
141
12.0
290
     0
  0
SCALE
  5
54
102
{ACAD_REACTORS
330
3B
102
}
330
3B
100
AcDbScale
 70
     0
300
1/4" = 1'-0"
140
0.25
141
12.0
290
     0
  0
SCALE
  5
55
102
{ACAD_REACTORS
330
3B
102
}
330
3B
100
AcDbScale
 70
     0
300
3/8" = 1'-0"
140
0.375
141
12.0
290
     0
  0
SCALE
  5
56
102
{ACAD_REACTORS
330
3B
102
}
330
3B
100
AcDbScale
 70
     0
300
1/2" = 1'-0"
140
0.5
141
12.0
290
     0
  0
SCALE
  5
57
102
{ACAD_REACTORS
330
3B
102
}
330
3B
100
AcDbScale
 70
     0
300
3/4" = 1'-0"
140
0.75
141
12.0
290
     0
  0
SCALE
  5
58
102
{ACAD_REACTORS
330
3B
102
}
330
3B
100
AcDbScale
 70
     0
300
1" = 1'-0"
140
1.0
141
12.0
290
     0
  0
SCALE
  5
59
102
{ACAD_REACTORS
330
3B
102
}
330
3B
100
AcDbScale
 70
     0
300
1-1/2" = 1'-0"
140
1.5
141
12.0
290
     0
  0
SCALE
  5
5A
102
{ACAD_REACTORS
330
3B
102
}
330
3B
100
AcDbScale
 70
     0
300
3" = 1'-0"
140
3.0
141
12.0
290
     0
  0
SCALE
  5
5B
102
{ACAD_REACTORS
330
3B
102
}
330
3B
100
AcDbScale
 70
     0
300
6" = 1'-0"
140
6.0
141
12.0
290
     0
  0
SCALE
  5
5C
102
{ACAD_REACTORS
330
3B
102
}
330
3B
100
AcDbScale
 70
     0
300
1'-0" = 1'-0"
140
12.0
141
12.0
290
     0
  0
VISUALSTYLE
  5
2F
102
{ACAD_REACTORS
330
2A
102
}
330
2A
100
AcDbVisualStyle
  2
2dWireframe
 70
     4
 71
     0
 72
     2
 73
     0
 90
        0
 40
-0.6
 41
-30.0
 62
     5
 63
     7
 74
     1
 91
        4
 64
     7
 65
   257
 75
     1
175
     1
 42
1.0
 92
        0
 66
   257
 43
1.0
 76
     1
 77
     6
 78
     2
 67
     7
 79
     5
170
     0
171
     0
290
     0
174
     0
 93
        1
 44
0.0
173
     0
291
     0
 45
0.0
1001
ACAD
1000
AcDbSavedByObjectVersion
1070
     0
  0
VISUALSTYLE
  5
31
102
{ACAD_REACTORS
330
2A
102
}
330
2A
100
AcDbVisualStyle
  2
3D Hidden
 70
     6
 71
     1
 72
     2
 73
     2
 90
        0
 40
-0.6
 41
-30.0
 62
     5
 63
     7
 74
     2
 91
        2
 64
     7
 65
   257
 75
     2
175
     1
 42
40.0
 92
        0
 66
   257
 43
1.0
 76
     1
 77
     6
 78
     2
 67
     7
 79
     3
170
     0
171
     0
290
     0
174
     0
 93
        1
 44
0.0
173
     0
291
     0
 45
0.0
1001
ACAD
1000
AcDbSavedByObjectVersion
1070
     0
  0
VISUALSTYLE
  5
30
102
{ACAD_REACTORS
330
2A
102
}
330
2A
100
AcDbVisualStyle
  2
3dWireframe
 70
     5
 71
     0
 72
     2
 73
     0
 90
        0
 40
-0.6
 41
-30.0
 62
     5
 63
     7
 74
     1
 91
        4
 64
     7
 65
   257
 75
     1
175
     1
 42
1.0
 92
        0
 66
   257
 43
1.0
 76
     1
 77
     6
 78
     2
 67
     7
 79
     5
170
     0
171
     0
290
     0
174
     0
 93
        1
 44
0.0
173
     0
291
     0
 45
0.0
1001
ACAD
1000
AcDbSavedByObjectVersion
1070
     0
  0
VISUALSTYLE
  5
32
102
{ACAD_REACTORS
330
2A
102
}
330
2A
100
AcDbVisualStyle
  2
Basic
 70
     7
 71
     1
 72
     0
 73
     1
 90
        0
 40
-0.6
 41
-30.0
 62
     5
 63
     7
 74
     0
 91
        4
 64
     7
 65
   257
 75
     1
175
     1
 42
1.0
 92
        8
 66
     7
 43
1.0
 76
     1
 77
     6
 78
     2
 67
     7
 79
     5
170
     0
171
     0
290
     0
174
     0
 93
        1
 44
0.0
173
     0
291
     1
 45
0.0
1001
ACAD
1000
AcDbSavedByObjectVersion
1070
     0
  0
VISUALSTYLE
  5
36
102
{ACAD_REACTORS
330
2A
102
}
330
2A
100
AcDbVisualStyle
  2
Brighten
 70
    12
 71
     2
 72
     2
 73
     0
 90
        0
 40
-0.6
 41
-30.0
 62
     5
 63
     7
 74
     1
 91
        4
 64
     7
 65
   257
 75
     1
175
     1
 42
1.0
 92
        8
 66
     7
 43
1.0
 76
     1
 77
     6
 78
     2
 67
     7
 79
     5
170
     0
171
     0
290
     0
174
     0
 93
        1
 44
50.0
173
     0
291
     1
 45
0.0
1001
ACAD
1000
AcDbSavedByObjectVersion
1070
     0
  0
VISUALSTYLE
  5
3A
102
{ACAD_REACTORS
330
2A
102
}
330
2A
100
AcDbVisualStyle
  2
ColorChange
 70
    16
 71
     2
 72
     2
 73
     3
 90
        0
 40
-0.6
 41
-30.0
 62
     5
 63
     8
 74
     1
 91
        4
 64
     7
 65
   257
 75
     1
175
     1
 42
1.0
 92
        8
 66
     8
 43
1.0
 76
     1
 77
     6
 78
     2
 67
     7
 79
     5
170
     0
171
     0
290
     0
174
     0
 93
        1
 44
0.0
173
     0
291
     1
 45
0.0
1001
ACAD
1000
AcDbSavedByObjectVersion
1070
     0
  0
VISUALSTYLE
  5
34
102
{ACAD_REACTORS
330
2A
102
}
330
2A
100
AcDbVisualStyle
  2
Conceptual
 70
     9
 71
     3
 72
     2
 73
     0
 90
        0
 40
-0.6
 41
-30.0
 62
     5
 63
     7
 74
     2
 91
        2
 64
     7
 65
   257
 75
     1
175
     1
 42
40.0
 92
        8
 66
     7
 43
1.0
 76
     1
 77
     6
 78
     2
 67
     7
 79
     3
170
     0
171
     0
290
     0
174
     0
 93
        1
 44
0.0
173
     0
291
     0
 45
0.0
1001
ACAD
1000
AcDbSavedByObjectVersion
1070
     0
  0
VISUALSTYLE
  5
35
102
{ACAD_REACTORS
330
2A
102
}
330
2A
100
AcDbVisualStyle
  2
Dim
 70
    11
 71
     2
 72
     2
 73
     0
 90
        0
 40
-0.6
 41
-30.0
 62
     5
 63
     7
 74
     1
 91
        4
 64
     7
 65
   257
 75
     1
175
     1
 42
1.0
 92
        8
 66
     7
 43
1.0
 76
     1
 77
     6
 78
     2
 67
     7
 79
     5
170
     0
171
     0
290
     0
174
     0
 93
        1
 44
-50.0
173
     0
291
     1
 45
0.0
1001
ACAD
1000
AcDbSavedByObjectVersion
1070
     0
  0
VISUALSTYLE
  5
39
102
{ACAD_REACTORS
330
2A
102
}
330
2A
100
AcDbVisualStyle
  2
Facepattern
 70
    15
 71
     2
 72
     2
 73
     0
 90
        0
 40
-0.6
 41
-30.0
 62
     5
 63
     7
 74
     1
 91
        4
 64
     7
 65
   257
 75
     1
175
     1
 42
1.0
 92
        8
 66
     7
 43
1.0
 76
     1
 77
     6
 78
     2
 67
     7
 79
     5
170
     0
171
     0
290
     0
174
     0
 93
        1
 44
0.0
173
     0
291
     1
 45
0.0
1001
ACAD
1000
AcDbSavedByObjectVersion
1070
     0
  0
VISUALSTYLE
  5
2B
102
{ACAD_REACTORS
330
2A
102
}
330
2A
100
AcDbVisualStyle
  2
Flat
 70
     0
 71
     2
 72
     1
 73
     1
 90
        2
 40
-0.6
 41
30.0
 62
     5
 63
     7
 74
     0
 91
        4
 64
     7
 65
   257
 75
     1
175
     1
 42
1.0
 92
        8
 66
     7
 43
1.0
 76
     1
 77
     6
 78
     2
 67
     7
 79
     5
170
     0
171
     0
290
     0
174
     0
 93
       13
 44
0.0
173
     0
291
     1
 45
0.0
1001
ACAD
1000
AcDbSavedByObjectVersion
1070
     0
  0
VISUALSTYLE
  5
2C
102
{ACAD_REACTORS
330
2A
102
}
330
2A
100
AcDbVisualStyle
  2
FlatWithEdges
 70
     1
 71
     2
 72
     1
 73
     1
 90
        2
 40
-0.6
 41
30.0
 62
     5
 63
     7
 74
     1
 91
        4
 64
     7
 65
   257
 75
     1
175
     1
 42
1.0
 92
        0
 66
   257
 43
1.0
 76
     1
 77
     6
 78
     2
 67
     7
 79
     5
170
     0
171
     0
290
     0
174
     0
 93
       13
 44
0.0
173
     0
291
     1
 45
0.0
1001
ACAD
1000
AcDbSavedByObjectVersion
1070
     0
  0
VISUALSTYLE
  5
2D
102
{ACAD_REACTORS
330
2A
102
}
330
2A
100
AcDbVisualStyle
  2
Gouraud
 70
     2
 71
     2
 72
     2
 73
     1
 90
        2
 40
-0.6
 41
30.0
 62
     5
 63
     7
 74
     0
 91
        4
 64
     7
 65
   257
 75
     1
175
     1
 42
1.0
 92
        0
 66
     7
 43
1.0
 76
     1
 77
     6
 78
     2
 67
     7
 79
     5
170
     0
171
     0
290
     0
174
     0
 93
       13
 44
0.0
173
     0
291
     1
 45
0.0
1001
ACAD
1000
AcDbSavedByObjectVersion
1070
     0
  0
VISUALSTYLE
  5
2E
102
{ACAD_REACTORS
330
2A
102
}
330
2A
100
AcDbVisualStyle
  2
GouraudWithEdges
 70
     3
 71
     2
 72
     2
 73
     1
 90
        2
 40
-0.6
 41
30.0
 62
     5
 63
     7
 74
     1
 91
        4
 64
     7
 65
   257
 75
     1
175
     1
 42
1.0
 92
        0
 66
   257
 43
1.0
 76
     1
 77
     6
 78
     2
 67
     7
 79
     5
170
     0
171
     0
290
     0
174
     0
 93
       13
 44
0.0
173
     0
291
     1
 45
0.0
1001
ACAD
1000
AcDbSavedByObjectVersion
1070
     0
  0
VISUALSTYLE
  5
38
102
{ACAD_REACTORS
330
2A
102
}
330
2A
100
AcDbVisualStyle
  2
Linepattern
 70
    14
 71
     2
 72
     2
 73
     0
 90
        0
 40
-0.6
 41
-30.0
 62
     5
 63
     7
 74
     1
 91
        4
 64
     7
 65
   257
 75
     7
175
     7
 42
1.0
 92
        8
 66
     7
 43
1.0
 76
     1
 77
     6
 78
     2
 67
     7
 79
     5
170
     0
171
     0
290
     0
174
     0
 93
        1
 44
0.0
173
     0
291
     1
 45
0.0
1001
ACAD
1000
AcDbSavedByObjectVersion
1070
     0
  0
VISUALSTYLE
  5
33
102
{ACAD_REACTORS
330
2A
102
}
330
2A
100
AcDbVisualStyle
  2
Realistic
 70
     8
 71
     2
 72
     2
 73
     0
 90
        0
 40
-0.6
 41
-30.0
 62
     5
 63
     7
 74
     1
 91
        0
 64
     7
 65
   257
 75
     1
175
     1
 42
1.0
 92
        8
 66
     8
 43
1.0
 76
     1
 77
     6
 78
     2
 67
     7
 79
     5
170
     0
171
     0
290
     0
174
     0
 93
       13
 44
0.0
173
     0
291
     0
 45
0.0
1001
ACAD
1000
AcDbSavedByObjectVersion
1070
     0
  0
VISUALSTYLE
  5
37
102
{ACAD_REACTORS
330
2A
102
}
330
2A
100
AcDbVisualStyle
  2
Thicken
 70
    13
 71
     2
 72
     2
 73
     0
 90
        0
 40
-0.6
 41
-30.0
 62
     5
 63
     7
 74
     1
 91
        4
 64
     7
 65
   257
 75
     1
175
     1
 42
1.0
 92
       12
 66
     7
 43
1.0
 76
     1
 77
     6
 78
     2
 67
     7
 79
     5
170
     0
171
     0
290
     0
174
     0
 93
        1
 44
0.0
173
     0
291
     1
 45
0.0
1001
ACAD
1000
AcDbSavedByObjectVersion
1070
     0
  0
DICTIONARYVAR
  5
3CE
102
{ACAD_REACTORS
330
3CD
102
}
330
3CD
100
DictionaryVariables
280
     0
  1
1:1
  0
DICTIONARYVAR
  5
3D2
102
{ACAD_REACTORS
330
3CD
102
}
330
3CD
100
DictionaryVariables
280
     0
  1
80.000000
  0
DICTIONARYVAR
  5
3D1
102
{ACAD_REACTORS
330
3CD
102
}
330
3CD
100
DictionaryVariables
280
     0
  1
5.000000
  0
ENDSEC
  0
EOF
