  0
SECTION
  2
HEADER
  9
$ACADVER
  1
AC1015
  9
$ACADMAINTVER
 70
     6
  9
$DWGCODEPAGE
  3
ANSI_932
  9
$INSBASE
 10
0.0
 20
0.0
 30
0.0
  9
$EXTMIN
 10
93.812355
 20
21.327652
 30
0.0
  9
$EXTMAX
 10
268.916046
 20
500.275635
 30
0.0
  9
$LIMMIN
 10
0.0
 20
0.0
  9
$LIMMAX
 10
12.0
 20
9.0
  9
$ORTHOMODE
 70
     0
  9
$REGENMODE
 70
     1
  9
$FILLMODE
 70
     1
  9
$QTEXTMODE
 70
     0
  9
$MIRRTEXT
 70
     1
  9
$LTSCALE
 40
5.099534
  9
$ATTMODE
 70
     1
  9
$TEXTSIZE
 40
3.2
  9
$TRACEWID
 40
1.0
  9
$TEXTSTYLE
  7
Standard
  9
$CLAYER
  8
0
  9
$CELTYPE
  6
ByLayer
  9
$CECOLOR
 62
   256
  9
$CELTSCALE
 40
1.0
  9
$DISPSILH
 70
     0
  9
$DIMSCALE
 40
1.0
  9
$DIMASZ
 40
2.5
  9
$DIMEXO
 40
0.625
  9
$DIMDLI
 40
3.75
  9
$DIMRND
 40
0.0
  9
$DIMDLE
 40
0.0
  9
$DIMEXE
 40
1.25
  9
$DIMTP
 40
0.0
  9
$DIMTM
 40
0.0
  9
$DIMTXT
 40
2.5
  9
$DIMCEN
 40
0.09
  9
$DIMTSZ
 40
0.0
  9
$DIMTOL
 70
     0
  9
$DIMLIM
 70
     0
  9
$DIMTIH
 70
     0
  9
$DIMTOH
 70
     0
  9
$DIMSE1
 70
     0
  9
$DIMSE2
 70
     0
  9
$DIMTAD
 70
     0
  9
$DIMZIN
 70
     8
  9
$DIMBLK
  1

  9
$DIMASO
 70
     1
  9
$DIMSHO
 70
     0
  9
$DIMPOST
  1

  9
$DIMAPOST
  1

  9
$DIMALT
 70
     0
  9
$DIMALTD
 70
     3
  9
$DIMALTF
 40
0.03937
  9
$DIMLFAC
 40
1.0
  9
$DIMTOFL
 70
     1
  9
$DIMTVP
 40
0.0
  9
$DIMTIX
 70
     0
  9
$DIMSOXD
 70
     0
  9
$DIMSAH
 70
     0
  9
$DIMBLK1
  1

  9
$DIMBLK2
  1

  9
$DIMSTYLE
  2
ISO-25
  9
$DIMCLRD
 70
     0
  9
$DIMCLRE
 70
     0
  9
$DIMCLRT
 70
     0
  9
$DIMTFAC
 40
1.0
  9
$DIMGAP
 40
0.625
  9
$DIMJUST
 70
     0
  9
$DIMSD1
 70
     0
  9
$DIMSD2
 70
     0
  9
$DIMTOLJ
 70
     0
  9
$DIMTZIN
 70
     8
  9
$DIMALTZ
 70
     0
  9
$DIMALTTZ
 70
     0
  9
$DIMUPT
 70
     0
  9
$DIMDEC
 70
     2
  9
$DIMTDEC
 70
     2
  9
$DIMALTU
 70
     2
  9
$DIMALTTD
 70
     3
  9
$DIMTXSTY
  7
Standard
  9
$DIMAUNIT
 70
     0
  9
$DIMADEC
 70
     0
  9
$DIMALTRND
 40
0.0
  9
$DIMAZIN
 70
     0
  9
$DIMDSEP
 70
    44
  9
$DIMATFIT
 70
     3
  9
$DIMFRAC
 70
     0
  9
$DIMLDRBLK
  1

  9
$DIMLUNIT
 70
     2
  9
$DIMLWD
 70
    -2
  9
$DIMLWE
 70
    -2
  9
$DIMTMOVE
 70
     0
  9
$LUNITS
 70
     2
  9
$LUPREC
 70
     4
  9
$SKETCHINC
 40
1.0
  9
$FILLETRAD
 40
0.0
  9
$AUNITS
 70
     0
  9
$AUPREC
 70
     0
  9
$MENU
  1
.
  9
$ELEVATION
 40
0.0
  9
$PELEVATION
 40
0.0
  9
$THICKNESS
 40
0.0
  9
$LIMCHECK
 70
     0
  9
$CHAMFERA
 40
10.0
  9
$CHAMFERB
 40
10.0
  9
$CHAMFERC
 40
20.0
  9
$CHAMFERD
 40
0.0
  9
$SKPOLY
 70
     0
  9
$TDCREATE
 40
2454796.830248472
  9
$TDUCREATE
 40
2454796.455248472
  9
$TDUPDATE
 40
2454796.830248484
  9
$TDUUPDATE
 40
2454796.455248484
  9
$TDINDWG
 40
0.0000000116
  9
$TDUSRTIMER
 40
0.0000000116
  9
$USRTIMER
 70
     1
  9
$ANGBASE
 50
0.0
  9
$ANGDIR
 70
     0
  9
$PDMODE
 70
     0
  9
$PDSIZE
 40
0.0
  9
$PLINEWID
 40
0.0
  9
$SPLFRAME
 70
     0
  9
$SPLINETYPE
 70
     6
  9
$SPLINESEGS
 70
     8
  9
$HANDSEED
  5
6D4
  9
$SURFTAB1
 70
     6
  9
$SURFTAB2
 70
     6
  9
$SURFTYPE
 70
     6
  9
$SURFU
 70
     6
  9
$SURFV
 70
     6
  9
$UCSBASE
  2

  9
$UCSNAME
  2

  9
$UCSORG
 10
0.0
 20
0.0
 30
0.0
  9
$UCSXDIR
 10
1.0
 20
0.0
 30
0.0
  9
$UCSYDIR
 10
0.0
 20
1.0
 30
0.0
  9
$UCSORTHOREF
  2

  9
$UCSORTHOVIEW
 70
     0
  9
$UCSORGTOP
 10
0.0
 20
0.0
 30
0.0
  9
$UCSORGBOTTOM
 10
0.0
 20
0.0
 30
0.0
  9
$UCSORGLEFT
 10
0.0
 20
0.0
 30
0.0
  9
$UCSORGRIGHT
 10
0.0
 20
0.0
 30
0.0
  9
$UCSORGFRONT
 10
0.0
 20
0.0
 30
0.0
  9
$UCSORGBACK
 10
0.0
 20
0.0
 30
0.0
  9
$PUCSBASE
  2

  9
$PUCSNAME
  2

  9
$PUCSORG
 10
0.0
 20
0.0
 30
0.0
  9
$PUCSXDIR
 10
1.0
 20
0.0
 30
0.0
  9
$PUCSYDIR
 10
0.0
 20
1.0
 30
0.0
  9
$PUCSORTHOREF
  2

  9
$PUCSORTHOVIEW
 70
     0
  9
$PUCSORGTOP
 10
0.0
 20
0.0
 30
0.0
  9
$PUCSORGBOTTOM
 10
0.0
 20
0.0
 30
0.0
  9
$PUCSORGLEFT
 10
0.0
 20
0.0
 30
0.0
  9
$PUCSORGRIGHT
 10
0.0
 20
0.0
 30
0.0
  9
$PUCSORGFRONT
 10
0.0
 20
0.0
 30
0.0
  9
$PUCSORGBACK
 10
0.0
 20
0.0
 30
0.0
  9
$USERI1
 70
     0
  9
$USERI2
 70
     0
  9
$USERI3
 70
     0
  9
$USERI4
 70
     0
  9
$USERI5
 70
     0
  9
$USERR1
 40
0.0
  9
$USERR2
 40
0.0
  9
$USERR3
 40
0.0
  9
$USERR4
 40
0.0
  9
$USERR5
 40
0.0
  9
$WORLDVIEW
 70
     1
  9
$SHADEDGE
 70
     3
  9
$SHADEDIF
 70
    70
  9
$TILEMODE
 70
     1
  9
$MAXACTVP
 70
    64
  9
$PINSBASE
 10
0.0
 20
0.0
 30
0.0
  9
$PLIMCHECK
 70
     0
  9
$PEXTMIN
 10
1.000000E+20
 20
1.000000E+20
 30
0.0
  9
$PEXTMAX
 10
-1.000000E+20
 20
-1.000000E+20
 30
0.0
  9
$PLIMMIN
 10
0.0
 20
0.0
  9
$PLIMMAX
 10
12.0
 20
9.0
  9
$UNITMODE
 70
     0
  9
$VISRETAIN
 70
     1
  9
$PLINEGEN
 70
     0
  9
$PSLTSCALE
 70
     1
  9
$TREEDEPTH
 70
  3020
  9
$CMLSTYLE
  2
Standard
  9
$CMLJUST
 70
     0
  9
$CMLSCALE
 40
20.0
  9
$PROXYGRAPHICS
 70
     1
  9
$MEASUREMENT
 70
     1
  9
$CELWEIGHT
370
    -1
  9
$ENDCAPS
280
     0
  9
$JOINSTYLE
280
     0
  9
$LWDISPLAY
290
     0
  9
$INSUNITS
 70
     4
  9
$HYPERLINKBASE
  1

  9
$STYLESHEET
  1

  9
$XEDIT
290
     1
  9
$CEPSNTYPE
380
     0
  9
$PSTYLEMODE
290
     1
  9
$FINGERPRINTGUID
  2
{D72FE3ED-8E90-4084-8AAD-50EB502EBB56}
  9
$VERSIONGUID
  2
{FAEB1C32-E019-11D5-929B-00C0DF256EC4}
  9
$EXTNAMES
290
     1
  9
$PSVPSCALE
 40
0.0
  9
$OLESTARTUP
290
     0
  0
ENDSEC
  0
SECTION
  2
CLASSES
  0
CLASS
  1
ACDBDICTIONARYWDFLT
  2
AcDbDictionaryWithDefault
  3
ObjectDBX Classes
 90
        0
280
     0
281
     0
  0
CLASS
  1
VISUALSTYLE
  2
AcDbVisualStyle
  3
ObjectDBX Classes
 90
     4095
280
     0
281
     0
  0
CLASS
  1
SCALE
  2
AcDbScale
  3
ObjectDBX Classes
 90
     1153
280
     0
281
     0
  0
CLASS
  1
DICTIONARYVAR
  2
AcDbDictionaryVar
  3
ObjectDBX Classes
 90
        0
280
     0
281
     0
  0
CLASS
  1
ACDBPLACEHOLDER
  2
AcDbPlaceHolder
  3
ObjectDBX Classes
 90
        0
280
     0
281
     0
  0
CLASS
  1
LAYOUT
  2
AcDbLayout
  3
ObjectDBX Classes
 90
        0
280
     0
281
     0
  0
ENDSEC
  0
SECTION
  2
TABLES
  0
TABLE
  2
VPORT
  5
8
330
0
100
AcDbSymbolTable
 70
     1
  0
VPORT
  5
29
330
8
100
AcDbSymbolTableRecord
100
AcDbViewportTableRecord
  2
*Active
 70
     0
 10
0.0
 20
0.0
 11
1.0
 21
1.0
 12
181.364201
 22
260.801643
 13
0.0
 23
0.0
 14
1.0
 24
1.0
 15
0.0
 25
0.0
 16
0.0
 26
0.0
 36
1.0
 17
0.0
 27
0.0
 37
0.0
 40
483.737463
 41
1.691288
 42
50.0
 43
0.0
 44
0.0
 50
0.0
 51
0.0
 71
     0
 72
   100
 73
     1
 74
     3
 75
     0
 76
     0
 77
     0
 78
     0
281
     0
 65
     1
110
0.0
120
0.0
130
0.0
111
1.0
121
0.0
131
0.0
112
0.0
122
1.0
132
0.0
 79
     0
146
0.0
  0
ENDTAB
  0
TABLE
  2
LTYPE
  5
5
330
0
100
AcDbSymbolTable
 70
     5
  0
LTYPE
  5
14
330
5
100
AcDbSymbolTableRecord
100
AcDbLinetypeTableRecord
  2
ByBlock
 70
     0
  3

 72
    65
 73
     0
 40
0.0
  0
LTYPE
  5
15
330
5
100
AcDbSymbolTableRecord
100
AcDbLinetypeTableRecord
  2
ByLayer
 70
     0
  3

 72
    65
 73
     0
 40
0.0
  0
LTYPE
  5
16
330
5
100
AcDbSymbolTableRecord
100
AcDbLinetypeTableRecord
  2
Continuous
 70
     0
  3
Solid line
 72
    65
 73
     0
 40
0.0
  0
LTYPE
  5
5D
330
5
100
AcDbSymbolTableRecord
100
AcDbLinetypeTableRecord
  2
DASHED
 70
     0
  3
DASHED
 72
    83
 73
     2
 40
0.75
 49
0.5
 74
     0
 49
-0.25
 74
     0
  0
LTYPE
  5
5E
330
5
100
AcDbSymbolTableRecord
100
AcDbLinetypeTableRecord
  2
HIDDEN
 70
     0
  3
HIDDEN
 72
    83
 73
     2
 40
0.375
 49
0.25
 74
     0
 49
-0.125
 74
     0
  0
LTYPE
  5
5F
330
5
100
AcDbSymbolTableRecord
100
AcDbLinetypeTableRecord
  2
CENTER
 70
     0
  3
CENTER
 72
    83
 73
     4
 40
2.0
 49
1.25
 74
     0
 49
-0.25
 74
     0
 49
0.25
 74
     0
 49
-0.25
 74
     0
  0
LTYPE
  5
60
330
5
100
AcDbSymbolTableRecord
100
AcDbLinetypeTableRecord
  2
PHANTOM
 70
     0
  3
PHANTOM
 72
    83
 73
     6
 40
2.5
 49
1.25
 74
     0
 49
-0.25
 74
     0
 49
0.25
 74
     0
 49
-0.25
 74
     0
 49
0.25
 74
     0
 49
-0.25
 74
     0
  0
ENDTAB
  0
TABLE
  2
LAYER
  5
2
330
0
100
AcDbSymbolTable
 70
     2
  0
LAYER
  5
10
330
2
100
AcDbSymbolTableRecord
100
AcDbLayerTableRecord
  2
0
 70
     0
 62
     7
  6
Continuous
370
    -3
390
F
  0
LAYER
  5
61
330
2
100
AcDbSymbolTableRecord
100
AcDbLayerTableRecord
  2
001
 70
     0
 62
     7
  6
Continuous
370
    -3
390
F
  0
ENDTAB
  0
TABLE
  2
STYLE
  5
3
330
0
100
AcDbSymbolTable
 70
     2
  0
STYLE
  5
11
330
3
100
AcDbSymbolTableRecord
100
AcDbTextStyleTableRecord
  2
Standard
 70
     0
 40
0.0
 41
1.0
 50
0.0
 71
     0
 42
0.2
  3
TXT
  4
BIGFONT
  0
STYLE
  5
62
330
3
100
AcDbSymbolTableRecord
100
AcDbTextStyleTableRecord
  2
TATEGAKI
 70
     4
 40
1.0
 41
1.0
 50
0.0
 71
     0
 42
0.2
  3
TXT
  4
BIGFONT
  0
ENDTAB
  0
TABLE
  2
VIEW
  5
6
330
0
100
AcDbSymbolTable
 70
     0
  0
ENDTAB
  0
TABLE
  2
UCS
  5
7
330
0
100
AcDbSymbolTable
 70
     0
  0
ENDTAB
  0
TABLE
  2
APPID
  5
9
330
0
100
AcDbSymbolTable
 70
     1
  0
APPID
  5
12
330
9
100
AcDbSymbolTableRecord
100
AcDbRegAppTableRecord
  2
ACAD
 70
     0
  0
ENDTAB
  0
TABLE
  2
DIMSTYLE
  5
A
330
0
100
AcDbSymbolTable
 70
     2
100
AcDbDimStyleTable
  0
DIMSTYLE
105
27
330
A
100
AcDbSymbolTableRecord
100
AcDbDimStyleTableRecord
  2
ISO-25
 70
     0
 41
2.5
 42
0.625
 43
3.75
 44
1.25
 73
     0
 74
     0
 77
     1
 78
     8
140
2.5
141
2.5
143
0.03937
147
0.625
171
     3
172
     1
271
     2
272
     2
274
     3
278
    44
283
     0
284
     8
340
11
  0
DIMSTYLE
105
63
102
{ACAD_REACTORS
330
1DA
330
1DB
330
1DC
330
1DD
330
1DE
330
1DF
330
1E0
330
1E1
330
1E2
330
1E3
330
1E4
330
1ED
330
1EE
330
1EF
330
1F0
330
1F9
330
1FA
330
1FB
330
1FC
102
}
330
A
100
AcDbSymbolTableRecord
100
AcDbDimStyleTableRecord
  2
Standard
 70
     0
 41
1.5
 42
0.0
 44
2.75
 73
     0
 74
     0
 77
     1
 78
     8
 79
     2
140
4.0
146
0.8
147
1.0
172
     1
179
     1
271
     1
340
11
  0
ENDTAB
  0
TABLE
  2
BLOCK_RECORD
  5
1
330
0
100
AcDbSymbolTable
 70
    20
  0
BLOCK_RECORD
  5
1F
330
1
100
AcDbSymbolTableRecord
100
AcDbBlockTableRecord
  2
*Model_Space
340
22
  0
BLOCK_RECORD
  5
1B
330
1
100
AcDbSymbolTableRecord
100
AcDbBlockTableRecord
  2
*Paper_Space
340
1E
  0
BLOCK_RECORD
  5
23
330
1
100
AcDbSymbolTableRecord
100
AcDbBlockTableRecord
  2
*Paper_Space0
340
26
  0
BLOCK_RECORD
  5
64
330
1
100
AcDbSymbolTableRecord
100
AcDbBlockTableRecord
  2
*D1
340
0
  0
BLOCK_RECORD
  5
78
330
1
100
AcDbSymbolTableRecord
100
AcDbBlockTableRecord
  2
*D2
340
0
  0
BLOCK_RECORD
  5
8C
330
1
100
AcDbSymbolTableRecord
100
AcDbBlockTableRecord
  2
*D3
340
0
  0
BLOCK_RECORD
  5
A0
330
1
100
AcDbSymbolTableRecord
100
AcDbBlockTableRecord
  2
*D4
340
0
  0
BLOCK_RECORD
  5
B4
330
1
100
AcDbSymbolTableRecord
100
AcDbBlockTableRecord
  2
*D5
340
0
  0
BLOCK_RECORD
  5
C8
330
1
100
AcDbSymbolTableRecord
100
AcDbBlockTableRecord
  2
*D6
340
0
  0
BLOCK_RECORD
  5
DE
330
1
100
AcDbSymbolTableRecord
100
AcDbBlockTableRecord
  2
*D7
340
0
  0
BLOCK_RECORD
  5
EA
330
1
100
AcDbSymbolTableRecord
100
AcDbBlockTableRecord
  2
*D8
340
0
  0
BLOCK_RECORD
  5
FE
330
1
100
AcDbSymbolTableRecord
100
AcDbBlockTableRecord
  2
*D9
340
0
  0
BLOCK_RECORD
  5
112
330
1
100
AcDbSymbolTableRecord
100
AcDbBlockTableRecord
  2
*D10
340
0
  0
BLOCK_RECORD
  5
126
330
1
100
AcDbSymbolTableRecord
100
AcDbBlockTableRecord
  2
*D11
340
0
  0
BLOCK_RECORD
  5
13A
330
1
100
AcDbSymbolTableRecord
100
AcDbBlockTableRecord
  2
*D12
340
0
  0
BLOCK_RECORD
  5
14E
330
1
100
AcDbSymbolTableRecord
100
AcDbBlockTableRecord
  2
*D13
340
0
  0
BLOCK_RECORD
  5
162
330
1
100
AcDbSymbolTableRecord
100
AcDbBlockTableRecord
  2
*D14
340
0
  0
BLOCK_RECORD
  5
176
330
1
100
AcDbSymbolTableRecord
100
AcDbBlockTableRecord
  2
*D15
340
0
  0
BLOCK_RECORD
  5
18A
330
1
100
AcDbSymbolTableRecord
100
AcDbBlockTableRecord
  2
*D16
340
0
  0
BLOCK_RECORD
  5
19E
330
1
100
AcDbSymbolTableRecord
100
AcDbBlockTableRecord
  2
*D17
340
0
  0
BLOCK_RECORD
  5
1B2
330
1
100
AcDbSymbolTableRecord
100
AcDbBlockTableRecord
  2
*D18
340
0
  0
BLOCK_RECORD
  5
1C6
330
1
100
AcDbSymbolTableRecord
100
AcDbBlockTableRecord
  2
*D19
340
0
  0
ENDTAB
  0
ENDSEC
  0
SECTION
  2
BLOCKS
  0
BLOCK
  5
20
330
1F
100
AcDbEntity
  8
0
100
AcDbBlockBegin
  2
*Model_Space
 70
     0
 10
0.0
 20
0.0
 30
0.0
  3
*Model_Space
  1

  0
ENDBLK
  5
21
330
1F
100
AcDbEntity
  8
0
100
AcDbBlockEnd
  0
BLOCK
  5
1C
330
1B
100
AcDbEntity
 67
     1
  8
0
100
AcDbBlockBegin
  2
*Paper_Space
 70
     0
 10
0.0
 20
0.0
 30
0.0
  3
*Paper_Space
  1

  0
ENDBLK
  5
1D
330
1B
100
AcDbEntity
 67
     1
  8
0
100
AcDbBlockEnd
  0
BLOCK
  5
24
330
23
100
AcDbEntity
  8
0
100
AcDbBlockBegin
  2
*Paper_Space0
 70
     0
 10
0.0
 20
0.0
 30
0.0
  3
*Paper_Space0
  1

  0
ENDBLK
  5
25
330
23
100
AcDbEntity
  8
0
100
AcDbBlockEnd
  0
BLOCK
  5
65
330
64
100
AcDbEntity
  8
0
100
AcDbBlockBegin
  2
*D1
 70
     1
 10
0.0
 20
0.0
 30
0.0
  3
*D1
  1

  0
LINE
  5
67
330
64
100
AcDbEntity
  8
001
370
     9
100
AcDbLine
 10
241.688178
 20
86.208682
 30
0.0
 11
264.042212
 21
86.208682
 31
0.0
  0
LINE
  5
68
330
64
100
AcDbEntity
  8
001
370
     9
100
AcDbLine
 10
241.688178
 20
105.208682
 30
0.0
 11
264.042212
 21
105.208682
 31
0.0
  0
LINE
  5
69
330
64
100
AcDbEntity
  8
001
370
     9
100
AcDbLine
 10
261.292212
 20
86.208682
 30
0.0
 11
261.292212
 21
105.208682
 31
0.0
  0
POLYLINE
  5
6A
330
64
100
AcDbEntity
  8
001
370
     9
100
AcDb2dPolyline
 66
     1
 10
0.0
 20
0.0
 30
0.0
  0
VERTEX
  5
6C
330
6A
100
AcDbEntity
  8
001
370
     9
100
AcDbVertex
100
AcDb2dVertex
 10
261.694136
 20
87.708682
 30
0.0
  0
VERTEX
  5
6D
330
6A
100
AcDbEntity
  8
001
370
     9
100
AcDbVertex
100
AcDb2dVertex
 10
261.292212
 20
86.208682
 30
0.0
  0
VERTEX
  5
6E
330
6A
100
AcDbEntity
  8
001
370
     9
100
AcDbVertex
100
AcDb2dVertex
 10
260.890288
 20
87.708682
 30
0.0
  0
SEQEND
  5
6B
330
6A
100
AcDbEntity
  8
001
370
     9
  0
POLYLINE
  5
6F
330
64
100
AcDbEntity
  8
001
370
     9
100
AcDb2dPolyline
 66
     1
 10
0.0
 20
0.0
 30
0.0
  0
VERTEX
  5
71
330
6F
100
AcDbEntity
  8
001
370
     9
100
AcDbVertex
100
AcDb2dVertex
 10
260.890288
 20
103.708682
 30
0.0
  0
VERTEX
  5
72
330
6F
100
AcDbEntity
  8
001
370
     9
100
AcDbVertex
100
AcDb2dVertex
 10
261.292212
 20
105.208682
 30
0.0
  0
VERTEX
  5
73
330
6F
100
AcDbEntity
  8
001
370
     9
100
AcDbVertex
100
AcDb2dVertex
 10
261.694136
 20
103.708682
 30
0.0
  0
SEQEND
  5
70
330
6F
100
AcDbEntity
  8
001
370
     9
  0
TEXT
  5
74
330
64
100
AcDbEntity
  8
001
370
    30
100
AcDbText
 10
260.292212
 20
91.708682
 30
0.0
 40
4.0
  1
１９
 50
90.000003
 41
0.833333
100
AcDbText
  0
POINT
  5
75
330
64
100
AcDbEntity
  8
001
370
     9
100
AcDbPoint
 10
241.688178
 20
86.208682
 30
0.0
  0
POINT
  5
76
330
64
100
AcDbEntity
  8
001
370
     9
100
AcDbPoint
 10
241.688178
 20
105.208682
 30
0.0
  0
POINT
  5
77
330
64
100
AcDbEntity
  8
001
370
     9
100
AcDbPoint
 10
261.292212
 20
105.208682
 30
0.0
  0
ENDBLK
  5
66
330
64
100
AcDbEntity
  8
0
100
AcDbBlockEnd
  0
BLOCK
  5
79
330
78
100
AcDbEntity
  8
0
100
AcDbBlockBegin
  2
*D2
 70
     1
 10
0.0
 20
0.0
 30
0.0
  3
*D2
  1

  0
LINE
  5
7B
330
78
100
AcDbEntity
  8
001
370
     9
100
AcDbLine
 10
241.688178
 20
23.827647
 30
0.0
 11
263.78911
 21
23.827647
 31
0.0
  0
LINE
  5
7C
330
78
100
AcDbEntity
  8
001
370
     9
100
AcDbLine
 10
241.688178
 20
43.827647
 30
0.0
 11
263.78911
 21
43.827647
 31
0.0
  0
LINE
  5
7D
330
78
100
AcDbEntity
  8
001
370
     9
100
AcDbLine
 10
261.03911
 20
23.827647
 30
0.0
 11
261.03911
 21
43.827647
 31
0.0
  0
POLYLINE
  5
7E
330
78
100
AcDbEntity
  8
001
370
     9
100
AcDb2dPolyline
 66
     1
 10
0.0
 20
0.0
 30
0.0
  0
VERTEX
  5
80
330
7E
100
AcDbEntity
  8
001
370
     9
100
AcDbVertex
100
AcDb2dVertex
 10
261.441033
 20
25.327647
 30
0.0
  0
VERTEX
  5
81
330
7E
100
AcDbEntity
  8
001
370
     9
100
AcDbVertex
100
AcDb2dVertex
 10
261.03911
 20
23.827647
 30
0.0
  0
VERTEX
  5
82
330
7E
100
AcDbEntity
  8
001
370
     9
100
AcDbVertex
100
AcDb2dVertex
 10
260.637186
 20
25.327647
 30
0.0
  0
SEQEND
  5
7F
330
7E
100
AcDbEntity
  8
001
370
     9
  0
POLYLINE
  5
83
330
78
100
AcDbEntity
  8
001
370
     9
100
AcDb2dPolyline
 66
     1
 10
0.0
 20
0.0
 30
0.0
  0
VERTEX
  5
85
330
83
100
AcDbEntity
  8
001
370
     9
100
AcDbVertex
100
AcDb2dVertex
 10
260.637186
 20
42.327647
 30
0.0
  0
VERTEX
  5
86
330
83
100
AcDbEntity
  8
001
370
     9
100
AcDbVertex
100
AcDb2dVertex
 10
261.03911
 20
43.827647
 30
0.0
  0
VERTEX
  5
87
330
83
100
AcDbEntity
  8
001
370
     9
100
AcDbVertex
100
AcDb2dVertex
 10
261.441033
 20
42.327647
 30
0.0
  0
SEQEND
  5
84
330
83
100
AcDbEntity
  8
001
370
     9
  0
TEXT
  5
88
330
78
100
AcDbEntity
  8
001
370
    30
100
AcDbText
 10
260.03911
 20
29.827647
 30
0.0
 40
4.0
  1
２０
 50
90.000003
 41
0.833333
100
AcDbText
  0
POINT
  5
89
330
78
100
AcDbEntity
  8
001
370
     9
100
AcDbPoint
 10
241.688178
 20
23.827647
 30
0.0
  0
POINT
  5
8A
330
78
100
AcDbEntity
  8
001
370
     9
100
AcDbPoint
 10
241.688178
 20
43.827647
 30
0.0
  0
POINT
  5
8B
330
78
100
AcDbEntity
  8
001
370
     9
100
AcDbPoint
 10
261.03911
 20
43.827647
 30
0.0
  0
ENDBLK
  5
7A
330
78
100
AcDbEntity
  8
0
100
AcDbBlockEnd
  0
BLOCK
  5
8D
330
8C
100
AcDbEntity
  8
0
100
AcDbBlockBegin
  2
*D3
 70
     1
 10
0.0
 20
0.0
 30
0.0
  3
*D3
  1

  0
LINE
  5
8F
330
8C
100
AcDbEntity
  8
001
370
     9
100
AcDbLine
 10
115.687268
 20
77.868266
 30
0.0
 11
115.687268
 21
58.767821
 31
0.0
  0
LINE
  5
90
330
8C
100
AcDbEntity
  8
001
370
     9
100
AcDbLine
 10
241.688178
 20
86.208682
 30
0.0
 11
241.688178
 21
58.767821
 31
0.0
  0
LINE
  5
91
330
8C
100
AcDbEntity
  8
001
370
     9
100
AcDbLine
 10
115.687268
 20
61.517821
 30
0.0
 11
241.688178
 21
61.517821
 31
0.0
  0
POLYLINE
  5
92
330
8C
100
AcDbEntity
  8
001
370
     9
100
AcDb2dPolyline
 66
     1
 10
0.0
 20
0.0
 30
0.0
  0
VERTEX
  5
94
330
92
100
AcDbEntity
  8
001
370
     9
100
AcDbVertex
100
AcDb2dVertex
 10
117.187268
 20
61.115897
 30
0.0
  0
VERTEX
  5
95
330
92
100
AcDbEntity
  8
001
370
     9
100
AcDbVertex
100
AcDb2dVertex
 10
115.687268
 20
61.517821
 30
0.0
  0
VERTEX
  5
96
330
92
100
AcDbEntity
  8
001
370
     9
100
AcDbVertex
100
AcDb2dVertex
 10
117.187268
 20
61.919745
 30
0.0
  0
SEQEND
  5
93
330
92
100
AcDbEntity
  8
001
370
     9
  0
POLYLINE
  5
97
330
8C
100
AcDbEntity
  8
001
370
     9
100
AcDb2dPolyline
 66
     1
 10
0.0
 20
0.0
 30
0.0
  0
VERTEX
  5
99
330
97
100
AcDbEntity
  8
001
370
     9
100
AcDbVertex
100
AcDb2dVertex
 10
240.188178
 20
61.919745
 30
0.0
  0
VERTEX
  5
9A
330
97
100
AcDbEntity
  8
001
370
     9
100
AcDbVertex
100
AcDb2dVertex
 10
241.688178
 20
61.517821
 30
0.0
  0
VERTEX
  5
9B
330
97
100
AcDbEntity
  8
001
370
     9
100
AcDbVertex
100
AcDb2dVertex
 10
240.188178
 20
61.115897
 30
0.0
  0
SEQEND
  5
98
330
97
100
AcDbEntity
  8
001
370
     9
  0
TEXT
  5
9C
330
8C
100
AcDbEntity
  8
001
370
    30
100
AcDbText
 10
172.687723
 20
62.517821
 30
0.0
 40
4.0
  1
１２６
 41
0.833333
100
AcDbText
  0
POINT
  5
9D
330
8C
100
AcDbEntity
  8
001
370
     9
100
AcDbPoint
 10
115.687268
 20
77.868266
 30
0.0
  0
POINT
  5
9E
330
8C
100
AcDbEntity
  8
001
370
     9
100
AcDbPoint
 10
241.688178
 20
86.208682
 30
0.0
  0
POINT
  5
9F
330
8C
100
AcDbEntity
  8
001
370
     9
100
AcDbPoint
 10
241.688178
 20
61.517821
 30
0.0
  0
ENDBLK
  5
8E
330
8C
100
AcDbEntity
  8
0
100
AcDbBlockEnd
  0
BLOCK
  5
A1
330
A0
100
AcDbEntity
  8
0
100
AcDbBlockBegin
  2
*D4
 70
     1
 10
0.0
 20
0.0
 30
0.0
  3
*D4
  1

  0
LINE
  5
A3
330
A0
100
AcDbEntity
  8
001
370
     9
100
AcDbLine
 10
123.771378
 20
84.294111
 30
0.0
 11
141.414096
 21
66.651393
 31
0.0
  0
ARC
  5
A4
330
A0
100
AcDbEntity
  8
001
370
     9
100
AcDbCircle
 10
102.856808
 20
105.208682
 30
0.0
 40
51.77824012678922
100
AcDbArc
 50
315.0
 51
0.0
  0
POLYLINE
  5
A5
330
A0
100
AcDbEntity
  8
001
370
     9
100
AcDb2dPolyline
 66
     1
 10
0.0
 20
0.0
 30
0.0
  0
VERTEX
  5
A7
330
A5
100
AcDbEntity
  8
001
370
     9
100
AcDbVertex
100
AcDb2dVertex
 10
154.21144
 20
103.714661
 30
0.0
  0
VERTEX
  5
A8
330
A5
100
AcDbEntity
  8
001
370
     9
100
AcDbVertex
100
AcDb2dVertex
 10
154.635048
 20
105.208682
 30
0.0
  0
VERTEX
  5
A9
330
A5
100
AcDbEntity
  8
001
370
     9
100
AcDbVertex
100
AcDb2dVertex
 10
155.015203
 20
103.703017
 30
0.0
  0
SEQEND
  5
A6
330
A5
100
AcDbEntity
  8
001
370
     9
  0
POLYLINE
  5
AA
330
A0
100
AcDbEntity
  8
001
370
     9
100
AcDb2dPolyline
 66
     1
 10
0.0
 20
0.0
 30
0.0
  0
VERTEX
  5
AC
330
AA
100
AcDbEntity
  8
001
370
     9
100
AcDbVertex
100
AcDb2dVertex
 10
140.803028
 20
69.391792
 30
0.0
  0
VERTEX
  5
AD
330
AA
100
AcDbEntity
  8
001
370
     9
100
AcDbVertex
100
AcDb2dVertex
 10
139.469552
 20
68.595937
 30
0.0
  0
VERTEX
  5
AE
330
AA
100
AcDbEntity
  8
001
370
     9
100
AcDbVertex
100
AcDb2dVertex
 10
140.226448
 20
69.951905
 30
0.0
  0
SEQEND
  5
AB
330
AA
100
AcDbEntity
  8
001
370
     9
  0
TEXT
  5
AF
330
A0
100
AcDbEntity
  8
001
370
    30
100
AcDbText
 10
142.683278
 20
73.141846
 30
0.0
 40
4.0
  1
４５%%d
 50
57.899111
 41
0.978261
100
AcDbText
  0
POINT
  5
B0
330
A0
100
AcDbEntity
  8
001
370
     9
100
AcDbPoint
 10
128.288178
 20
105.208682
 30
0.0
  0
POINT
  5
B1
330
A0
100
AcDbEntity
  8
001
370
     9
100
AcDbPoint
 10
102.856808
 20
105.208682
 30
0.0
  0
POINT
  5
B2
330
A0
100
AcDbEntity
  8
001
370
     9
100
AcDbPoint
 10
102.856808
 20
105.208682
 30
0.0
  0
POINT
  5
B3
330
A0
100
AcDbEntity
  8
001
370
     9
100
AcDbPoint
 10
123.771378
 20
84.294111
 30
0.0
  0
ENDBLK
  5
A2
330
A0
100
AcDbEntity
  8
0
100
AcDbBlockEnd
  0
BLOCK
  5
B5
330
B4
100
AcDbEntity
  8
0
100
AcDbBlockBegin
  2
*D5
 70
     1
 10
0.0
 20
0.0
 30
0.0
  3
*D5
  1

  0
LINE
  5
B7
330
B4
100
AcDbEntity
  8
001
370
     9
100
AcDbLine
 10
128.288178
 20
105.208682
 30
0.0
 11
96.062366
 21
105.208682
 31
0.0
  0
LINE
  5
B8
330
B4
100
AcDbEntity
  8
001
370
     9
100
AcDbLine
 10
102.455357
 20
84.058885
 30
0.0
 11
96.062366
 21
84.058885
 31
0.0
  0
LINE
  5
B9
330
B4
100
AcDbEntity
  8
001
370
     9
100
AcDbLine
 10
98.812366
 20
105.208682
 30
0.0
 11
98.812366
 21
84.058885
 31
0.0
  0
POLYLINE
  5
BA
330
B4
100
AcDbEntity
  8
001
370
     9
100
AcDb2dPolyline
 66
     1
 10
0.0
 20
0.0
 30
0.0
  0
VERTEX
  5
BC
330
BA
100
AcDbEntity
  8
001
370
     9
100
AcDbVertex
100
AcDb2dVertex
 10
98.410442
 20
103.708682
 30
0.0
  0
VERTEX
  5
BD
330
BA
100
AcDbEntity
  8
001
370
     9
100
AcDbVertex
100
AcDb2dVertex
 10
98.812366
 20
105.208682
 30
0.0
  0
VERTEX
  5
BE
330
BA
100
AcDbEntity
  8
001
370
     9
100
AcDbVertex
100
AcDb2dVertex
 10
99.214289
 20
103.708682
 30
0.0
  0
SEQEND
  5
BB
330
BA
100
AcDbEntity
  8
001
370
     9
  0
POLYLINE
  5
BF
330
B4
100
AcDbEntity
  8
001
370
     9
100
AcDb2dPolyline
 66
     1
 10
0.0
 20
0.0
 30
0.0
  0
VERTEX
  5
C1
330
BF
100
AcDbEntity
  8
001
370
     9
100
AcDbVertex
100
AcDb2dVertex
 10
99.214289
 20
85.558885
 30
0.0
  0
VERTEX
  5
C2
330
BF
100
AcDbEntity
  8
001
370
     9
100
AcDbVertex
100
AcDb2dVertex
 10
98.812366
 20
84.058885
 30
0.0
  0
VERTEX
  5
C3
330
BF
100
AcDbEntity
  8
001
370
     9
100
AcDbVertex
100
AcDb2dVertex
 10
98.410442
 20
85.558885
 30
0.0
  0
SEQEND
  5
C0
330
BF
100
AcDbEntity
  8
001
370
     9
  0
TEXT
  5
C4
330
B4
100
AcDbEntity
  8
001
370
    30
100
AcDbText
 10
97.812366
 20
86.633784
 30
0.0
 40
4.0
  1
２１．１
 50
90.000003
 41
0.833333
100
AcDbText
  0
POINT
  5
C5
330
B4
100
AcDbEntity
  8
001
370
     9
100
AcDbPoint
 10
128.288178
 20
105.208682
 30
0.0
  0
POINT
  5
C6
330
B4
100
AcDbEntity
  8
001
370
     9
100
AcDbPoint
 10
102.455357
 20
84.058885
 30
0.0
  0
POINT
  5
C7
330
B4
100
AcDbEntity
  8
001
370
     9
100
AcDbPoint
 10
98.812366
 20
84.058885
 30
0.0
  0
ENDBLK
  5
B6
330
B4
100
AcDbEntity
  8
0
100
AcDbBlockEnd
  0
BLOCK
  5
C9
330
C8
100
AcDbEntity
  8
0
100
AcDbBlockBegin
  2
*D6
 70
     1
 10
0.0
 20
0.0
 30
0.0
  3
*D6
  1

  0
LINE
  5
CB
330
C8
100
AcDbEntity
  8
001
370
     9
100
AcDbLine
 10
107.702597
 20
42.751978
 30
0.0
 11
96.853316
 21
42.751978
 31
0.0
  0
LINE
  5
CC
330
C8
100
AcDbEntity
  8
001
370
     9
100
AcDbLine
 10
117.11934
 20
23.827647
 30
0.0
 11
96.853316
 21
23.827647
 31
0.0
  0
LINE
  5
CD
330
C8
100
AcDbEntity
  8
001
370
     9
100
AcDbLine
 10
99.603316
 20
42.751978
 30
0.0
 11
99.603316
 21
23.827647
 31
0.0
  0
POLYLINE
  5
CE
330
C8
100
AcDbEntity
  8
001
370
     9
100
AcDb2dPolyline
 66
     1
 10
0.0
 20
0.0
 30
0.0
  0
VERTEX
  5
D0
330
CE
100
AcDbEntity
  8
001
370
     9
100
AcDbVertex
100
AcDb2dVertex
 10
100.00524
 20
44.251978
 30
0.0
  0
VERTEX
  5
D1
330
CE
100
AcDbEntity
  8
001
370
     9
100
AcDbVertex
100
AcDb2dVertex
 10
99.603316
 20
42.751978
 30
0.0
  0
VERTEX
  5
D2
330
CE
100
AcDbEntity
  8
001
370
     9
100
AcDbVertex
100
AcDb2dVertex
 10
99.201392
 20
44.251978
 30
0.0
  0
SEQEND
  5
CF
330
CE
100
AcDbEntity
  8
001
370
     9
  0
POLYLINE
  5
D3
330
C8
100
AcDbEntity
  8
001
370
     9
100
AcDb2dPolyline
 66
     1
 10
0.0
 20
0.0
 30
0.0
  0
VERTEX
  5
D5
330
D3
100
AcDbEntity
  8
001
370
     9
100
AcDbVertex
100
AcDb2dVertex
 10
99.201392
 20
22.327647
 30
0.0
  0
VERTEX
  5
D6
330
D3
100
AcDbEntity
  8
001
370
     9
100
AcDbVertex
100
AcDb2dVertex
 10
99.603316
 20
23.827647
 30
0.0
  0
VERTEX
  5
D7
330
D3
100
AcDbEntity
  8
001
370
     9
100
AcDbVertex
100
AcDb2dVertex
 10
100.00524
 20
22.327647
 30
0.0
  0
SEQEND
  5
D4
330
D3
100
AcDbEntity
  8
001
370
     9
  0
TEXT
  5
D8
330
C8
100
AcDbEntity
  8
001
370
    30
100
AcDbText
 10
98.603316
 20
25.289812
 30
0.0
 40
4.0
  1
１８．９
 50
90.000003
 41
0.833333
100
AcDbText
  0
POINT
  5
D9
330
C8
100
AcDbEntity
  8
001
370
     9
100
AcDbPoint
 10
107.702597
 20
42.751978
 30
0.0
  0
POINT
  5
DA
330
C8
100
AcDbEntity
  8
001
370
     9
100
AcDbPoint
 10
117.11934
 20
23.827647
 30
0.0
  0
POINT
  5
DB
330
C8
100
AcDbEntity
  8
001
370
     9
100
AcDbPoint
 10
99.603316
 20
23.827647
 30
0.0
  0
LINE
  5
DC
330
C8
100
AcDbEntity
  8
001
370
     9
100
AcDbLine
 10
99.603316
 20
42.751978
 30
0.0
 11
99.603316
 21
45.251978
 31
0.0
  0
LINE
  5
DD
330
C8
100
AcDbEntity
  8
001
370
     9
100
AcDbLine
 10
99.603316
 20
23.827647
 30
0.0
 11
99.603316
 21
21.327647
 31
0.0
  0
ENDBLK
  5
CA
330
C8
100
AcDbEntity
  8
0
100
AcDbBlockEnd
  0
BLOCK
  5
DF
330
DE
100
AcDbEntity
  8
0
100
AcDbBlockBegin
  2
*D7
 70
     1
 10
0.0
 20
0.0
 30
0.0
  3
*D7
  1

  0
LINE
  5
E1
330
DE
100
AcDbEntity
  8
001
370
     9
100
AcDbLine
 10
117.875065
 20
86.246683
 30
0.0
 11
121.03388
 21
88.700636
 31
0.0
  0
POLYLINE
  5
E2
330
DE
100
AcDbEntity
  8
001
370
     9
100
AcDb2dPolyline
 66
     1
 10
0.0
 20
0.0
 30
0.0
  0
VERTEX
  5
E4
330
E2
100
AcDbEntity
  8
001
370
     9
100
AcDbVertex
100
AcDb2dVertex
 10
119.602749
 20
88.097804
 30
0.0
  0
VERTEX
  5
E5
330
E2
100
AcDbEntity
  8
001
370
     9
100
AcDbVertex
100
AcDb2dVertex
 10
121.03388
 20
88.700636
 30
0.0
  0
VERTEX
  5
E6
330
E2
100
AcDbEntity
  8
001
370
     9
100
AcDbVertex
100
AcDb2dVertex
 10
120.0959
 20
87.463003
 30
0.0
  0
SEQEND
  5
E3
330
E2
100
AcDbEntity
  8
001
370
     9
  0
TEXT
  5
E7
330
DE
100
AcDbEntity
  8
001
370
    30
100
AcDbText
 10
109.014803
 20
85.39365
 30
0.0
 40
4.0
  1
Ｒ４
 50
37.842158
 41
0.833333
100
AcDbText
  0
POINT
  5
E8
330
DE
100
AcDbEntity
  8
001
370
     9
100
AcDbPoint
 10
121.03388
 20
88.700636
 30
0.0
  0
POINT
  5
E9
330
DE
100
AcDbEntity
  8
001
370
     9
100
AcDbPoint
 10
117.875065
 20
86.246683
 30
0.0
  0
ENDBLK
  5
E0
330
DE
100
AcDbEntity
  8
0
100
AcDbBlockEnd
  0
BLOCK
  5
EB
330
EA
100
AcDbEntity
  8
0
100
AcDbBlockBegin
  2
*D8
 70
     1
 10
0.0
 20
0.0
 30
0.0
  3
*D8
  1

  0
LINE
  5
ED
330
EA
100
AcDbEntity
  8
001
370
     9
100
AcDbLine
 10
241.688178
 20
208.567943
 30
0.0
 11
264.042212
 21
208.567943
 31
0.0
  0
LINE
  5
EE
330
EA
100
AcDbEntity
  8
001
370
     9
100
AcDbLine
 10
241.688178
 20
227.567943
 30
0.0
 11
264.042212
 21
227.567943
 31
0.0
  0
LINE
  5
EF
330
EA
100
AcDbEntity
  8
001
370
     9
100
AcDbLine
 10
261.292212
 20
208.567943
 30
0.0
 11
261.292212
 21
227.567943
 31
0.0
  0
POLYLINE
  5
F0
330
EA
100
AcDbEntity
  8
001
370
     9
100
AcDb2dPolyline
 66
     1
 10
0.0
 20
0.0
 30
0.0
  0
VERTEX
  5
F2
330
F0
100
AcDbEntity
  8
001
370
     9
100
AcDbVertex
100
AcDb2dVertex
 10
261.694136
 20
210.067943
 30
0.0
  0
VERTEX
  5
F3
330
F0
100
AcDbEntity
  8
001
370
     9
100
AcDbVertex
100
AcDb2dVertex
 10
261.292212
 20
208.567943
 30
0.0
  0
VERTEX
  5
F4
330
F0
100
AcDbEntity
  8
001
370
     9
100
AcDbVertex
100
AcDb2dVertex
 10
260.890288
 20
210.067943
 30
0.0
  0
SEQEND
  5
F1
330
F0
100
AcDbEntity
  8
001
370
     9
  0
POLYLINE
  5
F5
330
EA
100
AcDbEntity
  8
001
370
     9
100
AcDb2dPolyline
 66
     1
 10
0.0
 20
0.0
 30
0.0
  0
VERTEX
  5
F7
330
F5
100
AcDbEntity
  8
001
370
     9
100
AcDbVertex
100
AcDb2dVertex
 10
260.890288
 20
226.067943
 30
0.0
  0
VERTEX
  5
F8
330
F5
100
AcDbEntity
  8
001
370
     9
100
AcDbVertex
100
AcDb2dVertex
 10
261.292212
 20
227.567943
 30
0.0
  0
VERTEX
  5
F9
330
F5
100
AcDbEntity
  8
001
370
     9
100
AcDbVertex
100
AcDb2dVertex
 10
261.694136
 20
226.067943
 30
0.0
  0
SEQEND
  5
F6
330
F5
100
AcDbEntity
  8
001
370
     9
  0
TEXT
  5
FA
330
EA
100
AcDbEntity
  8
001
370
    30
100
AcDbText
 10
260.292212
 20
214.067943
 30
0.0
 40
4.0
  1
１９
 50
90.000003
 41
0.833333
100
AcDbText
  0
POINT
  5
FB
330
EA
100
AcDbEntity
  8
001
370
     9
100
AcDbPoint
 10
241.688178
 20
208.567943
 30
0.0
  0
POINT
  5
FC
330
EA
100
AcDbEntity
  8
001
370
     9
100
AcDbPoint
 10
241.688178
 20
227.567943
 30
0.0
  0
POINT
  5
FD
330
EA
100
AcDbEntity
  8
001
370
     9
100
AcDbPoint
 10
261.292212
 20
227.567943
 30
0.0
  0
ENDBLK
  5
EC
330
EA
100
AcDbEntity
  8
0
100
AcDbBlockEnd
  0
BLOCK
  5
FF
330
FE
100
AcDbEntity
  8
0
100
AcDbBlockBegin
  2
*D9
 70
     1
 10
0.0
 20
0.0
 30
0.0
  3
*D9
  1

  0
LINE
  5
101
330
FE
100
AcDbEntity
  8
001
370
     9
100
AcDbLine
 10
115.687268
 20
200.227527
 30
0.0
 11
115.687268
 21
181.127082
 31
0.0
  0
LINE
  5
102
330
FE
100
AcDbEntity
  8
001
370
     9
100
AcDbLine
 10
241.688178
 20
208.567943
 30
0.0
 11
241.688178
 21
181.127082
 31
0.0
  0
LINE
  5
103
330
FE
100
AcDbEntity
  8
001
370
     9
100
AcDbLine
 10
115.687268
 20
183.877082
 30
0.0
 11
241.688178
 21
183.877082
 31
0.0
  0
POLYLINE
  5
104
330
FE
100
AcDbEntity
  8
001
370
     9
100
AcDb2dPolyline
 66
     1
 10
0.0
 20
0.0
 30
0.0
  0
VERTEX
  5
106
330
104
100
AcDbEntity
  8
001
370
     9
100
AcDbVertex
100
AcDb2dVertex
 10
117.187268
 20
183.475158
 30
0.0
  0
VERTEX
  5
107
330
104
100
AcDbEntity
  8
001
370
     9
100
AcDbVertex
100
AcDb2dVertex
 10
115.687268
 20
183.877082
 30
0.0
  0
VERTEX
  5
108
330
104
100
AcDbEntity
  8
001
370
     9
100
AcDbVertex
100
AcDb2dVertex
 10
117.187268
 20
184.279006
 30
0.0
  0
SEQEND
  5
105
330
104
100
AcDbEntity
  8
001
370
     9
  0
POLYLINE
  5
109
330
FE
100
AcDbEntity
  8
001
370
     9
100
AcDb2dPolyline
 66
     1
 10
0.0
 20
0.0
 30
0.0
  0
VERTEX
  5
10B
330
109
100
AcDbEntity
  8
001
370
     9
100
AcDbVertex
100
AcDb2dVertex
 10
240.188178
 20
184.279006
 30
0.0
  0
VERTEX
  5
10C
330
109
100
AcDbEntity
  8
001
370
     9
100
AcDbVertex
100
AcDb2dVertex
 10
241.688178
 20
183.877082
 30
0.0
  0
VERTEX
  5
10D
330
109
100
AcDbEntity
  8
001
370
     9
100
AcDbVertex
100
AcDb2dVertex
 10
240.188178
 20
183.475158
 30
0.0
  0
SEQEND
  5
10A
330
109
100
AcDbEntity
  8
001
370
     9
  0
TEXT
  5
10E
330
FE
100
AcDbEntity
  8
001
370
    30
100
AcDbText
 10
172.687723
 20
184.877082
 30
0.0
 40
4.0
  1
１２６
 41
0.833333
100
AcDbText
  0
POINT
  5
10F
330
FE
100
AcDbEntity
  8
001
370
     9
100
AcDbPoint
 10
115.687268
 20
200.227527
 30
0.0
  0
POINT
  5
110
330
FE
100
AcDbEntity
  8
001
370
     9
100
AcDbPoint
 10
241.688178
 20
208.567943
 30
0.0
  0
POINT
  5
111
330
FE
100
AcDbEntity
  8
001
370
     9
100
AcDbPoint
 10
241.688178
 20
183.877082
 30
0.0
  0
ENDBLK
  5
100
330
FE
100
AcDbEntity
  8
0
100
AcDbBlockEnd
  0
BLOCK
  5
113
330
112
100
AcDbEntity
  8
0
100
AcDbBlockBegin
  2
*D10
 70
     1
 10
0.0
 20
0.0
 30
0.0
  3
*D10
  1

  0
LINE
  5
115
330
112
100
AcDbEntity
  8
001
370
     9
100
AcDbLine
 10
123.771378
 20
206.653372
 30
0.0
 11
141.414096
 21
189.010654
 31
0.0
  0
ARC
  5
116
330
112
100
AcDbEntity
  8
001
370
     9
100
AcDbCircle
 10
102.856808
 20
227.567943
 30
0.0
 40
51.77824012678922
100
AcDbArc
 50
315.0
 51
0.0
  0
POLYLINE
  5
117
330
112
100
AcDbEntity
  8
001
370
     9
100
AcDb2dPolyline
 66
     1
 10
0.0
 20
0.0
 30
0.0
  0
VERTEX
  5
119
330
117
100
AcDbEntity
  8
001
370
     9
100
AcDbVertex
100
AcDb2dVertex
 10
154.21144
 20
226.073921
 30
0.0
  0
VERTEX
  5
11A
330
117
100
AcDbEntity
  8
001
370
     9
100
AcDbVertex
100
AcDb2dVertex
 10
154.635048
 20
227.567943
 30
0.0
  0
VERTEX
  5
11B
330
117
100
AcDbEntity
  8
001
370
     9
100
AcDbVertex
100
AcDb2dVertex
 10
155.015203
 20
226.062278
 30
0.0
  0
SEQEND
  5
118
330
117
100
AcDbEntity
  8
001
370
     9
  0
POLYLINE
  5
11C
330
112
100
AcDbEntity
  8
001
370
     9
100
AcDb2dPolyline
 66
     1
 10
0.0
 20
0.0
 30
0.0
  0
VERTEX
  5
11E
330
11C
100
AcDbEntity
  8
001
370
     9
100
AcDbVertex
100
AcDb2dVertex
 10
140.803028
 20
191.751053
 30
0.0
  0
VERTEX
  5
11F
330
11C
100
AcDbEntity
  8
001
370
     9
100
AcDbVertex
100
AcDb2dVertex
 10
139.469552
 20
190.955198
 30
0.0
  0
VERTEX
  5
120
330
11C
100
AcDbEntity
  8
001
370
     9
100
AcDbVertex
100
AcDb2dVertex
 10
140.226448
 20
192.311166
 30
0.0
  0
SEQEND
  5
11D
330
11C
100
AcDbEntity
  8
001
370
     9
  0
TEXT
  5
121
330
112
100
AcDbEntity
  8
001
370
    30
100
AcDbText
 10
142.683278
 20
195.501107
 30
0.0
 40
4.0
  1
４５%%d
 50
57.899111
 41
0.978261
100
AcDbText
  0
POINT
  5
122
330
112
100
AcDbEntity
  8
001
370
     9
100
AcDbPoint
 10
128.288178
 20
227.567943
 30
0.0
  0
POINT
  5
123
330
112
100
AcDbEntity
  8
001
370
     9
100
AcDbPoint
 10
102.856808
 20
227.567943
 30
0.0
  0
POINT
  5
124
330
112
100
AcDbEntity
  8
001
370
     9
100
AcDbPoint
 10
102.856808
 20
227.567943
 30
0.0
  0
POINT
  5
125
330
112
100
AcDbEntity
  8
001
370
     9
100
AcDbPoint
 10
123.771378
 20
206.653372
 30
0.0
  0
ENDBLK
  5
114
330
112
100
AcDbEntity
  8
0
100
AcDbBlockEnd
  0
BLOCK
  5
127
330
126
100
AcDbEntity
  8
0
100
AcDbBlockBegin
  2
*D11
 70
     1
 10
0.0
 20
0.0
 30
0.0
  3
*D11
  1

  0
LINE
  5
129
330
126
100
AcDbEntity
  8
001
370
     9
100
AcDbLine
 10
128.288178
 20
227.567943
 30
0.0
 11
96.062366
 21
227.567943
 31
0.0
  0
LINE
  5
12A
330
126
100
AcDbEntity
  8
001
370
     9
100
AcDbLine
 10
102.455357
 20
206.418146
 30
0.0
 11
96.062366
 21
206.418146
 31
0.0
  0
LINE
  5
12B
330
126
100
AcDbEntity
  8
001
370
     9
100
AcDbLine
 10
98.812366
 20
227.567943
 30
0.0
 11
98.812366
 21
206.418146
 31
0.0
  0
POLYLINE
  5
12C
330
126
100
AcDbEntity
  8
001
370
     9
100
AcDb2dPolyline
 66
     1
 10
0.0
 20
0.0
 30
0.0
  0
VERTEX
  5
12E
330
12C
100
AcDbEntity
  8
001
370
     9
100
AcDbVertex
100
AcDb2dVertex
 10
98.410442
 20
226.067943
 30
0.0
  0
VERTEX
  5
12F
330
12C
100
AcDbEntity
  8
001
370
     9
100
AcDbVertex
100
AcDb2dVertex
 10
98.812366
 20
227.567943
 30
0.0
  0
VERTEX
  5
130
330
12C
100
AcDbEntity
  8
001
370
     9
100
AcDbVertex
100
AcDb2dVertex
 10
99.214289
 20
226.067943
 30
0.0
  0
SEQEND
  5
12D
330
12C
100
AcDbEntity
  8
001
370
     9
  0
POLYLINE
  5
131
330
126
100
AcDbEntity
  8
001
370
     9
100
AcDb2dPolyline
 66
     1
 10
0.0
 20
0.0
 30
0.0
  0
VERTEX
  5
133
330
131
100
AcDbEntity
  8
001
370
     9
100
AcDbVertex
100
AcDb2dVertex
 10
99.214289
 20
207.918146
 30
0.0
  0
VERTEX
  5
134
330
131
100
AcDbEntity
  8
001
370
     9
100
AcDbVertex
100
AcDb2dVertex
 10
98.812366
 20
206.418146
 30
0.0
  0
VERTEX
  5
135
330
131
100
AcDbEntity
  8
001
370
     9
100
AcDbVertex
100
AcDb2dVertex
 10
98.410442
 20
207.918146
 30
0.0
  0
SEQEND
  5
132
330
131
100
AcDbEntity
  8
001
370
     9
  0
TEXT
  5
136
330
126
100
AcDbEntity
  8
001
370
    30
100
AcDbText
 10
97.812366
 20
208.993044
 30
0.0
 40
4.0
  1
２１．１
 50
90.000003
 41
0.833333
100
AcDbText
  0
POINT
  5
137
330
126
100
AcDbEntity
  8
001
370
     9
100
AcDbPoint
 10
128.288178
 20
227.567943
 30
0.0
  0
POINT
  5
138
330
126
100
AcDbEntity
  8
001
370
     9
100
AcDbPoint
 10
102.455357
 20
206.418146
 30
0.0
  0
POINT
  5
139
330
126
100
AcDbEntity
  8
001
370
     9
100
AcDbPoint
 10
98.812366
 20
206.418146
 30
0.0
  0
ENDBLK
  5
128
330
126
100
AcDbEntity
  8
0
100
AcDbBlockEnd
  0
BLOCK
  5
13B
330
13A
100
AcDbEntity
  8
0
100
AcDbBlockBegin
  2
*D12
 70
     1
 10
0.0
 20
0.0
 30
0.0
  3
*D12
  1

  0
LINE
  5
13D
330
13A
100
AcDbEntity
  8
001
370
     9
100
AcDbLine
 10
241.688178
 20
333.930081
 30
0.0
 11
264.042212
 21
333.930081
 31
0.0
  0
LINE
  5
13E
330
13A
100
AcDbEntity
  8
001
370
     9
100
AcDbLine
 10
241.688178
 20
352.930081
 30
0.0
 11
264.042212
 21
352.930081
 31
0.0
  0
LINE
  5
13F
330
13A
100
AcDbEntity
  8
001
370
     9
100
AcDbLine
 10
261.292212
 20
333.930081
 30
0.0
 11
261.292212
 21
352.930081
 31
0.0
  0
POLYLINE
  5
140
330
13A
100
AcDbEntity
  8
001
370
     9
100
AcDb2dPolyline
 66
     1
 10
0.0
 20
0.0
 30
0.0
  0
VERTEX
  5
142
330
140
100
AcDbEntity
  8
001
370
     9
100
AcDbVertex
100
AcDb2dVertex
 10
261.694136
 20
335.430081
 30
0.0
  0
VERTEX
  5
143
330
140
100
AcDbEntity
  8
001
370
     9
100
AcDbVertex
100
AcDb2dVertex
 10
261.292212
 20
333.930081
 30
0.0
  0
VERTEX
  5
144
330
140
100
AcDbEntity
  8
001
370
     9
100
AcDbVertex
100
AcDb2dVertex
 10
260.890288
 20
335.430081
 30
0.0
  0
SEQEND
  5
141
330
140
100
AcDbEntity
  8
001
370
     9
  0
POLYLINE
  5
145
330
13A
100
AcDbEntity
  8
001
370
     9
100
AcDb2dPolyline
 66
     1
 10
0.0
 20
0.0
 30
0.0
  0
VERTEX
  5
147
330
145
100
AcDbEntity
  8
001
370
     9
100
AcDbVertex
100
AcDb2dVertex
 10
260.890288
 20
351.430081
 30
0.0
  0
VERTEX
  5
148
330
145
100
AcDbEntity
  8
001
370
     9
100
AcDbVertex
100
AcDb2dVertex
 10
261.292212
 20
352.930081
 30
0.0
  0
VERTEX
  5
149
330
145
100
AcDbEntity
  8
001
370
     9
100
AcDbVertex
100
AcDb2dVertex
 10
261.694136
 20
351.430081
 30
0.0
  0
SEQEND
  5
146
330
145
100
AcDbEntity
  8
001
370
     9
  0
TEXT
  5
14A
330
13A
100
AcDbEntity
  8
001
370
    30
100
AcDbText
 10
260.292212
 20
339.430081
 30
0.0
 40
4.0
  1
１９
 50
90.000003
 41
0.833333
100
AcDbText
  0
POINT
  5
14B
330
13A
100
AcDbEntity
  8
001
370
     9
100
AcDbPoint
 10
241.688178
 20
333.930081
 30
0.0
  0
POINT
  5
14C
330
13A
100
AcDbEntity
  8
001
370
     9
100
AcDbPoint
 10
241.688178
 20
352.930081
 30
0.0
  0
POINT
  5
14D
330
13A
100
AcDbEntity
  8
001
370
     9
100
AcDbPoint
 10
261.292212
 20
352.930081
 30
0.0
  0
ENDBLK
  5
13C
330
13A
100
AcDbEntity
  8
0
100
AcDbBlockEnd
  0
BLOCK
  5
14F
330
14E
100
AcDbEntity
  8
0
100
AcDbBlockBegin
  2
*D13
 70
     1
 10
0.0
 20
0.0
 30
0.0
  3
*D13
  1

  0
LINE
  5
151
330
14E
100
AcDbEntity
  8
001
370
     9
100
AcDbLine
 10
115.687268
 20
325.589665
 30
0.0
 11
115.687268
 21
306.48922
 31
0.0
  0
LINE
  5
152
330
14E
100
AcDbEntity
  8
001
370
     9
100
AcDbLine
 10
241.688178
 20
333.930081
 30
0.0
 11
241.688178
 21
306.48922
 31
0.0
  0
LINE
  5
153
330
14E
100
AcDbEntity
  8
001
370
     9
100
AcDbLine
 10
115.687268
 20
309.23922
 30
0.0
 11
241.688178
 21
309.23922
 31
0.0
  0
POLYLINE
  5
154
330
14E
100
AcDbEntity
  8
001
370
     9
100
AcDb2dPolyline
 66
     1
 10
0.0
 20
0.0
 30
0.0
  0
VERTEX
  5
156
330
154
100
AcDbEntity
  8
001
370
     9
100
AcDbVertex
100
AcDb2dVertex
 10
117.187268
 20
308.837296
 30
0.0
  0
VERTEX
  5
157
330
154
100
AcDbEntity
  8
001
370
     9
100
AcDbVertex
100
AcDb2dVertex
 10
115.687268
 20
309.23922
 30
0.0
  0
VERTEX
  5
158
330
154
100
AcDbEntity
  8
001
370
     9
100
AcDbVertex
100
AcDb2dVertex
 10
117.187268
 20
309.641144
 30
0.0
  0
SEQEND
  5
155
330
154
100
AcDbEntity
  8
001
370
     9
  0
POLYLINE
  5
159
330
14E
100
AcDbEntity
  8
001
370
     9
100
AcDb2dPolyline
 66
     1
 10
0.0
 20
0.0
 30
0.0
  0
VERTEX
  5
15B
330
159
100
AcDbEntity
  8
001
370
     9
100
AcDbVertex
100
AcDb2dVertex
 10
240.188178
 20
309.641144
 30
0.0
  0
VERTEX
  5
15C
330
159
100
AcDbEntity
  8
001
370
     9
100
AcDbVertex
100
AcDb2dVertex
 10
241.688178
 20
309.23922
 30
0.0
  0
VERTEX
  5
15D
330
159
100
AcDbEntity
  8
001
370
     9
100
AcDbVertex
100
AcDb2dVertex
 10
240.188178
 20
308.837296
 30
0.0
  0
SEQEND
  5
15A
330
159
100
AcDbEntity
  8
001
370
     9
  0
TEXT
  5
15E
330
14E
100
AcDbEntity
  8
001
370
    30
100
AcDbText
 10
172.687723
 20
310.23922
 30
0.0
 40
4.0
  1
１２６
 41
0.833333
100
AcDbText
  0
POINT
  5
15F
330
14E
100
AcDbEntity
  8
001
370
     9
100
AcDbPoint
 10
115.687268
 20
325.589665
 30
0.0
  0
POINT
  5
160
330
14E
100
AcDbEntity
  8
001
370
     9
100
AcDbPoint
 10
241.688178
 20
333.930081
 30
0.0
  0
POINT
  5
161
330
14E
100
AcDbEntity
  8
001
370
     9
100
AcDbPoint
 10
241.688178
 20
309.23922
 30
0.0
  0
ENDBLK
  5
150
330
14E
100
AcDbEntity
  8
0
100
AcDbBlockEnd
  0
BLOCK
  5
163
330
162
100
AcDbEntity
  8
0
100
AcDbBlockBegin
  2
*D14
 70
     1
 10
0.0
 20
0.0
 30
0.0
  3
*D14
  1

  0
LINE
  5
165
330
162
100
AcDbEntity
  8
001
370
     9
100
AcDbLine
 10
123.771378
 20
332.01551
 30
0.0
 11
141.414096
 21
314.372792
 31
0.0
  0
ARC
  5
166
330
162
100
AcDbEntity
  8
001
370
     9
100
AcDbCircle
 10
102.856808
 20
352.930081
 30
0.0
 40
51.77824012678922
100
AcDbArc
 50
315.0
 51
0.0
  0
POLYLINE
  5
167
330
162
100
AcDbEntity
  8
001
370
     9
100
AcDb2dPolyline
 66
     1
 10
0.0
 20
0.0
 30
0.0
  0
VERTEX
  5
169
330
167
100
AcDbEntity
  8
001
370
     9
100
AcDbVertex
100
AcDb2dVertex
 10
154.21144
 20
351.43606
 30
0.0
  0
VERTEX
  5
16A
330
167
100
AcDbEntity
  8
001
370
     9
100
AcDbVertex
100
AcDb2dVertex
 10
154.635048
 20
352.930081
 30
0.0
  0
VERTEX
  5
16B
330
167
100
AcDbEntity
  8
001
370
     9
100
AcDbVertex
100
AcDb2dVertex
 10
155.015203
 20
351.424416
 30
0.0
  0
SEQEND
  5
168
330
167
100
AcDbEntity
  8
001
370
     9
  0
POLYLINE
  5
16C
330
162
100
AcDbEntity
  8
001
370
     9
100
AcDb2dPolyline
 66
     1
 10
0.0
 20
0.0
 30
0.0
  0
VERTEX
  5
16E
330
16C
100
AcDbEntity
  8
001
370
     9
100
AcDbVertex
100
AcDb2dVertex
 10
140.803028
 20
317.113191
 30
0.0
  0
VERTEX
  5
16F
330
16C
100
AcDbEntity
  8
001
370
     9
100
AcDbVertex
100
AcDb2dVertex
 10
139.469552
 20
316.317336
 30
0.0
  0
VERTEX
  5
170
330
16C
100
AcDbEntity
  8
001
370
     9
100
AcDbVertex
100
AcDb2dVertex
 10
140.226448
 20
317.673305
 30
0.0
  0
SEQEND
  5
16D
330
16C
100
AcDbEntity
  8
001
370
     9
  0
TEXT
  5
171
330
162
100
AcDbEntity
  8
001
370
    30
100
AcDbText
 10
142.683278
 20
320.863245
 30
0.0
 40
4.0
  1
４５%%d
 50
57.899111
 41
0.978261
100
AcDbText
  0
POINT
  5
172
330
162
100
AcDbEntity
  8
001
370
     9
100
AcDbPoint
 10
128.288178
 20
352.930081
 30
0.0
  0
POINT
  5
173
330
162
100
AcDbEntity
  8
001
370
     9
100
AcDbPoint
 10
102.856808
 20
352.930081
 30
0.0
  0
POINT
  5
174
330
162
100
AcDbEntity
  8
001
370
     9
100
AcDbPoint
 10
102.856808
 20
352.930081
 30
0.0
  0
POINT
  5
175
330
162
100
AcDbEntity
  8
001
370
     9
100
AcDbPoint
 10
123.771378
 20
332.01551
 30
0.0
  0
ENDBLK
  5
164
330
162
100
AcDbEntity
  8
0
100
AcDbBlockEnd
  0
BLOCK
  5
177
330
176
100
AcDbEntity
  8
0
100
AcDbBlockBegin
  2
*D15
 70
     1
 10
0.0
 20
0.0
 30
0.0
  3
*D15
  1

  0
LINE
  5
179
330
176
100
AcDbEntity
  8
001
370
     9
100
AcDbLine
 10
128.288178
 20
352.930081
 30
0.0
 11
96.062366
 21
352.930081
 31
0.0
  0
LINE
  5
17A
330
176
100
AcDbEntity
  8
001
370
     9
100
AcDbLine
 10
102.455357
 20
331.780285
 30
0.0
 11
96.062366
 21
331.780285
 31
0.0
  0
LINE
  5
17B
330
176
100
AcDbEntity
  8
001
370
     9
100
AcDbLine
 10
98.812366
 20
352.930081
 30
0.0
 11
98.812366
 21
331.780285
 31
0.0
  0
POLYLINE
  5
17C
330
176
100
AcDbEntity
  8
001
370
     9
100
AcDb2dPolyline
 66
     1
 10
0.0
 20
0.0
 30
0.0
  0
VERTEX
  5
17E
330
17C
100
AcDbEntity
  8
001
370
     9
100
AcDbVertex
100
AcDb2dVertex
 10
98.410442
 20
351.430081
 30
0.0
  0
VERTEX
  5
17F
330
17C
100
AcDbEntity
  8
001
370
     9
100
AcDbVertex
100
AcDb2dVertex
 10
98.812366
 20
352.930081
 30
0.0
  0
VERTEX
  5
180
330
17C
100
AcDbEntity
  8
001
370
     9
100
AcDbVertex
100
AcDb2dVertex
 10
99.214289
 20
351.430081
 30
0.0
  0
SEQEND
  5
17D
330
17C
100
AcDbEntity
  8
001
370
     9
  0
POLYLINE
  5
181
330
176
100
AcDbEntity
  8
001
370
     9
100
AcDb2dPolyline
 66
     1
 10
0.0
 20
0.0
 30
0.0
  0
VERTEX
  5
183
330
181
100
AcDbEntity
  8
001
370
     9
100
AcDbVertex
100
AcDb2dVertex
 10
99.214289
 20
333.280285
 30
0.0
  0
VERTEX
  5
184
330
181
100
AcDbEntity
  8
001
370
     9
100
AcDbVertex
100
AcDb2dVertex
 10
98.812366
 20
331.780285
 30
0.0
  0
VERTEX
  5
185
330
181
100
AcDbEntity
  8
001
370
     9
100
AcDbVertex
100
AcDb2dVertex
 10
98.410442
 20
333.280285
 30
0.0
  0
SEQEND
  5
182
330
181
100
AcDbEntity
  8
001
370
     9
  0
TEXT
  5
186
330
176
100
AcDbEntity
  8
001
370
    30
100
AcDbText
 10
97.812366
 20
334.355183
 30
0.0
 40
4.0
  1
２１．１
 50
90.000003
 41
0.833333
100
AcDbText
  0
POINT
  5
187
330
176
100
AcDbEntity
  8
001
370
     9
100
AcDbPoint
 10
128.288178
 20
352.930081
 30
0.0
  0
POINT
  5
188
330
176
100
AcDbEntity
  8
001
370
     9
100
AcDbPoint
 10
102.455357
 20
331.780285
 30
0.0
  0
POINT
  5
189
330
176
100
AcDbEntity
  8
001
370
     9
100
AcDbPoint
 10
98.812366
 20
331.780285
 30
0.0
  0
ENDBLK
  5
178
330
176
100
AcDbEntity
  8
0
100
AcDbBlockEnd
  0
BLOCK
  5
18B
330
18A
100
AcDbEntity
  8
0
100
AcDbBlockBegin
  2
*D16
 70
     1
 10
0.0
 20
0.0
 30
0.0
  3
*D16
  1

  0
LINE
  5
18D
330
18A
100
AcDbEntity
  8
001
370
     9
100
AcDbLine
 10
241.688178
 20
446.681826
 30
0.0
 11
264.042212
 21
446.681826
 31
0.0
  0
LINE
  5
18E
330
18A
100
AcDbEntity
  8
001
370
     9
100
AcDbLine
 10
241.688178
 20
465.681826
 30
0.0
 11
264.042212
 21
465.681826
 31
0.0
  0
LINE
  5
18F
330
18A
100
AcDbEntity
  8
001
370
     9
100
AcDbLine
 10
261.292212
 20
446.681826
 30
0.0
 11
261.292212
 21
465.681826
 31
0.0
  0
POLYLINE
  5
190
330
18A
100
AcDbEntity
  8
001
370
     9
100
AcDb2dPolyline
 66
     1
 10
0.0
 20
0.0
 30
0.0
  0
VERTEX
  5
192
330
190
100
AcDbEntity
  8
001
370
     9
100
AcDbVertex
100
AcDb2dVertex
 10
261.694136
 20
448.181826
 30
0.0
  0
VERTEX
  5
193
330
190
100
AcDbEntity
  8
001
370
     9
100
AcDbVertex
100
AcDb2dVertex
 10
261.292212
 20
446.681826
 30
0.0
  0
VERTEX
  5
194
330
190
100
AcDbEntity
  8
001
370
     9
100
AcDbVertex
100
AcDb2dVertex
 10
260.890288
 20
448.181826
 30
0.0
  0
SEQEND
  5
191
330
190
100
AcDbEntity
  8
001
370
     9
  0
POLYLINE
  5
195
330
18A
100
AcDbEntity
  8
001
370
     9
100
AcDb2dPolyline
 66
     1
 10
0.0
 20
0.0
 30
0.0
  0
VERTEX
  5
197
330
195
100
AcDbEntity
  8
001
370
     9
100
AcDbVertex
100
AcDb2dVertex
 10
260.890288
 20
464.181826
 30
0.0
  0
VERTEX
  5
198
330
195
100
AcDbEntity
  8
001
370
     9
100
AcDbVertex
100
AcDb2dVertex
 10
261.292212
 20
465.681826
 30
0.0
  0
VERTEX
  5
199
330
195
100
AcDbEntity
  8
001
370
     9
100
AcDbVertex
100
AcDb2dVertex
 10
261.694136
 20
464.181826
 30
0.0
  0
SEQEND
  5
196
330
195
100
AcDbEntity
  8
001
370
     9
  0
TEXT
  5
19A
330
18A
100
AcDbEntity
  8
001
370
    30
100
AcDbText
 10
260.292212
 20
452.181826
 30
0.0
 40
4.0
  1
１９
 50
90.000003
 41
0.833333
100
AcDbText
  0
POINT
  5
19B
330
18A
100
AcDbEntity
  8
001
370
     9
100
AcDbPoint
 10
241.688178
 20
446.681826
 30
0.0
  0
POINT
  5
19C
330
18A
100
AcDbEntity
  8
001
370
     9
100
AcDbPoint
 10
241.688178
 20
465.681826
 30
0.0
  0
POINT
  5
19D
330
18A
100
AcDbEntity
  8
001
370
     9
100
AcDbPoint
 10
261.292212
 20
465.681826
 30
0.0
  0
ENDBLK
  5
18C
330
18A
100
AcDbEntity
  8
0
100
AcDbBlockEnd
  0
BLOCK
  5
19F
330
19E
100
AcDbEntity
  8
0
100
AcDbBlockBegin
  2
*D17
 70
     1
 10
0.0
 20
0.0
 30
0.0
  3
*D17
  1

  0
LINE
  5
1A1
330
19E
100
AcDbEntity
  8
001
370
     9
100
AcDbLine
 10
115.687268
 20
438.34141
 30
0.0
 11
115.687268
 21
419.240966
 31
0.0
  0
LINE
  5
1A2
330
19E
100
AcDbEntity
  8
001
370
     9
100
AcDbLine
 10
241.688178
 20
446.681826
 30
0.0
 11
241.688178
 21
419.240966
 31
0.0
  0
LINE
  5
1A3
330
19E
100
AcDbEntity
  8
001
370
     9
100
AcDbLine
 10
115.687268
 20
421.990966
 30
0.0
 11
241.688178
 21
421.990966
 31
0.0
  0
POLYLINE
  5
1A4
330
19E
100
AcDbEntity
  8
001
370
     9
100
AcDb2dPolyline
 66
     1
 10
0.0
 20
0.0
 30
0.0
  0
VERTEX
  5
1A6
330
1A4
100
AcDbEntity
  8
001
370
     9
100
AcDbVertex
100
AcDb2dVertex
 10
117.187268
 20
421.589042
 30
0.0
  0
VERTEX
  5
1A7
330
1A4
100
AcDbEntity
  8
001
370
     9
100
AcDbVertex
100
AcDb2dVertex
 10
115.687268
 20
421.990966
 30
0.0
  0
VERTEX
  5
1A8
330
1A4
100
AcDbEntity
  8
001
370
     9
100
AcDbVertex
100
AcDb2dVertex
 10
117.187268
 20
422.392889
 30
0.0
  0
SEQEND
  5
1A5
330
1A4
100
AcDbEntity
  8
001
370
     9
  0
POLYLINE
  5
1A9
330
19E
100
AcDbEntity
  8
001
370
     9
100
AcDb2dPolyline
 66
     1
 10
0.0
 20
0.0
 30
0.0
  0
VERTEX
  5
1AB
330
1A9
100
AcDbEntity
  8
001
370
     9
100
AcDbVertex
100
AcDb2dVertex
 10
240.188178
 20
422.392889
 30
0.0
  0
VERTEX
  5
1AC
330
1A9
100
AcDbEntity
  8
001
370
     9
100
AcDbVertex
100
AcDb2dVertex
 10
241.688178
 20
421.990966
 30
0.0
  0
VERTEX
  5
1AD
330
1A9
100
AcDbEntity
  8
001
370
     9
100
AcDbVertex
100
AcDb2dVertex
 10
240.188178
 20
421.589042
 30
0.0
  0
SEQEND
  5
1AA
330
1A9
100
AcDbEntity
  8
001
370
     9
  0
TEXT
  5
1AE
330
19E
100
AcDbEntity
  8
001
370
    30
100
AcDbText
 10
172.687723
 20
422.990966
 30
0.0
 40
4.0
  1
１２６
 41
0.833333
100
AcDbText
  0
POINT
  5
1AF
330
19E
100
AcDbEntity
  8
001
370
     9
100
AcDbPoint
 10
115.687268
 20
438.34141
 30
0.0
  0
POINT
  5
1B0
330
19E
100
AcDbEntity
  8
001
370
     9
100
AcDbPoint
 10
241.688178
 20
446.681826
 30
0.0
  0
POINT
  5
1B1
330
19E
100
AcDbEntity
  8
001
370
     9
100
AcDbPoint
 10
241.688178
 20
421.990966
 30
0.0
  0
ENDBLK
  5
1A0
330
19E
100
AcDbEntity
  8
0
100
AcDbBlockEnd
  0
BLOCK
  5
1B3
330
1B2
100
AcDbEntity
  8
0
100
AcDbBlockBegin
  2
*D18
 70
     1
 10
0.0
 20
0.0
 30
0.0
  3
*D18
  1

  0
LINE
  5
1B5
330
1B2
100
AcDbEntity
  8
001
370
     9
100
AcDbLine
 10
123.771378
 20
444.767256
 30
0.0
 11
141.414096
 21
427.124538
 31
0.0
  0
ARC
  5
1B6
330
1B2
100
AcDbEntity
  8
001
370
     9
100
AcDbCircle
 10
102.856808
 20
465.681826
 30
0.0
 40
51.77824012678922
100
AcDbArc
 50
315.0
 51
0.0
  0
POLYLINE
  5
1B7
330
1B2
100
AcDbEntity
  8
001
370
     9
100
AcDb2dPolyline
 66
     1
 10
0.0
 20
0.0
 30
0.0
  0
VERTEX
  5
1B9
330
1B7
100
AcDbEntity
  8
001
370
     9
100
AcDbVertex
100
AcDb2dVertex
 10
140.803028
 20
429.864937
 30
0.0
  0
VERTEX
  5
1BA
330
1B7
100
AcDbEntity
  8
001
370
     9
100
AcDbVertex
100
AcDb2dVertex
 10
139.469552
 20
429.069082
 30
0.0
  0
VERTEX
  5
1BB
330
1B7
100
AcDbEntity
  8
001
370
     9
100
AcDbVertex
100
AcDb2dVertex
 10
140.226448
 20
430.42505
 30
0.0
  0
SEQEND
  5
1B8
330
1B7
100
AcDbEntity
  8
001
370
     9
  0
POLYLINE
  5
1BC
330
1B2
100
AcDbEntity
  8
001
370
     9
100
AcDb2dPolyline
 66
     1
 10
0.0
 20
0.0
 30
0.0
  0
VERTEX
  5
1BE
330
1BC
100
AcDbEntity
  8
001
370
     9
100
AcDbVertex
100
AcDb2dVertex
 10
154.21144
 20
464.187805
 30
0.0
  0
VERTEX
  5
1BF
330
1BC
100
AcDbEntity
  8
001
370
     9
100
AcDbVertex
100
AcDb2dVertex
 10
154.635048
 20
465.681826
 30
0.0
  0
VERTEX
  5
1C0
330
1BC
100
AcDbEntity
  8
001
370
     9
100
AcDbVertex
100
AcDb2dVertex
 10
155.015203
 20
464.176162
 30
0.0
  0
SEQEND
  5
1BD
330
1BC
100
AcDbEntity
  8
001
370
     9
  0
TEXT
  5
1C1
330
1B2
100
AcDbEntity
  8
001
370
    30
100
AcDbText
 10
142.683278
 20
433.614991
 30
0.0
 40
4.0
  1
４５%%d
 50
57.899111
 41
0.978261
100
AcDbText
  0
POINT
  5
1C2
330
1B2
100
AcDbEntity
  8
001
370
     9
100
AcDbPoint
 10
128.288178
 20
465.681826
 30
0.0
  0
POINT
  5
1C3
330
1B2
100
AcDbEntity
  8
001
370
     9
100
AcDbPoint
 10
102.856808
 20
465.681826
 30
0.0
  0
POINT
  5
1C4
330
1B2
100
AcDbEntity
  8
001
370
     9
100
AcDbPoint
 10
102.856808
 20
465.681826
 30
0.0
  0
POINT
  5
1C5
330
1B2
100
AcDbEntity
  8
001
370
     9
100
AcDbPoint
 10
123.771378
 20
444.767256
 30
0.0
  0
ENDBLK
  5
1B4
330
1B2
100
AcDbEntity
  8
0
100
AcDbBlockEnd
  0
BLOCK
  5
1C7
330
1C6
100
AcDbEntity
  8
0
100
AcDbBlockBegin
  2
*D19
 70
     1
 10
0.0
 20
0.0
 30
0.0
  3
*D19
  1

  0
LINE
  5
1C9
330
1C6
100
AcDbEntity
  8
001
370
     9
100
AcDbLine
 10
128.288178
 20
465.681826
 30
0.0
 11
96.062366
 21
465.681826
 31
0.0
  0
LINE
  5
1CA
330
1C6
100
AcDbEntity
  8
001
370
     9
100
AcDbLine
 10
102.455357
 20
444.53203
 30
0.0
 11
96.062366
 21
444.53203
 31
0.0
  0
LINE
  5
1CB
330
1C6
100
AcDbEntity
  8
001
370
     9
100
AcDbLine
 10
98.812366
 20
465.681826
 30
0.0
 11
98.812366
 21
444.53203
 31
0.0
  0
POLYLINE
  5
1CC
330
1C6
100
AcDbEntity
  8
001
370
     9
100
AcDb2dPolyline
 66
     1
 10
0.0
 20
0.0
 30
0.0
  0
VERTEX
  5
1CE
330
1CC
100
AcDbEntity
  8
001
370
     9
100
AcDbVertex
100
AcDb2dVertex
 10
98.410442
 20
464.181826
 30
0.0
  0
VERTEX
  5
1CF
330
1CC
100
AcDbEntity
  8
001
370
     9
100
AcDbVertex
100
AcDb2dVertex
 10
98.812366
 20
465.681826
 30
0.0
  0
VERTEX
  5
1D0
330
1CC
100
AcDbEntity
  8
001
370
     9
100
AcDbVertex
100
AcDb2dVertex
 10
99.214289
 20
464.181826
 30
0.0
  0
SEQEND
  5
1CD
330
1CC
100
AcDbEntity
  8
001
370
     9
  0
POLYLINE
  5
1D1
330
1C6
100
AcDbEntity
  8
001
370
     9
100
AcDb2dPolyline
 66
     1
 10
0.0
 20
0.0
 30
0.0
  0
VERTEX
  5
1D3
330
1D1
100
AcDbEntity
  8
001
370
     9
100
AcDbVertex
100
AcDb2dVertex
 10
99.214289
 20
446.03203
 30
0.0
  0
VERTEX
  5
1D4
330
1D1
100
AcDbEntity
  8
001
370
     9
100
AcDbVertex
100
AcDb2dVertex
 10
98.812366
 20
444.53203
 30
0.0
  0
VERTEX
  5
1D5
330
1D1
100
AcDbEntity
  8
001
370
     9
100
AcDbVertex
100
AcDb2dVertex
 10
98.410442
 20
446.03203
 30
0.0
  0
SEQEND
  5
1D2
330
1D1
100
AcDbEntity
  8
001
370
     9
  0
TEXT
  5
1D6
330
1C6
100
AcDbEntity
  8
001
370
    30
100
AcDbText
 10
97.812366
 20
447.106928
 30
0.0
 40
4.0
  1
２１．１
 50
90.000003
 41
0.833333
100
AcDbText
  0
POINT
  5
1D7
330
1C6
100
AcDbEntity
  8
001
370
     9
100
AcDbPoint
 10
128.288178
 20
465.681826
 30
0.0
  0
POINT
  5
1D8
330
1C6
100
AcDbEntity
  8
001
370
     9
100
AcDbPoint
 10
102.455357
 20
444.53203
 30
0.0
  0
POINT
  5
1D9
330
1C6
100
AcDbEntity
  8
001
370
     9
100
AcDbPoint
 10
98.812366
 20
444.53203
 30
0.0
  0
ENDBLK
  5
1C8
330
1C6
100
AcDbEntity
  8
0
100
AcDbBlockEnd
  0
ENDSEC
  0
SECTION
  2
ENTITIES
  0
DIMENSION
  5
1DA
330
1F
100
AcDbEntity
  8
001
370
     9
100
AcDbDimension
  2
*D1
 10
261.292212
 20
105.208682
 30
0.0
 11
258.292212
 21
95.708681
 31
0.0
 70
   160
 71
     5
 42
-1.0
  3
Standard
100
AcDbAlignedDimension
 13
241.688178
 23
86.208682
 33
0.0
 14
241.688178
 24
105.208682
 34
0.0
 50
90.0
100
AcDbRotatedDimension
  0
DIMENSION
  5
1DB
330
1F
100
AcDbEntity
  8
001
370
     9
100
AcDbDimension
  2
*D2
 10
261.03911
 20
43.827647
 30
0.0
 11
258.03911
 21
33.827647
 31
0.0
 70
   160
 71
     5
 42
-1.0
  3
Standard
100
AcDbAlignedDimension
 13
241.688178
 23
23.827647
 33
0.0
 14
241.688178
 24
43.827647
 34
0.0
 50
90.0
100
AcDbRotatedDimension
  0
DIMENSION
  5
1DC
330
1F
100
AcDbEntity
  8
001
370
     9
100
AcDbDimension
  2
*D3
 10
241.688178
 20
61.517821
 30
0.0
 11
178.687723
 21
64.517821
 31
0.0
 70
   160
 71
     5
 42
-1.0
  3
Standard
100
AcDbAlignedDimension
 13
115.687268
 23
77.868266
 33
0.0
 14
241.688178
 24
86.208682
 34
0.0
100
AcDbRotatedDimension
  0
DIMENSION
  5
1DD
330
1F
100
AcDbEntity
  8
001
370
     9
100
AcDbDimension
  2
*D4
 10
102.856808
 20
105.208682
 30
0.0
 11
144.177521
 21
79.287351
 31
0.0
 70
    34
 71
     5
 42
-1.0
  3
Standard
100
AcDb2LineAngularDimension
 13
128.288178
 23
105.208682
 33
0.0
 14
102.856808
 24
105.208682
 34
0.0
 15
123.771378
 25
84.294111
 35
0.0
 16
150.693664
 26
85.394007
 36
0.0
  0
DIMENSION
  5
1DE
330
1F
100
AcDbEntity
  8
001
370
     9
100
AcDbDimension
  2
*D5
 10
98.812366
 20
84.058885
 30
0.0
 11
95.812365
 21
94.633783
 31
0.0
 70
   160
 71
     5
 42
-1.0
  3
Standard
100
AcDbAlignedDimension
 13
128.288178
 23
105.208682
 33
0.0
 14
102.455357
 24
84.058885
 34
0.0
 50
270.0
100
AcDbRotatedDimension
  0
DIMENSION
  5
1DF
330
1F
100
AcDbEntity
  8
001
370
     9
100
AcDbDimension
  2
*D6
 10
99.603316
 20
23.827647
 30
0.0
 11
96.603316
 21
33.289812
 31
0.0
 70
   160
 71
     5
 42
-1.0
  3
Standard
100
AcDbAlignedDimension
 13
107.702597
 23
42.751978
 33
0.0
 14
117.11934
 24
23.827647
 34
0.0
 50
270.0
100
AcDbRotatedDimension
  0
DIMENSION
  5
1E0
330
1F
100
AcDbEntity
  8
001
370
     9
100
AcDbDimension
  2
*D7
 10
117.875065
 20
86.246683
 30
0.0
 11
110.946641
 21
89.427011
 31
0.0
 70
   164
 71
     5
 42
-1.0
  3
Standard
100
AcDbRadialDimension
 15
121.03388
 25
88.700636
 35
0.0
 40
0.0
  0
DIMENSION
  5
1E1
330
1F
100
AcDbEntity
  8
001
370
     9
100
AcDbDimension
  2
*D8
 10
261.292212
 20
227.567943
 30
0.0
 11
258.292212
 21
218.067942
 31
0.0
 70
   160
 71
     5
 42
-1.0
  3
Standard
100
AcDbAlignedDimension
 13
241.688178
 23
208.567943
 33
0.0
 14
241.688178
 24
227.567943
 34
0.0
 50
90.0
100
AcDbRotatedDimension
  0
DIMENSION
  5
1E2
330
1F
100
AcDbEntity
  8
001
370
     9
100
AcDbDimension
  2
*D9
 10
241.688178
 20
183.877082
 30
0.0
 11
178.687723
 21
186.877082
 31
0.0
 70
   160
 71
     5
 42
-1.0
  3
Standard
100
AcDbAlignedDimension
 13
115.687268
 23
200.227527
 33
0.0
 14
241.688178
 24
208.567943
 34
0.0
100
AcDbRotatedDimension
  0
DIMENSION
  5
1E3
330
1F
100
AcDbEntity
  8
001
370
     9
100
AcDbDimension
  2
*D10
 10
102.856808
 20
227.567943
 30
0.0
 11
144.177521
 21
201.646612
 31
0.0
 70
    34
 71
     5
 42
-1.0
  3
Standard
100
AcDb2LineAngularDimension
 13
128.288178
 23
227.567943
 33
0.0
 14
102.856808
 24
227.567943
 34
0.0
 15
123.771378
 25
206.653372
 35
0.0
 16
150.693664
 26
207.753268
 36
0.0
  0
DIMENSION
  5
1E4
330
1F
100
AcDbEntity
  8
001
370
     9
100
AcDbDimension
  2
*D11
 10
98.812366
 20
206.418146
 30
0.0
 11
95.812365
 21
216.993044
 31
0.0
 70
   160
 71
     5
 42
-1.0
  3
Standard
100
AcDbAlignedDimension
 13
128.288178
 23
227.567943
 33
0.0
 14
102.455357
 24
206.418146
 34
0.0
 50
270.0
100
AcDbRotatedDimension
  0
ARC
  5
1E5
330
1F
100
AcDbEntity
  8
001
370
     9
100
AcDbCircle
 10
119.375065
 20
210.105944
 30
0.0
 40
1.0
100
AcDbArc
 50
90.0
 51
346.686024
  0
TEXT
  5
1E6
330
1F
100
AcDbEntity
  8
001
370
    30
100
AcDbText
 10
106.874626
 20
209.111444
 30
0.0
 40
4.0
  1
Ｒ１
 50
9.12263
 41
0.833333
100
AcDbText
  0
POLYLINE
  5
1E7
330
1F
100
AcDbEntity
  8
001
370
     9
100
AcDb2dPolyline
 66
     1
 10
0.0
 20
0.0
 30
0.0
  0
VERTEX
  5
1E9
330
1E7
100
AcDbEntity
  8
001
370
     9
100
AcDbVertex
100
AcDb2dVertex
 10
116.842963
 20
210.106414
 30
0.0
  0
VERTEX
  5
1EA
330
1E7
100
AcDbEntity
  8
001
370
     9
100
AcDbVertex
100
AcDb2dVertex
 10
118.387714
 20
209.947396
 30
0.0
  0
VERTEX
  5
1EB
330
1E7
100
AcDbEntity
  8
001
370
     9
100
AcDbVertex
100
AcDb2dVertex
 10
116.970411
 20
209.312734
 30
0.0
  0
SEQEND
  5
1E8
330
1E7
100
AcDbEntity
  8
001
370
     9
  0
LINE
  5
1EC
330
1F
100
AcDbEntity
  8
001
370
     9
100
AcDbLine
 10
104.07112
 20
207.648449
 30
0.0
 11
119.375065
 21
210.105944
 31
0.0
  0
DIMENSION
  5
1ED
330
1F
100
AcDbEntity
  8
001
370
     9
100
AcDbDimension
  2
*D12
 10
261.292212
 20
352.930081
 30
0.0
 11
258.292212
 21
343.430081
 31
0.0
 70
   160
 71
     5
 42
-1.0
  3
Standard
100
AcDbAlignedDimension
 13
241.688178
 23
333.930081
 33
0.0
 14
241.688178
 24
352.930081
 34
0.0
 50
90.0
100
AcDbRotatedDimension
  0
DIMENSION
  5
1EE
330
1F
100
AcDbEntity
  8
001
370
     9
100
AcDbDimension
  2
*D13
 10
241.688178
 20
309.23922
 30
0.0
 11
178.687723
 21
312.23922
 31
0.0
 70
   160
 71
     5
 42
-1.0
  3
Standard
100
AcDbAlignedDimension
 13
115.687268
 23
325.589665
 33
0.0
 14
241.688178
 24
333.930081
 34
0.0
100
AcDbRotatedDimension
  0
DIMENSION
  5
1EF
330
1F
100
AcDbEntity
  8
001
370
     9
100
AcDbDimension
  2
*D14
 10
102.856808
 20
352.930081
 30
0.0
 11
144.177521
 21
327.008751
 31
0.0
 70
    34
 71
     5
 42
-1.0
  3
Standard
100
AcDb2LineAngularDimension
 13
128.288178
 23
352.930081
 33
0.0
 14
102.856808
 24
352.930081
 34
0.0
 15
123.771378
 25
332.01551
 35
0.0
 16
150.693664
 26
333.115406
 36
0.0
  0
DIMENSION
  5
1F0
330
1F
100
AcDbEntity
  8
001
370
     9
100
AcDbDimension
  2
*D15
 10
98.812366
 20
331.780285
 30
0.0
 11
95.812365
 21
342.355183
 31
0.0
 70
   160
 71
     5
 42
-1.0
  3
Standard
100
AcDbAlignedDimension
 13
128.288178
 23
352.930081
 33
0.0
 14
102.455357
 24
331.780285
 34
0.0
 50
270.0
100
AcDbRotatedDimension
  0
ARC
  5
1F1
330
1F
100
AcDbEntity
  8
001
370
     9
100
AcDbCircle
 10
118.875065
 20
334.968082
 30
0.0
 40
2.0
100
AcDbArc
 50
90.0
 51
261.525868
  0
TEXT
  5
1F2
330
1F
100
AcDbEntity
  8
001
370
    30
100
AcDbText
 10
105.342669
 20
335.320602
 30
0.0
 40
4.0
  1
Ｒ２
 50
2.744171
 41
0.833333
100
AcDbText
  0
POLYLINE
  5
1F3
330
1F
100
AcDbEntity
  8
001
370
     9
100
AcDb2dPolyline
 66
     1
 10
0.0
 20
0.0
 30
0.0
  0
VERTEX
  5
1F5
330
1F3
100
AcDbEntity
  8
001
370
     9
100
AcDbVertex
100
AcDb2dVertex
 10
115.359836
 20
335.201977
 30
0.0
  0
VERTEX
  5
1F6
330
1F3
100
AcDbEntity
  8
001
370
     9
100
AcDbVertex
100
AcDb2dVertex
 10
116.877358
 20
334.872329
 30
0.0
  0
VERTEX
  5
1F7
330
1F3
100
AcDbEntity
  8
001
370
     9
100
AcDbVertex
100
AcDb2dVertex
 10
115.398321
 20
334.399051
 30
0.0
  0
SEQEND
  5
1F4
330
1F3
100
AcDbEntity
  8
001
370
     9
  0
LINE
  5
1F8
330
1F
100
AcDbEntity
  8
001
370
     9
100
AcDbLine
 10
102.393986
 20
334.17812
 30
0.0
 11
118.875065
 21
334.968082
 31
0.0
  0
DIMENSION
  5
1F9
330
1F
100
AcDbEntity
  8
001
370
     9
100
AcDbDimension
  2
*D16
 10
261.292212
 20
465.681826
 30
0.0
 11
258.292212
 21
456.181826
 31
0.0
 70
   160
 71
     5
 42
-1.0
  3
Standard
100
AcDbAlignedDimension
 13
241.688178
 23
446.681826
 33
0.0
 14
241.688178
 24
465.681826
 34
0.0
 50
90.0
100
AcDbRotatedDimension
  0
DIMENSION
  5
1FA
330
1F
100
AcDbEntity
  8
001
370
     9
100
AcDbDimension
  2
*D17
 10
241.688178
 20
421.990966
 30
0.0
 11
178.687723
 21
424.990966
 31
0.0
 70
   160
 71
     5
 42
-1.0
  3
Standard
100
AcDbAlignedDimension
 13
115.687268
 23
438.34141
 33
0.0
 14
241.688178
 24
446.681826
 34
0.0
100
AcDbRotatedDimension
  0
DIMENSION
  5
1FB
330
1F
100
AcDbEntity
  8
001
370
     9
100
AcDbDimension
  2
*D18
 10
102.856808
 20
465.681826
 30
0.0
 11
144.177521
 21
439.760496
 31
0.0
 70
    34
 71
     5
 42
-1.0
  3
Standard
100
AcDb2LineAngularDimension
 13
128.288178
 23
465.681826
 33
0.0
 14
102.856808
 24
465.681826
 34
0.0
 15
123.771378
 25
444.767256
 35
0.0
 16
150.693664
 26
445.867152
 36
0.0
  0
DIMENSION
  5
1FC
330
1F
100
AcDbEntity
  8
001
370
     9
100
AcDbDimension
  2
*D19
 10
98.812366
 20
444.53203
 30
0.0
 11
95.812365
 21
455.106928
 31
0.0
 70
   160
 71
     5
 42
-1.0
  3
Standard
100
AcDbAlignedDimension
 13
128.288178
 23
465.681826
 33
0.0
 14
102.455357
 24
444.53203
 34
0.0
 50
270.0
100
AcDbRotatedDimension
  0
ARC
  5
1FD
330
1F
100
AcDbEntity
  8
001
370
     9
100
AcDbCircle
 10
118.375065
 20
447.219828
 30
0.0
 40
3.0
100
AcDbArc
 50
90.0
 51
231.715039
  0
TEXT
  5
1FE
330
1F
100
AcDbEntity
  8
001
370
    30
100
AcDbText
 10
103.890568
 20
448.423722
 30
0.0
 40
4.0
  1
Ｒ３
 50
359.193911
 41
0.833333
100
AcDbText
  0
POLYLINE
  5
1FF
330
1F
100
AcDbEntity
  8
001
370
     9
100
AcDb2dPolyline
 66
     1
 10
0.0
 20
0.0
 30
0.0
  0
VERTEX
  5
201
330
1FF
100
AcDbEntity
  8
001
370
     9
100
AcDbVertex
100
AcDb2dVertex
 10
113.881165
 20
447.68502
 30
0.0
  0
VERTEX
  5
202
330
1FF
100
AcDbEntity
  8
001
370
     9
100
AcDbVertex
100
AcDb2dVertex
 10
115.375362
 20
447.262033
 30
0.0
  0
VERTEX
  5
203
330
1FF
100
AcDbEntity
  8
001
370
     9
100
AcDbVertex
100
AcDb2dVertex
 10
113.869856
 20
446.881252
 30
0.0
  0
SEQEND
  5
200
330
1FF
100
AcDbEntity
  8
001
370
     9
  0
LINE
  5
204
330
1F
100
AcDbEntity
  8
001
370
     9
100
AcDbLine
 10
100.876797
 20
447.466026
 30
0.0
 11
118.375065
 21
447.219828
 31
0.0
  0
LINE
  5
205
330
1F
100
AcDbEntity
  8
001
370
    50
100
AcDbLine
 10
126.74564
 20
86.137002
 30
0.0
 11
126.785266
 21
86.233197
 31
0.0
  0
POLYLINE
  5
206
330
1F
100
AcDbEntity
  8
001
370
    50
100
AcDb2dPolyline
 66
     1
 10
0.0
 20
0.0
 30
0.0
  0
VERTEX
  5
208
330
206
100
AcDbEntity
  8
001
370
    50
100
AcDbVertex
100
AcDb2dVertex
 10
123.771378
 20
84.294111
 30
0.0
  0
VERTEX
  5
209
330
206
100
AcDbEntity
  8
001
370
    50
100
AcDbVertex
100
AcDb2dVertex
 10
123.820717
 20
84.250192
 30
0.0
  0
VERTEX
  5
20A
330
206
100
AcDbEntity
  8
001
370
    50
100
AcDbVertex
100
AcDb2dVertex
 10
123.892548
 20
84.194561
 30
0.0
  0
VERTEX
  5
20B
330
206
100
AcDbEntity
  8
001
370
    50
100
AcDbVertex
100
AcDb2dVertex
 10
123.962168
 20
84.151777
 30
0.0
  0
VERTEX
  5
20C
330
206
100
AcDbEntity
  8
001
370
    50
100
AcDbVertex
100
AcDb2dVertex
 10
124.030681
 20
84.120457
 30
0.0
  0
VERTEX
  5
20D
330
206
100
AcDbEntity
  8
001
370
    50
100
AcDbVertex
100
AcDb2dVertex
 10
124.10381
 20
84.094506
 30
0.0
  0
VERTEX
  5
20E
330
206
100
AcDbEntity
  8
001
370
    50
100
AcDbVertex
100
AcDb2dVertex
 10
124.180469
 20
84.074646
 30
0.0
  0
VERTEX
  5
20F
330
206
100
AcDbEntity
  8
001
370
    50
100
AcDbVertex
100
AcDb2dVertex
 10
124.258141
 20
84.062827
 30
0.0
  0
VERTEX
  5
210
330
206
100
AcDbEntity
  8
001
370
    50
100
AcDbVertex
100
AcDb2dVertex
 10
124.336156
 20
84.058889
 30
0.0
  0
VERTEX
  5
211
330
206
100
AcDbEntity
  8
001
370
    50
100
AcDbVertex
100
AcDb2dVertex
 10
124.414109
 20
84.062393
 30
0.0
  0
VERTEX
  5
212
330
206
100
AcDbEntity
  8
001
370
    50
100
AcDbVertex
100
AcDb2dVertex
 10
124.491759
 20
84.073791
 30
0.0
  0
VERTEX
  5
213
330
206
100
AcDbEntity
  8
001
370
    50
100
AcDbVertex
100
AcDb2dVertex
 10
124.568278
 20
84.093223
 30
0.0
  0
VERTEX
  5
214
330
206
100
AcDbEntity
  8
001
370
    50
100
AcDbVertex
100
AcDb2dVertex
 10
124.641297
 20
84.11878
 30
0.0
  0
VERTEX
  5
215
330
206
100
AcDbEntity
  8
001
370
    50
100
AcDbVertex
100
AcDb2dVertex
 10
124.709615
 20
84.149709
 30
0.0
  0
VERTEX
  5
216
330
206
100
AcDbEntity
  8
001
370
    50
100
AcDbVertex
100
AcDb2dVertex
 10
124.779025
 20
84.192126
 30
0.0
  0
VERTEX
  5
217
330
206
100
AcDbEntity
  8
001
370
    50
100
AcDbVertex
100
AcDb2dVertex
 10
124.850547
 20
84.247361
 30
0.0
  0
VERTEX
  5
218
330
206
100
AcDbEntity
  8
001
370
    50
100
AcDbVertex
100
AcDb2dVertex
 10
124.89965
 20
84.291012
 30
0.0
  0
SEQEND
  5
207
330
206
100
AcDbEntity
  8
001
370
    50
  0
LINE
  5
219
330
1F
100
AcDbEntity
  8
001
370
    50
100
AcDbLine
 10
121.91522
 20
86.150269
 30
0.0
 11
123.771378
 21
84.294111
 31
0.0
  0
LINE
  5
21A
330
1F
100
AcDbEntity
  8
001
370
    50
100
AcDbLine
 10
121.875065
 20
86.246683
 30
0.0
 11
121.91522
 21
86.150269
 31
0.0
  0
LINE
  5
21B
330
1F
100
AcDbEntity
  8
001
370
    50
100
AcDbLine
 10
117.778651
 20
90.286838
 30
0.0
 11
117.875065
 21
90.246683
 31
0.0
  0
LINE
  5
21C
330
1F
100
AcDbEntity
  8
001
370
    50
100
AcDbLine
 10
115.922493
 20
92.142996
 30
0.0
 11
117.778651
 21
90.286838
 31
0.0
  0
POLYLINE
  5
21D
330
1F
100
AcDbEntity
  8
001
370
    50
100
AcDb2dPolyline
 66
     1
 10
0.0
 20
0.0
 30
0.0
  0
VERTEX
  5
21F
330
21D
100
AcDbEntity
  8
001
370
    50
100
AcDbVertex
100
AcDb2dVertex
 10
115.919394
 20
93.271268
 30
0.0
  0
VERTEX
  5
220
330
21D
100
AcDbEntity
  8
001
370
    50
100
AcDbVertex
100
AcDb2dVertex
 10
115.875743
 20
93.222165
 30
0.0
  0
VERTEX
  5
221
330
21D
100
AcDbEntity
  8
001
370
    50
100
AcDbVertex
100
AcDb2dVertex
 10
115.820508
 20
93.150643
 30
0.0
  0
VERTEX
  5
222
330
21D
100
AcDbEntity
  8
001
370
    50
100
AcDbVertex
100
AcDb2dVertex
 10
115.778091
 20
93.081233
 30
0.0
  0
VERTEX
  5
223
330
21D
100
AcDbEntity
  8
001
370
    50
100
AcDbVertex
100
AcDb2dVertex
 10
115.747162
 20
93.012915
 30
0.0
  0
VERTEX
  5
224
330
21D
100
AcDbEntity
  8
001
370
    50
100
AcDbVertex
100
AcDb2dVertex
 10
115.721605
 20
92.939896
 30
0.0
  0
VERTEX
  5
225
330
21D
100
AcDbEntity
  8
001
370
    50
100
AcDbVertex
100
AcDb2dVertex
 10
115.702173
 20
92.863377
 30
0.0
  0
VERTEX
  5
226
330
21D
100
AcDbEntity
  8
001
370
    50
100
AcDbVertex
100
AcDb2dVertex
 10
115.690775
 20
92.785727
 30
0.0
  0
VERTEX
  5
227
330
21D
100
AcDbEntity
  8
001
370
    50
100
AcDbVertex
100
AcDb2dVertex
 10
115.687271
 20
92.707774
 30
0.0
  0
VERTEX
  5
228
330
21D
100
AcDbEntity
  8
001
370
    50
100
AcDbVertex
100
AcDb2dVertex
 10
115.691209
 20
92.629759
 30
0.0
  0
VERTEX
  5
229
330
21D
100
AcDbEntity
  8
001
370
    50
100
AcDbVertex
100
AcDb2dVertex
 10
115.703028
 20
92.552087
 30
0.0
  0
VERTEX
  5
22A
330
21D
100
AcDbEntity
  8
001
370
    50
100
AcDbVertex
100
AcDb2dVertex
 10
115.722888
 20
92.475428
 30
0.0
  0
VERTEX
  5
22B
330
21D
100
AcDbEntity
  8
001
370
    50
100
AcDbVertex
100
AcDb2dVertex
 10
115.748839
 20
92.402299
 30
0.0
  0
VERTEX
  5
22C
330
21D
100
AcDbEntity
  8
001
370
    50
100
AcDbVertex
100
AcDb2dVertex
 10
115.780159
 20
92.333786
 30
0.0
  0
VERTEX
  5
22D
330
21D
100
AcDbEntity
  8
001
370
    50
100
AcDbVertex
100
AcDb2dVertex
 10
115.822943
 20
92.264166
 30
0.0
  0
VERTEX
  5
22E
330
21D
100
AcDbEntity
  8
001
370
    50
100
AcDbVertex
100
AcDb2dVertex
 10
115.878574
 20
92.192335
 30
0.0
  0
VERTEX
  5
22F
330
21D
100
AcDbEntity
  8
001
370
    50
100
AcDbVertex
100
AcDb2dVertex
 10
115.922493
 20
92.142996
 30
0.0
  0
SEQEND
  5
21E
330
21D
100
AcDbEntity
  8
001
370
    50
  0
LINE
  5
230
330
1F
100
AcDbEntity
  8
001
370
    50
100
AcDbLine
 10
117.861579
 20
95.156884
 30
0.0
 11
117.765384
 21
95.117258
 31
0.0
  0
POLYLINE
  5
231
330
1F
100
AcDbEntity
  8
001
370
    50
100
AcDb2dPolyline
 66
     1
 10
0.0
 20
0.0
 30
0.0
  0
VERTEX
  5
233
330
231
100
AcDbEntity
  8
001
370
    50
100
AcDbVertex
100
AcDb2dVertex
 10
120.679049
 20
96.317501
 30
0.0
  0
VERTEX
  5
234
330
231
100
AcDbEntity
  8
001
370
    50
100
AcDbVertex
100
AcDb2dVertex
 10
120.897307
 20
96.562148
 30
0.0
  0
VERTEX
  5
235
330
231
100
AcDbEntity
  8
001
370
    50
100
AcDbVertex
100
AcDb2dVertex
 10
121.173478
 20
96.920624
 30
0.0
  0
VERTEX
  5
236
330
231
100
AcDbEntity
  8
001
370
    50
100
AcDbVertex
100
AcDb2dVertex
 10
121.385551
 20
97.272006
 30
0.0
  0
VERTEX
  5
237
330
231
100
AcDbEntity
  8
001
370
    50
100
AcDbVertex
100
AcDb2dVertex
 10
121.540211
 20
97.609265
 30
0.0
  0
VERTEX
  5
238
330
231
100
AcDbEntity
  8
001
370
    50
100
AcDbVertex
100
AcDb2dVertex
 10
121.668042
 20
97.95788
 30
0.0
  0
VERTEX
  5
239
330
231
100
AcDbEntity
  8
001
370
    50
100
AcDbVertex
100
AcDb2dVertex
 10
121.765155
 20
98.356958
 30
0.0
  0
VERTEX
  5
23A
330
231
100
AcDbEntity
  8
001
370
    50
100
AcDbVertex
100
AcDb2dVertex
 10
121.821975
 20
98.806878
 30
0.0
  0
VERTEX
  5
23B
330
231
100
AcDbEntity
  8
001
370
    50
100
AcDbVertex
100
AcDb2dVertex
 10
121.839666
 20
99.134972
 30
0.0
  0
SEQEND
  5
232
330
231
100
AcDbEntity
  8
001
370
    50
  0
LINE
  5
23C
330
1F
100
AcDbEntity
  8
001
370
    50
100
AcDbLine
 10
121.879292
 20
99.231166
 30
0.0
 11
121.839666
 21
99.134972
 31
0.0
  0
POLYLINE
  5
23D
330
1F
100
AcDbEntity
  8
001
370
    50
100
AcDb2dPolyline
 66
     1
 10
0.0
 20
0.0
 30
0.0
  0
VERTEX
  5
23F
330
23D
100
AcDbEntity
  8
001
370
    50
100
AcDbVertex
100
AcDb2dVertex
 10
124.853554
 20
101.074057
 30
0.0
  0
VERTEX
  5
240
330
23D
100
AcDbEntity
  8
001
370
    50
100
AcDbVertex
100
AcDb2dVertex
 10
124.804215
 20
101.117976
 30
0.0
  0
VERTEX
  5
241
330
23D
100
AcDbEntity
  8
001
370
    50
100
AcDbVertex
100
AcDb2dVertex
 10
124.732385
 20
101.173607
 30
0.0
  0
VERTEX
  5
242
330
23D
100
AcDbEntity
  8
001
370
    50
100
AcDbVertex
100
AcDb2dVertex
 10
124.662765
 20
101.216392
 30
0.0
  0
VERTEX
  5
243
330
23D
100
AcDbEntity
  8
001
370
    50
100
AcDbVertex
100
AcDb2dVertex
 10
124.594252
 20
101.247712
 30
0.0
  0
VERTEX
  5
244
330
23D
100
AcDbEntity
  8
001
370
    50
100
AcDbVertex
100
AcDb2dVertex
 10
124.521122
 20
101.273663
 30
0.0
  0
VERTEX
  5
245
330
23D
100
AcDbEntity
  8
001
370
    50
100
AcDbVertex
100
AcDb2dVertex
 10
124.444463
 20
101.293523
 30
0.0
  0
VERTEX
  5
246
330
23D
100
AcDbEntity
  8
001
370
    50
100
AcDbVertex
100
AcDb2dVertex
 10
124.366792
 20
101.305342
 30
0.0
  0
VERTEX
  5
247
330
23D
100
AcDbEntity
  8
001
370
    50
100
AcDbVertex
100
AcDb2dVertex
 10
124.288777
 20
101.30928
 30
0.0
  0
VERTEX
  5
248
330
23D
100
AcDbEntity
  8
001
370
    50
100
AcDbVertex
100
AcDb2dVertex
 10
124.210823
 20
101.305776
 30
0.0
  0
VERTEX
  5
249
330
23D
100
AcDbEntity
  8
001
370
    50
100
AcDbVertex
100
AcDb2dVertex
 10
124.133174
 20
101.294378
 30
0.0
  0
VERTEX
  5
24A
330
23D
100
AcDbEntity
  8
001
370
    50
100
AcDbVertex
100
AcDb2dVertex
 10
124.056654
 20
101.274946
 30
0.0
  0
VERTEX
  5
24B
330
23D
100
AcDbEntity
  8
001
370
    50
100
AcDbVertex
100
AcDb2dVertex
 10
123.983635
 20
101.249389
 30
0.0
  0
VERTEX
  5
24C
330
23D
100
AcDbEntity
  8
001
370
    50
100
AcDbVertex
100
AcDb2dVertex
 10
123.915317
 20
101.218459
 30
0.0
  0
VERTEX
  5
24D
330
23D
100
AcDbEntity
  8
001
370
    50
100
AcDbVertex
100
AcDb2dVertex
 10
123.845907
 20
101.176042
 30
0.0
  0
VERTEX
  5
24E
330
23D
100
AcDbEntity
  8
001
370
    50
100
AcDbVertex
100
AcDb2dVertex
 10
123.774385
 20
101.120807
 30
0.0
  0
VERTEX
  5
24F
330
23D
100
AcDbEntity
  8
001
370
    50
100
AcDbVertex
100
AcDb2dVertex
 10
123.725282
 20
101.077156
 30
0.0
  0
SEQEND
  5
23E
330
23D
100
AcDbEntity
  8
001
370
    50
  0
LINE
  5
250
330
1F
100
AcDbEntity
  8
001
370
    50
100
AcDbLine
 10
126.709713
 20
99.217899
 30
0.0
 11
124.853554
 21
101.074057
 31
0.0
  0
LINE
  5
251
330
1F
100
AcDbEntity
  8
001
370
    50
100
AcDbLine
 10
126.749868
 20
99.121486
 30
0.0
 11
126.709713
 21
99.217899
 31
0.0
  0
POLYLINE
  5
252
330
1F
100
AcDbEntity
  8
001
370
    50
100
AcDb2dPolyline
 66
     1
 10
0.0
 20
0.0
 30
0.0
  0
VERTEX
  5
254
330
252
100
AcDbEntity
  8
001
370
    50
100
AcDbVertex
100
AcDb2dVertex
 10
126.749868
 20
99.121486
 30
0.0
  0
VERTEX
  5
255
330
252
100
AcDbEntity
  8
001
370
    50
100
AcDbVertex
100
AcDb2dVertex
 10
126.77
 20
98.792545
 30
0.0
  0
VERTEX
  5
256
330
252
100
AcDbEntity
  8
001
370
    50
100
AcDbVertex
100
AcDb2dVertex
 10
126.828653
 20
98.343051
 30
0.0
  0
VERTEX
  5
257
330
252
100
AcDbEntity
  8
001
370
    50
100
AcDbVertex
100
AcDb2dVertex
 10
126.924923
 20
97.946284
 30
0.0
  0
VERTEX
  5
258
330
252
100
AcDbEntity
  8
001
370
    50
100
AcDbVertex
100
AcDb2dVertex
 10
127.057708
 20
97.594111
 30
0.0
  0
VERTEX
  5
259
330
252
100
AcDbEntity
  8
001
370
    50
100
AcDbVertex
100
AcDb2dVertex
 10
127.225996
 20
97.244203
 30
0.0
  0
VERTEX
  5
25A
330
252
100
AcDbEntity
  8
001
370
    50
100
AcDbVertex
100
AcDb2dVertex
 10
127.42823
 20
96.903445
 30
0.0
  0
VERTEX
  5
25B
330
252
100
AcDbEntity
  8
001
370
    50
100
AcDbVertex
100
AcDb2dVertex
 10
127.662639
 20
96.587168
 30
0.0
  0
VERTEX
  5
25C
330
252
100
AcDbEntity
  8
001
370
    50
100
AcDbVertex
100
AcDb2dVertex
 10
127.925979
 20
96.297597
 30
0.0
  0
VERTEX
  5
25D
330
252
100
AcDbEntity
  8
001
370
    50
100
AcDbVertex
100
AcDb2dVertex
 10
128.21555
 20
96.034257
 30
0.0
  0
VERTEX
  5
25E
330
252
100
AcDbEntity
  8
001
370
    50
100
AcDbVertex
100
AcDb2dVertex
 10
128.531827
 20
95.799848
 30
0.0
  0
VERTEX
  5
25F
330
252
100
AcDbEntity
  8
001
370
    50
100
AcDbVertex
100
AcDb2dVertex
 10
128.872585
 20
95.597614
 30
0.0
  0
VERTEX
  5
260
330
252
100
AcDbEntity
  8
001
370
    50
100
AcDbVertex
100
AcDb2dVertex
 10
129.222493
 20
95.429326
 30
0.0
  0
VERTEX
  5
261
330
252
100
AcDbEntity
  8
001
370
    50
100
AcDbVertex
100
AcDb2dVertex
 10
129.574666
 20
95.296541
 30
0.0
  0
VERTEX
  5
262
330
252
100
AcDbEntity
  8
001
370
    50
100
AcDbVertex
100
AcDb2dVertex
 10
129.971433
 20
95.200271
 30
0.0
  0
VERTEX
  5
263
330
252
100
AcDbEntity
  8
001
370
    50
100
AcDbVertex
100
AcDb2dVertex
 10
130.420927
 20
95.141618
 30
0.0
  0
VERTEX
  5
264
330
252
100
AcDbEntity
  8
001
370
    50
100
AcDbVertex
100
AcDb2dVertex
 10
130.749868
 20
95.121486
 30
0.0
  0
SEQEND
  5
253
330
252
100
AcDbEntity
  8
001
370
    50
  0
LINE
  5
265
330
1F
100
AcDbEntity
  8
001
370
    50
100
AcDbLine
 10
130.846281
 20
95.081331
 30
0.0
 11
130.749868
 21
95.121486
 31
0.0
  0
LINE
  5
266
330
1F
100
AcDbEntity
  8
001
370
    50
100
AcDbLine
 10
132.70244
 20
93.225172
 30
0.0
 11
130.846281
 21
95.081331
 31
0.0
  0
POLYLINE
  5
267
330
1F
100
AcDbEntity
  8
001
370
    50
100
AcDb2dPolyline
 66
     1
 10
0.0
 20
0.0
 30
0.0
  0
VERTEX
  5
269
330
267
100
AcDbEntity
  8
001
370
    50
100
AcDbVertex
100
AcDb2dVertex
 10
132.705538
 20
92.0969
 30
0.0
  0
VERTEX
  5
26A
330
267
100
AcDbEntity
  8
001
370
    50
100
AcDbVertex
100
AcDb2dVertex
 10
132.749189
 20
92.146003
 30
0.0
  0
VERTEX
  5
26B
330
267
100
AcDbEntity
  8
001
370
    50
100
AcDbVertex
100
AcDb2dVertex
 10
132.804424
 20
92.217525
 30
0.0
  0
VERTEX
  5
26C
330
267
100
AcDbEntity
  8
001
370
    50
100
AcDbVertex
100
AcDb2dVertex
 10
132.846841
 20
92.286935
 30
0.0
  0
VERTEX
  5
26D
330
267
100
AcDbEntity
  8
001
370
    50
100
AcDbVertex
100
AcDb2dVertex
 10
132.877771
 20
92.355253
 30
0.0
  0
VERTEX
  5
26E
330
267
100
AcDbEntity
  8
001
370
    50
100
AcDbVertex
100
AcDb2dVertex
 10
132.903328
 20
92.428272
 30
0.0
  0
VERTEX
  5
26F
330
267
100
AcDbEntity
  8
001
370
    50
100
AcDbVertex
100
AcDb2dVertex
 10
132.92276
 20
92.504792
 30
0.0
  0
VERTEX
  5
270
330
267
100
AcDbEntity
  8
001
370
    50
100
AcDbVertex
100
AcDb2dVertex
 10
132.934158
 20
92.582441
 30
0.0
  0
VERTEX
  5
271
330
267
100
AcDbEntity
  8
001
370
    50
100
AcDbVertex
100
AcDb2dVertex
 10
132.937662
 20
92.660394
 30
0.0
  0
VERTEX
  5
272
330
267
100
AcDbEntity
  8
001
370
    50
100
AcDbVertex
100
AcDb2dVertex
 10
132.933724
 20
92.73841
 30
0.0
  0
VERTEX
  5
273
330
267
100
AcDbEntity
  8
001
370
    50
100
AcDbVertex
100
AcDb2dVertex
 10
132.921905
 20
92.816081
 30
0.0
  0
VERTEX
  5
274
330
267
100
AcDbEntity
  8
001
370
    50
100
AcDbVertex
100
AcDb2dVertex
 10
132.902045
 20
92.89274
 30
0.0
  0
VERTEX
  5
275
330
267
100
AcDbEntity
  8
001
370
    50
100
AcDbVertex
100
AcDb2dVertex
 10
132.876094
 20
92.965869
 30
0.0
  0
VERTEX
  5
276
330
267
100
AcDbEntity
  8
001
370
    50
100
AcDbVertex
100
AcDb2dVertex
 10
132.844774
 20
93.034383
 30
0.0
  0
VERTEX
  5
277
330
267
100
AcDbEntity
  8
001
370
    50
100
AcDbVertex
100
AcDb2dVertex
 10
132.801989
 20
93.104003
 30
0.0
  0
VERTEX
  5
278
330
267
100
AcDbEntity
  8
001
370
    50
100
AcDbVertex
100
AcDb2dVertex
 10
132.746358
 20
93.175833
 30
0.0
  0
VERTEX
  5
279
330
267
100
AcDbEntity
  8
001
370
    50
100
AcDbVertex
100
AcDb2dVertex
 10
132.70244
 20
93.225172
 30
0.0
  0
SEQEND
  5
268
330
267
100
AcDbEntity
  8
001
370
    50
  0
LINE
  5
27A
330
1F
100
AcDbEntity
  8
001
370
    50
100
AcDbLine
 10
130.763354
 20
90.211284
 30
0.0
 11
130.859548
 21
90.25091
 31
0.0
  0
POLYLINE
  5
27B
330
1F
100
AcDbEntity
  8
001
370
    50
100
AcDb2dPolyline
 66
     1
 10
0.0
 20
0.0
 30
0.0
  0
VERTEX
  5
27D
330
27B
100
AcDbEntity
  8
001
370
    50
100
AcDbVertex
100
AcDb2dVertex
 10
127.945883
 20
89.050667
 30
0.0
  0
VERTEX
  5
27E
330
27B
100
AcDbEntity
  8
001
370
    50
100
AcDbVertex
100
AcDb2dVertex
 10
127.727626
 20
88.80602
 30
0.0
  0
VERTEX
  5
27F
330
27B
100
AcDbEntity
  8
001
370
    50
100
AcDbVertex
100
AcDb2dVertex
 10
127.451454
 20
88.447544
 30
0.0
  0
VERTEX
  5
280
330
27B
100
AcDbEntity
  8
001
370
    50
100
AcDbVertex
100
AcDb2dVertex
 10
127.239381
 20
88.096162
 30
0.0
  0
VERTEX
  5
281
330
27B
100
AcDbEntity
  8
001
370
    50
100
AcDbVertex
100
AcDb2dVertex
 10
127.084721
 20
87.758904
 30
0.0
  0
VERTEX
  5
282
330
27B
100
AcDbEntity
  8
001
370
    50
100
AcDbVertex
100
AcDb2dVertex
 10
126.95689
 20
87.410288
 30
0.0
  0
VERTEX
  5
283
330
27B
100
AcDbEntity
  8
001
370
    50
100
AcDbVertex
100
AcDb2dVertex
 10
126.859777
 20
87.01121
 30
0.0
  0
VERTEX
  5
284
330
27B
100
AcDbEntity
  8
001
370
    50
100
AcDbVertex
100
AcDb2dVertex
 10
126.802958
 20
86.561291
 30
0.0
  0
VERTEX
  5
285
330
27B
100
AcDbEntity
  8
001
370
    50
100
AcDbVertex
100
AcDb2dVertex
 10
126.785266
 20
86.233197
 30
0.0
  0
SEQEND
  5
27C
330
27B
100
AcDbEntity
  8
001
370
    50
  0
POLYLINE
  5
286
330
1F
100
AcDbEntity
  8
001
370
    50
100
AcDb2dPolyline
 66
     1
 10
0.0
 20
0.0
 30
0.0
  0
VERTEX
  5
288
330
286
100
AcDbEntity
  8
001
370
    50
100
AcDbVertex
100
AcDb2dVertex
 10
122.473988
 20
94.522562
 30
0.0
  0
VERTEX
  5
289
330
286
100
AcDbEntity
  8
001
370
    50
100
AcDbVertex
100
AcDb2dVertex
 10
122.332121
 20
94.363541
 30
0.0
  0
VERTEX
  5
28A
330
286
100
AcDbEntity
  8
001
370
    50
100
AcDbVertex
100
AcDb2dVertex
 10
122.15261
 20
94.130531
 30
0.0
  0
VERTEX
  5
28B
330
286
100
AcDbEntity
  8
001
370
    50
100
AcDbVertex
100
AcDb2dVertex
 10
122.014763
 20
93.902133
 30
0.0
  0
VERTEX
  5
28C
330
286
100
AcDbEntity
  8
001
370
    50
100
AcDbVertex
100
AcDb2dVertex
 10
121.914234
 20
93.682915
 30
0.0
  0
VERTEX
  5
28D
330
286
100
AcDbEntity
  8
001
370
    50
100
AcDbVertex
100
AcDb2dVertex
 10
121.831143
 20
93.456315
 30
0.0
  0
VERTEX
  5
28E
330
286
100
AcDbEntity
  8
001
370
    50
100
AcDbVertex
100
AcDb2dVertex
 10
121.76802
 20
93.196914
 30
0.0
  0
VERTEX
  5
28F
330
286
100
AcDbEntity
  8
001
370
    50
100
AcDbVertex
100
AcDb2dVertex
 10
121.731087
 20
92.904467
 30
0.0
  0
VERTEX
  5
290
330
286
100
AcDbEntity
  8
001
370
    50
100
AcDbVertex
100
AcDb2dVertex
 10
121.719588
 20
92.691206
 30
0.0
  0
SEQEND
  5
287
330
286
100
AcDbEntity
  8
001
370
    50
  0
POLYLINE
  5
291
330
1F
100
AcDbEntity
  8
001
370
    50
100
AcDb2dPolyline
 66
     1
 10
0.0
 20
0.0
 30
0.0
  0
VERTEX
  5
293
330
291
100
AcDbEntity
  8
001
370
    50
100
AcDbVertex
100
AcDb2dVertex
 10
117.861579
 20
95.156884
 30
0.0
  0
VERTEX
  5
294
330
291
100
AcDbEntity
  8
001
370
    50
100
AcDbVertex
100
AcDb2dVertex
 10
118.189673
 20
95.174575
 30
0.0
  0
VERTEX
  5
295
330
291
100
AcDbEntity
  8
001
370
    50
100
AcDbVertex
100
AcDb2dVertex
 10
118.639592
 20
95.231395
 30
0.0
  0
VERTEX
  5
296
330
291
100
AcDbEntity
  8
001
370
    50
100
AcDbVertex
100
AcDb2dVertex
 10
119.03867
 20
95.328508
 30
0.0
  0
VERTEX
  5
297
330
291
100
AcDbEntity
  8
001
370
    50
100
AcDbVertex
100
AcDb2dVertex
 10
119.387286
 20
95.456339
 30
0.0
  0
VERTEX
  5
298
330
291
100
AcDbEntity
  8
001
370
    50
100
AcDbVertex
100
AcDb2dVertex
 10
119.724544
 20
95.610999
 30
0.0
  0
VERTEX
  5
299
330
291
100
AcDbEntity
  8
001
370
    50
100
AcDbVertex
100
AcDb2dVertex
 10
120.075926
 20
95.823072
 30
0.0
  0
VERTEX
  5
29A
330
291
100
AcDbEntity
  8
001
370
    50
100
AcDbVertex
100
AcDb2dVertex
 10
120.434402
 20
96.099244
 30
0.0
  0
VERTEX
  5
29B
330
291
100
AcDbEntity
  8
001
370
    50
100
AcDbVertex
100
AcDb2dVertex
 10
120.679049
 20
96.317501
 30
0.0
  0
SEQEND
  5
292
330
291
100
AcDbEntity
  8
001
370
    50
  0
POLYLINE
  5
29C
330
1F
100
AcDbEntity
  8
001
370
    50
100
AcDb2dPolyline
 66
     1
 10
0.0
 20
0.0
 30
0.0
  0
VERTEX
  5
29E
330
29C
100
AcDbEntity
  8
001
370
    50
100
AcDbVertex
100
AcDb2dVertex
 10
117.935491
 20
95.230797
 30
0.0
  0
VERTEX
  5
29F
330
29C
100
AcDbEntity
  8
001
370
    50
100
AcDbVertex
100
AcDb2dVertex
 10
118.258115
 20
95.247884
 30
0.0
  0
VERTEX
  5
2A0
330
29C
100
AcDbEntity
  8
001
370
    50
100
AcDbVertex
100
AcDb2dVertex
 10
118.700657
 20
95.302808
 30
0.0
  0
VERTEX
  5
2A1
330
29C
100
AcDbEntity
  8
001
370
    50
100
AcDbVertex
100
AcDb2dVertex
 10
119.09349
 20
95.396723
 30
0.0
  0
VERTEX
  5
2A2
330
29C
100
AcDbEntity
  8
001
370
    50
100
AcDbVertex
100
AcDb2dVertex
 10
119.436983
 20
95.52037
 30
0.0
  0
VERTEX
  5
2A3
330
29C
100
AcDbEntity
  8
001
370
    50
100
AcDbVertex
100
AcDb2dVertex
 10
119.769667
 20
95.670019
 30
0.0
  0
VERTEX
  5
2A4
330
29C
100
AcDbEntity
  8
001
370
    50
100
AcDbVertex
100
AcDb2dVertex
 10
120.117109
 20
95.875399
 30
0.0
  0
VERTEX
  5
2A5
330
29C
100
AcDbEntity
  8
001
370
    50
100
AcDbVertex
100
AcDb2dVertex
 10
120.472594
 20
96.143057
 30
0.0
  0
VERTEX
  5
2A6
330
29C
100
AcDbEntity
  8
001
370
    50
100
AcDbVertex
100
AcDb2dVertex
 10
120.715762
 20
96.354701
 30
0.0
  0
SEQEND
  5
29D
330
29C
100
AcDbEntity
  8
001
370
    50
  0
POLYLINE
  5
2A7
330
1F
100
AcDbEntity
  8
001
370
    50
100
AcDb2dPolyline
 66
     1
 10
0.0
 20
0.0
 30
0.0
  0
VERTEX
  5
2A9
330
2A7
100
AcDbEntity
  8
001
370
    50
100
AcDbVertex
100
AcDb2dVertex
 10
130.763354
 20
90.211284
 30
0.0
  0
VERTEX
  5
2AA
330
2A7
100
AcDbEntity
  8
001
370
    50
100
AcDbVertex
100
AcDb2dVertex
 10
130.43526
 20
90.193593
 30
0.0
  0
VERTEX
  5
2AB
330
2A7
100
AcDbEntity
  8
001
370
    50
100
AcDbVertex
100
AcDb2dVertex
 10
129.98534
 20
90.136773
 30
0.0
  0
VERTEX
  5
2AC
330
2A7
100
AcDbEntity
  8
001
370
    50
100
AcDbVertex
100
AcDb2dVertex
 10
129.586262
 20
90.03966
 30
0.0
  0
VERTEX
  5
2AD
330
2A7
100
AcDbEntity
  8
001
370
    50
100
AcDbVertex
100
AcDb2dVertex
 10
129.237647
 20
89.911829
 30
0.0
  0
VERTEX
  5
2AE
330
2A7
100
AcDbEntity
  8
001
370
    50
100
AcDbVertex
100
AcDb2dVertex
 10
128.900388
 20
89.757169
 30
0.0
  0
VERTEX
  5
2AF
330
2A7
100
AcDbEntity
  8
001
370
    50
100
AcDbVertex
100
AcDb2dVertex
 10
128.549006
 20
89.545096
 30
0.0
  0
VERTEX
  5
2B0
330
2A7
100
AcDbEntity
  8
001
370
    50
100
AcDbVertex
100
AcDb2dVertex
 10
128.19053
 20
89.268925
 30
0.0
  0
VERTEX
  5
2B1
330
2A7
100
AcDbEntity
  8
001
370
    50
100
AcDbVertex
100
AcDb2dVertex
 10
127.945883
 20
89.050667
 30
0.0
  0
SEQEND
  5
2A8
330
2A7
100
AcDbEntity
  8
001
370
    50
  0
LINE
  5
2B2
330
1F
100
AcDbEntity
  8
001
  6
DASHED
370
    50
100
AcDbLine
 10
128.019796
 20
89.12458
 30
0.0
 11
127.945883
 21
89.050668
 31
0.0
  0
POLYLINE
  5
2B3
330
1F
100
AcDbEntity
  8
001
370
    50
100
AcDb2dPolyline
 66
     1
 10
0.0
 20
0.0
 30
0.0
  0
VERTEX
  5
2B5
330
2B3
100
AcDbEntity
  8
001
370
    50
100
AcDbVertex
100
AcDb2dVertex
 10
127.983083
 20
89.08738
 30
0.0
  0
VERTEX
  5
2B6
330
2B3
100
AcDbEntity
  8
001
370
    50
100
AcDbVertex
100
AcDb2dVertex
 10
127.771439
 20
88.844212
 30
0.0
  0
VERTEX
  5
2B7
330
2B3
100
AcDbEntity
  8
001
370
    50
100
AcDbVertex
100
AcDb2dVertex
 10
127.503781
 20
88.488727
 30
0.0
  0
VERTEX
  5
2B8
330
2B3
100
AcDbEntity
  8
001
370
    50
100
AcDbVertex
100
AcDb2dVertex
 10
127.298401
 20
88.141285
 30
0.0
  0
VERTEX
  5
2B9
330
2B3
100
AcDbEntity
  8
001
370
    50
100
AcDbVertex
100
AcDb2dVertex
 10
127.148752
 20
87.808601
 30
0.0
  0
VERTEX
  5
2BA
330
2B3
100
AcDbEntity
  8
001
370
    50
100
AcDbVertex
100
AcDb2dVertex
 10
127.025105
 20
87.465108
 30
0.0
  0
VERTEX
  5
2BB
330
2B3
100
AcDbEntity
  8
001
370
    50
100
AcDbVertex
100
AcDb2dVertex
 10
126.93119
 20
87.072275
 30
0.0
  0
VERTEX
  5
2BC
330
2B3
100
AcDbEntity
  8
001
370
    50
100
AcDbVertex
100
AcDb2dVertex
 10
126.876267
 20
86.629733
 30
0.0
  0
VERTEX
  5
2BD
330
2B3
100
AcDbEntity
  8
001
370
    50
100
AcDbVertex
100
AcDb2dVertex
 10
126.859179
 20
86.307109
 30
0.0
  0
SEQEND
  5
2B4
330
2B3
100
AcDbEntity
  8
001
370
    50
  0
POLYLINE
  5
2BE
330
1F
100
AcDbEntity
  8
001
  6
DASHED
370
    50
100
AcDb2dPolyline
 66
     1
 10
0.0
 20
0.0
 30
0.0
  0
VERTEX
  5
2C0
330
2BE
100
AcDbEntity
  8
001
  6
DASHED
370
    50
100
AcDbVertex
100
AcDb2dVertex
 10
128.019796
 20
89.12458
 30
0.0
  0
VERTEX
  5
2C1
330
2BE
100
AcDbEntity
  8
001
  6
DASHED
370
    50
100
AcDbVertex
100
AcDb2dVertex
 10
128.0123
 20
89.117062
 30
0.0
  0
VERTEX
  5
2C2
330
2BE
100
AcDbEntity
  8
001
  6
DASHED
370
    50
100
AcDbVertex
100
AcDb2dVertex
 10
128.001378
 20
89.106041
 30
0.0
  0
VERTEX
  5
2C3
330
2BE
100
AcDbEntity
  8
001
  6
DASHED
370
    50
100
AcDbVertex
100
AcDb2dVertex
 10
127.990502
 20
89.094974
 30
0.0
  0
VERTEX
  5
2C4
330
2BE
100
AcDbEntity
  8
001
  6
DASHED
370
    50
100
AcDbVertex
100
AcDb2dVertex
 10
127.983083
 20
89.08738
 30
0.0
  0
SEQEND
  5
2BF
330
2BE
100
AcDbEntity
  8
001
  6
DASHED
370
    50
  0
POLYLINE
  5
2C5
330
1F
100
AcDbEntity
  8
001
370
    50
100
AcDb2dPolyline
 66
     1
 10
0.0
 20
0.0
 30
0.0
  0
VERTEX
  5
2C7
330
2C5
100
AcDbEntity
  8
001
370
    50
100
AcDbVertex
100
AcDb2dVertex
 10
121.719588
 20
92.691206
 30
0.0
  0
VERTEX
  5
2C8
330
2C5
100
AcDbEntity
  8
001
370
    50
100
AcDbVertex
100
AcDb2dVertex
 10
121.730782
 20
92.493782
 30
0.0
  0
VERTEX
  5
2C9
330
2C5
100
AcDbEntity
  8
001
370
    50
100
AcDbVertex
100
AcDb2dVertex
 10
121.763343
 20
92.22371
 30
0.0
  0
VERTEX
  5
2CA
330
2C5
100
AcDbEntity
  8
001
370
    50
100
AcDbVertex
100
AcDb2dVertex
 10
121.816782
 20
91.984616
 30
0.0
  0
VERTEX
  5
2CB
330
2C5
100
AcDbEntity
  8
001
370
    50
100
AcDbVertex
100
AcDb2dVertex
 10
121.890608
 20
91.771296
 30
0.0
  0
VERTEX
  5
2CC
330
2C5
100
AcDbEntity
  8
001
370
    50
100
AcDbVertex
100
AcDb2dVertex
 10
121.984372
 20
91.558065
 30
0.0
  0
VERTEX
  5
2CD
330
2C5
100
AcDbEntity
  8
001
370
    50
100
AcDbVertex
100
AcDb2dVertex
 10
122.097214
 20
91.348785
 30
0.0
  0
VERTEX
  5
2CE
330
2C5
100
AcDbEntity
  8
001
370
    50
100
AcDbVertex
100
AcDb2dVertex
 10
122.228268
 20
91.152389
 30
0.0
  0
VERTEX
  5
2CF
330
2C5
100
AcDbEntity
  8
001
370
    50
100
AcDbVertex
100
AcDb2dVertex
 10
122.376391
 20
90.970018
 30
0.0
  0
VERTEX
  5
2D0
330
2C5
100
AcDbEntity
  8
001
370
    50
100
AcDbVertex
100
AcDb2dVertex
 10
122.540424
 20
90.801186
 30
0.0
  0
VERTEX
  5
2D1
330
2C5
100
AcDbEntity
  8
001
370
    50
100
AcDbVertex
100
AcDb2dVertex
 10
122.718995
 20
90.647405
 30
0.0
  0
VERTEX
  5
2D2
330
2C5
100
AcDbEntity
  8
001
370
    50
100
AcDbVertex
100
AcDb2dVertex
 10
122.910627
 20
90.510505
 30
0.0
  0
VERTEX
  5
2D3
330
2C5
100
AcDbEntity
  8
001
370
    50
100
AcDbVertex
100
AcDb2dVertex
 10
123.113801
 20
90.391514
 30
0.0
  0
VERTEX
  5
2D4
330
2C5
100
AcDbEntity
  8
001
370
    50
100
AcDbVertex
100
AcDb2dVertex
 10
123.326769
 20
90.291348
 30
0.0
  0
VERTEX
  5
2D5
330
2C5
100
AcDbEntity
  8
001
370
    50
100
AcDbVertex
100
AcDb2dVertex
 10
123.547876
 20
90.210728
 30
0.0
  0
VERTEX
  5
2D6
330
2C5
100
AcDbEntity
  8
001
370
    50
100
AcDbVertex
100
AcDb2dVertex
 10
123.775146
 20
90.15043
 30
0.0
  0
VERTEX
  5
2D7
330
2C5
100
AcDbEntity
  8
001
370
    50
100
AcDbVertex
100
AcDb2dVertex
 10
124.006999
 20
90.110969
 30
0.0
  0
VERTEX
  5
2D8
330
2C5
100
AcDbEntity
  8
001
370
    50
100
AcDbVertex
100
AcDb2dVertex
 10
124.24135
 20
90.09275
 30
0.0
  0
VERTEX
  5
2D9
330
2C5
100
AcDbEntity
  8
001
370
    50
100
AcDbVertex
100
AcDb2dVertex
 10
124.476129
 20
90.095506
 30
0.0
  0
VERTEX
  5
2DA
330
2C5
100
AcDbEntity
  8
001
370
    50
100
AcDbVertex
100
AcDb2dVertex
 10
124.709079
 20
90.119144
 30
0.0
  0
VERTEX
  5
2DB
330
2C5
100
AcDbEntity
  8
001
370
    50
100
AcDbVertex
100
AcDb2dVertex
 10
124.939897
 20
90.164846
 30
0.0
  0
VERTEX
  5
2DC
330
2C5
100
AcDbEntity
  8
001
370
    50
100
AcDbVertex
100
AcDb2dVertex
 10
125.166848
 20
90.232597
 30
0.0
  0
VERTEX
  5
2DD
330
2C5
100
AcDbEntity
  8
001
370
    50
100
AcDbVertex
100
AcDb2dVertex
 10
125.383111
 20
90.316716
 30
0.0
  0
VERTEX
  5
2DE
330
2C5
100
AcDbEntity
  8
001
370
    50
100
AcDbVertex
100
AcDb2dVertex
 10
125.585351
 20
90.415088
 30
0.0
  0
VERTEX
  5
2DF
330
2C5
100
AcDbEntity
  8
001
370
    50
100
AcDbVertex
100
AcDb2dVertex
 10
125.79125
 20
90.546142
 30
0.0
  0
VERTEX
  5
2E0
330
2C5
100
AcDbEntity
  8
001
370
    50
100
AcDbVertex
100
AcDb2dVertex
 10
126.004218
 20
90.713981
 30
0.0
  0
VERTEX
  5
2E1
330
2C5
100
AcDbEntity
  8
001
370
    50
100
AcDbVertex
100
AcDb2dVertex
 10
126.150944
 20
90.845607
 30
0.0
  0
SEQEND
  5
2C6
330
2C5
100
AcDbEntity
  8
001
370
    50
  0
POLYLINE
  5
2E2
330
1F
100
AcDbEntity
  8
001
370
    50
100
AcDb2dPolyline
 66
     1
 10
0.0
 20
0.0
 30
0.0
  0
VERTEX
  5
2E4
330
2E2
100
AcDbEntity
  8
001
370
    50
100
AcDbVertex
100
AcDb2dVertex
 10
126.150944
 20
90.845607
 30
0.0
  0
VERTEX
  5
2E5
330
2E2
100
AcDbEntity
  8
001
370
    50
100
AcDbVertex
100
AcDb2dVertex
 10
126.277981
 20
90.986647
 30
0.0
  0
VERTEX
  5
2E6
330
2E2
100
AcDbEntity
  8
001
370
    50
100
AcDbVertex
100
AcDb2dVertex
 10
126.440513
 20
91.191037
 30
0.0
  0
VERTEX
  5
2E7
330
2E2
100
AcDbEntity
  8
001
370
    50
100
AcDbVertex
100
AcDb2dVertex
 10
126.568322
 20
91.388293
 30
0.0
  0
VERTEX
  5
2E8
330
2E2
100
AcDbEntity
  8
001
370
    50
100
AcDbVertex
100
AcDb2dVertex
 10
126.665422
 20
91.581832
 30
0.0
  0
VERTEX
  5
2E9
330
2E2
100
AcDbEntity
  8
001
370
    50
100
AcDbVertex
100
AcDb2dVertex
 10
126.749598
 20
91.788796
 30
0.0
  0
VERTEX
  5
2EA
330
2E2
100
AcDbEntity
  8
001
370
    50
100
AcDbVertex
100
AcDb2dVertex
 10
126.818838
 20
92.006119
 30
0.0
  0
VERTEX
  5
2EB
330
2E2
100
AcDbEntity
  8
001
370
    50
100
AcDbVertex
100
AcDb2dVertex
 10
126.867681
 20
92.227362
 30
0.0
  0
VERTEX
  5
2EC
330
2E2
100
AcDbEntity
  8
001
370
    50
100
AcDbVertex
100
AcDb2dVertex
 10
126.896099
 20
92.451006
 30
0.0
  0
VERTEX
  5
2ED
330
2E2
100
AcDbEntity
  8
001
370
    50
100
AcDbVertex
100
AcDb2dVertex
 10
126.905207
 20
92.676886
 30
0.0
  0
VERTEX
  5
2EE
330
2E2
100
AcDbEntity
  8
001
370
    50
100
AcDbVertex
100
AcDb2dVertex
 10
126.894857
 20
92.902974
 30
0.0
  0
VERTEX
  5
2EF
330
2E2
100
AcDbEntity
  8
001
370
    50
100
AcDbVertex
100
AcDb2dVertex
 10
126.864737
 20
93.127404
 30
0.0
  0
VERTEX
  5
2F0
330
2E2
100
AcDbEntity
  8
001
370
    50
100
AcDbVertex
100
AcDb2dVertex
 10
126.815151
 20
93.348292
 30
0.0
  0
VERTEX
  5
2F1
330
2E2
100
AcDbEntity
  8
001
370
    50
100
AcDbVertex
100
AcDb2dVertex
 10
126.74651
 20
93.564236
 30
0.0
  0
VERTEX
  5
2F2
330
2E2
100
AcDbEntity
  8
001
370
    50
100
AcDbVertex
100
AcDb2dVertex
 10
126.659402
 20
93.773428
 30
0.0
  0
VERTEX
  5
2F3
330
2E2
100
AcDbEntity
  8
001
370
    50
100
AcDbVertex
100
AcDb2dVertex
 10
126.554388
 20
93.974379
 30
0.0
  0
VERTEX
  5
2F4
330
2E2
100
AcDbEntity
  8
001
370
    50
100
AcDbVertex
100
AcDb2dVertex
 10
126.432343
 20
94.165465
 30
0.0
  0
VERTEX
  5
2F5
330
2E2
100
AcDbEntity
  8
001
370
    50
100
AcDbVertex
100
AcDb2dVertex
 10
126.294138
 20
94.345302
 30
0.0
  0
VERTEX
  5
2F6
330
2E2
100
AcDbEntity
  8
001
370
    50
100
AcDbVertex
100
AcDb2dVertex
 10
126.140872
 20
94.512491
 30
0.0
  0
VERTEX
  5
2F7
330
2E2
100
AcDbEntity
  8
001
370
    50
100
AcDbVertex
100
AcDb2dVertex
 10
125.973684
 20
94.665756
 30
0.0
  0
VERTEX
  5
2F8
330
2E2
100
AcDbEntity
  8
001
370
    50
100
AcDbVertex
100
AcDb2dVertex
 10
125.793847
 20
94.803961
 30
0.0
  0
VERTEX
  5
2F9
330
2E2
100
AcDbEntity
  8
001
370
    50
100
AcDbVertex
100
AcDb2dVertex
 10
125.602761
 20
94.926006
 30
0.0
  0
VERTEX
  5
2FA
330
2E2
100
AcDbEntity
  8
001
370
    50
100
AcDbVertex
100
AcDb2dVertex
 10
125.40181
 20
95.031021
 30
0.0
  0
VERTEX
  5
2FB
330
2E2
100
AcDbEntity
  8
001
370
    50
100
AcDbVertex
100
AcDb2dVertex
 10
125.192618
 20
95.118128
 30
0.0
  0
VERTEX
  5
2FC
330
2E2
100
AcDbEntity
  8
001
370
    50
100
AcDbVertex
100
AcDb2dVertex
 10
124.976674
 20
95.186769
 30
0.0
  0
VERTEX
  5
2FD
330
2E2
100
AcDbEntity
  8
001
370
    50
100
AcDbVertex
100
AcDb2dVertex
 10
124.755785
 20
95.236355
 30
0.0
  0
VERTEX
  5
2FE
330
2E2
100
AcDbEntity
  8
001
370
    50
100
AcDbVertex
100
AcDb2dVertex
 10
124.531356
 20
95.266475
 30
0.0
  0
VERTEX
  5
2FF
330
2E2
100
AcDbEntity
  8
001
370
    50
100
AcDbVertex
100
AcDb2dVertex
 10
124.305267
 20
95.276825
 30
0.0
  0
VERTEX
  5
300
330
2E2
100
AcDbEntity
  8
001
370
    50
100
AcDbVertex
100
AcDb2dVertex
 10
124.079387
 20
95.267717
 30
0.0
  0
VERTEX
  5
301
330
2E2
100
AcDbEntity
  8
001
370
    50
100
AcDbVertex
100
AcDb2dVertex
 10
123.855744
 20
95.239298
 30
0.0
  0
VERTEX
  5
302
330
2E2
100
AcDbEntity
  8
001
370
    50
100
AcDbVertex
100
AcDb2dVertex
 10
123.634501
 20
95.190456
 30
0.0
  0
VERTEX
  5
303
330
2E2
100
AcDbEntity
  8
001
370
    50
100
AcDbVertex
100
AcDb2dVertex
 10
123.417178
 20
95.121216
 30
0.0
  0
VERTEX
  5
304
330
2E2
100
AcDbEntity
  8
001
370
    50
100
AcDbVertex
100
AcDb2dVertex
 10
123.210214
 20
95.03704
 30
0.0
  0
VERTEX
  5
305
330
2E2
100
AcDbEntity
  8
001
370
    50
100
AcDbVertex
100
AcDb2dVertex
 10
123.016675
 20
94.93994
 30
0.0
  0
VERTEX
  5
306
330
2E2
100
AcDbEntity
  8
001
370
    50
100
AcDbVertex
100
AcDb2dVertex
 10
122.819418
 20
94.812131
 30
0.0
  0
VERTEX
  5
307
330
2E2
100
AcDbEntity
  8
001
370
    50
100
AcDbVertex
100
AcDb2dVertex
 10
122.615028
 20
94.649599
 30
0.0
  0
VERTEX
  5
308
330
2E2
100
AcDbEntity
  8
001
370
    50
100
AcDbVertex
100
AcDb2dVertex
 10
122.473988
 20
94.522562
 30
0.0
  0
SEQEND
  5
2E3
330
2E2
100
AcDbEntity
  8
001
370
    50
  0
LINE
  5
309
330
1F
100
AcDbEntity
  8
001
370
    50
100
AcDbLine
 10
117.850649
 20
95.202523
 30
0.0
 11
117.935491
 21
95.230797
 31
0.0
  0
LINE
  5
30A
330
1F
100
AcDbEntity
  8
001
370
    50
100
AcDbLine
 10
126.859179
 20
86.307109
 30
0.0
 11
126.830905
 21
86.222267
 31
0.0
  0
LINE
  5
30B
330
1F
100
AcDbEntity
  8
001
370
    50
100
AcDbLine
 10
241.688178
 20
86.208682
 30
0.0
 11
241.688178
 21
105.208682
 31
0.0
  0
LINE
  5
30C
330
1F
100
AcDbEntity
  8
001
370
    50
100
AcDbLine
 10
139.752747
 20
86.208682
 30
0.0
 11
124.520463
 21
101.440966
 31
0.0
  0
LINE
  5
30D
330
1F
100
AcDbEntity
  8
001
370
    50
100
AcDbLine
 10
241.688178
 20
105.208682
 30
0.0
 11
128.288178
 21
105.208682
 31
0.0
  0
LINE
  5
30E
330
1F
100
AcDbEntity
  8
001
370
    50
100
AcDbLine
 10
128.288178
 20
105.208682
 30
0.0
 11
124.520463
 21
101.440966
 31
0.0
  0
LINE
  5
30F
330
1F
100
AcDbEntity
  8
001
370
    50
100
AcDbLine
 10
126.74564
 20
43.085658
 30
0.0
 11
126.785266
 21
43.095752
 31
0.0
  0
LINE
  5
310
330
1F
100
AcDbEntity
  8
001
370
    50
100
AcDbLine
 10
124.89965
 20
42.81127
 30
0.0
 11
126.74564
 21
43.085658
 31
0.0
  0
POLYLINE
  5
311
330
1F
100
AcDbEntity
  8
001
370
    50
100
AcDb2dPolyline
 66
     1
 10
0.0
 20
0.0
 30
0.0
  0
VERTEX
  5
313
330
311
100
AcDbEntity
  8
001
370
    50
100
AcDbVertex
100
AcDb2dVertex
 10
123.771378
 20
42.727647
 30
0.0
  0
VERTEX
  5
314
330
311
100
AcDbEntity
  8
001
370
    50
100
AcDbVertex
100
AcDb2dVertex
 10
123.822235
 20
42.728078
 30
0.0
  0
VERTEX
  5
315
330
311
100
AcDbEntity
  8
001
370
    50
100
AcDbVertex
100
AcDb2dVertex
 10
123.892548
 20
42.729254
 30
0.0
  0
VERTEX
  5
316
330
311
100
AcDbEntity
  8
001
370
    50
100
AcDbVertex
100
AcDb2dVertex
 10
123.964777
 20
42.73131
 30
0.0
  0
VERTEX
  5
317
330
311
100
AcDbEntity
  8
001
370
    50
100
AcDbVertex
100
AcDb2dVertex
 10
124.030681
 20
42.734013
 30
0.0
  0
VERTEX
  5
318
330
311
100
AcDbEntity
  8
001
370
    50
100
AcDbVertex
100
AcDb2dVertex
 10
124.104626
 20
42.737575
 30
0.0
  0
VERTEX
  5
319
330
311
100
AcDbEntity
  8
001
370
    50
100
AcDbVertex
100
AcDb2dVertex
 10
124.180469
 20
42.74174
 30
0.0
  0
VERTEX
  5
31A
330
311
100
AcDbEntity
  8
001
370
    50
100
AcDbVertex
100
AcDb2dVertex
 10
124.25867
 20
42.746664
 30
0.0
  0
VERTEX
  5
31B
330
311
100
AcDbEntity
  8
001
370
    50
100
AcDbVertex
100
AcDb2dVertex
 10
124.336156
 20
42.75214
 30
0.0
  0
VERTEX
  5
31C
330
311
100
AcDbEntity
  8
001
370
    50
100
AcDbVertex
100
AcDb2dVertex
 10
124.413645
 20
42.758151
 30
0.0
  0
VERTEX
  5
31D
330
311
100
AcDbEntity
  8
001
370
    50
100
AcDbVertex
100
AcDb2dVertex
 10
124.491759
 20
42.764812
 30
0.0
  0
VERTEX
  5
31E
330
311
100
AcDbEntity
  8
001
370
    50
100
AcDbVertex
100
AcDb2dVertex
 10
124.567511
 20
42.771883
 30
0.0
  0
VERTEX
  5
31F
330
311
100
AcDbEntity
  8
001
370
    50
100
AcDbVertex
100
AcDb2dVertex
 10
124.641297
 20
42.779269
 30
0.0
  0
VERTEX
  5
320
330
311
100
AcDbEntity
  8
001
370
    50
100
AcDbVertex
100
AcDb2dVertex
 10
124.707074
 20
42.786328
 30
0.0
  0
VERTEX
  5
321
330
311
100
AcDbEntity
  8
001
370
    50
100
AcDbVertex
100
AcDb2dVertex
 10
124.779026
 20
42.794956
 30
0.0
  0
VERTEX
  5
322
330
311
100
AcDbEntity
  8
001
370
    50
100
AcDbVertex
100
AcDb2dVertex
 10
124.849057
 20
42.804182
 30
0.0
  0
VERTEX
  5
323
330
311
100
AcDbEntity
  8
001
370
    50
100
AcDbVertex
100
AcDb2dVertex
 10
124.89965
 20
42.81127
 30
0.0
  0
SEQEND
  5
312
330
311
100
AcDbEntity
  8
001
370
    50
  0
LINE
  5
324
330
1F
100
AcDbEntity
  8
001
370
    50
100
AcDbLine
 10
121.91522
 20
42.727647
 30
0.0
 11
123.771378
 21
42.727647
 31
0.0
  0
LINE
  5
325
330
1F
100
AcDbEntity
  8
001
370
    50
100
AcDbLine
 10
121.875065
 20
42.731828
 30
0.0
 11
121.91522
 21
42.727647
 31
0.0
  0
POLYLINE
  5
326
330
1F
100
AcDbEntity
  8
001
370
    50
100
AcDb2dPolyline
 66
     1
 10
0.0
 20
0.0
 30
0.0
  0
VERTEX
  5
328
330
326
100
AcDbEntity
  8
001
370
    50
100
AcDbVertex
100
AcDb2dVertex
 10
121.87502
 20
42.732639
 30
0.0
  0
VERTEX
  5
329
330
326
100
AcDbEntity
  8
001
370
    50
100
AcDbVertex
100
AcDb2dVertex
 10
121.848356
 20
42.758923
 30
0.0
  0
VERTEX
  5
32A
330
326
100
AcDbEntity
  8
001
370
    50
100
AcDbVertex
100
AcDb2dVertex
 10
121.794372
 20
42.784383
 30
0.0
  0
VERTEX
  5
32B
330
326
100
AcDbEntity
  8
001
370
    50
100
AcDbVertex
100
AcDb2dVertex
 10
121.671922
 20
42.816121
 30
0.0
  0
VERTEX
  5
32C
330
326
100
AcDbEntity
  8
001
370
    50
100
AcDbVertex
100
AcDb2dVertex
 10
121.564051
 20
42.822793
 30
0.0
  0
VERTEX
  5
32D
330
326
100
AcDbEntity
  8
001
370
    50
100
AcDbVertex
100
AcDb2dVertex
 10
121.382778
 20
42.833615
 30
0.0
  0
VERTEX
  5
32E
330
326
100
AcDbEntity
  8
001
370
    50
100
AcDbVertex
100
AcDb2dVertex
 10
121.192878
 20
42.846396
 30
0.0
  0
VERTEX
  5
32F
330
326
100
AcDbEntity
  8
001
370
    50
100
AcDbVertex
100
AcDb2dVertex
 10
120.942193
 20
42.854203
 30
0.0
  0
VERTEX
  5
330
330
326
100
AcDbEntity
  8
001
370
    50
100
AcDbVertex
100
AcDb2dVertex
 10
120.695067
 20
42.854291
 30
0.0
  0
VERTEX
  5
331
330
326
100
AcDbEntity
  8
001
370
    50
100
AcDbVertex
100
AcDb2dVertex
 10
120.393724
 20
42.851562
 30
0.0
  0
VERTEX
  5
332
330
326
100
AcDbEntity
  8
001
370
    50
100
AcDbVertex
100
AcDb2dVertex
 10
120.089682
 20
42.846173
 30
0.0
  0
VERTEX
  5
333
330
326
100
AcDbEntity
  8
001
370
    50
100
AcDbVertex
100
AcDb2dVertex
 10
119.740933
 20
42.835795
 30
0.0
  0
VERTEX
  5
334
330
326
100
AcDbEntity
  8
001
370
    50
100
AcDbVertex
100
AcDb2dVertex
 10
119.399906
 20
42.822354
 30
0.0
  0
VERTEX
  5
335
330
326
100
AcDbEntity
  8
001
370
    50
100
AcDbVertex
100
AcDb2dVertex
 10
119.041387
 20
42.80562
 30
0.0
  0
VERTEX
  5
336
330
326
100
AcDbEntity
  8
001
370
    50
100
AcDbVertex
100
AcDb2dVertex
 10
118.652155
 20
42.783746
 30
0.0
  0
VERTEX
  5
337
330
326
100
AcDbEntity
  8
001
370
    50
100
AcDbVertex
100
AcDb2dVertex
 10
118.202229
 20
42.754683
 30
0.0
  0
VERTEX
  5
338
330
326
100
AcDbEntity
  8
001
370
    50
100
AcDbVertex
100
AcDb2dVertex
 10
117.875065
 20
42.731828
 30
0.0
  0
SEQEND
  5
327
330
326
100
AcDbEntity
  8
001
370
    50
  0
LINE
  5
339
330
1F
100
AcDbEntity
  8
001
370
    50
100
AcDbLine
 10
117.778651
 20
42.727647
 30
0.0
 11
117.875065
 21
42.731828
 31
0.0
  0
LINE
  5
33A
330
1F
100
AcDbEntity
  8
001
370
    50
100
AcDbLine
 10
115.922493
 20
42.727647
 30
0.0
 11
117.778651
 21
42.727647
 31
0.0
  0
POLYLINE
  5
33B
330
1F
100
AcDbEntity
  8
001
370
    50
100
AcDb2dPolyline
 66
     1
 10
0.0
 20
0.0
 30
0.0
  0
VERTEX
  5
33D
330
33B
100
AcDbEntity
  8
001
370
    50
100
AcDbVertex
100
AcDb2dVertex
 10
115.919394
 20
42.81127
 30
0.0
  0
VERTEX
  5
33E
330
33B
100
AcDbEntity
  8
001
370
    50
100
AcDbVertex
100
AcDb2dVertex
 10
115.877558
 20
42.804932
 30
0.0
  0
VERTEX
  5
33F
330
33B
100
AcDbEntity
  8
001
370
    50
100
AcDbVertex
100
AcDb2dVertex
 10
115.820205
 20
42.7949
 30
0.0
  0
VERTEX
  5
340
330
33B
100
AcDbEntity
  8
001
370
    50
100
AcDbVertex
100
AcDb2dVertex
 10
115.78139
 20
42.786537
 30
0.0
  0
VERTEX
  5
341
330
33B
100
AcDbEntity
  8
001
370
    50
100
AcDbVertex
100
AcDb2dVertex
 10
115.746746
 20
42.779163
 30
0.0
  0
VERTEX
  5
342
330
33B
100
AcDbEntity
  8
001
370
    50
100
AcDbVertex
100
AcDb2dVertex
 10
115.725548
 20
42.774648
 30
0.0
  0
VERTEX
  5
343
330
33B
100
AcDbEntity
  8
001
370
    50
100
AcDbVertex
100
AcDb2dVertex
 10
115.701858
 20
42.764668
 30
0.0
  0
VERTEX
  5
344
330
33B
100
AcDbEntity
  8
001
370
    50
100
AcDbVertex
100
AcDb2dVertex
 10
115.691819
 20
42.758002
 30
0.0
  0
VERTEX
  5
345
330
33B
100
AcDbEntity
  8
001
370
    50
100
AcDbVertex
100
AcDb2dVertex
 10
115.68728
 20
42.751978
 30
0.0
  0
SEQEND
  5
33C
330
33B
100
AcDbEntity
  8
001
370
    50
  0
LINE
  5
346
330
1F
100
AcDbEntity
  8
001
370
    50
100
AcDbLine
 10
117.765384
 20
43.085658
 30
0.0
 11
115.919394
 21
42.81127
 31
0.0
  0
LINE
  5
347
330
1F
100
AcDbEntity
  8
001
370
    50
100
AcDbLine
 10
117.861579
 20
43.095752
 30
0.0
 11
117.765384
 21
43.085658
 31
0.0
  0
POLYLINE
  5
348
330
1F
100
AcDbEntity
  8
001
370
    50
100
AcDb2dPolyline
 66
     1
 10
0.0
 20
0.0
 30
0.0
  0
VERTEX
  5
34A
330
348
100
AcDbEntity
  8
001
370
    50
100
AcDbVertex
100
AcDb2dVertex
 10
117.861579
 20
43.095752
 30
0.0
  0
VERTEX
  5
34B
330
348
100
AcDbEntity
  8
001
370
    50
100
AcDbVertex
100
AcDb2dVertex
 10
118.153215
 20
43.118488
 30
0.0
  0
VERTEX
  5
34C
330
348
100
AcDbEntity
  8
001
370
    50
100
AcDbVertex
100
AcDb2dVertex
 10
118.554102
 20
43.151583
 30
0.0
  0
VERTEX
  5
34D
330
348
100
AcDbEntity
  8
001
370
    50
100
AcDbVertex
100
AcDb2dVertex
 10
118.90372
 20
43.182998
 30
0.0
  0
VERTEX
  5
34E
330
348
100
AcDbEntity
  8
001
370
    50
100
AcDbVertex
100
AcDb2dVertex
 10
119.225251
 20
43.2147
 30
0.0
  0
VERTEX
  5
34F
330
348
100
AcDbEntity
  8
001
370
    50
100
AcDbVertex
100
AcDb2dVertex
 10
119.536732
 20
43.247514
 30
0.0
  0
VERTEX
  5
350
330
348
100
AcDbEntity
  8
001
370
    50
100
AcDbVertex
100
AcDb2dVertex
 10
119.854633
 20
43.283187
 30
0.0
  0
VERTEX
  5
351
330
348
100
AcDbEntity
  8
001
370
    50
100
AcDbVertex
100
AcDb2dVertex
 10
120.13971
 20
43.317586
 30
0.0
  0
VERTEX
  5
352
330
348
100
AcDbEntity
  8
001
370
    50
100
AcDbVertex
100
AcDb2dVertex
 10
120.423123
 20
43.354962
 30
0.0
  0
VERTEX
  5
353
330
348
100
AcDbEntity
  8
001
370
    50
100
AcDbVertex
100
AcDb2dVertex
 10
120.6687
 20
43.390367
 30
0.0
  0
VERTEX
  5
354
330
348
100
AcDbEntity
  8
001
370
    50
100
AcDbVertex
100
AcDb2dVertex
 10
120.91345
 20
43.427844
 30
0.0
  0
VERTEX
  5
355
330
348
100
AcDbEntity
  8
001
370
    50
100
AcDbVertex
100
AcDb2dVertex
 10
121.111505
 20
43.460268
 30
0.0
  0
VERTEX
  5
356
330
348
100
AcDbEntity
  8
001
370
    50
100
AcDbVertex
100
AcDb2dVertex
 10
121.310714
 20
43.499619
 30
0.0
  0
VERTEX
  5
357
330
348
100
AcDbEntity
  8
001
370
    50
100
AcDbVertex
100
AcDb2dVertex
 10
121.459719
 20
43.535042
 30
0.0
  0
VERTEX
  5
358
330
348
100
AcDbEntity
  8
001
370
    50
100
AcDbVertex
100
AcDb2dVertex
 10
121.602845
 20
43.568105
 30
0.0
  0
VERTEX
  5
359
330
348
100
AcDbEntity
  8
001
370
    50
100
AcDbVertex
100
AcDb2dVertex
 10
121.688653
 20
43.588342
 30
0.0
  0
VERTEX
  5
35A
330
348
100
AcDbEntity
  8
001
370
    50
100
AcDbVertex
100
AcDb2dVertex
 10
121.780966
 20
43.631223
 30
0.0
  0
VERTEX
  5
35B
330
348
100
AcDbEntity
  8
001
370
    50
100
AcDbVertex
100
AcDb2dVertex
 10
121.821177
 20
43.660867
 30
0.0
  0
VERTEX
  5
35C
330
348
100
AcDbEntity
  8
001
370
    50
100
AcDbVertex
100
AcDb2dVertex
 10
121.839666
 20
43.687054
 30
0.0
  0
SEQEND
  5
349
330
348
100
AcDbEntity
  8
001
370
    50
  0
LINE
  5
35D
330
1F
100
AcDbEntity
  8
001
370
    50
100
AcDbLine
 10
121.879292
 20
43.697148
 30
0.0
 11
121.839666
 21
43.687054
 31
0.0
  0
LINE
  5
35E
330
1F
100
AcDbEntity
  8
001
370
    50
100
AcDbLine
 10
123.725282
 20
43.971536
 30
0.0
 11
121.879292
 21
43.697148
 31
0.0
  0
POLYLINE
  5
35F
330
1F
100
AcDbEntity
  8
001
370
    50
100
AcDb2dPolyline
 66
     1
 10
0.0
 20
0.0
 30
0.0
  0
VERTEX
  5
361
330
35F
100
AcDbEntity
  8
001
370
    50
100
AcDbVertex
100
AcDb2dVertex
 10
124.853554
 20
44.055159
 30
0.0
  0
VERTEX
  5
362
330
35F
100
AcDbEntity
  8
001
370
    50
100
AcDbVertex
100
AcDb2dVertex
 10
124.808731
 20
44.05482
 30
0.0
  0
VERTEX
  5
363
330
35F
100
AcDbEntity
  8
001
370
    50
100
AcDbVertex
100
AcDb2dVertex
 10
124.746777
 20
44.053888
 30
0.0
  0
VERTEX
  5
364
330
35F
100
AcDbEntity
  8
001
370
    50
100
AcDbVertex
100
AcDb2dVertex
 10
124.683719
 20
44.052262
 30
0.0
  0
VERTEX
  5
365
330
35F
100
AcDbEntity
  8
001
370
    50
100
AcDbVertex
100
AcDb2dVertex
 10
124.62615
 20
44.050116
 30
0.0
  0
VERTEX
  5
366
330
35F
100
AcDbEntity
  8
001
370
    50
100
AcDbVertex
100
AcDb2dVertex
 10
124.561554
 20
44.047275
 30
0.0
  0
VERTEX
  5
367
330
35F
100
AcDbEntity
  8
001
370
    50
100
AcDbVertex
100
AcDb2dVertex
 10
124.495339
 20
44.043955
 30
0.0
  0
VERTEX
  5
368
330
35F
100
AcDbEntity
  8
001
370
    50
100
AcDbVertex
100
AcDb2dVertex
 10
124.426596
 20
44.040006
 30
0.0
  0
VERTEX
  5
369
330
35F
100
AcDbEntity
  8
001
370
    50
100
AcDbVertex
100
AcDb2dVertex
 10
124.358318
 20
44.035595
 30
0.0
  0
VERTEX
  5
36A
330
35F
100
AcDbEntity
  8
001
370
    50
100
AcDbVertex
100
AcDb2dVertex
 10
124.288769
 20
44.030656
 30
0.0
  0
VERTEX
  5
36B
330
35F
100
AcDbEntity
  8
001
370
    50
100
AcDbVertex
100
AcDb2dVertex
 10
124.219251
 20
44.025288
 30
0.0
  0
VERTEX
  5
36C
330
35F
100
AcDbEntity
  8
001
370
    50
100
AcDbVertex
100
AcDb2dVertex
 10
124.151004
 20
44.01958
 30
0.0
  0
VERTEX
  5
36D
330
35F
100
AcDbEntity
  8
001
370
    50
100
AcDbVertex
100
AcDb2dVertex
 10
124.082363
 20
44.013347
 30
0.0
  0
VERTEX
  5
36E
330
35F
100
AcDbEntity
  8
001
370
    50
100
AcDbVertex
100
AcDb2dVertex
 10
124.016252
 20
44.006859
 30
0.0
  0
VERTEX
  5
36F
330
35F
100
AcDbEntity
  8
001
370
    50
100
AcDbVertex
100
AcDb2dVertex
 10
123.951813
 20
44.000137
 30
0.0
  0
VERTEX
  5
370
330
35F
100
AcDbEntity
  8
001
370
    50
100
AcDbVertex
100
AcDb2dVertex
 10
123.894374
 20
43.993758
 30
0.0
  0
VERTEX
  5
371
330
35F
100
AcDbEntity
  8
001
370
    50
100
AcDbVertex
100
AcDb2dVertex
 10
123.831568
 20
43.986057
 30
0.0
  0
VERTEX
  5
372
330
35F
100
AcDbEntity
  8
001
370
    50
100
AcDbVertex
100
AcDb2dVertex
 10
123.769872
 20
43.977823
 30
0.0
  0
VERTEX
  5
373
330
35F
100
AcDbEntity
  8
001
370
    50
100
AcDbVertex
100
AcDb2dVertex
 10
123.725282
 20
43.971536
 30
0.0
  0
SEQEND
  5
360
330
35F
100
AcDbEntity
  8
001
370
    50
  0
LINE
  5
374
330
1F
100
AcDbEntity
  8
001
370
    50
100
AcDbLine
 10
126.709713
 20
44.055159
 30
0.0
 11
124.853554
 21
44.055159
 31
0.0
  0
LINE
  5
375
330
1F
100
AcDbEntity
  8
001
370
    50
100
AcDbLine
 10
126.749868
 20
44.050977
 30
0.0
 11
126.709713
 21
44.055159
 31
0.0
  0
POLYLINE
  5
376
330
1F
100
AcDbEntity
  8
001
370
    50
100
AcDb2dPolyline
 66
     1
 10
0.0
 20
0.0
 30
0.0
  0
VERTEX
  5
378
330
376
100
AcDbEntity
  8
001
370
    50
100
AcDbVertex
100
AcDb2dVertex
 10
126.749913
 20
44.050167
 30
0.0
  0
VERTEX
  5
379
330
376
100
AcDbEntity
  8
001
370
    50
100
AcDbVertex
100
AcDb2dVertex
 10
126.776577
 20
44.023883
 30
0.0
  0
VERTEX
  5
37A
330
376
100
AcDbEntity
  8
001
370
    50
100
AcDbVertex
100
AcDb2dVertex
 10
126.830561
 20
43.998422
 30
0.0
  0
VERTEX
  5
37B
330
376
100
AcDbEntity
  8
001
370
    50
100
AcDbVertex
100
AcDb2dVertex
 10
126.953011
 20
43.966685
 30
0.0
  0
VERTEX
  5
37C
330
376
100
AcDbEntity
  8
001
370
    50
100
AcDbVertex
100
AcDb2dVertex
 10
127.060881
 20
43.960013
 30
0.0
  0
VERTEX
  5
37D
330
376
100
AcDbEntity
  8
001
370
    50
100
AcDbVertex
100
AcDb2dVertex
 10
127.242154
 20
43.949191
 30
0.0
  0
VERTEX
  5
37E
330
376
100
AcDbEntity
  8
001
370
    50
100
AcDbVertex
100
AcDb2dVertex
 10
127.432054
 20
43.936409
 30
0.0
  0
VERTEX
  5
37F
330
376
100
AcDbEntity
  8
001
370
    50
100
AcDbVertex
100
AcDb2dVertex
 10
127.68274
 20
43.928603
 30
0.0
  0
VERTEX
  5
380
330
376
100
AcDbEntity
  8
001
370
    50
100
AcDbVertex
100
AcDb2dVertex
 10
127.929866
 20
43.928515
 30
0.0
  0
VERTEX
  5
381
330
376
100
AcDbEntity
  8
001
370
    50
100
AcDbVertex
100
AcDb2dVertex
 10
128.231208
 20
43.931244
 30
0.0
  0
VERTEX
  5
382
330
376
100
AcDbEntity
  8
001
370
    50
100
AcDbVertex
100
AcDb2dVertex
 10
128.535251
 20
43.936633
 30
0.0
  0
VERTEX
  5
383
330
376
100
AcDbEntity
  8
001
370
    50
100
AcDbVertex
100
AcDb2dVertex
 10
128.884
 20
43.947011
 30
0.0
  0
VERTEX
  5
384
330
376
100
AcDbEntity
  8
001
370
    50
100
AcDbVertex
100
AcDb2dVertex
 10
129.225026
 20
43.960452
 30
0.0
  0
VERTEX
  5
385
330
376
100
AcDbEntity
  8
001
370
    50
100
AcDbVertex
100
AcDb2dVertex
 10
129.583546
 20
43.977185
 30
0.0
  0
VERTEX
  5
386
330
376
100
AcDbEntity
  8
001
370
    50
100
AcDbVertex
100
AcDb2dVertex
 10
129.972777
 20
43.999059
 30
0.0
  0
VERTEX
  5
387
330
376
100
AcDbEntity
  8
001
370
    50
100
AcDbVertex
100
AcDb2dVertex
 10
130.422703
 20
44.028122
 30
0.0
  0
VERTEX
  5
388
330
376
100
AcDbEntity
  8
001
370
    50
100
AcDbVertex
100
AcDb2dVertex
 10
130.749868
 20
44.050977
 30
0.0
  0
SEQEND
  5
377
330
376
100
AcDbEntity
  8
001
370
    50
  0
LINE
  5
389
330
1F
100
AcDbEntity
  8
001
370
    50
100
AcDbLine
 10
130.846281
 20
44.055159
 30
0.0
 11
130.749868
 21
44.050977
 31
0.0
  0
LINE
  5
38A
330
1F
100
AcDbEntity
  8
001
370
    50
100
AcDbLine
 10
132.70244
 20
44.055159
 30
0.0
 11
130.846281
 21
44.055159
 31
0.0
  0
POLYLINE
  5
38B
330
1F
100
AcDbEntity
  8
001
370
    50
100
AcDb2dPolyline
 66
     1
 10
0.0
 20
0.0
 30
0.0
  0
VERTEX
  5
38D
330
38B
100
AcDbEntity
  8
001
370
    50
100
AcDbVertex
100
AcDb2dVertex
 10
132.705538
 20
43.971536
 30
0.0
  0
VERTEX
  5
38E
330
38B
100
AcDbEntity
  8
001
370
    50
100
AcDbVertex
100
AcDb2dVertex
 10
132.747374
 20
43.977874
 30
0.0
  0
VERTEX
  5
38F
330
38B
100
AcDbEntity
  8
001
370
    50
100
AcDbVertex
100
AcDb2dVertex
 10
132.804727
 20
43.987906
 30
0.0
  0
VERTEX
  5
390
330
38B
100
AcDbEntity
  8
001
370
    50
100
AcDbVertex
100
AcDb2dVertex
 10
132.843542
 20
43.996269
 30
0.0
  0
VERTEX
  5
391
330
38B
100
AcDbEntity
  8
001
370
    50
100
AcDbVertex
100
AcDb2dVertex
 10
132.878187
 20
44.003643
 30
0.0
  0
VERTEX
  5
392
330
38B
100
AcDbEntity
  8
001
370
    50
100
AcDbVertex
100
AcDb2dVertex
 10
132.899384
 20
44.008158
 30
0.0
  0
VERTEX
  5
393
330
38B
100
AcDbEntity
  8
001
370
    50
100
AcDbVertex
100
AcDb2dVertex
 10
132.923074
 20
44.018137
 30
0.0
  0
VERTEX
  5
394
330
38B
100
AcDbEntity
  8
001
370
    50
100
AcDbVertex
100
AcDb2dVertex
 10
132.933114
 20
44.024803
 30
0.0
  0
VERTEX
  5
395
330
38B
100
AcDbEntity
  8
001
370
    50
100
AcDbVertex
100
AcDb2dVertex
 10
132.937653
 20
44.030828
 30
0.0
  0
SEQEND
  5
38C
330
38B
100
AcDbEntity
  8
001
370
    50
  0
LINE
  5
396
330
1F
100
AcDbEntity
  8
001
370
    50
100
AcDbLine
 10
130.859548
 20
43.697148
 30
0.0
 11
132.705538
 21
43.971536
 31
0.0
  0
LINE
  5
397
330
1F
100
AcDbEntity
  8
001
370
    50
100
AcDbLine
 10
130.763354
 20
43.687054
 30
0.0
 11
130.859548
 21
43.697148
 31
0.0
  0
POLYLINE
  5
398
330
1F
100
AcDbEntity
  8
001
370
    50
100
AcDb2dPolyline
 66
     1
 10
0.0
 20
0.0
 30
0.0
  0
VERTEX
  5
39A
330
398
100
AcDbEntity
  8
001
370
    50
100
AcDbVertex
100
AcDb2dVertex
 10
130.763354
 20
43.687054
 30
0.0
  0
VERTEX
  5
39B
330
398
100
AcDbEntity
  8
001
370
    50
100
AcDbVertex
100
AcDb2dVertex
 10
130.471717
 20
43.664318
 30
0.0
  0
VERTEX
  5
39C
330
398
100
AcDbEntity
  8
001
370
    50
100
AcDbVertex
100
AcDb2dVertex
 10
130.07083
 20
43.631223
 30
0.0
  0
VERTEX
  5
39D
330
398
100
AcDbEntity
  8
001
370
    50
100
AcDbVertex
100
AcDb2dVertex
 10
129.721213
 20
43.599808
 30
0.0
  0
VERTEX
  5
39E
330
398
100
AcDbEntity
  8
001
370
    50
100
AcDbVertex
100
AcDb2dVertex
 10
129.399681
 20
43.568105
 30
0.0
  0
VERTEX
  5
39F
330
398
100
AcDbEntity
  8
001
370
    50
100
AcDbVertex
100
AcDb2dVertex
 10
129.088201
 20
43.535292
 30
0.0
  0
VERTEX
  5
3A0
330
398
100
AcDbEntity
  8
001
370
    50
100
AcDbVertex
100
AcDb2dVertex
 10
128.7703
 20
43.499619
 30
0.0
  0
VERTEX
  5
3A1
330
398
100
AcDbEntity
  8
001
370
    50
100
AcDbVertex
100
AcDb2dVertex
 10
128.485222
 20
43.46522
 30
0.0
  0
VERTEX
  5
3A2
330
398
100
AcDbEntity
  8
001
370
    50
100
AcDbVertex
100
AcDb2dVertex
 10
128.201809
 20
43.427844
 30
0.0
  0
VERTEX
  5
3A3
330
398
100
AcDbEntity
  8
001
370
    50
100
AcDbVertex
100
AcDb2dVertex
 10
127.956232
 20
43.392439
 30
0.0
  0
VERTEX
  5
3A4
330
398
100
AcDbEntity
  8
001
370
    50
100
AcDbVertex
100
AcDb2dVertex
 10
127.711483
 20
43.354962
 30
0.0
  0
VERTEX
  5
3A5
330
398
100
AcDbEntity
  8
001
370
    50
100
AcDbVertex
100
AcDb2dVertex
 10
127.513428
 20
43.322538
 30
0.0
  0
VERTEX
  5
3A6
330
398
100
AcDbEntity
  8
001
370
    50
100
AcDbVertex
100
AcDb2dVertex
 10
127.314219
 20
43.283187
 30
0.0
  0
VERTEX
  5
3A7
330
398
100
AcDbEntity
  8
001
370
    50
100
AcDbVertex
100
AcDb2dVertex
 10
127.165214
 20
43.247764
 30
0.0
  0
VERTEX
  5
3A8
330
398
100
AcDbEntity
  8
001
370
    50
100
AcDbVertex
100
AcDb2dVertex
 10
127.022088
 20
43.2147
 30
0.0
  0
VERTEX
  5
3A9
330
398
100
AcDbEntity
  8
001
370
    50
100
AcDbVertex
100
AcDb2dVertex
 10
126.93628
 20
43.194464
 30
0.0
  0
VERTEX
  5
3AA
330
398
100
AcDbEntity
  8
001
370
    50
100
AcDbVertex
100
AcDb2dVertex
 10
126.843966
 20
43.151583
 30
0.0
  0
VERTEX
  5
3AB
330
398
100
AcDbEntity
  8
001
370
    50
100
AcDbVertex
100
AcDb2dVertex
 10
126.803755
 20
43.121938
 30
0.0
  0
VERTEX
  5
3AC
330
398
100
AcDbEntity
  8
001
370
    50
100
AcDbVertex
100
AcDb2dVertex
 10
126.785266
 20
43.095752
 30
0.0
  0
SEQEND
  5
399
330
398
100
AcDbEntity
  8
001
370
    50
  0
POLYLINE
  5
3AD
330
1F
100
AcDbEntity
  8
001
370
    50
100
AcDb2dPolyline
 66
     1
 10
0.0
 20
0.0
 30
0.0
  0
VERTEX
  5
3AF
330
3AD
100
AcDbEntity
  8
001
370
    50
100
AcDbVertex
100
AcDb2dVertex
 10
126.905315
 20
43.584103
 30
0.0
  0
VERTEX
  5
3B0
330
3AD
100
AcDbEntity
  8
001
370
    50
100
AcDbVertex
100
AcDb2dVertex
 10
126.889896
 20
43.60009
 30
0.0
  0
VERTEX
  5
3B1
330
3AD
100
AcDbEntity
  8
001
370
    50
100
AcDbVertex
100
AcDb2dVertex
 10
126.858629
 20
43.616012
 30
0.0
  0
VERTEX
  5
3B2
330
3AD
100
AcDbEntity
  8
001
370
    50
100
AcDbVertex
100
AcDb2dVertex
 10
126.788172
 20
43.635783
 30
0.0
  0
VERTEX
  5
3B3
330
3AD
100
AcDbEntity
  8
001
370
    50
100
AcDbVertex
100
AcDb2dVertex
 10
126.725388
 20
43.640285
 30
0.0
  0
VERTEX
  5
3B4
330
3AD
100
AcDbEntity
  8
001
370
    50
100
AcDbVertex
100
AcDb2dVertex
 10
126.6201
 20
43.647586
 30
0.0
  0
VERTEX
  5
3B5
330
3AD
100
AcDbEntity
  8
001
370
    50
100
AcDbVertex
100
AcDb2dVertex
 10
126.51012
 20
43.656098
 30
0.0
  0
VERTEX
  5
3B6
330
3AD
100
AcDbEntity
  8
001
370
    50
100
AcDbVertex
100
AcDb2dVertex
 10
126.364262
 20
43.661865
 30
0.0
  0
VERTEX
  5
3B7
330
3AD
100
AcDbEntity
  8
001
370
    50
100
AcDbVertex
100
AcDb2dVertex
 10
126.220145
 20
43.662913
 30
0.0
  0
VERTEX
  5
3B8
330
3AD
100
AcDbEntity
  8
001
370
    50
100
AcDbVertex
100
AcDb2dVertex
 10
126.043046
 20
43.662462
 30
0.0
  0
VERTEX
  5
3B9
330
3AD
100
AcDbEntity
  8
001
370
    50
100
AcDbVertex
100
AcDb2dVertex
 10
125.865319
 20
43.660497
 30
0.0
  0
VERTEX
  5
3BA
330
3AD
100
AcDbEntity
  8
001
370
    50
100
AcDbVertex
100
AcDb2dVertex
 10
125.661379
 20
43.655798
 30
0.0
  0
VERTEX
  5
3BB
330
3AD
100
AcDbEntity
  8
001
370
    50
100
AcDbVertex
100
AcDb2dVertex
 10
125.457704
 20
43.648934
 30
0.0
  0
VERTEX
  5
3BC
330
3AD
100
AcDbEntity
  8
001
370
    50
100
AcDbVertex
100
AcDb2dVertex
 10
125.234423
 20
43.639619
 30
0.0
  0
VERTEX
  5
3BD
330
3AD
100
AcDbEntity
  8
001
370
    50
100
AcDbVertex
100
AcDb2dVertex
 10
125.011158
 20
43.628617
 30
0.0
  0
VERTEX
  5
3BE
330
3AD
100
AcDbEntity
  8
001
370
    50
100
AcDbVertex
100
AcDb2dVertex
 10
124.77595
 20
43.61527
 30
0.0
  0
VERTEX
  5
3BF
330
3AD
100
AcDbEntity
  8
001
370
    50
100
AcDbVertex
100
AcDb2dVertex
 10
124.54086
 20
43.600235
 30
0.0
  0
VERTEX
  5
3C0
330
3AD
100
AcDbEntity
  8
001
370
    50
100
AcDbVertex
100
AcDb2dVertex
 10
124.301769
 20
43.583307
 30
0.0
  0
VERTEX
  5
3C1
330
3AD
100
AcDbEntity
  8
001
370
    50
100
AcDbVertex
100
AcDb2dVertex
 10
124.062799
 20
43.564754
 30
0.0
  0
VERTEX
  5
3C2
330
3AD
100
AcDbEntity
  8
001
370
    50
100
AcDbVertex
100
AcDb2dVertex
 10
123.827945
 20
43.54491
 30
0.0
  0
VERTEX
  5
3C3
330
3AD
100
AcDbEntity
  8
001
370
    50
100
AcDbVertex
100
AcDb2dVertex
 10
123.593224
 20
43.523381
 30
0.0
  0
VERTEX
  5
3C4
330
3AD
100
AcDbEntity
  8
001
370
    50
100
AcDbVertex
100
AcDb2dVertex
 10
123.370545
 20
43.501287
 30
0.0
  0
VERTEX
  5
3C5
330
3AD
100
AcDbEntity
  8
001
370
    50
100
AcDbVertex
100
AcDb2dVertex
 10
123.1481
 20
43.47752
 30
0.0
  0
VERTEX
  5
3C6
330
3AD
100
AcDbEntity
  8
001
370
    50
100
AcDbVertex
100
AcDb2dVertex
 10
122.945301
 20
43.454209
 30
0.0
  0
VERTEX
  5
3C7
330
3AD
100
AcDbEntity
  8
001
370
    50
100
AcDbVertex
100
AcDb2dVertex
 10
122.742557
 20
43.428733
 30
0.0
  0
VERTEX
  5
3C8
330
3AD
100
AcDbEntity
  8
001
370
    50
100
AcDbVertex
100
AcDb2dVertex
 10
122.566044
 20
43.40442
 30
0.0
  0
VERTEX
  5
3C9
330
3AD
100
AcDbEntity
  8
001
370
    50
100
AcDbVertex
100
AcDb2dVertex
 10
122.390383
 20
43.378676
 30
0.0
  0
VERTEX
  5
3CA
330
3AD
100
AcDbEntity
  8
001
370
    50
100
AcDbVertex
100
AcDb2dVertex
 10
122.247491
 20
43.356279
 30
0.0
  0
VERTEX
  5
3CB
330
3AD
100
AcDbEntity
  8
001
370
    50
100
AcDbVertex
100
AcDb2dVertex
 10
122.103549
 20
43.329052
 30
0.0
  0
VERTEX
  5
3CC
330
3AD
100
AcDbEntity
  8
001
370
    50
100
AcDbVertex
100
AcDb2dVertex
 10
121.995419
 20
43.304443
 30
0.0
  0
VERTEX
  5
3CD
330
3AD
100
AcDbEntity
  8
001
370
    50
100
AcDbVertex
100
AcDb2dVertex
 10
121.891806
 20
43.281547
 30
0.0
  0
VERTEX
  5
3CE
330
3AD
100
AcDbEntity
  8
001
370
    50
100
AcDbVertex
100
AcDb2dVertex
 10
121.829839
 20
43.26759
 30
0.0
  0
VERTEX
  5
3CF
330
3AD
100
AcDbEntity
  8
001
370
    50
100
AcDbVertex
100
AcDb2dVertex
 10
121.762352
 20
43.237777
 30
0.0
  0
VERTEX
  5
3D0
330
3AD
100
AcDbEntity
  8
001
370
    50
100
AcDbVertex
100
AcDb2dVertex
 10
121.733092
 20
43.217448
 30
0.0
  0
VERTEX
  5
3D1
330
3AD
100
AcDbEntity
  8
001
370
    50
100
AcDbVertex
100
AcDb2dVertex
 10
121.719588
 20
43.19923
 30
0.0
  0
SEQEND
  5
3AE
330
3AD
100
AcDbEntity
  8
001
370
    50
  0
POLYLINE
  5
3D2
330
1F
100
AcDbEntity
  8
001
370
    50
100
AcDb2dPolyline
 66
     1
 10
0.0
 20
0.0
 30
0.0
  0
VERTEX
  5
3D4
330
3D2
100
AcDbEntity
  8
001
370
    50
100
AcDbVertex
100
AcDb2dVertex
 10
124.123203
 20
37.993723
 30
0.0
  0
VERTEX
  5
3D5
330
3D2
100
AcDbEntity
  8
001
370
    50
100
AcDbVertex
100
AcDb2dVertex
 10
124.168026
 20
37.994062
 30
0.0
  0
VERTEX
  5
3D6
330
3D2
100
AcDbEntity
  8
001
370
    50
100
AcDbVertex
100
AcDb2dVertex
 10
124.22998
 20
37.994993
 30
0.0
  0
VERTEX
  5
3D7
330
3D2
100
AcDbEntity
  8
001
370
    50
100
AcDbVertex
100
AcDb2dVertex
 10
124.293038
 20
37.996619
 30
0.0
  0
VERTEX
  5
3D8
330
3D2
100
AcDbEntity
  8
001
370
    50
100
AcDbVertex
100
AcDb2dVertex
 10
124.350607
 20
37.998766
 30
0.0
  0
VERTEX
  5
3D9
330
3D2
100
AcDbEntity
  8
001
370
    50
100
AcDbVertex
100
AcDb2dVertex
 10
124.415204
 20
38.001607
 30
0.0
  0
VERTEX
  5
3DA
330
3D2
100
AcDbEntity
  8
001
370
    50
100
AcDbVertex
100
AcDb2dVertex
 10
124.481418
 20
38.004926
 30
0.0
  0
VERTEX
  5
3DB
330
3D2
100
AcDbEntity
  8
001
370
    50
100
AcDbVertex
100
AcDb2dVertex
 10
124.550162
 20
38.008876
 30
0.0
  0
VERTEX
  5
3DC
330
3D2
100
AcDbEntity
  8
001
370
    50
100
AcDbVertex
100
AcDb2dVertex
 10
124.618439
 20
38.013287
 30
0.0
  0
VERTEX
  5
3DD
330
3D2
100
AcDbEntity
  8
001
370
    50
100
AcDbVertex
100
AcDb2dVertex
 10
124.687988
 20
38.018225
 30
0.0
  0
VERTEX
  5
3DE
330
3D2
100
AcDbEntity
  8
001
370
    50
100
AcDbVertex
100
AcDb2dVertex
 10
124.757506
 20
38.023594
 30
0.0
  0
VERTEX
  5
3DF
330
3D2
100
AcDbEntity
  8
001
370
    50
100
AcDbVertex
100
AcDb2dVertex
 10
124.825754
 20
38.029302
 30
0.0
  0
VERTEX
  5
3E0
330
3D2
100
AcDbEntity
  8
001
370
    50
100
AcDbVertex
100
AcDb2dVertex
 10
124.894394
 20
38.035534
 30
0.0
  0
VERTEX
  5
3E1
330
3D2
100
AcDbEntity
  8
001
370
    50
100
AcDbVertex
100
AcDb2dVertex
 10
124.960505
 20
38.042022
 30
0.0
  0
VERTEX
  5
3E2
330
3D2
100
AcDbEntity
  8
001
370
    50
100
AcDbVertex
100
AcDb2dVertex
 10
125.024944
 20
38.048745
 30
0.0
  0
VERTEX
  5
3E3
330
3D2
100
AcDbEntity
  8
001
370
    50
100
AcDbVertex
100
AcDb2dVertex
 10
125.082384
 20
38.055123
 30
0.0
  0
VERTEX
  5
3E4
330
3D2
100
AcDbEntity
  8
001
370
    50
100
AcDbVertex
100
AcDb2dVertex
 10
125.145189
 20
38.062825
 30
0.0
  0
VERTEX
  5
3E5
330
3D2
100
AcDbEntity
  8
001
370
    50
100
AcDbVertex
100
AcDb2dVertex
 10
125.206885
 20
38.071058
 30
0.0
  0
VERTEX
  5
3E6
330
3D2
100
AcDbEntity
  8
001
370
    50
100
AcDbVertex
100
AcDb2dVertex
 10
125.251475
 20
38.077346
 30
0.0
  0
SEQEND
  5
3D3
330
3D2
100
AcDbEntity
  8
001
370
    50
  0
LINE
  5
3E7
330
1F
100
AcDbEntity
  8
001
370
    50
100
AcDbLine
 10
125.251475
 20
38.077346
 30
0.0
 11
126.229475
 21
38.222715
 31
0.0
  0
LINE
  5
3E8
330
1F
100
AcDbEntity
  8
001
370
    50
100
AcDbLine
 10
126.830905
 20
41.938388
 30
0.0
 11
126.74564
 21
43.085658
 31
0.0
  0
POLYLINE
  5
3E9
330
1F
100
AcDbEntity
  8
001
370
    50
100
AcDb2dPolyline
 66
     1
 10
0.0
 20
0.0
 30
0.0
  0
VERTEX
  5
3EB
330
3E9
100
AcDbEntity
  8
001
370
    50
100
AcDbVertex
100
AcDb2dVertex
 10
126.830905
 20
41.938388
 30
0.0
  0
VERTEX
  5
3EC
330
3E9
100
AcDbEntity
  8
001
370
    50
100
AcDbVertex
100
AcDb2dVertex
 10
126.749477
 20
41.476044
 30
0.0
  0
VERTEX
  5
3ED
330
3E9
100
AcDbEntity
  8
001
370
    50
100
AcDbVertex
100
AcDb2dVertex
 10
126.66953
 20
41.013446
 30
0.0
  0
VERTEX
  5
3EE
330
3E9
100
AcDbEntity
  8
001
370
    50
100
AcDbVertex
100
AcDb2dVertex
 10
126.592039
 20
40.54961
 30
0.0
  0
VERTEX
  5
3EF
330
3E9
100
AcDbEntity
  8
001
370
    50
100
AcDbVertex
100
AcDb2dVertex
 10
126.516728
 20
40.08541
 30
0.0
  0
VERTEX
  5
3F0
330
3E9
100
AcDbEntity
  8
001
370
    50
100
AcDbVertex
100
AcDb2dVertex
 10
126.442847
 20
39.620274
 30
0.0
  0
VERTEX
  5
3F1
330
3E9
100
AcDbEntity
  8
001
370
    50
100
AcDbVertex
100
AcDb2dVertex
 10
126.370489
 20
39.154901
 30
0.0
  0
VERTEX
  5
3F2
330
3E9
100
AcDbEntity
  8
001
370
    50
100
AcDbVertex
100
AcDb2dVertex
 10
126.299566
 20
38.688872
 30
0.0
  0
VERTEX
  5
3F3
330
3E9
100
AcDbEntity
  8
001
370
    50
100
AcDbVertex
100
AcDb2dVertex
 10
126.229475
 20
38.222715
 30
0.0
  0
SEQEND
  5
3EA
330
3E9
100
AcDbEntity
  8
001
370
    50
  0
LINE
  5
3F4
330
1F
100
AcDbEntity
  8
001
370
    50
100
AcDbLine
 10
122.000485
 20
41.580378
 30
0.0
 11
121.91522
 21
42.727647
 31
0.0
  0
LINE
  5
3F5
330
1F
100
AcDbEntity
  8
001
370
    50
100
AcDbLine
 10
123.139816
 20
37.993723
 30
0.0
 11
124.123203
 21
37.993723
 31
0.0
  0
POLYLINE
  5
3F6
330
1F
100
AcDbEntity
  8
001
370
    50
100
AcDb2dPolyline
 66
     1
 10
0.0
 20
0.0
 30
0.0
  0
VERTEX
  5
3F8
330
3F6
100
AcDbEntity
  8
001
370
    50
100
AcDbVertex
100
AcDb2dVertex
 10
123.139816
 20
37.993723
 30
0.0
  0
VERTEX
  5
3F9
330
3F6
100
AcDbEntity
  8
001
370
    50
100
AcDbVertex
100
AcDb2dVertex
 10
123.002223
 20
38.444255
 30
0.0
  0
VERTEX
  5
3FA
330
3F6
100
AcDbEntity
  8
001
370
    50
100
AcDbVertex
100
AcDb2dVertex
 10
122.863831
 20
38.894541
 30
0.0
  0
VERTEX
  5
3FB
330
3F6
100
AcDbEntity
  8
001
370
    50
100
AcDbVertex
100
AcDb2dVertex
 10
122.72411
 20
39.344022
 30
0.0
  0
VERTEX
  5
3FC
330
3F6
100
AcDbEntity
  8
001
370
    50
100
AcDbVertex
100
AcDb2dVertex
 10
122.582925
 20
39.793048
 30
0.0
  0
VERTEX
  5
3FD
330
3F6
100
AcDbEntity
  8
001
370
    50
100
AcDbVertex
100
AcDb2dVertex
 10
122.440382
 20
40.241222
 30
0.0
  0
VERTEX
  5
3FE
330
3F6
100
AcDbEntity
  8
001
370
    50
100
AcDbVertex
100
AcDb2dVertex
 10
122.295746
 20
40.688719
 30
0.0
  0
VERTEX
  5
3FF
330
3F6
100
AcDbEntity
  8
001
370
    50
100
AcDbVertex
100
AcDb2dVertex
 10
122.148827
 20
41.134781
 30
0.0
  0
VERTEX
  5
400
330
3F6
100
AcDbEntity
  8
001
370
    50
100
AcDbVertex
100
AcDb2dVertex
 10
122.000485
 20
41.580378
 30
0.0
  0
SEQEND
  5
3F7
330
3F6
100
AcDbEntity
  8
001
370
    50
  0
POLYLINE
  5
401
330
1F
100
AcDbEntity
  8
001
370
    50
100
AcDb2dPolyline
 66
     1
 10
0.0
 20
0.0
 30
0.0
  0
VERTEX
  5
403
330
401
100
AcDbEntity
  8
001
370
    50
100
AcDbVertex
100
AcDb2dVertex
 10
130.837267
 20
42.692532
 30
0.0
  0
VERTEX
  5
404
330
401
100
AcDbEntity
  8
001
370
    50
100
AcDbVertex
100
AcDb2dVertex
 10
130.513103
 20
42.667135
 30
0.0
  0
VERTEX
  5
405
330
401
100
AcDbEntity
  8
001
370
    50
100
AcDbVertex
100
AcDb2dVertex
 10
130.06762
 20
42.629916
 30
0.0
  0
VERTEX
  5
406
330
401
100
AcDbEntity
  8
001
370
    50
100
AcDbVertex
100
AcDb2dVertex
 10
129.681993
 20
42.594497
 30
0.0
  0
VERTEX
  5
407
330
401
100
AcDbEntity
  8
001
370
    50
100
AcDbVertex
100
AcDb2dVertex
 10
129.327324
 20
42.558537
 30
0.0
  0
VERTEX
  5
408
330
401
100
AcDbEntity
  8
001
370
    50
100
AcDbVertex
100
AcDb2dVertex
 10
128.989359
 20
42.521802
 30
0.0
  0
VERTEX
  5
409
330
401
100
AcDbEntity
  8
001
370
    50
100
AcDbVertex
100
AcDb2dVertex
 10
128.644212
 20
42.481081
 30
0.0
  0
VERTEX
  5
40A
330
401
100
AcDbEntity
  8
001
370
    50
100
AcDbVertex
100
AcDb2dVertex
 10
128.342573
 20
42.441999
 30
0.0
  0
VERTEX
  5
40B
330
401
100
AcDbEntity
  8
001
370
    50
100
AcDbVertex
100
AcDb2dVertex
 10
128.043969
 20
42.400459
 30
0.0
  0
VERTEX
  5
40C
330
401
100
AcDbEntity
  8
001
370
    50
100
AcDbVertex
100
AcDb2dVertex
 10
127.797763
 20
42.363637
 30
0.0
  0
VERTEX
  5
40D
330
401
100
AcDbEntity
  8
001
370
    50
100
AcDbVertex
100
AcDb2dVertex
 10
127.549164
 20
42.319702
 30
0.0
  0
VERTEX
  5
40E
330
401
100
AcDbEntity
  8
001
370
    50
100
AcDbVertex
100
AcDb2dVertex
 10
127.359681
 20
42.28009
 30
0.0
  0
VERTEX
  5
40F
330
401
100
AcDbEntity
  8
001
370
    50
100
AcDbVertex
100
AcDb2dVertex
 10
127.178401
 20
42.241847
 30
0.0
  0
VERTEX
  5
410
330
401
100
AcDbEntity
  8
001
370
    50
100
AcDbVertex
100
AcDb2dVertex
 10
127.067771
 20
42.21719
 30
0.0
  0
VERTEX
  5
411
330
401
100
AcDbEntity
  8
001
370
    50
100
AcDbVertex
100
AcDb2dVertex
 10
126.945621
 20
42.169821
 30
0.0
  0
VERTEX
  5
412
330
401
100
AcDbEntity
  8
001
370
    50
100
AcDbVertex
100
AcDb2dVertex
 10
126.889095
 20
42.137215
 30
0.0
  0
VERTEX
  5
413
330
401
100
AcDbEntity
  8
001
370
    50
100
AcDbVertex
100
AcDb2dVertex
 10
126.859576
 20
42.106333
 30
0.0
  0
SEQEND
  5
402
330
401
100
AcDbEntity
  8
001
370
    50
  0
POLYLINE
  5
414
330
1F
100
AcDbEntity
  8
001
370
    50
100
AcDb2dPolyline
 66
     1
 10
0.0
 20
0.0
 30
0.0
  0
VERTEX
  5
416
330
414
100
AcDbEntity
  8
001
370
    50
100
AcDbVertex
100
AcDb2dVertex
 10
132.079364
 20
39.092242
 30
0.0
  0
VERTEX
  5
417
330
414
100
AcDbEntity
  8
001
370
    50
100
AcDbVertex
100
AcDb2dVertex
 10
131.942357
 20
39.527332
 30
0.0
  0
VERTEX
  5
418
330
414
100
AcDbEntity
  8
001
370
    50
100
AcDbVertex
100
AcDb2dVertex
 10
131.804523
 20
39.962159
 30
0.0
  0
VERTEX
  5
419
330
414
100
AcDbEntity
  8
001
370
    50
100
AcDbVertex
100
AcDb2dVertex
 10
131.665415
 20
40.395829
 30
0.0
  0
VERTEX
  5
41A
330
414
100
AcDbEntity
  8
001
370
    50
100
AcDbVertex
100
AcDb2dVertex
 10
131.52479
 20
40.829013
 30
0.0
  0
VERTEX
  5
41B
330
414
100
AcDbEntity
  8
001
370
    50
100
AcDbVertex
100
AcDb2dVertex
 10
131.382891
 20
41.260904
 30
0.0
  0
VERTEX
  5
41C
330
414
100
AcDbEntity
  8
001
370
    50
100
AcDbVertex
100
AcDb2dVertex
 10
131.23882
 20
41.692071
 30
0.0
  0
VERTEX
  5
41D
330
414
100
AcDbEntity
  8
001
370
    50
100
AcDbVertex
100
AcDb2dVertex
 10
131.092554
 20
42.121225
 30
0.0
  0
VERTEX
  5
41E
330
414
100
AcDbEntity
  8
001
370
    50
100
AcDbVertex
100
AcDb2dVertex
 10
130.944813
 20
42.549879
 30
0.0
  0
SEQEND
  5
415
330
414
100
AcDbEntity
  8
001
370
    50
  0
LINE
  5
41F
330
1F
100
AcDbEntity
  8
001
370
    50
100
AcDbLine
 10
126.859179
 20
42.10123
 30
0.0
 11
126.830905
 21
41.938388
 31
0.0
  0
POLYLINE
  5
420
330
1F
100
AcDbEntity
  8
001
370
    50
100
AcDb2dPolyline
 66
     1
 10
0.0
 20
0.0
 30
0.0
  0
VERTEX
  5
422
330
420
100
AcDbEntity
  8
001
370
    50
100
AcDbVertex
100
AcDb2dVertex
 10
126.859576
 20
42.106333
 30
0.0
  0
VERTEX
  5
423
330
420
100
AcDbEntity
  8
001
370
    50
100
AcDbVertex
100
AcDb2dVertex
 10
126.859404
 20
42.105295
 30
0.0
  0
VERTEX
  5
424
330
420
100
AcDbEntity
  8
001
370
    50
100
AcDbVertex
100
AcDb2dVertex
 10
126.859231
 20
42.103771
 30
0.0
  0
VERTEX
  5
425
330
420
100
AcDbEntity
  8
001
370
    50
100
AcDbVertex
100
AcDb2dVertex
 10
126.859169
 20
42.102263
 30
0.0
  0
VERTEX
  5
426
330
420
100
AcDbEntity
  8
001
370
    50
100
AcDbVertex
100
AcDb2dVertex
 10
126.859179
 20
42.10123
 30
0.0
  0
SEQEND
  5
421
330
420
100
AcDbEntity
  8
001
370
    50
  0
LINE
  5
427
330
1F
100
AcDbEntity
  8
001
370
    50
100
AcDbLine
 10
130.944813
 20
42.549879
 30
0.0
 11
130.837267
 21
42.692532
 31
0.0
  0
POLYLINE
  5
428
330
1F
100
AcDbEntity
  8
001
370
    50
100
AcDb2dPolyline
 66
     1
 10
0.0
 20
0.0
 30
0.0
  0
VERTEX
  5
42A
330
428
100
AcDbEntity
  8
001
370
    50
100
AcDbVertex
100
AcDb2dVertex
 10
132.079364
 20
39.092242
 30
0.0
  0
VERTEX
  5
42B
330
428
100
AcDbEntity
  8
001
370
    50
100
AcDbVertex
100
AcDb2dVertex
 10
131.676233
 20
39.066503
 30
0.0
  0
VERTEX
  5
42C
330
428
100
AcDbEntity
  8
001
370
    50
100
AcDbVertex
100
AcDb2dVertex
 10
131.121454
 20
39.028265
 30
0.0
  0
VERTEX
  5
42D
330
428
100
AcDbEntity
  8
001
370
    50
100
AcDbVertex
100
AcDb2dVertex
 10
130.622142
 20
38.989898
 30
0.0
  0
VERTEX
  5
42E
330
428
100
AcDbEntity
  8
001
370
    50
100
AcDbVertex
100
AcDb2dVertex
 10
130.163718
 20
38.95052
 30
0.0
  0
VERTEX
  5
42F
330
428
100
AcDbEntity
  8
001
370
    50
100
AcDbVertex
100
AcDb2dVertex
 10
129.707809
 20
38.90836
 30
0.0
  0
VERTEX
  5
430
330
428
100
AcDbEntity
  8
001
370
    50
100
AcDbVertex
100
AcDb2dVertex
 10
129.24172
 20
38.861893
 30
0.0
  0
VERTEX
  5
431
330
428
100
AcDbEntity
  8
001
370
    50
100
AcDbVertex
100
AcDb2dVertex
 10
128.813759
 20
38.815447
 30
0.0
  0
VERTEX
  5
432
330
428
100
AcDbEntity
  8
001
370
    50
100
AcDbVertex
100
AcDb2dVertex
 10
128.389696
 20
38.765676
 30
0.0
  0
VERTEX
  5
433
330
428
100
AcDbEntity
  8
001
370
    50
100
AcDbVertex
100
AcDb2dVertex
 10
128.016092
 20
38.718383
 30
0.0
  0
VERTEX
  5
434
330
428
100
AcDbEntity
  8
001
370
    50
100
AcDbVertex
100
AcDb2dVertex
 10
127.639284
 20
38.665441
 30
0.0
  0
VERTEX
  5
435
330
428
100
AcDbEntity
  8
001
370
    50
100
AcDbVertex
100
AcDb2dVertex
 10
127.323673
 20
38.616027
 30
0.0
  0
VERTEX
  5
436
330
428
100
AcDbEntity
  8
001
370
    50
100
AcDbVertex
100
AcDb2dVertex
 10
127.018349
 20
38.56491
 30
0.0
  0
VERTEX
  5
437
330
428
100
AcDbEntity
  8
001
370
    50
100
AcDbVertex
100
AcDb2dVertex
 10
126.795255
 20
38.524305
 30
0.0
  0
VERTEX
  5
438
330
428
100
AcDbEntity
  8
001
370
    50
100
AcDbVertex
100
AcDb2dVertex
 10
126.549949
 20
38.467817
 30
0.0
  0
VERTEX
  5
439
330
428
100
AcDbEntity
  8
001
370
    50
100
AcDbVertex
100
AcDb2dVertex
 10
126.37496
 20
38.418714
 30
0.0
  0
VERTEX
  5
43A
330
428
100
AcDbEntity
  8
001
370
    50
100
AcDbVertex
100
AcDb2dVertex
 10
126.251476
 20
38.377767
 30
0.0
  0
SEQEND
  5
429
330
428
100
AcDbEntity
  8
001
370
    50
  0
POLYLINE
  5
43B
330
1F
100
AcDbEntity
  8
001
370
    50
100
AcDb2dPolyline
 66
     1
 10
0.0
 20
0.0
 30
0.0
  0
VERTEX
  5
43D
330
43B
100
AcDbEntity
  8
001
370
    50
100
AcDbVertex
100
AcDb2dVertex
 10
121.948857
 20
41.738926
 30
0.0
  0
VERTEX
  5
43E
330
43B
100
AcDbEntity
  8
001
370
    50
100
AcDbVertex
100
AcDb2dVertex
 10
121.948715
 20
41.73995
 30
0.0
  0
VERTEX
  5
43F
330
43B
100
AcDbEntity
  8
001
370
    50
100
AcDbVertex
100
AcDb2dVertex
 10
121.94843
 20
41.741431
 30
0.0
  0
VERTEX
  5
440
330
43B
100
AcDbEntity
  8
001
370
    50
100
AcDbVertex
100
AcDb2dVertex
 10
121.948034
 20
41.742913
 30
0.0
  0
VERTEX
  5
441
330
43B
100
AcDbEntity
  8
001
370
    50
100
AcDbVertex
100
AcDb2dVertex
 10
121.947711
 20
41.743914
 30
0.0
  0
SEQEND
  5
43C
330
43B
100
AcDbEntity
  8
001
370
    50
  0
POLYLINE
  5
442
330
1F
100
AcDbEntity
  8
001
  6
DASHED
370
    50
100
AcDb2dPolyline
 66
     1
 10
0.0
 20
0.0
 30
0.0
  0
VERTEX
  5
444
330
442
100
AcDbEntity
  8
001
  6
DASHED
370
    50
100
AcDbVertex
100
AcDb2dVertex
 10
121.948933
 20
41.738117
 30
0.0
  0
VERTEX
  5
445
330
442
100
AcDbEntity
  8
001
  6
DASHED
370
    50
100
AcDbVertex
100
AcDb2dVertex
 10
121.94892
 20
41.738282
 30
0.0
  0
VERTEX
  5
446
330
442
100
AcDbEntity
  8
001
  6
DASHED
370
    50
100
AcDbVertex
100
AcDb2dVertex
 10
121.948899
 20
41.738522
 30
0.0
  0
VERTEX
  5
447
330
442
100
AcDbEntity
  8
001
  6
DASHED
370
    50
100
AcDbVertex
100
AcDb2dVertex
 10
121.948875
 20
41.738762
 30
0.0
  0
VERTEX
  5
448
330
442
100
AcDbEntity
  8
001
  6
DASHED
370
    50
100
AcDbVertex
100
AcDb2dVertex
 10
121.948857
 20
41.738926
 30
0.0
  0
SEQEND
  5
443
330
442
100
AcDbEntity
  8
001
  6
DASHED
370
    50
  0
POLYLINE
  5
449
330
1F
100
AcDbEntity
  8
001
370
    50
100
AcDb2dPolyline
 66
     1
 10
0.0
 20
0.0
 30
0.0
  0
VERTEX
  5
44B
330
449
100
AcDbEntity
  8
001
370
    50
100
AcDbVertex
100
AcDb2dVertex
 10
123.093709
 20
38.147782
 30
0.0
  0
VERTEX
  5
44C
330
449
100
AcDbEntity
  8
001
370
    50
100
AcDbVertex
100
AcDb2dVertex
 10
122.964513
 20
38.1696
 30
0.0
  0
VERTEX
  5
44D
330
449
100
AcDbEntity
  8
001
370
    50
100
AcDbVertex
100
AcDb2dVertex
 10
122.782897
 20
38.191946
 30
0.0
  0
VERTEX
  5
44E
330
449
100
AcDbEntity
  8
001
370
    50
100
AcDbVertex
100
AcDb2dVertex
 10
122.532205
 20
38.211126
 30
0.0
  0
VERTEX
  5
44F
330
449
100
AcDbEntity
  8
001
370
    50
100
AcDbVertex
100
AcDb2dVertex
 10
122.30575
 20
38.218188
 30
0.0
  0
VERTEX
  5
450
330
449
100
AcDbEntity
  8
001
370
    50
100
AcDbVertex
100
AcDb2dVertex
 10
121.997657
 20
38.223462
 30
0.0
  0
VERTEX
  5
451
330
449
100
AcDbEntity
  8
001
370
    50
100
AcDbVertex
100
AcDb2dVertex
 10
121.679729
 20
38.225549
 30
0.0
  0
VERTEX
  5
452
330
449
100
AcDbEntity
  8
001
370
    50
100
AcDbVertex
100
AcDb2dVertex
 10
121.301756
 20
38.222163
 30
0.0
  0
VERTEX
  5
453
330
449
100
AcDbEntity
  8
001
370
    50
100
AcDbVertex
100
AcDb2dVertex
 10
120.927745
 20
38.213758
 30
0.0
  0
VERTEX
  5
454
330
449
100
AcDbEntity
  8
001
370
    50
100
AcDbVertex
100
AcDb2dVertex
 10
120.504199
 20
38.200411
 30
0.0
  0
VERTEX
  5
455
330
449
100
AcDbEntity
  8
001
370
    50
100
AcDbVertex
100
AcDb2dVertex
 10
120.077319
 20
38.183248
 30
0.0
  0
VERTEX
  5
456
330
449
100
AcDbEntity
  8
001
370
    50
100
AcDbVertex
100
AcDb2dVertex
 10
119.613139
 20
38.160549
 30
0.0
  0
VERTEX
  5
457
330
449
100
AcDbEntity
  8
001
370
    50
100
AcDbVertex
100
AcDb2dVertex
 10
119.159573
 20
38.135135
 30
0.0
  0
VERTEX
  5
458
330
449
100
AcDbEntity
  8
001
370
    50
100
AcDbVertex
100
AcDb2dVertex
 10
118.70382
 20
38.106633
 30
0.0
  0
VERTEX
  5
459
330
449
100
AcDbEntity
  8
001
370
    50
100
AcDbVertex
100
AcDb2dVertex
 10
118.208094
 20
38.07118
 30
0.0
  0
VERTEX
  5
45A
330
449
100
AcDbEntity
  8
001
370
    50
100
AcDbVertex
100
AcDb2dVertex
 10
117.657503
 20
38.027476
 30
0.0
  0
VERTEX
  5
45B
330
449
100
AcDbEntity
  8
001
370
    50
100
AcDbVertex
100
AcDb2dVertex
 10
117.257705
 20
37.993723
 30
0.0
  0
SEQEND
  5
44A
330
449
100
AcDbEntity
  8
001
370
    50
  0
LINE
  5
45C
330
1F
100
AcDbEntity
  8
001
370
    50
100
AcDbLine
 10
117.948978
 20
41.737306
 30
0.0
 11
117.863916
 21
41.580378
 31
0.0
  0
POLYLINE
  5
45D
330
1F
100
AcDbEntity
  8
001
370
    50
100
AcDb2dPolyline
 66
     1
 10
0.0
 20
0.0
 30
0.0
  0
VERTEX
  5
45F
330
45D
100
AcDbEntity
  8
001
370
    50
100
AcDbVertex
100
AcDb2dVertex
 10
121.947711
 20
41.743914
 30
0.0
  0
VERTEX
  5
460
330
45D
100
AcDbEntity
  8
001
370
    50
100
AcDbVertex
100
AcDb2dVertex
 10
121.914163
 20
41.769991
 30
0.0
  0
VERTEX
  5
461
330
45D
100
AcDbEntity
  8
001
370
    50
100
AcDbVertex
100
AcDb2dVertex
 10
121.853821
 20
41.793831
 30
0.0
  0
VERTEX
  5
462
330
45D
100
AcDbEntity
  8
001
370
    50
100
AcDbVertex
100
AcDb2dVertex
 10
121.726888
 20
41.822557
 30
0.0
  0
VERTEX
  5
463
330
45D
100
AcDbEntity
  8
001
370
    50
100
AcDbVertex
100
AcDb2dVertex
 10
121.614555
 20
41.830599
 30
0.0
  0
VERTEX
  5
464
330
45D
100
AcDbEntity
  8
001
370
    50
100
AcDbVertex
100
AcDb2dVertex
 10
121.430821
 20
41.84165
 30
0.0
  0
VERTEX
  5
465
330
45D
100
AcDbEntity
  8
001
370
    50
100
AcDbVertex
100
AcDb2dVertex
 10
121.238844
 20
41.852847
 30
0.0
  0
VERTEX
  5
466
330
45D
100
AcDbEntity
  8
001
370
    50
100
AcDbVertex
100
AcDb2dVertex
 10
120.988087
 20
41.859623
 30
0.0
  0
VERTEX
  5
467
330
45D
100
AcDbEntity
  8
001
370
    50
100
AcDbVertex
100
AcDb2dVertex
 10
120.740716
 20
41.859742
 30
0.0
  0
VERTEX
  5
468
330
45D
100
AcDbEntity
  8
001
370
    50
100
AcDbVertex
100
AcDb2dVertex
 10
120.441052
 20
41.856817
 30
0.0
  0
VERTEX
  5
469
330
45D
100
AcDbEntity
  8
001
370
    50
100
AcDbVertex
100
AcDb2dVertex
 10
120.138769
 20
41.851029
 30
0.0
  0
VERTEX
  5
46A
330
45D
100
AcDbEntity
  8
001
370
    50
100
AcDbVertex
100
AcDb2dVertex
 10
119.793301
 20
41.840465
 30
0.0
  0
VERTEX
  5
46B
330
45D
100
AcDbEntity
  8
001
370
    50
100
AcDbVertex
100
AcDb2dVertex
 10
119.455476
 20
41.827032
 30
0.0
  0
VERTEX
  5
46C
330
45D
100
AcDbEntity
  8
001
370
    50
100
AcDbVertex
100
AcDb2dVertex
 10
119.1011
 20
41.810374
 30
0.0
  0
VERTEX
  5
46D
330
45D
100
AcDbEntity
  8
001
370
    50
100
AcDbVertex
100
AcDb2dVertex
 10
118.716347
 20
41.788646
 30
0.0
  0
VERTEX
  5
46E
330
45D
100
AcDbEntity
  8
001
370
    50
100
AcDbVertex
100
AcDb2dVertex
 10
118.272044
 20
41.759889
 30
0.0
  0
VERTEX
  5
46F
330
45D
100
AcDbEntity
  8
001
370
    50
100
AcDbVertex
100
AcDb2dVertex
 10
117.948978
 20
41.737306
 30
0.0
  0
SEQEND
  5
45E
330
45D
100
AcDbEntity
  8
001
370
    50
  0
LINE
  5
470
330
1F
100
AcDbEntity
  8
001
370
    50
100
AcDbLine
 10
122.000485
 20
41.580378
 30
0.0
 11
121.948978
 21
41.737306
 31
0.0
  0
POLYLINE
  5
471
330
1F
100
AcDbEntity
  8
001
370
    50
100
AcDb2dPolyline
 66
     1
 10
0.0
 20
0.0
 30
0.0
  0
VERTEX
  5
473
330
471
100
AcDbEntity
  8
001
370
    50
100
AcDbVertex
100
AcDb2dVertex
 10
117.863916
 20
41.580378
 30
0.0
  0
VERTEX
  5
474
330
471
100
AcDbEntity
  8
001
370
    50
100
AcDbVertex
100
AcDb2dVertex
 10
117.78184
 20
41.134958
 30
0.0
  0
VERTEX
  5
475
330
471
100
AcDbEntity
  8
001
370
    50
100
AcDbVertex
100
AcDb2dVertex
 10
117.701288
 20
40.689266
 30
0.0
  0
VERTEX
  5
476
330
471
100
AcDbEntity
  8
001
370
    50
100
AcDbVertex
100
AcDb2dVertex
 10
117.623161
 20
40.241746
 30
0.0
  0
VERTEX
  5
477
330
471
100
AcDbEntity
  8
001
370
    50
100
AcDbVertex
100
AcDb2dVertex
 10
117.547277
 20
39.793834
 30
0.0
  0
VERTEX
  5
478
330
471
100
AcDbEntity
  8
001
370
    50
100
AcDbVertex
100
AcDb2dVertex
 10
117.472788
 20
39.34454
 30
0.0
  0
VERTEX
  5
479
330
471
100
AcDbEntity
  8
001
370
    50
100
AcDbVertex
100
AcDb2dVertex
 10
117.399865
 20
38.894992
 30
0.0
  0
VERTEX
  5
47A
330
471
100
AcDbEntity
  8
001
370
    50
100
AcDbVertex
100
AcDb2dVertex
 10
117.328358
 20
38.444426
 30
0.0
  0
VERTEX
  5
47B
330
471
100
AcDbEntity
  8
001
370
    50
100
AcDbVertex
100
AcDb2dVertex
 10
117.257705
 20
37.993723
 30
0.0
  0
SEQEND
  5
472
330
471
100
AcDbEntity
  8
001
370
    50
  0
POLYLINE
  5
47C
330
1F
100
AcDbEntity
  8
001
370
    50
100
AcDb2dPolyline
 66
     1
 10
0.0
 20
0.0
 30
0.0
  0
VERTEX
  5
47E
330
47C
100
AcDbEntity
  8
001
370
    50
100
AcDbVertex
100
AcDb2dVertex
 10
121.875065
 20
42.731828
 30
0.0
  0
VERTEX
  5
47F
330
47C
100
AcDbEntity
  8
001
370
    50
100
AcDbVertex
100
AcDb2dVertex
 10
121.875058
 20
42.731993
 30
0.0
  0
VERTEX
  5
480
330
47C
100
AcDbEntity
  8
001
370
    50
100
AcDbVertex
100
AcDb2dVertex
 10
121.875046
 20
42.732234
 30
0.0
  0
VERTEX
  5
481
330
47C
100
AcDbEntity
  8
001
370
    50
100
AcDbVertex
100
AcDb2dVertex
 10
121.875031
 20
42.732475
 30
0.0
  0
VERTEX
  5
482
330
47C
100
AcDbEntity
  8
001
370
    50
100
AcDbVertex
100
AcDb2dVertex
 10
121.87502
 20
42.732639
 30
0.0
  0
SEQEND
  5
47D
330
47C
100
AcDbEntity
  8
001
370
    50
  0
POLYLINE
  5
483
330
1F
100
AcDbEntity
  8
001
  6
DASHED
370
    50
100
AcDb2dPolyline
 66
     1
 10
0.0
 20
0.0
 30
0.0
  0
VERTEX
  5
485
330
483
100
AcDbEntity
  8
001
  6
DASHED
370
    50
100
AcDbVertex
100
AcDb2dVertex
 10
121.948978
 20
41.737306
 30
0.0
  0
VERTEX
  5
486
330
483
100
AcDbEntity
  8
001
  6
DASHED
370
    50
100
AcDbVertex
100
AcDb2dVertex
 10
121.948971
 20
41.737471
 30
0.0
  0
VERTEX
  5
487
330
483
100
AcDbEntity
  8
001
  6
DASHED
370
    50
100
AcDbVertex
100
AcDb2dVertex
 10
121.948959
 20
41.737712
 30
0.0
  0
VERTEX
  5
488
330
483
100
AcDbEntity
  8
001
  6
DASHED
370
    50
100
AcDbVertex
100
AcDb2dVertex
 10
121.948944
 20
41.737953
 30
0.0
  0
VERTEX
  5
489
330
483
100
AcDbEntity
  8
001
  6
DASHED
370
    50
100
AcDbVertex
100
AcDb2dVertex
 10
121.948933
 20
41.738117
 30
0.0
  0
SEQEND
  5
484
330
483
100
AcDbEntity
  8
001
  6
DASHED
370
    50
  0
LINE
  5
48A
330
1F
100
AcDbEntity
  8
001
  6
DASHED
370
    50
100
AcDbLine
 10
121.875065
 20
42.731828
 30
0.0
 11
121.87502
 21
42.732639
 31
0.0
  0
POLYLINE
  5
48B
330
1F
100
AcDbEntity
  8
001
370
    50
100
AcDb2dPolyline
 66
     1
 10
0.0
 20
0.0
 30
0.0
  0
VERTEX
  5
48D
330
48B
100
AcDbEntity
  8
001
370
    50
100
AcDbVertex
100
AcDb2dVertex
 10
121.719588
 20
43.19923
 30
0.0
  0
VERTEX
  5
48E
330
48B
100
AcDbEntity
  8
001
370
    50
100
AcDbVertex
100
AcDb2dVertex
 10
121.719592
 20
43.199122
 30
0.0
  0
VERTEX
  5
48F
330
48B
100
AcDbEntity
  8
001
370
    50
100
AcDbVertex
100
AcDb2dVertex
 10
121.7196
 20
43.198966
 30
0.0
  0
VERTEX
  5
490
330
48B
100
AcDbEntity
  8
001
370
    50
100
AcDbVertex
100
AcDb2dVertex
 10
121.71961
 20
43.19881
 30
0.0
  0
VERTEX
  5
491
330
48B
100
AcDbEntity
  8
001
370
    50
100
AcDbVertex
100
AcDb2dVertex
 10
121.719617
 20
43.198703
 30
0.0
  0
SEQEND
  5
48C
330
48B
100
AcDbEntity
  8
001
370
    50
  0
POLYLINE
  5
492
330
1F
100
AcDbEntity
  8
001
370
    50
100
AcDb2dPolyline
 66
     1
 10
0.0
 20
0.0
 30
0.0
  0
VERTEX
  5
494
330
492
100
AcDbEntity
  8
001
370
    50
100
AcDbVertex
100
AcDb2dVertex
 10
121.719617
 20
43.198703
 30
0.0
  0
VERTEX
  5
495
330
492
100
AcDbEntity
  8
001
370
    50
100
AcDbVertex
100
AcDb2dVertex
 10
121.733429
 20
43.183677
 30
0.0
  0
VERTEX
  5
496
330
492
100
AcDbEntity
  8
001
370
    50
100
AcDbVertex
100
AcDb2dVertex
 10
121.761482
 20
43.168351
 30
0.0
  0
VERTEX
  5
497
330
492
100
AcDbEntity
  8
001
370
    50
100
AcDbVertex
100
AcDb2dVertex
 10
121.824272
 20
43.149414
 30
0.0
  0
VERTEX
  5
498
330
492
100
AcDbEntity
  8
001
370
    50
100
AcDbVertex
100
AcDb2dVertex
 10
121.880856
 20
43.144777
 30
0.0
  0
VERTEX
  5
499
330
492
100
AcDbEntity
  8
001
370
    50
100
AcDbVertex
100
AcDb2dVertex
 10
121.975501
 20
43.137297
 30
0.0
  0
VERTEX
  5
49A
330
492
100
AcDbEntity
  8
001
370
    50
100
AcDbVertex
100
AcDb2dVertex
 10
122.074115
 20
43.128697
 30
0.0
  0
VERTEX
  5
49B
330
492
100
AcDbEntity
  8
001
370
    50
100
AcDbVertex
100
AcDb2dVertex
 10
122.205464
 20
43.122433
 30
0.0
  0
VERTEX
  5
49C
330
492
100
AcDbEntity
  8
001
370
    50
100
AcDbVertex
100
AcDb2dVertex
 10
122.335384
 20
43.120599
 30
0.0
  0
VERTEX
  5
49D
330
492
100
AcDbEntity
  8
001
370
    50
100
AcDbVertex
100
AcDb2dVertex
 10
122.495783
 20
43.119962
 30
0.0
  0
VERTEX
  5
49E
330
492
100
AcDbEntity
  8
001
370
    50
100
AcDbVertex
100
AcDb2dVertex
 10
122.656726
 20
43.120729
 30
0.0
  0
VERTEX
  5
49F
330
492
100
AcDbEntity
  8
001
370
    50
100
AcDbVertex
100
AcDb2dVertex
 10
122.842661
 20
43.1239
 30
0.0
  0
VERTEX
  5
4A0
330
492
100
AcDbEntity
  8
001
370
    50
100
AcDbVertex
100
AcDb2dVertex
 10
123.028377
 20
43.129084
 30
0.0
  0
VERTEX
  5
4A1
330
492
100
AcDbEntity
  8
001
370
    50
100
AcDbVertex
100
AcDb2dVertex
 10
123.233714
 20
43.136472
 30
0.0
  0
VERTEX
  5
4A2
330
492
100
AcDbEntity
  8
001
370
    50
100
AcDbVertex
100
AcDb2dVertex
 10
123.439044
 20
43.145408
 30
0.0
  0
VERTEX
  5
4A3
330
492
100
AcDbEntity
  8
001
370
    50
100
AcDbVertex
100
AcDb2dVertex
 10
123.657696
 20
43.156541
 30
0.0
  0
VERTEX
  5
4A4
330
492
100
AcDbEntity
  8
001
370
    50
100
AcDbVertex
100
AcDb2dVertex
 10
123.876249
 20
43.169208
 30
0.0
  0
VERTEX
  5
4A5
330
492
100
AcDbEntity
  8
001
370
    50
100
AcDbVertex
100
AcDb2dVertex
 10
124.101526
 20
43.183751
 30
0.0
  0
VERTEX
  5
4A6
330
492
100
AcDbEntity
  8
001
370
    50
100
AcDbVertex
100
AcDb2dVertex
 10
124.326709
 20
43.199758
 30
0.0
  0
VERTEX
  5
4A7
330
492
100
AcDbEntity
  8
001
370
    50
100
AcDbVertex
100
AcDb2dVertex
 10
124.551785
 20
43.217214
 30
0.0
  0
VERTEX
  5
4A8
330
492
100
AcDbEntity
  8
001
370
    50
100
AcDbVertex
100
AcDb2dVertex
 10
124.776736
 20
43.236132
 30
0.0
  0
VERTEX
  5
4A9
330
492
100
AcDbEntity
  8
001
370
    50
100
AcDbVertex
100
AcDb2dVertex
 10
124.994761
 20
43.255911
 30
0.0
  0
VERTEX
  5
4AA
330
492
100
AcDbEntity
  8
001
370
    50
100
AcDbVertex
100
AcDb2dVertex
 10
125.212657
 20
43.277223
 30
0.0
  0
VERTEX
  5
4AB
330
492
100
AcDbEntity
  8
001
370
    50
100
AcDbVertex
100
AcDb2dVertex
 10
125.417051
 20
43.298738
 30
0.0
  0
VERTEX
  5
4AC
330
492
100
AcDbEntity
  8
001
370
    50
100
AcDbVertex
100
AcDb2dVertex
 10
125.621226
 20
43.321784
 30
0.0
  0
VERTEX
  5
4AD
330
492
100
AcDbEntity
  8
001
370
    50
100
AcDbVertex
100
AcDb2dVertex
 10
125.805667
 20
43.34411
 30
0.0
  0
VERTEX
  5
4AE
330
492
100
AcDbEntity
  8
001
370
    50
100
AcDbVertex
100
AcDb2dVertex
 10
125.990028
 20
43.36846
 30
0.0
  0
VERTEX
  5
4AF
330
492
100
AcDbEntity
  8
001
370
    50
100
AcDbVertex
100
AcDb2dVertex
 10
126.149316
 20
43.391493
 30
0.0
  0
VERTEX
  5
4B0
330
492
100
AcDbEntity
  8
001
370
    50
100
AcDbVertex
100
AcDb2dVertex
 10
126.307859
 20
43.415833
 30
0.0
  0
VERTEX
  5
4B1
330
492
100
AcDbEntity
  8
001
370
    50
100
AcDbVertex
100
AcDb2dVertex
 10
126.43608
 20
43.436852
 30
0.0
  0
VERTEX
  5
4B2
330
492
100
AcDbEntity
  8
001
370
    50
100
AcDbVertex
100
AcDb2dVertex
 10
126.565061
 20
43.462464
 30
0.0
  0
VERTEX
  5
4B3
330
492
100
AcDbEntity
  8
001
370
    50
100
AcDbVertex
100
AcDb2dVertex
 10
126.66132
 20
43.485546
 30
0.0
  0
VERTEX
  5
4B4
330
492
100
AcDbEntity
  8
001
370
    50
100
AcDbVertex
100
AcDb2dVertex
 10
126.753819
 20
43.506936
 30
0.0
  0
VERTEX
  5
4B5
330
492
100
AcDbEntity
  8
001
370
    50
100
AcDbVertex
100
AcDb2dVertex
 10
126.809096
 20
43.519886
 30
0.0
  0
VERTEX
  5
4B6
330
492
100
AcDbEntity
  8
001
370
    50
100
AcDbVertex
100
AcDb2dVertex
 10
126.868397
 20
43.547897
 30
0.0
  0
VERTEX
  5
4B7
330
492
100
AcDbEntity
  8
001
370
    50
100
AcDbVertex
100
AcDb2dVertex
 10
126.893877
 20
43.567201
 30
0.0
  0
VERTEX
  5
4B8
330
492
100
AcDbEntity
  8
001
370
    50
100
AcDbVertex
100
AcDb2dVertex
 10
126.905315
 20
43.584103
 30
0.0
  0
SEQEND
  5
493
330
492
100
AcDbEntity
  8
001
370
    50
  0
POLYLINE
  5
4B9
330
1F
100
AcDbEntity
  8
001
  6
DASHED
370
    50
100
AcDb2dPolyline
 66
     1
 10
0.0
 20
0.0
 30
0.0
  0
VERTEX
  5
4BB
330
4B9
100
AcDbEntity
  8
001
  6
DASHED
370
    50
100
AcDbVertex
100
AcDb2dVertex
 10
127.25717
 20
38.849652
 30
0.0
  0
VERTEX
  5
4BC
330
4B9
100
AcDbEntity
  8
001
  6
DASHED
370
    50
100
AcDbVertex
100
AcDb2dVertex
 10
127.257165
 20
38.849759
 30
0.0
  0
VERTEX
  5
4BD
330
4B9
100
AcDbEntity
  8
001
  6
DASHED
370
    50
100
AcDbVertex
100
AcDb2dVertex
 10
127.257157
 20
38.849916
 30
0.0
  0
VERTEX
  5
4BE
330
4B9
100
AcDbEntity
  8
001
  6
DASHED
370
    50
100
AcDbVertex
100
AcDb2dVertex
 10
127.257148
 20
38.850072
 30
0.0
  0
VERTEX
  5
4BF
330
4B9
100
AcDbEntity
  8
001
  6
DASHED
370
    50
100
AcDbVertex
100
AcDb2dVertex
 10
127.25714
 20
38.850179
 30
0.0
  0
SEQEND
  5
4BA
330
4B9
100
AcDbEntity
  8
001
  6
DASHED
370
    50
  0
LINE
  5
4C0
330
1F
100
AcDbEntity
  8
001
370
    50
100
AcDbLine
 10
130.944813
 20
42.549879
 30
0.0
 11
130.859548
 21
43.697148
 31
0.0
  0
LINE
  5
4C1
330
1F
100
AcDbEntity
  8
001
370
    50
100
AcDbLine
 10
117.863916
 20
41.580378
 30
0.0
 11
117.778651
 21
42.727647
 31
0.0
  0
LINE
  5
4C2
330
1F
100
AcDbEntity
  8
001
370
    50
100
AcDbLine
 10
132.079364
 20
39.092242
 30
0.0
 11
133.057363
 21
39.237612
 31
0.0
  0
LINE
  5
4C3
330
1F
100
AcDbEntity
  8
001
370
    50
100
AcDbLine
 10
116.274318
 20
37.993723
 30
0.0
 11
117.257705
 21
37.993723
 31
0.0
  0
POLYLINE
  5
4C4
330
1F
100
AcDbEntity
  8
001
370
    50
100
AcDb2dPolyline
 66
     1
 10
0.0
 20
0.0
 30
0.0
  0
VERTEX
  5
4C6
330
4C4
100
AcDbEntity
  8
001
370
    50
100
AcDbVertex
100
AcDb2dVertex
 10
132.937653
 20
44.030828
 30
0.0
  0
VERTEX
  5
4C7
330
4C4
100
AcDbEntity
  8
001
370
    50
100
AcDbVertex
100
AcDb2dVertex
 10
132.932346
 20
44.036075
 30
0.0
  0
VERTEX
  5
4C8
330
4C4
100
AcDbEntity
  8
001
370
    50
100
AcDbVertex
100
AcDb2dVertex
 10
132.921578
 20
44.041161
 30
0.0
  0
VERTEX
  5
4C9
330
4C4
100
AcDbEntity
  8
001
370
    50
100
AcDbVertex
100
AcDb2dVertex
 10
132.897025
 20
44.047499
 30
0.0
  0
VERTEX
  5
4CA
330
4C4
100
AcDbEntity
  8
001
370
    50
100
AcDbVertex
100
AcDb2dVertex
 10
132.875671
 20
44.048837
 30
0.0
  0
VERTEX
  5
4CB
330
4C4
100
AcDbEntity
  8
001
370
    50
100
AcDbVertex
100
AcDb2dVertex
 10
132.840779
 20
44.051019
 30
0.0
  0
VERTEX
  5
4CC
330
4C4
100
AcDbEntity
  8
001
370
    50
100
AcDbVertex
100
AcDb2dVertex
 10
132.801684
 20
44.053563
 30
0.0
  0
VERTEX
  5
4CD
330
4C4
100
AcDbEntity
  8
001
370
    50
100
AcDbVertex
100
AcDb2dVertex
 10
132.744218
 20
44.055042
 30
0.0
  0
VERTEX
  5
4CE
330
4C4
100
AcDbEntity
  8
001
370
    50
100
AcDbVertex
100
AcDb2dVertex
 10
132.70244
 20
44.055159
 30
0.0
  0
SEQEND
  5
4C5
330
4C4
100
AcDbEntity
  8
001
370
    50
  0
LINE
  5
4CF
330
1F
100
AcDbEntity
  8
001
370
    50
100
AcDbLine
 10
133.289478
 20
39.296904
 30
0.0
 11
132.937653
 21
44.030828
 31
0.0
  0
POLYLINE
  5
4D0
330
1F
100
AcDbEntity
  8
001
370
    50
100
AcDb2dPolyline
 66
     1
 10
0.0
 20
0.0
 30
0.0
  0
VERTEX
  5
4D2
330
4D0
100
AcDbEntity
  8
001
370
    50
100
AcDbVertex
100
AcDb2dVertex
 10
133.057363
 20
39.237612
 30
0.0
  0
VERTEX
  5
4D3
330
4D0
100
AcDbEntity
  8
001
370
    50
100
AcDbVertex
100
AcDb2dVertex
 10
133.099199
 20
39.243949
 30
0.0
  0
VERTEX
  5
4D4
330
4D0
100
AcDbEntity
  8
001
370
    50
100
AcDbVertex
100
AcDb2dVertex
 10
133.156552
 20
39.253982
 30
0.0
  0
VERTEX
  5
4D5
330
4D0
100
AcDbEntity
  8
001
370
    50
100
AcDbVertex
100
AcDb2dVertex
 10
133.195367
 20
39.262345
 30
0.0
  0
VERTEX
  5
4D6
330
4D0
100
AcDbEntity
  8
001
370
    50
100
AcDbVertex
100
AcDb2dVertex
 10
133.230011
 20
39.269719
 30
0.0
  0
VERTEX
  5
4D7
330
4D0
100
AcDbEntity
  8
001
370
    50
100
AcDbVertex
100
AcDb2dVertex
 10
133.251209
 20
39.274233
 30
0.0
  0
VERTEX
  5
4D8
330
4D0
100
AcDbEntity
  8
001
370
    50
100
AcDbVertex
100
AcDb2dVertex
 10
133.274899
 20
39.284213
 30
0.0
  0
VERTEX
  5
4D9
330
4D0
100
AcDbEntity
  8
001
370
    50
100
AcDbVertex
100
AcDb2dVertex
 10
133.284939
 20
39.290879
 30
0.0
  0
VERTEX
  5
4DA
330
4D0
100
AcDbEntity
  8
001
370
    50
100
AcDbVertex
100
AcDb2dVertex
 10
133.289478
 20
39.296904
 30
0.0
  0
SEQEND
  5
4D1
330
4D0
100
AcDbEntity
  8
001
370
    50
  0
POLYLINE
  5
4DB
330
1F
100
AcDbEntity
  8
001
370
    50
100
AcDb2dPolyline
 66
     1
 10
0.0
 20
0.0
 30
0.0
  0
VERTEX
  5
4DD
330
4DB
100
AcDbEntity
  8
001
370
    50
100
AcDbVertex
100
AcDb2dVertex
 10
116.039105
 20
38.018053
 30
0.0
  0
VERTEX
  5
4DE
330
4DB
100
AcDbEntity
  8
001
370
    50
100
AcDbVertex
100
AcDb2dVertex
 10
116.044411
 20
38.012807
 30
0.0
  0
VERTEX
  5
4DF
330
4DB
100
AcDbEntity
  8
001
370
    50
100
AcDbVertex
100
AcDb2dVertex
 10
116.055179
 20
38.00772
 30
0.0
  0
VERTEX
  5
4E0
330
4DB
100
AcDbEntity
  8
001
370
    50
100
AcDbVertex
100
AcDb2dVertex
 10
116.079732
 20
38.001382
 30
0.0
  0
VERTEX
  5
4E1
330
4DB
100
AcDbEntity
  8
001
370
    50
100
AcDbVertex
100
AcDb2dVertex
 10
116.101087
 20
38.000044
 30
0.0
  0
VERTEX
  5
4E2
330
4DB
100
AcDbEntity
  8
001
370
    50
100
AcDbVertex
100
AcDb2dVertex
 10
116.135978
 20
37.997862
 30
0.0
  0
VERTEX
  5
4E3
330
4DB
100
AcDbEntity
  8
001
370
    50
100
AcDbVertex
100
AcDb2dVertex
 10
116.175074
 20
37.995319
 30
0.0
  0
VERTEX
  5
4E4
330
4DB
100
AcDbEntity
  8
001
370
    50
100
AcDbVertex
100
AcDb2dVertex
 10
116.232539
 20
37.993839
 30
0.0
  0
VERTEX
  5
4E5
330
4DB
100
AcDbEntity
  8
001
370
    50
100
AcDbVertex
100
AcDb2dVertex
 10
116.274318
 20
37.993723
 30
0.0
  0
SEQEND
  5
4DC
330
4DB
100
AcDbEntity
  8
001
370
    50
  0
POLYLINE
  5
4E6
330
1F
100
AcDbEntity
  8
001
370
    50
100
AcDb2dPolyline
 66
     1
 10
0.0
 20
0.0
 30
0.0
  0
VERTEX
  5
4E8
330
4E6
100
AcDbEntity
  8
001
370
    50
100
AcDbVertex
100
AcDb2dVertex
 10
115.68728
 20
42.751978
 30
0.0
  0
VERTEX
  5
4E9
330
4E6
100
AcDbEntity
  8
001
370
    50
100
AcDbVertex
100
AcDb2dVertex
 10
115.692586
 20
42.746731
 30
0.0
  0
VERTEX
  5
4EA
330
4E6
100
AcDbEntity
  8
001
370
    50
100
AcDbVertex
100
AcDb2dVertex
 10
115.703355
 20
42.741645
 30
0.0
  0
VERTEX
  5
4EB
330
4E6
100
AcDbEntity
  8
001
370
    50
100
AcDbVertex
100
AcDb2dVertex
 10
115.727907
 20
42.735306
 30
0.0
  0
VERTEX
  5
4EC
330
4E6
100
AcDbEntity
  8
001
370
    50
100
AcDbVertex
100
AcDb2dVertex
 10
115.749262
 20
42.733969
 30
0.0
  0
VERTEX
  5
4ED
330
4E6
100
AcDbEntity
  8
001
370
    50
100
AcDbVertex
100
AcDb2dVertex
 10
115.784153
 20
42.731787
 30
0.0
  0
VERTEX
  5
4EE
330
4E6
100
AcDbEntity
  8
001
370
    50
100
AcDbVertex
100
AcDb2dVertex
 10
115.823249
 20
42.729243
 30
0.0
  0
VERTEX
  5
4EF
330
4E6
100
AcDbEntity
  8
001
370
    50
100
AcDbVertex
100
AcDb2dVertex
 10
115.880714
 20
42.727764
 30
0.0
  0
VERTEX
  5
4F0
330
4E6
100
AcDbEntity
  8
001
370
    50
100
AcDbVertex
100
AcDb2dVertex
 10
115.922493
 20
42.727647
 30
0.0
  0
SEQEND
  5
4E7
330
4E6
100
AcDbEntity
  8
001
370
    50
  0
LINE
  5
4F1
330
1F
100
AcDbEntity
  8
001
370
    50
100
AcDbLine
 10
115.68728
 20
42.751977
 30
0.0
 11
116.039105
 21
38.018053
 31
0.0
  0
POLYLINE
  5
4F2
330
1F
100
AcDbEntity
  8
001
370
    50
100
AcDb2dPolyline
 66
     1
 10
0.0
 20
0.0
 30
0.0
  0
VERTEX
  5
4F4
330
4F2
100
AcDbEntity
  8
001
370
    50
100
AcDbVertex
100
AcDb2dVertex
 10
126.749868
 20
44.050977
 30
0.0
  0
VERTEX
  5
4F5
330
4F2
100
AcDbEntity
  8
001
370
    50
100
AcDbVertex
100
AcDb2dVertex
 10
126.749874
 20
44.050813
 30
0.0
  0
VERTEX
  5
4F6
330
4F2
100
AcDbEntity
  8
001
370
    50
100
AcDbVertex
100
AcDb2dVertex
 10
126.749886
 20
44.050572
 30
0.0
  0
VERTEX
  5
4F7
330
4F2
100
AcDbEntity
  8
001
370
    50
100
AcDbVertex
100
AcDb2dVertex
 10
126.749901
 20
44.050331
 30
0.0
  0
VERTEX
  5
4F8
330
4F2
100
AcDbEntity
  8
001
370
    50
100
AcDbVertex
100
AcDb2dVertex
 10
126.749913
 20
44.050167
 30
0.0
  0
SEQEND
  5
4F3
330
4F2
100
AcDbEntity
  8
001
370
    50
  0
POLYLINE
  5
4F9
330
1F
100
AcDbEntity
  8
001
  6
DASHED
370
    50
100
AcDb2dPolyline
 66
     1
 10
0.0
 20
0.0
 30
0.0
  0
VERTEX
  5
4FB
330
4F9
100
AcDbEntity
  8
001
  6
DASHED
370
    50
100
AcDbVertex
100
AcDb2dVertex
 10
126.82378
 20
43.056456
 30
0.0
  0
VERTEX
  5
4FC
330
4F9
100
AcDbEntity
  8
001
  6
DASHED
370
    50
100
AcDbVertex
100
AcDb2dVertex
 10
126.823787
 20
43.056291
 30
0.0
  0
VERTEX
  5
4FD
330
4F9
100
AcDbEntity
  8
001
  6
DASHED
370
    50
100
AcDbVertex
100
AcDb2dVertex
 10
126.823799
 20
43.05605
 30
0.0
  0
VERTEX
  5
4FE
330
4F9
100
AcDbEntity
  8
001
  6
DASHED
370
    50
100
AcDbVertex
100
AcDb2dVertex
 10
126.823814
 20
43.055809
 30
0.0
  0
VERTEX
  5
4FF
330
4F9
100
AcDbEntity
  8
001
  6
DASHED
370
    50
100
AcDbVertex
100
AcDb2dVertex
 10
126.823826
 20
43.055645
 30
0.0
  0
SEQEND
  5
4FA
330
4F9
100
AcDbEntity
  8
001
  6
DASHED
370
    50
  0
LINE
  5
500
330
1F
100
AcDbEntity
  8
001
370
    50
100
AcDbLine
 10
126.749988
 20
44.049358
 30
0.0
 11
126.749868
 21
44.050977
 31
0.0
  0
LINE
  5
501
330
1F
100
AcDbEntity
  8
001
370
    50
100
AcDbLine
 10
126.288178
 20
23.827647
 30
0.0
 11
126.288178
 21
38.270767
 31
0.0
  0
LINE
  5
502
330
1F
100
AcDbEntity
  8
001
370
    50
100
AcDbLine
 10
140.42258
 20
39.321234
 30
0.0
 11
126.288178
 21
38.270767
 31
0.0
  0
LINE
  5
503
330
1F
100
AcDbEntity
  8
001
370
    50
100
AcDbLine
 10
118.559236
 20
23.827647
 30
0.0
 11
117.504861
 21
38.014629
 31
0.0
  0
LINE
  5
504
330
1F
100
AcDbEntity
  8
001
370
    50
100
AcDbLine
 10
139.752747
 20
43.827647
 30
0.0
 11
140.42258
 21
39.321234
 31
0.0
  0
LINE
  5
505
330
1F
100
AcDbEntity
  8
001
370
    50
100
AcDbLine
 10
241.688178
 20
23.827647
 30
0.0
 11
241.688178
 21
43.827647
 31
0.0
  0
LINE
  5
506
330
1F
100
AcDbEntity
  8
001
370
    50
100
AcDbLine
 10
116.288178
 20
35.011209
 30
0.0
 11
117.11934
 21
23.827647
 31
0.0
  0
LINE
  5
507
330
1F
100
AcDbEntity
  8
001
370
    50
100
AcDbLine
 10
130.859548
 20
90.25091
 30
0.0
 11
133.057363
 21
92.448725
 31
0.0
  0
LINE
  5
508
330
1F
100
AcDbEntity
  8
001
370
    50
100
AcDbLine
 10
124.89965
 20
84.291012
 30
0.0
 11
126.830905
 21
86.222267
 31
0.0
  0
LINE
  5
509
330
1F
100
AcDbEntity
  8
001
370
    50
100
AcDbLine
 10
117.850649
 20
95.202523
 30
0.0
 11
115.919394
 21
93.271268
 31
0.0
  0
LINE
  5
50A
330
1F
100
AcDbEntity
  8
001
370
    50
100
AcDbLine
 10
124.077107
 20
101.428981
 30
0.0
 11
121.879292
 21
99.231166
 31
0.0
  0
POLYLINE
  5
50B
330
1F
100
AcDbEntity
  8
001
370
    50
100
AcDb2dPolyline
 66
     1
 10
0.0
 20
0.0
 30
0.0
  0
VERTEX
  5
50D
330
50B
100
AcDbEntity
  8
001
370
    50
100
AcDbVertex
100
AcDb2dVertex
 10
133.057363
 20
92.448725
 30
0.0
  0
VERTEX
  5
50E
330
50B
100
AcDbEntity
  8
001
370
    50
100
AcDbVertex
100
AcDb2dVertex
 10
133.101014
 20
92.497828
 30
0.0
  0
VERTEX
  5
50F
330
50B
100
AcDbEntity
  8
001
370
    50
100
AcDbVertex
100
AcDb2dVertex
 10
133.156249
 20
92.56935
 30
0.0
  0
VERTEX
  5
510
330
50B
100
AcDbEntity
  8
001
370
    50
100
AcDbVertex
100
AcDb2dVertex
 10
133.198666
 20
92.63876
 30
0.0
  0
VERTEX
  5
511
330
50B
100
AcDbEntity
  8
001
370
    50
100
AcDbVertex
100
AcDb2dVertex
 10
133.229596
 20
92.707078
 30
0.0
  0
VERTEX
  5
512
330
50B
100
AcDbEntity
  8
001
370
    50
100
AcDbVertex
100
AcDb2dVertex
 10
133.233064
 20
92.715972
 30
0.0
  0
VERTEX
  5
513
330
50B
100
AcDbEntity
  8
001
370
    50
100
AcDbVertex
100
AcDb2dVertex
 10
133.236468
 20
92.724961
 30
0.0
  0
SEQEND
  5
50C
330
50B
100
AcDbEntity
  8
001
370
    50
  0
POLYLINE
  5
514
330
1F
100
AcDbEntity
  8
001
370
    50
100
AcDb2dPolyline
 66
     1
 10
0.0
 20
0.0
 30
0.0
  0
VERTEX
  5
516
330
514
100
AcDbEntity
  8
001
370
    50
100
AcDbVertex
100
AcDb2dVertex
 10
126.825154
 20
99.136275
 30
0.0
  0
VERTEX
  5
517
330
514
100
AcDbEntity
  8
001
370
    50
100
AcDbVertex
100
AcDb2dVertex
 10
126.849173
 20
98.812227
 30
0.0
  0
VERTEX
  5
518
330
514
100
AcDbEntity
  8
001
370
    50
100
AcDbVertex
100
AcDb2dVertex
 10
126.902566
 20
98.416964
 30
0.0
  0
VERTEX
  5
519
330
514
100
AcDbEntity
  8
001
370
    50
100
AcDbVertex
100
AcDb2dVertex
 10
126.998836
 20
98.020196
 30
0.0
  0
VERTEX
  5
51A
330
514
100
AcDbEntity
  8
001
370
    50
100
AcDbVertex
100
AcDb2dVertex
 10
127.131621
 20
97.668023
 30
0.0
  0
VERTEX
  5
51B
330
514
100
AcDbEntity
  8
001
370
    50
100
AcDbVertex
100
AcDb2dVertex
 10
127.299909
 20
97.318116
 30
0.0
  0
VERTEX
  5
51C
330
514
100
AcDbEntity
  8
001
370
    50
100
AcDbVertex
100
AcDb2dVertex
 10
127.502142
 20
96.977358
 30
0.0
  0
VERTEX
  5
51D
330
514
100
AcDbEntity
  8
001
370
    50
100
AcDbVertex
100
AcDb2dVertex
 10
127.736552
 20
96.661081
 30
0.0
  0
VERTEX
  5
51E
330
514
100
AcDbEntity
  8
001
370
    50
100
AcDbVertex
100
AcDb2dVertex
 10
127.999891
 20
96.371509
 30
0.0
  0
VERTEX
  5
51F
330
514
100
AcDbEntity
  8
001
370
    50
100
AcDbVertex
100
AcDb2dVertex
 10
128.289463
 20
96.108169
 30
0.0
  0
VERTEX
  5
520
330
514
100
AcDbEntity
  8
001
370
    50
100
AcDbVertex
100
AcDb2dVertex
 10
128.60574
 20
95.87376
 30
0.0
  0
VERTEX
  5
521
330
514
100
AcDbEntity
  8
001
370
    50
100
AcDbVertex
100
AcDb2dVertex
 10
128.946498
 20
95.671527
 30
0.0
  0
VERTEX
  5
522
330
514
100
AcDbEntity
  8
001
370
    50
100
AcDbVertex
100
AcDb2dVertex
 10
129.296405
 20
95.503239
 30
0.0
  0
VERTEX
  5
523
330
514
100
AcDbEntity
  8
001
370
    50
100
AcDbVertex
100
AcDb2dVertex
 10
129.648578
 20
95.370454
 30
0.0
  0
VERTEX
  5
524
330
514
100
AcDbEntity
  8
001
370
    50
100
AcDbVertex
100
AcDb2dVertex
 10
130.045346
 20
95.274184
 30
0.0
  0
VERTEX
  5
525
330
514
100
AcDbEntity
  8
001
370
    50
100
AcDbVertex
100
AcDb2dVertex
 10
130.440609
 20
95.220791
 30
0.0
  0
VERTEX
  5
526
330
514
100
AcDbEntity
  8
001
370
    50
100
AcDbVertex
100
AcDb2dVertex
 10
130.764657
 20
95.196772
 30
0.0
  0
SEQEND
  5
515
330
514
100
AcDbEntity
  8
001
370
    50
  0
LINE
  5
527
330
1F
100
AcDbEntity
  8
001
370
    50
100
AcDbLine
 10
130.86319
 20
95.098239
 30
0.0
 11
130.846281
 21
95.081331
 31
0.0
  0
LINE
  5
528
330
1F
100
AcDbEntity
  8
001
370
    50
100
AcDbLine
 10
126.726621
 20
99.234808
 30
0.0
 11
126.709713
 21
99.217899
 31
0.0
  0
POLYLINE
  5
529
330
1F
100
AcDbEntity
  8
001
370
    50
100
AcDb2dPolyline
 66
     1
 10
0.0
 20
0.0
 30
0.0
  0
VERTEX
  5
52B
330
529
100
AcDbEntity
  8
001
370
    50
100
AcDbVertex
100
AcDb2dVertex
 10
124.734869
 20
101.655372
 30
0.0
  0
VERTEX
  5
52C
330
529
100
AcDbEntity
  8
001
370
    50
100
AcDbVertex
100
AcDb2dVertex
 10
124.687775
 20
101.65963
 30
0.0
  0
VERTEX
  5
52D
330
529
100
AcDbEntity
  8
001
370
    50
100
AcDbVertex
100
AcDb2dVertex
 10
124.640601
 20
101.661105
 30
0.0
  0
VERTEX
  5
52E
330
529
100
AcDbEntity
  8
001
370
    50
100
AcDbVertex
100
AcDb2dVertex
 10
124.562648
 20
101.657601
 30
0.0
  0
VERTEX
  5
52F
330
529
100
AcDbEntity
  8
001
370
    50
100
AcDbVertex
100
AcDb2dVertex
 10
124.484999
 20
101.646202
 30
0.0
  0
VERTEX
  5
530
330
529
100
AcDbEntity
  8
001
370
    50
100
AcDbVertex
100
AcDb2dVertex
 10
124.408479
 20
101.626771
 30
0.0
  0
VERTEX
  5
531
330
529
100
AcDbEntity
  8
001
370
    50
100
AcDbVertex
100
AcDb2dVertex
 10
124.33546
 20
101.601214
 30
0.0
  0
VERTEX
  5
532
330
529
100
AcDbEntity
  8
001
370
    50
100
AcDbVertex
100
AcDb2dVertex
 10
124.267142
 20
101.570284
 30
0.0
  0
VERTEX
  5
533
330
529
100
AcDbEntity
  8
001
370
    50
100
AcDbVertex
100
AcDb2dVertex
 10
124.197732
 20
101.527867
 30
0.0
  0
VERTEX
  5
534
330
529
100
AcDbEntity
  8
001
370
    50
100
AcDbVertex
100
AcDb2dVertex
 10
124.12621
 20
101.472632
 30
0.0
  0
VERTEX
  5
535
330
529
100
AcDbEntity
  8
001
370
    50
100
AcDbVertex
100
AcDb2dVertex
 10
124.077107
 20
101.428981
 30
0.0
  0
SEQEND
  5
52A
330
529
100
AcDbEntity
  8
001
370
    50
  0
LINE
  5
536
330
1F
100
AcDbEntity
  8
001
370
    50
100
AcDbLine
 10
118.334286
 20
95.25479
 30
0.0
 11
121.815471
 21
98.735974
 31
0.0
  0
LINE
  5
537
330
1F
100
AcDbEntity
  8
001
370
    50
100
AcDbLine
 10
126.81732
 20
86.208682
 30
0.0
 11
241.688178
 21
86.208682
 31
0.0
  0
LINE
  5
538
330
1F
100
AcDbEntity
  8
001
370
    50
100
AcDbLine
 10
140.42258
 20
39.321234
 30
0.0
 11
133.287669
 21
39.321234
 31
0.0
  0
LINE
  5
539
330
1F
100
AcDbEntity
  8
001
370
    50
100
AcDbLine
 10
241.688178
 20
43.827647
 30
0.0
 11
132.952753
 21
43.827647
 31
0.0
  0
LINE
  5
53A
330
1F
100
AcDbEntity
  8
001
370
    50
100
AcDbLine
 10
126.288178
 20
38.270767
 30
0.0
 11
126.23551
 21
38.262938
 31
0.0
  0
LINE
  5
53B
330
1F
100
AcDbEntity
  8
001
370
    50
100
AcDbLine
 10
125.61934
 20
23.827647
 30
0.0
 11
124.565322
 21
38.009815
 31
0.0
  0
LINE
  5
53C
330
1F
100
AcDbEntity
  8
001
370
    50
100
AcDbLine
 10
123.175507
 20
37.993723
 30
0.0
 11
124.228328
 21
23.827647
 31
0.0
  0
POLYLINE
  5
53D
330
1F
100
AcDbEntity
  8
001
370
    50
100
AcDb2dPolyline
 66
     1
 10
0.0
 20
0.0
 30
0.0
  0
VERTEX
  5
53F
330
53D
100
AcDbEntity
  8
001
370
    50
100
AcDbVertex
100
AcDb2dVertex
 10
122.861601
 20
38.183039
 30
0.0
  0
VERTEX
  5
540
330
53D
100
AcDbEntity
  8
001
370
    50
100
AcDbVertex
100
AcDb2dVertex
 10
122.85933
 20
38.183132
 30
0.0
  0
VERTEX
  5
541
330
53D
100
AcDbEntity
  8
001
370
    50
100
AcDbVertex
100
AcDb2dVertex
 10
122.857056
 20
38.183226
 30
0.0
  0
VERTEX
  5
542
330
53D
100
AcDbEntity
  8
001
370
    50
100
AcDbVertex
100
AcDb2dVertex
 10
122.642659
 20
38.197025
 30
0.0
  0
VERTEX
  5
543
330
53D
100
AcDbEntity
  8
001
370
    50
100
AcDbVertex
100
AcDb2dVertex
 10
122.418425
 20
38.213227
 30
0.0
  0
VERTEX
  5
544
330
53D
100
AcDbEntity
  8
001
370
    50
100
AcDbVertex
100
AcDb2dVertex
 10
122.37667
 20
38.215552
 30
0.0
  0
VERTEX
  5
545
330
53D
100
AcDbEntity
  8
001
370
    50
100
AcDbVertex
100
AcDb2dVertex
 10
122.335091
 20
38.217559
 30
0.0
  0
SEQEND
  5
53E
330
53D
100
AcDbEntity
  8
001
370
    50
  0
LINE
  5
546
330
1F
100
AcDbEntity
  8
001
370
    50
100
AcDbLine
 10
116.288178
 20
35.011209
 30
0.0
 11
116.288178
 21
37.993723
 31
0.0
  0
LINE
  5
547
330
1F
100
AcDbEntity
  8
001
370
    50
100
AcDbLine
 10
117.11934
 20
23.827647
 30
0.0
 11
241.688178
 21
23.827647
 31
0.0
  0
LINE
  5
548
330
1F
100
AcDbEntity
  8
001
370
     9
100
AcDbLine
 10
115.687268
 20
77.868266
 30
0.0
 11
115.687268
 21
92.710101
 31
0.0
  0
ARC
  5
549
330
1F
100
AcDbEntity
  8
001
370
    50
100
AcDbCircle
 10
117.875065
 20
86.246683
 30
0.0
 40
4.0
100
AcDbArc
 50
360.0
 51
90.0
  0
LINE
  5
54A
330
1F
100
AcDbEntity
  8
001
370
    50
100
AcDbLine
 10
121.87502
 20
42.732639
 30
0.0
 11
121.947711
 21
41.743914
 31
0.0
  0
LINE
  5
54B
330
1F
100
AcDbEntity
  8
001
370
    50
100
AcDbLine
 10
117.875065
 20
42.731828
 30
0.0
 11
117.948978
 21
41.737306
 31
0.0
  0
LINE
  5
54C
330
1F
100
AcDbEntity
  8
001
370
    50
100
AcDbLine
 10
126.785266
 20
43.095752
 30
0.0
 11
126.859576
 21
42.106333
 31
0.0
  0
LINE
  5
54D
330
1F
100
AcDbEntity
  8
001
370
    50
100
AcDbLine
 10
130.837267
 20
42.692532
 30
0.0
 11
130.763354
 21
43.687054
 31
0.0
  0
TEXT
  5
54E
330
1F
100
AcDbEntity
  8
001
370
    30
100
AcDbText
 10
98.916036
 20
129.802466
 30
0.0
 40
10.0
  1
Ｒバイト　２０ＸＲ　（１Ｒ～４Ｒ）
 41
0.833333
100
AcDbText
  0
LINE
  5
54F
330
1F
100
AcDbEntity
  8
001
370
     9
100
AcDbLine
 10
124.338482
 20
84.058885
 30
0.0
 11
102.455357
 21
84.058885
 31
0.0
  0
LINE
  5
550
330
1F
100
AcDbEntity
  8
001
370
     9
100
AcDbLine
 10
115.68728
 20
42.751978
 30
0.0
 11
107.702597
 21
42.751978
 31
0.0
  0
POLYLINE
  5
551
330
1F
100
AcDbEntity
  8
001
370
    50
100
AcDb2dPolyline
 66
     1
 10
0.0
 20
0.0
 30
0.0
  0
VERTEX
  5
553
330
551
100
AcDbEntity
  8
001
370
    50
100
AcDbVertex
100
AcDb2dVertex
 10
123.771378
 20
206.653372
 30
0.0
  0
VERTEX
  5
554
330
551
100
AcDbEntity
  8
001
370
    50
100
AcDbVertex
100
AcDb2dVertex
 10
123.820717
 20
206.609453
 30
0.0
  0
VERTEX
  5
555
330
551
100
AcDbEntity
  8
001
370
    50
100
AcDbVertex
100
AcDb2dVertex
 10
123.892548
 20
206.553822
 30
0.0
  0
VERTEX
  5
556
330
551
100
AcDbEntity
  8
001
370
    50
100
AcDbVertex
100
AcDb2dVertex
 10
123.962168
 20
206.511038
 30
0.0
  0
VERTEX
  5
557
330
551
100
AcDbEntity
  8
001
370
    50
100
AcDbVertex
100
AcDb2dVertex
 10
124.030681
 20
206.479718
 30
0.0
  0
VERTEX
  5
558
330
551
100
AcDbEntity
  8
001
370
    50
100
AcDbVertex
100
AcDb2dVertex
 10
124.10381
 20
206.453767
 30
0.0
  0
VERTEX
  5
559
330
551
100
AcDbEntity
  8
001
370
    50
100
AcDbVertex
100
AcDb2dVertex
 10
124.180469
 20
206.433907
 30
0.0
  0
VERTEX
  5
55A
330
551
100
AcDbEntity
  8
001
370
    50
100
AcDbVertex
100
AcDb2dVertex
 10
124.258141
 20
206.422088
 30
0.0
  0
VERTEX
  5
55B
330
551
100
AcDbEntity
  8
001
370
    50
100
AcDbVertex
100
AcDb2dVertex
 10
124.336156
 20
206.41815
 30
0.0
  0
VERTEX
  5
55C
330
551
100
AcDbEntity
  8
001
370
    50
100
AcDbVertex
100
AcDb2dVertex
 10
124.414109
 20
206.421654
 30
0.0
  0
VERTEX
  5
55D
330
551
100
AcDbEntity
  8
001
370
    50
100
AcDbVertex
100
AcDb2dVertex
 10
124.491759
 20
206.433052
 30
0.0
  0
VERTEX
  5
55E
330
551
100
AcDbEntity
  8
001
370
    50
100
AcDbVertex
100
AcDb2dVertex
 10
124.568278
 20
206.452484
 30
0.0
  0
VERTEX
  5
55F
330
551
100
AcDbEntity
  8
001
370
    50
100
AcDbVertex
100
AcDb2dVertex
 10
124.641297
 20
206.478041
 30
0.0
  0
VERTEX
  5
560
330
551
100
AcDbEntity
  8
001
370
    50
100
AcDbVertex
100
AcDb2dVertex
 10
124.709615
 20
206.50897
 30
0.0
  0
VERTEX
  5
561
330
551
100
AcDbEntity
  8
001
370
    50
100
AcDbVertex
100
AcDb2dVertex
 10
124.779025
 20
206.551387
 30
0.0
  0
VERTEX
  5
562
330
551
100
AcDbEntity
  8
001
370
    50
100
AcDbVertex
100
AcDb2dVertex
 10
124.850547
 20
206.606622
 30
0.0
  0
VERTEX
  5
563
330
551
100
AcDbEntity
  8
001
370
    50
100
AcDbVertex
100
AcDb2dVertex
 10
124.89965
 20
206.650273
 30
0.0
  0
SEQEND
  5
552
330
551
100
AcDbEntity
  8
001
370
    50
  0
LINE
  5
564
330
1F
100
AcDbEntity
  8
001
370
    50
100
AcDbLine
 10
119.278651
 20
211.146099
 30
0.0
 11
119.375065
 21
211.105944
 31
0.0
  0
POLYLINE
  5
565
330
1F
100
AcDbEntity
  8
001
370
    50
100
AcDb2dPolyline
 66
     1
 10
0.0
 20
0.0
 30
0.0
  0
VERTEX
  5
567
330
565
100
AcDbEntity
  8
001
370
    50
100
AcDbVertex
100
AcDb2dVertex
 10
115.919394
 20
215.630529
 30
0.0
  0
VERTEX
  5
568
330
565
100
AcDbEntity
  8
001
370
    50
100
AcDbVertex
100
AcDb2dVertex
 10
115.875743
 20
215.581426
 30
0.0
  0
VERTEX
  5
569
330
565
100
AcDbEntity
  8
001
370
    50
100
AcDbVertex
100
AcDb2dVertex
 10
115.820508
 20
215.509904
 30
0.0
  0
VERTEX
  5
56A
330
565
100
AcDbEntity
  8
001
370
    50
100
AcDbVertex
100
AcDb2dVertex
 10
115.778091
 20
215.440494
 30
0.0
  0
VERTEX
  5
56B
330
565
100
AcDbEntity
  8
001
370
    50
100
AcDbVertex
100
AcDb2dVertex
 10
115.747162
 20
215.372176
 30
0.0
  0
VERTEX
  5
56C
330
565
100
AcDbEntity
  8
001
370
    50
100
AcDbVertex
100
AcDb2dVertex
 10
115.721605
 20
215.299157
 30
0.0
  0
VERTEX
  5
56D
330
565
100
AcDbEntity
  8
001
370
    50
100
AcDbVertex
100
AcDb2dVertex
 10
115.702173
 20
215.222638
 30
0.0
  0
VERTEX
  5
56E
330
565
100
AcDbEntity
  8
001
370
    50
100
AcDbVertex
100
AcDb2dVertex
 10
115.690775
 20
215.144988
 30
0.0
  0
VERTEX
  5
56F
330
565
100
AcDbEntity
  8
001
370
    50
100
AcDbVertex
100
AcDb2dVertex
 10
115.687271
 20
215.067035
 30
0.0
  0
VERTEX
  5
570
330
565
100
AcDbEntity
  8
001
370
    50
100
AcDbVertex
100
AcDb2dVertex
 10
115.691209
 20
214.98902
 30
0.0
  0
VERTEX
  5
571
330
565
100
AcDbEntity
  8
001
370
    50
100
AcDbVertex
100
AcDb2dVertex
 10
115.703028
 20
214.911348
 30
0.0
  0
VERTEX
  5
572
330
565
100
AcDbEntity
  8
001
370
    50
100
AcDbVertex
100
AcDb2dVertex
 10
115.722888
 20
214.834689
 30
0.0
  0
VERTEX
  5
573
330
565
100
AcDbEntity
  8
001
370
    50
100
AcDbVertex
100
AcDb2dVertex
 10
115.748839
 20
214.76156
 30
0.0
  0
VERTEX
  5
574
330
565
100
AcDbEntity
  8
001
370
    50
100
AcDbVertex
100
AcDb2dVertex
 10
115.780159
 20
214.693046
 30
0.0
  0
VERTEX
  5
575
330
565
100
AcDbEntity
  8
001
370
    50
100
AcDbVertex
100
AcDb2dVertex
 10
115.822943
 20
214.623427
 30
0.0
  0
VERTEX
  5
576
330
565
100
AcDbEntity
  8
001
370
    50
100
AcDbVertex
100
AcDb2dVertex
 10
115.878574
 20
214.551596
 30
0.0
  0
VERTEX
  5
577
330
565
100
AcDbEntity
  8
001
370
    50
100
AcDbVertex
100
AcDb2dVertex
 10
115.922493
 20
214.502257
 30
0.0
  0
SEQEND
  5
566
330
565
100
AcDbEntity
  8
001
370
    50
  0
POLYLINE
  5
578
330
1F
100
AcDbEntity
  8
001
370
    50
100
AcDb2dPolyline
 66
     1
 10
0.0
 20
0.0
 30
0.0
  0
VERTEX
  5
57A
330
578
100
AcDbEntity
  8
001
370
    50
100
AcDbVertex
100
AcDb2dVertex
 10
124.853554
 20
223.433318
 30
0.0
  0
VERTEX
  5
57B
330
578
100
AcDbEntity
  8
001
370
    50
100
AcDbVertex
100
AcDb2dVertex
 10
124.804215
 20
223.477237
 30
0.0
  0
VERTEX
  5
57C
330
578
100
AcDbEntity
  8
001
370
    50
100
AcDbVertex
100
AcDb2dVertex
 10
124.732385
 20
223.532868
 30
0.0
  0
VERTEX
  5
57D
330
578
100
AcDbEntity
  8
001
370
    50
100
AcDbVertex
100
AcDb2dVertex
 10
124.662765
 20
223.575653
 30
0.0
  0
VERTEX
  5
57E
330
578
100
AcDbEntity
  8
001
370
    50
100
AcDbVertex
100
AcDb2dVertex
 10
124.594252
 20
223.606973
 30
0.0
  0
VERTEX
  5
57F
330
578
100
AcDbEntity
  8
001
370
    50
100
AcDbVertex
100
AcDb2dVertex
 10
124.521122
 20
223.632924
 30
0.0
  0
VERTEX
  5
580
330
578
100
AcDbEntity
  8
001
370
    50
100
AcDbVertex
100
AcDb2dVertex
 10
124.444463
 20
223.652783
 30
0.0
  0
VERTEX
  5
581
330
578
100
AcDbEntity
  8
001
370
    50
100
AcDbVertex
100
AcDb2dVertex
 10
124.366792
 20
223.664603
 30
0.0
  0
VERTEX
  5
582
330
578
100
AcDbEntity
  8
001
370
    50
100
AcDbVertex
100
AcDb2dVertex
 10
124.288777
 20
223.668541
 30
0.0
  0
VERTEX
  5
583
330
578
100
AcDbEntity
  8
001
370
    50
100
AcDbVertex
100
AcDb2dVertex
 10
124.210823
 20
223.665037
 30
0.0
  0
VERTEX
  5
584
330
578
100
AcDbEntity
  8
001
370
    50
100
AcDbVertex
100
AcDb2dVertex
 10
124.133174
 20
223.653638
 30
0.0
  0
VERTEX
  5
585
330
578
100
AcDbEntity
  8
001
370
    50
100
AcDbVertex
100
AcDb2dVertex
 10
124.056654
 20
223.634207
 30
0.0
  0
VERTEX
  5
586
330
578
100
AcDbEntity
  8
001
370
    50
100
AcDbVertex
100
AcDb2dVertex
 10
123.983635
 20
223.60865
 30
0.0
  0
VERTEX
  5
587
330
578
100
AcDbEntity
  8
001
370
    50
100
AcDbVertex
100
AcDb2dVertex
 10
123.915317
 20
223.57772
 30
0.0
  0
VERTEX
  5
588
330
578
100
AcDbEntity
  8
001
370
    50
100
AcDbVertex
100
AcDb2dVertex
 10
123.845907
 20
223.535303
 30
0.0
  0
VERTEX
  5
589
330
578
100
AcDbEntity
  8
001
370
    50
100
AcDbVertex
100
AcDb2dVertex
 10
123.774385
 20
223.480068
 30
0.0
  0
VERTEX
  5
58A
330
578
100
AcDbEntity
  8
001
370
    50
100
AcDbVertex
100
AcDb2dVertex
 10
123.725282
 20
223.436417
 30
0.0
  0
SEQEND
  5
579
330
578
100
AcDbEntity
  8
001
370
    50
  0
POLYLINE
  5
58B
330
1F
100
AcDbEntity
  8
001
370
    50
100
AcDb2dPolyline
 66
     1
 10
0.0
 20
0.0
 30
0.0
  0
VERTEX
  5
58D
330
58B
100
AcDbEntity
  8
001
370
    50
100
AcDbVertex
100
AcDb2dVertex
 10
132.705538
 20
214.456161
 30
0.0
  0
VERTEX
  5
58E
330
58B
100
AcDbEntity
  8
001
370
    50
100
AcDbVertex
100
AcDb2dVertex
 10
132.749189
 20
214.505264
 30
0.0
  0
VERTEX
  5
58F
330
58B
100
AcDbEntity
  8
001
370
    50
100
AcDbVertex
100
AcDb2dVertex
 10
132.804424
 20
214.576786
 30
0.0
  0
VERTEX
  5
590
330
58B
100
AcDbEntity
  8
001
370
    50
100
AcDbVertex
100
AcDb2dVertex
 10
132.846841
 20
214.646196
 30
0.0
  0
VERTEX
  5
591
330
58B
100
AcDbEntity
  8
001
370
    50
100
AcDbVertex
100
AcDb2dVertex
 10
132.877771
 20
214.714514
 30
0.0
  0
VERTEX
  5
592
330
58B
100
AcDbEntity
  8
001
370
    50
100
AcDbVertex
100
AcDb2dVertex
 10
132.903328
 20
214.787533
 30
0.0
  0
VERTEX
  5
593
330
58B
100
AcDbEntity
  8
001
370
    50
100
AcDbVertex
100
AcDb2dVertex
 10
132.92276
 20
214.864053
 30
0.0
  0
VERTEX
  5
594
330
58B
100
AcDbEntity
  8
001
370
    50
100
AcDbVertex
100
AcDb2dVertex
 10
132.934158
 20
214.941702
 30
0.0
  0
VERTEX
  5
595
330
58B
100
AcDbEntity
  8
001
370
    50
100
AcDbVertex
100
AcDb2dVertex
 10
132.937662
 20
215.019655
 30
0.0
  0
VERTEX
  5
596
330
58B
100
AcDbEntity
  8
001
370
    50
100
AcDbVertex
100
AcDb2dVertex
 10
132.933724
 20
215.097671
 30
0.0
  0
VERTEX
  5
597
330
58B
100
AcDbEntity
  8
001
370
    50
100
AcDbVertex
100
AcDb2dVertex
 10
132.921905
 20
215.175342
 30
0.0
  0
VERTEX
  5
598
330
58B
100
AcDbEntity
  8
001
370
    50
100
AcDbVertex
100
AcDb2dVertex
 10
132.902045
 20
215.252001
 30
0.0
  0
VERTEX
  5
599
330
58B
100
AcDbEntity
  8
001
370
    50
100
AcDbVertex
100
AcDb2dVertex
 10
132.876094
 20
215.32513
 30
0.0
  0
VERTEX
  5
59A
330
58B
100
AcDbEntity
  8
001
370
    50
100
AcDbVertex
100
AcDb2dVertex
 10
132.844774
 20
215.393644
 30
0.0
  0
VERTEX
  5
59B
330
58B
100
AcDbEntity
  8
001
370
    50
100
AcDbVertex
100
AcDb2dVertex
 10
132.801989
 20
215.463263
 30
0.0
  0
VERTEX
  5
59C
330
58B
100
AcDbEntity
  8
001
370
    50
100
AcDbVertex
100
AcDb2dVertex
 10
132.746358
 20
215.535094
 30
0.0
  0
VERTEX
  5
59D
330
58B
100
AcDbEntity
  8
001
370
    50
100
AcDbVertex
100
AcDb2dVertex
 10
132.70244
 20
215.584433
 30
0.0
  0
SEQEND
  5
58C
330
58B
100
AcDbEntity
  8
001
370
    50
  0
LINE
  5
59E
330
1F
100
AcDbEntity
  8
001
370
    50
100
AcDbLine
 10
241.688178
 20
208.567943
 30
0.0
 11
241.688178
 21
227.567943
 31
0.0
  0
LINE
  5
59F
330
1F
100
AcDbEntity
  8
001
370
    50
100
AcDbLine
 10
139.752747
 20
208.567943
 30
0.0
 11
124.520463
 21
223.800227
 31
0.0
  0
LINE
  5
5A0
330
1F
100
AcDbEntity
  8
001
370
    50
100
AcDbLine
 10
241.688178
 20
227.567943
 30
0.0
 11
128.288178
 21
227.567943
 31
0.0
  0
LINE
  5
5A1
330
1F
100
AcDbEntity
  8
001
370
    50
100
AcDbLine
 10
128.288178
 20
227.567943
 30
0.0
 11
124.520463
 21
223.800227
 31
0.0
  0
LINE
  5
5A2
330
1F
100
AcDbEntity
  8
001
370
    50
100
AcDbLine
 10
129.110779
 20
210.861402
 30
0.0
 11
133.057363
 21
214.807986
 31
0.0
  0
LINE
  5
5A3
330
1F
100
AcDbEntity
  8
001
370
    50
100
AcDbLine
 10
120.380523
 20
220.091658
 30
0.0
 11
124.077107
 21
223.788242
 31
0.0
  0
POLYLINE
  5
5A4
330
1F
100
AcDbEntity
  8
001
370
    50
100
AcDb2dPolyline
 66
     1
 10
0.0
 20
0.0
 30
0.0
  0
VERTEX
  5
5A6
330
5A4
100
AcDbEntity
  8
001
370
    50
100
AcDbVertex
100
AcDb2dVertex
 10
133.057363
 20
214.807986
 30
0.0
  0
VERTEX
  5
5A7
330
5A4
100
AcDbEntity
  8
001
370
    50
100
AcDbVertex
100
AcDb2dVertex
 10
133.101014
 20
214.857089
 30
0.0
  0
VERTEX
  5
5A8
330
5A4
100
AcDbEntity
  8
001
370
    50
100
AcDbVertex
100
AcDb2dVertex
 10
133.156249
 20
214.928611
 30
0.0
  0
VERTEX
  5
5A9
330
5A4
100
AcDbEntity
  8
001
370
    50
100
AcDbVertex
100
AcDb2dVertex
 10
133.198666
 20
214.998021
 30
0.0
  0
VERTEX
  5
5AA
330
5A4
100
AcDbEntity
  8
001
370
    50
100
AcDbVertex
100
AcDb2dVertex
 10
133.229596
 20
215.066339
 30
0.0
  0
VERTEX
  5
5AB
330
5A4
100
AcDbEntity
  8
001
370
    50
100
AcDbVertex
100
AcDb2dVertex
 10
133.233064
 20
215.075233
 30
0.0
  0
VERTEX
  5
5AC
330
5A4
100
AcDbEntity
  8
001
370
    50
100
AcDbVertex
100
AcDb2dVertex
 10
133.236468
 20
215.084222
 30
0.0
  0
SEQEND
  5
5A5
330
5A4
100
AcDbEntity
  8
001
370
    50
  0
POLYLINE
  5
5AD
330
1F
100
AcDbEntity
  8
001
370
    50
100
AcDb2dPolyline
 66
     1
 10
0.0
 20
0.0
 30
0.0
  0
VERTEX
  5
5AF
330
5AD
100
AcDbEntity
  8
001
370
    50
100
AcDbVertex
100
AcDb2dVertex
 10
124.734869
 20
224.014633
 30
0.0
  0
VERTEX
  5
5B0
330
5AD
100
AcDbEntity
  8
001
370
    50
100
AcDbVertex
100
AcDb2dVertex
 10
124.687775
 20
224.018891
 30
0.0
  0
VERTEX
  5
5B1
330
5AD
100
AcDbEntity
  8
001
370
    50
100
AcDbVertex
100
AcDb2dVertex
 10
124.640601
 20
224.020366
 30
0.0
  0
VERTEX
  5
5B2
330
5AD
100
AcDbEntity
  8
001
370
    50
100
AcDbVertex
100
AcDb2dVertex
 10
124.562648
 20
224.016862
 30
0.0
  0
VERTEX
  5
5B3
330
5AD
100
AcDbEntity
  8
001
370
    50
100
AcDbVertex
100
AcDb2dVertex
 10
124.484999
 20
224.005463
 30
0.0
  0
VERTEX
  5
5B4
330
5AD
100
AcDbEntity
  8
001
370
    50
100
AcDbVertex
100
AcDb2dVertex
 10
124.408479
 20
223.986032
 30
0.0
  0
VERTEX
  5
5B5
330
5AD
100
AcDbEntity
  8
001
370
    50
100
AcDbVertex
100
AcDb2dVertex
 10
124.33546
 20
223.960474
 30
0.0
  0
VERTEX
  5
5B6
330
5AD
100
AcDbEntity
  8
001
370
    50
100
AcDbVertex
100
AcDb2dVertex
 10
124.267142
 20
223.929545
 30
0.0
  0
VERTEX
  5
5B7
330
5AD
100
AcDbEntity
  8
001
370
    50
100
AcDbVertex
100
AcDb2dVertex
 10
124.197732
 20
223.887128
 30
0.0
  0
VERTEX
  5
5B8
330
5AD
100
AcDbEntity
  8
001
370
    50
100
AcDbVertex
100
AcDb2dVertex
 10
124.12621
 20
223.831893
 30
0.0
  0
VERTEX
  5
5B9
330
5AD
100
AcDbEntity
  8
001
370
    50
100
AcDbVertex
100
AcDb2dVertex
 10
124.077107
 20
223.788242
 30
0.0
  0
SEQEND
  5
5AE
330
5AD
100
AcDbEntity
  8
001
370
    50
  0
LINE
  5
5BA
330
1F
100
AcDbEntity
  8
001
370
    50
100
AcDbLine
 10
126.81732
 20
208.567943
 30
0.0
 11
241.688178
 21
208.567943
 31
0.0
  0
LINE
  5
5BB
330
1F
100
AcDbEntity
  8
001
370
     9
100
AcDbLine
 10
115.687268
 20
200.227527
 30
0.0
 11
115.687268
 21
215.069362
 31
0.0
  0
LINE
  5
5BC
330
1F
100
AcDbEntity
  8
001
370
     9
100
AcDbLine
 10
124.338482
 20
206.418146
 30
0.0
 11
102.455357
 21
206.418146
 31
0.0
  0
TEXT
  5
5BD
330
1F
100
AcDbEntity
  8
001
370
    30
100
AcDbText
 10
113.916036
 20
252.161727
 30
0.0
 40
10.0
  1
Ｒバイト　２０ＸＲ　（１Ｒ）
 41
0.833333
100
AcDbText
  0
LINE
  5
5BE
330
1F
100
AcDbEntity
  8
001
370
    50
100
AcDbLine
 10
120.41522
 20
210.00953
 30
0.0
 11
120.375065
 21
210.105944
 31
0.0
  0
LINE
  5
5BF
330
1F
100
AcDbEntity
  8
001
370
    50
100
AcDbLine
 10
119.278651
 20
211.146099
 30
0.0
 11
115.922493
 21
214.502257
 31
0.0
  0
LINE
  5
5C0
330
1F
100
AcDbEntity
  8
001
370
    50
100
AcDbLine
 10
120.41522
 20
210.00953
 30
0.0
 11
123.771378
 21
206.653372
 31
0.0
  0
CIRCLE
  5
5C1
330
1F
100
AcDbEntity
  8
001
370
    50
100
AcDbCircle
 10
124.302367
 20
215.033246
 30
0.0
 40
2.600039226781906
  0
LINE
  5
5C2
330
1F
100
AcDbEntity
  8
001
370
    50
100
AcDbLine
 10
131.084071
 20
212.834694
 30
0.0
 11
124.89965
 21
206.650273
 31
0.0
  0
LINE
  5
5C3
330
1F
100
AcDbEntity
  8
001
370
    50
100
AcDbLine
 10
119.243955
 20
218.95509
 30
0.0
 11
115.919394
 21
215.630529
 31
0.0
  0
LINE
  5
5C4
330
1F
100
AcDbEntity
  8
001
370
    50
100
AcDbLine
 10
128.209713
 20
220.07716
 30
0.0
 11
124.853554
 21
223.433318
 31
0.0
  0
LINE
  5
5C5
330
1F
100
AcDbEntity
  8
001
370
    50
100
AcDbLine
 10
129.346281
 20
218.940592
 30
0.0
 11
132.70244
 21
215.584433
 31
0.0
  0
ARC
  5
5C6
330
1F
100
AcDbEntity
  8
001
370
    50
100
AcDbCircle
 10
119.375065
 20
210.105944
 30
0.0
 40
1.0
100
AcDbArc
 50
360.0
 51
90.0
  0
LINE
  5
5C7
330
1F
100
AcDbEntity
  8
001
370
    50
100
AcDbLine
 10
128.224211
 20
209.974834
 30
0.0
 11
128.264366
 21
210.071247
 31
0.0
  0
LINE
  5
5C8
330
1F
100
AcDbEntity
  8
001
370
    50
100
AcDbLine
 10
129.360779
 20
211.111402
 30
0.0
 11
129.264366
 21
211.071247
 31
0.0
  0
ARC
  5
5C9
330
1F
100
AcDbEntity
  8
001
370
    50
100
AcDbCircle
 10
129.264366
 20
210.071247
 30
0.0
 40
1.0
100
AcDbArc
 50
90.0
 51
180.0
  0
LINE
  5
5CA
330
1F
100
AcDbEntity
  8
001
370
    50
100
AcDbLine
 10
129.346281
 20
218.940592
 30
0.0
 11
129.249868
 21
218.980746
 31
0.0
  0
LINE
  5
5CB
330
1F
100
AcDbEntity
  8
001
370
    50
100
AcDbLine
 10
128.209713
 20
220.07716
 30
0.0
 11
128.249868
 21
219.980746
 31
0.0
  0
ARC
  5
5CC
330
1F
100
AcDbEntity
  8
001
370
    50
100
AcDbCircle
 10
129.249868
 20
219.980746
 30
0.0
 40
1.0
100
AcDbArc
 50
180.0
 51
270.0
  0
LINE
  5
5CD
330
1F
100
AcDbEntity
  8
001
370
    50
100
AcDbLine
 10
120.380523
 20
220.091658
 30
0.0
 11
120.340368
 21
219.995245
 31
0.0
  0
LINE
  5
5CE
330
1F
100
AcDbEntity
  8
001
370
    50
100
AcDbLine
 10
119.243955
 20
218.95509
 30
0.0
 11
119.340368
 21
218.995245
 31
0.0
  0
ARC
  5
5CF
330
1F
100
AcDbEntity
  8
001
370
    50
100
AcDbCircle
 10
119.340368
 20
219.995245
 30
0.0
 40
1.0
100
AcDbArc
 50
270.0
 51
0.0
  0
POLYLINE
  5
5D0
330
1F
100
AcDbEntity
  8
001
370
    50
100
AcDb2dPolyline
 66
     1
 10
0.0
 20
0.0
 30
0.0
  0
VERTEX
  5
5D2
330
5D0
100
AcDbEntity
  8
001
370
    50
100
AcDbVertex
100
AcDb2dVertex
 10
123.771378
 20
332.01551
 30
0.0
  0
VERTEX
  5
5D3
330
5D0
100
AcDbEntity
  8
001
370
    50
100
AcDbVertex
100
AcDb2dVertex
 10
123.820717
 20
331.971591
 30
0.0
  0
VERTEX
  5
5D4
330
5D0
100
AcDbEntity
  8
001
370
    50
100
AcDbVertex
100
AcDb2dVertex
 10
123.892548
 20
331.91596
 30
0.0
  0
VERTEX
  5
5D5
330
5D0
100
AcDbEntity
  8
001
370
    50
100
AcDbVertex
100
AcDb2dVertex
 10
123.962168
 20
331.873176
 30
0.0
  0
VERTEX
  5
5D6
330
5D0
100
AcDbEntity
  8
001
370
    50
100
AcDbVertex
100
AcDb2dVertex
 10
124.030681
 20
331.841856
 30
0.0
  0
VERTEX
  5
5D7
330
5D0
100
AcDbEntity
  8
001
370
    50
100
AcDbVertex
100
AcDb2dVertex
 10
124.10381
 20
331.815905
 30
0.0
  0
VERTEX
  5
5D8
330
5D0
100
AcDbEntity
  8
001
370
    50
100
AcDbVertex
100
AcDb2dVertex
 10
124.180469
 20
331.796045
 30
0.0
  0
VERTEX
  5
5D9
330
5D0
100
AcDbEntity
  8
001
370
    50
100
AcDbVertex
100
AcDb2dVertex
 10
124.258141
 20
331.784226
 30
0.0
  0
VERTEX
  5
5DA
330
5D0
100
AcDbEntity
  8
001
370
    50
100
AcDbVertex
100
AcDb2dVertex
 10
124.336156
 20
331.780288
 30
0.0
  0
VERTEX
  5
5DB
330
5D0
100
AcDbEntity
  8
001
370
    50
100
AcDbVertex
100
AcDb2dVertex
 10
124.414109
 20
331.783792
 30
0.0
  0
VERTEX
  5
5DC
330
5D0
100
AcDbEntity
  8
001
370
    50
100
AcDbVertex
100
AcDb2dVertex
 10
124.491759
 20
331.79519
 30
0.0
  0
VERTEX
  5
5DD
330
5D0
100
AcDbEntity
  8
001
370
    50
100
AcDbVertex
100
AcDb2dVertex
 10
124.568278
 20
331.814622
 30
0.0
  0
VERTEX
  5
5DE
330
5D0
100
AcDbEntity
  8
001
370
    50
100
AcDbVertex
100
AcDb2dVertex
 10
124.641297
 20
331.840179
 30
0.0
  0
VERTEX
  5
5DF
330
5D0
100
AcDbEntity
  8
001
370
    50
100
AcDbVertex
100
AcDb2dVertex
 10
124.709615
 20
331.871108
 30
0.0
  0
VERTEX
  5
5E0
330
5D0
100
AcDbEntity
  8
001
370
    50
100
AcDbVertex
100
AcDb2dVertex
 10
124.779025
 20
331.913525
 30
0.0
  0
VERTEX
  5
5E1
330
5D0
100
AcDbEntity
  8
001
370
    50
100
AcDbVertex
100
AcDb2dVertex
 10
124.850547
 20
331.96876
 30
0.0
  0
VERTEX
  5
5E2
330
5D0
100
AcDbEntity
  8
001
370
    50
100
AcDbVertex
100
AcDb2dVertex
 10
124.89965
 20
332.012411
 30
0.0
  0
SEQEND
  5
5D1
330
5D0
100
AcDbEntity
  8
001
370
    50
  0
LINE
  5
5E3
330
1F
100
AcDbEntity
  8
001
370
    50
100
AcDbLine
 10
118.778651
 20
337.008237
 30
0.0
 11
118.875065
 21
336.968082
 31
0.0
  0
POLYLINE
  5
5E4
330
1F
100
AcDbEntity
  8
001
370
    50
100
AcDb2dPolyline
 66
     1
 10
0.0
 20
0.0
 30
0.0
  0
VERTEX
  5
5E6
330
5E4
100
AcDbEntity
  8
001
370
    50
100
AcDbVertex
100
AcDb2dVertex
 10
115.919394
 20
340.992667
 30
0.0
  0
VERTEX
  5
5E7
330
5E4
100
AcDbEntity
  8
001
370
    50
100
AcDbVertex
100
AcDb2dVertex
 10
115.875743
 20
340.943565
 30
0.0
  0
VERTEX
  5
5E8
330
5E4
100
AcDbEntity
  8
001
370
    50
100
AcDbVertex
100
AcDb2dVertex
 10
115.820508
 20
340.872043
 30
0.0
  0
VERTEX
  5
5E9
330
5E4
100
AcDbEntity
  8
001
370
    50
100
AcDbVertex
100
AcDb2dVertex
 10
115.778091
 20
340.802633
 30
0.0
  0
VERTEX
  5
5EA
330
5E4
100
AcDbEntity
  8
001
370
    50
100
AcDbVertex
100
AcDb2dVertex
 10
115.747162
 20
340.734314
 30
0.0
  0
VERTEX
  5
5EB
330
5E4
100
AcDbEntity
  8
001
370
    50
100
AcDbVertex
100
AcDb2dVertex
 10
115.721605
 20
340.661295
 30
0.0
  0
VERTEX
  5
5EC
330
5E4
100
AcDbEntity
  8
001
370
    50
100
AcDbVertex
100
AcDb2dVertex
 10
115.702173
 20
340.584776
 30
0.0
  0
VERTEX
  5
5ED
330
5E4
100
AcDbEntity
  8
001
370
    50
100
AcDbVertex
100
AcDb2dVertex
 10
115.690775
 20
340.507126
 30
0.0
  0
VERTEX
  5
5EE
330
5E4
100
AcDbEntity
  8
001
370
    50
100
AcDbVertex
100
AcDb2dVertex
 10
115.687271
 20
340.429173
 30
0.0
  0
VERTEX
  5
5EF
330
5E4
100
AcDbEntity
  8
001
370
    50
100
AcDbVertex
100
AcDb2dVertex
 10
115.691209
 20
340.351158
 30
0.0
  0
VERTEX
  5
5F0
330
5E4
100
AcDbEntity
  8
001
370
    50
100
AcDbVertex
100
AcDb2dVertex
 10
115.703028
 20
340.273486
 30
0.0
  0
VERTEX
  5
5F1
330
5E4
100
AcDbEntity
  8
001
370
    50
100
AcDbVertex
100
AcDb2dVertex
 10
115.722888
 20
340.196827
 30
0.0
  0
VERTEX
  5
5F2
330
5E4
100
AcDbEntity
  8
001
370
    50
100
AcDbVertex
100
AcDb2dVertex
 10
115.748839
 20
340.123698
 30
0.0
  0
VERTEX
  5
5F3
330
5E4
100
AcDbEntity
  8
001
370
    50
100
AcDbVertex
100
AcDb2dVertex
 10
115.780159
 20
340.055185
 30
0.0
  0
VERTEX
  5
5F4
330
5E4
100
AcDbEntity
  8
001
370
    50
100
AcDbVertex
100
AcDb2dVertex
 10
115.822943
 20
339.985565
 30
0.0
  0
VERTEX
  5
5F5
330
5E4
100
AcDbEntity
  8
001
370
    50
100
AcDbVertex
100
AcDb2dVertex
 10
115.878574
 20
339.913734
 30
0.0
  0
VERTEX
  5
5F6
330
5E4
100
AcDbEntity
  8
001
370
    50
100
AcDbVertex
100
AcDb2dVertex
 10
115.922493
 20
339.864395
 30
0.0
  0
SEQEND
  5
5E5
330
5E4
100
AcDbEntity
  8
001
370
    50
  0
POLYLINE
  5
5F7
330
1F
100
AcDbEntity
  8
001
370
    50
100
AcDb2dPolyline
 66
     1
 10
0.0
 20
0.0
 30
0.0
  0
VERTEX
  5
5F9
330
5F7
100
AcDbEntity
  8
001
370
    50
100
AcDbVertex
100
AcDb2dVertex
 10
124.853554
 20
348.795457
 30
0.0
  0
VERTEX
  5
5FA
330
5F7
100
AcDbEntity
  8
001
370
    50
100
AcDbVertex
100
AcDb2dVertex
 10
124.804215
 20
348.839375
 30
0.0
  0
VERTEX
  5
5FB
330
5F7
100
AcDbEntity
  8
001
370
    50
100
AcDbVertex
100
AcDb2dVertex
 10
124.732385
 20
348.895006
 30
0.0
  0
VERTEX
  5
5FC
330
5F7
100
AcDbEntity
  8
001
370
    50
100
AcDbVertex
100
AcDb2dVertex
 10
124.662765
 20
348.937791
 30
0.0
  0
VERTEX
  5
5FD
330
5F7
100
AcDbEntity
  8
001
370
    50
100
AcDbVertex
100
AcDb2dVertex
 10
124.594252
 20
348.969111
 30
0.0
  0
VERTEX
  5
5FE
330
5F7
100
AcDbEntity
  8
001
370
    50
100
AcDbVertex
100
AcDb2dVertex
 10
124.521122
 20
348.995062
 30
0.0
  0
VERTEX
  5
5FF
330
5F7
100
AcDbEntity
  8
001
370
    50
100
AcDbVertex
100
AcDb2dVertex
 10
124.444463
 20
349.014922
 30
0.0
  0
VERTEX
  5
600
330
5F7
100
AcDbEntity
  8
001
370
    50
100
AcDbVertex
100
AcDb2dVertex
 10
124.366792
 20
349.026741
 30
0.0
  0
VERTEX
  5
601
330
5F7
100
AcDbEntity
  8
001
370
    50
100
AcDbVertex
100
AcDb2dVertex
 10
124.288777
 20
349.030679
 30
0.0
  0
VERTEX
  5
602
330
5F7
100
AcDbEntity
  8
001
370
    50
100
AcDbVertex
100
AcDb2dVertex
 10
124.210823
 20
349.027175
 30
0.0
  0
VERTEX
  5
603
330
5F7
100
AcDbEntity
  8
001
370
    50
100
AcDbVertex
100
AcDb2dVertex
 10
124.133174
 20
349.015777
 30
0.0
  0
VERTEX
  5
604
330
5F7
100
AcDbEntity
  8
001
370
    50
100
AcDbVertex
100
AcDb2dVertex
 10
124.056654
 20
348.996345
 30
0.0
  0
VERTEX
  5
605
330
5F7
100
AcDbEntity
  8
001
370
    50
100
AcDbVertex
100
AcDb2dVertex
 10
123.983635
 20
348.970788
 30
0.0
  0
VERTEX
  5
606
330
5F7
100
AcDbEntity
  8
001
370
    50
100
AcDbVertex
100
AcDb2dVertex
 10
123.915317
 20
348.939858
 30
0.0
  0
VERTEX
  5
607
330
5F7
100
AcDbEntity
  8
001
370
    50
100
AcDbVertex
100
AcDb2dVertex
 10
123.845907
 20
348.897441
 30
0.0
  0
VERTEX
  5
608
330
5F7
100
AcDbEntity
  8
001
370
    50
100
AcDbVertex
100
AcDb2dVertex
 10
123.774385
 20
348.842206
 30
0.0
  0
VERTEX
  5
609
330
5F7
100
AcDbEntity
  8
001
370
    50
100
AcDbVertex
100
AcDb2dVertex
 10
123.725282
 20
348.798556
 30
0.0
  0
SEQEND
  5
5F8
330
5F7
100
AcDbEntity
  8
001
370
    50
  0
POLYLINE
  5
60A
330
1F
100
AcDbEntity
  8
001
370
    50
100
AcDb2dPolyline
 66
     1
 10
0.0
 20
0.0
 30
0.0
  0
VERTEX
  5
60C
330
60A
100
AcDbEntity
  8
001
370
    50
100
AcDbVertex
100
AcDb2dVertex
 10
132.705538
 20
339.818299
 30
0.0
  0
VERTEX
  5
60D
330
60A
100
AcDbEntity
  8
001
370
    50
100
AcDbVertex
100
AcDb2dVertex
 10
132.749189
 20
339.867402
 30
0.0
  0
VERTEX
  5
60E
330
60A
100
AcDbEntity
  8
001
370
    50
100
AcDbVertex
100
AcDb2dVertex
 10
132.804424
 20
339.938924
 30
0.0
  0
VERTEX
  5
60F
330
60A
100
AcDbEntity
  8
001
370
    50
100
AcDbVertex
100
AcDb2dVertex
 10
132.846841
 20
340.008334
 30
0.0
  0
VERTEX
  5
610
330
60A
100
AcDbEntity
  8
001
370
    50
100
AcDbVertex
100
AcDb2dVertex
 10
132.877771
 20
340.076652
 30
0.0
  0
VERTEX
  5
611
330
60A
100
AcDbEntity
  8
001
370
    50
100
AcDbVertex
100
AcDb2dVertex
 10
132.903328
 20
340.149671
 30
0.0
  0
VERTEX
  5
612
330
60A
100
AcDbEntity
  8
001
370
    50
100
AcDbVertex
100
AcDb2dVertex
 10
132.92276
 20
340.226191
 30
0.0
  0
VERTEX
  5
613
330
60A
100
AcDbEntity
  8
001
370
    50
100
AcDbVertex
100
AcDb2dVertex
 10
132.934158
 20
340.30384
 30
0.0
  0
VERTEX
  5
614
330
60A
100
AcDbEntity
  8
001
370
    50
100
AcDbVertex
100
AcDb2dVertex
 10
132.937662
 20
340.381794
 30
0.0
  0
VERTEX
  5
615
330
60A
100
AcDbEntity
  8
001
370
    50
100
AcDbVertex
100
AcDb2dVertex
 10
132.933724
 20
340.459809
 30
0.0
  0
VERTEX
  5
616
330
60A
100
AcDbEntity
  8
001
370
    50
100
AcDbVertex
100
AcDb2dVertex
 10
132.921905
 20
340.53748
 30
0.0
  0
VERTEX
  5
617
330
60A
100
AcDbEntity
  8
001
370
    50
100
AcDbVertex
100
AcDb2dVertex
 10
132.902045
 20
340.614139
 30
0.0
  0
VERTEX
  5
618
330
60A
100
AcDbEntity
  8
001
370
    50
100
AcDbVertex
100
AcDb2dVertex
 10
132.876094
 20
340.687269
 30
0.0
  0
VERTEX
  5
619
330
60A
100
AcDbEntity
  8
001
370
    50
100
AcDbVertex
100
AcDb2dVertex
 10
132.844774
 20
340.755782
 30
0.0
  0
VERTEX
  5
61A
330
60A
100
AcDbEntity
  8
001
370
    50
100
AcDbVertex
100
AcDb2dVertex
 10
132.801989
 20
340.825402
 30
0.0
  0
VERTEX
  5
61B
330
60A
100
AcDbEntity
  8
001
370
    50
100
AcDbVertex
100
AcDb2dVertex
 10
132.746358
 20
340.897232
 30
0.0
  0
VERTEX
  5
61C
330
60A
100
AcDbEntity
  8
001
370
    50
100
AcDbVertex
100
AcDb2dVertex
 10
132.70244
 20
340.946571
 30
0.0
  0
SEQEND
  5
60B
330
60A
100
AcDbEntity
  8
001
370
    50
  0
LINE
  5
61D
330
1F
100
AcDbEntity
  8
001
370
    50
100
AcDbLine
 10
241.688178
 20
333.930081
 30
0.0
 11
241.688178
 21
352.930081
 31
0.0
  0
LINE
  5
61E
330
1F
100
AcDbEntity
  8
001
370
    50
100
AcDbLine
 10
139.752747
 20
333.930081
 30
0.0
 11
124.520463
 21
349.162365
 31
0.0
  0
LINE
  5
61F
330
1F
100
AcDbEntity
  8
001
370
    50
100
AcDbLine
 10
241.688178
 20
352.930081
 30
0.0
 11
128.288178
 21
352.930081
 31
0.0
  0
LINE
  5
620
330
1F
100
AcDbEntity
  8
001
370
    50
100
AcDbLine
 10
128.288178
 20
352.930081
 30
0.0
 11
124.520463
 21
349.162365
 31
0.0
  0
LINE
  5
621
330
1F
100
AcDbEntity
  8
001
370
    50
100
AcDbLine
 10
129.110779
 20
336.22354
 30
0.0
 11
133.057363
 21
340.170124
 31
0.0
  0
LINE
  5
622
330
1F
100
AcDbEntity
  8
001
370
    50
100
AcDbLine
 10
120.880523
 20
345.953797
 30
0.0
 11
124.077107
 21
349.15038
 31
0.0
  0
POLYLINE
  5
623
330
1F
100
AcDbEntity
  8
001
370
    50
100
AcDb2dPolyline
 66
     1
 10
0.0
 20
0.0
 30
0.0
  0
VERTEX
  5
625
330
623
100
AcDbEntity
  8
001
370
    50
100
AcDbVertex
100
AcDb2dVertex
 10
133.057363
 20
340.170124
 30
0.0
  0
VERTEX
  5
626
330
623
100
AcDbEntity
  8
001
370
    50
100
AcDbVertex
100
AcDb2dVertex
 10
133.101014
 20
340.219227
 30
0.0
  0
VERTEX
  5
627
330
623
100
AcDbEntity
  8
001
370
    50
100
AcDbVertex
100
AcDb2dVertex
 10
133.156249
 20
340.290749
 30
0.0
  0
VERTEX
  5
628
330
623
100
AcDbEntity
  8
001
370
    50
100
AcDbVertex
100
AcDb2dVertex
 10
133.198666
 20
340.360159
 30
0.0
  0
VERTEX
  5
629
330
623
100
AcDbEntity
  8
001
370
    50
100
AcDbVertex
100
AcDb2dVertex
 10
133.229596
 20
340.428477
 30
0.0
  0
VERTEX
  5
62A
330
623
100
AcDbEntity
  8
001
370
    50
100
AcDbVertex
100
AcDb2dVertex
 10
133.233064
 20
340.437371
 30
0.0
  0
VERTEX
  5
62B
330
623
100
AcDbEntity
  8
001
370
    50
100
AcDbVertex
100
AcDb2dVertex
 10
133.236468
 20
340.44636
 30
0.0
  0
SEQEND
  5
624
330
623
100
AcDbEntity
  8
001
370
    50
  0
POLYLINE
  5
62C
330
1F
100
AcDbEntity
  8
001
370
    50
100
AcDb2dPolyline
 66
     1
 10
0.0
 20
0.0
 30
0.0
  0
VERTEX
  5
62E
330
62C
100
AcDbEntity
  8
001
370
    50
100
AcDbVertex
100
AcDb2dVertex
 10
124.734869
 20
349.376771
 30
0.0
  0
VERTEX
  5
62F
330
62C
100
AcDbEntity
  8
001
370
    50
100
AcDbVertex
100
AcDb2dVertex
 10
124.687775
 20
349.381029
 30
0.0
  0
VERTEX
  5
630
330
62C
100
AcDbEntity
  8
001
370
    50
100
AcDbVertex
100
AcDb2dVertex
 10
124.640601
 20
349.382504
 30
0.0
  0
VERTEX
  5
631
330
62C
100
AcDbEntity
  8
001
370
    50
100
AcDbVertex
100
AcDb2dVertex
 10
124.562648
 20
349.379
 30
0.0
  0
VERTEX
  5
632
330
62C
100
AcDbEntity
  8
001
370
    50
100
AcDbVertex
100
AcDb2dVertex
 10
124.484999
 20
349.367601
 30
0.0
  0
VERTEX
  5
633
330
62C
100
AcDbEntity
  8
001
370
    50
100
AcDbVertex
100
AcDb2dVertex
 10
124.408479
 20
349.34817
 30
0.0
  0
VERTEX
  5
634
330
62C
100
AcDbEntity
  8
001
370
    50
100
AcDbVertex
100
AcDb2dVertex
 10
124.33546
 20
349.322613
 30
0.0
  0
VERTEX
  5
635
330
62C
100
AcDbEntity
  8
001
370
    50
100
AcDbVertex
100
AcDb2dVertex
 10
124.267142
 20
349.291683
 30
0.0
  0
VERTEX
  5
636
330
62C
100
AcDbEntity
  8
001
370
    50
100
AcDbVertex
100
AcDb2dVertex
 10
124.197732
 20
349.249266
 30
0.0
  0
VERTEX
  5
637
330
62C
100
AcDbEntity
  8
001
370
    50
100
AcDbVertex
100
AcDb2dVertex
 10
124.12621
 20
349.194031
 30
0.0
  0
VERTEX
  5
638
330
62C
100
AcDbEntity
  8
001
370
    50
100
AcDbVertex
100
AcDb2dVertex
 10
124.077107
 20
349.15038
 30
0.0
  0
SEQEND
  5
62D
330
62C
100
AcDbEntity
  8
001
370
    50
  0
LINE
  5
639
330
1F
100
AcDbEntity
  8
001
370
    50
100
AcDbLine
 10
126.81732
 20
333.930081
 30
0.0
 11
241.688178
 21
333.930081
 31
0.0
  0
LINE
  5
63A
330
1F
100
AcDbEntity
  8
001
370
     9
100
AcDbLine
 10
115.687268
 20
325.589665
 30
0.0
 11
115.687268
 21
340.4315
 31
0.0
  0
LINE
  5
63B
330
1F
100
AcDbEntity
  8
001
370
     9
100
AcDbLine
 10
124.338482
 20
331.780285
 30
0.0
 11
102.455357
 21
331.780285
 31
0.0
  0
LINE
  5
63C
330
1F
100
AcDbEntity
  8
001
370
    50
100
AcDbLine
 10
120.91522
 20
334.871668
 30
0.0
 11
120.875065
 21
334.968082
 31
0.0
  0
LINE
  5
63D
330
1F
100
AcDbEntity
  8
001
370
    50
100
AcDbLine
 10
118.778651
 20
337.008237
 30
0.0
 11
115.922493
 21
339.864395
 31
0.0
  0
LINE
  5
63E
330
1F
100
AcDbEntity
  8
001
370
    50
100
AcDbLine
 10
120.91522
 20
334.871668
 30
0.0
 11
123.771378
 21
332.01551
 31
0.0
  0
CIRCLE
  5
63F
330
1F
100
AcDbEntity
  8
001
370
    50
100
AcDbCircle
 10
124.302367
 20
340.395384
 30
0.0
 40
2.600039226781906
  0
LINE
  5
640
330
1F
100
AcDbEntity
  8
001
370
    50
100
AcDbLine
 10
131.084071
 20
338.196832
 30
0.0
 11
124.89965
 21
332.012411
 31
0.0
  0
LINE
  5
641
330
1F
100
AcDbEntity
  8
001
370
    50
100
AcDbLine
 10
118.743955
 20
343.817228
 30
0.0
 11
115.919394
 21
340.992667
 31
0.0
  0
LINE
  5
642
330
1F
100
AcDbEntity
  8
001
370
    50
100
AcDbLine
 10
127.709713
 20
345.939298
 30
0.0
 11
124.853554
 21
348.795457
 31
0.0
  0
LINE
  5
643
330
1F
100
AcDbEntity
  8
001
370
    50
100
AcDbLine
 10
129.846281
 20
343.80273
 30
0.0
 11
132.70244
 21
340.946571
 31
0.0
  0
ARC
  5
644
330
1F
100
AcDbEntity
  8
001
370
    50
100
AcDbCircle
 10
118.875065
 20
334.968082
 30
0.0
 40
2.0
100
AcDbArc
 50
360.0
 51
90.0
  0
LINE
  5
645
330
1F
100
AcDbEntity
  8
001
370
    50
100
AcDbLine
 10
127.724211
 20
334.836972
 30
0.0
 11
127.764366
 21
334.933385
 31
0.0
  0
LINE
  5
646
330
1F
100
AcDbEntity
  8
001
370
    50
100
AcDbLine
 10
129.860779
 20
336.97354
 30
0.0
 11
129.764366
 21
336.933385
 31
0.0
  0
ARC
  5
647
330
1F
100
AcDbEntity
  8
001
370
    50
100
AcDbCircle
 10
129.764366
 20
334.933385
 30
0.0
 40
2.0
100
AcDbArc
 50
90.0
 51
180.0
  0
LINE
  5
648
330
1F
100
AcDbEntity
  8
001
370
    50
100
AcDbLine
 10
129.846281
 20
343.80273
 30
0.0
 11
129.749868
 21
343.842885
 31
0.0
  0
LINE
  5
649
330
1F
100
AcDbEntity
  8
001
370
    50
100
AcDbLine
 10
127.709713
 20
345.939298
 30
0.0
 11
127.749868
 21
345.842885
 31
0.0
  0
ARC
  5
64A
330
1F
100
AcDbEntity
  8
001
370
    50
100
AcDbCircle
 10
129.749868
 20
345.842885
 30
0.0
 40
2.0
100
AcDbArc
 50
180.0
 51
270.0
  0
LINE
  5
64B
330
1F
100
AcDbEntity
  8
001
370
    50
100
AcDbLine
 10
120.880523
 20
345.953797
 30
0.0
 11
120.840368
 21
345.857383
 31
0.0
  0
LINE
  5
64C
330
1F
100
AcDbEntity
  8
001
370
    50
100
AcDbLine
 10
118.743955
 20
343.817228
 30
0.0
 11
118.840368
 21
343.857383
 31
0.0
  0
ARC
  5
64D
330
1F
100
AcDbEntity
  8
001
370
    50
100
AcDbCircle
 10
118.840368
 20
345.857383
 30
0.0
 40
2.0
100
AcDbArc
 50
270.0
 51
0.0
  0
TEXT
  5
64E
330
1F
100
AcDbEntity
  8
001
370
    30
100
AcDbText
 10
113.916036
 20
377.523865
 30
0.0
 40
10.0
  1
Ｒバイト　２０ＸＲ　（２Ｒ）
 41
0.833333
100
AcDbText
  0
POLYLINE
  5
64F
330
1F
100
AcDbEntity
  8
001
370
    50
100
AcDb2dPolyline
 66
     1
 10
0.0
 20
0.0
 30
0.0
  0
VERTEX
  5
651
330
64F
100
AcDbEntity
  8
001
370
    50
100
AcDbVertex
100
AcDb2dVertex
 10
123.771378
 20
444.767256
 30
0.0
  0
VERTEX
  5
652
330
64F
100
AcDbEntity
  8
001
370
    50
100
AcDbVertex
100
AcDb2dVertex
 10
123.820717
 20
444.723337
 30
0.0
  0
VERTEX
  5
653
330
64F
100
AcDbEntity
  8
001
370
    50
100
AcDbVertex
100
AcDb2dVertex
 10
123.892548
 20
444.667706
 30
0.0
  0
VERTEX
  5
654
330
64F
100
AcDbEntity
  8
001
370
    50
100
AcDbVertex
100
AcDb2dVertex
 10
123.962168
 20
444.624921
 30
0.0
  0
VERTEX
  5
655
330
64F
100
AcDbEntity
  8
001
370
    50
100
AcDbVertex
100
AcDb2dVertex
 10
124.030681
 20
444.593601
 30
0.0
  0
VERTEX
  5
656
330
64F
100
AcDbEntity
  8
001
370
    50
100
AcDbVertex
100
AcDb2dVertex
 10
124.10381
 20
444.56765
 30
0.0
  0
VERTEX
  5
657
330
64F
100
AcDbEntity
  8
001
370
    50
100
AcDbVertex
100
AcDb2dVertex
 10
124.180469
 20
444.54779
 30
0.0
  0
VERTEX
  5
658
330
64F
100
AcDbEntity
  8
001
370
    50
100
AcDbVertex
100
AcDb2dVertex
 10
124.258141
 20
444.535971
 30
0.0
  0
VERTEX
  5
659
330
64F
100
AcDbEntity
  8
001
370
    50
100
AcDbVertex
100
AcDb2dVertex
 10
124.336156
 20
444.532033
 30
0.0
  0
VERTEX
  5
65A
330
64F
100
AcDbEntity
  8
001
370
    50
100
AcDbVertex
100
AcDb2dVertex
 10
124.414109
 20
444.535537
 30
0.0
  0
VERTEX
  5
65B
330
64F
100
AcDbEntity
  8
001
370
    50
100
AcDbVertex
100
AcDb2dVertex
 10
124.491759
 20
444.546936
 30
0.0
  0
VERTEX
  5
65C
330
64F
100
AcDbEntity
  8
001
370
    50
100
AcDbVertex
100
AcDb2dVertex
 10
124.568278
 20
444.566367
 30
0.0
  0
VERTEX
  5
65D
330
64F
100
AcDbEntity
  8
001
370
    50
100
AcDbVertex
100
AcDb2dVertex
 10
124.641297
 20
444.591924
 30
0.0
  0
VERTEX
  5
65E
330
64F
100
AcDbEntity
  8
001
370
    50
100
AcDbVertex
100
AcDb2dVertex
 10
124.709615
 20
444.622854
 30
0.0
  0
VERTEX
  5
65F
330
64F
100
AcDbEntity
  8
001
370
    50
100
AcDbVertex
100
AcDb2dVertex
 10
124.779025
 20
444.665271
 30
0.0
  0
VERTEX
  5
660
330
64F
100
AcDbEntity
  8
001
370
    50
100
AcDbVertex
100
AcDb2dVertex
 10
124.850547
 20
444.720506
 30
0.0
  0
VERTEX
  5
661
330
64F
100
AcDbEntity
  8
001
370
    50
100
AcDbVertex
100
AcDb2dVertex
 10
124.89965
 20
444.764157
 30
0.0
  0
SEQEND
  5
650
330
64F
100
AcDbEntity
  8
001
370
    50
  0
LINE
  5
662
330
1F
100
AcDbEntity
  8
001
370
    50
100
AcDbLine
 10
118.375065
 20
450.219828
 30
0.0
 11
118.278651
 21
450.259982
 31
0.0
  0
POLYLINE
  5
663
330
1F
100
AcDbEntity
  8
001
370
    50
100
AcDb2dPolyline
 66
     1
 10
0.0
 20
0.0
 30
0.0
  0
VERTEX
  5
665
330
663
100
AcDbEntity
  8
001
370
    50
100
AcDbVertex
100
AcDb2dVertex
 10
115.919394
 20
453.744413
 30
0.0
  0
VERTEX
  5
666
330
663
100
AcDbEntity
  8
001
370
    50
100
AcDbVertex
100
AcDb2dVertex
 10
115.875743
 20
453.69531
 30
0.0
  0
VERTEX
  5
667
330
663
100
AcDbEntity
  8
001
370
    50
100
AcDbVertex
100
AcDb2dVertex
 10
115.820508
 20
453.623788
 30
0.0
  0
VERTEX
  5
668
330
663
100
AcDbEntity
  8
001
370
    50
100
AcDbVertex
100
AcDb2dVertex
 10
115.778091
 20
453.554378
 30
0.0
  0
VERTEX
  5
669
330
663
100
AcDbEntity
  8
001
370
    50
100
AcDbVertex
100
AcDb2dVertex
 10
115.747162
 20
453.48606
 30
0.0
  0
VERTEX
  5
66A
330
663
100
AcDbEntity
  8
001
370
    50
100
AcDbVertex
100
AcDb2dVertex
 10
115.721605
 20
453.413041
 30
0.0
  0
VERTEX
  5
66B
330
663
100
AcDbEntity
  8
001
370
    50
100
AcDbVertex
100
AcDb2dVertex
 10
115.702173
 20
453.336521
 30
0.0
  0
VERTEX
  5
66C
330
663
100
AcDbEntity
  8
001
370
    50
100
AcDbVertex
100
AcDb2dVertex
 10
115.690775
 20
453.258872
 30
0.0
  0
VERTEX
  5
66D
330
663
100
AcDbEntity
  8
001
370
    50
100
AcDbVertex
100
AcDb2dVertex
 10
115.687271
 20
453.180919
 30
0.0
  0
VERTEX
  5
66E
330
663
100
AcDbEntity
  8
001
370
    50
100
AcDbVertex
100
AcDb2dVertex
 10
115.691209
 20
453.102903
 30
0.0
  0
VERTEX
  5
66F
330
663
100
AcDbEntity
  8
001
370
    50
100
AcDbVertex
100
AcDb2dVertex
 10
115.703028
 20
453.025232
 30
0.0
  0
VERTEX
  5
670
330
663
100
AcDbEntity
  8
001
370
    50
100
AcDbVertex
100
AcDb2dVertex
 10
115.722888
 20
452.948573
 30
0.0
  0
VERTEX
  5
671
330
663
100
AcDbEntity
  8
001
370
    50
100
AcDbVertex
100
AcDb2dVertex
 10
115.748839
 20
452.875444
 30
0.0
  0
VERTEX
  5
672
330
663
100
AcDbEntity
  8
001
370
    50
100
AcDbVertex
100
AcDb2dVertex
 10
115.780159
 20
452.80693
 30
0.0
  0
VERTEX
  5
673
330
663
100
AcDbEntity
  8
001
370
    50
100
AcDbVertex
100
AcDb2dVertex
 10
115.822943
 20
452.737311
 30
0.0
  0
VERTEX
  5
674
330
663
100
AcDbEntity
  8
001
370
    50
100
AcDbVertex
100
AcDb2dVertex
 10
115.878574
 20
452.66548
 30
0.0
  0
VERTEX
  5
675
330
663
100
AcDbEntity
  8
001
370
    50
100
AcDbVertex
100
AcDb2dVertex
 10
115.922493
 20
452.616141
 30
0.0
  0
SEQEND
  5
664
330
663
100
AcDbEntity
  8
001
370
    50
  0
POLYLINE
  5
676
330
1F
100
AcDbEntity
  8
001
370
    50
100
AcDb2dPolyline
 66
     1
 10
0.0
 20
0.0
 30
0.0
  0
VERTEX
  5
678
330
676
100
AcDbEntity
  8
001
370
    50
100
AcDbVertex
100
AcDb2dVertex
 10
124.853554
 20
461.547202
 30
0.0
  0
VERTEX
  5
679
330
676
100
AcDbEntity
  8
001
370
    50
100
AcDbVertex
100
AcDb2dVertex
 10
124.804215
 20
461.591121
 30
0.0
  0
VERTEX
  5
67A
330
676
100
AcDbEntity
  8
001
370
    50
100
AcDbVertex
100
AcDb2dVertex
 10
124.732385
 20
461.646752
 30
0.0
  0
VERTEX
  5
67B
330
676
100
AcDbEntity
  8
001
370
    50
100
AcDbVertex
100
AcDb2dVertex
 10
124.662765
 20
461.689536
 30
0.0
  0
VERTEX
  5
67C
330
676
100
AcDbEntity
  8
001
370
    50
100
AcDbVertex
100
AcDb2dVertex
 10
124.594252
 20
461.720856
 30
0.0
  0
VERTEX
  5
67D
330
676
100
AcDbEntity
  8
001
370
    50
100
AcDbVertex
100
AcDb2dVertex
 10
124.521122
 20
461.746807
 30
0.0
  0
VERTEX
  5
67E
330
676
100
AcDbEntity
  8
001
370
    50
100
AcDbVertex
100
AcDb2dVertex
 10
124.444463
 20
461.766667
 30
0.0
  0
VERTEX
  5
67F
330
676
100
AcDbEntity
  8
001
370
    50
100
AcDbVertex
100
AcDb2dVertex
 10
124.366792
 20
461.778486
 30
0.0
  0
VERTEX
  5
680
330
676
100
AcDbEntity
  8
001
370
    50
100
AcDbVertex
100
AcDb2dVertex
 10
124.288777
 20
461.782424
 30
0.0
  0
VERTEX
  5
681
330
676
100
AcDbEntity
  8
001
370
    50
100
AcDbVertex
100
AcDb2dVertex
 10
124.210823
 20
461.77892
 30
0.0
  0
VERTEX
  5
682
330
676
100
AcDbEntity
  8
001
370
    50
100
AcDbVertex
100
AcDb2dVertex
 10
124.133174
 20
461.767522
 30
0.0
  0
VERTEX
  5
683
330
676
100
AcDbEntity
  8
001
370
    50
100
AcDbVertex
100
AcDb2dVertex
 10
124.056654
 20
461.74809
 30
0.0
  0
VERTEX
  5
684
330
676
100
AcDbEntity
  8
001
370
    50
100
AcDbVertex
100
AcDb2dVertex
 10
123.983635
 20
461.722533
 30
0.0
  0
VERTEX
  5
685
330
676
100
AcDbEntity
  8
001
370
    50
100
AcDbVertex
100
AcDb2dVertex
 10
123.915317
 20
461.691604
 30
0.0
  0
VERTEX
  5
686
330
676
100
AcDbEntity
  8
001
370
    50
100
AcDbVertex
100
AcDb2dVertex
 10
123.845907
 20
461.649187
 30
0.0
  0
VERTEX
  5
687
330
676
100
AcDbEntity
  8
001
370
    50
100
AcDbVertex
100
AcDb2dVertex
 10
123.774385
 20
461.593952
 30
0.0
  0
VERTEX
  5
688
330
676
100
AcDbEntity
  8
001
370
    50
100
AcDbVertex
100
AcDb2dVertex
 10
123.725282
 20
461.550301
 30
0.0
  0
SEQEND
  5
677
330
676
100
AcDbEntity
  8
001
370
    50
  0
POLYLINE
  5
689
330
1F
100
AcDbEntity
  8
001
370
    50
100
AcDb2dPolyline
 66
     1
 10
0.0
 20
0.0
 30
0.0
  0
VERTEX
  5
68B
330
689
100
AcDbEntity
  8
001
370
    50
100
AcDbVertex
100
AcDb2dVertex
 10
132.705538
 20
452.570045
 30
0.0
  0
VERTEX
  5
68C
330
689
100
AcDbEntity
  8
001
370
    50
100
AcDbVertex
100
AcDb2dVertex
 10
132.749189
 20
452.619148
 30
0.0
  0
VERTEX
  5
68D
330
689
100
AcDbEntity
  8
001
370
    50
100
AcDbVertex
100
AcDb2dVertex
 10
132.804424
 20
452.69067
 30
0.0
  0
VERTEX
  5
68E
330
689
100
AcDbEntity
  8
001
370
    50
100
AcDbVertex
100
AcDb2dVertex
 10
132.846841
 20
452.76008
 30
0.0
  0
VERTEX
  5
68F
330
689
100
AcDbEntity
  8
001
370
    50
100
AcDbVertex
100
AcDb2dVertex
 10
132.877771
 20
452.828398
 30
0.0
  0
VERTEX
  5
690
330
689
100
AcDbEntity
  8
001
370
    50
100
AcDbVertex
100
AcDb2dVertex
 10
132.903328
 20
452.901417
 30
0.0
  0
VERTEX
  5
691
330
689
100
AcDbEntity
  8
001
370
    50
100
AcDbVertex
100
AcDb2dVertex
 10
132.92276
 20
452.977936
 30
0.0
  0
VERTEX
  5
692
330
689
100
AcDbEntity
  8
001
370
    50
100
AcDbVertex
100
AcDb2dVertex
 10
132.934158
 20
453.055586
 30
0.0
  0
VERTEX
  5
693
330
689
100
AcDbEntity
  8
001
370
    50
100
AcDbVertex
100
AcDb2dVertex
 10
132.937662
 20
453.133539
 30
0.0
  0
VERTEX
  5
694
330
689
100
AcDbEntity
  8
001
370
    50
100
AcDbVertex
100
AcDb2dVertex
 10
132.933724
 20
453.211554
 30
0.0
  0
VERTEX
  5
695
330
689
100
AcDbEntity
  8
001
370
    50
100
AcDbVertex
100
AcDb2dVertex
 10
132.921905
 20
453.289226
 30
0.0
  0
VERTEX
  5
696
330
689
100
AcDbEntity
  8
001
370
    50
100
AcDbVertex
100
AcDb2dVertex
 10
132.902045
 20
453.365885
 30
0.0
  0
VERTEX
  5
697
330
689
100
AcDbEntity
  8
001
370
    50
100
AcDbVertex
100
AcDb2dVertex
 10
132.876094
 20
453.439014
 30
0.0
  0
VERTEX
  5
698
330
689
100
AcDbEntity
  8
001
370
    50
100
AcDbVertex
100
AcDb2dVertex
 10
132.844774
 20
453.507528
 30
0.0
  0
VERTEX
  5
699
330
689
100
AcDbEntity
  8
001
370
    50
100
AcDbVertex
100
AcDb2dVertex
 10
132.801989
 20
453.577147
 30
0.0
  0
VERTEX
  5
69A
330
689
100
AcDbEntity
  8
001
370
    50
100
AcDbVertex
100
AcDb2dVertex
 10
132.746358
 20
453.648978
 30
0.0
  0
VERTEX
  5
69B
330
689
100
AcDbEntity
  8
001
370
    50
100
AcDbVertex
100
AcDb2dVertex
 10
132.70244
 20
453.698317
 30
0.0
  0
SEQEND
  5
68A
330
689
100
AcDbEntity
  8
001
370
    50
  0
LINE
  5
69C
330
1F
100
AcDbEntity
  8
001
370
    50
100
AcDbLine
 10
241.688178
 20
446.681826
 30
0.0
 11
241.688178
 21
465.681826
 31
0.0
  0
LINE
  5
69D
330
1F
100
AcDbEntity
  8
001
370
    50
100
AcDbLine
 10
139.752747
 20
446.681826
 30
0.0
 11
124.520463
 21
461.914111
 31
0.0
  0
LINE
  5
69E
330
1F
100
AcDbEntity
  8
001
370
    50
100
AcDbLine
 10
241.688178
 20
465.681826
 30
0.0
 11
128.288178
 21
465.681826
 31
0.0
  0
LINE
  5
69F
330
1F
100
AcDbEntity
  8
001
370
    50
100
AcDbLine
 10
128.288178
 20
465.681826
 30
0.0
 11
124.520463
 21
461.914111
 31
0.0
  0
LINE
  5
6A0
330
1F
100
AcDbEntity
  8
001
370
    50
100
AcDbLine
 10
129.110779
 20
448.975286
 30
0.0
 11
133.057363
 21
452.92187
 31
0.0
  0
LINE
  5
6A1
330
1F
100
AcDbEntity
  8
001
370
    50
100
AcDbLine
 10
121.380523
 20
459.205542
 30
0.0
 11
124.077107
 21
461.902126
 31
0.0
  0
POLYLINE
  5
6A2
330
1F
100
AcDbEntity
  8
001
370
    50
100
AcDb2dPolyline
 66
     1
 10
0.0
 20
0.0
 30
0.0
  0
VERTEX
  5
6A4
330
6A2
100
AcDbEntity
  8
001
370
    50
100
AcDbVertex
100
AcDb2dVertex
 10
133.057363
 20
452.92187
 30
0.0
  0
VERTEX
  5
6A5
330
6A2
100
AcDbEntity
  8
001
370
    50
100
AcDbVertex
100
AcDb2dVertex
 10
133.101014
 20
452.970972
 30
0.0
  0
VERTEX
  5
6A6
330
6A2
100
AcDbEntity
  8
001
370
    50
100
AcDbVertex
100
AcDb2dVertex
 10
133.156249
 20
453.042494
 30
0.0
  0
VERTEX
  5
6A7
330
6A2
100
AcDbEntity
  8
001
370
    50
100
AcDbVertex
100
AcDb2dVertex
 10
133.198666
 20
453.111904
 30
0.0
  0
VERTEX
  5
6A8
330
6A2
100
AcDbEntity
  8
001
370
    50
100
AcDbVertex
100
AcDb2dVertex
 10
133.229596
 20
453.180223
 30
0.0
  0
VERTEX
  5
6A9
330
6A2
100
AcDbEntity
  8
001
370
    50
100
AcDbVertex
100
AcDb2dVertex
 10
133.233064
 20
453.189116
 30
0.0
  0
VERTEX
  5
6AA
330
6A2
100
AcDbEntity
  8
001
370
    50
100
AcDbVertex
100
AcDb2dVertex
 10
133.236468
 20
453.198105
 30
0.0
  0
SEQEND
  5
6A3
330
6A2
100
AcDbEntity
  8
001
370
    50
  0
POLYLINE
  5
6AB
330
1F
100
AcDbEntity
  8
001
370
    50
100
AcDb2dPolyline
 66
     1
 10
0.0
 20
0.0
 30
0.0
  0
VERTEX
  5
6AD
330
6AB
100
AcDbEntity
  8
001
370
    50
100
AcDbVertex
100
AcDb2dVertex
 10
124.734869
 20
462.128517
 30
0.0
  0
VERTEX
  5
6AE
330
6AB
100
AcDbEntity
  8
001
370
    50
100
AcDbVertex
100
AcDb2dVertex
 10
124.687775
 20
462.132775
 30
0.0
  0
VERTEX
  5
6AF
330
6AB
100
AcDbEntity
  8
001
370
    50
100
AcDbVertex
100
AcDb2dVertex
 10
124.640601
 20
462.134249
 30
0.0
  0
VERTEX
  5
6B0
330
6AB
100
AcDbEntity
  8
001
370
    50
100
AcDbVertex
100
AcDb2dVertex
 10
124.562648
 20
462.130745
 30
0.0
  0
VERTEX
  5
6B1
330
6AB
100
AcDbEntity
  8
001
370
    50
100
AcDbVertex
100
AcDb2dVertex
 10
124.484999
 20
462.119347
 30
0.0
  0
VERTEX
  5
6B2
330
6AB
100
AcDbEntity
  8
001
370
    50
100
AcDbVertex
100
AcDb2dVertex
 10
124.408479
 20
462.099915
 30
0.0
  0
VERTEX
  5
6B3
330
6AB
100
AcDbEntity
  8
001
370
    50
100
AcDbVertex
100
AcDb2dVertex
 10
124.33546
 20
462.074358
 30
0.0
  0
VERTEX
  5
6B4
330
6AB
100
AcDbEntity
  8
001
370
    50
100
AcDbVertex
100
AcDb2dVertex
 10
124.267142
 20
462.043429
 30
0.0
  0
VERTEX
  5
6B5
330
6AB
100
AcDbEntity
  8
001
370
    50
100
AcDbVertex
100
AcDb2dVertex
 10
124.197732
 20
462.001012
 30
0.0
  0
VERTEX
  5
6B6
330
6AB
100
AcDbEntity
  8
001
370
    50
100
AcDbVertex
100
AcDb2dVertex
 10
124.12621
 20
461.945777
 30
0.0
  0
VERTEX
  5
6B7
330
6AB
100
AcDbEntity
  8
001
370
    50
100
AcDbVertex
100
AcDb2dVertex
 10
124.077107
 20
461.902126
 30
0.0
  0
SEQEND
  5
6AC
330
6AB
100
AcDbEntity
  8
001
370
    50
  0
LINE
  5
6B8
330
1F
100
AcDbEntity
  8
001
370
    50
100
AcDbLine
 10
126.81732
 20
446.681826
 30
0.0
 11
241.688178
 21
446.681826
 31
0.0
  0
LINE
  5
6B9
330
1F
100
AcDbEntity
  8
001
370
     9
100
AcDbLine
 10
115.687268
 20
438.34141
 30
0.0
 11
115.687268
 21
453.183245
 31
0.0
  0
LINE
  5
6BA
330
1F
100
AcDbEntity
  8
001
370
     9
100
AcDbLine
 10
124.338482
 20
444.53203
 30
0.0
 11
102.455357
 21
444.53203
 31
0.0
  0
LINE
  5
6BB
330
1F
100
AcDbEntity
  8
001
370
    50
100
AcDbLine
 10
118.278651
 20
450.259982
 30
0.0
 11
115.922493
 21
452.616141
 31
0.0
  0
LINE
  5
6BC
330
1F
100
AcDbEntity
  8
001
370
    50
100
AcDbLine
 10
121.41522
 20
447.123414
 30
0.0
 11
123.771378
 21
444.767256
 31
0.0
  0
CIRCLE
  5
6BD
330
1F
100
AcDbEntity
  8
001
370
    50
100
AcDbCircle
 10
124.302367
 20
453.14713
 30
0.0
 40
2.600039226781906
  0
LINE
  5
6BE
330
1F
100
AcDbEntity
  8
001
370
    50
100
AcDbLine
 10
131.084071
 20
450.948578
 30
0.0
 11
124.89965
 21
444.764157
 31
0.0
  0
LINE
  5
6BF
330
1F
100
AcDbEntity
  8
001
370
    50
100
AcDbLine
 10
118.243955
 20
456.068974
 30
0.0
 11
115.919394
 21
453.744413
 31
0.0
  0
LINE
  5
6C0
330
1F
100
AcDbEntity
  8
001
370
    50
100
AcDbLine
 10
127.209713
 20
459.191044
 30
0.0
 11
124.853554
 21
461.547202
 31
0.0
  0
LINE
  5
6C1
330
1F
100
AcDbEntity
  8
001
370
    50
100
AcDbLine
 10
130.346281
 20
456.054475
 30
0.0
 11
132.70244
 21
453.698317
 31
0.0
  0
TEXT
  5
6C2
330
1F
100
AcDbEntity
  8
001
370
    30
100
AcDbText
 10
113.916036
 20
490.275611
 30
0.0
 40
10.0
  1
Ｒバイト　２０ＸＲ　（３Ｒ）
 41
0.833333
100
AcDbText
  0
ARC
  5
6C3
330
1F
100
AcDbEntity
  8
001
370
    50
100
AcDbCircle
 10
118.375065
 20
447.219828
 30
0.0
 40
3.0
100
AcDbArc
 50
0.0
 51
90.0
  0
LINE
  5
6C4
330
1F
100
AcDbEntity
  8
001
370
    50
100
AcDbLine
 10
121.375065
 20
447.219828
 30
0.0
 11
121.41522
 21
447.123414
 31
0.0
  0
LINE
  5
6C5
330
1F
100
AcDbEntity
  8
001
370
    50
100
AcDbLine
 10
127.264366
 20
447.185131
 30
0.0
 11
127.224211
 21
447.088717
 31
0.0
  0
ARC
  5
6C6
330
1F
100
AcDbEntity
  8
001
370
    50
100
AcDbCircle
 10
130.264366
 20
447.185131
 30
0.0
 40
3.0
100
AcDbArc
 50
90.0
 51
180.0
  0
LINE
  5
6C7
330
1F
100
AcDbEntity
  8
001
370
    50
100
AcDbLine
 10
130.264366
 20
450.185131
 30
0.0
 11
130.360779
 21
450.225286
 31
0.0
  0
LINE
  5
6C8
330
1F
100
AcDbEntity
  8
001
370
    50
100
AcDbLine
 10
130.346281
 20
456.054475
 30
0.0
 11
130.249868
 21
456.09463
 31
0.0
  0
ARC
  5
6C9
330
1F
100
AcDbEntity
  8
001
370
    50
100
AcDbCircle
 10
130.249868
 20
459.09463
 30
0.0
 40
3.0
100
AcDbArc
 50
180.0
 51
270.0
  0
LINE
  5
6CA
330
1F
100
AcDbEntity
  8
001
370
    50
100
AcDbLine
 10
127.209713
 20
459.191044
 30
0.0
 11
127.249868
 21
459.09463
 31
0.0
  0
LINE
  5
6CB
330
1F
100
AcDbEntity
  8
001
370
    50
100
AcDbLine
 10
121.380523
 20
459.205542
 30
0.0
 11
121.340368
 21
459.109128
 31
0.0
  0
ARC
  5
6CC
330
1F
100
AcDbEntity
  8
001
370
    50
100
AcDbCircle
 10
118.340368
 20
459.109128
 30
0.0
 40
3.0
100
AcDbArc
 50
270.0
 51
360.0
  0
LINE
  5
6CD
330
1F
100
AcDbEntity
  8
001
370
    50
100
AcDbLine
 10
118.243955
 20
456.068974
 30
0.0
 11
118.340368
 21
456.109128
 31
0.0
  0
ENDSEC
  0
SECTION
  2
OBJECTS
  0
DICTIONARY
  5
C
330
0
100
AcDbDictionary
281
     1
  3
ACAD_GROUP
350
D
  3
ACAD_LAYOUT
350
1A
  3
ACAD_MLEADERSTYLE
350
6D1
  3
ACAD_MLINESTYLE
350
17
  3
ACAD_PLOTSETTINGS
350
19
  3
ACAD_PLOTSTYLENAME
350
E
  3
ACAD_SCALELIST
350
3B
  3
ACAD_TABLESTYLE
350
6D0
  3
ACAD_VISUALSTYLE
350
2A
  3
AcDbVariableDictionary
350
6CE
  0
DICTIONARY
  5
D
102
{ACAD_REACTORS
330
C
102
}
330
C
100
AcDbDictionary
281
     1
  0
DICTIONARY
  5
1A
102
{ACAD_REACTORS
330
C
102
}
330
C
100
AcDbDictionary
281
     1
  3
Layout1
350
1E
  3
Layout2
350
26
  3
Model
350
22
  0
DICTIONARY
  5
6D1
102
{ACAD_REACTORS
330
C
102
}
330
C
100
AcDbDictionary
281
     1
  0
DICTIONARY
  5
17
102
{ACAD_REACTORS
330
C
102
}
330
C
100
AcDbDictionary
281
     1
  3
Standard
350
18
  0
DICTIONARY
  5
19
102
{ACAD_REACTORS
330
C
102
}
330
C
100
AcDbDictionary
281
     1
  0
ACDBDICTIONARYWDFLT
  5
E
102
{ACAD_REACTORS
330
C
102
}
330
C
100
AcDbDictionary
281
     1
  3
Normal
350
F
100
AcDbDictionaryWithDefault
340
F
  0
DICTIONARY
  5
3B
102
{ACAD_REACTORS
330
C
102
}
330
C
100
AcDbDictionary
281
     1
  3
A0
350
3C
  3
A1
350
3D
  3
A2
350
3E
  3
A3
350
3F
  3
A4
350
40
  3
A5
350
41
  3
A6
350
42
  3
A7
350
43
  3
A8
350
44
  3
A9
350
45
  3
B0
350
46
  3
B1
350
47
  3
B2
350
48
  3
B3
350
49
  3
B4
350
4A
  3
B5
350
4B
  3
B6
350
4C
  3
B7
350
4D
  3
B8
350
4E
  3
B9
350
4F
  3
C0
350
50
  3
C1
350
51
  3
C2
350
52
  3
C3
350
53
  3
C4
350
54
  3
C5
350
55
  3
C6
350
56
  3
C7
350
57
  3
C8
350
58
  3
C9
350
59
  3
D0
350
5A
  3
D1
350
5B
  3
D2
350
5C
  0
DICTIONARY
  5
6D0
102
{ACAD_REACTORS
330
C
102
}
330
C
100
AcDbDictionary
281
     1
  0
DICTIONARY
  5
2A
102
{ACAD_REACTORS
330
C
102
}
330
C
100
AcDbDictionary
281
     1
  3
2dWireframe
350
2F
  3
3D Hidden
350
31
  3
3dWireframe
350
30
  3
Basic
350
32
  3
Brighten
350
36
  3
ColorChange
350
3A
  3
Conceptual
350
34
  3
Dim
350
35
  3
Facepattern
350
39
  3
Flat
350
2B
  3
FlatWithEdges
350
2C
  3
Gouraud
350
2D
  3
GouraudWithEdges
350
2E
  3
Linepattern
350
38
  3
Realistic
350
33
  3
Thicken
350
37
  0
DICTIONARY
  5
6CE
102
{ACAD_REACTORS
330
C
102
}
330
C
100
AcDbDictionary
281
     1
  3
CANNOSCALE
350
6CF
  3
PSOLHEIGHT
350
6D3
  3
PSOLWIDTH
350
6D2
  0
LAYOUT
  5
1E
102
{ACAD_REACTORS
330
1A
102
}
330
1A
100
AcDbPlotSettings
  1

  2
none_device
  4

  6

 40
0.0
 41
0.0
 42
0.0
 43
0.0
 44
0.0
 45
0.0
 46
0.0
 47
0.0
 48
0.0
 49
0.0
140
0.0
141
0.0
142
1.0
143
1.0
 70
   688
 72
     0
 73
     0
 74
     5
  7

 75
    16
147
1.0
148
0.0
149
0.0
100
AcDbLayout
  1
Layout1
 70
     1
 71
     1
 10
0.0
 20
0.0
 11
12.0
 21
9.0
 12
0.0
 22
0.0
 32
0.0
 14
1.000000E+20
 24
1.000000E+20
 34
0.0
 15
-1.000000E+20
 25
-1.000000E+20
 35
0.0
146
0.0
 13
0.0
 23
0.0
 33
0.0
 16
1.0
 26
0.0
 36
0.0
 17
0.0
 27
1.0
 37
0.0
 76
     0
330
1B
  0
LAYOUT
  5
26
102
{ACAD_REACTORS
330
1A
102
}
330
1A
100
AcDbPlotSettings
  1

  2
none_device
  4

  6

 40
0.0
 41
0.0
 42
0.0
 43
0.0
 44
0.0
 45
0.0
 46
0.0
 47
0.0
 48
0.0
 49
0.0
140
0.0
141
0.0
142
1.0
143
1.0
 70
   688
 72
     0
 73
     0
 74
     5
  7

 75
    16
147
1.0
148
0.0
149
0.0
100
AcDbLayout
  1
Layout2
 70
     1
 71
     2
 10
0.0
 20
0.0
 11
0.0
 21
0.0
 12
0.0
 22
0.0
 32
0.0
 14
0.0
 24
0.0
 34
0.0
 15
0.0
 25
0.0
 35
0.0
146
0.0
 13
0.0
 23
0.0
 33
0.0
 16
1.0
 26
0.0
 36
0.0
 17
0.0
 27
1.0
 37
0.0
 76
     0
330
23
  0
LAYOUT
  5
22
102
{ACAD_REACTORS
330
1A
102
}
330
1A
100
AcDbPlotSettings
  1

  2
none_device
  4

  6

 40
0.0
 41
0.0
 42
0.0
 43
0.0
 44
0.0
 45
0.0
 46
0.0
 47
0.0
 48
0.0
 49
0.0
140
0.0
141
0.0
142
1.0
143
1.0
 70
  1712
 72
     0
 73
     0
 74
     0
  7

 75
     0
147
1.0
148
0.0
149
0.0
100
AcDbLayout
  1
Model
 70
     1
 71
     0
 10
0.0
 20
0.0
 11
12.0
 21
9.0
 12
0.0
 22
0.0
 32
0.0
 14
93.812355
 24
21.327652
 34
0.0
 15
268.916046
 25
500.275635
 35
0.0
146
0.0
 13
0.0
 23
0.0
 33
0.0
 16
1.0
 26
0.0
 36
0.0
 17
0.0
 27
1.0
 37
0.0
 76
     0
330
1F
331
29
  0
MLINESTYLE
  5
18
102
{ACAD_REACTORS
330
17
102
}
330
17
100
AcDbMlineStyle
  2
Standard
 70
     0
  3

 62
   256
 51
90.0
 52
90.0
 71
     2
 49
0.5
 62
   256
  6
BYLAYER
 49
-0.5
 62
   256
  6
BYLAYER
  0
ACDBPLACEHOLDER
  5
F
102
{ACAD_REACTORS
330
E
102
}
330
E
  0
SCALE
  5
3C
102
{ACAD_REACTORS
330
3B
102
}
330
3B
100
AcDbScale
 70
     0
300
1:1
140
1.0
141
1.0
290
     1
  0
SCALE
  5
3D
102
{ACAD_REACTORS
330
3B
102
}
330
3B
100
AcDbScale
 70
     0
300
1:2
140
1.0
141
2.0
290
     0
  0
SCALE
  5
3E
102
{ACAD_REACTORS
330
3B
102
}
330
3B
100
AcDbScale
 70
     0
300
1:4
140
1.0
141
4.0
290
     0
  0
SCALE
  5
3F
102
{ACAD_REACTORS
330
3B
102
}
330
3B
100
AcDbScale
 70
     0
300
1:5
140
1.0
141
5.0
290
     0
  0
SCALE
  5
40
102
{ACAD_REACTORS
330
3B
102
}
330
3B
100
AcDbScale
 70
     0
300
1:8
140
1.0
141
8.0
290
     0
  0
SCALE
  5
41
102
{ACAD_REACTORS
330
3B
102
}
330
3B
100
AcDbScale
 70
     0
300
1:10
140
1.0
141
10.0
290
     0
  0
SCALE
  5
42
102
{ACAD_REACTORS
330
3B
102
}
330
3B
100
AcDbScale
 70
     0
300
1:16
140
1.0
141
16.0
290
     0
  0
SCALE
  5
43
102
{ACAD_REACTORS
330
3B
102
}
330
3B
100
AcDbScale
 70
     0
300
1:20
140
1.0
141
20.0
290
     0
  0
SCALE
  5
44
102
{ACAD_REACTORS
330
3B
102
}
330
3B
100
AcDbScale
 70
     0
300
1:30
140
1.0
141
30.0
290
     0
  0
SCALE
  5
45
102
{ACAD_REACTORS
330
3B
102
}
330
3B
100
AcDbScale
 70
     0
300
1:40
140
1.0
141
40.0
290
     0
  0
SCALE
  5
46
102
{ACAD_REACTORS
330
3B
102
}
330
3B
100
AcDbScale
 70
     0
300
1:50
140
1.0
141
50.0
290
     0
  0
SCALE
  5
47
102
{ACAD_REACTORS
330
3B
102
}
330
3B
100
AcDbScale
 70
     0
300
1:100
140
1.0
141
100.0
290
     0
  0
SCALE
  5
48
102
{ACAD_REACTORS
330
3B
102
}
330
3B
100
AcDbScale
 70
     0
300
2:1
140
2.0
141
1.0
290
     0
  0
SCALE
  5
49
102
{ACAD_REACTORS
330
3B
102
}
330
3B
100
AcDbScale
 70
     0
300
4:1
140
4.0
141
1.0
290
     0
  0
SCALE
  5
4A
102
{ACAD_REACTORS
330
3B
102
}
330
3B
100
AcDbScale
 70
     0
300
8:1
140
8.0
141
1.0
290
     0
  0
SCALE
  5
4B
102
{ACAD_REACTORS
330
3B
102
}
330
3B
100
AcDbScale
 70
     0
300
10:1
140
10.0
141
1.0
290
     0
  0
SCALE
  5
4C
102
{ACAD_REACTORS
330
3B
102
}
330
3B
100
AcDbScale
 70
     0
300
100:1
140
100.0
141
1.0
290
     0
  0
SCALE
  5
4D
102
{ACAD_REACTORS
330
3B
102
}
330
3B
100
AcDbScale
 70
     0
300
1/128" = 1'-0"
140
0.007812
141
12.0
290
     0
  0
SCALE
  5
4E
102
{ACAD_REACTORS
330
3B
102
}
330
3B
100
AcDbScale
 70
     0
300
1/64" = 1'-0"
140
0.015625
141
12.0
290
     0
  0
SCALE
  5
4F
102
{ACAD_REACTORS
330
3B
102
}
330
3B
100
AcDbScale
 70
     0
300
1/32" = 1'-0"
140
0.03125
141
12.0
290
     0
  0
SCALE
  5
50
102
{ACAD_REACTORS
330
3B
102
}
330
3B
100
AcDbScale
 70
     0
300
1/16" = 1'-0"
140
0.0625
141
12.0
290
     0
  0
SCALE
  5
51
102
{ACAD_REACTORS
330
3B
102
}
330
3B
100
AcDbScale
 70
     0
300
3/32" = 1'-0"
140
0.09375
141
12.0
290
     0
  0
SCALE
  5
52
102
{ACAD_REACTORS
330
3B
102
}
330
3B
100
AcDbScale
 70
     0
300
1/8" = 1'-0"
140
0.125
141
12.0
290
     0
  0
SCALE
  5
53
102
{ACAD_REACTORS
330
3B
102
}
330
3B
100
AcDbScale
 70
     0
300
3/16" = 1'-0"
140
0.1875
141
12.0
290
     0
  0
SCALE
  5
54
102
{ACAD_REACTORS
330
3B
102
}
330
3B
100
AcDbScale
 70
     0
300
1/4" = 1'-0"
140
0.25
141
12.0
290
     0
  0
SCALE
  5
55
102
{ACAD_REACTORS
330
3B
102
}
330
3B
100
AcDbScale
 70
     0
300
3/8" = 1'-0"
140
0.375
141
12.0
290
     0
  0
SCALE
  5
56
102
{ACAD_REACTORS
330
3B
102
}
330
3B
100
AcDbScale
 70
     0
300
1/2" = 1'-0"
140
0.5
141
12.0
290
     0
  0
SCALE
  5
57
102
{ACAD_REACTORS
330
3B
102
}
330
3B
100
AcDbScale
 70
     0
300
3/4" = 1'-0"
140
0.75
141
12.0
290
     0
  0
SCALE
  5
58
102
{ACAD_REACTORS
330
3B
102
}
330
3B
100
AcDbScale
 70
     0
300
1" = 1'-0"
140
1.0
141
12.0
290
     0
  0
SCALE
  5
59
102
{ACAD_REACTORS
330
3B
102
}
330
3B
100
AcDbScale
 70
     0
300
1-1/2" = 1'-0"
140
1.5
141
12.0
290
     0
  0
SCALE
  5
5A
102
{ACAD_REACTORS
330
3B
102
}
330
3B
100
AcDbScale
 70
     0
300
3" = 1'-0"
140
3.0
141
12.0
290
     0
  0
SCALE
  5
5B
102
{ACAD_REACTORS
330
3B
102
}
330
3B
100
AcDbScale
 70
     0
300
6" = 1'-0"
140
6.0
141
12.0
290
     0
  0
SCALE
  5
5C
102
{ACAD_REACTORS
330
3B
102
}
330
3B
100
AcDbScale
 70
     0
300
1'-0" = 1'-0"
140
12.0
141
12.0
290
     0
  0
VISUALSTYLE
  5
2F
102
{ACAD_REACTORS
330
2A
102
}
330
2A
100
AcDbVisualStyle
  2
2dWireframe
 70
     4
 71
     0
 72
     2
 73
     0
 90
        0
 40
-0.6
 41
-30.0
 62
     5
 63
     7
 74
     1
 91
        4
 64
     7
 65
   257
 75
     1
175
     1
 42
1.0
 92
        0
 66
   257
 43
1.0
 76
     1
 77
     6
 78
     2
 67
     7
 79
     5
170
     0
171
     0
290
     0
174
     0
 93
        1
 44
0.0
173
     0
291
     0
 45
0.0
1001
ACAD
1000
AcDbSavedByObjectVersion
1070
     0
  0
VISUALSTYLE
  5
31
102
{ACAD_REACTORS
330
2A
102
}
330
2A
100
AcDbVisualStyle
  2
3D Hidden
 70
     6
 71
     1
 72
     2
 73
     2
 90
        0
 40
-0.6
 41
-30.0
 62
     5
 63
     7
 74
     2
 91
        2
 64
     7
 65
   257
 75
     2
175
     1
 42
40.0
 92
        0
 66
   257
 43
1.0
 76
     1
 77
     6
 78
     2
 67
     7
 79
     3
170
     0
171
     0
290
     0
174
     0
 93
        1
 44
0.0
173
     0
291
     0
 45
0.0
1001
ACAD
1000
AcDbSavedByObjectVersion
1070
     0
  0
VISUALSTYLE
  5
30
102
{ACAD_REACTORS
330
2A
102
}
330
2A
100
AcDbVisualStyle
  2
3dWireframe
 70
     5
 71
     0
 72
     2
 73
     0
 90
        0
 40
-0.6
 41
-30.0
 62
     5
 63
     7
 74
     1
 91
        4
 64
     7
 65
   257
 75
     1
175
     1
 42
1.0
 92
        0
 66
   257
 43
1.0
 76
     1
 77
     6
 78
     2
 67
     7
 79
     5
170
     0
171
     0
290
     0
174
     0
 93
        1
 44
0.0
173
     0
291
     0
 45
0.0
1001
ACAD
1000
AcDbSavedByObjectVersion
1070
     0
  0
VISUALSTYLE
  5
32
102
{ACAD_REACTORS
330
2A
102
}
330
2A
100
AcDbVisualStyle
  2
Basic
 70
     7
 71
     1
 72
     0
 73
     1
 90
        0
 40
-0.6
 41
-30.0
 62
     5
 63
     7
 74
     0
 91
        4
 64
     7
 65
   257
 75
     1
175
     1
 42
1.0
 92
        8
 66
     7
 43
1.0
 76
     1
 77
     6
 78
     2
 67
     7
 79
     5
170
     0
171
     0
290
     0
174
     0
 93
        1
 44
0.0
173
     0
291
     1
 45
0.0
1001
ACAD
1000
AcDbSavedByObjectVersion
1070
     0
  0
VISUALSTYLE
  5
36
102
{ACAD_REACTORS
330
2A
102
}
330
2A
100
AcDbVisualStyle
  2
Brighten
 70
    12
 71
     2
 72
     2
 73
     0
 90
        0
 40
-0.6
 41
-30.0
 62
     5
 63
     7
 74
     1
 91
        4
 64
     7
 65
   257
 75
     1
175
     1
 42
1.0
 92
        8
 66
     7
 43
1.0
 76
     1
 77
     6
 78
     2
 67
     7
 79
     5
170
     0
171
     0
290
     0
174
     0
 93
        1
 44
50.0
173
     0
291
     1
 45
0.0
1001
ACAD
1000
AcDbSavedByObjectVersion
1070
     0
  0
VISUALSTYLE
  5
3A
102
{ACAD_REACTORS
330
2A
102
}
330
2A
100
AcDbVisualStyle
  2
ColorChange
 70
    16
 71
     2
 72
     2
 73
     3
 90
        0
 40
-0.6
 41
-30.0
 62
     5
 63
     8
 74
     1
 91
        4
 64
     7
 65
   257
 75
     1
175
     1
 42
1.0
 92
        8
 66
     8
 43
1.0
 76
     1
 77
     6
 78
     2
 67
     7
 79
     5
170
     0
171
     0
290
     0
174
     0
 93
        1
 44
0.0
173
     0
291
     1
 45
0.0
1001
ACAD
1000
AcDbSavedByObjectVersion
1070
     0
  0
VISUALSTYLE
  5
34
102
{ACAD_REACTORS
330
2A
102
}
330
2A
100
AcDbVisualStyle
  2
Conceptual
 70
     9
 71
     3
 72
     2
 73
     0
 90
        0
 40
-0.6
 41
-30.0
 62
     5
 63
     7
 74
     2
 91
        2
 64
     7
 65
   257
 75
     1
175
     1
 42
40.0
 92
        8
 66
     7
 43
1.0
 76
     1
 77
     6
 78
     2
 67
     7
 79
     3
170
     0
171
     0
290
     0
174
     0
 93
        1
 44
0.0
173
     0
291
     0
 45
0.0
1001
ACAD
1000
AcDbSavedByObjectVersion
1070
     0
  0
VISUALSTYLE
  5
35
102
{ACAD_REACTORS
330
2A
102
}
330
2A
100
AcDbVisualStyle
  2
Dim
 70
    11
 71
     2
 72
     2
 73
     0
 90
        0
 40
-0.6
 41
-30.0
 62
     5
 63
     7
 74
     1
 91
        4
 64
     7
 65
   257
 75
     1
175
     1
 42
1.0
 92
        8
 66
     7
 43
1.0
 76
     1
 77
     6
 78
     2
 67
     7
 79
     5
170
     0
171
     0
290
     0
174
     0
 93
        1
 44
-50.0
173
     0
291
     1
 45
0.0
1001
ACAD
1000
AcDbSavedByObjectVersion
1070
     0
  0
VISUALSTYLE
  5
39
102
{ACAD_REACTORS
330
2A
102
}
330
2A
100
AcDbVisualStyle
  2
Facepattern
 70
    15
 71
     2
 72
     2
 73
     0
 90
        0
 40
-0.6
 41
-30.0
 62
     5
 63
     7
 74
     1
 91
        4
 64
     7
 65
   257
 75
     1
175
     1
 42
1.0
 92
        8
 66
     7
 43
1.0
 76
     1
 77
     6
 78
     2
 67
     7
 79
     5
170
     0
171
     0
290
     0
174
     0
 93
        1
 44
0.0
173
     0
291
     1
 45
0.0
1001
ACAD
1000
AcDbSavedByObjectVersion
1070
     0
  0
VISUALSTYLE
  5
2B
102
{ACAD_REACTORS
330
2A
102
}
330
2A
100
AcDbVisualStyle
  2
Flat
 70
     0
 71
     2
 72
     1
 73
     1
 90
        2
 40
-0.6
 41
30.0
 62
     5
 63
     7
 74
     0
 91
        4
 64
     7
 65
   257
 75
     1
175
     1
 42
1.0
 92
        8
 66
     7
 43
1.0
 76
     1
 77
     6
 78
     2
 67
     7
 79
     5
170
     0
171
     0
290
     0
174
     0
 93
       13
 44
0.0
173
     0
291
     1
 45
0.0
1001
ACAD
1000
AcDbSavedByObjectVersion
1070
     0
  0
VISUALSTYLE
  5
2C
102
{ACAD_REACTORS
330
2A
102
}
330
2A
100
AcDbVisualStyle
  2
FlatWithEdges
 70
     1
 71
     2
 72
     1
 73
     1
 90
        2
 40
-0.6
 41
30.0
 62
     5
 63
     7
 74
     1
 91
        4
 64
     7
 65
   257
 75
     1
175
     1
 42
1.0
 92
        0
 66
   257
 43
1.0
 76
     1
 77
     6
 78
     2
 67
     7
 79
     5
170
     0
171
     0
290
     0
174
     0
 93
       13
 44
0.0
173
     0
291
     1
 45
0.0
1001
ACAD
1000
AcDbSavedByObjectVersion
1070
     0
  0
VISUALSTYLE
  5
2D
102
{ACAD_REACTORS
330
2A
102
}
330
2A
100
AcDbVisualStyle
  2
Gouraud
 70
     2
 71
     2
 72
     2
 73
     1
 90
        2
 40
-0.6
 41
30.0
 62
     5
 63
     7
 74
     0
 91
        4
 64
     7
 65
   257
 75
     1
175
     1
 42
1.0
 92
        0
 66
     7
 43
1.0
 76
     1
 77
     6
 78
     2
 67
     7
 79
     5
170
     0
171
     0
290
     0
174
     0
 93
       13
 44
0.0
173
     0
291
     1
 45
0.0
1001
ACAD
1000
AcDbSavedByObjectVersion
1070
     0
  0
VISUALSTYLE
  5
2E
102
{ACAD_REACTORS
330
2A
102
}
330
2A
100
AcDbVisualStyle
  2
GouraudWithEdges
 70
     3
 71
     2
 72
     2
 73
     1
 90
        2
 40
-0.6
 41
30.0
 62
     5
 63
     7
 74
     1
 91
        4
 64
     7
 65
   257
 75
     1
175
     1
 42
1.0
 92
        0
 66
   257
 43
1.0
 76
     1
 77
     6
 78
     2
 67
     7
 79
     5
170
     0
171
     0
290
     0
174
     0
 93
       13
 44
0.0
173
     0
291
     1
 45
0.0
1001
ACAD
1000
AcDbSavedByObjectVersion
1070
     0
  0
VISUALSTYLE
  5
38
102
{ACAD_REACTORS
330
2A
102
}
330
2A
100
AcDbVisualStyle
  2
Linepattern
 70
    14
 71
     2
 72
     2
 73
     0
 90
        0
 40
-0.6
 41
-30.0
 62
     5
 63
     7
 74
     1
 91
        4
 64
     7
 65
   257
 75
     7
175
     7
 42
1.0
 92
        8
 66
     7
 43
1.0
 76
     1
 77
     6
 78
     2
 67
     7
 79
     5
170
     0
171
     0
290
     0
174
     0
 93
        1
 44
0.0
173
     0
291
     1
 45
0.0
1001
ACAD
1000
AcDbSavedByObjectVersion
1070
     0
  0
VISUALSTYLE
  5
33
102
{ACAD_REACTORS
330
2A
102
}
330
2A
100
AcDbVisualStyle
  2
Realistic
 70
     8
 71
     2
 72
     2
 73
     0
 90
        0
 40
-0.6
 41
-30.0
 62
     5
 63
     7
 74
     1
 91
        0
 64
     7
 65
   257
 75
     1
175
     1
 42
1.0
 92
        8
 66
     8
 43
1.0
 76
     1
 77
     6
 78
     2
 67
     7
 79
     5
170
     0
171
     0
290
     0
174
     0
 93
       13
 44
0.0
173
     0
291
     0
 45
0.0
1001
ACAD
1000
AcDbSavedByObjectVersion
1070
     0
  0
VISUALSTYLE
  5
37
102
{ACAD_REACTORS
330
2A
102
}
330
2A
100
AcDbVisualStyle
  2
Thicken
 70
    13
 71
     2
 72
     2
 73
     0
 90
        0
 40
-0.6
 41
-30.0
 62
     5
 63
     7
 74
     1
 91
        4
 64
     7
 65
   257
 75
     1
175
     1
 42
1.0
 92
       12
 66
     7
 43
1.0
 76
     1
 77
     6
 78
     2
 67
     7
 79
     5
170
     0
171
     0
290
     0
174
     0
 93
        1
 44
0.0
173
     0
291
     1
 45
0.0
1001
ACAD
1000
AcDbSavedByObjectVersion
1070
     0
  0
DICTIONARYVAR
  5
6CF
102
{ACAD_REACTORS
330
6CE
102
}
330
6CE
100
DictionaryVariables
280
     0
  1
1:1
  0
DICTIONARYVAR
  5
6D3
102
{ACAD_REACTORS
330
6CE
102
}
330
6CE
100
DictionaryVariables
280
     0
  1
80.000000
  0
DICTIONARYVAR
  5
6D2
102
{ACAD_REACTORS
330
6CE
102
}
330
6CE
100
DictionaryVariables
280
     0
  1
5.000000
  0
ENDSEC
  0
EOF
