  0
SECTION
  2
HEADER
  9
$ACADVER
  1
AC1015
  9
$ACADMAINTVER
 70
     6
  9
$DWGCODEPAGE
  3
ANSI_932
  9
$INSBASE
 10
0.0
 20
0.0
 30
0.0
  9
$EXTMIN
 10
-19.143097
 20
7.810181
 30
0.0
  9
$EXTMAX
 10
274.227844
 20
222.014221
 30
0.0
  9
$LIMMIN
 10
0.0
 20
0.0
  9
$LIMMAX
 10
12.0
 20
9.0
  9
$ORTHOMODE
 70
     0
  9
$REGENMODE
 70
     1
  9
$FILLMODE
 70
     1
  9
$QTEXTMODE
 70
     0
  9
$MIRRTEXT
 70
     1
  9
$LTSCALE
 40
3.632491
  9
$ATTMODE
 70
     1
  9
$TEXTSIZE
 40
3.2
  9
$TRACEWID
 40
1.0
  9
$TEXTSTYLE
  7
Standard
  9
$CLAYER
  8
0
  9
$CELTYPE
  6
ByLayer
  9
$CECOLOR
 62
   256
  9
$CELTSCALE
 40
1.0
  9
$DISPSILH
 70
     0
  9
$DIMSCALE
 40
1.0
  9
$DIMASZ
 40
2.5
  9
$DIMEXO
 40
0.625
  9
$DIMDLI
 40
3.75
  9
$DIMRND
 40
0.0
  9
$DIMDLE
 40
0.0
  9
$DIMEXE
 40
1.25
  9
$DIMTP
 40
0.0
  9
$DIMTM
 40
0.0
  9
$DIMTXT
 40
2.5
  9
$DIMCEN
 40
0.09
  9
$DIMTSZ
 40
0.0
  9
$DIMTOL
 70
     0
  9
$DIMLIM
 70
     0
  9
$DIMTIH
 70
     0
  9
$DIMTOH
 70
     0
  9
$DIMSE1
 70
     0
  9
$DIMSE2
 70
     0
  9
$DIMTAD
 70
     0
  9
$DIMZIN
 70
     8
  9
$DIMBLK
  1

  9
$DIMASO
 70
     1
  9
$DIMSHO
 70
     0
  9
$DIMPOST
  1

  9
$DIMAPOST
  1

  9
$DIMALT
 70
     0
  9
$DIMALTD
 70
     3
  9
$DIMALTF
 40
0.03937
  9
$DIMLFAC
 40
1.0
  9
$DIMTOFL
 70
     1
  9
$DIMTVP
 40
0.0
  9
$DIMTIX
 70
     0
  9
$DIMSOXD
 70
     0
  9
$DIMSAH
 70
     0
  9
$DIMBLK1
  1

  9
$DIMBLK2
  1

  9
$DIMSTYLE
  2
ISO-25
  9
$DIMCLRD
 70
     0
  9
$DIMCLRE
 70
     0
  9
$DIMCLRT
 70
     0
  9
$DIMTFAC
 40
1.0
  9
$DIMGAP
 40
0.625
  9
$DIMJUST
 70
     0
  9
$DIMSD1
 70
     0
  9
$DIMSD2
 70
     0
  9
$DIMTOLJ
 70
     0
  9
$DIMTZIN
 70
     8
  9
$DIMALTZ
 70
     0
  9
$DIMALTTZ
 70
     0
  9
$DIMUPT
 70
     0
  9
$DIMDEC
 70
     2
  9
$DIMTDEC
 70
     2
  9
$DIMALTU
 70
     2
  9
$DIMALTTD
 70
     3
  9
$DIMTXSTY
  7
Standard
  9
$DIMAUNIT
 70
     0
  9
$DIMADEC
 70
     0
  9
$DIMALTRND
 40
0.0
  9
$DIMAZIN
 70
     0
  9
$DIMDSEP
 70
    44
  9
$DIMATFIT
 70
     3
  9
$DIMFRAC
 70
     0
  9
$DIMLDRBLK
  1

  9
$DIMLUNIT
 70
     2
  9
$DIMLWD
 70
    -2
  9
$DIMLWE
 70
    -2
  9
$DIMTMOVE
 70
     0
  9
$LUNITS
 70
     2
  9
$LUPREC
 70
     4
  9
$SKETCHINC
 40
1.0
  9
$FILLETRAD
 40
0.0
  9
$AUNITS
 70
     0
  9
$AUPREC
 70
     0
  9
$MENU
  1
.
  9
$ELEVATION
 40
0.0
  9
$PELEVATION
 40
0.0
  9
$THICKNESS
 40
0.0
  9
$LIMCHECK
 70
     0
  9
$CHAMFERA
 40
10.0
  9
$CHAMFERB
 40
10.0
  9
$CHAMFERC
 40
20.0
  9
$CHAMFERD
 40
0.0
  9
$SKPOLY
 70
     0
  9
$TDCREATE
 40
2455405.448181424
  9
$TDUCREATE
 40
2455405.073181424
  9
$TDUPDATE
 40
2455405.448181435
  9
$TDUUPDATE
 40
2455405.073181435
  9
$TDINDWG
 40
0.0000000116
  9
$TDUSRTIMER
 40
0.0000000116
  9
$USRTIMER
 70
     1
  9
$ANGBASE
 50
0.0
  9
$ANGDIR
 70
     0
  9
$PDMODE
 70
     0
  9
$PDSIZE
 40
0.0
  9
$PLINEWID
 40
0.0
  9
$SPLFRAME
 70
     0
  9
$SPLINETYPE
 70
     6
  9
$SPLINESEGS
 70
     8
  9
$HANDSEED
  5
42D
  9
$SURFTAB1
 70
     6
  9
$SURFTAB2
 70
     6
  9
$SURFTYPE
 70
     6
  9
$SURFU
 70
     6
  9
$SURFV
 70
     6
  9
$UCSBASE
  2

  9
$UCSNAME
  2

  9
$UCSORG
 10
0.0
 20
0.0
 30
0.0
  9
$UCSXDIR
 10
1.0
 20
0.0
 30
0.0
  9
$UCSYDIR
 10
0.0
 20
1.0
 30
0.0
  9
$UCSORTHOREF
  2

  9
$UCSORTHOVIEW
 70
     0
  9
$UCSORGTOP
 10
0.0
 20
0.0
 30
0.0
  9
$UCSORGBOTTOM
 10
0.0
 20
0.0
 30
0.0
  9
$UCSORGLEFT
 10
0.0
 20
0.0
 30
0.0
  9
$UCSORGRIGHT
 10
0.0
 20
0.0
 30
0.0
  9
$UCSORGFRONT
 10
0.0
 20
0.0
 30
0.0
  9
$UCSORGBACK
 10
0.0
 20
0.0
 30
0.0
  9
$PUCSBASE
  2

  9
$PUCSNAME
  2

  9
$PUCSORG
 10
0.0
 20
0.0
 30
0.0
  9
$PUCSXDIR
 10
1.0
 20
0.0
 30
0.0
  9
$PUCSYDIR
 10
0.0
 20
1.0
 30
0.0
  9
$PUCSORTHOREF
  2

  9
$PUCSORTHOVIEW
 70
     0
  9
$PUCSORGTOP
 10
0.0
 20
0.0
 30
0.0
  9
$PUCSORGBOTTOM
 10
0.0
 20
0.0
 30
0.0
  9
$PUCSORGLEFT
 10
0.0
 20
0.0
 30
0.0
  9
$PUCSORGRIGHT
 10
0.0
 20
0.0
 30
0.0
  9
$PUCSORGFRONT
 10
0.0
 20
0.0
 30
0.0
  9
$PUCSORGBACK
 10
0.0
 20
0.0
 30
0.0
  9
$USERI1
 70
     0
  9
$USERI2
 70
     0
  9
$USERI3
 70
     0
  9
$USERI4
 70
     0
  9
$USERI5
 70
     0
  9
$USERR1
 40
0.0
  9
$USERR2
 40
0.0
  9
$USERR3
 40
0.0
  9
$USERR4
 40
0.0
  9
$USERR5
 40
0.0
  9
$WORLDVIEW
 70
     1
  9
$SHADEDGE
 70
     3
  9
$SHADEDIF
 70
    70
  9
$TILEMODE
 70
     1
  9
$MAXACTVP
 70
    64
  9
$PINSBASE
 10
0.0
 20
0.0
 30
0.0
  9
$PLIMCHECK
 70
     0
  9
$PEXTMIN
 10
1.000000E+20
 20
1.000000E+20
 30
0.0
  9
$PEXTMAX
 10
-1.000000E+20
 20
-1.000000E+20
 30
0.0
  9
$PLIMMIN
 10
0.0
 20
0.0
  9
$PLIMMAX
 10
12.0
 20
9.0
  9
$UNITMODE
 70
     0
  9
$VISRETAIN
 70
     1
  9
$PLINEGEN
 70
     0
  9
$PSLTSCALE
 70
     1
  9
$TREEDEPTH
 70
  3020
  9
$CMLSTYLE
  2
Standard
  9
$CMLJUST
 70
     0
  9
$CMLSCALE
 40
20.0
  9
$PROXYGRAPHICS
 70
     1
  9
$MEASUREMENT
 70
     1
  9
$CELWEIGHT
370
    -1
  9
$ENDCAPS
280
     0
  9
$JOINSTYLE
280
     0
  9
$LWDISPLAY
290
     0
  9
$INSUNITS
 70
     4
  9
$HYPERLINKBASE
  1

  9
$STYLESHEET
  1

  9
$XEDIT
290
     1
  9
$CEPSNTYPE
380
     0
  9
$PSTYLEMODE
290
     1
  9
$FINGERPRINTGUID
  2
{5B157F5E-9172-4D73-8F42-3B80C4C940A2}
  9
$VERSIONGUID
  2
{FAEB1C32-E019-11D5-929B-00C0DF256EC4}
  9
$EXTNAMES
290
     1
  9
$PSVPSCALE
 40
0.0
  9
$OLESTARTUP
290
     0
  0
ENDSEC
  0
SECTION
  2
CLASSES
  0
CLASS
  1
ACDBDICTIONARYWDFLT
  2
AcDbDictionaryWithDefault
  3
ObjectDBX Classes
 90
        0
280
     0
281
     0
  0
CLASS
  1
VISUALSTYLE
  2
AcDbVisualStyle
  3
ObjectDBX Classes
 90
     4095
280
     0
281
     0
  0
CLASS
  1
SCALE
  2
AcDbScale
  3
ObjectDBX Classes
 90
     1153
280
     0
281
     0
  0
CLASS
  1
DICTIONARYVAR
  2
AcDbDictionaryVar
  3
ObjectDBX Classes
 90
        0
280
     0
281
     0
  0
CLASS
  1
ACDBPLACEHOLDER
  2
AcDbPlaceHolder
  3
ObjectDBX Classes
 90
        0
280
     0
281
     0
  0
CLASS
  1
LAYOUT
  2
AcDbLayout
  3
ObjectDBX Classes
 90
        0
280
     0
281
     0
  0
ENDSEC
  0
SECTION
  2
TABLES
  0
TABLE
  2
VPORT
  5
8
330
0
100
AcDbSymbolTable
 70
     1
  0
VPORT
  5
29
330
8
100
AcDbSymbolTableRecord
100
AcDbViewportTableRecord
  2
*Active
 70
     0
 10
0.0
 20
0.0
 11
1.0
 21
1.0
 12
127.542374
 22
114.912201
 13
0.0
 23
0.0
 14
1.0
 24
1.0
 15
0.0
 25
0.0
 16
0.0
 26
0.0
 36
1.0
 17
0.0
 27
0.0
 37
0.0
 40
216.346081
 41
1.691288
 42
50.0
 43
0.0
 44
0.0
 50
0.0
 51
0.0
 71
     0
 72
   100
 73
     1
 74
     3
 75
     0
 76
     0
 77
     0
 78
     0
281
     0
 65
     1
110
0.0
120
0.0
130
0.0
111
1.0
121
0.0
131
0.0
112
0.0
122
1.0
132
0.0
 79
     0
146
0.0
  0
ENDTAB
  0
TABLE
  2
LTYPE
  5
5
330
0
100
AcDbSymbolTable
 70
     5
  0
LTYPE
  5
14
330
5
100
AcDbSymbolTableRecord
100
AcDbLinetypeTableRecord
  2
ByBlock
 70
     0
  3

 72
    65
 73
     0
 40
0.0
  0
LTYPE
  5
15
330
5
100
AcDbSymbolTableRecord
100
AcDbLinetypeTableRecord
  2
ByLayer
 70
     0
  3

 72
    65
 73
     0
 40
0.0
  0
LTYPE
  5
16
330
5
100
AcDbSymbolTableRecord
100
AcDbLinetypeTableRecord
  2
Continuous
 70
     0
  3
Solid line
 72
    65
 73
     0
 40
0.0
  0
LTYPE
  5
5D
330
5
100
AcDbSymbolTableRecord
100
AcDbLinetypeTableRecord
  2
DASHED
 70
     0
  3
DASHED
 72
    83
 73
     2
 40
0.75
 49
0.5
 74
     0
 49
-0.25
 74
     0
  0
LTYPE
  5
5E
330
5
100
AcDbSymbolTableRecord
100
AcDbLinetypeTableRecord
  2
HIDDEN
 70
     0
  3
HIDDEN
 72
    83
 73
     2
 40
0.375
 49
0.25
 74
     0
 49
-0.125
 74
     0
  0
LTYPE
  5
5F
330
5
100
AcDbSymbolTableRecord
100
AcDbLinetypeTableRecord
  2
CENTER
 70
     0
  3
CENTER
 72
    83
 73
     4
 40
2.0
 49
1.25
 74
     0
 49
-0.25
 74
     0
 49
0.25
 74
     0
 49
-0.25
 74
     0
  0
LTYPE
  5
60
330
5
100
AcDbSymbolTableRecord
100
AcDbLinetypeTableRecord
  2
PHANTOM
 70
     0
  3
PHANTOM
 72
    83
 73
     6
 40
2.5
 49
1.25
 74
     0
 49
-0.25
 74
     0
 49
0.25
 74
     0
 49
-0.25
 74
     0
 49
0.25
 74
     0
 49
-0.25
 74
     0
  0
ENDTAB
  0
TABLE
  2
LAYER
  5
2
330
0
100
AcDbSymbolTable
 70
     2
  0
LAYER
  5
10
330
2
100
AcDbSymbolTableRecord
100
AcDbLayerTableRecord
  2
0
 70
     0
 62
     7
  6
Continuous
370
    -3
390
F
  0
LAYER
  5
61
330
2
100
AcDbSymbolTableRecord
100
AcDbLayerTableRecord
  2
001
 70
     0
 62
     7
  6
Continuous
370
    -3
390
F
  0
ENDTAB
  0
TABLE
  2
STYLE
  5
3
330
0
100
AcDbSymbolTable
 70
     2
  0
STYLE
  5
11
330
3
100
AcDbSymbolTableRecord
100
AcDbTextStyleTableRecord
  2
Standard
 70
     0
 40
0.0
 41
1.0
 50
0.0
 71
     0
 42
0.2
  3
TXT
  4
BIGFONT
  0
STYLE
  5
62
330
3
100
AcDbSymbolTableRecord
100
AcDbTextStyleTableRecord
  2
TATEGAKI
 70
     4
 40
1.0
 41
1.0
 50
0.0
 71
     0
 42
0.2
  3
TXT
  4
BIGFONT
  0
ENDTAB
  0
TABLE
  2
VIEW
  5
6
330
0
100
AcDbSymbolTable
 70
     0
  0
ENDTAB
  0
TABLE
  2
UCS
  5
7
330
0
100
AcDbSymbolTable
 70
     0
  0
ENDTAB
  0
TABLE
  2
APPID
  5
9
330
0
100
AcDbSymbolTable
 70
     1
  0
APPID
  5
12
330
9
100
AcDbSymbolTableRecord
100
AcDbRegAppTableRecord
  2
ACAD
 70
     0
  0
ENDTAB
  0
TABLE
  2
DIMSTYLE
  5
A
330
0
100
AcDbSymbolTable
 70
     2
100
AcDbDimStyleTable
  0
DIMSTYLE
105
27
330
A
100
AcDbSymbolTableRecord
100
AcDbDimStyleTableRecord
  2
ISO-25
 70
     0
 41
2.5
 42
0.625
 43
3.75
 44
1.25
 73
     0
 74
     0
 77
     1
 78
     8
140
2.5
141
2.5
143
0.03937
147
0.625
171
     3
172
     1
271
     2
272
     2
274
     3
278
    44
283
     0
284
     8
340
11
  0
DIMSTYLE
105
63
102
{ACAD_REACTORS
330
1FC
330
1FD
330
1FE
330
1FF
330
200
330
201
330
202
330
203
330
204
330
205
330
20E
330
20F
330
210
330
211
330
212
330
213
330
214
330
215
102
}
330
A
100
AcDbSymbolTableRecord
100
AcDbDimStyleTableRecord
  2
Standard
 70
     0
 41
1.5
 42
0.0
 44
0.5
 73
     0
 74
     0
 77
     1
 78
     8
 79
     2
140
4.0
146
0.8
147
1.0
172
     1
179
     1
271
     1
340
11
  0
ENDTAB
  0
TABLE
  2
BLOCK_RECORD
  5
1
330
0
100
AcDbSymbolTable
 70
    24
  0
BLOCK_RECORD
  5
1F
330
1
100
AcDbSymbolTableRecord
100
AcDbBlockTableRecord
  2
*Model_Space
340
22
  0
BLOCK_RECORD
  5
1B
330
1
100
AcDbSymbolTableRecord
100
AcDbBlockTableRecord
  2
*Paper_Space
340
1E
  0
BLOCK_RECORD
  5
23
330
1
100
AcDbSymbolTableRecord
100
AcDbBlockTableRecord
  2
*Paper_Space0
340
26
  0
BLOCK_RECORD
  5
64
330
1
100
AcDbSymbolTableRecord
100
AcDbBlockTableRecord
  2
JZB-1
340
0
102
{BLKREFS
331
1F8
102
}
  0
BLOCK_RECORD
  5
6F
330
1
100
AcDbSymbolTableRecord
100
AcDbBlockTableRecord
  2
JZB-2
340
0
102
{BLKREFS
331
1F9
102
}
  0
BLOCK_RECORD
  5
7A
330
1
100
AcDbSymbolTableRecord
100
AcDbBlockTableRecord
  2
JZB-3
340
0
102
{BLKREFS
331
1FA
102
}
  0
BLOCK_RECORD
  5
83
330
1
100
AcDbSymbolTableRecord
100
AcDbBlockTableRecord
  2
JZB-4
340
0
102
{BLKREFS
331
1FB
102
}
  0
BLOCK_RECORD
  5
8A
330
1
100
AcDbSymbolTableRecord
100
AcDbBlockTableRecord
  2
*D5
340
0
  0
BLOCK_RECORD
  5
9E
330
1
100
AcDbSymbolTableRecord
100
AcDbBlockTableRecord
  2
*D6
340
0
  0
BLOCK_RECORD
  5
B2
330
1
100
AcDbSymbolTableRecord
100
AcDbBlockTableRecord
  2
*D7
340
0
  0
BLOCK_RECORD
  5
C6
330
1
100
AcDbSymbolTableRecord
100
AcDbBlockTableRecord
  2
*D8
340
0
  0
BLOCK_RECORD
  5
DC
330
1
100
AcDbSymbolTableRecord
100
AcDbBlockTableRecord
  2
*D9
340
0
  0
BLOCK_RECORD
  5
F2
330
1
100
AcDbSymbolTableRecord
100
AcDbBlockTableRecord
  2
*D10
340
0
  0
BLOCK_RECORD
  5
106
330
1
100
AcDbSymbolTableRecord
100
AcDbBlockTableRecord
  2
*D11
340
0
  0
BLOCK_RECORD
  5
11A
330
1
100
AcDbSymbolTableRecord
100
AcDbBlockTableRecord
  2
*D12
340
0
  0
BLOCK_RECORD
  5
12F
330
1
100
AcDbSymbolTableRecord
100
AcDbBlockTableRecord
  2
*D13
340
0
  0
BLOCK_RECORD
  5
145
330
1
100
AcDbSymbolTableRecord
100
AcDbBlockTableRecord
  2
*D14
340
0
  0
BLOCK_RECORD
  5
15B
330
1
100
AcDbSymbolTableRecord
100
AcDbBlockTableRecord
  2
DIM-5
340
0
102
{BLKREFS
331
206
102
}
  0
BLOCK_RECORD
  5
169
330
1
100
AcDbSymbolTableRecord
100
AcDbBlockTableRecord
  2
*D16
340
0
  0
BLOCK_RECORD
  5
176
330
1
100
AcDbSymbolTableRecord
100
AcDbBlockTableRecord
  2
*D17
340
0
  0
BLOCK_RECORD
  5
183
330
1
100
AcDbSymbolTableRecord
100
AcDbBlockTableRecord
  2
*D18
340
0
  0
BLOCK_RECORD
  5
190
330
1
100
AcDbSymbolTableRecord
100
AcDbBlockTableRecord
  2
*D19
340
0
  0
BLOCK_RECORD
  5
1A4
330
1
100
AcDbSymbolTableRecord
100
AcDbBlockTableRecord
  2
*D20
340
0
  0
BLOCK_RECORD
  5
1B8
330
1
100
AcDbSymbolTableRecord
100
AcDbBlockTableRecord
  2
*D21
340
0
  0
BLOCK_RECORD
  5
1CE
330
1
100
AcDbSymbolTableRecord
100
AcDbBlockTableRecord
  2
*D22
340
0
  0
BLOCK_RECORD
  5
1E2
330
1
100
AcDbSymbolTableRecord
100
AcDbBlockTableRecord
  2
*D23
340
0
  0
ENDTAB
  0
ENDSEC
  0
SECTION
  2
BLOCKS
  0
BLOCK
  5
20
330
1F
100
AcDbEntity
  8
0
100
AcDbBlockBegin
  2
*Model_Space
 70
     0
 10
0.0
 20
0.0
 30
0.0
  3
*Model_Space
  1

  0
ENDBLK
  5
21
330
1F
100
AcDbEntity
  8
0
100
AcDbBlockEnd
  0
BLOCK
  5
1C
330
1B
100
AcDbEntity
 67
     1
  8
0
100
AcDbBlockBegin
  2
*Paper_Space
 70
     0
 10
0.0
 20
0.0
 30
0.0
  3
*Paper_Space
  1

  0
ENDBLK
  5
1D
330
1B
100
AcDbEntity
 67
     1
  8
0
100
AcDbBlockEnd
  0
BLOCK
  5
24
330
23
100
AcDbEntity
  8
0
100
AcDbBlockBegin
  2
*Paper_Space0
 70
     0
 10
0.0
 20
0.0
 30
0.0
  3
*Paper_Space0
  1

  0
ENDBLK
  5
25
330
23
100
AcDbEntity
  8
0
100
AcDbBlockEnd
  0
BLOCK
  5
65
330
64
100
AcDbEntity
  8
0
100
AcDbBlockBegin
  2
JZB-1
 70
     0
 10
0.0
 20
0.0
 30
0.0
  3
JZB-1
  1

  0
LINE
  5
67
330
64
100
AcDbEntity
  8
001
 62
   140
370
    30
100
AcDbLine
 10
88.062098
 20
149.331645
 30
0.0
 11
86.907398
 21
151.331645
 31
0.0
  0
LINE
  5
68
330
64
100
AcDbEntity
  8
001
 62
   140
370
    30
100
AcDbLine
 10
91.5262
 20
151.331645
 30
0.0
 11
90.371499
 21
149.331645
 31
0.0
  0
CIRCLE
  5
69
330
64
100
AcDbEntity
  8
001
 62
   140
370
    30
100
AcDbCircle
 10
89.216799
 20
151.331645
 30
0.0
 40
3.3235
  0
LINE
  5
6A
330
64
100
AcDbEntity
  8
001
 62
   140
370
    30
100
AcDbLine
 10
86.907398
 20
151.331645
 30
0.0
 11
88.062098
 21
153.331645
 31
0.0
  0
LINE
  5
6B
330
64
100
AcDbEntity
  8
001
 62
   140
370
    30
100
AcDbLine
 10
90.371499
 20
149.331645
 30
0.0
 11
88.062098
 21
149.331645
 31
0.0
  0
LINE
  5
6C
330
64
100
AcDbEntity
  8
001
 62
   140
370
    30
100
AcDbLine
 10
90.371499
 20
153.331645
 30
0.0
 11
91.5262
 21
151.331645
 31
0.0
  0
LINE
  5
6D
330
64
100
AcDbEntity
  8
001
 62
   140
370
    30
100
AcDbLine
 10
88.062098
 20
153.331645
 30
0.0
 11
90.371499
 21
153.331645
 31
0.0
  0
CIRCLE
  5
6E
330
64
100
AcDbEntity
  8
001
 62
   140
370
    30
100
AcDbCircle
 10
89.216799
 20
151.331645
 30
0.0
 40
4.0
  0
ENDBLK
  5
66
330
64
100
AcDbEntity
  8
0
100
AcDbBlockEnd
  0
BLOCK
  5
70
330
6F
100
AcDbEntity
  8
0
100
AcDbBlockBegin
  2
JZB-2
 70
     0
 10
0.0
 20
0.0
 30
0.0
  3
JZB-2
  1

  0
CIRCLE
  5
72
330
6F
100
AcDbEntity
  8
001
 62
   140
370
    30
100
AcDbCircle
 10
74.216799
 20
151.329068
 30
0.0
 40
3.3235
  0
CIRCLE
  5
73
330
6F
100
AcDbEntity
  8
001
 62
   140
370
    30
100
AcDbCircle
 10
74.216799
 20
151.329068
 30
0.0
 40
4.0
  0
LINE
  5
74
330
6F
100
AcDbEntity
  8
001
 62
   140
370
    30
100
AcDbLine
 10
74.216799
 20
153.638469
 30
0.0
 11
76.216799
 21
152.483768
 31
0.0
  0
LINE
  5
75
330
6F
100
AcDbEntity
  8
001
 62
   140
370
    30
100
AcDbLine
 10
72.216799
 20
150.174367
 30
0.0
 11
72.216799
 21
152.483768
 31
0.0
  0
LINE
  5
76
330
6F
100
AcDbEntity
  8
001
 62
   140
370
    30
100
AcDbLine
 10
74.216799
 20
149.019666
 30
0.0
 11
72.216799
 21
150.174367
 31
0.0
  0
LINE
  5
77
330
6F
100
AcDbEntity
  8
001
 62
   140
370
    30
100
AcDbLine
 10
76.216799
 20
150.174367
 30
0.0
 11
74.216799
 21
149.019666
 31
0.0
  0
LINE
  5
78
330
6F
100
AcDbEntity
  8
001
 62
   140
370
    30
100
AcDbLine
 10
76.216799
 20
152.483768
 30
0.0
 11
76.216799
 21
150.174367
 31
0.0
  0
LINE
  5
79
330
6F
100
AcDbEntity
  8
001
 62
   140
370
    30
100
AcDbLine
 10
72.216799
 20
152.483768
 30
0.0
 11
74.216799
 21
153.638469
 31
0.0
  0
ENDBLK
  5
71
330
6F
100
AcDbEntity
  8
0
100
AcDbBlockEnd
  0
BLOCK
  5
7B
330
7A
100
AcDbEntity
  8
0
100
AcDbBlockBegin
  2
JZB-3
 70
     0
 10
0.0
 20
0.0
 30
0.0
  3
JZB-3
  1

  0
LINE
  5
7D
330
7A
100
AcDbEntity
  8
001
 62
   140
370
    30
100
AcDbLine
 10
92.540299
 20
72.181982
 30
0.0
 11
85.893299
 21
72.181982
 31
0.0
  0
LINE
  5
7E
330
7A
100
AcDbEntity
  8
001
 62
   140
370
    30
100
AcDbLine
 10
93.216799
 20
71.505482
 30
0.0
 11
85.216799
 21
71.505482
 31
0.0
  0
LINE
  5
7F
330
7A
100
AcDbEntity
  8
001
 62
   140
370
    30
100
AcDbLine
 10
93.216799
 20
71.505482
 30
0.0
 11
92.540299
 21
72.181982
 31
0.0
  0
LINE
  5
80
330
7A
100
AcDbEntity
  8
001
 62
   140
370
    30
100
AcDbLine
 10
85.893299
 20
72.181982
 30
0.0
 11
85.216799
 21
71.505482
 31
0.0
  0
LINE
  5
81
330
7A
100
AcDbEntity
  8
001
 62
   140
370
    30
100
AcDbLine
 10
85.216799
 20
71.505482
 30
0.0
 11
85.216799
 21
71.10891
 31
0.0
  0
LINE
  5
82
330
7A
100
AcDbEntity
  8
001
 62
   140
370
    30
100
AcDbLine
 10
93.216799
 20
71.108925
 30
0.0
 11
93.216799
 21
71.505482
 31
0.0
  0
ENDBLK
  5
7C
330
7A
100
AcDbEntity
  8
0
100
AcDbBlockEnd
  0
BLOCK
  5
84
330
83
100
AcDbEntity
  8
0
100
AcDbBlockBegin
  2
JZB-4
 70
     0
 10
0.0
 20
0.0
 30
0.0
  3
JZB-4
  1

  0
LINE
  5
86
330
83
100
AcDbEntity
  8
001
 62
   140
370
    30
100
AcDbLine
 10
77.540299
 20
70.181982
 30
0.0
 11
70.893299
 21
70.181982
 31
0.0
  0
LINE
  5
87
330
83
100
AcDbEntity
  8
001
 62
   140
370
    30
100
AcDbLine
 10
77.714898
 20
69.505482
 30
0.0
 11
70.740034
 21
69.505482
 31
0.0
  0
LINE
  5
88
330
83
100
AcDbEntity
  8
001
 62
   140
370
    30
100
AcDbLine
 10
78.135346
 20
69.586935
 30
0.0
 11
77.540299
 21
70.181982
 31
0.0
  0
LINE
  5
89
330
83
100
AcDbEntity
  8
001
 62
   140
370
    30
100
AcDbLine
 10
70.893299
 20
70.181982
 30
0.0
 11
70.298519
 21
69.587202
 31
0.0
  0
ENDBLK
  5
85
330
83
100
AcDbEntity
  8
0
100
AcDbBlockEnd
  0
BLOCK
  5
8B
330
8A
100
AcDbEntity
  8
0
100
AcDbBlockBegin
  2
*D5
 70
     1
 10
0.0
 20
0.0
 30
0.0
  3
*D5
  1

  0
LINE
  5
8D
330
8A
100
AcDbEntity
  8
001
370
     9
100
AcDbLine
 10
81.716799
 20
134.329068
 30
0.0
 11
32.365688
 21
134.329068
 31
0.0
  0
LINE
  5
8E
330
8A
100
AcDbEntity
  8
001
370
     9
100
AcDbLine
 10
81.716799
 20
168.329068
 30
0.0
 11
32.365688
 21
168.329068
 31
0.0
  0
LINE
  5
8F
330
8A
100
AcDbEntity
  8
001
370
     9
100
AcDbLine
 10
35.803188
 20
134.329068
 30
0.0
 11
35.803188
 21
168.329068
 31
0.0
  0
POLYLINE
  5
90
330
8A
100
AcDbEntity
  8
001
370
     9
100
AcDb2dPolyline
 66
     1
 10
0.0
 20
0.0
 30
0.0
  0
VERTEX
  5
92
330
90
100
AcDbEntity
  8
001
370
     9
100
AcDbVertex
100
AcDb2dVertex
 10
36.305592
 20
136.204068
 30
0.0
  0
VERTEX
  5
93
330
90
100
AcDbEntity
  8
001
370
     9
100
AcDbVertex
100
AcDb2dVertex
 10
35.803188
 20
134.329068
 30
0.0
  0
VERTEX
  5
94
330
90
100
AcDbEntity
  8
001
370
     9
100
AcDbVertex
100
AcDb2dVertex
 10
35.300783
 20
136.204068
 30
0.0
  0
SEQEND
  5
91
330
90
100
AcDbEntity
  8
001
370
     9
  0
POLYLINE
  5
95
330
8A
100
AcDbEntity
  8
001
370
     9
100
AcDb2dPolyline
 66
     1
 10
0.0
 20
0.0
 30
0.0
  0
VERTEX
  5
97
330
95
100
AcDbEntity
  8
001
370
     9
100
AcDbVertex
100
AcDb2dVertex
 10
35.300783
 20
166.454068
 30
0.0
  0
VERTEX
  5
98
330
95
100
AcDbEntity
  8
001
370
     9
100
AcDbVertex
100
AcDb2dVertex
 10
35.803188
 20
168.329068
 30
0.0
  0
VERTEX
  5
99
330
95
100
AcDbEntity
  8
001
370
     9
100
AcDbVertex
100
AcDb2dVertex
 10
36.305592
 20
166.454068
 30
0.0
  0
SEQEND
  5
96
330
95
100
AcDbEntity
  8
001
370
     9
  0
TEXT
  5
9A
330
8A
100
AcDbEntity
  8
001
370
    30
100
AcDbText
 10
34.553188
 20
143.829068
 30
0.0
 40
5.0
  1
%%c３４
 50
90.000003
 41
0.882353
100
AcDbText
  0
POINT
  5
9B
330
8A
100
AcDbEntity
  8
001
370
     9
100
AcDbPoint
 10
81.716799
 20
134.329068
 30
0.0
  0
POINT
  5
9C
330
8A
100
AcDbEntity
  8
001
370
     9
100
AcDbPoint
 10
81.716799
 20
168.329068
 30
0.0
  0
POINT
  5
9D
330
8A
100
AcDbEntity
  8
001
370
     9
100
AcDbPoint
 10
35.803188
 20
168.329068
 30
0.0
  0
ENDBLK
  5
8C
330
8A
100
AcDbEntity
  8
0
100
AcDbBlockEnd
  0
BLOCK
  5
9F
330
9E
100
AcDbEntity
  8
0
100
AcDbBlockBegin
  2
*D6
 70
     1
 10
0.0
 20
0.0
 30
0.0
  3
*D6
  1

  0
LINE
  5
A1
330
9E
100
AcDbEntity
  8
001
370
     9
100
AcDbLine
 10
68.412951
 20
135.829068
 30
0.0
 11
43.293414
 21
135.829068
 31
0.0
  0
LINE
  5
A2
330
9E
100
AcDbEntity
  8
001
370
     9
100
AcDbLine
 10
68.412951
 20
166.829068
 30
0.0
 11
43.293414
 21
166.829068
 31
0.0
  0
LINE
  5
A3
330
9E
100
AcDbEntity
  8
001
370
     9
100
AcDbLine
 10
46.730914
 20
135.829068
 30
0.0
 11
46.730914
 21
166.829068
 31
0.0
  0
POLYLINE
  5
A4
330
9E
100
AcDbEntity
  8
001
370
     9
100
AcDb2dPolyline
 66
     1
 10
0.0
 20
0.0
 30
0.0
  0
VERTEX
  5
A6
330
A4
100
AcDbEntity
  8
001
370
     9
100
AcDbVertex
100
AcDb2dVertex
 10
47.233318
 20
137.704068
 30
0.0
  0
VERTEX
  5
A7
330
A4
100
AcDbEntity
  8
001
370
     9
100
AcDbVertex
100
AcDb2dVertex
 10
46.730914
 20
135.829068
 30
0.0
  0
VERTEX
  5
A8
330
A4
100
AcDbEntity
  8
001
370
     9
100
AcDbVertex
100
AcDb2dVertex
 10
46.228509
 20
137.704068
 30
0.0
  0
SEQEND
  5
A5
330
A4
100
AcDbEntity
  8
001
370
     9
  0
POLYLINE
  5
A9
330
9E
100
AcDbEntity
  8
001
370
     9
100
AcDb2dPolyline
 66
     1
 10
0.0
 20
0.0
 30
0.0
  0
VERTEX
  5
AB
330
A9
100
AcDbEntity
  8
001
370
     9
100
AcDbVertex
100
AcDb2dVertex
 10
46.228509
 20
164.954068
 30
0.0
  0
VERTEX
  5
AC
330
A9
100
AcDbEntity
  8
001
370
     9
100
AcDbVertex
100
AcDb2dVertex
 10
46.730914
 20
166.829068
 30
0.0
  0
VERTEX
  5
AD
330
A9
100
AcDbEntity
  8
001
370
     9
100
AcDbVertex
100
AcDb2dVertex
 10
47.233318
 20
164.954068
 30
0.0
  0
SEQEND
  5
AA
330
A9
100
AcDbEntity
  8
001
370
     9
  0
TEXT
  5
AE
330
9E
100
AcDbEntity
  8
001
370
    30
100
AcDbText
 10
45.480914
 20
143.829068
 30
0.0
 40
5.0
  1
%%c３１
 50
90.000003
 41
0.882353
100
AcDbText
  0
POINT
  5
AF
330
9E
100
AcDbEntity
  8
001
370
     9
100
AcDbPoint
 10
68.412951
 20
135.829068
 30
0.0
  0
POINT
  5
B0
330
9E
100
AcDbEntity
  8
001
370
     9
100
AcDbPoint
 10
68.412951
 20
166.829068
 30
0.0
  0
POINT
  5
B1
330
9E
100
AcDbEntity
  8
001
370
     9
100
AcDbPoint
 10
46.730914
 20
166.829068
 30
0.0
  0
ENDBLK
  5
A0
330
9E
100
AcDbEntity
  8
0
100
AcDbBlockEnd
  0
BLOCK
  5
B3
330
B2
100
AcDbEntity
  8
0
100
AcDbBlockBegin
  2
*D7
 70
     1
 10
0.0
 20
0.0
 30
0.0
  3
*D7
  1

  0
LINE
  5
B5
330
B2
100
AcDbEntity
  8
001
370
     9
100
AcDbLine
 10
97.216799
 20
127.829068
 30
0.0
 11
20.934914
 21
127.829068
 31
0.0
  0
LINE
  5
B6
330
B2
100
AcDbEntity
  8
001
370
     9
100
AcDbLine
 10
97.216799
 20
174.829068
 30
0.0
 11
20.934914
 21
174.829068
 31
0.0
  0
LINE
  5
B7
330
B2
100
AcDbEntity
  8
001
370
     9
100
AcDbLine
 10
24.372414
 20
127.829068
 30
0.0
 11
24.372414
 21
174.829068
 31
0.0
  0
POLYLINE
  5
B8
330
B2
100
AcDbEntity
  8
001
370
     9
100
AcDb2dPolyline
 66
     1
 10
0.0
 20
0.0
 30
0.0
  0
VERTEX
  5
BA
330
B8
100
AcDbEntity
  8
001
370
     9
100
AcDbVertex
100
AcDb2dVertex
 10
24.874818
 20
129.704068
 30
0.0
  0
VERTEX
  5
BB
330
B8
100
AcDbEntity
  8
001
370
     9
100
AcDbVertex
100
AcDb2dVertex
 10
24.372414
 20
127.829068
 30
0.0
  0
VERTEX
  5
BC
330
B8
100
AcDbEntity
  8
001
370
     9
100
AcDbVertex
100
AcDb2dVertex
 10
23.870009
 20
129.704068
 30
0.0
  0
SEQEND
  5
B9
330
B8
100
AcDbEntity
  8
001
370
     9
  0
POLYLINE
  5
BD
330
B2
100
AcDbEntity
  8
001
370
     9
100
AcDb2dPolyline
 66
     1
 10
0.0
 20
0.0
 30
0.0
  0
VERTEX
  5
BF
330
BD
100
AcDbEntity
  8
001
370
     9
100
AcDbVertex
100
AcDb2dVertex
 10
23.870009
 20
172.954068
 30
0.0
  0
VERTEX
  5
C0
330
BD
100
AcDbEntity
  8
001
370
     9
100
AcDbVertex
100
AcDb2dVertex
 10
24.372414
 20
174.829068
 30
0.0
  0
VERTEX
  5
C1
330
BD
100
AcDbEntity
  8
001
370
     9
100
AcDbVertex
100
AcDb2dVertex
 10
24.874818
 20
172.954068
 30
0.0
  0
SEQEND
  5
BE
330
BD
100
AcDbEntity
  8
001
370
     9
  0
TEXT
  5
C2
330
B2
100
AcDbEntity
  8
001
370
    30
100
AcDbText
 10
23.122414
 20
143.829068
 30
0.0
 40
5.0
  1
%%c４７
 50
90.000003
 41
0.882353
100
AcDbText
  0
POINT
  5
C3
330
B2
100
AcDbEntity
  8
001
370
     9
100
AcDbPoint
 10
97.216799
 20
127.829068
 30
0.0
  0
POINT
  5
C4
330
B2
100
AcDbEntity
  8
001
370
     9
100
AcDbPoint
 10
97.216799
 20
174.829068
 30
0.0
  0
POINT
  5
C5
330
B2
100
AcDbEntity
  8
001
370
     9
100
AcDbPoint
 10
24.372414
 20
174.829068
 30
0.0
  0
ENDBLK
  5
B4
330
B2
100
AcDbEntity
  8
0
100
AcDbBlockEnd
  0
BLOCK
  5
C7
330
C6
100
AcDbEntity
  8
0
100
AcDbBlockBegin
  2
*D8
 70
     1
 10
0.0
 20
0.0
 30
0.0
  3
*D8
  1

  0
LINE
  5
C9
330
C6
100
AcDbEntity
  8
001
370
     9
100
AcDbLine
 10
96.216799
 20
128.829068
 30
0.0
 11
96.216799
 21
98.533735
 31
0.0
  0
LINE
  5
CA
330
C6
100
AcDbEntity
  8
001
370
     9
100
AcDbLine
 10
101.216799
 20
128.829068
 30
0.0
 11
101.216799
 21
98.533735
 31
0.0
  0
LINE
  5
CB
330
C6
100
AcDbEntity
  8
001
370
     9
100
AcDbLine
 10
96.216799
 20
101.971235
 30
0.0
 11
101.216799
 21
101.971235
 31
0.0
  0
POLYLINE
  5
CC
330
C6
100
AcDbEntity
  8
001
370
     9
100
AcDb2dPolyline
 66
     1
 10
0.0
 20
0.0
 30
0.0
  0
VERTEX
  5
CE
330
CC
100
AcDbEntity
  8
001
370
     9
100
AcDbVertex
100
AcDb2dVertex
 10
94.341799
 20
102.473639
 30
0.0
  0
VERTEX
  5
CF
330
CC
100
AcDbEntity
  8
001
370
     9
100
AcDbVertex
100
AcDb2dVertex
 10
96.216799
 20
101.971235
 30
0.0
  0
VERTEX
  5
D0
330
CC
100
AcDbEntity
  8
001
370
     9
100
AcDbVertex
100
AcDb2dVertex
 10
94.341799
 20
101.46883
 30
0.0
  0
SEQEND
  5
CD
330
CC
100
AcDbEntity
  8
001
370
     9
  0
POLYLINE
  5
D1
330
C6
100
AcDbEntity
  8
001
370
     9
100
AcDb2dPolyline
 66
     1
 10
0.0
 20
0.0
 30
0.0
  0
VERTEX
  5
D3
330
D1
100
AcDbEntity
  8
001
370
     9
100
AcDbVertex
100
AcDb2dVertex
 10
103.091799
 20
101.46883
 30
0.0
  0
VERTEX
  5
D4
330
D1
100
AcDbEntity
  8
001
370
     9
100
AcDbVertex
100
AcDb2dVertex
 10
101.216799
 20
101.971235
 30
0.0
  0
VERTEX
  5
D5
330
D1
100
AcDbEntity
  8
001
370
     9
100
AcDbVertex
100
AcDb2dVertex
 10
103.091799
 20
102.473639
 30
0.0
  0
SEQEND
  5
D2
330
D1
100
AcDbEntity
  8
001
370
     9
  0
TEXT
  5
D6
330
C6
100
AcDbEntity
  8
001
370
    30
100
AcDbText
 10
96.216799
 20
103.221235
 30
0.0
 40
5.0
  1
５
 41
0.833333
100
AcDbText
  0
POINT
  5
D7
330
C6
100
AcDbEntity
  8
001
370
     9
100
AcDbPoint
 10
96.216799
 20
128.829068
 30
0.0
  0
POINT
  5
D8
330
C6
100
AcDbEntity
  8
001
370
     9
100
AcDbPoint
 10
101.216799
 20
128.829068
 30
0.0
  0
POINT
  5
D9
330
C6
100
AcDbEntity
  8
001
370
     9
100
AcDbPoint
 10
101.216799
 20
101.971235
 30
0.0
  0
LINE
  5
DA
330
C6
100
AcDbEntity
  8
001
370
     9
100
AcDbLine
 10
96.216799
 20
101.971235
 30
0.0
 11
93.091799
 21
101.971235
 31
0.0
  0
LINE
  5
DB
330
C6
100
AcDbEntity
  8
001
370
     9
100
AcDbLine
 10
101.216799
 20
101.971235
 30
0.0
 11
104.341799
 21
101.971235
 31
0.0
  0
ENDBLK
  5
C8
330
C6
100
AcDbEntity
  8
0
100
AcDbBlockEnd
  0
BLOCK
  5
DD
330
DC
100
AcDbEntity
  8
0
100
AcDbBlockBegin
  2
*D9
 70
     1
 10
0.0
 20
0.0
 30
0.0
  3
*D9
  1

  0
LINE
  5
DF
330
DC
100
AcDbEntity
  8
001
370
     9
100
AcDbLine
 10
81.216799
 20
134.829068
 30
0.0
 11
81.216799
 21
98.533735
 31
0.0
  0
LINE
  5
E0
330
DC
100
AcDbEntity
  8
001
370
     9
100
AcDbLine
 10
96.216799
 20
128.829068
 30
0.0
 11
96.216799
 21
98.533735
 31
0.0
  0
LINE
  5
E1
330
DC
100
AcDbEntity
  8
001
370
     9
100
AcDbLine
 10
81.216799
 20
101.971235
 30
0.0
 11
96.216799
 21
101.971235
 31
0.0
  0
POLYLINE
  5
E2
330
DC
100
AcDbEntity
  8
001
370
     9
100
AcDb2dPolyline
 66
     1
 10
0.0
 20
0.0
 30
0.0
  0
VERTEX
  5
E4
330
E2
100
AcDbEntity
  8
001
370
     9
100
AcDbVertex
100
AcDb2dVertex
 10
79.341799
 20
102.473639
 30
0.0
  0
VERTEX
  5
E5
330
E2
100
AcDbEntity
  8
001
370
     9
100
AcDbVertex
100
AcDb2dVertex
 10
81.216799
 20
101.971235
 30
0.0
  0
VERTEX
  5
E6
330
E2
100
AcDbEntity
  8
001
370
     9
100
AcDbVertex
100
AcDb2dVertex
 10
79.341799
 20
101.46883
 30
0.0
  0
SEQEND
  5
E3
330
E2
100
AcDbEntity
  8
001
370
     9
  0
POLYLINE
  5
E7
330
DC
100
AcDbEntity
  8
001
370
     9
100
AcDb2dPolyline
 66
     1
 10
0.0
 20
0.0
 30
0.0
  0
VERTEX
  5
E9
330
E7
100
AcDbEntity
  8
001
370
     9
100
AcDbVertex
100
AcDb2dVertex
 10
98.091799
 20
101.46883
 30
0.0
  0
VERTEX
  5
EA
330
E7
100
AcDbEntity
  8
001
370
     9
100
AcDbVertex
100
AcDb2dVertex
 10
96.216799
 20
101.971235
 30
0.0
  0
VERTEX
  5
EB
330
E7
100
AcDbEntity
  8
001
370
     9
100
AcDbVertex
100
AcDb2dVertex
 10
98.091799
 20
102.473639
 30
0.0
  0
SEQEND
  5
E8
330
E7
100
AcDbEntity
  8
001
370
     9
  0
TEXT
  5
EC
330
DC
100
AcDbEntity
  8
001
370
    30
100
AcDbText
 10
83.716799
 20
103.221235
 30
0.0
 40
5.0
  1
１５
 41
0.833333
100
AcDbText
  0
POINT
  5
ED
330
DC
100
AcDbEntity
  8
001
370
     9
100
AcDbPoint
 10
81.216799
 20
134.829068
 30
0.0
  0
POINT
  5
EE
330
DC
100
AcDbEntity
  8
001
370
     9
100
AcDbPoint
 10
96.216799
 20
128.829068
 30
0.0
  0
POINT
  5
EF
330
DC
100
AcDbEntity
  8
001
370
     9
100
AcDbPoint
 10
96.216799
 20
101.971235
 30
0.0
  0
LINE
  5
F0
330
DC
100
AcDbEntity
  8
001
370
     9
100
AcDbLine
 10
81.216799
 20
101.971235
 30
0.0
 11
78.091799
 21
101.971235
 31
0.0
  0
LINE
  5
F1
330
DC
100
AcDbEntity
  8
001
370
     9
100
AcDbLine
 10
96.216799
 20
101.971235
 30
0.0
 11
99.341799
 21
101.971235
 31
0.0
  0
ENDBLK
  5
DE
330
DC
100
AcDbEntity
  8
0
100
AcDbBlockEnd
  0
BLOCK
  5
F3
330
F2
100
AcDbEntity
  8
0
100
AcDbBlockBegin
  2
*D10
 70
     1
 10
0.0
 20
0.0
 30
0.0
  3
*D10
  1

  0
LINE
  5
F5
330
F2
100
AcDbEntity
  8
001
370
     9
100
AcDbLine
 10
81.216799
 20
134.829068
 30
0.0
 11
81.216799
 21
98.533735
 31
0.0
  0
LINE
  5
F6
330
F2
100
AcDbEntity
  8
001
370
     9
100
AcDbLine
 10
61.216799
 20
140.406418
 30
0.0
 11
61.216799
 21
98.533735
 31
0.0
  0
LINE
  5
F7
330
F2
100
AcDbEntity
  8
001
370
     9
100
AcDbLine
 10
81.216799
 20
101.971235
 30
0.0
 11
61.216799
 21
101.971235
 31
0.0
  0
POLYLINE
  5
F8
330
F2
100
AcDbEntity
  8
001
370
     9
100
AcDb2dPolyline
 66
     1
 10
0.0
 20
0.0
 30
0.0
  0
VERTEX
  5
FA
330
F8
100
AcDbEntity
  8
001
370
     9
100
AcDbVertex
100
AcDb2dVertex
 10
79.341799
 20
102.473639
 30
0.0
  0
VERTEX
  5
FB
330
F8
100
AcDbEntity
  8
001
370
     9
100
AcDbVertex
100
AcDb2dVertex
 10
81.216799
 20
101.971235
 30
0.0
  0
VERTEX
  5
FC
330
F8
100
AcDbEntity
  8
001
370
     9
100
AcDbVertex
100
AcDb2dVertex
 10
79.341799
 20
101.46883
 30
0.0
  0
SEQEND
  5
F9
330
F8
100
AcDbEntity
  8
001
370
     9
  0
POLYLINE
  5
FD
330
F2
100
AcDbEntity
  8
001
370
     9
100
AcDb2dPolyline
 66
     1
 10
0.0
 20
0.0
 30
0.0
  0
VERTEX
  5
FF
330
FD
100
AcDbEntity
  8
001
370
     9
100
AcDbVertex
100
AcDb2dVertex
 10
63.091799
 20
101.46883
 30
0.0
  0
VERTEX
  5
100
330
FD
100
AcDbEntity
  8
001
370
     9
100
AcDbVertex
100
AcDb2dVertex
 10
61.216799
 20
101.971235
 30
0.0
  0
VERTEX
  5
101
330
FD
100
AcDbEntity
  8
001
370
     9
100
AcDbVertex
100
AcDb2dVertex
 10
63.091799
 20
102.473639
 30
0.0
  0
SEQEND
  5
FE
330
FD
100
AcDbEntity
  8
001
370
     9
  0
TEXT
  5
102
330
F2
100
AcDbEntity
  8
001
370
    30
100
AcDbText
 10
66.216799
 20
103.221235
 30
0.0
 40
5.0
  1
２０
 41
0.833333
100
AcDbText
  0
POINT
  5
103
330
F2
100
AcDbEntity
  8
001
370
     9
100
AcDbPoint
 10
81.216799
 20
134.829068
 30
0.0
  0
POINT
  5
104
330
F2
100
AcDbEntity
  8
001
370
     9
100
AcDbPoint
 10
61.216799
 20
140.406418
 30
0.0
  0
POINT
  5
105
330
F2
100
AcDbEntity
  8
001
370
     9
100
AcDbPoint
 10
61.216799
 20
101.971235
 30
0.0
  0
ENDBLK
  5
F4
330
F2
100
AcDbEntity
  8
0
100
AcDbBlockEnd
  0
BLOCK
  5
107
330
106
100
AcDbEntity
  8
0
100
AcDbBlockBegin
  2
*D11
 70
     1
 10
0.0
 20
0.0
 30
0.0
  3
*D11
  1

  0
LINE
  5
109
330
106
100
AcDbEntity
  8
001
370
     9
100
AcDbLine
 10
181.216799
 20
133.329068
 30
0.0
 11
181.216799
 21
86.704307
 31
0.0
  0
LINE
  5
10A
330
106
100
AcDbEntity
  8
001
370
     9
100
AcDbLine
 10
61.216799
 20
140.406418
 30
0.0
 11
61.216799
 21
86.704307
 31
0.0
  0
LINE
  5
10B
330
106
100
AcDbEntity
  8
001
370
     9
100
AcDbLine
 10
181.216799
 20
90.141807
 30
0.0
 11
61.216799
 21
90.141807
 31
0.0
  0
POLYLINE
  5
10C
330
106
100
AcDbEntity
  8
001
370
     9
100
AcDb2dPolyline
 66
     1
 10
0.0
 20
0.0
 30
0.0
  0
VERTEX
  5
10E
330
10C
100
AcDbEntity
  8
001
370
     9
100
AcDbVertex
100
AcDb2dVertex
 10
179.341799
 20
90.644212
 30
0.0
  0
VERTEX
  5
10F
330
10C
100
AcDbEntity
  8
001
370
     9
100
AcDbVertex
100
AcDb2dVertex
 10
181.216799
 20
90.141807
 30
0.0
  0
VERTEX
  5
110
330
10C
100
AcDbEntity
  8
001
370
     9
100
AcDbVertex
100
AcDb2dVertex
 10
179.341799
 20
89.639403
 30
0.0
  0
SEQEND
  5
10D
330
10C
100
AcDbEntity
  8
001
370
     9
  0
POLYLINE
  5
111
330
106
100
AcDbEntity
  8
001
370
     9
100
AcDb2dPolyline
 66
     1
 10
0.0
 20
0.0
 30
0.0
  0
VERTEX
  5
113
330
111
100
AcDbEntity
  8
001
370
     9
100
AcDbVertex
100
AcDb2dVertex
 10
63.091799
 20
89.639403
 30
0.0
  0
VERTEX
  5
114
330
111
100
AcDbEntity
  8
001
370
     9
100
AcDbVertex
100
AcDb2dVertex
 10
61.216799
 20
90.141807
 30
0.0
  0
VERTEX
  5
115
330
111
100
AcDbEntity
  8
001
370
     9
100
AcDbVertex
100
AcDb2dVertex
 10
63.091799
 20
90.644212
 30
0.0
  0
SEQEND
  5
112
330
111
100
AcDbEntity
  8
001
370
     9
  0
TEXT
  5
116
330
106
100
AcDbEntity
  8
001
370
    30
100
AcDbText
 10
113.716799
 20
91.391807
 30
0.0
 40
5.0
  1
１２０
 41
0.833333
100
AcDbText
  0
POINT
  5
117
330
106
100
AcDbEntity
  8
001
370
     9
100
AcDbPoint
 10
181.216799
 20
133.329068
 30
0.0
  0
POINT
  5
118
330
106
100
AcDbEntity
  8
001
370
     9
100
AcDbPoint
 10
61.216799
 20
140.406418
 30
0.0
  0
POINT
  5
119
330
106
100
AcDbEntity
  8
001
370
     9
100
AcDbPoint
 10
61.216799
 20
90.141807
 30
0.0
  0
ENDBLK
  5
108
330
106
100
AcDbEntity
  8
0
100
AcDbBlockEnd
  0
BLOCK
  5
11B
330
11A
100
AcDbEntity
  8
0
100
AcDbBlockBegin
  2
*D12
 70
     1
 10
0.0
 20
0.0
 30
0.0
  3
*D12
  1

  0
LINE
  5
11D
330
11A
100
AcDbEntity
  8
001
370
     9
100
AcDbLine
 10
179.216799
 20
131.329068
 30
0.0
 11
211.961213
 21
131.329068
 31
0.0
  0
LINE
  5
11E
330
11A
100
AcDbEntity
  8
001
370
     9
100
AcDbLine
 10
179.216799
 20
171.329068
 30
0.0
 11
211.961213
 21
171.329068
 31
0.0
  0
LINE
  5
11F
330
11A
100
AcDbEntity
  8
001
370
     9
100
AcDbLine
 10
208.523713
 20
131.329068
 30
0.0
 11
208.523713
 21
171.329068
 31
0.0
  0
POLYLINE
  5
120
330
11A
100
AcDbEntity
  8
001
370
     9
100
AcDb2dPolyline
 66
     1
 10
0.0
 20
0.0
 30
0.0
  0
VERTEX
  5
122
330
120
100
AcDbEntity
  8
001
370
     9
100
AcDbVertex
100
AcDb2dVertex
 10
209.026117
 20
133.204068
 30
0.0
  0
VERTEX
  5
123
330
120
100
AcDbEntity
  8
001
370
     9
100
AcDbVertex
100
AcDb2dVertex
 10
208.523713
 20
131.329068
 30
0.0
  0
VERTEX
  5
124
330
120
100
AcDbEntity
  8
001
370
     9
100
AcDbVertex
100
AcDb2dVertex
 10
208.021308
 20
133.204068
 30
0.0
  0
SEQEND
  5
121
330
120
100
AcDbEntity
  8
001
370
     9
  0
POLYLINE
  5
125
330
11A
100
AcDbEntity
  8
001
370
     9
100
AcDb2dPolyline
 66
     1
 10
0.0
 20
0.0
 30
0.0
  0
VERTEX
  5
127
330
125
100
AcDbEntity
  8
001
370
     9
100
AcDbVertex
100
AcDb2dVertex
 10
208.021308
 20
169.454068
 30
0.0
  0
VERTEX
  5
128
330
125
100
AcDbEntity
  8
001
370
     9
100
AcDbVertex
100
AcDb2dVertex
 10
208.523713
 20
171.329068
 30
0.0
  0
VERTEX
  5
129
330
125
100
AcDbEntity
  8
001
370
     9
100
AcDbVertex
100
AcDb2dVertex
 10
209.026117
 20
169.454068
 30
0.0
  0
SEQEND
  5
126
330
125
100
AcDbEntity
  8
001
370
     9
  0
TEXT
  5
12A
330
11A
100
AcDbEntity
  8
001
370
    30
100
AcDbText
 10
207.273713
 20
139.829068
 30
0.0
 40
5.0
  1
%%c４０
 50
90.000003
 41
0.882353
100
AcDbText
  0
TEXT
  5
12B
330
11A
100
AcDbEntity
  8
001
370
    30
100
AcDbText
 10
206.773713
 20
154.829068
 30
0.0
 40
4.0
  1
ｈ７
 50
90.000003
 41
0.833333
100
AcDbText
  0
POINT
  5
12C
330
11A
100
AcDbEntity
  8
001
370
     9
100
AcDbPoint
 10
179.216799
 20
131.329068
 30
0.0
  0
POINT
  5
12D
330
11A
100
AcDbEntity
  8
001
370
     9
100
AcDbPoint
 10
179.216799
 20
171.329068
 30
0.0
  0
POINT
  5
12E
330
11A
100
AcDbEntity
  8
001
370
     9
100
AcDbPoint
 10
208.523713
 20
171.329068
 30
0.0
  0
ENDBLK
  5
11C
330
11A
100
AcDbEntity
  8
0
100
AcDbBlockEnd
  0
BLOCK
  5
130
330
12F
100
AcDbEntity
  8
0
100
AcDbBlockBegin
  2
*D13
 70
     1
 10
0.0
 20
0.0
 30
0.0
  3
*D13
  1

  0
LINE
  5
132
330
12F
100
AcDbEntity
  8
001
370
     9
100
AcDbLine
 10
74.216799
 20
74.807605
 30
0.0
 11
74.216799
 21
83.113126
 31
0.0
  0
LINE
  5
133
330
12F
100
AcDbEntity
  8
001
370
     9
100
AcDbLine
 10
61.216799
 20
65.105205
 30
0.0
 11
61.216799
 21
83.113126
 31
0.0
  0
LINE
  5
134
330
12F
100
AcDbEntity
  8
001
370
     9
100
AcDbLine
 10
74.216799
 20
79.675626
 30
0.0
 11
61.216799
 21
79.675626
 31
0.0
  0
POLYLINE
  5
135
330
12F
100
AcDbEntity
  8
001
370
     9
100
AcDb2dPolyline
 66
     1
 10
0.0
 20
0.0
 30
0.0
  0
VERTEX
  5
137
330
135
100
AcDbEntity
  8
001
370
     9
100
AcDbVertex
100
AcDb2dVertex
 10
76.091799
 20
79.173221
 30
0.0
  0
VERTEX
  5
138
330
135
100
AcDbEntity
  8
001
370
     9
100
AcDbVertex
100
AcDb2dVertex
 10
74.216799
 20
79.675626
 30
0.0
  0
VERTEX
  5
139
330
135
100
AcDbEntity
  8
001
370
     9
100
AcDbVertex
100
AcDb2dVertex
 10
76.091799
 20
80.17803
 30
0.0
  0
SEQEND
  5
136
330
135
100
AcDbEntity
  8
001
370
     9
  0
POLYLINE
  5
13A
330
12F
100
AcDbEntity
  8
001
370
     9
100
AcDb2dPolyline
 66
     1
 10
0.0
 20
0.0
 30
0.0
  0
VERTEX
  5
13C
330
13A
100
AcDbEntity
  8
001
370
     9
100
AcDbVertex
100
AcDb2dVertex
 10
59.341799
 20
80.17803
 30
0.0
  0
VERTEX
  5
13D
330
13A
100
AcDbEntity
  8
001
370
     9
100
AcDbVertex
100
AcDb2dVertex
 10
61.216799
 20
79.675626
 30
0.0
  0
VERTEX
  5
13E
330
13A
100
AcDbEntity
  8
001
370
     9
100
AcDbVertex
100
AcDb2dVertex
 10
59.341799
 20
79.173221
 30
0.0
  0
SEQEND
  5
13B
330
13A
100
AcDbEntity
  8
001
370
     9
  0
TEXT
  5
13F
330
12F
100
AcDbEntity
  8
001
370
    30
100
AcDbText
 10
62.716799
 20
80.925626
 30
0.0
 40
5.0
  1
１３
 41
0.833333
100
AcDbText
  0
POINT
  5
140
330
12F
100
AcDbEntity
  8
001
370
     9
100
AcDbPoint
 10
74.216799
 20
74.807605
 30
0.0
  0
POINT
  5
141
330
12F
100
AcDbEntity
  8
001
370
     9
100
AcDbPoint
 10
61.216799
 20
65.105205
 30
0.0
  0
POINT
  5
142
330
12F
100
AcDbEntity
  8
001
370
     9
100
AcDbPoint
 10
61.216799
 20
79.675626
 30
0.0
  0
LINE
  5
143
330
12F
100
AcDbEntity
  8
001
370
     9
100
AcDbLine
 10
74.216799
 20
79.675626
 30
0.0
 11
77.341799
 21
79.675626
 31
0.0
  0
LINE
  5
144
330
12F
100
AcDbEntity
  8
001
370
     9
100
AcDbLine
 10
61.216799
 20
79.675626
 30
0.0
 11
58.091799
 21
79.675626
 31
0.0
  0
ENDBLK
  5
131
330
12F
100
AcDbEntity
  8
0
100
AcDbBlockEnd
  0
BLOCK
  5
146
330
145
100
AcDbEntity
  8
0
100
AcDbBlockBegin
  2
*D14
 70
     1
 10
0.0
 20
0.0
 30
0.0
  3
*D14
  1

  0
LINE
  5
148
330
145
100
AcDbEntity
  8
001
370
     9
100
AcDbLine
 10
89.216799
 20
74.807605
 30
0.0
 11
89.216799
 21
83.113126
 31
0.0
  0
LINE
  5
149
330
145
100
AcDbEntity
  8
001
370
     9
100
AcDbLine
 10
74.216799
 20
74.807605
 30
0.0
 11
74.216799
 21
83.113126
 31
0.0
  0
LINE
  5
14A
330
145
100
AcDbEntity
  8
001
370
     9
100
AcDbLine
 10
89.216799
 20
79.675626
 30
0.0
 11
74.216799
 21
79.675626
 31
0.0
  0
POLYLINE
  5
14B
330
145
100
AcDbEntity
  8
001
370
     9
100
AcDb2dPolyline
 66
     1
 10
0.0
 20
0.0
 30
0.0
  0
VERTEX
  5
14D
330
14B
100
AcDbEntity
  8
001
370
     9
100
AcDbVertex
100
AcDb2dVertex
 10
91.091799
 20
79.173221
 30
0.0
  0
VERTEX
  5
14E
330
14B
100
AcDbEntity
  8
001
370
     9
100
AcDbVertex
100
AcDb2dVertex
 10
89.216799
 20
79.675626
 30
0.0
  0
VERTEX
  5
14F
330
14B
100
AcDbEntity
  8
001
370
     9
100
AcDbVertex
100
AcDb2dVertex
 10
91.091799
 20
80.17803
 30
0.0
  0
SEQEND
  5
14C
330
14B
100
AcDbEntity
  8
001
370
     9
  0
POLYLINE
  5
150
330
145
100
AcDbEntity
  8
001
370
     9
100
AcDb2dPolyline
 66
     1
 10
0.0
 20
0.0
 30
0.0
  0
VERTEX
  5
152
330
150
100
AcDbEntity
  8
001
370
     9
100
AcDbVertex
100
AcDb2dVertex
 10
72.341799
 20
80.17803
 30
0.0
  0
VERTEX
  5
153
330
150
100
AcDbEntity
  8
001
370
     9
100
AcDbVertex
100
AcDb2dVertex
 10
74.216799
 20
79.675626
 30
0.0
  0
VERTEX
  5
154
330
150
100
AcDbEntity
  8
001
370
     9
100
AcDbVertex
100
AcDb2dVertex
 10
72.341799
 20
79.173221
 30
0.0
  0
SEQEND
  5
151
330
150
100
AcDbEntity
  8
001
370
     9
  0
TEXT
  5
155
330
145
100
AcDbEntity
  8
001
370
    30
100
AcDbText
 10
76.716799
 20
80.925626
 30
0.0
 40
5.0
  1
１５
 41
0.833333
100
AcDbText
  0
POINT
  5
156
330
145
100
AcDbEntity
  8
001
370
     9
100
AcDbPoint
 10
89.216799
 20
74.807605
 30
0.0
  0
POINT
  5
157
330
145
100
AcDbEntity
  8
001
370
     9
100
AcDbPoint
 10
74.216799
 20
74.807605
 30
0.0
  0
POINT
  5
158
330
145
100
AcDbEntity
  8
001
370
     9
100
AcDbPoint
 10
74.216799
 20
79.675626
 30
0.0
  0
LINE
  5
159
330
145
100
AcDbEntity
  8
001
370
     9
100
AcDbLine
 10
89.216799
 20
79.675626
 30
0.0
 11
92.341799
 21
79.675626
 31
0.0
  0
LINE
  5
15A
330
145
100
AcDbEntity
  8
001
370
     9
100
AcDbLine
 10
74.216799
 20
79.675626
 30
0.0
 11
71.091799
 21
79.675626
 31
0.0
  0
ENDBLK
  5
147
330
145
100
AcDbEntity
  8
0
100
AcDbBlockEnd
  0
BLOCK
  5
15C
330
15B
100
AcDbEntity
  8
0
100
AcDbBlockBegin
  2
DIM-5
 70
     0
 10
0.0
 20
0.0
 30
0.0
  3
DIM-5
  1

  0
TEXT
  5
15E
330
15B
100
AcDbEntity
  8
001
370
    30
100
AcDbText
 10
-16.64309
 20
112.775489
 30
0.0
 40
5.0
  1
２－Ｍ８×１．２５，貫通
 41
0.833333
100
AcDbText
  0
POLYLINE
  5
15F
330
15B
100
AcDbEntity
  8
001
370
     9
100
AcDb2dPolyline
 66
     1
 10
0.0
 20
0.0
 30
0.0
  0
VERTEX
  5
161
330
15F
100
AcDbEntity
  8
001
370
     9
100
AcDbVertex
100
AcDb2dVertex
 10
70.451992
 20
147.805076
 30
0.0
  0
VERTEX
  5
162
330
15F
100
AcDbEntity
  8
001
370
     9
100
AcDbVertex
100
AcDb2dVertex
 10
71.93444
 20
149.058225
 30
0.0
  0
VERTEX
  5
163
330
15F
100
AcDbEntity
  8
001
370
     9
100
AcDbVertex
100
AcDb2dVertex
 10
71.277177
 20
147.231742
 30
0.0
  0
SEQEND
  5
160
330
15F
100
AcDbEntity
  8
001
370
     9
  0
POLYLINE
  5
164
330
15B
100
AcDbEntity
  8
001
370
     9
100
AcDb2dPolyline
 66
     1
 10
0.0
 20
0.0
 30
0.0
  0
VERTEX
  5
166
330
164
100
AcDbEntity
  8
001
370
     9
100
AcDbVertex
100
AcDb2dVertex
 10
71.93444
 20
149.058225
 30
0.0
  0
VERTEX
  5
167
330
164
100
AcDbEntity
  8
001
370
     9
100
AcDbVertex
100
AcDb2dVertex
 10
45.85691
 20
111.525489
 30
0.0
  0
VERTEX
  5
168
330
164
100
AcDbEntity
  8
001
370
     9
100
AcDbVertex
100
AcDb2dVertex
 10
-19.14309
 20
111.525489
 30
0.0
  0
SEQEND
  5
165
330
164
100
AcDbEntity
  8
001
370
     9
  0
ENDBLK
  5
15D
330
15B
100
AcDbEntity
  8
0
100
AcDbBlockEnd
  0
BLOCK
  5
16A
330
169
100
AcDbEntity
  8
0
100
AcDbBlockBegin
  2
*D16
 70
     1
 10
0.0
 20
0.0
 30
0.0
  3
*D16
  1

  0
LINE
  5
16C
330
169
100
AcDbEntity
  8
001
370
     9
100
AcDbLine
 10
62.216799
 20
43.259905
 30
0.0
 11
61.471186
 21
42.593526
 31
0.0
  0
POLYLINE
  5
16D
330
169
100
AcDbEntity
  8
001
370
     9
100
AcDb2dPolyline
 66
     1
 10
0.0
 20
0.0
 30
0.0
  0
VERTEX
  5
16F
330
16D
100
AcDbEntity
  8
001
370
     9
100
AcDbVertex
100
AcDb2dVertex
 10
59.73837
 20
41.718664
 30
0.0
  0
VERTEX
  5
170
330
16D
100
AcDbEntity
  8
001
370
     9
100
AcDbVertex
100
AcDb2dVertex
 10
61.471186
 20
42.593526
 30
0.0
  0
VERTEX
  5
171
330
16D
100
AcDbEntity
  8
001
370
     9
100
AcDbVertex
100
AcDb2dVertex
 10
60.407954
 20
40.969465
 30
0.0
  0
SEQEND
  5
16E
330
16D
100
AcDbEntity
  8
001
370
     9
  0
TEXT
  5
172
330
169
100
AcDbEntity
  8
001
370
    30
100
AcDbText
 10
42.463898
 20
27.282545
 30
0.0
 40
5.0
  1
２－Ｒ１
 50
41.788235
 41
0.833333
100
AcDbText
  0
POINT
  5
173
330
169
100
AcDbEntity
  8
001
370
     9
100
AcDbPoint
 10
61.471186
 20
42.593526
 30
0.0
  0
POINT
  5
174
330
169
100
AcDbEntity
  8
001
370
     9
100
AcDbPoint
 10
62.216799
 20
43.259905
 30
0.0
  0
LINE
  5
175
330
169
100
AcDbEntity
  8
001
370
     9
100
AcDbLine
 10
61.471186
 20
42.593526
 30
0.0
 11
40.500824
 21
23.851606
 31
0.0
  0
ENDBLK
  5
16B
330
169
100
AcDbEntity
  8
0
100
AcDbBlockEnd
  0
BLOCK
  5
177
330
176
100
AcDbEntity
  8
0
100
AcDbBlockBegin
  2
*D17
 70
     1
 10
0.0
 20
0.0
 30
0.0
  3
*D17
  1

  0
LINE
  5
179
330
176
100
AcDbEntity
  8
001
370
     9
100
AcDbLine
 10
100.216799
 20
31.682555
 30
0.0
 11
100.78966
 21
30.862903
 31
0.0
  0
POLYLINE
  5
17A
330
176
100
AcDbEntity
  8
001
370
     9
100
AcDb2dPolyline
 66
     1
 10
0.0
 20
0.0
 30
0.0
  0
VERTEX
  5
17C
330
17A
100
AcDbEntity
  8
001
370
     9
100
AcDbVertex
100
AcDb2dVertex
 10
101.451978
 20
29.038246
 30
0.0
  0
VERTEX
  5
17D
330
17A
100
AcDbEntity
  8
001
370
     9
100
AcDbVertex
100
AcDb2dVertex
 10
100.78966
 20
30.862903
 30
0.0
  0
VERTEX
  5
17E
330
17A
100
AcDbEntity
  8
001
370
     9
100
AcDbVertex
100
AcDb2dVertex
 10
102.275573
 20
29.613863
 30
0.0
  0
SEQEND
  5
17B
330
17A
100
AcDbEntity
  8
001
370
     9
  0
TEXT
  5
17F
330
176
100
AcDbEntity
  8
001
370
    30
100
AcDbText
 10
104.320494
 20
27.993001
 30
0.0
 40
5.0
  1
２－Ｒ１
 50
304.950024
 41
0.833333
100
AcDbText
  0
POINT
  5
180
330
176
100
AcDbEntity
  8
001
370
     9
100
AcDbPoint
 10
100.78966
 20
30.862903
 30
0.0
  0
POINT
  5
181
330
176
100
AcDbEntity
  8
001
370
     9
100
AcDbPoint
 10
100.216799
 20
31.682555
 30
0.0
  0
LINE
  5
182
330
176
100
AcDbEntity
  8
001
370
     9
100
AcDbLine
 10
100.78966
 20
30.862903
 30
0.0
 11
116.901388
 21
7.810183
 31
0.0
  0
ENDBLK
  5
178
330
176
100
AcDbEntity
  8
0
100
AcDbBlockEnd
  0
BLOCK
  5
184
330
183
100
AcDbEntity
  8
0
100
AcDbBlockBegin
  2
*D18
 70
     1
 10
0.0
 20
0.0
 30
0.0
  3
*D18
  1

  0
LINE
  5
186
330
183
100
AcDbEntity
  8
001
370
     9
100
AcDbLine
 10
179.216799
 20
169.329068
 30
0.0
 11
180.810897
 21
170.536897
 31
0.0
  0
POLYLINE
  5
187
330
183
100
AcDbEntity
  8
001
370
     9
100
AcDb2dPolyline
 66
     1
 10
0.0
 20
0.0
 30
0.0
  0
VERTEX
  5
189
330
187
100
AcDbEntity
  8
001
370
     9
100
AcDbVertex
100
AcDb2dVertex
 10
182.608774
 20
171.268795
 30
0.0
  0
VERTEX
  5
18A
330
187
100
AcDbEntity
  8
001
370
     9
100
AcDbVertex
100
AcDb2dVertex
 10
180.810897
 20
170.536897
 30
0.0
  0
VERTEX
  5
18B
330
187
100
AcDbEntity
  8
001
370
     9
100
AcDbVertex
100
AcDb2dVertex
 10
182.001955
 20
172.069678
 30
0.0
  0
SEQEND
  5
188
330
187
100
AcDbEntity
  8
001
370
     9
  0
TEXT
  5
18C
330
183
100
AcDbEntity
  8
001
370
    30
100
AcDbText
 10
183.543094
 20
174.175334
 30
0.0
 40
5.0
  1
（Ｒ２）
 50
37.150772
 41
0.833333
100
AcDbText
  0
POINT
  5
18D
330
183
100
AcDbEntity
  8
001
370
     9
100
AcDbPoint
 10
180.810897
 20
170.536897
 30
0.0
  0
POINT
  5
18E
330
183
100
AcDbEntity
  8
001
370
     9
100
AcDbPoint
 10
179.216799
 20
169.329068
 30
0.0
  0
LINE
  5
18F
330
183
100
AcDbEntity
  8
001
370
     9
100
AcDbLine
 10
180.810897
 20
170.536897
 30
0.0
 11
203.227902
 21
187.521993
 31
0.0
  0
ENDBLK
  5
185
330
183
100
AcDbEntity
  8
0
100
AcDbBlockEnd
  0
BLOCK
  5
191
330
190
100
AcDbEntity
  8
0
100
AcDbBlockBegin
  2
*D19
 70
     1
 10
0.0
 20
0.0
 30
0.0
  3
*D19
  1

  0
LINE
  5
193
330
190
100
AcDbEntity
  8
001
370
     9
100
AcDbLine
 10
101.216799
 20
128.829068
 30
0.0
 11
101.216799
 21
98.533735
 31
0.0
  0
LINE
  5
194
330
190
100
AcDbEntity
  8
001
370
     9
100
AcDbLine
 10
181.216799
 20
133.329068
 30
0.0
 11
181.216799
 21
98.533735
 31
0.0
  0
LINE
  5
195
330
190
100
AcDbEntity
  8
001
370
     9
100
AcDbLine
 10
101.216799
 20
101.971235
 30
0.0
 11
181.216799
 21
101.971235
 31
0.0
  0
POLYLINE
  5
196
330
190
100
AcDbEntity
  8
001
370
     9
100
AcDb2dPolyline
 66
     1
 10
0.0
 20
0.0
 30
0.0
  0
VERTEX
  5
198
330
196
100
AcDbEntity
  8
001
370
     9
100
AcDbVertex
100
AcDb2dVertex
 10
103.091799
 20
101.46883
 30
0.0
  0
VERTEX
  5
199
330
196
100
AcDbEntity
  8
001
370
     9
100
AcDbVertex
100
AcDb2dVertex
 10
101.216799
 20
101.971235
 30
0.0
  0
VERTEX
  5
19A
330
196
100
AcDbEntity
  8
001
370
     9
100
AcDbVertex
100
AcDb2dVertex
 10
103.091799
 20
102.473639
 30
0.0
  0
SEQEND
  5
197
330
196
100
AcDbEntity
  8
001
370
     9
  0
POLYLINE
  5
19B
330
190
100
AcDbEntity
  8
001
370
     9
100
AcDb2dPolyline
 66
     1
 10
0.0
 20
0.0
 30
0.0
  0
VERTEX
  5
19D
330
19B
100
AcDbEntity
  8
001
370
     9
100
AcDbVertex
100
AcDb2dVertex
 10
179.341799
 20
102.473639
 30
0.0
  0
VERTEX
  5
19E
330
19B
100
AcDbEntity
  8
001
370
     9
100
AcDbVertex
100
AcDb2dVertex
 10
181.216799
 20
101.971235
 30
0.0
  0
VERTEX
  5
19F
330
19B
100
AcDbEntity
  8
001
370
     9
100
AcDbVertex
100
AcDb2dVertex
 10
179.341799
 20
101.46883
 30
0.0
  0
SEQEND
  5
19C
330
19B
100
AcDbEntity
  8
001
370
     9
  0
TEXT
  5
1A0
330
190
100
AcDbEntity
  8
001
370
    30
100
AcDbText
 10
131.216799
 20
103.221235
 30
0.0
 40
5.0
  1
（８０）
 41
0.833333
100
AcDbText
  0
POINT
  5
1A1
330
190
100
AcDbEntity
  8
001
370
     9
100
AcDbPoint
 10
101.216799
 20
128.829068
 30
0.0
  0
POINT
  5
1A2
330
190
100
AcDbEntity
  8
001
370
     9
100
AcDbPoint
 10
181.216799
 20
133.329068
 30
0.0
  0
POINT
  5
1A3
330
190
100
AcDbEntity
  8
001
370
     9
100
AcDbPoint
 10
181.216799
 20
101.971235
 30
0.0
  0
ENDBLK
  5
192
330
190
100
AcDbEntity
  8
0
100
AcDbBlockEnd
  0
BLOCK
  5
1A5
330
1A4
100
AcDbEntity
  8
0
100
AcDbBlockBegin
  2
*D20
 70
     1
 10
0.0
 20
0.0
 30
0.0
  3
*D20
  1

  0
LINE
  5
1A7
330
1A4
100
AcDbEntity
  8
001
370
     9
100
AcDbLine
 10
67.912951
 20
166.695093
 30
0.0
 11
118.652485
 21
195.989576
 31
0.0
  0
ARC
  5
1A8
330
1A4
100
AcDbEntity
  8
001
370
     9
100
AcDbCircle
 10
41.298215
 20
151.329068
 30
0.0
 40
85.8835172002042
100
AcDbArc
 50
0.0
 51
30.0
  0
POLYLINE
  5
1A9
330
1A4
100
AcDbEntity
  8
001
370
     9
100
AcDb2dPolyline
 66
     1
 10
0.0
 20
0.0
 30
0.0
  0
VERTEX
  5
1AB
330
1A9
100
AcDbEntity
  8
001
370
     9
100
AcDbVertex
100
AcDb2dVertex
 10
116.15743
 20
192.390454
 30
0.0
  0
VERTEX
  5
1AC
330
1A9
100
AcDbEntity
  8
001
370
     9
100
AcDbVertex
100
AcDb2dVertex
 10
115.675522
 20
194.270826
 30
0.0
  0
VERTEX
  5
1AD
330
1A9
100
AcDbEntity
  8
001
370
     9
100
AcDbVertex
100
AcDb2dVertex
 10
117.033053
 20
192.88333
 30
0.0
  0
SEQEND
  5
1AA
330
1A9
100
AcDbEntity
  8
001
370
     9
  0
POLYLINE
  5
1AE
330
1A4
100
AcDbEntity
  8
001
370
     9
100
AcDb2dPolyline
 66
     1
 10
0.0
 20
0.0
 30
0.0
  0
VERTEX
  5
1B0
330
1AE
100
AcDbEntity
  8
001
370
     9
100
AcDbVertex
100
AcDb2dVertex
 10
127.66364
 20
153.20944
 30
0.0
  0
VERTEX
  5
1B1
330
1AE
100
AcDbEntity
  8
001
370
     9
100
AcDbVertex
100
AcDb2dVertex
 10
127.181732
 20
151.329068
 30
0.0
  0
VERTEX
  5
1B2
330
1AE
100
AcDbEntity
  8
001
370
     9
100
AcDbVertex
100
AcDb2dVertex
 10
126.65889
 20
153.198472
 30
0.0
  0
SEQEND
  5
1AF
330
1AE
100
AcDbEntity
  8
001
370
     9
  0
TEXT
  5
1B3
330
1A4
100
AcDbEntity
  8
001
370
    30
100
AcDbText
 10
121.758838
 20
185.60133
 30
0.0
 40
5.0
  1
３０%%d
 50
288.152021
 41
0.978261
100
AcDbText
  0
POINT
  5
1B4
330
1A4
100
AcDbEntity
  8
001
370
     9
100
AcDbPoint
 10
67.912951
 20
166.695093
 30
0.0
  0
POINT
  5
1B5
330
1A4
100
AcDbEntity
  8
001
370
     9
100
AcDbPoint
 10
41.298215
 20
151.329068
 30
0.0
  0
POINT
  5
1B6
330
1A4
100
AcDbEntity
  8
001
370
     9
100
AcDbPoint
 10
41.298215
 20
151.329068
 30
0.0
  0
POINT
  5
1B7
330
1A4
100
AcDbEntity
  8
001
370
     9
100
AcDbPoint
 10
123.744232
 20
151.329068
 30
0.0
  0
ENDBLK
  5
1A6
330
1A4
100
AcDbEntity
  8
0
100
AcDbBlockEnd
  0
BLOCK
  5
1B9
330
1B8
100
AcDbEntity
  8
0
100
AcDbBlockBegin
  2
*D21
 70
     1
 10
0.0
 20
0.0
 30
0.0
  3
*D21
  1

  0
LINE
  5
1BB
330
1B8
100
AcDbEntity
  8
001
370
     9
100
AcDbLine
 10
68.145002
 20
166.829068
 30
0.0
 11
68.145002
 21
188.912319
 31
0.0
  0
LINE
  5
1BC
330
1B8
100
AcDbEntity
  8
001
370
     9
100
AcDbLine
 10
61.216799
 20
162.251717
 30
0.0
 11
61.216799
 21
188.912319
 31
0.0
  0
LINE
  5
1BD
330
1B8
100
AcDbEntity
  8
001
370
     9
100
AcDbLine
 10
68.145002
 20
185.474819
 30
0.0
 11
61.216799
 21
185.474819
 31
0.0
  0
POLYLINE
  5
1BE
330
1B8
100
AcDbEntity
  8
001
370
     9
100
AcDb2dPolyline
 66
     1
 10
0.0
 20
0.0
 30
0.0
  0
VERTEX
  5
1C0
330
1BE
100
AcDbEntity
  8
001
370
     9
100
AcDbVertex
100
AcDb2dVertex
 10
70.020002
 20
184.972414
 30
0.0
  0
VERTEX
  5
1C1
330
1BE
100
AcDbEntity
  8
001
370
     9
100
AcDbVertex
100
AcDb2dVertex
 10
68.145002
 20
185.474819
 30
0.0
  0
VERTEX
  5
1C2
330
1BE
100
AcDbEntity
  8
001
370
     9
100
AcDbVertex
100
AcDb2dVertex
 10
70.020002
 20
185.977223
 30
0.0
  0
SEQEND
  5
1BF
330
1BE
100
AcDbEntity
  8
001
370
     9
  0
POLYLINE
  5
1C3
330
1B8
100
AcDbEntity
  8
001
370
     9
100
AcDb2dPolyline
 66
     1
 10
0.0
 20
0.0
 30
0.0
  0
VERTEX
  5
1C5
330
1C3
100
AcDbEntity
  8
001
370
     9
100
AcDbVertex
100
AcDb2dVertex
 10
59.341799
 20
185.977223
 30
0.0
  0
VERTEX
  5
1C6
330
1C3
100
AcDbEntity
  8
001
370
     9
100
AcDbVertex
100
AcDb2dVertex
 10
61.216799
 20
185.474819
 30
0.0
  0
VERTEX
  5
1C7
330
1C3
100
AcDbEntity
  8
001
370
     9
100
AcDbVertex
100
AcDb2dVertex
 10
59.341799
 20
184.972414
 30
0.0
  0
SEQEND
  5
1C4
330
1C3
100
AcDbEntity
  8
001
370
     9
  0
TEXT
  5
1C8
330
1B8
100
AcDbEntity
  8
001
370
    30
100
AcDbText
 10
41.841799
 20
186.724819
 30
0.0
 40
5.0
  1
（７）
 41
0.833333
100
AcDbText
  0
POINT
  5
1C9
330
1B8
100
AcDbEntity
  8
001
370
     9
100
AcDbPoint
 10
68.145002
 20
166.829068
 30
0.0
  0
POINT
  5
1CA
330
1B8
100
AcDbEntity
  8
001
370
     9
100
AcDbPoint
 10
61.216799
 20
162.251717
 30
0.0
  0
POINT
  5
1CB
330
1B8
100
AcDbEntity
  8
001
370
     9
100
AcDbPoint
 10
61.216799
 20
185.474819
 30
0.0
  0
LINE
  5
1CC
330
1B8
100
AcDbEntity
  8
001
370
     9
100
AcDbLine
 10
68.145002
 20
185.474819
 30
0.0
 11
71.270002
 21
185.474819
 31
0.0
  0
LINE
  5
1CD
330
1B8
100
AcDbEntity
  8
001
370
     9
100
AcDbLine
 10
61.216799
 20
185.474819
 30
0.0
 11
38.091799
 21
185.474819
 31
0.0
  0
ENDBLK
  5
1BA
330
1B8
100
AcDbEntity
  8
0
100
AcDbBlockEnd
  0
BLOCK
  5
1CF
330
1CE
100
AcDbEntity
  8
0
100
AcDbBlockBegin
  2
*D22
 70
     1
 10
0.0
 20
0.0
 30
0.0
  3
*D22
  1

  0
LINE
  5
1D1
330
1CE
100
AcDbEntity
  8
001
370
     9
100
AcDbLine
 10
230.427849
 20
143.259991
 30
0.0
 11
230.427849
 21
103.799587
 31
0.0
  0
LINE
  5
1D2
330
1CE
100
AcDbEntity
  8
001
370
     9
100
AcDbLine
 10
268.727849
 20
151.329068
 30
0.0
 11
268.727849
 21
103.799587
 31
0.0
  0
LINE
  5
1D3
330
1CE
100
AcDbEntity
  8
001
370
     9
100
AcDbLine
 10
230.427849
 20
107.237087
 30
0.0
 11
268.727849
 21
107.237087
 31
0.0
  0
POLYLINE
  5
1D4
330
1CE
100
AcDbEntity
  8
001
370
     9
100
AcDb2dPolyline
 66
     1
 10
0.0
 20
0.0
 30
0.0
  0
VERTEX
  5
1D6
330
1D4
100
AcDbEntity
  8
001
370
     9
100
AcDbVertex
100
AcDb2dVertex
 10
232.302849
 20
106.734682
 30
0.0
  0
VERTEX
  5
1D7
330
1D4
100
AcDbEntity
  8
001
370
     9
100
AcDbVertex
100
AcDb2dVertex
 10
230.427849
 20
107.237087
 30
0.0
  0
VERTEX
  5
1D8
330
1D4
100
AcDbEntity
  8
001
370
     9
100
AcDbVertex
100
AcDb2dVertex
 10
232.302849
 20
107.739492
 30
0.0
  0
SEQEND
  5
1D5
330
1D4
100
AcDbEntity
  8
001
370
     9
  0
POLYLINE
  5
1D9
330
1CE
100
AcDbEntity
  8
001
370
     9
100
AcDb2dPolyline
 66
     1
 10
0.0
 20
0.0
 30
0.0
  0
VERTEX
  5
1DB
330
1D9
100
AcDbEntity
  8
001
370
     9
100
AcDbVertex
100
AcDb2dVertex
 10
266.852849
 20
107.739492
 30
0.0
  0
VERTEX
  5
1DC
330
1D9
100
AcDbEntity
  8
001
370
     9
100
AcDbVertex
100
AcDb2dVertex
 10
268.727849
 20
107.237087
 30
0.0
  0
VERTEX
  5
1DD
330
1D9
100
AcDbEntity
  8
001
370
     9
100
AcDbVertex
100
AcDb2dVertex
 10
266.852849
 20
106.734682
 30
0.0
  0
SEQEND
  5
1DA
330
1D9
100
AcDbEntity
  8
001
370
     9
  0
TEXT
  5
1DE
330
1CE
100
AcDbEntity
  8
001
370
    30
100
AcDbText
 10
244.577849
 20
108.487087
 30
0.0
 40
5.0
  1
３８
 41
0.833333
100
AcDbText
  0
POINT
  5
1DF
330
1CE
100
AcDbEntity
  8
001
370
     9
100
AcDbPoint
 10
230.427849
 20
143.259991
 30
0.0
  0
POINT
  5
1E0
330
1CE
100
AcDbEntity
  8
001
370
     9
100
AcDbPoint
 10
268.727849
 20
151.329068
 30
0.0
  0
POINT
  5
1E1
330
1CE
100
AcDbEntity
  8
001
370
     9
100
AcDbPoint
 10
268.727849
 20
107.237087
 30
0.0
  0
ENDBLK
  5
1D0
330
1CE
100
AcDbEntity
  8
0
100
AcDbBlockEnd
  0
BLOCK
  5
1E3
330
1E2
100
AcDbEntity
  8
0
100
AcDbBlockBegin
  2
*D23
 70
     1
 10
0.0
 20
0.0
 30
0.0
  3
*D23
  1

  0
LINE
  5
1E5
330
1E2
100
AcDbEntity
  8
001
370
     9
100
AcDbLine
 10
61.216799
 20
46.182555
 30
0.0
 11
28.711451
 21
46.182555
 31
0.0
  0
LINE
  5
1E6
330
1E2
100
AcDbEntity
  8
001
370
     9
100
AcDbLine
 10
61.216799
 20
62.182555
 30
0.0
 11
28.711451
 21
62.182555
 31
0.0
  0
LINE
  5
1E7
330
1E2
100
AcDbEntity
  8
001
370
     9
100
AcDbLine
 10
32.148951
 20
46.182555
 30
0.0
 11
32.148951
 21
62.182555
 31
0.0
  0
POLYLINE
  5
1E8
330
1E2
100
AcDbEntity
  8
001
370
     9
100
AcDb2dPolyline
 66
     1
 10
0.0
 20
0.0
 30
0.0
  0
VERTEX
  5
1EA
330
1E8
100
AcDbEntity
  8
001
370
     9
100
AcDbVertex
100
AcDb2dVertex
 10
31.646546
 20
44.307555
 30
0.0
  0
VERTEX
  5
1EB
330
1E8
100
AcDbEntity
  8
001
370
     9
100
AcDbVertex
100
AcDb2dVertex
 10
32.148951
 20
46.182555
 30
0.0
  0
VERTEX
  5
1EC
330
1E8
100
AcDbEntity
  8
001
370
     9
100
AcDbVertex
100
AcDb2dVertex
 10
32.651355
 20
44.307555
 30
0.0
  0
SEQEND
  5
1E9
330
1E8
100
AcDbEntity
  8
001
370
     9
  0
POLYLINE
  5
1ED
330
1E2
100
AcDbEntity
  8
001
370
     9
100
AcDb2dPolyline
 66
     1
 10
0.0
 20
0.0
 30
0.0
  0
VERTEX
  5
1EF
330
1ED
100
AcDbEntity
  8
001
370
     9
100
AcDbVertex
100
AcDb2dVertex
 10
32.651355
 20
64.057555
 30
0.0
  0
VERTEX
  5
1F0
330
1ED
100
AcDbEntity
  8
001
370
     9
100
AcDbVertex
100
AcDb2dVertex
 10
32.148951
 20
62.182555
 30
0.0
  0
VERTEX
  5
1F1
330
1ED
100
AcDbEntity
  8
001
370
     9
100
AcDbVertex
100
AcDb2dVertex
 10
31.646546
 20
64.057555
 30
0.0
  0
SEQEND
  5
1EE
330
1ED
100
AcDbEntity
  8
001
370
     9
  0
TEXT
  5
1F2
330
1E2
100
AcDbEntity
  8
001
370
    30
100
AcDbText
 10
30.898951
 20
66.517087
 30
0.0
 40
5.0
  1
%%c１６
 50
90.000003
 41
0.882353
100
AcDbText
  0
POINT
  5
1F3
330
1E2
100
AcDbEntity
  8
001
370
     9
100
AcDbPoint
 10
61.216799
 20
46.182555
 30
0.0
  0
POINT
  5
1F4
330
1E2
100
AcDbEntity
  8
001
370
     9
100
AcDbPoint
 10
61.216799
 20
62.182555
 30
0.0
  0
POINT
  5
1F5
330
1E2
100
AcDbEntity
  8
001
370
     9
100
AcDbPoint
 10
32.148951
 20
62.182555
 30
0.0
  0
LINE
  5
1F6
330
1E2
100
AcDbEntity
  8
001
370
     9
100
AcDbLine
 10
32.148951
 20
46.182555
 30
0.0
 11
32.148951
 21
43.057555
 31
0.0
  0
LINE
  5
1F7
330
1E2
100
AcDbEntity
  8
001
370
     9
100
AcDbLine
 10
32.148951
 20
62.182555
 30
0.0
 11
32.148951
 21
85.267087
 31
0.0
  0
ENDBLK
  5
1E4
330
1E2
100
AcDbEntity
  8
0
100
AcDbBlockEnd
  0
ENDSEC
  0
SECTION
  2
ENTITIES
  0
INSERT
  5
1F8
330
1F
100
AcDbEntity
  8
001
  6
ByBlock
 62
     0
370
    -2
100
AcDbBlockReference
  2
JZB-1
 10
0.0
 20
0.0
 30
0.0
  0
INSERT
  5
1F9
330
1F
100
AcDbEntity
  8
001
  6
ByBlock
 62
     0
370
    -2
100
AcDbBlockReference
  2
JZB-2
 10
0.0
 20
0.0
 30
0.0
  0
INSERT
  5
1FA
330
1F
100
AcDbEntity
  8
001
  6
ByBlock
 62
     0
370
    -2
100
AcDbBlockReference
  2
JZB-3
 10
0.0
 20
0.0
 30
0.0
  0
INSERT
  5
1FB
330
1F
100
AcDbEntity
  8
001
  6
ByBlock
 62
     0
370
    -2
100
AcDbBlockReference
  2
JZB-4
 10
0.0
 20
0.0
 30
0.0
  0
DIMENSION
  5
1FC
330
1F
100
AcDbEntity
  8
001
370
     9
100
AcDbDimension
  2
*D5
 10
35.803188
 20
168.329068
 30
0.0
 11
32.053187
 21
151.329067
 31
0.0
 70
   160
 71
     5
 42
-1.0
  3
Standard
100
AcDbAlignedDimension
 13
81.716799
 23
134.329068
 33
0.0
 14
81.716799
 24
168.329068
 34
0.0
 50
90.0
100
AcDbRotatedDimension
  0
DIMENSION
  5
1FD
330
1F
100
AcDbEntity
  8
001
370
     9
100
AcDbDimension
  2
*D6
 10
46.730914
 20
166.829068
 30
0.0
 11
42.980913
 21
151.329067
 31
0.0
 70
   160
 71
     5
 42
-1.0
  3
Standard
100
AcDbAlignedDimension
 13
68.412951
 23
135.829068
 33
0.0
 14
68.412951
 24
166.829068
 34
0.0
 50
90.0
100
AcDbRotatedDimension
  0
DIMENSION
  5
1FE
330
1F
100
AcDbEntity
  8
001
370
     9
100
AcDbDimension
  2
*D7
 10
24.372414
 20
174.829068
 30
0.0
 11
20.622413
 21
151.329067
 31
0.0
 70
   160
 71
     5
 42
-1.0
  3
Standard
100
AcDbAlignedDimension
 13
97.216799
 23
127.829068
 33
0.0
 14
97.216799
 24
174.829068
 34
0.0
 50
90.0
100
AcDbRotatedDimension
  0
DIMENSION
  5
1FF
330
1F
100
AcDbEntity
  8
001
370
     9
100
AcDbDimension
  2
*D8
 10
101.216799
 20
101.971235
 30
0.0
 11
98.716799
 21
105.721235
 31
0.0
 70
   160
 71
     5
 42
-1.0
  3
Standard
100
AcDbAlignedDimension
 13
96.216799
 23
128.829068
 33
0.0
 14
101.216799
 24
128.829068
 34
0.0
100
AcDbRotatedDimension
  0
DIMENSION
  5
200
330
1F
100
AcDbEntity
  8
001
370
     9
100
AcDbDimension
  2
*D9
 10
96.216799
 20
101.971235
 30
0.0
 11
88.716799
 21
105.721235
 31
0.0
 70
   160
 71
     5
 42
-1.0
  3
Standard
100
AcDbAlignedDimension
 13
81.216799
 23
134.829068
 33
0.0
 14
96.216799
 24
128.829068
 34
0.0
100
AcDbRotatedDimension
  0
DIMENSION
  5
201
330
1F
100
AcDbEntity
  8
001
370
     9
100
AcDbDimension
  2
*D10
 10
61.216799
 20
101.971235
 30
0.0
 11
71.216799
 21
105.721235
 31
0.0
 70
   160
 71
     5
 42
-1.0
  3
Standard
100
AcDbAlignedDimension
 13
81.216799
 23
134.829068
 33
0.0
 14
61.216799
 24
140.406418
 34
0.0
 50
180.0
100
AcDbRotatedDimension
  0
DIMENSION
  5
202
330
1F
100
AcDbEntity
  8
001
370
     9
100
AcDbDimension
  2
*D11
 10
61.216799
 20
90.141807
 30
0.0
 11
121.216799
 21
93.891807
 31
0.0
 70
   160
 71
     5
 42
-1.0
  3
Standard
100
AcDbAlignedDimension
 13
181.216799
 23
133.329068
 33
0.0
 14
61.216799
 24
140.406418
 34
0.0
 50
180.0
100
AcDbRotatedDimension
  0
DIMENSION
  5
203
330
1F
100
AcDbEntity
  8
001
370
     9
100
AcDbDimension
  2
*D12
 10
208.523713
 20
171.329068
 30
0.0
 11
204.773712
 21
151.329068
 31
0.0
 70
   160
 71
     5
 42
-1.0
  3
Standard
100
AcDbAlignedDimension
 13
179.216799
 23
131.329068
 33
0.0
 14
179.216799
 24
171.329068
 34
0.0
 50
90.0
100
AcDbRotatedDimension
  0
DIMENSION
  5
204
330
1F
100
AcDbEntity
  8
001
370
     9
100
AcDbDimension
  2
*D13
 10
61.216799
 20
79.675626
 30
0.0
 11
67.716799
 21
83.425626
 31
0.0
 70
   160
 71
     5
 42
-1.0
  3
Standard
100
AcDbAlignedDimension
 13
74.216799
 23
74.807605
 33
0.0
 14
61.216799
 24
65.105205
 34
0.0
 50
180.0
100
AcDbRotatedDimension
  0
DIMENSION
  5
205
330
1F
100
AcDbEntity
  8
001
370
     9
100
AcDbDimension
  2
*D14
 10
74.216799
 20
79.675626
 30
0.0
 11
81.716799
 21
83.425626
 31
0.0
 70
   160
 71
     5
 42
-1.0
  3
Standard
100
AcDbAlignedDimension
 13
89.216799
 23
74.807605
 33
0.0
 14
74.216799
 24
74.807605
 34
0.0
 50
180.0
100
AcDbRotatedDimension
  0
INSERT
  5
206
330
1F
100
AcDbEntity
  8
001
  6
ByBlock
 62
     0
370
    -2
100
AcDbBlockReference
  2
DIM-5
 10
0.0
 20
0.0
 30
0.0
  0
TEXT
  5
207
330
1F
100
AcDbEntity
  8
001
370
    30
100
AcDbText
 10
63.347188
 20
21.080711
 30
0.0
 40
5.0
  1
Ｃ０．５
 50
45.000001
 41
0.833333
100
AcDbText
  0
POLYLINE
  5
208
330
1F
100
AcDbEntity
  8
001
370
     9
100
AcDb2dPolyline
 66
     1
 10
0.0
 20
0.0
 30
0.0
  0
VERTEX
  5
20A
330
208
100
AcDbEntity
  8
001
370
     9
100
AcDbVertex
100
AcDb2dVertex
 10
79.78572
 20
36.461983
 30
0.0
  0
VERTEX
  5
20B
330
208
100
AcDbEntity
  8
001
370
     9
100
AcDbVertex
100
AcDb2dVertex
 10
81.466799
 20
37.432555
 30
0.0
  0
VERTEX
  5
20C
330
208
100
AcDbEntity
  8
001
370
     9
100
AcDbVertex
100
AcDb2dVertex
 10
80.496227
 20
35.751476
 30
0.0
  0
SEQEND
  5
209
330
208
100
AcDbEntity
  8
001
370
     9
  0
LINE
  5
20D
330
1F
100
AcDbEntity
  8
001
370
     9
100
AcDbLine
 10
81.466799
 20
37.432555
 30
0.0
 11
61.579421
 21
17.545177
 31
0.0
  0
DIMENSION
  5
20E
330
1F
100
AcDbEntity
  8
001
370
     9
100
AcDbDimension
  2
*D16
 10
62.216799
 20
43.259905
 30
0.0
 11
48.254078
 21
35.810371
 31
0.0
 70
   164
 71
     5
 42
-1.0
  3
Standard
100
AcDbRadialDimension
 15
61.471186
 25
42.593526
 35
0.0
 40
0.0
  0
DIMENSION
  5
20F
330
1F
100
AcDbEntity
  8
001
370
     9
100
AcDbDimension
  2
*D17
 10
100.216799
 20
31.682555
 30
0.0
 11
112.098242
 21
21.228635
 31
0.0
 70
   164
 71
     5
 42
-1.0
  3
Standard
100
AcDbRadialDimension
 15
100.78966
 25
30.862903
 35
0.0
 40
0.0
  0
DIMENSION
  5
210
330
1F
100
AcDbEntity
  8
001
370
     9
100
AcDbDimension
  2
*D18
 10
179.216799
 20
169.329068
 30
0.0
 11
190.003798
 21
182.207102
 31
0.0
 70
   164
 71
     5
 42
-1.0
  3
Standard
100
AcDbRadialDimension
 15
180.810897
 25
170.536897
 35
0.0
 40
0.0
  0
DIMENSION
  5
211
330
1F
100
AcDbEntity
  8
001
370
     9
100
AcDbDimension
  2
*D19
 10
181.216799
 20
101.971235
 30
0.0
 11
141.216799
 21
105.721235
 31
0.0
 70
   160
 71
     5
 42
-1.0
  3
Standard
100
AcDbAlignedDimension
 13
101.216799
 23
128.829068
 33
0.0
 14
181.216799
 24
133.329068
 34
0.0
100
AcDbRotatedDimension
  0
DIMENSION
  5
212
330
1F
100
AcDbEntity
  8
001
370
     9
100
AcDbDimension
  2
*D20
 10
41.298215
 20
151.329068
 30
0.0
 11
126.470966
 21
179.253428
 31
0.0
 70
    34
 71
     5
 42
-1.0
  3
Standard
100
AcDb2LineAngularDimension
 13
67.912951
 23
166.695093
 33
0.0
 14
41.298215
 24
151.329068
 34
0.0
 15
123.744232
 25
151.329068
 35
0.0
 16
124.255322
 26
173.557357
 36
0.0
  0
DIMENSION
  5
213
330
1F
100
AcDbEntity
  8
001
370
     9
100
AcDbDimension
  2
*D21
 10
61.216799
 20
185.474819
 30
0.0
 11
49.341799
 21
189.224819
 31
0.0
 70
   160
 71
     5
 42
-1.0
  3
Standard
100
AcDbAlignedDimension
 13
68.145002
 23
166.829068
 33
0.0
 14
61.216799
 24
162.251717
 34
0.0
 50
180.0
100
AcDbRotatedDimension
  0
DIMENSION
  5
214
330
1F
100
AcDbEntity
  8
001
370
     9
100
AcDbDimension
  2
*D22
 10
268.727849
 20
107.237087
 30
0.0
 11
249.577849
 21
110.987087
 31
0.0
 70
   160
 71
     5
 42
-1.0
  3
Standard
100
AcDbAlignedDimension
 13
230.427849
 23
143.259991
 33
0.0
 14
268.727849
 24
151.329068
 34
0.0
100
AcDbRotatedDimension
  0
DIMENSION
  5
215
330
1F
100
AcDbEntity
  8
001
370
     9
100
AcDbDimension
  2
*D23
 10
32.148951
 20
62.182555
 30
0.0
 11
28.39895
 21
74.017087
 31
0.0
 70
   160
 71
     5
 42
-1.0
  3
Standard
100
AcDbAlignedDimension
 13
61.216799
 23
46.182555
 33
0.0
 14
61.216799
 24
62.182555
 34
0.0
 50
90.0
100
AcDbRotatedDimension
  0
ARC
  5
216
330
1F
100
AcDbEntity
  8
001
 62
   253
370
    50
100
AcDbCircle
 10
100.216799
 20
173.829068
 30
0.0
 40
1.0
100
AcDbArc
 50
0.0
 51
90.0
  0
ARC
  5
217
330
1F
100
AcDbEntity
  8
001
 62
   253
370
    50
100
AcDbCircle
 10
100.216799
 20
128.829068
 30
0.0
 40
1.0
100
AcDbArc
 50
270.0
 51
0.0
  0
LINE
  5
218
330
1F
100
AcDbEntity
  8
001
 62
   253
370
    50
100
AcDbLine
 10
101.216799
 20
173.829068
 30
0.0
 11
101.216799
 21
128.829068
 31
0.0
  0
LINE
  5
219
330
1F
100
AcDbEntity
  8
001
 62
   253
370
    50
100
AcDbLine
 10
100.216799
 20
174.829068
 30
0.0
 11
97.216799
 21
174.829068
 31
0.0
  0
LINE
  5
21A
330
1F
100
AcDbEntity
  8
001
 62
   253
370
    50
100
AcDbLine
 10
97.216799
 20
127.829068
 30
0.0
 11
100.216799
 21
127.829068
 31
0.0
  0
ARC
  5
21B
330
1F
100
AcDbEntity
  8
001
 62
   253
370
    50
100
AcDbCircle
 10
97.216799
 20
128.829068
 30
0.0
 40
1.0
100
AcDbArc
 50
180.0
 51
270.0
  0
ARC
  5
21C
330
1F
100
AcDbEntity
  8
001
 62
   253
370
    50
100
AcDbCircle
 10
97.216799
 20
173.829068
 30
0.0
 40
1.0
100
AcDbArc
 50
90.0
 51
180.0
  0
LINE
  5
21D
330
1F
100
AcDbEntity
  8
001
 62
   253
370
    50
100
AcDbLine
 10
96.216799
 20
128.829068
 30
0.0
 11
96.216799
 21
173.829068
 31
0.0
  0
POLYLINE
  5
21E
330
1F
100
AcDbEntity
  8
001
 62
   253
370
    50
100
AcDb2dPolyline
 66
     1
 10
0.0
 20
0.0
 30
0.0
  0
VERTEX
  5
220
330
21E
100
AcDbEntity
  8
001
 62
   253
370
    50
100
AcDbVertex
100
AcDb2dVertex
 10
179.216799
 20
143.259991
 30
0.0
  0
VERTEX
  5
221
330
21E
100
AcDbEntity
  8
001
 62
   253
370
    50
100
AcDbVertex
100
AcDb2dVertex
 10
179.277704
 20
143.263236
 30
0.0
  0
VERTEX
  5
222
330
21E
100
AcDbEntity
  8
001
 62
   253
370
    50
100
AcDbVertex
100
AcDb2dVertex
 10
179.338297
 20
143.269151
 30
0.0
  0
VERTEX
  5
223
330
21E
100
AcDbEntity
  8
001
 62
   253
370
    50
100
AcDbVertex
100
AcDb2dVertex
 10
179.472234
 20
143.300094
 30
0.0
  0
VERTEX
  5
224
330
21E
100
AcDbEntity
  8
001
 62
   253
370
    50
100
AcDbVertex
100
AcDb2dVertex
 10
179.600088
 20
143.352319
 30
0.0
  0
VERTEX
  5
225
330
21E
100
AcDbEntity
  8
001
 62
   253
370
    50
100
AcDbVertex
100
AcDb2dVertex
 10
179.688981
 20
143.401271
 30
0.0
  0
VERTEX
  5
226
330
21E
100
AcDbEntity
  8
001
 62
   253
370
    50
100
AcDbVertex
100
AcDb2dVertex
 10
179.773069
 20
143.457682
 30
0.0
  0
VERTEX
  5
227
330
21E
100
AcDbEntity
  8
001
 62
   253
370
    50
100
AcDbVertex
100
AcDb2dVertex
 10
179.852601
 20
143.520732
 30
0.0
  0
VERTEX
  5
228
330
21E
100
AcDbEntity
  8
001
 62
   253
370
    50
100
AcDbVertex
100
AcDb2dVertex
 10
179.927573
 20
143.589262
 30
0.0
  0
VERTEX
  5
229
330
21E
100
AcDbEntity
  8
001
 62
   253
370
    50
100
AcDbVertex
100
AcDb2dVertex
 10
180.044292
 20
143.714748
 30
0.0
  0
VERTEX
  5
22A
330
21E
100
AcDbEntity
  8
001
 62
   253
370
    50
100
AcDbVertex
100
AcDb2dVertex
 10
180.149566
 20
143.850058
 30
0.0
  0
VERTEX
  5
22B
330
21E
100
AcDbEntity
  8
001
 62
   253
370
    50
100
AcDbVertex
100
AcDb2dVertex
 10
180.244737
 20
143.993038
 30
0.0
  0
VERTEX
  5
22C
330
21E
100
AcDbEntity
  8
001
 62
   253
370
    50
100
AcDbVertex
100
AcDb2dVertex
 10
180.331014
 20
144.141562
 30
0.0
  0
VERTEX
  5
22D
330
21E
100
AcDbEntity
  8
001
 62
   253
370
    50
100
AcDbVertex
100
AcDb2dVertex
 10
180.462851
 20
144.407507
 30
0.0
  0
VERTEX
  5
22E
330
21E
100
AcDbEntity
  8
001
 62
   253
370
    50
100
AcDbVertex
100
AcDb2dVertex
 10
180.575346
 20
144.682312
 30
0.0
  0
VERTEX
  5
22F
330
21E
100
AcDbEntity
  8
001
 62
   253
370
    50
100
AcDbVertex
100
AcDb2dVertex
 10
180.671434
 20
144.964818
 30
0.0
  0
VERTEX
  5
230
330
21E
100
AcDbEntity
  8
001
 62
   253
370
    50
100
AcDbVertex
100
AcDb2dVertex
 10
180.752942
 20
145.251826
 30
0.0
  0
VERTEX
  5
231
330
21E
100
AcDbEntity
  8
001
 62
   253
370
    50
100
AcDbVertex
100
AcDb2dVertex
 10
180.822331
 20
145.541725
 30
0.0
  0
VERTEX
  5
232
330
21E
100
AcDbEntity
  8
001
 62
   253
370
    50
100
AcDbVertex
100
AcDb2dVertex
 10
180.882306
 20
145.833754
 30
0.0
  0
VERTEX
  5
233
330
21E
100
AcDbEntity
  8
001
 62
   253
370
    50
100
AcDbVertex
100
AcDb2dVertex
 10
180.994729
 20
146.511952
 30
0.0
  0
VERTEX
  5
234
330
21E
100
AcDbEntity
  8
001
 62
   253
370
    50
100
AcDbVertex
100
AcDb2dVertex
 10
181.076401
 20
147.194639
 30
0.0
  0
VERTEX
  5
235
330
21E
100
AcDbEntity
  8
001
 62
   253
370
    50
100
AcDbVertex
100
AcDb2dVertex
 10
181.132441
 20
147.881224
 30
0.0
  0
VERTEX
  5
236
330
21E
100
AcDbEntity
  8
001
 62
   253
370
    50
100
AcDbVertex
100
AcDb2dVertex
 10
181.167453
 20
148.569168
 30
0.0
  0
VERTEX
  5
237
330
21E
100
AcDbEntity
  8
001
 62
   253
370
    50
100
AcDbVertex
100
AcDb2dVertex
 10
181.186271
 20
149.25938
 30
0.0
  0
VERTEX
  5
238
330
21E
100
AcDbEntity
  8
001
 62
   253
370
    50
100
AcDbVertex
100
AcDb2dVertex
 10
181.193897
 20
149.949819
 30
0.0
  0
VERTEX
  5
239
330
21E
100
AcDbEntity
  8
001
 62
   253
370
    50
100
AcDbVertex
100
AcDb2dVertex
 10
181.195244
 20
150.639447
 30
0.0
  0
VERTEX
  5
23A
330
21E
100
AcDbEntity
  8
001
 62
   253
370
    50
100
AcDbVertex
100
AcDb2dVertex
 10
181.194171
 20
151.329068
 30
0.0
  0
VERTEX
  5
23B
330
21E
100
AcDbEntity
  8
001
 62
   253
370
    50
100
AcDbVertex
100
AcDb2dVertex
 10
181.192989
 20
151.996323
 30
0.0
  0
VERTEX
  5
23C
330
21E
100
AcDbEntity
  8
001
 62
   253
370
    50
100
AcDbVertex
100
AcDb2dVertex
 10
181.188863
 20
152.663566
 30
0.0
  0
VERTEX
  5
23D
330
21E
100
AcDbEntity
  8
001
 62
   253
370
    50
100
AcDbVertex
100
AcDb2dVertex
 10
181.178021
 20
153.330734
 30
0.0
  0
VERTEX
  5
23E
330
21E
100
AcDbEntity
  8
001
 62
   253
370
    50
100
AcDbVertex
100
AcDb2dVertex
 10
181.15774
 20
153.997689
 30
0.0
  0
VERTEX
  5
23F
330
21E
100
AcDbEntity
  8
001
 62
   253
370
    50
100
AcDbVertex
100
AcDb2dVertex
 10
181.125448
 20
154.663837
 30
0.0
  0
VERTEX
  5
240
330
21E
100
AcDbEntity
  8
001
 62
   253
370
    50
100
AcDbVertex
100
AcDb2dVertex
 10
181.078006
 20
155.329068
 30
0.0
  0
VERTEX
  5
241
330
21E
100
AcDbEntity
  8
001
 62
   253
370
    50
100
AcDbVertex
100
AcDb2dVertex
 10
181.038019
 20
155.752122
 30
0.0
  0
VERTEX
  5
242
330
21E
100
AcDbEntity
  8
001
 62
   253
370
    50
100
AcDbVertex
100
AcDb2dVertex
 10
180.987538
 20
156.174034
 30
0.0
  0
VERTEX
  5
243
330
21E
100
AcDbEntity
  8
001
 62
   253
370
    50
100
AcDbVertex
100
AcDb2dVertex
 10
180.923779
 20
156.593969
 30
0.0
  0
VERTEX
  5
244
330
21E
100
AcDbEntity
  8
001
 62
   253
370
    50
100
AcDbVertex
100
AcDb2dVertex
 10
180.844692
 20
157.011288
 30
0.0
  0
VERTEX
  5
245
330
21E
100
AcDbEntity
  8
001
 62
   253
370
    50
100
AcDbVertex
100
AcDb2dVertex
 10
180.781442
 20
157.291053
 30
0.0
  0
VERTEX
  5
246
330
21E
100
AcDbEntity
  8
001
 62
   253
370
    50
100
AcDbVertex
100
AcDb2dVertex
 10
180.708283
 20
157.568371
 30
0.0
  0
VERTEX
  5
247
330
21E
100
AcDbEntity
  8
001
 62
   253
370
    50
100
AcDbVertex
100
AcDb2dVertex
 10
180.62296
 20
157.842484
 30
0.0
  0
VERTEX
  5
248
330
21E
100
AcDbEntity
  8
001
 62
   253
370
    50
100
AcDbVertex
100
AcDb2dVertex
 10
180.522954
 20
158.111627
 30
0.0
  0
VERTEX
  5
249
330
21E
100
AcDbEntity
  8
001
 62
   253
370
    50
100
AcDbVertex
100
AcDb2dVertex
 10
180.406393
 20
158.372282
 30
0.0
  0
VERTEX
  5
24A
330
21E
100
AcDbEntity
  8
001
 62
   253
370
    50
100
AcDbVertex
100
AcDb2dVertex
 10
180.270235
 20
158.623117
 30
0.0
  0
VERTEX
  5
24B
330
21E
100
AcDbEntity
  8
001
 62
   253
370
    50
100
AcDbVertex
100
AcDb2dVertex
 10
180.190323
 20
158.749088
 30
0.0
  0
VERTEX
  5
24C
330
21E
100
AcDbEntity
  8
001
 62
   253
370
    50
100
AcDbVertex
100
AcDb2dVertex
 10
180.103277
 20
158.870187
 30
0.0
  0
VERTEX
  5
24D
330
21E
100
AcDbEntity
  8
001
 62
   253
370
    50
100
AcDbVertex
100
AcDb2dVertex
 10
180.008229
 20
158.984783
 30
0.0
  0
VERTEX
  5
24E
330
21E
100
AcDbEntity
  8
001
 62
   253
370
    50
100
AcDbVertex
100
AcDb2dVertex
 10
179.904116
 20
159.091311
 30
0.0
  0
VERTEX
  5
24F
330
21E
100
AcDbEntity
  8
001
 62
   253
370
    50
100
AcDbVertex
100
AcDb2dVertex
 10
179.761681
 20
159.208594
 30
0.0
  0
VERTEX
  5
250
330
21E
100
AcDbEntity
  8
001
 62
   253
370
    50
100
AcDbVertex
100
AcDb2dVertex
 10
179.603635
 20
159.304075
 30
0.0
  0
VERTEX
  5
251
330
21E
100
AcDbEntity
  8
001
 62
   253
370
    50
100
AcDbVertex
100
AcDb2dVertex
 10
179.465595
 20
159.360111
 30
0.0
  0
VERTEX
  5
252
330
21E
100
AcDbEntity
  8
001
 62
   253
370
    50
100
AcDbVertex
100
AcDb2dVertex
 10
179.320802
 20
159.391435
 30
0.0
  0
VERTEX
  5
253
330
21E
100
AcDbEntity
  8
001
 62
   253
370
    50
100
AcDbVertex
100
AcDb2dVertex
 10
179.268898
 20
159.395754
 30
0.0
  0
VERTEX
  5
254
330
21E
100
AcDbEntity
  8
001
 62
   253
370
    50
100
AcDbVertex
100
AcDb2dVertex
 10
179.216799
 20
159.398144
 30
0.0
  0
SEQEND
  5
21F
330
21E
100
AcDbEntity
  8
001
370
    50
  0
LINE
  5
255
330
1F
100
AcDbEntity
  8
001
 62
   253
370
    50
100
AcDbLine
 10
104.216799
 20
143.259991
 30
0.0
 11
179.216799
 21
143.259991
 31
0.0
  0
LINE
  5
256
330
1F
100
AcDbEntity
  8
001
 62
   253
370
    50
100
AcDbLine
 10
104.216799
 20
144.594084
 30
0.0
 11
101.216799
 21
144.594084
 31
0.0
  0
LINE
  5
257
330
1F
100
AcDbEntity
  8
001
 62
   253
370
    50
100
AcDbLine
 10
101.216799
 20
158.064051
 30
0.0
 11
104.216799
 21
158.064051
 31
0.0
  0
LINE
  5
258
330
1F
100
AcDbEntity
  8
001
 62
   253
370
    50
100
AcDbLine
 10
179.216799
 20
159.398144
 30
0.0
 11
104.216799
 21
159.398144
 31
0.0
  0
LINE
  5
259
330
1F
100
AcDbEntity
  8
001
 62
   253
370
    50
100
AcDbLine
 10
104.216799
 20
131.329068
 30
0.0
 11
104.216799
 21
144.594084
 31
0.0
  0
LINE
  5
25A
330
1F
100
AcDbEntity
  8
001
 62
   253
370
    50
100
AcDbLine
 10
179.216799
 20
171.329068
 30
0.0
 11
104.216799
 21
171.329068
 31
0.0
  0
LINE
  5
25B
330
1F
100
AcDbEntity
  8
001
 62
   253
370
    50
100
AcDbLine
 10
104.216799
 20
131.329068
 30
0.0
 11
179.216799
 21
131.329068
 31
0.0
  0
LINE
  5
25C
330
1F
100
AcDbEntity
  8
001
 62
   253
370
    50
100
AcDbLine
 10
104.216799
 20
158.064051
 30
0.0
 11
104.216799
 21
171.329068
 31
0.0
  0
LINE
  5
25D
330
1F
100
AcDbEntity
  8
001
 62
   253
370
    50
100
AcDbLine
 10
104.216799
 20
170.829068
 30
0.0
 11
101.216799
 21
170.829068
 31
0.0
  0
LINE
  5
25E
330
1F
100
AcDbEntity
  8
001
 62
   253
370
    50
100
AcDbLine
 10
101.216799
 20
131.829068
 30
0.0
 11
104.216799
 21
131.829068
 31
0.0
  0
ARC
  5
25F
330
1F
100
AcDbEntity
  8
001
 62
   253
370
    50
100
AcDbCircle
 10
179.216799
 20
169.329068
 30
0.0
 40
2.0
100
AcDbArc
 50
0.0
 51
90.0
  0
ARC
  5
260
330
1F
100
AcDbEntity
  8
001
 62
   253
370
    50
100
AcDbCircle
 10
179.216799
 20
133.329068
 30
0.0
 40
2.0
100
AcDbArc
 50
270.0
 51
0.0
  0
LINE
  5
261
330
1F
100
AcDbEntity
  8
001
 62
   253
370
    50
100
AcDbLine
 10
181.216799
 20
169.329068
 30
0.0
 11
181.216799
 21
133.329068
 31
0.0
  0
POLYLINE
  5
262
330
1F
100
AcDbEntity
  8
001
 62
   253
370
    50
100
AcDb2dPolyline
 66
     1
 10
0.0
 20
0.0
 30
0.0
  0
VERTEX
  5
264
330
262
100
AcDbEntity
  8
001
 62
   253
370
    50
100
AcDbVertex
100
AcDb2dVertex
 10
93.009562
 20
149.394782
 30
0.0
  0
VERTEX
  5
265
330
262
100
AcDbEntity
  8
001
 62
   253
370
    50
100
AcDbVertex
100
AcDb2dVertex
 10
93.095223
 20
149.58076
 30
0.0
  0
VERTEX
  5
266
330
262
100
AcDbEntity
  8
001
 62
   253
370
    50
100
AcDbVertex
100
AcDb2dVertex
 10
93.177853
 20
149.77576
 30
0.0
  0
VERTEX
  5
267
330
262
100
AcDbEntity
  8
001
 62
   253
370
    50
100
AcDbVertex
100
AcDb2dVertex
 10
93.237959
 20
149.941541
 30
0.0
  0
VERTEX
  5
268
330
262
100
AcDbEntity
  8
001
 62
   253
370
    50
100
AcDbVertex
100
AcDb2dVertex
 10
93.278348
 20
150.096856
 30
0.0
  0
VERTEX
  5
269
330
262
100
AcDbEntity
  8
001
 62
   253
370
    50
100
AcDbVertex
100
AcDb2dVertex
 10
93.284488
 20
150.133268
 30
0.0
  0
VERTEX
  5
26A
330
262
100
AcDbEntity
  8
001
 62
   253
370
    50
100
AcDbVertex
100
AcDb2dVertex
 10
93.294107
 20
150.179116
 30
0.0
  0
VERTEX
  5
26B
330
262
100
AcDbEntity
  8
001
 62
   253
370
    50
100
AcDbVertex
100
AcDb2dVertex
 10
93.296333
 20
150.189789
 30
0.0
  0
VERTEX
  5
26C
330
262
100
AcDbEntity
  8
001
 62
   253
370
    50
100
AcDbVertex
100
AcDb2dVertex
 10
93.294926
 20
150.196185
 30
0.0
  0
VERTEX
  5
26D
330
262
100
AcDbEntity
  8
001
 62
   253
370
    50
100
AcDbVertex
100
AcDb2dVertex
 10
93.289103
 20
150.195534
 30
0.0
  0
VERTEX
  5
26E
330
262
100
AcDbEntity
  8
001
 62
   253
370
    50
100
AcDbVertex
100
AcDb2dVertex
 10
93.281599
 20
150.191316
 30
0.0
  0
VERTEX
  5
26F
330
262
100
AcDbEntity
  8
001
 62
   253
370
    50
100
AcDbVertex
100
AcDb2dVertex
 10
93.266534
 20
150.171899
 30
0.0
  0
VERTEX
  5
270
330
262
100
AcDbEntity
  8
001
 62
   253
370
    50
100
AcDbVertex
100
AcDb2dVertex
 10
93.260935
 20
150.149308
 30
0.0
  0
VERTEX
  5
271
330
262
100
AcDbEntity
  8
001
 62
   253
370
    50
100
AcDbVertex
100
AcDb2dVertex
 10
93.229801
 20
150.061165
 30
0.0
  0
VERTEX
  5
272
330
262
100
AcDbEntity
  8
001
 62
   253
370
    50
100
AcDbVertex
100
AcDb2dVertex
 10
93.184225
 20
149.977672
 30
0.0
  0
VERTEX
  5
273
330
262
100
AcDbEntity
  8
001
 62
   253
370
    50
100
AcDbVertex
100
AcDb2dVertex
 10
92.998584
 20
149.646559
 30
0.0
  0
VERTEX
  5
274
330
262
100
AcDbEntity
  8
001
 62
   253
370
    50
100
AcDbVertex
100
AcDb2dVertex
 10
92.801575
 20
149.326835
 30
0.0
  0
VERTEX
  5
275
330
262
100
AcDbEntity
  8
001
 62
   253
370
    50
100
AcDbVertex
100
AcDb2dVertex
 10
92.662475
 20
149.141467
 30
0.0
  0
VERTEX
  5
276
330
262
100
AcDbEntity
  8
001
 62
   253
370
    50
100
AcDbVertex
100
AcDb2dVertex
 10
92.509694
 20
148.966352
 30
0.0
  0
VERTEX
  5
277
330
262
100
AcDbEntity
  8
001
 62
   253
370
    50
100
AcDbVertex
100
AcDb2dVertex
 10
92.344426
 20
148.799206
 30
0.0
  0
VERTEX
  5
278
330
262
100
AcDbEntity
  8
001
 62
   253
370
    50
100
AcDbVertex
100
AcDb2dVertex
 10
92.173683
 20
148.637793
 30
0.0
  0
SEQEND
  5
263
330
262
100
AcDbEntity
  8
001
370
    50
  0
LINE
  5
279
330
1F
100
AcDbEntity
  8
001
 62
   253
370
    50
100
AcDbLine
 10
87.301682
 20
147.52663
 30
0.0
 11
87.272165
 21
147.541614
 31
0.0
  0
POLYLINE
  5
27A
330
1F
100
AcDbEntity
  8
001
 62
   253
370
    50
100
AcDb2dPolyline
 66
     1
 10
0.0
 20
0.0
 30
0.0
  0
VERTEX
  5
27C
330
27A
100
AcDbEntity
  8
001
 62
   253
370
    50
100
AcDbVertex
100
AcDb2dVertex
 10
87.272165
 20
147.541614
 30
0.0
  0
VERTEX
  5
27D
330
27A
100
AcDbEntity
  8
001
 62
   253
370
    50
100
AcDbVertex
100
AcDb2dVertex
 10
87.240632
 20
147.558337
 30
0.0
  0
VERTEX
  5
27E
330
27A
100
AcDbEntity
  8
001
 62
   253
370
    50
100
AcDbVertex
100
AcDb2dVertex
 10
87.20934
 20
147.575484
 30
0.0
  0
VERTEX
  5
27F
330
27A
100
AcDbEntity
  8
001
 62
   253
370
    50
100
AcDbVertex
100
AcDb2dVertex
 10
87.163794
 20
147.602136
 30
0.0
  0
VERTEX
  5
280
330
27A
100
AcDbEntity
  8
001
 62
   253
370
    50
100
AcDbVertex
100
AcDb2dVertex
 10
87.118775
 20
147.629714
 30
0.0
  0
SEQEND
  5
27B
330
27A
100
AcDbEntity
  8
001
370
    50
  0
POLYLINE
  5
281
330
1F
100
AcDbEntity
  8
001
 62
   253
370
    50
100
AcDb2dPolyline
 66
     1
 10
0.0
 20
0.0
 30
0.0
  0
VERTEX
  5
283
330
281
100
AcDbEntity
  8
001
 62
   253
370
    50
100
AcDbVertex
100
AcDb2dVertex
 10
87.118775
 20
147.629714
 30
0.0
  0
VERTEX
  5
284
330
281
100
AcDbEntity
  8
001
 62
   253
370
    50
100
AcDbVertex
100
AcDb2dVertex
 10
87.020247
 20
147.697253
 30
0.0
  0
VERTEX
  5
285
330
281
100
AcDbEntity
  8
001
 62
   253
370
    50
100
AcDbVertex
100
AcDb2dVertex
 10
86.93129
 20
147.774274
 30
0.0
  0
VERTEX
  5
286
330
281
100
AcDbEntity
  8
001
 62
   253
370
    50
100
AcDbVertex
100
AcDb2dVertex
 10
86.864676
 20
147.857467
 30
0.0
  0
VERTEX
  5
287
330
281
100
AcDbEntity
  8
001
 62
   253
370
    50
100
AcDbVertex
100
AcDb2dVertex
 10
86.806405
 20
147.948122
 30
0.0
  0
VERTEX
  5
288
330
281
100
AcDbEntity
  8
001
 62
   253
370
    50
100
AcDbVertex
100
AcDb2dVertex
 10
86.74946
 20
148.040969
 30
0.0
  0
VERTEX
  5
289
330
281
100
AcDbEntity
  8
001
 62
   253
370
    50
100
AcDbVertex
100
AcDb2dVertex
 10
86.69305
 20
148.133517
 30
0.0
  0
SEQEND
  5
282
330
281
100
AcDbEntity
  8
001
370
    50
  0
POLYLINE
  5
28A
330
1F
100
AcDbEntity
  8
001
 62
   253
370
    50
100
AcDb2dPolyline
 66
     1
 10
0.0
 20
0.0
 30
0.0
  0
VERTEX
  5
28C
330
28A
100
AcDbEntity
  8
001
 62
   253
370
    50
100
AcDbVertex
100
AcDb2dVertex
 10
92.948522
 20
149.279505
 30
0.0
  0
VERTEX
  5
28D
330
28A
100
AcDbEntity
  8
001
 62
   253
370
    50
100
AcDbVertex
100
AcDb2dVertex
 10
92.8314
 20
149.086901
 30
0.0
  0
VERTEX
  5
28E
330
28A
100
AcDbEntity
  8
001
 62
   253
370
    50
100
AcDbVertex
100
AcDb2dVertex
 10
92.706826
 20
148.899252
 30
0.0
  0
VERTEX
  5
28F
330
28A
100
AcDbEntity
  8
001
 62
   253
370
    50
100
AcDbVertex
100
AcDb2dVertex
 10
92.547617
 20
148.696132
 30
0.0
  0
VERTEX
  5
290
330
28A
100
AcDbEntity
  8
001
 62
   253
370
    50
100
AcDbVertex
100
AcDb2dVertex
 10
92.370289
 20
148.508539
 30
0.0
  0
VERTEX
  5
291
330
28A
100
AcDbEntity
  8
001
 62
   253
370
    50
100
AcDbVertex
100
AcDb2dVertex
 10
92.170428
 20
148.333031
 30
0.0
  0
VERTEX
  5
292
330
28A
100
AcDbEntity
  8
001
 62
   253
370
    50
100
AcDbVertex
100
AcDb2dVertex
 10
91.957336
 20
148.173484
 30
0.0
  0
VERTEX
  5
293
330
28A
100
AcDbEntity
  8
001
 62
   253
370
    50
100
AcDbVertex
100
AcDb2dVertex
 10
91.609379
 20
147.952143
 30
0.0
  0
VERTEX
  5
294
330
28A
100
AcDbEntity
  8
001
 62
   253
370
    50
100
AcDbVertex
100
AcDb2dVertex
 10
91.24398
 20
147.760998
 30
0.0
  0
VERTEX
  5
295
330
28A
100
AcDbEntity
  8
001
 62
   253
370
    50
100
AcDbVertex
100
AcDb2dVertex
 10
90.852747
 20
147.595387
 30
0.0
  0
VERTEX
  5
296
330
28A
100
AcDbEntity
  8
001
 62
   253
370
    50
100
AcDbVertex
100
AcDb2dVertex
 10
90.449551
 20
147.461589
 30
0.0
  0
VERTEX
  5
297
330
28A
100
AcDbEntity
  8
001
 62
   253
370
    50
100
AcDbVertex
100
AcDb2dVertex
 10
90.039377
 20
147.360045
 30
0.0
  0
VERTEX
  5
298
330
28A
100
AcDbEntity
  8
001
 62
   253
370
    50
100
AcDbVertex
100
AcDb2dVertex
 10
89.622641
 20
147.289605
 30
0.0
  0
VERTEX
  5
299
330
28A
100
AcDbEntity
  8
001
 62
   253
370
    50
100
AcDbVertex
100
AcDb2dVertex
 10
89.190993
 20
147.249387
 30
0.0
  0
VERTEX
  5
29A
330
28A
100
AcDbEntity
  8
001
 62
   253
370
    50
100
AcDbVertex
100
AcDb2dVertex
 10
88.757783
 20
147.242142
 30
0.0
  0
VERTEX
  5
29B
330
28A
100
AcDbEntity
  8
001
 62
   253
370
    50
100
AcDbVertex
100
AcDb2dVertex
 10
88.539998
 20
147.250968
 30
0.0
  0
VERTEX
  5
29C
330
28A
100
AcDbEntity
  8
001
 62
   253
370
    50
100
AcDbVertex
100
AcDb2dVertex
 10
88.322554
 20
147.266987
 30
0.0
  0
VERTEX
  5
29D
330
28A
100
AcDbEntity
  8
001
 62
   253
370
    50
100
AcDbVertex
100
AcDb2dVertex
 10
88.104441
 20
147.29024
 30
0.0
  0
VERTEX
  5
29E
330
28A
100
AcDbEntity
  8
001
 62
   253
370
    50
100
AcDbVertex
100
AcDb2dVertex
 10
87.888032
 20
147.325566
 30
0.0
  0
VERTEX
  5
29F
330
28A
100
AcDbEntity
  8
001
 62
   253
370
    50
100
AcDbVertex
100
AcDb2dVertex
 10
87.713444
 20
147.367449
 30
0.0
  0
VERTEX
  5
2A0
330
28A
100
AcDbEntity
  8
001
 62
   253
370
    50
100
AcDbVertex
100
AcDb2dVertex
 10
87.542938
 20
147.423151
 30
0.0
  0
VERTEX
  5
2A1
330
28A
100
AcDbEntity
  8
001
 62
   253
370
    50
100
AcDbVertex
100
AcDb2dVertex
 10
87.421489
 20
147.472823
 30
0.0
  0
VERTEX
  5
2A2
330
28A
100
AcDbEntity
  8
001
 62
   253
370
    50
100
AcDbVertex
100
AcDb2dVertex
 10
87.301682
 20
147.52663
 30
0.0
  0
SEQEND
  5
28B
330
28A
100
AcDbEntity
  8
001
370
    50
  0
LINE
  5
2A3
330
1F
100
AcDbEntity
  8
001
 62
   253
370
    50
100
AcDbLine
 10
92.947503
 20
149.277622
 30
0.0
 11
93.00871
 21
149.393097
 31
0.0
  0
LINE
  5
2A4
330
1F
100
AcDbEntity
  8
001
 62
   253
370
    50
100
AcDbLine
 10
87.25769
 20
147.549058
 30
0.0
 11
87.302168
 21
147.526336
 31
0.0
  0
LINE
  5
2A5
330
1F
100
AcDbEntity
  8
001
 62
   253
370
    50
100
AcDbLine
 10
92.977867
 20
149.333879
 30
0.0
 11
93.009562
 21
149.394782
 31
0.0
  0
LINE
  5
2A6
330
1F
100
AcDbEntity
  8
001
 62
   253
370
    50
100
AcDbLine
 10
92.977867
 20
149.333879
 30
0.0
 11
92.948522
 21
149.279505
 31
0.0
  0
POLYLINE
  5
2A7
330
1F
100
AcDbEntity
  8
001
 62
   253
370
    50
100
AcDb2dPolyline
 66
     1
 10
0.0
 20
0.0
 30
0.0
  0
VERTEX
  5
2A9
330
2A7
100
AcDbEntity
  8
001
 62
   253
370
    50
100
AcDbVertex
100
AcDb2dVertex
 10
85.427196
 20
150.051444
 30
0.0
  0
VERTEX
  5
2AA
330
2A7
100
AcDbEntity
  8
001
 62
   253
370
    50
100
AcDbVertex
100
AcDb2dVertex
 10
85.524157
 20
149.779669
 30
0.0
  0
VERTEX
  5
2AB
330
2A7
100
AcDbEntity
  8
001
 62
   253
370
    50
100
AcDbVertex
100
AcDb2dVertex
 10
85.633284
 20
149.513231
 30
0.0
  0
VERTEX
  5
2AC
330
2A7
100
AcDbEntity
  8
001
 62
   253
370
    50
100
AcDbVertex
100
AcDb2dVertex
 10
85.766972
 20
149.251133
 30
0.0
  0
VERTEX
  5
2AD
330
2A7
100
AcDbEntity
  8
001
 62
   253
370
    50
100
AcDbVertex
100
AcDb2dVertex
 10
85.921104
 20
148.999745
 30
0.0
  0
VERTEX
  5
2AE
330
2A7
100
AcDbEntity
  8
001
 62
   253
370
    50
100
AcDbVertex
100
AcDb2dVertex
 10
86.087983
 20
148.764613
 30
0.0
  0
VERTEX
  5
2AF
330
2A7
100
AcDbEntity
  8
001
 62
   253
370
    50
100
AcDbVertex
100
AcDb2dVertex
 10
86.271893
 20
148.543373
 30
0.0
  0
VERTEX
  5
2B0
330
2A7
100
AcDbEntity
  8
001
 62
   253
370
    50
100
AcDbVertex
100
AcDb2dVertex
 10
86.477457
 20
148.333767
 30
0.0
  0
VERTEX
  5
2B1
330
2A7
100
AcDbEntity
  8
001
 62
   253
370
    50
100
AcDbVertex
100
AcDb2dVertex
 10
86.69305
 20
148.133517
 30
0.0
  0
SEQEND
  5
2A8
330
2A7
100
AcDbEntity
  8
001
370
    50
  0
POLYLINE
  5
2B2
330
1F
100
AcDbEntity
  8
001
 62
   253
370
    50
100
AcDb2dPolyline
 66
     1
 10
0.0
 20
0.0
 30
0.0
  0
VERTEX
  5
2B4
330
2B2
100
AcDbEntity
  8
001
 62
   253
370
    50
100
AcDbVertex
100
AcDb2dVertex
 10
92.977867
 20
149.333879
 30
0.0
  0
VERTEX
  5
2B5
330
2B2
100
AcDbEntity
  8
001
 62
   253
370
    50
100
AcDbVertex
100
AcDb2dVertex
 10
93.110738
 20
149.555389
 30
0.0
  0
VERTEX
  5
2B6
330
2B2
100
AcDbEntity
  8
001
 62
   253
370
    50
100
AcDbVertex
100
AcDb2dVertex
 10
93.233664
 20
149.782066
 30
0.0
  0
VERTEX
  5
2B7
330
2B2
100
AcDbEntity
  8
001
 62
   253
370
    50
100
AcDbVertex
100
AcDb2dVertex
 10
93.361292
 20
150.076641
 30
0.0
  0
VERTEX
  5
2B8
330
2B2
100
AcDbEntity
  8
001
 62
   253
370
    50
100
AcDbVertex
100
AcDb2dVertex
 10
93.460594
 20
150.382596
 30
0.0
  0
VERTEX
  5
2B9
330
2B2
100
AcDbEntity
  8
001
 62
   253
370
    50
100
AcDbVertex
100
AcDb2dVertex
 10
93.533282
 20
150.696165
 30
0.0
  0
VERTEX
  5
2BA
330
2B2
100
AcDbEntity
  8
001
 62
   253
370
    50
100
AcDbVertex
100
AcDb2dVertex
 10
93.577569
 20
151.014628
 30
0.0
  0
VERTEX
  5
2BB
330
2B2
100
AcDbEntity
  8
001
 62
   253
370
    50
100
AcDbVertex
100
AcDb2dVertex
 10
93.591574
 20
151.312637
 30
0.0
  0
VERTEX
  5
2BC
330
2B2
100
AcDbEntity
  8
001
 62
   253
370
    50
100
AcDbVertex
100
AcDb2dVertex
 10
93.57989
 20
151.610889
 30
0.0
  0
VERTEX
  5
2BD
330
2B2
100
AcDbEntity
  8
001
 62
   253
370
    50
100
AcDbVertex
100
AcDb2dVertex
 10
93.54326
 20
151.906951
 30
0.0
  0
VERTEX
  5
2BE
330
2B2
100
AcDbEntity
  8
001
 62
   253
370
    50
100
AcDbVertex
100
AcDb2dVertex
 10
93.481768
 20
152.198767
 30
0.0
  0
VERTEX
  5
2BF
330
2B2
100
AcDbEntity
  8
001
 62
   253
370
    50
100
AcDbVertex
100
AcDb2dVertex
 10
93.398898
 20
152.474822
 30
0.0
  0
VERTEX
  5
2C0
330
2B2
100
AcDbEntity
  8
001
 62
   253
370
    50
100
AcDbVertex
100
AcDb2dVertex
 10
93.294211
 20
152.743412
 30
0.0
  0
VERTEX
  5
2C1
330
2B2
100
AcDbEntity
  8
001
 62
   253
370
    50
100
AcDbVertex
100
AcDb2dVertex
 10
93.16926
 20
153.002725
 30
0.0
  0
VERTEX
  5
2C2
330
2B2
100
AcDbEntity
  8
001
 62
   253
370
    50
100
AcDbVertex
100
AcDb2dVertex
 10
93.024881
 20
153.251731
 30
0.0
  0
VERTEX
  5
2C3
330
2B2
100
AcDbEntity
  8
001
 62
   253
370
    50
100
AcDbVertex
100
AcDb2dVertex
 10
92.851243
 20
153.503607
 30
0.0
  0
VERTEX
  5
2C4
330
2B2
100
AcDbEntity
  8
001
 62
   253
370
    50
100
AcDbVertex
100
AcDb2dVertex
 10
92.658472
 20
153.74113
 30
0.0
  0
VERTEX
  5
2C5
330
2B2
100
AcDbEntity
  8
001
 62
   253
370
    50
100
AcDbVertex
100
AcDb2dVertex
 10
92.44845
 20
153.963264
 30
0.0
  0
VERTEX
  5
2C6
330
2B2
100
AcDbEntity
  8
001
 62
   253
370
    50
100
AcDbVertex
100
AcDb2dVertex
 10
92.222847
 20
154.169827
 30
0.0
  0
VERTEX
  5
2C7
330
2B2
100
AcDbEntity
  8
001
 62
   253
370
    50
100
AcDbVertex
100
AcDb2dVertex
 10
91.959444
 20
154.377536
 30
0.0
  0
VERTEX
  5
2C8
330
2B2
100
AcDbEntity
  8
001
 62
   253
370
    50
100
AcDbVertex
100
AcDb2dVertex
 10
91.679939
 20
154.562155
 30
0.0
  0
VERTEX
  5
2C9
330
2B2
100
AcDbEntity
  8
001
 62
   253
370
    50
100
AcDbVertex
100
AcDb2dVertex
 10
91.385627
 20
154.722619
 30
0.0
  0
VERTEX
  5
2CA
330
2B2
100
AcDbEntity
  8
001
 62
   253
370
    50
100
AcDbVertex
100
AcDb2dVertex
 10
91.083524
 20
154.869347
 30
0.0
  0
SEQEND
  5
2B3
330
2B2
100
AcDbEntity
  8
001
370
    50
  0
LINE
  5
2CB
330
1F
100
AcDbEntity
  8
001
 62
   253
370
    50
100
AcDbLine
 10
96.216799
 20
168.329068
 30
0.0
 11
81.716799
 21
168.329068
 31
0.0
  0
LINE
  5
2CC
330
1F
100
AcDbEntity
  8
001
 62
   253
370
    50
100
AcDbLine
 10
81.716799
 20
134.329068
 30
0.0
 11
96.216799
 21
134.329068
 31
0.0
  0
LINE
  5
2CD
330
1F
100
AcDbEntity
  8
001
 62
   253
370
    50
100
AcDbLine
 10
81.716799
 20
168.329068
 30
0.0
 11
81.716799
 21
134.329068
 31
0.0
  0
POLYLINE
  5
2CE
330
1F
100
AcDbEntity
  8
001
 62
   253
370
    50
100
AcDb2dPolyline
 66
     1
 10
0.0
 20
0.0
 30
0.0
  0
VERTEX
  5
2D0
330
2CE
100
AcDbEntity
  8
001
 62
   253
370
    50
100
AcDbVertex
100
AcDb2dVertex
 10
87.350074
 20
154.869347
 30
0.0
  0
VERTEX
  5
2D1
330
2CE
100
AcDbEntity
  8
001
 62
   253
370
    50
100
AcDbVertex
100
AcDb2dVertex
 10
87.156886
 20
154.779916
 30
0.0
  0
VERTEX
  5
2D2
330
2CE
100
AcDbEntity
  8
001
 62
   253
370
    50
100
AcDbVertex
100
AcDb2dVertex
 10
86.966568
 20
154.684904
 30
0.0
  0
VERTEX
  5
2D3
330
2CE
100
AcDbEntity
  8
001
 62
   253
370
    50
100
AcDbVertex
100
AcDb2dVertex
 10
86.781689
 20
154.580028
 30
0.0
  0
VERTEX
  5
2D4
330
2CE
100
AcDbEntity
  8
001
 62
   253
370
    50
100
AcDbVertex
100
AcDb2dVertex
 10
86.602443
 20
154.465523
 30
0.0
  0
VERTEX
  5
2D5
330
2CE
100
AcDbEntity
  8
001
 62
   253
370
    50
100
AcDbVertex
100
AcDb2dVertex
 10
86.393462
 20
154.316036
 30
0.0
  0
VERTEX
  5
2D6
330
2CE
100
AcDbEntity
  8
001
 62
   253
370
    50
100
AcDbVertex
100
AcDb2dVertex
 10
86.193602
 20
154.154652
 30
0.0
  0
VERTEX
  5
2D7
330
2CE
100
AcDbEntity
  8
001
 62
   253
370
    50
100
AcDbVertex
100
AcDb2dVertex
 10
86.003262
 20
153.98085
 30
0.0
  0
VERTEX
  5
2D8
330
2CE
100
AcDbEntity
  8
001
 62
   253
370
    50
100
AcDbVertex
100
AcDb2dVertex
 10
85.823975
 20
153.79563
 30
0.0
  0
VERTEX
  5
2D9
330
2CE
100
AcDbEntity
  8
001
 62
   253
370
    50
100
AcDbVertex
100
AcDb2dVertex
 10
85.657239
 20
153.600298
 30
0.0
  0
VERTEX
  5
2DA
330
2CE
100
AcDbEntity
  8
001
 62
   253
370
    50
100
AcDbVertex
100
AcDb2dVertex
 10
85.503541
 20
153.394546
 30
0.0
  0
VERTEX
  5
2DB
330
2CE
100
AcDbEntity
  8
001
 62
   253
370
    50
100
AcDbVertex
100
AcDb2dVertex
 10
85.315169
 20
153.094936
 30
0.0
  0
VERTEX
  5
2DC
330
2CE
100
AcDbEntity
  8
001
 62
   253
370
    50
100
AcDbVertex
100
AcDb2dVertex
 10
85.155479
 20
152.778901
 30
0.0
  0
VERTEX
  5
2DD
330
2CE
100
AcDbEntity
  8
001
 62
   253
370
    50
100
AcDbVertex
100
AcDb2dVertex
 10
85.026082
 20
152.448733
 30
0.0
  0
VERTEX
  5
2DE
330
2CE
100
AcDbEntity
  8
001
 62
   253
370
    50
100
AcDbVertex
100
AcDb2dVertex
 10
84.929762
 20
152.10764
 30
0.0
  0
VERTEX
  5
2DF
330
2CE
100
AcDbEntity
  8
001
 62
   253
370
    50
100
AcDbVertex
100
AcDb2dVertex
 10
84.874313
 20
151.801712
 30
0.0
  0
VERTEX
  5
2E0
330
2CE
100
AcDbEntity
  8
001
 62
   253
370
    50
100
AcDbVertex
100
AcDb2dVertex
 10
84.846187
 20
151.492005
 30
0.0
  0
VERTEX
  5
2E1
330
2CE
100
AcDbEntity
  8
001
 62
   253
370
    50
100
AcDbVertex
100
AcDb2dVertex
 10
84.84528
 20
151.180932
 30
0.0
  0
VERTEX
  5
2E2
330
2CE
100
AcDbEntity
  8
001
 62
   253
370
    50
100
AcDbVertex
100
AcDb2dVertex
 10
84.872038
 20
150.871104
 30
0.0
  0
VERTEX
  5
2E3
330
2CE
100
AcDbEntity
  8
001
 62
   253
370
    50
100
AcDbVertex
100
AcDb2dVertex
 10
84.921808
 20
150.586965
 30
0.0
  0
VERTEX
  5
2E4
330
2CE
100
AcDbEntity
  8
001
 62
   253
370
    50
100
AcDbVertex
100
AcDb2dVertex
 10
84.994625
 20
150.3078
 30
0.0
  0
VERTEX
  5
2E5
330
2CE
100
AcDbEntity
  8
001
 62
   253
370
    50
100
AcDbVertex
100
AcDb2dVertex
 10
85.089213
 20
150.035646
 30
0.0
  0
VERTEX
  5
2E6
330
2CE
100
AcDbEntity
  8
001
 62
   253
370
    50
100
AcDbVertex
100
AcDb2dVertex
 10
85.204912
 20
149.7718
 30
0.0
  0
VERTEX
  5
2E7
330
2CE
100
AcDbEntity
  8
001
 62
   253
370
    50
100
AcDbVertex
100
AcDb2dVertex
 10
85.345386
 20
149.51026
 30
0.0
  0
VERTEX
  5
2E8
330
2CE
100
AcDbEntity
  8
001
 62
   253
370
    50
100
AcDbVertex
100
AcDb2dVertex
 10
85.505957
 20
149.260562
 30
0.0
  0
VERTEX
  5
2E9
330
2CE
100
AcDbEntity
  8
001
 62
   253
370
    50
100
AcDbVertex
100
AcDb2dVertex
 10
85.684812
 20
149.024045
 30
0.0
  0
VERTEX
  5
2EA
330
2CE
100
AcDbEntity
  8
001
 62
   253
370
    50
100
AcDbVertex
100
AcDb2dVertex
 10
85.880412
 20
148.801034
 30
0.0
  0
VERTEX
  5
2EB
330
2CE
100
AcDbEntity
  8
001
 62
   253
370
    50
100
AcDbVertex
100
AcDb2dVertex
 10
86.067138
 20
148.614919
 30
0.0
  0
VERTEX
  5
2EC
330
2CE
100
AcDbEntity
  8
001
 62
   253
370
    50
100
AcDbVertex
100
AcDb2dVertex
 10
86.266038
 20
148.442311
 30
0.0
  0
VERTEX
  5
2ED
330
2CE
100
AcDbEntity
  8
001
 62
   253
370
    50
100
AcDbVertex
100
AcDb2dVertex
 10
86.476427
 20
148.2839
 30
0.0
  0
VERTEX
  5
2EE
330
2CE
100
AcDbEntity
  8
001
 62
   253
370
    50
100
AcDbVertex
100
AcDb2dVertex
 10
86.69305
 20
148.133517
 30
0.0
  0
SEQEND
  5
2CF
330
2CE
100
AcDbEntity
  8
001
370
    50
  0
LINE
  5
2EF
330
1F
100
AcDbEntity
  8
001
 62
   253
370
    50
100
AcDbLine
 10
81.716799
 20
168.329068
 30
0.0
 11
81.216799
 21
167.829068
 31
0.0
  0
LINE
  5
2F0
330
1F
100
AcDbEntity
  8
001
 62
   253
370
    50
100
AcDbLine
 10
81.216799
 20
134.829068
 30
0.0
 11
81.716799
 21
134.329068
 31
0.0
  0
LINE
  5
2F1
330
1F
100
AcDbEntity
  8
001
 62
   253
370
    50
100
AcDbLine
 10
81.216799
 20
167.829068
 30
0.0
 11
81.216799
 21
134.829068
 31
0.0
  0
POLYLINE
  5
2F2
330
1F
100
AcDbEntity
  8
001
 62
   253
370
    50
100
AcDb2dPolyline
 66
     1
 10
0.0
 20
0.0
 30
0.0
  0
VERTEX
  5
2F4
330
2F2
100
AcDbEntity
  8
001
 62
   253
370
    50
100
AcDbVertex
100
AcDb2dVertex
 10
71.008752
 20
148.529959
 30
0.0
  0
VERTEX
  5
2F5
330
2F2
100
AcDbEntity
  8
001
 62
   253
370
    50
100
AcDbVertex
100
AcDb2dVertex
 10
70.994368
 20
148.546802
 30
0.0
  0
VERTEX
  5
2F6
330
2F2
100
AcDbEntity
  8
001
 62
   253
370
    50
100
AcDbVertex
100
AcDb2dVertex
 10
70.980031
 20
148.563725
 30
0.0
  0
VERTEX
  5
2F7
330
2F2
100
AcDbEntity
  8
001
 62
   253
370
    50
100
AcDbVertex
100
AcDb2dVertex
 10
70.887818
 20
148.682529
 30
0.0
  0
VERTEX
  5
2F8
330
2F2
100
AcDbEntity
  8
001
 62
   253
370
    50
100
AcDbVertex
100
AcDb2dVertex
 10
70.812895
 20
148.811849
 30
0.0
  0
VERTEX
  5
2F9
330
2F2
100
AcDbEntity
  8
001
 62
   253
370
    50
100
AcDbVertex
100
AcDb2dVertex
 10
70.784203
 20
148.883714
 30
0.0
  0
VERTEX
  5
2FA
330
2F2
100
AcDbEntity
  8
001
 62
   253
370
    50
100
AcDbVertex
100
AcDb2dVertex
 10
70.759589
 20
148.957436
 30
0.0
  0
SEQEND
  5
2F3
330
2F2
100
AcDbEntity
  8
001
370
    50
  0
POLYLINE
  5
2FB
330
1F
100
AcDbEntity
  8
001
 62
   253
370
    50
100
AcDb2dPolyline
 66
     1
 10
0.0
 20
0.0
 30
0.0
  0
VERTEX
  5
2FD
330
2FB
100
AcDbEntity
  8
001
 62
   253
370
    50
100
AcDbVertex
100
AcDb2dVertex
 10
72.241727
 20
147.852349
 30
0.0
  0
VERTEX
  5
2FE
330
2FB
100
AcDbEntity
  8
001
 62
   253
370
    50
100
AcDbVertex
100
AcDb2dVertex
 10
71.96293
 20
147.954173
 30
0.0
  0
VERTEX
  5
2FF
330
2FB
100
AcDbEntity
  8
001
 62
   253
370
    50
100
AcDbVertex
100
AcDb2dVertex
 10
71.687702
 20
148.06456
 30
0.0
  0
VERTEX
  5
300
330
2FB
100
AcDbEntity
  8
001
 62
   253
370
    50
100
AcDbVertex
100
AcDb2dVertex
 10
71.555504
 20
148.124561
 30
0.0
  0
VERTEX
  5
301
330
2FB
100
AcDbEntity
  8
001
 62
   253
370
    50
100
AcDbVertex
100
AcDb2dVertex
 10
71.426337
 20
148.19118
 30
0.0
  0
VERTEX
  5
302
330
2FB
100
AcDbEntity
  8
001
 62
   253
370
    50
100
AcDbVertex
100
AcDb2dVertex
 10
71.300397
 20
148.267985
 30
0.0
  0
VERTEX
  5
303
330
2FB
100
AcDbEntity
  8
001
 62
   253
370
    50
100
AcDbVertex
100
AcDb2dVertex
 10
71.183125
 20
148.356739
 30
0.0
  0
VERTEX
  5
304
330
2FB
100
AcDbEntity
  8
001
 62
   253
370
    50
100
AcDbVertex
100
AcDb2dVertex
 10
71.093692
 20
148.440815
 30
0.0
  0
VERTEX
  5
305
330
2FB
100
AcDbEntity
  8
001
 62
   253
370
    50
100
AcDbVertex
100
AcDb2dVertex
 10
71.008752
 20
148.529959
 30
0.0
  0
SEQEND
  5
2FC
330
2FB
100
AcDbEntity
  8
001
370
    50
  0
POLYLINE
  5
306
330
1F
100
AcDbEntity
  8
001
 62
   253
370
    50
100
AcDb2dPolyline
 66
     1
 10
0.0
 20
0.0
 30
0.0
  0
VERTEX
  5
308
330
306
100
AcDbEntity
  8
001
 62
   253
370
    50
100
AcDbVertex
100
AcDb2dVertex
 10
71.687149
 20
154.433749
 30
0.0
  0
VERTEX
  5
309
330
306
100
AcDbEntity
  8
001
 62
   253
370
    50
100
AcDbVertex
100
AcDb2dVertex
 10
71.567397
 20
154.337032
 30
0.0
  0
VERTEX
  5
30A
330
306
100
AcDbEntity
  8
001
 62
   253
370
    50
100
AcDbVertex
100
AcDb2dVertex
 10
71.449898
 20
154.237676
 30
0.0
  0
VERTEX
  5
30B
330
306
100
AcDbEntity
  8
001
 62
   253
370
    50
100
AcDbVertex
100
AcDb2dVertex
 10
71.205974
 20
154.00175
 30
0.0
  0
VERTEX
  5
30C
330
306
100
AcDbEntity
  8
001
 62
   253
370
    50
100
AcDbVertex
100
AcDb2dVertex
 10
70.983848
 20
153.744646
 30
0.0
  0
VERTEX
  5
30D
330
306
100
AcDbEntity
  8
001
 62
   253
370
    50
100
AcDbVertex
100
AcDb2dVertex
 10
70.787004
 20
153.475192
 30
0.0
  0
VERTEX
  5
30E
330
306
100
AcDbEntity
  8
001
 62
   253
370
    50
100
AcDbVertex
100
AcDb2dVertex
 10
70.612753
 20
153.190819
 30
0.0
  0
VERTEX
  5
30F
330
306
100
AcDbEntity
  8
001
 62
   253
370
    50
100
AcDbVertex
100
AcDb2dVertex
 10
70.458683
 20
152.884285
 30
0.0
  0
VERTEX
  5
310
330
306
100
AcDbEntity
  8
001
 62
   253
370
    50
100
AcDbVertex
100
AcDb2dVertex
 10
70.331062
 20
152.565749
 30
0.0
  0
VERTEX
  5
311
330
306
100
AcDbEntity
  8
001
 62
   253
370
    50
100
AcDbVertex
100
AcDb2dVertex
 10
70.232187
 20
152.243458
 30
0.0
  0
VERTEX
  5
312
330
306
100
AcDbEntity
  8
001
 62
   253
370
    50
100
AcDbVertex
100
AcDb2dVertex
 10
70.160194
 20
151.914147
 30
0.0
  0
VERTEX
  5
313
330
306
100
AcDbEntity
  8
001
 62
   253
370
    50
100
AcDbVertex
100
AcDb2dVertex
 10
70.11469
 20
151.570465
 30
0.0
  0
VERTEX
  5
314
330
306
100
AcDbEntity
  8
001
 62
   253
370
    50
100
AcDbVertex
100
AcDb2dVertex
 10
70.098275
 20
151.224138
 30
0.0
  0
VERTEX
  5
315
330
306
100
AcDbEntity
  8
001
 62
   253
370
    50
100
AcDbVertex
100
AcDb2dVertex
 10
70.110533
 20
150.883731
 30
0.0
  0
VERTEX
  5
316
330
306
100
AcDbEntity
  8
001
 62
   253
370
    50
100
AcDbVertex
100
AcDb2dVertex
 10
70.150942
 20
150.545573
 30
0.0
  0
VERTEX
  5
317
330
306
100
AcDbEntity
  8
001
 62
   253
370
    50
100
AcDbVertex
100
AcDb2dVertex
 10
70.22159
 20
150.202571
 30
0.0
  0
VERTEX
  5
318
330
306
100
AcDbEntity
  8
001
 62
   253
370
    50
100
AcDbVertex
100
AcDb2dVertex
 10
70.320334
 20
149.866426
 30
0.0
  0
VERTEX
  5
319
330
306
100
AcDbEntity
  8
001
 62
   253
370
    50
100
AcDbVertex
100
AcDb2dVertex
 10
70.407897
 20
149.630885
 30
0.0
  0
VERTEX
  5
31A
330
306
100
AcDbEntity
  8
001
 62
   253
370
    50
100
AcDbVertex
100
AcDb2dVertex
 10
70.510758
 20
149.401963
 30
0.0
  0
VERTEX
  5
31B
330
306
100
AcDbEntity
  8
001
 62
   253
370
    50
100
AcDbVertex
100
AcDb2dVertex
 10
70.630792
 20
149.177455
 30
0.0
  0
VERTEX
  5
31C
330
306
100
AcDbEntity
  8
001
 62
   253
370
    50
100
AcDbVertex
100
AcDb2dVertex
 10
70.759589
 20
148.957436
 30
0.0
  0
SEQEND
  5
307
330
306
100
AcDbEntity
  8
001
370
    50
  0
POLYLINE
  5
31D
330
1F
100
AcDbEntity
  8
001
 62
   253
370
    50
100
AcDb2dPolyline
 66
     1
 10
0.0
 20
0.0
 30
0.0
  0
VERTEX
  5
31F
330
31D
100
AcDbEntity
  8
001
 62
   253
370
    50
100
AcDbVertex
100
AcDb2dVertex
 10
72.24109
 20
154.788646
 30
0.0
  0
VERTEX
  5
320
330
31D
100
AcDbEntity
  8
001
 62
   253
370
    50
100
AcDbVertex
100
AcDb2dVertex
 10
72.389133
 20
154.900906
 30
0.0
  0
VERTEX
  5
321
330
31D
100
AcDbEntity
  8
001
 62
   253
370
    50
100
AcDbVertex
100
AcDb2dVertex
 10
72.541038
 20
155.007523
 30
0.0
  0
VERTEX
  5
322
330
31D
100
AcDbEntity
  8
001
 62
   253
370
    50
100
AcDbVertex
100
AcDb2dVertex
 10
72.70247
 20
155.105306
 30
0.0
  0
VERTEX
  5
323
330
31D
100
AcDbEntity
  8
001
 62
   253
370
    50
100
AcDbVertex
100
AcDb2dVertex
 10
72.870523
 20
155.191584
 30
0.0
  0
VERTEX
  5
324
330
31D
100
AcDbEntity
  8
001
 62
   253
370
    50
100
AcDbVertex
100
AcDb2dVertex
 10
73.04499
 20
155.266623
 30
0.0
  0
VERTEX
  5
325
330
31D
100
AcDbEntity
  8
001
 62
   253
370
    50
100
AcDbVertex
100
AcDb2dVertex
 10
73.224417
 20
155.328694
 30
0.0
  0
VERTEX
  5
326
330
31D
100
AcDbEntity
  8
001
 62
   253
370
    50
100
AcDbVertex
100
AcDb2dVertex
 10
73.413731
 20
155.377552
 30
0.0
  0
VERTEX
  5
327
330
31D
100
AcDbEntity
  8
001
 62
   253
370
    50
100
AcDbVertex
100
AcDb2dVertex
 10
73.606514
 20
155.409963
 30
0.0
  0
VERTEX
  5
328
330
31D
100
AcDbEntity
  8
001
 62
   253
370
    50
100
AcDbVertex
100
AcDb2dVertex
 10
73.796907
 20
155.42489
 30
0.0
  0
VERTEX
  5
329
330
31D
100
AcDbEntity
  8
001
 62
   253
370
    50
100
AcDbVertex
100
AcDb2dVertex
 10
73.988008
 20
155.423356
 30
0.0
  0
VERTEX
  5
32A
330
31D
100
AcDbEntity
  8
001
 62
   253
370
    50
100
AcDbVertex
100
AcDb2dVertex
 10
74.1849
 20
155.404491
 30
0.0
  0
VERTEX
  5
32B
330
31D
100
AcDbEntity
  8
001
 62
   253
370
    50
100
AcDbVertex
100
AcDb2dVertex
 10
74.378783
 20
155.366878
 30
0.0
  0
VERTEX
  5
32C
330
31D
100
AcDbEntity
  8
001
 62
   253
370
    50
100
AcDbVertex
100
AcDb2dVertex
 10
74.507834
 20
155.330747
 30
0.0
  0
VERTEX
  5
32D
330
31D
100
AcDbEntity
  8
001
 62
   253
370
    50
100
AcDbVertex
100
AcDb2dVertex
 10
74.635634
 20
155.289951
 30
0.0
  0
SEQEND
  5
31E
330
31D
100
AcDbEntity
  8
001
370
    50
  0
POLYLINE
  5
32E
330
1F
100
AcDbEntity
  8
001
 62
   253
370
    50
100
AcDb2dPolyline
 66
     1
 10
0.0
 20
0.0
 30
0.0
  0
VERTEX
  5
330
330
32E
100
AcDbEntity
  8
001
 62
   253
370
    50
100
AcDbVertex
100
AcDb2dVertex
 10
72.24109
 20
154.788646
 30
0.0
  0
VERTEX
  5
331
330
32E
100
AcDbEntity
  8
001
 62
   253
370
    50
100
AcDbVertex
100
AcDb2dVertex
 10
72.017004
 20
154.677217
 30
0.0
  0
VERTEX
  5
332
330
32E
100
AcDbEntity
  8
001
 62
   253
370
    50
100
AcDbVertex
100
AcDb2dVertex
 10
71.797245
 20
154.558067
 30
0.0
  0
VERTEX
  5
333
330
32E
100
AcDbEntity
  8
001
 62
   253
370
    50
100
AcDbVertex
100
AcDb2dVertex
 10
71.577619
 20
154.419902
 30
0.0
  0
VERTEX
  5
334
330
32E
100
AcDbEntity
  8
001
 62
   253
370
    50
100
AcDbVertex
100
AcDb2dVertex
 10
71.367152
 20
154.267732
 30
0.0
  0
VERTEX
  5
335
330
32E
100
AcDbEntity
  8
001
 62
   253
370
    50
100
AcDbVertex
100
AcDb2dVertex
 10
71.165353
 20
154.103218
 30
0.0
  0
VERTEX
  5
336
330
32E
100
AcDbEntity
  8
001
 62
   253
370
    50
100
AcDbVertex
100
AcDb2dVertex
 10
70.973793
 20
153.927035
 30
0.0
  0
VERTEX
  5
337
330
32E
100
AcDbEntity
  8
001
 62
   253
370
    50
100
AcDbVertex
100
AcDb2dVertex
 10
70.794355
 20
153.739848
 30
0.0
  0
VERTEX
  5
338
330
32E
100
AcDbEntity
  8
001
 62
   253
370
    50
100
AcDbVertex
100
AcDb2dVertex
 10
70.627499
 20
153.541351
 30
0.0
  0
VERTEX
  5
339
330
32E
100
AcDbEntity
  8
001
 62
   253
370
    50
100
AcDbVertex
100
AcDb2dVertex
 10
70.485582
 20
153.348458
 30
0.0
  0
VERTEX
  5
33A
330
32E
100
AcDbEntity
  8
001
 62
   253
370
    50
100
AcDbVertex
100
AcDb2dVertex
 10
70.356002
 20
153.147073
 30
0.0
  0
VERTEX
  5
33B
330
32E
100
AcDbEntity
  8
001
 62
   253
370
    50
100
AcDbVertex
100
AcDb2dVertex
 10
70.23873
 20
152.936797
 30
0.0
  0
VERTEX
  5
33C
330
32E
100
AcDbEntity
  8
001
 62
   253
370
    50
100
AcDbVertex
100
AcDb2dVertex
 10
70.135174
 20
152.719435
 30
0.0
  0
VERTEX
  5
33D
330
32E
100
AcDbEntity
  8
001
 62
   253
370
    50
100
AcDbVertex
100
AcDb2dVertex
 10
70.046341
 20
152.496431
 30
0.0
  0
VERTEX
  5
33E
330
32E
100
AcDbEntity
  8
001
 62
   253
370
    50
100
AcDbVertex
100
AcDb2dVertex
 10
69.972862
 20
152.267907
 30
0.0
  0
VERTEX
  5
33F
330
32E
100
AcDbEntity
  8
001
 62
   253
370
    50
100
AcDbVertex
100
AcDb2dVertex
 10
69.901583
 20
151.963932
 30
0.0
  0
VERTEX
  5
340
330
32E
100
AcDbEntity
  8
001
 62
   253
370
    50
100
AcDbVertex
100
AcDb2dVertex
 10
69.857981
 20
151.654627
 30
0.0
  0
VERTEX
  5
341
330
32E
100
AcDbEntity
  8
001
 62
   253
370
    50
100
AcDbVertex
100
AcDb2dVertex
 10
69.842179
 20
151.342476
 30
0.0
  0
VERTEX
  5
342
330
32E
100
AcDbEntity
  8
001
 62
   253
370
    50
100
AcDbVertex
100
AcDb2dVertex
 10
69.854898
 20
151.030311
 30
0.0
  0
VERTEX
  5
343
330
32E
100
AcDbEntity
  8
001
 62
   253
370
    50
100
AcDbVertex
100
AcDb2dVertex
 10
69.891488
 20
150.749389
 30
0.0
  0
VERTEX
  5
344
330
32E
100
AcDbEntity
  8
001
 62
   253
370
    50
100
AcDbVertex
100
AcDb2dVertex
 10
69.951047
 20
150.47237
 30
0.0
  0
VERTEX
  5
345
330
32E
100
AcDbEntity
  8
001
 62
   253
370
    50
100
AcDbVertex
100
AcDb2dVertex
 10
70.032397
 20
150.201357
 30
0.0
  0
VERTEX
  5
346
330
32E
100
AcDbEntity
  8
001
 62
   253
370
    50
100
AcDbVertex
100
AcDb2dVertex
 10
70.13499
 20
149.937715
 30
0.0
  0
VERTEX
  5
347
330
32E
100
AcDbEntity
  8
001
 62
   253
370
    50
100
AcDbVertex
100
AcDb2dVertex
 10
70.260618
 20
149.678405
 30
0.0
  0
VERTEX
  5
348
330
32E
100
AcDbEntity
  8
001
 62
   253
370
    50
100
AcDbVertex
100
AcDb2dVertex
 10
70.406069
 20
149.429564
 30
0.0
  0
VERTEX
  5
349
330
32E
100
AcDbEntity
  8
001
 62
   253
370
    50
100
AcDbVertex
100
AcDb2dVertex
 10
70.56953
 20
149.192574
 30
0.0
  0
VERTEX
  5
34A
330
32E
100
AcDbEntity
  8
001
 62
   253
370
    50
100
AcDbVertex
100
AcDb2dVertex
 10
70.749975
 20
148.968479
 30
0.0
  0
VERTEX
  5
34B
330
32E
100
AcDbEntity
  8
001
 62
   253
370
    50
100
AcDbVertex
100
AcDb2dVertex
 10
70.754779
 20
148.962956
 30
0.0
  0
VERTEX
  5
34C
330
32E
100
AcDbEntity
  8
001
 62
   253
370
    50
100
AcDbVertex
100
AcDb2dVertex
 10
70.759589
 20
148.957436
 30
0.0
  0
SEQEND
  5
32F
330
32E
100
AcDbEntity
  8
001
370
    50
  0
POLYLINE
  5
34D
330
1F
100
AcDbEntity
  8
001
 62
   253
370
    50
100
AcDb2dPolyline
 66
     1
 10
0.0
 20
0.0
 30
0.0
  0
VERTEX
  5
34F
330
34D
100
AcDbEntity
  8
001
 62
   253
370
    50
100
AcDbVertex
100
AcDb2dVertex
 10
76.213259
 20
147.878929
 30
0.0
  0
VERTEX
  5
350
330
34D
100
AcDbEntity
  8
001
 62
   253
370
    50
100
AcDbVertex
100
AcDb2dVertex
 10
76.400644
 20
147.972158
 30
0.0
  0
VERTEX
  5
351
330
34D
100
AcDbEntity
  8
001
 62
   253
370
    50
100
AcDbVertex
100
AcDb2dVertex
 10
76.585163
 20
148.070618
 30
0.0
  0
VERTEX
  5
352
330
34D
100
AcDbEntity
  8
001
 62
   253
370
    50
100
AcDbVertex
100
AcDb2dVertex
 10
76.809727
 20
148.207835
 30
0.0
  0
VERTEX
  5
353
330
34D
100
AcDbEntity
  8
001
 62
   253
370
    50
100
AcDbVertex
100
AcDb2dVertex
 10
77.025247
 20
148.35925
 30
0.0
  0
VERTEX
  5
354
330
34D
100
AcDbEntity
  8
001
 62
   253
370
    50
100
AcDbVertex
100
AcDb2dVertex
 10
77.230586
 20
148.522201
 30
0.0
  0
VERTEX
  5
355
330
34D
100
AcDbEntity
  8
001
 62
   253
370
    50
100
AcDbVertex
100
AcDb2dVertex
 10
77.425506
 20
148.6973
 30
0.0
  0
VERTEX
  5
356
330
34D
100
AcDbEntity
  8
001
 62
   253
370
    50
100
AcDbVertex
100
AcDb2dVertex
 10
77.599833
 20
148.875122
 30
0.0
  0
VERTEX
  5
357
330
34D
100
AcDbEntity
  8
001
 62
   253
370
    50
100
AcDbVertex
100
AcDb2dVertex
 10
77.762803
 20
149.063463
 30
0.0
  0
VERTEX
  5
358
330
34D
100
AcDbEntity
  8
001
 62
   253
370
    50
100
AcDbVertex
100
AcDb2dVertex
 10
77.914428
 20
149.262492
 30
0.0
  0
VERTEX
  5
359
330
34D
100
AcDbEntity
  8
001
 62
   253
370
    50
100
AcDbVertex
100
AcDb2dVertex
 10
78.053077
 20
149.470761
 30
0.0
  0
VERTEX
  5
35A
330
34D
100
AcDbEntity
  8
001
 62
   253
370
    50
100
AcDbVertex
100
AcDb2dVertex
 10
78.177439
 20
149.68699
 30
0.0
  0
VERTEX
  5
35B
330
34D
100
AcDbEntity
  8
001
 62
   253
370
    50
100
AcDbVertex
100
AcDb2dVertex
 10
78.286878
 20
149.911109
 30
0.0
  0
VERTEX
  5
35C
330
34D
100
AcDbEntity
  8
001
 62
   253
370
    50
100
AcDbVertex
100
AcDb2dVertex
 10
78.369473
 20
150.112732
 30
0.0
  0
VERTEX
  5
35D
330
34D
100
AcDbEntity
  8
001
 62
   253
370
    50
100
AcDbVertex
100
AcDb2dVertex
 10
78.439611
 20
150.319021
 30
0.0
  0
VERTEX
  5
35E
330
34D
100
AcDbEntity
  8
001
 62
   253
370
    50
100
AcDbVertex
100
AcDb2dVertex
 10
78.497083
 20
150.529474
 30
0.0
  0
VERTEX
  5
35F
330
34D
100
AcDbEntity
  8
001
 62
   253
370
    50
100
AcDbVertex
100
AcDb2dVertex
 10
78.541206
 20
150.74314
 30
0.0
  0
VERTEX
  5
360
330
34D
100
AcDbEntity
  8
001
 62
   253
370
    50
100
AcDbVertex
100
AcDb2dVertex
 10
78.581361
 20
151.068196
 30
0.0
  0
VERTEX
  5
361
330
34D
100
AcDbEntity
  8
001
 62
   253
370
    50
100
AcDbVertex
100
AcDb2dVertex
 10
78.590383
 20
151.395789
 30
0.0
  0
VERTEX
  5
362
330
34D
100
AcDbEntity
  8
001
 62
   253
370
    50
100
AcDbVertex
100
AcDb2dVertex
 10
78.568595
 20
151.72272
 30
0.0
  0
VERTEX
  5
363
330
34D
100
AcDbEntity
  8
001
 62
   253
370
    50
100
AcDbVertex
100
AcDb2dVertex
 10
78.515851
 20
152.045947
 30
0.0
  0
VERTEX
  5
364
330
34D
100
AcDbEntity
  8
001
 62
   253
370
    50
100
AcDbVertex
100
AcDb2dVertex
 10
78.445809
 20
152.318666
 30
0.0
  0
VERTEX
  5
365
330
34D
100
AcDbEntity
  8
001
 62
   253
370
    50
100
AcDbVertex
100
AcDb2dVertex
 10
78.354114
 20
152.584916
 30
0.0
  0
VERTEX
  5
366
330
34D
100
AcDbEntity
  8
001
 62
   253
370
    50
100
AcDbVertex
100
AcDb2dVertex
 10
78.242277
 20
152.842839
 30
0.0
  0
VERTEX
  5
367
330
34D
100
AcDbEntity
  8
001
 62
   253
370
    50
100
AcDbVertex
100
AcDb2dVertex
 10
78.111054
 20
153.091444
 30
0.0
  0
VERTEX
  5
368
330
34D
100
AcDbEntity
  8
001
 62
   253
370
    50
100
AcDbVertex
100
AcDb2dVertex
 10
77.952377
 20
153.342479
 30
0.0
  0
VERTEX
  5
369
330
34D
100
AcDbEntity
  8
001
 62
   253
370
    50
100
AcDbVertex
100
AcDb2dVertex
 10
77.774701
 20
153.580432
 30
0.0
  0
VERTEX
  5
36A
330
34D
100
AcDbEntity
  8
001
 62
   253
370
    50
100
AcDbVertex
100
AcDb2dVertex
 10
77.579904
 20
153.804187
 30
0.0
  0
VERTEX
  5
36B
330
34D
100
AcDbEntity
  8
001
 62
   253
370
    50
100
AcDbVertex
100
AcDb2dVertex
 10
77.369503
 20
154.013541
 30
0.0
  0
VERTEX
  5
36C
330
34D
100
AcDbEntity
  8
001
 62
   253
370
    50
100
AcDbVertex
100
AcDb2dVertex
 10
77.116794
 20
154.230281
 30
0.0
  0
VERTEX
  5
36D
330
34D
100
AcDbEntity
  8
001
 62
   253
370
    50
100
AcDbVertex
100
AcDb2dVertex
 10
76.847161
 20
154.424947
 30
0.0
  0
VERTEX
  5
36E
330
34D
100
AcDbEntity
  8
001
 62
   253
370
    50
100
AcDbVertex
100
AcDb2dVertex
 10
76.637041
 20
154.554497
 30
0.0
  0
VERTEX
  5
36F
330
34D
100
AcDbEntity
  8
001
 62
   253
370
    50
100
AcDbVertex
100
AcDb2dVertex
 10
76.422439
 20
154.676939
 30
0.0
  0
SEQEND
  5
34E
330
34D
100
AcDbEntity
  8
001
370
    50
  0
LINE
  5
370
330
1F
100
AcDbEntity
  8
001
 62
   253
370
    50
100
AcDbLine
 10
81.216799
 20
166.829068
 30
0.0
 11
68.412951
 21
166.829068
 31
0.0
  0
LINE
  5
371
330
1F
100
AcDbEntity
  8
001
 62
   253
370
    50
100
AcDbLine
 10
68.412951
 20
135.829068
 30
0.0
 11
81.216799
 21
135.829068
 31
0.0
  0
ARC
  5
372
330
1F
100
AcDbEntity
  8
001
 62
   253
370
    50
100
AcDbCircle
 10
68.412951
 20
136.829068
 30
0.0
 40
1.0
100
AcDbArc
 50
240.0
 51
270.0
  0
ARC
  5
373
330
1F
100
AcDbEntity
  8
001
 62
   253
370
    50
100
AcDbCircle
 10
68.412951
 20
165.829068
 30
0.0
 40
1.0
100
AcDbArc
 50
90.0
 51
120.0
  0
LINE
  5
374
330
1F
100
AcDbEntity
  8
001
 62
   253
370
    50
100
AcDbLine
 10
67.912951
 20
166.695093
 30
0.0
 11
61.716799
 21
163.117743
 31
0.0
  0
LINE
  5
375
330
1F
100
AcDbEntity
  8
001
 62
   253
370
    50
100
AcDbLine
 10
61.716799
 20
139.540392
 30
0.0
 11
67.912951
 21
135.963042
 31
0.0
  0
ARC
  5
376
330
1F
100
AcDbEntity
  8
001
 62
   253
370
    50
100
AcDbCircle
 10
62.216799
 20
140.406418
 30
0.0
 40
0.9999999999999981
100
AcDbArc
 50
180.0
 51
240.0
  0
ARC
  5
377
330
1F
100
AcDbEntity
  8
001
 62
   253
370
    50
100
AcDbCircle
 10
62.216799
 20
162.251717
 30
0.0
 40
0.9999999999999981
100
AcDbArc
 50
120.0
 51
180.0
  0
LINE
  5
378
330
1F
100
AcDbEntity
  8
001
 62
   253
370
    50
100
AcDbLine
 10
61.216799
 20
140.406418
 30
0.0
 11
61.216799
 21
162.251717
 31
0.0
  0
ARC
  5
379
330
1F
100
AcDbEntity
  8
001
 62
   253
370
    50
100
AcDbCircle
 10
100.216799
 20
76.682555
 30
0.0
 40
1.0
100
AcDbArc
 50
0.0
 51
90.0
  0
ARC
  5
37A
330
1F
100
AcDbEntity
  8
001
 62
   253
370
    50
100
AcDbCircle
 10
100.216799
 20
31.682555
 30
0.0
 40
1.0
100
AcDbArc
 50
270.0
 51
0.0
  0
LINE
  5
37B
330
1F
100
AcDbEntity
  8
001
 62
   253
370
    50
100
AcDbLine
 10
101.216799
 20
31.682555
 30
0.0
 11
101.216799
 21
76.682555
 31
0.0
  0
LINE
  5
37C
330
1F
100
AcDbEntity
  8
001
 62
   253
370
    50
100
AcDbLine
 10
100.216799
 20
77.682555
 30
0.0
 11
97.216799
 21
77.682555
 31
0.0
  0
LINE
  5
37D
330
1F
100
AcDbEntity
  8
001
 62
   253
370
    50
100
AcDbLine
 10
97.216799
 20
30.682555
 30
0.0
 11
100.216799
 21
30.682555
 31
0.0
  0
ARC
  5
37E
330
1F
100
AcDbEntity
  8
001
 62
   253
370
    50
100
AcDbCircle
 10
97.216799
 20
31.682555
 30
0.0
 40
1.0
100
AcDbArc
 50
180.0
 51
270.0
  0
ARC
  5
37F
330
1F
100
AcDbEntity
  8
001
 62
   253
370
    50
100
AcDbCircle
 10
97.216799
 20
76.682555
 30
0.0
 40
1.0
100
AcDbArc
 50
90.0
 51
180.0
  0
LINE
  5
380
330
1F
100
AcDbEntity
  8
001
 62
   253
370
    50
100
AcDbLine
 10
96.216799
 20
76.682555
 30
0.0
 11
96.216799
 21
31.682555
 31
0.0
  0
ARC
  5
381
330
1F
100
AcDbEntity
  8
001
 62
   253
370
    50
100
AcDbCircle
 10
179.216799
 20
36.182555
 30
0.0
 40
2.0
100
AcDbArc
 50
270.0
 51
0.0
  0
LINE
  5
382
330
1F
100
AcDbEntity
  8
001
 62
   253
370
    50
100
AcDbLine
 10
181.216799
 20
72.182555
 30
0.0
 11
181.216799
 21
36.182555
 31
0.0
  0
LINE
  5
383
330
1F
100
AcDbEntity
  8
001
 62
   253
370
    50
100
AcDbLine
 10
104.216799
 20
34.182555
 30
0.0
 11
179.216799
 21
34.182555
 31
0.0
  0
LINE
  5
384
330
1F
100
AcDbEntity
  8
001
 62
   253
370
    50
100
AcDbLine
 10
101.216799
 20
34.682555
 30
0.0
 11
104.216799
 21
34.682555
 31
0.0
  0
LINE
  5
385
330
1F
100
AcDbEntity
  8
001
 62
   253
370
    50
100
AcDbLine
 10
181.216799
 20
72.182555
 30
0.0
 11
101.216799
 21
72.182555
 31
0.0
  0
LINE
  5
386
330
1F
100
AcDbEntity
  8
001
 62
   253
370
    50
100
AcDbLine
 10
81.716799
 20
71.182555
 30
0.0
 11
81.716799
 21
37.182555
 31
0.0
  0
POLYLINE
  5
387
330
1F
100
AcDbEntity
  8
001
 62
   253
370
    50
100
AcDb2dPolyline
 66
     1
 10
0.0
 20
0.0
 30
0.0
  0
VERTEX
  5
389
330
387
100
AcDbEntity
  8
001
 62
   253
370
    50
100
AcDbVertex
100
AcDb2dVertex
 10
84.841799
 20
71.182555
 30
0.0
  0
VERTEX
  5
38A
330
387
100
AcDbEntity
  8
001
 62
   253
370
    50
100
AcDbVertex
100
AcDb2dVertex
 10
84.856918
 20
71.179467
 30
0.0
  0
VERTEX
  5
38B
330
387
100
AcDbEntity
  8
001
 62
   253
370
    50
100
AcDbVertex
100
AcDb2dVertex
 10
84.872038
 20
71.176385
 30
0.0
  0
VERTEX
  5
38C
330
387
100
AcDbEntity
  8
001
 62
   253
370
    50
100
AcDbVertex
100
AcDb2dVertex
 10
84.932028
 20
71.164258
 30
0.0
  0
VERTEX
  5
38D
330
387
100
AcDbEntity
  8
001
 62
   253
370
    50
100
AcDbVertex
100
AcDb2dVertex
 10
84.99205
 20
71.152287
 30
0.0
  0
VERTEX
  5
38E
330
387
100
AcDbEntity
  8
001
 62
   253
370
    50
100
AcDbVertex
100
AcDb2dVertex
 10
85.098435
 20
71.131448
 30
0.0
  0
VERTEX
  5
38F
330
387
100
AcDbEntity
  8
001
 62
   253
370
    50
100
AcDbVertex
100
AcDb2dVertex
 10
85.204912
 20
71.111079
 30
0.0
  0
VERTEX
  5
390
330
387
100
AcDbEntity
  8
001
 62
   253
370
    50
100
AcDbVertex
100
AcDb2dVertex
 10
85.353267
 20
71.083524
 30
0.0
  0
VERTEX
  5
391
330
387
100
AcDbEntity
  8
001
 62
   253
370
    50
100
AcDbVertex
100
AcDb2dVertex
 10
85.501796
 20
71.056919
 30
0.0
  0
VERTEX
  5
392
330
387
100
AcDbEntity
  8
001
 62
   253
370
    50
100
AcDbVertex
100
AcDb2dVertex
 10
85.690976
 20
71.024468
 30
0.0
  0
VERTEX
  5
393
330
387
100
AcDbEntity
  8
001
 62
   253
370
    50
100
AcDbVertex
100
AcDb2dVertex
 10
85.880412
 20
70.993535
 30
0.0
  0
VERTEX
  5
394
330
387
100
AcDbEntity
  8
001
 62
   253
370
    50
100
AcDbVertex
100
AcDb2dVertex
 10
86.071515
 20
70.963908
 30
0.0
  0
VERTEX
  5
395
330
387
100
AcDbEntity
  8
001
 62
   253
370
    50
100
AcDbVertex
100
AcDb2dVertex
 10
86.262883
 20
70.936087
 30
0.0
  0
VERTEX
  5
396
330
387
100
AcDbEntity
  8
001
 62
   253
370
    50
100
AcDbVertex
100
AcDb2dVertex
 10
86.477874
 20
70.90713
 30
0.0
  0
VERTEX
  5
397
330
387
100
AcDbEntity
  8
001
 62
   253
370
    50
100
AcDbVertex
100
AcDb2dVertex
 10
86.69305
 20
70.879514
 30
0.0
  0
SEQEND
  5
388
330
387
100
AcDbEntity
  8
001
370
    50
  0
LINE
  5
398
330
1F
100
AcDbEntity
  8
001
 62
   253
370
    50
100
AcDbLine
 10
84.853233
 20
71.182555
 30
0.0
 11
81.716799
 21
71.182555
 31
0.0
  0
LINE
  5
399
330
1F
100
AcDbEntity
  8
001
 62
   253
370
    50
100
AcDbLine
 10
96.216799
 20
71.182555
 30
0.0
 11
93.579457
 21
71.182555
 31
0.0
  0
LINE
  5
39A
330
1F
100
AcDbEntity
  8
001
 62
   253
370
    50
100
AcDbLine
 10
81.716799
 20
37.182555
 30
0.0
 11
96.216799
 21
37.182555
 31
0.0
  0
POLYLINE
  5
39B
330
1F
100
AcDbEntity
  8
001
 62
   253
370
    50
100
AcDb2dPolyline
 66
     1
 10
0.0
 20
0.0
 30
0.0
  0
VERTEX
  5
39D
330
39B
100
AcDbEntity
  8
001
 62
   253
370
    50
100
AcDbVertex
100
AcDb2dVertex
 10
92.977867
 20
71.065067
 30
0.0
  0
VERTEX
  5
39E
330
39B
100
AcDbEntity
  8
001
 62
   253
370
    50
100
AcDbVertex
100
AcDb2dVertex
 10
92.842465
 20
71.035951
 30
0.0
  0
VERTEX
  5
39F
330
39B
100
AcDbEntity
  8
001
 62
   253
370
    50
100
AcDbVertex
100
AcDb2dVertex
 10
92.706826
 20
71.008012
 30
0.0
  0
VERTEX
  5
3A0
330
39B
100
AcDbEntity
  8
001
 62
   253
370
    50
100
AcDbVertex
100
AcDb2dVertex
 10
92.534778
 20
70.975702
 30
0.0
  0
VERTEX
  5
3A1
330
39B
100
AcDbEntity
  8
001
 62
   253
370
    50
100
AcDbVertex
100
AcDb2dVertex
 10
92.362167
 20
70.946473
 30
0.0
  0
VERTEX
  5
3A2
330
39B
100
AcDbEntity
  8
001
 62
   253
370
    50
100
AcDbVertex
100
AcDb2dVertex
 10
92.159953
 20
70.915404
 30
0.0
  0
VERTEX
  5
3A3
330
39B
100
AcDbEntity
  8
001
 62
   253
370
    50
100
AcDbVertex
100
AcDb2dVertex
 10
91.957336
 20
70.887114
 30
0.0
  0
VERTEX
  5
3A4
330
39B
100
AcDbEntity
  8
001
 62
   253
370
    50
100
AcDbVertex
100
AcDb2dVertex
 10
91.720399
 20
70.85699
 30
0.0
  0
VERTEX
  5
3A5
330
39B
100
AcDbEntity
  8
001
 62
   253
370
    50
100
AcDbVertex
100
AcDb2dVertex
 10
91.483138
 20
70.829496
 30
0.0
  0
VERTEX
  5
3A6
330
39B
100
AcDbEntity
  8
001
 62
   253
370
    50
100
AcDbVertex
100
AcDb2dVertex
 10
91.230274
 20
70.802696
 30
0.0
  0
VERTEX
  5
3A7
330
39B
100
AcDbEntity
  8
001
 62
   253
370
    50
100
AcDbVertex
100
AcDb2dVertex
 10
90.977152
 20
70.778472
 30
0.0
  0
VERTEX
  5
3A8
330
39B
100
AcDbEntity
  8
001
 62
   253
370
    50
100
AcDbVertex
100
AcDb2dVertex
 10
90.713471
 20
70.756129
 30
0.0
  0
VERTEX
  5
3A9
330
39B
100
AcDbEntity
  8
001
 62
   253
370
    50
100
AcDbVertex
100
AcDb2dVertex
 10
90.449551
 20
70.736787
 30
0.0
  0
VERTEX
  5
3AA
330
39B
100
AcDbEntity
  8
001
 62
   253
370
    50
100
AcDbVertex
100
AcDb2dVertex
 10
90.03118
 20
70.712383
 30
0.0
  0
VERTEX
  5
3AB
330
39B
100
AcDbEntity
  8
001
 62
   253
370
    50
100
AcDbVertex
100
AcDb2dVertex
 10
89.612429
 20
70.69554
 30
0.0
  0
VERTEX
  5
3AC
330
39B
100
AcDbEntity
  8
001
 62
   253
370
    50
100
AcDbVertex
100
AcDb2dVertex
 10
89.185155
 20
70.686012
 30
0.0
  0
VERTEX
  5
3AD
330
39B
100
AcDbEntity
  8
001
 62
   253
370
    50
100
AcDbVertex
100
AcDb2dVertex
 10
88.757783
 20
70.68398
 30
0.0
  0
VERTEX
  5
3AE
330
39B
100
AcDbEntity
  8
001
 62
   253
370
    50
100
AcDbVertex
100
AcDb2dVertex
 10
88.539226
 20
70.685778
 30
0.0
  0
VERTEX
  5
3AF
330
39B
100
AcDbEntity
  8
001
 62
   253
370
    50
100
AcDbVertex
100
AcDb2dVertex
 10
88.320699
 20
70.68956
 30
0.0
  0
VERTEX
  5
3B0
330
39B
100
AcDbEntity
  8
001
 62
   253
370
    50
100
AcDbVertex
100
AcDb2dVertex
 10
88.10432
 20
70.695495
 30
0.0
  0
VERTEX
  5
3B1
330
39B
100
AcDbEntity
  8
001
 62
   253
370
    50
100
AcDbVertex
100
AcDb2dVertex
 10
87.888032
 20
70.704419
 30
0.0
  0
VERTEX
  5
3B2
330
39B
100
AcDbEntity
  8
001
 62
   253
370
    50
100
AcDbVertex
100
AcDb2dVertex
 10
87.713096
 20
70.71453
 30
0.0
  0
VERTEX
  5
3B3
330
39B
100
AcDbEntity
  8
001
 62
   253
370
    50
100
AcDbVertex
100
AcDb2dVertex
 10
87.538431
 20
70.728
 30
0.0
  0
VERTEX
  5
3B4
330
39B
100
AcDbEntity
  8
001
 62
   253
370
    50
100
AcDbVertex
100
AcDb2dVertex
 10
87.373808
 20
70.744207
 30
0.0
  0
VERTEX
  5
3B5
330
39B
100
AcDbEntity
  8
001
 62
   253
370
    50
100
AcDbVertex
100
AcDb2dVertex
 10
87.20934
 20
70.762983
 30
0.0
  0
VERTEX
  5
3B6
330
39B
100
AcDbEntity
  8
001
 62
   253
370
    50
100
AcDbVertex
100
AcDb2dVertex
 10
87.069651
 20
70.781275
 30
0.0
  0
VERTEX
  5
3B7
330
39B
100
AcDbEntity
  8
001
 62
   253
370
    50
100
AcDbVertex
100
AcDb2dVertex
 10
86.93129
 20
70.806737
 30
0.0
  0
VERTEX
  5
3B8
330
39B
100
AcDbEntity
  8
001
 62
   253
370
    50
100
AcDbVertex
100
AcDb2dVertex
 10
86.865775
 20
70.823142
 30
0.0
  0
VERTEX
  5
3B9
330
39B
100
AcDbEntity
  8
001
 62
   253
370
    50
100
AcDbVertex
100
AcDb2dVertex
 10
86.801012
 20
70.842356
 30
0.0
  0
VERTEX
  5
3BA
330
39B
100
AcDbEntity
  8
001
 62
   253
370
    50
100
AcDbVertex
100
AcDb2dVertex
 10
86.746874
 20
70.860478
 30
0.0
  0
VERTEX
  5
3BB
330
39B
100
AcDbEntity
  8
001
 62
   253
370
    50
100
AcDbVertex
100
AcDb2dVertex
 10
86.69305
 20
70.879514
 30
0.0
  0
SEQEND
  5
39C
330
39B
100
AcDbEntity
  8
001
370
    50
  0
POLYLINE
  5
3BC
330
1F
100
AcDbEntity
  8
001
 62
   253
370
    50
100
AcDb2dPolyline
 66
     1
 10
0.0
 20
0.0
 30
0.0
  0
VERTEX
  5
3BE
330
3BC
100
AcDbEntity
  8
001
 62
   253
370
    50
100
AcDbVertex
100
AcDb2dVertex
 10
92.977867
 20
71.065067
 30
0.0
  0
VERTEX
  5
3BF
330
3BC
100
AcDbEntity
  8
001
 62
   253
370
    50
100
AcDbVertex
100
AcDb2dVertex
 10
93.105807
 20
71.08832
 30
0.0
  0
VERTEX
  5
3C0
330
3BC
100
AcDbEntity
  8
001
 62
   253
370
    50
100
AcDbVertex
100
AcDb2dVertex
 10
93.233664
 20
71.112021
 30
0.0
  0
VERTEX
  5
3C1
330
3BC
100
AcDbEntity
  8
001
 62
   253
370
    50
100
AcDbVertex
100
AcDb2dVertex
 10
93.345993
 20
71.13352
 30
0.0
  0
VERTEX
  5
3C2
330
3BC
100
AcDbEntity
  8
001
 62
   253
370
    50
100
AcDbVertex
100
AcDb2dVertex
 10
93.458211
 20
71.155596
 30
0.0
  0
VERTEX
  5
3C3
330
3BC
100
AcDbEntity
  8
001
 62
   253
370
    50
100
AcDbVertex
100
AcDb2dVertex
 10
93.517905
 20
71.167548
 30
0.0
  0
VERTEX
  5
3C4
330
3BC
100
AcDbEntity
  8
001
 62
   253
370
    50
100
AcDbVertex
100
AcDb2dVertex
 10
93.577569
 20
71.179647
 30
0.0
  0
VERTEX
  5
3C5
330
3BC
100
AcDbEntity
  8
001
 62
   253
370
    50
100
AcDbVertex
100
AcDb2dVertex
 10
93.584684
 20
71.1811
 30
0.0
  0
VERTEX
  5
3C6
330
3BC
100
AcDbEntity
  8
001
 62
   253
370
    50
100
AcDbVertex
100
AcDb2dVertex
 10
93.591799
 20
71.182555
 30
0.0
  0
SEQEND
  5
3BD
330
3BC
100
AcDbEntity
  8
001
370
    50
  0
LINE
  5
3C7
330
1F
100
AcDbEntity
  8
001
 62
   253
370
    50
100
AcDbLine
 10
81.216799
 20
70.682555
 30
0.0
 11
81.216799
 21
37.682555
 31
0.0
  0
LINE
  5
3C8
330
1F
100
AcDbEntity
  8
001
 62
   253
370
    50
100
AcDbLine
 10
81.716799
 20
71.182555
 30
0.0
 11
81.216799
 21
70.682555
 31
0.0
  0
LINE
  5
3C9
330
1F
100
AcDbEntity
  8
001
 62
   253
370
    50
100
AcDbLine
 10
81.216799
 20
37.682555
 30
0.0
 11
81.716799
 21
37.182555
 31
0.0
  0
POLYLINE
  5
3CA
330
1F
100
AcDbEntity
  8
001
 62
   253
370
    50
100
AcDb2dPolyline
 66
     1
 10
0.0
 20
0.0
 30
0.0
  0
VERTEX
  5
3CC
330
3CA
100
AcDbEntity
  8
001
 62
   253
370
    50
100
AcDbVertex
100
AcDb2dVertex
 10
69.841799
 20
69.682555
 30
0.0
  0
VERTEX
  5
3CD
330
3CA
100
AcDbEntity
  8
001
 62
   253
370
    50
100
AcDbVertex
100
AcDb2dVertex
 10
69.848348
 20
69.681115
 30
0.0
  0
VERTEX
  5
3CE
330
3CA
100
AcDbEntity
  8
001
 62
   253
370
    50
100
AcDbVertex
100
AcDb2dVertex
 10
69.854898
 20
69.679675
 30
0.0
  0
VERTEX
  5
3CF
330
3CA
100
AcDbEntity
  8
001
 62
   253
370
    50
100
AcDbVertex
100
AcDb2dVertex
 10
69.90182
 20
69.669423
 30
0.0
  0
VERTEX
  5
3D0
330
3CA
100
AcDbEntity
  8
001
 62
   253
370
    50
100
AcDbVertex
100
AcDb2dVertex
 10
69.948763
 20
69.65927
 30
0.0
  0
VERTEX
  5
3D1
330
3CA
100
AcDbEntity
  8
001
 62
   253
370
    50
100
AcDbVertex
100
AcDb2dVertex
 10
70.041838
 20
69.639442
 30
0.0
  0
VERTEX
  5
3D2
330
3CA
100
AcDbEntity
  8
001
 62
   253
370
    50
100
AcDbVertex
100
AcDb2dVertex
 10
70.13499
 20
69.619981
 30
0.0
  0
VERTEX
  5
3D3
330
3CA
100
AcDbEntity
  8
001
 62
   253
370
    50
100
AcDbVertex
100
AcDb2dVertex
 10
70.268548
 20
69.592747
 30
0.0
  0
VERTEX
  5
3D4
330
3CA
100
AcDbEntity
  8
001
 62
   253
370
    50
100
AcDbVertex
100
AcDb2dVertex
 10
70.402282
 20
69.566402
 30
0.0
  0
VERTEX
  5
3D5
330
3CA
100
AcDbEntity
  8
001
 62
   253
370
    50
100
AcDbVertex
100
AcDb2dVertex
 10
70.580845
 20
69.532747
 30
0.0
  0
VERTEX
  5
3D6
330
3CA
100
AcDbEntity
  8
001
 62
   253
370
    50
100
AcDbVertex
100
AcDb2dVertex
 10
70.759589
 20
69.500041
 30
0.0
  0
SEQEND
  5
3CB
330
3CA
100
AcDbEntity
  8
001
370
    50
  0
LINE
  5
3D7
330
1F
100
AcDbEntity
  8
001
 62
   253
370
    50
100
AcDbLine
 10
69.856555
 20
69.682555
 30
0.0
 11
68.412951
 21
69.682555
 31
0.0
  0
LINE
  5
3D8
330
1F
100
AcDbEntity
  8
001
 62
   253
370
    50
100
AcDbLine
 10
81.216799
 20
69.682555
 30
0.0
 11
78.587136
 21
69.682555
 31
0.0
  0
LINE
  5
3D9
330
1F
100
AcDbEntity
  8
001
 62
   253
370
    50
100
AcDbLine
 10
68.412951
 20
38.682555
 30
0.0
 11
81.216799
 21
38.682555
 31
0.0
  0
POLYLINE
  5
3DA
330
1F
100
AcDbEntity
  8
001
 62
   253
370
    50
100
AcDb2dPolyline
 66
     1
 10
0.0
 20
0.0
 30
0.0
  0
VERTEX
  5
3DC
330
3DA
100
AcDbEntity
  8
001
 62
   253
370
    50
100
AcDbVertex
100
AcDb2dVertex
 10
72.373699
 20
69.278265
 30
0.0
  0
VERTEX
  5
3DD
330
3DA
100
AcDbEntity
  8
001
 62
   253
370
    50
100
AcDbVertex
100
AcDb2dVertex
 10
72.030545
 20
69.305089
 30
0.0
  0
VERTEX
  5
3DE
330
3DA
100
AcDbEntity
  8
001
 62
   253
370
    50
100
AcDbVertex
100
AcDb2dVertex
 10
71.687702
 20
69.334881
 30
0.0
  0
VERTEX
  5
3DF
330
3DA
100
AcDbEntity
  8
001
 62
   253
370
    50
100
AcDbVertex
100
AcDb2dVertex
 10
71.555812
 20
69.347822
 30
0.0
  0
VERTEX
  5
3E0
330
3DA
100
AcDbEntity
  8
001
 62
   253
370
    50
100
AcDbVertex
100
AcDb2dVertex
 10
71.424013
 20
69.36209
 30
0.0
  0
VERTEX
  5
3E1
330
3DA
100
AcDbEntity
  8
001
 62
   253
370
    50
100
AcDbVertex
100
AcDb2dVertex
 10
71.303298
 20
69.376937
 30
0.0
  0
VERTEX
  5
3E2
330
3DA
100
AcDbEntity
  8
001
 62
   253
370
    50
100
AcDbVertex
100
AcDb2dVertex
 10
71.183125
 20
69.394894
 30
0.0
  0
VERTEX
  5
3E3
330
3DA
100
AcDbEntity
  8
001
 62
   253
370
    50
100
AcDbVertex
100
AcDb2dVertex
 10
71.07929
 20
69.413806
 30
0.0
  0
VERTEX
  5
3E4
330
3DA
100
AcDbEntity
  8
001
 62
   253
370
    50
100
AcDbVertex
100
AcDb2dVertex
 10
70.97551
 20
69.434443
 30
0.0
  0
VERTEX
  5
3E5
330
3DA
100
AcDbEntity
  8
001
 62
   253
370
    50
100
AcDbVertex
100
AcDb2dVertex
 10
70.893071
 20
69.452169
 30
0.0
  0
VERTEX
  5
3E6
330
3DA
100
AcDbEntity
  8
001
 62
   253
370
    50
100
AcDbVertex
100
AcDb2dVertex
 10
70.812895
 20
69.476789
 30
0.0
  0
VERTEX
  5
3E7
330
3DA
100
AcDbEntity
  8
001
 62
   253
370
    50
100
AcDbVertex
100
AcDb2dVertex
 10
70.786094
 20
69.488
 30
0.0
  0
VERTEX
  5
3E8
330
3DA
100
AcDbEntity
  8
001
 62
   253
370
    50
100
AcDbVertex
100
AcDb2dVertex
 10
70.759589
 20
69.500041
 30
0.0
  0
SEQEND
  5
3DB
330
3DA
100
AcDbEntity
  8
001
370
    50
  0
POLYLINE
  5
3E9
330
1F
100
AcDbEntity
  8
001
 62
   253
370
    50
100
AcDb2dPolyline
 66
     1
 10
0.0
 20
0.0
 30
0.0
  0
VERTEX
  5
3EB
330
3E9
100
AcDbEntity
  8
001
 62
   253
370
    50
100
AcDbVertex
100
AcDb2dVertex
 10
72.373699
 20
69.278265
 30
0.0
  0
VERTEX
  5
3EC
330
3E9
100
AcDbEntity
  8
001
 62
   253
370
    50
100
AcDbVertex
100
AcDb2dVertex
 10
72.70415
 20
69.25019
 30
0.0
  0
VERTEX
  5
3ED
330
3E9
100
AcDbEntity
  8
001
 62
   253
370
    50
100
AcDbVertex
100
AcDb2dVertex
 10
73.034848
 20
69.225672
 30
0.0
  0
VERTEX
  5
3EE
330
3E9
100
AcDbEntity
  8
001
 62
   253
370
    50
100
AcDbVertex
100
AcDb2dVertex
 10
73.412186
 20
69.20555
 30
0.0
  0
VERTEX
  5
3EF
330
3E9
100
AcDbEntity
  8
001
 62
   253
370
    50
100
AcDbVertex
100
AcDb2dVertex
 10
73.789909
 20
69.193584
 30
0.0
  0
VERTEX
  5
3F0
330
3E9
100
AcDbEntity
  8
001
 62
   253
370
    50
100
AcDbVertex
100
AcDb2dVertex
 10
74.183655
 20
69.188887
 30
0.0
  0
VERTEX
  5
3F1
330
3E9
100
AcDbEntity
  8
001
 62
   253
370
    50
100
AcDbVertex
100
AcDb2dVertex
 10
74.577396
 20
69.192203
 30
0.0
  0
VERTEX
  5
3F2
330
3E9
100
AcDbEntity
  8
001
 62
   253
370
    50
100
AcDbVertex
100
AcDb2dVertex
 10
74.964676
 20
69.203533
 30
0.0
  0
VERTEX
  5
3F3
330
3E9
100
AcDbEntity
  8
001
 62
   253
370
    50
100
AcDbVertex
100
AcDb2dVertex
 10
75.351648
 20
69.222794
 30
0.0
  0
VERTEX
  5
3F4
330
3E9
100
AcDbEntity
  8
001
 62
   253
370
    50
100
AcDbVertex
100
AcDb2dVertex
 10
75.733864
 20
69.249501
 30
0.0
  0
VERTEX
  5
3F5
330
3E9
100
AcDbEntity
  8
001
 62
   253
370
    50
100
AcDbVertex
100
AcDb2dVertex
 10
76.115478
 20
69.283718
 30
0.0
  0
VERTEX
  5
3F6
330
3E9
100
AcDbEntity
  8
001
 62
   253
370
    50
100
AcDbVertex
100
AcDb2dVertex
 10
76.457694
 20
69.320771
 30
0.0
  0
VERTEX
  5
3F7
330
3E9
100
AcDbEntity
  8
001
 62
   253
370
    50
100
AcDbVertex
100
AcDb2dVertex
 10
76.799217
 20
69.363685
 30
0.0
  0
VERTEX
  5
3F8
330
3E9
100
AcDbEntity
  8
001
 62
   253
370
    50
100
AcDbVertex
100
AcDb2dVertex
 10
76.961706
 20
69.386162
 30
0.0
  0
VERTEX
  5
3F9
330
3E9
100
AcDbEntity
  8
001
 62
   253
370
    50
100
AcDbVertex
100
AcDb2dVertex
 10
77.12401
 20
69.409923
 30
0.0
  0
VERTEX
  5
3FA
330
3E9
100
AcDbEntity
  8
001
 62
   253
370
    50
100
AcDbVertex
100
AcDb2dVertex
 10
77.274843
 20
69.433166
 30
0.0
  0
VERTEX
  5
3FB
330
3E9
100
AcDbEntity
  8
001
 62
   253
370
    50
100
AcDbVertex
100
AcDb2dVertex
 10
77.425506
 20
69.457495
 30
0.0
  0
VERTEX
  5
3FC
330
3E9
100
AcDbEntity
  8
001
 62
   253
370
    50
100
AcDbVertex
100
AcDb2dVertex
 10
77.66635
 20
69.498684
 30
0.0
  0
VERTEX
  5
3FD
330
3E9
100
AcDbEntity
  8
001
 62
   253
370
    50
100
AcDbVertex
100
AcDb2dVertex
 10
77.906717
 20
69.542572
 30
0.0
  0
VERTEX
  5
3FE
330
3E9
100
AcDbEntity
  8
001
 62
   253
370
    50
100
AcDbVertex
100
AcDb2dVertex
 10
78.010151
 20
69.562302
 30
0.0
  0
VERTEX
  5
3FF
330
3E9
100
AcDbEntity
  8
001
 62
   253
370
    50
100
AcDbVertex
100
AcDb2dVertex
 10
78.113491
 20
69.582518
 30
0.0
  0
VERTEX
  5
400
330
3E9
100
AcDbEntity
  8
001
 62
   253
370
    50
100
AcDbVertex
100
AcDb2dVertex
 10
78.200218
 20
69.59987
 30
0.0
  0
VERTEX
  5
401
330
3E9
100
AcDbEntity
  8
001
 62
   253
370
    50
100
AcDbVertex
100
AcDb2dVertex
 10
78.286878
 20
69.61756
 30
0.0
  0
VERTEX
  5
402
330
3E9
100
AcDbEntity
  8
001
 62
   253
370
    50
100
AcDbVertex
100
AcDb2dVertex
 10
78.362824
 20
69.63335
 30
0.0
  0
VERTEX
  5
403
330
3E9
100
AcDbEntity
  8
001
 62
   253
370
    50
100
AcDbVertex
100
AcDb2dVertex
 10
78.438717
 20
69.649392
 30
0.0
  0
VERTEX
  5
404
330
3E9
100
AcDbEntity
  8
001
 62
   253
370
    50
100
AcDbVertex
100
AcDb2dVertex
 10
78.489975
 20
69.660374
 30
0.0
  0
VERTEX
  5
405
330
3E9
100
AcDbEntity
  8
001
 62
   253
370
    50
100
AcDbVertex
100
AcDb2dVertex
 10
78.541206
 20
69.671478
 30
0.0
  0
VERTEX
  5
406
330
3E9
100
AcDbEntity
  8
001
 62
   253
370
    50
100
AcDbVertex
100
AcDb2dVertex
 10
78.566504
 20
69.677008
 30
0.0
  0
VERTEX
  5
407
330
3E9
100
AcDbEntity
  8
001
 62
   253
370
    50
100
AcDbVertex
100
AcDb2dVertex
 10
78.591799
 20
69.682555
 30
0.0
  0
SEQEND
  5
3EA
330
3E9
100
AcDbEntity
  8
001
370
    50
  0
ARC
  5
408
330
1F
100
AcDbEntity
  8
001
 62
   253
370
    50
100
AcDbCircle
 10
68.412951
 20
39.682555
 30
0.0
 40
1.0
100
AcDbArc
 50
240.0
 51
270.0
  0
ARC
  5
409
330
1F
100
AcDbEntity
  8
001
 62
   253
370
    50
100
AcDbCircle
 10
68.412951
 20
68.682555
 30
0.0
 40
1.0
100
AcDbArc
 50
90.0
 51
120.0
  0
LINE
  5
40A
330
1F
100
AcDbEntity
  8
001
 62
   253
370
    50
100
AcDbLine
 10
67.912951
 20
69.54858
 30
0.0
 11
61.716799
 21
65.97123
 31
0.0
  0
LINE
  5
40B
330
1F
100
AcDbEntity
  8
001
 62
   253
370
    50
100
AcDbLine
 10
61.716799
 20
42.39388
 30
0.0
 11
67.912951
 21
38.81653
 31
0.0
  0
ARC
  5
40C
330
1F
100
AcDbEntity
  8
001
 62
   253
370
    50
100
AcDbCircle
 10
62.216799
 20
43.259905
 30
0.0
 40
0.9999999999999981
100
AcDbArc
 50
180.0
 51
240.0
  0
ARC
  5
40D
330
1F
100
AcDbEntity
  8
001
 62
   253
370
    50
100
AcDbCircle
 10
62.216799
 20
65.105205
 30
0.0
 40
0.9999999999999981
100
AcDbArc
 50
120.0
 51
180.0
  0
LINE
  5
40E
330
1F
100
AcDbEntity
  8
001
 62
   253
370
    50
100
AcDbLine
 10
61.216799
 20
43.259905
 30
0.0
 11
61.216799
 21
65.105205
 31
0.0
  0
LINE
  5
40F
330
1F
100
AcDbEntity
  8
001
  6
CENTER
370
     9
100
AcDbLine
 10
52.617339
 20
151.329068
 30
0.0
 11
187.07815
 21
151.329068
 31
0.0
  0
LINE
  5
410
330
1F
100
AcDbEntity
  8
001
  6
CENTER
370
     9
100
AcDbLine
 10
52.617339
 20
54.182555
 30
0.0
 11
187.07815
 21
54.182555
 31
0.0
  0
LINE
  5
411
330
1F
100
AcDbEntity
  8
001
 62
   253
370
    50
100
AcDbLine
 10
104.216799
 20
34.182555
 30
0.0
 11
104.216799
 21
72.182555
 31
0.0
  0
LINE
  5
412
330
1F
100
AcDbEntity
  8
001
 62
   253
370
    50
100
AcDbLine
 10
230.427849
 20
159.398144
 30
0.0
 11
230.427849
 21
143.259991
 31
0.0
  0
ARC
  5
413
330
1F
100
AcDbEntity
  8
001
 62
   253
370
    50
100
AcDbCircle
 10
248.727849
 20
151.329068
 30
0.0
 40
20.0
100
AcDbArc
 50
203.794273
 51
156.205727
  0
LINE
  5
414
330
1F
100
AcDbEntity
  8
001
  6
CENTER
 62
   253
370
     9
100
AcDbLine
 10
223.227849
 20
151.329068
 30
0.0
 11
274.227849
 21
151.329068
 31
0.0
  0
LINE
  5
415
330
1F
100
AcDbEntity
  8
001
  6
CENTER
 62
   253
370
     9
100
AcDbLine
 10
248.727849
 20
125.829068
 30
0.0
 11
248.727849
 21
176.829068
 31
0.0
  0
CIRCLE
  5
416
330
1F
100
AcDbEntity
  8
001
370
    50
100
AcDbCircle
 10
248.727849
 20
151.329068
 30
0.0
 40
23.5
  0
CIRCLE
  5
417
330
1F
100
AcDbEntity
  8
001
370
    50
100
AcDbCircle
 10
248.727849
 20
151.329068
 30
0.0
 40
8.0
  0
LINE
  5
418
330
1F
100
AcDbEntity
  8
001
  6
DASHED
370
    50
100
AcDbLine
 10
61.216799
 20
62.182555
 30
0.0
 11
181.216799
 21
62.182555
 31
0.0
  0
LINE
  5
419
330
1F
100
AcDbEntity
  8
001
  6
DASHED
370
    50
100
AcDbLine
 10
61.216799
 20
46.182555
 30
0.0
 11
181.216799
 21
46.182555
 31
0.0
  0
LINE
  5
41A
330
1F
100
AcDbEntity
  8
001
  6
CENTER
370
     9
100
AcDbLine
 10
74.216799
 20
74.807605
 30
0.0
 11
74.216799
 21
58.694021
 31
0.0
  0
LINE
  5
41B
330
1F
100
AcDbEntity
  8
001
  6
CENTER
370
     9
100
AcDbLine
 10
89.216799
 20
74.807605
 30
0.0
 11
89.216799
 21
58.694021
 31
0.0
  0
LINE
  5
41C
330
1F
100
AcDbEntity
  8
001
370
     9
100
AcDbLine
 10
104.216799
 20
159.398144
 30
0.0
 11
179.216799
 21
143.259991
 31
0.0
  0
LINE
  5
41D
330
1F
100
AcDbEntity
  8
001
370
     9
100
AcDbLine
 10
179.216799
 20
159.398144
 30
0.0
 11
104.216799
 21
143.259991
 31
0.0
  0
LINE
  5
41E
330
1F
100
AcDbEntity
  8
001
  6
DASHED
370
    30
100
AcDbLine
 10
93.216799
 20
71.108851
 30
0.0
 11
93.216799
 21
62.182555
 31
0.0
  0
LINE
  5
41F
330
1F
100
AcDbEntity
  8
001
  6
DASHED
370
    30
100
AcDbLine
 10
92.616799
 20
70.990664
 30
0.0
 11
92.616799
 21
62.182555
 31
0.0
  0
LINE
  5
420
330
1F
100
AcDbEntity
  8
001
  6
DASHED
370
    30
100
AcDbLine
 10
85.816799
 20
71.003752
 30
0.0
 11
85.816799
 21
62.182555
 31
0.0
  0
LINE
  5
421
330
1F
100
AcDbEntity
  8
001
  6
DASHED
370
    30
100
AcDbLine
 10
85.216799
 20
71.108835
 30
0.0
 11
85.216799
 21
62.182555
 31
0.0
  0
LINE
  5
422
330
1F
100
AcDbEntity
  8
001
  6
DASHED
370
    30
100
AcDbLine
 10
78.216799
 20
69.603228
 30
0.0
 11
78.216799
 21
62.182555
 31
0.0
  0
LINE
  5
423
330
1F
100
AcDbEntity
  8
001
  6
DASHED
370
    30
100
AcDbLine
 10
77.616799
 20
69.505482
 30
0.0
 11
77.616799
 21
62.182555
 31
0.0
  0
LINE
  5
424
330
1F
100
AcDbEntity
  8
001
  6
DASHED
370
    30
100
AcDbLine
 10
70.816799
 20
69.505482
 30
0.0
 11
70.816799
 21
62.182555
 31
0.0
  0
LINE
  5
425
330
1F
100
AcDbEntity
  8
001
  6
DASHED
370
    30
100
AcDbLine
 10
70.216799
 20
69.603199
 30
0.0
 11
70.216799
 21
62.182555
 31
0.0
  0
TEXT
  5
426
330
1F
100
AcDbEntity
  8
001
370
    30
100
AcDbText
 10
46.547902
 20
212.014228
 30
0.0
 40
10.0
  1
オイルッシャー　ＫＪＤ４０Ｓ１６
 41
0.833333
100
AcDbText
  0
ENDSEC
  0
SECTION
  2
OBJECTS
  0
DICTIONARY
  5
C
330
0
100
AcDbDictionary
281
     1
  3
ACAD_GROUP
350
D
  3
ACAD_LAYOUT
350
1A
  3
ACAD_MLEADERSTYLE
350
42A
  3
ACAD_MLINESTYLE
350
17
  3
ACAD_PLOTSETTINGS
350
19
  3
ACAD_PLOTSTYLENAME
350
E
  3
ACAD_SCALELIST
350
3B
  3
ACAD_TABLESTYLE
350
429
  3
ACAD_VISUALSTYLE
350
2A
  3
AcDbVariableDictionary
350
427
  0
DICTIONARY
  5
D
102
{ACAD_REACTORS
330
C
102
}
330
C
100
AcDbDictionary
281
     1
  0
DICTIONARY
  5
1A
102
{ACAD_REACTORS
330
C
102
}
330
C
100
AcDbDictionary
281
     1
  3
Layout1
350
1E
  3
Layout2
350
26
  3
Model
350
22
  0
DICTIONARY
  5
42A
102
{ACAD_REACTORS
330
C
102
}
330
C
100
AcDbDictionary
281
     1
  0
DICTIONARY
  5
17
102
{ACAD_REACTORS
330
C
102
}
330
C
100
AcDbDictionary
281
     1
  3
Standard
350
18
  0
DICTIONARY
  5
19
102
{ACAD_REACTORS
330
C
102
}
330
C
100
AcDbDictionary
281
     1
  0
ACDBDICTIONARYWDFLT
  5
E
102
{ACAD_REACTORS
330
C
102
}
330
C
100
AcDbDictionary
281
     1
  3
Normal
350
F
100
AcDbDictionaryWithDefault
340
F
  0
DICTIONARY
  5
3B
102
{ACAD_REACTORS
330
C
102
}
330
C
100
AcDbDictionary
281
     1
  3
A0
350
3C
  3
A1
350
3D
  3
A2
350
3E
  3
A3
350
3F
  3
A4
350
40
  3
A5
350
41
  3
A6
350
42
  3
A7
350
43
  3
A8
350
44
  3
A9
350
45
  3
B0
350
46
  3
B1
350
47
  3
B2
350
48
  3
B3
350
49
  3
B4
350
4A
  3
B5
350
4B
  3
B6
350
4C
  3
B7
350
4D
  3
B8
350
4E
  3
B9
350
4F
  3
C0
350
50
  3
C1
350
51
  3
C2
350
52
  3
C3
350
53
  3
C4
350
54
  3
C5
350
55
  3
C6
350
56
  3
C7
350
57
  3
C8
350
58
  3
C9
350
59
  3
D0
350
5A
  3
D1
350
5B
  3
D2
350
5C
  0
DICTIONARY
  5
429
102
{ACAD_REACTORS
330
C
102
}
330
C
100
AcDbDictionary
281
     1
  0
DICTIONARY
  5
2A
102
{ACAD_REACTORS
330
C
102
}
330
C
100
AcDbDictionary
281
     1
  3
2dWireframe
350
2F
  3
3D Hidden
350
31
  3
3dWireframe
350
30
  3
Basic
350
32
  3
Brighten
350
36
  3
ColorChange
350
3A
  3
Conceptual
350
34
  3
Dim
350
35
  3
Facepattern
350
39
  3
Flat
350
2B
  3
FlatWithEdges
350
2C
  3
Gouraud
350
2D
  3
GouraudWithEdges
350
2E
  3
Linepattern
350
38
  3
Realistic
350
33
  3
Thicken
350
37
  0
DICTIONARY
  5
427
102
{ACAD_REACTORS
330
C
102
}
330
C
100
AcDbDictionary
281
     1
  3
CANNOSCALE
350
428
  3
PSOLHEIGHT
350
42C
  3
PSOLWIDTH
350
42B
  0
LAYOUT
  5
1E
102
{ACAD_REACTORS
330
1A
102
}
330
1A
100
AcDbPlotSettings
  1

  2
none_device
  4

  6

 40
0.0
 41
0.0
 42
0.0
 43
0.0
 44
0.0
 45
0.0
 46
0.0
 47
0.0
 48
0.0
 49
0.0
140
0.0
141
0.0
142
1.0
143
1.0
 70
   688
 72
     0
 73
     0
 74
     5
  7

 75
    16
147
1.0
148
0.0
149
0.0
100
AcDbLayout
  1
Layout1
 70
     1
 71
     1
 10
0.0
 20
0.0
 11
12.0
 21
9.0
 12
0.0
 22
0.0
 32
0.0
 14
1.000000E+20
 24
1.000000E+20
 34
0.0
 15
-1.000000E+20
 25
-1.000000E+20
 35
0.0
146
0.0
 13
0.0
 23
0.0
 33
0.0
 16
1.0
 26
0.0
 36
0.0
 17
0.0
 27
1.0
 37
0.0
 76
     0
330
1B
  0
LAYOUT
  5
26
102
{ACAD_REACTORS
330
1A
102
}
330
1A
100
AcDbPlotSettings
  1

  2
none_device
  4

  6

 40
0.0
 41
0.0
 42
0.0
 43
0.0
 44
0.0
 45
0.0
 46
0.0
 47
0.0
 48
0.0
 49
0.0
140
0.0
141
0.0
142
1.0
143
1.0
 70
   688
 72
     0
 73
     0
 74
     5
  7

 75
    16
147
1.0
148
0.0
149
0.0
100
AcDbLayout
  1
Layout2
 70
     1
 71
     2
 10
0.0
 20
0.0
 11
0.0
 21
0.0
 12
0.0
 22
0.0
 32
0.0
 14
0.0
 24
0.0
 34
0.0
 15
0.0
 25
0.0
 35
0.0
146
0.0
 13
0.0
 23
0.0
 33
0.0
 16
1.0
 26
0.0
 36
0.0
 17
0.0
 27
1.0
 37
0.0
 76
     0
330
23
  0
LAYOUT
  5
22
102
{ACAD_REACTORS
330
1A
102
}
330
1A
100
AcDbPlotSettings
  1

  2
none_device
  4

  6

 40
0.0
 41
0.0
 42
0.0
 43
0.0
 44
0.0
 45
0.0
 46
0.0
 47
0.0
 48
0.0
 49
0.0
140
0.0
141
0.0
142
1.0
143
1.0
 70
  1712
 72
     0
 73
     0
 74
     0
  7

 75
     0
147
1.0
148
0.0
149
0.0
100
AcDbLayout
  1
Model
 70
     1
 71
     0
 10
0.0
 20
0.0
 11
12.0
 21
9.0
 12
0.0
 22
0.0
 32
0.0
 14
-19.143097
 24
7.810181
 34
0.0
 15
274.227844
 25
222.014221
 35
0.0
146
0.0
 13
0.0
 23
0.0
 33
0.0
 16
1.0
 26
0.0
 36
0.0
 17
0.0
 27
1.0
 37
0.0
 76
     0
330
1F
331
29
  0
MLINESTYLE
  5
18
102
{ACAD_REACTORS
330
17
102
}
330
17
100
AcDbMlineStyle
  2
Standard
 70
     0
  3

 62
   256
 51
90.0
 52
90.0
 71
     2
 49
0.5
 62
   256
  6
BYLAYER
 49
-0.5
 62
   256
  6
BYLAYER
  0
ACDBPLACEHOLDER
  5
F
102
{ACAD_REACTORS
330
E
102
}
330
E
  0
SCALE
  5
3C
102
{ACAD_REACTORS
330
3B
102
}
330
3B
100
AcDbScale
 70
     0
300
1:1
140
1.0
141
1.0
290
     1
  0
SCALE
  5
3D
102
{ACAD_REACTORS
330
3B
102
}
330
3B
100
AcDbScale
 70
     0
300
1:2
140
1.0
141
2.0
290
     0
  0
SCALE
  5
3E
102
{ACAD_REACTORS
330
3B
102
}
330
3B
100
AcDbScale
 70
     0
300
1:4
140
1.0
141
4.0
290
     0
  0
SCALE
  5
3F
102
{ACAD_REACTORS
330
3B
102
}
330
3B
100
AcDbScale
 70
     0
300
1:5
140
1.0
141
5.0
290
     0
  0
SCALE
  5
40
102
{ACAD_REACTORS
330
3B
102
}
330
3B
100
AcDbScale
 70
     0
300
1:8
140
1.0
141
8.0
290
     0
  0
SCALE
  5
41
102
{ACAD_REACTORS
330
3B
102
}
330
3B
100
AcDbScale
 70
     0
300
1:10
140
1.0
141
10.0
290
     0
  0
SCALE
  5
42
102
{ACAD_REACTORS
330
3B
102
}
330
3B
100
AcDbScale
 70
     0
300
1:16
140
1.0
141
16.0
290
     0
  0
SCALE
  5
43
102
{ACAD_REACTORS
330
3B
102
}
330
3B
100
AcDbScale
 70
     0
300
1:20
140
1.0
141
20.0
290
     0
  0
SCALE
  5
44
102
{ACAD_REACTORS
330
3B
102
}
330
3B
100
AcDbScale
 70
     0
300
1:30
140
1.0
141
30.0
290
     0
  0
SCALE
  5
45
102
{ACAD_REACTORS
330
3B
102
}
330
3B
100
AcDbScale
 70
     0
300
1:40
140
1.0
141
40.0
290
     0
  0
SCALE
  5
46
102
{ACAD_REACTORS
330
3B
102
}
330
3B
100
AcDbScale
 70
     0
300
1:50
140
1.0
141
50.0
290
     0
  0
SCALE
  5
47
102
{ACAD_REACTORS
330
3B
102
}
330
3B
100
AcDbScale
 70
     0
300
1:100
140
1.0
141
100.0
290
     0
  0
SCALE
  5
48
102
{ACAD_REACTORS
330
3B
102
}
330
3B
100
AcDbScale
 70
     0
300
2:1
140
2.0
141
1.0
290
     0
  0
SCALE
  5
49
102
{ACAD_REACTORS
330
3B
102
}
330
3B
100
AcDbScale
 70
     0
300
4:1
140
4.0
141
1.0
290
     0
  0
SCALE
  5
4A
102
{ACAD_REACTORS
330
3B
102
}
330
3B
100
AcDbScale
 70
     0
300
8:1
140
8.0
141
1.0
290
     0
  0
SCALE
  5
4B
102
{ACAD_REACTORS
330
3B
102
}
330
3B
100
AcDbScale
 70
     0
300
10:1
140
10.0
141
1.0
290
     0
  0
SCALE
  5
4C
102
{ACAD_REACTORS
330
3B
102
}
330
3B
100
AcDbScale
 70
     0
300
100:1
140
100.0
141
1.0
290
     0
  0
SCALE
  5
4D
102
{ACAD_REACTORS
330
3B
102
}
330
3B
100
AcDbScale
 70
     0
300
1/128" = 1'-0"
140
0.007812
141
12.0
290
     0
  0
SCALE
  5
4E
102
{ACAD_REACTORS
330
3B
102
}
330
3B
100
AcDbScale
 70
     0
300
1/64" = 1'-0"
140
0.015625
141
12.0
290
     0
  0
SCALE
  5
4F
102
{ACAD_REACTORS
330
3B
102
}
330
3B
100
AcDbScale
 70
     0
300
1/32" = 1'-0"
140
0.03125
141
12.0
290
     0
  0
SCALE
  5
50
102
{ACAD_REACTORS
330
3B
102
}
330
3B
100
AcDbScale
 70
     0
300
1/16" = 1'-0"
140
0.0625
141
12.0
290
     0
  0
SCALE
  5
51
102
{ACAD_REACTORS
330
3B
102
}
330
3B
100
AcDbScale
 70
     0
300
3/32" = 1'-0"
140
0.09375
141
12.0
290
     0
  0
SCALE
  5
52
102
{ACAD_REACTORS
330
3B
102
}
330
3B
100
AcDbScale
 70
     0
300
1/8" = 1'-0"
140
0.125
141
12.0
290
     0
  0
SCALE
  5
53
102
{ACAD_REACTORS
330
3B
102
}
330
3B
100
AcDbScale
 70
     0
300
3/16" = 1'-0"
140
0.1875
141
12.0
290
     0
  0
SCALE
  5
54
102
{ACAD_REACTORS
330
3B
102
}
330
3B
100
AcDbScale
 70
     0
300
1/4" = 1'-0"
140
0.25
141
12.0
290
     0
  0
SCALE
  5
55
102
{ACAD_REACTORS
330
3B
102
}
330
3B
100
AcDbScale
 70
     0
300
3/8" = 1'-0"
140
0.375
141
12.0
290
     0
  0
SCALE
  5
56
102
{ACAD_REACTORS
330
3B
102
}
330
3B
100
AcDbScale
 70
     0
300
1/2" = 1'-0"
140
0.5
141
12.0
290
     0
  0
SCALE
  5
57
102
{ACAD_REACTORS
330
3B
102
}
330
3B
100
AcDbScale
 70
     0
300
3/4" = 1'-0"
140
0.75
141
12.0
290
     0
  0
SCALE
  5
58
102
{ACAD_REACTORS
330
3B
102
}
330
3B
100
AcDbScale
 70
     0
300
1" = 1'-0"
140
1.0
141
12.0
290
     0
  0
SCALE
  5
59
102
{ACAD_REACTORS
330
3B
102
}
330
3B
100
AcDbScale
 70
     0
300
1-1/2" = 1'-0"
140
1.5
141
12.0
290
     0
  0
SCALE
  5
5A
102
{ACAD_REACTORS
330
3B
102
}
330
3B
100
AcDbScale
 70
     0
300
3" = 1'-0"
140
3.0
141
12.0
290
     0
  0
SCALE
  5
5B
102
{ACAD_REACTORS
330
3B
102
}
330
3B
100
AcDbScale
 70
     0
300
6" = 1'-0"
140
6.0
141
12.0
290
     0
  0
SCALE
  5
5C
102
{ACAD_REACTORS
330
3B
102
}
330
3B
100
AcDbScale
 70
     0
300
1'-0" = 1'-0"
140
12.0
141
12.0
290
     0
  0
VISUALSTYLE
  5
2F
102
{ACAD_REACTORS
330
2A
102
}
330
2A
100
AcDbVisualStyle
  2
2dWireframe
 70
     4
 71
     0
 72
     2
 73
     0
 90
        0
 40
-0.6
 41
-30.0
 62
     5
 63
     7
 74
     1
 91
        4
 64
     7
 65
   257
 75
     1
175
     1
 42
1.0
 92
        0
 66
   257
 43
1.0
 76
     1
 77
     6
 78
     2
 67
     7
 79
     5
170
     0
171
     0
290
     0
174
     0
 93
        1
 44
0.0
173
     0
291
     0
 45
0.0
1001
ACAD
1000
AcDbSavedByObjectVersion
1070
     0
  0
VISUALSTYLE
  5
31
102
{ACAD_REACTORS
330
2A
102
}
330
2A
100
AcDbVisualStyle
  2
3D Hidden
 70
     6
 71
     1
 72
     2
 73
     2
 90
        0
 40
-0.6
 41
-30.0
 62
     5
 63
     7
 74
     2
 91
        2
 64
     7
 65
   257
 75
     2
175
     1
 42
40.0
 92
        0
 66
   257
 43
1.0
 76
     1
 77
     6
 78
     2
 67
     7
 79
     3
170
     0
171
     0
290
     0
174
     0
 93
        1
 44
0.0
173
     0
291
     0
 45
0.0
1001
ACAD
1000
AcDbSavedByObjectVersion
1070
     0
  0
VISUALSTYLE
  5
30
102
{ACAD_REACTORS
330
2A
102
}
330
2A
100
AcDbVisualStyle
  2
3dWireframe
 70
     5
 71
     0
 72
     2
 73
     0
 90
        0
 40
-0.6
 41
-30.0
 62
     5
 63
     7
 74
     1
 91
        4
 64
     7
 65
   257
 75
     1
175
     1
 42
1.0
 92
        0
 66
   257
 43
1.0
 76
     1
 77
     6
 78
     2
 67
     7
 79
     5
170
     0
171
     0
290
     0
174
     0
 93
        1
 44
0.0
173
     0
291
     0
 45
0.0
1001
ACAD
1000
AcDbSavedByObjectVersion
1070
     0
  0
VISUALSTYLE
  5
32
102
{ACAD_REACTORS
330
2A
102
}
330
2A
100
AcDbVisualStyle
  2
Basic
 70
     7
 71
     1
 72
     0
 73
     1
 90
        0
 40
-0.6
 41
-30.0
 62
     5
 63
     7
 74
     0
 91
        4
 64
     7
 65
   257
 75
     1
175
     1
 42
1.0
 92
        8
 66
     7
 43
1.0
 76
     1
 77
     6
 78
     2
 67
     7
 79
     5
170
     0
171
     0
290
     0
174
     0
 93
        1
 44
0.0
173
     0
291
     1
 45
0.0
1001
ACAD
1000
AcDbSavedByObjectVersion
1070
     0
  0
VISUALSTYLE
  5
36
102
{ACAD_REACTORS
330
2A
102
}
330
2A
100
AcDbVisualStyle
  2
Brighten
 70
    12
 71
     2
 72
     2
 73
     0
 90
        0
 40
-0.6
 41
-30.0
 62
     5
 63
     7
 74
     1
 91
        4
 64
     7
 65
   257
 75
     1
175
     1
 42
1.0
 92
        8
 66
     7
 43
1.0
 76
     1
 77
     6
 78
     2
 67
     7
 79
     5
170
     0
171
     0
290
     0
174
     0
 93
        1
 44
50.0
173
     0
291
     1
 45
0.0
1001
ACAD
1000
AcDbSavedByObjectVersion
1070
     0
  0
VISUALSTYLE
  5
3A
102
{ACAD_REACTORS
330
2A
102
}
330
2A
100
AcDbVisualStyle
  2
ColorChange
 70
    16
 71
     2
 72
     2
 73
     3
 90
        0
 40
-0.6
 41
-30.0
 62
     5
 63
     8
 74
     1
 91
        4
 64
     7
 65
   257
 75
     1
175
     1
 42
1.0
 92
        8
 66
     8
 43
1.0
 76
     1
 77
     6
 78
     2
 67
     7
 79
     5
170
     0
171
     0
290
     0
174
     0
 93
        1
 44
0.0
173
     0
291
     1
 45
0.0
1001
ACAD
1000
AcDbSavedByObjectVersion
1070
     0
  0
VISUALSTYLE
  5
34
102
{ACAD_REACTORS
330
2A
102
}
330
2A
100
AcDbVisualStyle
  2
Conceptual
 70
     9
 71
     3
 72
     2
 73
     0
 90
        0
 40
-0.6
 41
-30.0
 62
     5
 63
     7
 74
     2
 91
        2
 64
     7
 65
   257
 75
     1
175
     1
 42
40.0
 92
        8
 66
     7
 43
1.0
 76
     1
 77
     6
 78
     2
 67
     7
 79
     3
170
     0
171
     0
290
     0
174
     0
 93
        1
 44
0.0
173
     0
291
     0
 45
0.0
1001
ACAD
1000
AcDbSavedByObjectVersion
1070
     0
  0
VISUALSTYLE
  5
35
102
{ACAD_REACTORS
330
2A
102
}
330
2A
100
AcDbVisualStyle
  2
Dim
 70
    11
 71
     2
 72
     2
 73
     0
 90
        0
 40
-0.6
 41
-30.0
 62
     5
 63
     7
 74
     1
 91
        4
 64
     7
 65
   257
 75
     1
175
     1
 42
1.0
 92
        8
 66
     7
 43
1.0
 76
     1
 77
     6
 78
     2
 67
     7
 79
     5
170
     0
171
     0
290
     0
174
     0
 93
        1
 44
-50.0
173
     0
291
     1
 45
0.0
1001
ACAD
1000
AcDbSavedByObjectVersion
1070
     0
  0
VISUALSTYLE
  5
39
102
{ACAD_REACTORS
330
2A
102
}
330
2A
100
AcDbVisualStyle
  2
Facepattern
 70
    15
 71
     2
 72
     2
 73
     0
 90
        0
 40
-0.6
 41
-30.0
 62
     5
 63
     7
 74
     1
 91
        4
 64
     7
 65
   257
 75
     1
175
     1
 42
1.0
 92
        8
 66
     7
 43
1.0
 76
     1
 77
     6
 78
     2
 67
     7
 79
     5
170
     0
171
     0
290
     0
174
     0
 93
        1
 44
0.0
173
     0
291
     1
 45
0.0
1001
ACAD
1000
AcDbSavedByObjectVersion
1070
     0
  0
VISUALSTYLE
  5
2B
102
{ACAD_REACTORS
330
2A
102
}
330
2A
100
AcDbVisualStyle
  2
Flat
 70
     0
 71
     2
 72
     1
 73
     1
 90
        2
 40
-0.6
 41
30.0
 62
     5
 63
     7
 74
     0
 91
        4
 64
     7
 65
   257
 75
     1
175
     1
 42
1.0
 92
        8
 66
     7
 43
1.0
 76
     1
 77
     6
 78
     2
 67
     7
 79
     5
170
     0
171
     0
290
     0
174
     0
 93
       13
 44
0.0
173
     0
291
     1
 45
0.0
1001
ACAD
1000
AcDbSavedByObjectVersion
1070
     0
  0
VISUALSTYLE
  5
2C
102
{ACAD_REACTORS
330
2A
102
}
330
2A
100
AcDbVisualStyle
  2
FlatWithEdges
 70
     1
 71
     2
 72
     1
 73
     1
 90
        2
 40
-0.6
 41
30.0
 62
     5
 63
     7
 74
     1
 91
        4
 64
     7
 65
   257
 75
     1
175
     1
 42
1.0
 92
        0
 66
   257
 43
1.0
 76
     1
 77
     6
 78
     2
 67
     7
 79
     5
170
     0
171
     0
290
     0
174
     0
 93
       13
 44
0.0
173
     0
291
     1
 45
0.0
1001
ACAD
1000
AcDbSavedByObjectVersion
1070
     0
  0
VISUALSTYLE
  5
2D
102
{ACAD_REACTORS
330
2A
102
}
330
2A
100
AcDbVisualStyle
  2
Gouraud
 70
     2
 71
     2
 72
     2
 73
     1
 90
        2
 40
-0.6
 41
30.0
 62
     5
 63
     7
 74
     0
 91
        4
 64
     7
 65
   257
 75
     1
175
     1
 42
1.0
 92
        0
 66
     7
 43
1.0
 76
     1
 77
     6
 78
     2
 67
     7
 79
     5
170
     0
171
     0
290
     0
174
     0
 93
       13
 44
0.0
173
     0
291
     1
 45
0.0
1001
ACAD
1000
AcDbSavedByObjectVersion
1070
     0
  0
VISUALSTYLE
  5
2E
102
{ACAD_REACTORS
330
2A
102
}
330
2A
100
AcDbVisualStyle
  2
GouraudWithEdges
 70
     3
 71
     2
 72
     2
 73
     1
 90
        2
 40
-0.6
 41
30.0
 62
     5
 63
     7
 74
     1
 91
        4
 64
     7
 65
   257
 75
     1
175
     1
 42
1.0
 92
        0
 66
   257
 43
1.0
 76
     1
 77
     6
 78
     2
 67
     7
 79
     5
170
     0
171
     0
290
     0
174
     0
 93
       13
 44
0.0
173
     0
291
     1
 45
0.0
1001
ACAD
1000
AcDbSavedByObjectVersion
1070
     0
  0
VISUALSTYLE
  5
38
102
{ACAD_REACTORS
330
2A
102
}
330
2A
100
AcDbVisualStyle
  2
Linepattern
 70
    14
 71
     2
 72
     2
 73
     0
 90
        0
 40
-0.6
 41
-30.0
 62
     5
 63
     7
 74
     1
 91
        4
 64
     7
 65
   257
 75
     7
175
     7
 42
1.0
 92
        8
 66
     7
 43
1.0
 76
     1
 77
     6
 78
     2
 67
     7
 79
     5
170
     0
171
     0
290
     0
174
     0
 93
        1
 44
0.0
173
     0
291
     1
 45
0.0
1001
ACAD
1000
AcDbSavedByObjectVersion
1070
     0
  0
VISUALSTYLE
  5
33
102
{ACAD_REACTORS
330
2A
102
}
330
2A
100
AcDbVisualStyle
  2
Realistic
 70
     8
 71
     2
 72
     2
 73
     0
 90
        0
 40
-0.6
 41
-30.0
 62
     5
 63
     7
 74
     1
 91
        0
 64
     7
 65
   257
 75
     1
175
     1
 42
1.0
 92
        8
 66
     8
 43
1.0
 76
     1
 77
     6
 78
     2
 67
     7
 79
     5
170
     0
171
     0
290
     0
174
     0
 93
       13
 44
0.0
173
     0
291
     0
 45
0.0
1001
ACAD
1000
AcDbSavedByObjectVersion
1070
     0
  0
VISUALSTYLE
  5
37
102
{ACAD_REACTORS
330
2A
102
}
330
2A
100
AcDbVisualStyle
  2
Thicken
 70
    13
 71
     2
 72
     2
 73
     0
 90
        0
 40
-0.6
 41
-30.0
 62
     5
 63
     7
 74
     1
 91
        4
 64
     7
 65
   257
 75
     1
175
     1
 42
1.0
 92
       12
 66
     7
 43
1.0
 76
     1
 77
     6
 78
     2
 67
     7
 79
     5
170
     0
171
     0
290
     0
174
     0
 93
        1
 44
0.0
173
     0
291
     1
 45
0.0
1001
ACAD
1000
AcDbSavedByObjectVersion
1070
     0
  0
DICTIONARYVAR
  5
428
102
{ACAD_REACTORS
330
427
102
}
330
427
100
DictionaryVariables
280
     0
  1
1:1
  0
DICTIONARYVAR
  5
42C
102
{ACAD_REACTORS
330
427
102
}
330
427
100
DictionaryVariables
280
     0
  1
80.000000
  0
DICTIONARYVAR
  5
42B
102
{ACAD_REACTORS
330
427
102
}
330
427
100
DictionaryVariables
280
     0
  1
5.000000
  0
ENDSEC
  0
EOF
