  0
SECTION
  2
HEADER
  9
$ACADVER
  1
AC1015
  9
$ACADMAINTVER
 70
     6
  9
$DWGCODEPAGE
  3
ANSI_932
  9
$INSBASE
 10
0.0
 20
0.0
 30
0.0
  9
$EXTMIN
 10
-0.00943
 20
-0.525452
 30
0.0
  9
$EXTMAX
 10
292.599915
 20
209.161438
 30
0.0
  9
$LIMMIN
 10
0.0
 20
0.0
  9
$LIMMAX
 10
12.0
 20
9.0
  9
$ORTHOMODE
 70
     0
  9
$REGENMODE
 70
     1
  9
$FILLMODE
 70
     1
  9
$QTEXTMODE
 70
     0
  9
$MIRRTEXT
 70
     1
  9
$LTSCALE
 40
3.599845
  9
$ATTMODE
 70
     1
  9
$TEXTSIZE
 40
3.2
  9
$TRACEWID
 40
1.0
  9
$TEXTSTYLE
  7
Standard
  9
$CLAYER
  8
0
  9
$CELTYPE
  6
ByLayer
  9
$CECOLOR
 62
   256
  9
$CELTSCALE
 40
1.0
  9
$DISPSILH
 70
     0
  9
$DIMSCALE
 40
1.0
  9
$DIMASZ
 40
2.5
  9
$DIMEXO
 40
0.625
  9
$DIMDLI
 40
3.75
  9
$DIMRND
 40
0.0
  9
$DIMDLE
 40
0.0
  9
$DIMEXE
 40
1.25
  9
$DIMTP
 40
0.0
  9
$DIMTM
 40
0.0
  9
$DIMTXT
 40
2.5
  9
$DIMCEN
 40
0.09
  9
$DIMTSZ
 40
0.0
  9
$DIMTOL
 70
     0
  9
$DIMLIM
 70
     0
  9
$DIMTIH
 70
     0
  9
$DIMTOH
 70
     0
  9
$DIMSE1
 70
     0
  9
$DIMSE2
 70
     0
  9
$DIMTAD
 70
     0
  9
$DIMZIN
 70
     8
  9
$DIMBLK
  1

  9
$DIMASO
 70
     1
  9
$DIMSHO
 70
     0
  9
$DIMPOST
  1

  9
$DIMAPOST
  1

  9
$DIMALT
 70
     0
  9
$DIMALTD
 70
     3
  9
$DIMALTF
 40
0.03937
  9
$DIMLFAC
 40
1.0
  9
$DIMTOFL
 70
     1
  9
$DIMTVP
 40
0.0
  9
$DIMTIX
 70
     0
  9
$DIMSOXD
 70
     0
  9
$DIMSAH
 70
     0
  9
$DIMBLK1
  1

  9
$DIMBLK2
  1

  9
$DIMSTYLE
  2
ISO-25
  9
$DIMCLRD
 70
     0
  9
$DIMCLRE
 70
     0
  9
$DIMCLRT
 70
     0
  9
$DIMTFAC
 40
1.0
  9
$DIMGAP
 40
0.625
  9
$DIMJUST
 70
     0
  9
$DIMSD1
 70
     0
  9
$DIMSD2
 70
     0
  9
$DIMTOLJ
 70
     0
  9
$DIMTZIN
 70
     8
  9
$DIMALTZ
 70
     0
  9
$DIMALTTZ
 70
     0
  9
$DIMUPT
 70
     0
  9
$DIMDEC
 70
     2
  9
$DIMTDEC
 70
     2
  9
$DIMALTU
 70
     2
  9
$DIMALTTD
 70
     3
  9
$DIMTXSTY
  7
Standard
  9
$DIMAUNIT
 70
     0
  9
$DIMADEC
 70
     0
  9
$DIMALTRND
 40
0.0
  9
$DIMAZIN
 70
     0
  9
$DIMDSEP
 70
    44
  9
$DIMATFIT
 70
     3
  9
$DIMFRAC
 70
     0
  9
$DIMLDRBLK
  1

  9
$DIMLUNIT
 70
     2
  9
$DIMLWD
 70
    -2
  9
$DIMLWE
 70
    -2
  9
$DIMTMOVE
 70
     0
  9
$LUNITS
 70
     2
  9
$LUPREC
 70
     4
  9
$SKETCHINC
 40
1.0
  9
$FILLETRAD
 40
0.0
  9
$AUNITS
 70
     0
  9
$AUPREC
 70
     0
  9
$MENU
  1
.
  9
$ELEVATION
 40
0.0
  9
$PELEVATION
 40
0.0
  9
$THICKNESS
 40
0.0
  9
$LIMCHECK
 70
     0
  9
$CHAMFERA
 40
10.0
  9
$CHAMFERB
 40
10.0
  9
$CHAMFERC
 40
20.0
  9
$CHAMFERD
 40
0.0
  9
$SKPOLY
 70
     0
  9
$TDCREATE
 40
2455405.447684815
  9
$TDUCREATE
 40
2455405.072684815
  9
$TDUPDATE
 40
2455405.447684826
  9
$TDUUPDATE
 40
2455405.072684826
  9
$TDINDWG
 40
0.0000000116
  9
$TDUSRTIMER
 40
0.0000000116
  9
$USRTIMER
 70
     1
  9
$ANGBASE
 50
0.0
  9
$ANGDIR
 70
     0
  9
$PDMODE
 70
     0
  9
$PDSIZE
 40
0.0
  9
$PLINEWID
 40
0.0
  9
$SPLFRAME
 70
     0
  9
$SPLINETYPE
 70
     6
  9
$SPLINESEGS
 70
     8
  9
$HANDSEED
  5
471
  9
$SURFTAB1
 70
     6
  9
$SURFTAB2
 70
     6
  9
$SURFTYPE
 70
     6
  9
$SURFU
 70
     6
  9
$SURFV
 70
     6
  9
$UCSBASE
  2

  9
$UCSNAME
  2

  9
$UCSORG
 10
0.0
 20
0.0
 30
0.0
  9
$UCSXDIR
 10
1.0
 20
0.0
 30
0.0
  9
$UCSYDIR
 10
0.0
 20
1.0
 30
0.0
  9
$UCSORTHOREF
  2

  9
$UCSORTHOVIEW
 70
     0
  9
$UCSORGTOP
 10
0.0
 20
0.0
 30
0.0
  9
$UCSORGBOTTOM
 10
0.0
 20
0.0
 30
0.0
  9
$UCSORGLEFT
 10
0.0
 20
0.0
 30
0.0
  9
$UCSORGRIGHT
 10
0.0
 20
0.0
 30
0.0
  9
$UCSORGFRONT
 10
0.0
 20
0.0
 30
0.0
  9
$UCSORGBACK
 10
0.0
 20
0.0
 30
0.0
  9
$PUCSBASE
  2

  9
$PUCSNAME
  2

  9
$PUCSORG
 10
0.0
 20
0.0
 30
0.0
  9
$PUCSXDIR
 10
1.0
 20
0.0
 30
0.0
  9
$PUCSYDIR
 10
0.0
 20
1.0
 30
0.0
  9
$PUCSORTHOREF
  2

  9
$PUCSORTHOVIEW
 70
     0
  9
$PUCSORGTOP
 10
0.0
 20
0.0
 30
0.0
  9
$PUCSORGBOTTOM
 10
0.0
 20
0.0
 30
0.0
  9
$PUCSORGLEFT
 10
0.0
 20
0.0
 30
0.0
  9
$PUCSORGRIGHT
 10
0.0
 20
0.0
 30
0.0
  9
$PUCSORGFRONT
 10
0.0
 20
0.0
 30
0.0
  9
$PUCSORGBACK
 10
0.0
 20
0.0
 30
0.0
  9
$USERI1
 70
     0
  9
$USERI2
 70
     0
  9
$USERI3
 70
     0
  9
$USERI4
 70
     0
  9
$USERI5
 70
     0
  9
$USERR1
 40
0.0
  9
$USERR2
 40
0.0
  9
$USERR3
 40
0.0
  9
$USERR4
 40
0.0
  9
$USERR5
 40
0.0
  9
$WORLDVIEW
 70
     1
  9
$SHADEDGE
 70
     3
  9
$SHADEDIF
 70
    70
  9
$TILEMODE
 70
     1
  9
$MAXACTVP
 70
    64
  9
$PINSBASE
 10
0.0
 20
0.0
 30
0.0
  9
$PLIMCHECK
 70
     0
  9
$PEXTMIN
 10
1.000000E+20
 20
1.000000E+20
 30
0.0
  9
$PEXTMAX
 10
-1.000000E+20
 20
-1.000000E+20
 30
0.0
  9
$PLIMMIN
 10
0.0
 20
0.0
  9
$PLIMMAX
 10
12.0
 20
9.0
  9
$UNITMODE
 70
     0
  9
$VISRETAIN
 70
     1
  9
$PLINEGEN
 70
     0
  9
$PSLTSCALE
 70
     1
  9
$TREEDEPTH
 70
  3020
  9
$CMLSTYLE
  2
Standard
  9
$CMLJUST
 70
     0
  9
$CMLSCALE
 40
20.0
  9
$PROXYGRAPHICS
 70
     1
  9
$MEASUREMENT
 70
     1
  9
$CELWEIGHT
370
    -1
  9
$ENDCAPS
280
     0
  9
$JOINSTYLE
280
     0
  9
$LWDISPLAY
290
     0
  9
$INSUNITS
 70
     4
  9
$HYPERLINKBASE
  1

  9
$STYLESHEET
  1

  9
$XEDIT
290
     1
  9
$CEPSNTYPE
380
     0
  9
$PSTYLEMODE
290
     1
  9
$FINGERPRINTGUID
  2
{0EC43097-D359-4F56-B430-D43C4B213CFD}
  9
$VERSIONGUID
  2
{FAEB1C32-E019-11D5-929B-00C0DF256EC4}
  9
$EXTNAMES
290
     1
  9
$PSVPSCALE
 40
0.0
  9
$OLESTARTUP
290
     0
  0
ENDSEC
  0
SECTION
  2
CLASSES
  0
CLASS
  1
ACDBDICTIONARYWDFLT
  2
AcDbDictionaryWithDefault
  3
ObjectDBX Classes
 90
        0
280
     0
281
     0
  0
CLASS
  1
VISUALSTYLE
  2
AcDbVisualStyle
  3
ObjectDBX Classes
 90
     4095
280
     0
281
     0
  0
CLASS
  1
SCALE
  2
AcDbScale
  3
ObjectDBX Classes
 90
     1153
280
     0
281
     0
  0
CLASS
  1
DICTIONARYVAR
  2
AcDbDictionaryVar
  3
ObjectDBX Classes
 90
        0
280
     0
281
     0
  0
CLASS
  1
ACDBPLACEHOLDER
  2
AcDbPlaceHolder
  3
ObjectDBX Classes
 90
        0
280
     0
281
     0
  0
CLASS
  1
LAYOUT
  2
AcDbLayout
  3
ObjectDBX Classes
 90
        0
280
     0
281
     0
  0
ENDSEC
  0
SECTION
  2
TABLES
  0
TABLE
  2
VPORT
  5
8
330
0
100
AcDbSymbolTable
 70
     1
  0
VPORT
  5
29
330
8
100
AcDbSymbolTableRecord
100
AcDbViewportTableRecord
  2
*Active
 70
     0
 10
0.0
 20
0.0
 11
1.0
 21
1.0
 12
146.295242
 22
104.317993
 13
0.0
 23
0.0
 14
1.0
 24
1.0
 15
0.0
 25
0.0
 16
0.0
 26
0.0
 36
1.0
 17
0.0
 27
0.0
 37
0.0
 40
211.783759
 41
1.691288
 42
50.0
 43
0.0
 44
0.0
 50
0.0
 51
0.0
 71
     0
 72
   100
 73
     1
 74
     3
 75
     0
 76
     0
 77
     0
 78
     0
281
     0
 65
     1
110
0.0
120
0.0
130
0.0
111
1.0
121
0.0
131
0.0
112
0.0
122
1.0
132
0.0
 79
     0
146
0.0
  0
ENDTAB
  0
TABLE
  2
LTYPE
  5
5
330
0
100
AcDbSymbolTable
 70
     5
  0
LTYPE
  5
14
330
5
100
AcDbSymbolTableRecord
100
AcDbLinetypeTableRecord
  2
ByBlock
 70
     0
  3

 72
    65
 73
     0
 40
0.0
  0
LTYPE
  5
15
330
5
100
AcDbSymbolTableRecord
100
AcDbLinetypeTableRecord
  2
ByLayer
 70
     0
  3

 72
    65
 73
     0
 40
0.0
  0
LTYPE
  5
16
330
5
100
AcDbSymbolTableRecord
100
AcDbLinetypeTableRecord
  2
Continuous
 70
     0
  3
Solid line
 72
    65
 73
     0
 40
0.0
  0
LTYPE
  5
5D
330
5
100
AcDbSymbolTableRecord
100
AcDbLinetypeTableRecord
  2
DASHED
 70
     0
  3
DASHED
 72
    83
 73
     2
 40
0.75
 49
0.5
 74
     0
 49
-0.25
 74
     0
  0
LTYPE
  5
5E
330
5
100
AcDbSymbolTableRecord
100
AcDbLinetypeTableRecord
  2
HIDDEN
 70
     0
  3
HIDDEN
 72
    83
 73
     2
 40
0.375
 49
0.25
 74
     0
 49
-0.125
 74
     0
  0
LTYPE
  5
5F
330
5
100
AcDbSymbolTableRecord
100
AcDbLinetypeTableRecord
  2
CENTER
 70
     0
  3
CENTER
 72
    83
 73
     4
 40
2.0
 49
1.25
 74
     0
 49
-0.25
 74
     0
 49
0.25
 74
     0
 49
-0.25
 74
     0
  0
LTYPE
  5
60
330
5
100
AcDbSymbolTableRecord
100
AcDbLinetypeTableRecord
  2
PHANTOM
 70
     0
  3
PHANTOM
 72
    83
 73
     6
 40
2.5
 49
1.25
 74
     0
 49
-0.25
 74
     0
 49
0.25
 74
     0
 49
-0.25
 74
     0
 49
0.25
 74
     0
 49
-0.25
 74
     0
  0
ENDTAB
  0
TABLE
  2
LAYER
  5
2
330
0
100
AcDbSymbolTable
 70
     2
  0
LAYER
  5
10
330
2
100
AcDbSymbolTableRecord
100
AcDbLayerTableRecord
  2
0
 70
     0
 62
     7
  6
Continuous
370
    -3
390
F
  0
LAYER
  5
61
330
2
100
AcDbSymbolTableRecord
100
AcDbLayerTableRecord
  2
001
 70
     0
 62
     7
  6
Continuous
370
    -3
390
F
  0
ENDTAB
  0
TABLE
  2
STYLE
  5
3
330
0
100
AcDbSymbolTable
 70
     2
  0
STYLE
  5
11
330
3
100
AcDbSymbolTableRecord
100
AcDbTextStyleTableRecord
  2
Standard
 70
     0
 40
0.0
 41
1.0
 50
0.0
 71
     0
 42
0.2
  3
TXT
  4
BIGFONT
  0
STYLE
  5
62
330
3
100
AcDbSymbolTableRecord
100
AcDbTextStyleTableRecord
  2
TATEGAKI
 70
     4
 40
1.0
 41
1.0
 50
0.0
 71
     0
 42
0.2
  3
TXT
  4
BIGFONT
  0
ENDTAB
  0
TABLE
  2
VIEW
  5
6
330
0
100
AcDbSymbolTable
 70
     0
  0
ENDTAB
  0
TABLE
  2
UCS
  5
7
330
0
100
AcDbSymbolTable
 70
     0
  0
ENDTAB
  0
TABLE
  2
APPID
  5
9
330
0
100
AcDbSymbolTable
 70
     1
  0
APPID
  5
12
330
9
100
AcDbSymbolTableRecord
100
AcDbRegAppTableRecord
  2
ACAD
 70
     0
  0
ENDTAB
  0
TABLE
  2
DIMSTYLE
  5
A
330
0
100
AcDbSymbolTable
 70
     2
100
AcDbDimStyleTable
  0
DIMSTYLE
105
27
330
A
100
AcDbSymbolTableRecord
100
AcDbDimStyleTableRecord
  2
ISO-25
 70
     0
 41
2.5
 42
0.625
 43
3.75
 44
1.25
 73
     0
 74
     0
 77
     1
 78
     8
140
2.5
141
2.5
143
0.03937
147
0.625
171
     3
172
     1
271
     2
272
     2
274
     3
278
    44
283
     0
284
     8
340
11
  0
DIMSTYLE
105
63
102
{ACAD_REACTORS
330
1C7
330
1C8
330
1C9
330
1CA
330
1CB
330
1CC
330
1CD
330
1CE
330
1D0
330
1D1
330
1D2
330
1D3
330
1D4
330
1D5
330
1D6
102
}
330
A
100
AcDbSymbolTableRecord
100
AcDbDimStyleTableRecord
  2
Standard
 70
     0
 41
1.5
 42
0.0
 44
0.5
 73
     0
 74
     0
 77
     1
 78
     8
 79
     2
140
4.0
146
0.8
147
1.0
172
     1
179
     1
271
     1
340
11
  0
ENDTAB
  0
TABLE
  2
BLOCK_RECORD
  5
1
330
0
100
AcDbSymbolTable
 70
    22
  0
BLOCK_RECORD
  5
1F
330
1
100
AcDbSymbolTableRecord
100
AcDbBlockTableRecord
  2
*Model_Space
340
22
  0
BLOCK_RECORD
  5
1B
330
1
100
AcDbSymbolTableRecord
100
AcDbBlockTableRecord
  2
*Paper_Space
340
1E
  0
BLOCK_RECORD
  5
23
330
1
100
AcDbSymbolTableRecord
100
AcDbBlockTableRecord
  2
*Paper_Space0
340
26
  0
BLOCK_RECORD
  5
64
330
1
100
AcDbSymbolTableRecord
100
AcDbBlockTableRecord
  2
JZB-1
340
0
102
{BLKREFS
331
1C2
102
}
  0
BLOCK_RECORD
  5
6F
330
1
100
AcDbSymbolTableRecord
100
AcDbBlockTableRecord
  2
JZB-2
340
0
102
{BLKREFS
331
1C3
102
}
  0
BLOCK_RECORD
  5
7A
330
1
100
AcDbSymbolTableRecord
100
AcDbBlockTableRecord
  2
JZB-3
340
0
102
{BLKREFS
331
1C4
102
}
  0
BLOCK_RECORD
  5
7E
330
1
100
AcDbSymbolTableRecord
100
AcDbBlockTableRecord
  2
JZB-4
340
0
102
{BLKREFS
331
1C5
102
}
  0
BLOCK_RECORD
  5
84
330
1
100
AcDbSymbolTableRecord
100
AcDbBlockTableRecord
  2
JZB-5
340
0
102
{BLKREFS
331
1C6
102
}
  0
BLOCK_RECORD
  5
8B
330
1
100
AcDbSymbolTableRecord
100
AcDbBlockTableRecord
  2
*D6
340
0
  0
BLOCK_RECORD
  5
9F
330
1
100
AcDbSymbolTableRecord
100
AcDbBlockTableRecord
  2
*D7
340
0
  0
BLOCK_RECORD
  5
B3
330
1
100
AcDbSymbolTableRecord
100
AcDbBlockTableRecord
  2
*D8
340
0
  0
BLOCK_RECORD
  5
C9
330
1
100
AcDbSymbolTableRecord
100
AcDbBlockTableRecord
  2
*D9
340
0
  0
BLOCK_RECORD
  5
DD
330
1
100
AcDbSymbolTableRecord
100
AcDbBlockTableRecord
  2
*D10
340
0
  0
BLOCK_RECORD
  5
F1
330
1
100
AcDbSymbolTableRecord
100
AcDbBlockTableRecord
  2
*D11
340
0
  0
BLOCK_RECORD
  5
106
330
1
100
AcDbSymbolTableRecord
100
AcDbBlockTableRecord
  2
*D12
340
0
  0
BLOCK_RECORD
  5
11C
330
1
100
AcDbSymbolTableRecord
100
AcDbBlockTableRecord
  2
*D13
340
0
  0
BLOCK_RECORD
  5
132
330
1
100
AcDbSymbolTableRecord
100
AcDbBlockTableRecord
  2
DIM-6
340
0
102
{BLKREFS
331
1CF
102
}
  0
BLOCK_RECORD
  5
140
330
1
100
AcDbSymbolTableRecord
100
AcDbBlockTableRecord
  2
*D15
340
0
  0
BLOCK_RECORD
  5
154
330
1
100
AcDbSymbolTableRecord
100
AcDbBlockTableRecord
  2
*D16
340
0
  0
BLOCK_RECORD
  5
168
330
1
100
AcDbSymbolTableRecord
100
AcDbBlockTableRecord
  2
*D17
340
0
  0
BLOCK_RECORD
  5
17C
330
1
100
AcDbSymbolTableRecord
100
AcDbBlockTableRecord
  2
*D18
340
0
  0
BLOCK_RECORD
  5
189
330
1
100
AcDbSymbolTableRecord
100
AcDbBlockTableRecord
  2
*D19
340
0
  0
BLOCK_RECORD
  5
19F
330
1
100
AcDbSymbolTableRecord
100
AcDbBlockTableRecord
  2
*D20
340
0
  0
BLOCK_RECORD
  5
1AC
330
1
100
AcDbSymbolTableRecord
100
AcDbBlockTableRecord
  2
*D21
340
0
  0
ENDTAB
  0
ENDSEC
  0
SECTION
  2
BLOCKS
  0
BLOCK
  5
20
330
1F
100
AcDbEntity
  8
0
100
AcDbBlockBegin
  2
*Model_Space
 70
     0
 10
0.0
 20
0.0
 30
0.0
  3
*Model_Space
  1

  0
ENDBLK
  5
21
330
1F
100
AcDbEntity
  8
0
100
AcDbBlockEnd
  0
BLOCK
  5
1C
330
1B
100
AcDbEntity
 67
     1
  8
0
100
AcDbBlockBegin
  2
*Paper_Space
 70
     0
 10
0.0
 20
0.0
 30
0.0
  3
*Paper_Space
  1

  0
ENDBLK
  5
1D
330
1B
100
AcDbEntity
 67
     1
  8
0
100
AcDbBlockEnd
  0
BLOCK
  5
24
330
23
100
AcDbEntity
  8
0
100
AcDbBlockBegin
  2
*Paper_Space0
 70
     0
 10
0.0
 20
0.0
 30
0.0
  3
*Paper_Space0
  1

  0
ENDBLK
  5
25
330
23
100
AcDbEntity
  8
0
100
AcDbBlockEnd
  0
BLOCK
  5
65
330
64
100
AcDbEntity
  8
0
100
AcDbBlockBegin
  2
JZB-1
 70
     0
 10
0.0
 20
0.0
 30
0.0
  3
JZB-1
  1

  0
LINE
  5
67
330
64
100
AcDbEntity
  8
001
 62
     2
370
    30
100
AcDbLine
 10
97.541733
 20
138.960605
 30
0.0
 11
98.696433
 21
140.960605
 31
0.0
  0
LINE
  5
68
330
64
100
AcDbEntity
  8
001
 62
     2
370
    30
100
AcDbLine
 10
98.696433
 20
136.960605
 30
0.0
 11
97.541733
 21
138.960605
 31
0.0
  0
LINE
  5
69
330
64
100
AcDbEntity
  8
001
 62
     2
370
    30
100
AcDbLine
 10
101.005834
 20
136.960605
 30
0.0
 11
98.696433
 21
136.960605
 31
0.0
  0
LINE
  5
6A
330
64
100
AcDbEntity
  8
001
 62
     2
370
    30
100
AcDbLine
 10
102.160535
 20
138.960605
 30
0.0
 11
101.005834
 21
136.960605
 31
0.0
  0
LINE
  5
6B
330
64
100
AcDbEntity
  8
001
 62
     2
370
    30
100
AcDbLine
 10
98.696433
 20
140.960605
 30
0.0
 11
101.005834
 21
140.960605
 31
0.0
  0
CIRCLE
  5
6C
330
64
100
AcDbEntity
  8
001
 62
     2
370
    30
100
AcDbCircle
 10
99.851134
 20
138.960605
 30
0.0
 40
3.3235
  0
LINE
  5
6D
330
64
100
AcDbEntity
  8
001
 62
     2
370
    30
100
AcDbLine
 10
101.005834
 20
140.960605
 30
0.0
 11
102.160535
 21
138.960605
 31
0.0
  0
CIRCLE
  5
6E
330
64
100
AcDbEntity
  8
001
 62
     2
370
    30
100
AcDbCircle
 10
99.851134
 20
138.960605
 30
0.0
 40
4.0
  0
ENDBLK
  5
66
330
64
100
AcDbEntity
  8
0
100
AcDbBlockEnd
  0
BLOCK
  5
70
330
6F
100
AcDbEntity
  8
0
100
AcDbBlockBegin
  2
JZB-2
 70
     0
 10
0.0
 20
0.0
 30
0.0
  3
JZB-2
  1

  0
CIRCLE
  5
72
330
6F
100
AcDbEntity
  8
001
 62
     2
370
    30
100
AcDbCircle
 10
86.851134
 20
138.960605
 30
0.0
 40
3.3235
  0
CIRCLE
  5
73
330
6F
100
AcDbEntity
  8
001
 62
     2
370
    30
100
AcDbCircle
 10
86.851134
 20
138.960605
 30
0.0
 40
4.0
  0
LINE
  5
74
330
6F
100
AcDbEntity
  8
001
 62
     2
370
    30
100
AcDbLine
 10
84.541733
 20
138.960605
 30
0.0
 11
85.696433
 21
140.960605
 31
0.0
  0
LINE
  5
75
330
6F
100
AcDbEntity
  8
001
 62
     2
370
    30
100
AcDbLine
 10
85.696433
 20
140.960605
 30
0.0
 11
88.005834
 21
140.960605
 31
0.0
  0
LINE
  5
76
330
6F
100
AcDbEntity
  8
001
 62
     2
370
    30
100
AcDbLine
 10
88.005834
 20
140.960605
 30
0.0
 11
89.160535
 21
138.960605
 31
0.0
  0
LINE
  5
77
330
6F
100
AcDbEntity
  8
001
 62
     2
370
    30
100
AcDbLine
 10
89.160535
 20
138.960605
 30
0.0
 11
88.005834
 21
136.960605
 31
0.0
  0
LINE
  5
78
330
6F
100
AcDbEntity
  8
001
 62
     2
370
    30
100
AcDbLine
 10
88.005834
 20
136.960605
 30
0.0
 11
85.696433
 21
136.960605
 31
0.0
  0
LINE
  5
79
330
6F
100
AcDbEntity
  8
001
 62
     2
370
    30
100
AcDbLine
 10
85.696433
 20
136.960605
 30
0.0
 11
84.541733
 21
138.960605
 31
0.0
  0
ENDBLK
  5
71
330
6F
100
AcDbEntity
  8
0
100
AcDbBlockEnd
  0
BLOCK
  5
7B
330
7A
100
AcDbEntity
  8
0
100
AcDbBlockBegin
  2
JZB-3
 70
     0
 10
0.0
 20
0.0
 30
0.0
  3
JZB-3
  1

  0
LINE
  5
7D
330
7A
100
AcDbEntity
  8
001
 62
     2
370
    30
100
AcDbLine
 10
258.102948
 20
138.174822
 30
0.0
 11
258.102948
 21
139.746388
 31
0.0
  0
ENDBLK
  5
7C
330
7A
100
AcDbEntity
  8
0
100
AcDbBlockEnd
  0
BLOCK
  5
7F
330
7E
100
AcDbEntity
  8
0
100
AcDbBlockBegin
  2
JZB-4
 70
     0
 10
0.0
 20
0.0
 30
0.0
  3
JZB-4
  1

  0
LINE
  5
81
330
7E
100
AcDbEntity
  8
001
 62
     2
370
    30
100
AcDbLine
 10
103.174634
 20
57.312997
 30
0.0
 11
96.527634
 21
57.312997
 31
0.0
  0
LINE
  5
82
330
7E
100
AcDbEntity
  8
001
 62
     2
370
    30
100
AcDbLine
 10
103.38541
 20
57.10222
 30
0.0
 11
103.174634
 21
57.312997
 31
0.0
  0
LINE
  5
83
330
7E
100
AcDbEntity
  8
001
 62
     2
370
    30
100
AcDbLine
 10
96.527634
 20
57.312997
 30
0.0
 11
96.317175
 21
57.102538
 31
0.0
  0
ENDBLK
  5
80
330
7E
100
AcDbEntity
  8
0
100
AcDbBlockEnd
  0
BLOCK
  5
85
330
84
100
AcDbEntity
  8
0
100
AcDbBlockBegin
  2
JZB-5
 70
     0
 10
0.0
 20
0.0
 30
0.0
  3
JZB-5
  1

  0
LINE
  5
87
330
84
100
AcDbEntity
  8
001
 62
     2
370
    30
100
AcDbLine
 10
90.589781
 20
57.136497
 30
0.0
 11
83.121916
 21
57.136497
 31
0.0
  0
LINE
  5
88
330
84
100
AcDbEntity
  8
001
 62
     2
370
    30
100
AcDbLine
 10
90.174634
 20
57.812997
 30
0.0
 11
83.527634
 21
57.812997
 31
0.0
  0
LINE
  5
89
330
84
100
AcDbEntity
  8
001
 62
     2
370
    30
100
AcDbLine
 10
90.807688
 20
57.179942
 30
0.0
 11
90.174634
 21
57.812997
 31
0.0
  0
LINE
  5
8A
330
84
100
AcDbEntity
  8
001
 62
     2
370
    30
100
AcDbLine
 10
83.527634
 20
57.812997
 30
0.0
 11
82.894833
 21
57.180196
 31
0.0
  0
ENDBLK
  5
86
330
84
100
AcDbEntity
  8
0
100
AcDbBlockEnd
  0
BLOCK
  5
8C
330
8B
100
AcDbEntity
  8
0
100
AcDbBlockBegin
  2
*D6
 70
     1
 10
0.0
 20
0.0
 30
0.0
  3
*D6
  1

  0
LINE
  5
8E
330
8B
100
AcDbEntity
  8
001
370
     9
100
AcDbLine
 10
75.851134
 20
127.002057
 30
0.0
 11
75.851134
 21
90.357914
 31
0.0
  0
LINE
  5
8F
330
8B
100
AcDbEntity
  8
001
370
     9
100
AcDbLine
 10
190.851134
 20
124.960605
 30
0.0
 11
190.851134
 21
90.357914
 31
0.0
  0
LINE
  5
90
330
8B
100
AcDbEntity
  8
001
370
     9
100
AcDbLine
 10
75.851134
 20
93.795414
 30
0.0
 11
190.851134
 21
93.795414
 31
0.0
  0
POLYLINE
  5
91
330
8B
100
AcDbEntity
  8
001
370
     9
100
AcDb2dPolyline
 66
     1
 10
0.0
 20
0.0
 30
0.0
  0
VERTEX
  5
93
330
91
100
AcDbEntity
  8
001
370
     9
100
AcDbVertex
100
AcDb2dVertex
 10
77.726134
 20
93.29301
 30
0.0
  0
VERTEX
  5
94
330
91
100
AcDbEntity
  8
001
370
     9
100
AcDbVertex
100
AcDb2dVertex
 10
75.851134
 20
93.795414
 30
0.0
  0
VERTEX
  5
95
330
91
100
AcDbEntity
  8
001
370
     9
100
AcDbVertex
100
AcDb2dVertex
 10
77.726134
 20
94.297819
 30
0.0
  0
SEQEND
  5
92
330
91
100
AcDbEntity
  8
001
370
     9
  0
POLYLINE
  5
96
330
8B
100
AcDbEntity
  8
001
370
     9
100
AcDb2dPolyline
 66
     1
 10
0.0
 20
0.0
 30
0.0
  0
VERTEX
  5
98
330
96
100
AcDbEntity
  8
001
370
     9
100
AcDbVertex
100
AcDb2dVertex
 10
188.976134
 20
94.297819
 30
0.0
  0
VERTEX
  5
99
330
96
100
AcDbEntity
  8
001
370
     9
100
AcDbVertex
100
AcDb2dVertex
 10
190.851134
 20
93.795414
 30
0.0
  0
VERTEX
  5
9A
330
96
100
AcDbEntity
  8
001
370
     9
100
AcDbVertex
100
AcDb2dVertex
 10
188.976134
 20
93.29301
 30
0.0
  0
SEQEND
  5
97
330
96
100
AcDbEntity
  8
001
370
     9
  0
TEXT
  5
9B
330
8B
100
AcDbEntity
  8
001
370
    30
100
AcDbText
 10
125.851134
 20
95.045414
 30
0.0
 40
5.0
  1
１１５
 41
0.833333
100
AcDbText
  0
POINT
  5
9C
330
8B
100
AcDbEntity
  8
001
370
     9
100
AcDbPoint
 10
75.851134
 20
127.002057
 30
0.0
  0
POINT
  5
9D
330
8B
100
AcDbEntity
  8
001
370
     9
100
AcDbPoint
 10
190.851134
 20
124.960605
 30
0.0
  0
POINT
  5
9E
330
8B
100
AcDbEntity
  8
001
370
     9
100
AcDbPoint
 10
190.851134
 20
93.795414
 30
0.0
  0
ENDBLK
  5
8D
330
8B
100
AcDbEntity
  8
0
100
AcDbBlockEnd
  0
BLOCK
  5
A0
330
9F
100
AcDbEntity
  8
0
100
AcDbBlockBegin
  2
*D7
 70
     1
 10
0.0
 20
0.0
 30
0.0
  3
*D7
  1

  0
LINE
  5
A2
330
9F
100
AcDbEntity
  8
001
370
     9
100
AcDbLine
 10
105.851134
 20
119.960605
 30
0.0
 11
105.851134
 21
102.658977
 31
0.0
  0
LINE
  5
A3
330
9F
100
AcDbEntity
  8
001
370
     9
100
AcDbLine
 10
75.851134
 20
127.002057
 30
0.0
 11
75.851134
 21
102.658977
 31
0.0
  0
LINE
  5
A4
330
9F
100
AcDbEntity
  8
001
370
     9
100
AcDbLine
 10
105.851134
 20
106.096477
 30
0.0
 11
75.851134
 21
106.096477
 31
0.0
  0
POLYLINE
  5
A5
330
9F
100
AcDbEntity
  8
001
370
     9
100
AcDb2dPolyline
 66
     1
 10
0.0
 20
0.0
 30
0.0
  0
VERTEX
  5
A7
330
A5
100
AcDbEntity
  8
001
370
     9
100
AcDbVertex
100
AcDb2dVertex
 10
103.976134
 20
106.598882
 30
0.0
  0
VERTEX
  5
A8
330
A5
100
AcDbEntity
  8
001
370
     9
100
AcDbVertex
100
AcDb2dVertex
 10
105.851134
 20
106.096477
 30
0.0
  0
VERTEX
  5
A9
330
A5
100
AcDbEntity
  8
001
370
     9
100
AcDbVertex
100
AcDb2dVertex
 10
103.976134
 20
105.594072
 30
0.0
  0
SEQEND
  5
A6
330
A5
100
AcDbEntity
  8
001
370
     9
  0
POLYLINE
  5
AA
330
9F
100
AcDbEntity
  8
001
370
     9
100
AcDb2dPolyline
 66
     1
 10
0.0
 20
0.0
 30
0.0
  0
VERTEX
  5
AC
330
AA
100
AcDbEntity
  8
001
370
     9
100
AcDbVertex
100
AcDb2dVertex
 10
77.726134
 20
105.594072
 30
0.0
  0
VERTEX
  5
AD
330
AA
100
AcDbEntity
  8
001
370
     9
100
AcDbVertex
100
AcDb2dVertex
 10
75.851134
 20
106.096477
 30
0.0
  0
VERTEX
  5
AE
330
AA
100
AcDbEntity
  8
001
370
     9
100
AcDbVertex
100
AcDb2dVertex
 10
77.726134
 20
106.598882
 30
0.0
  0
SEQEND
  5
AB
330
AA
100
AcDbEntity
  8
001
370
     9
  0
TEXT
  5
AF
330
9F
100
AcDbEntity
  8
001
370
    30
100
AcDbText
 10
85.851134
 20
107.346477
 30
0.0
 40
5.0
  1
３０
 41
0.833333
100
AcDbText
  0
POINT
  5
B0
330
9F
100
AcDbEntity
  8
001
370
     9
100
AcDbPoint
 10
105.851134
 20
119.960605
 30
0.0
  0
POINT
  5
B1
330
9F
100
AcDbEntity
  8
001
370
     9
100
AcDbPoint
 10
75.851134
 20
127.002057
 30
0.0
  0
POINT
  5
B2
330
9F
100
AcDbEntity
  8
001
370
     9
100
AcDbPoint
 10
75.851134
 20
106.096477
 30
0.0
  0
ENDBLK
  5
A1
330
9F
100
AcDbEntity
  8
0
100
AcDbBlockEnd
  0
BLOCK
  5
B4
330
B3
100
AcDbEntity
  8
0
100
AcDbBlockBegin
  2
*D8
 70
     1
 10
0.0
 20
0.0
 30
0.0
  3
*D8
  1

  0
LINE
  5
B6
330
B3
100
AcDbEntity
  8
001
370
     9
100
AcDbLine
 10
110.851134
 20
119.960605
 30
0.0
 11
110.851134
 21
102.658977
 31
0.0
  0
LINE
  5
B7
330
B3
100
AcDbEntity
  8
001
370
     9
100
AcDbLine
 10
105.851134
 20
119.960605
 30
0.0
 11
105.851134
 21
102.658977
 31
0.0
  0
LINE
  5
B8
330
B3
100
AcDbEntity
  8
001
370
     9
100
AcDbLine
 10
110.851134
 20
106.096477
 30
0.0
 11
105.851134
 21
106.096477
 31
0.0
  0
POLYLINE
  5
B9
330
B3
100
AcDbEntity
  8
001
370
     9
100
AcDb2dPolyline
 66
     1
 10
0.0
 20
0.0
 30
0.0
  0
VERTEX
  5
BB
330
B9
100
AcDbEntity
  8
001
370
     9
100
AcDbVertex
100
AcDb2dVertex
 10
112.726134
 20
105.594072
 30
0.0
  0
VERTEX
  5
BC
330
B9
100
AcDbEntity
  8
001
370
     9
100
AcDbVertex
100
AcDb2dVertex
 10
110.851134
 20
106.096477
 30
0.0
  0
VERTEX
  5
BD
330
B9
100
AcDbEntity
  8
001
370
     9
100
AcDbVertex
100
AcDb2dVertex
 10
112.726134
 20
106.598882
 30
0.0
  0
SEQEND
  5
BA
330
B9
100
AcDbEntity
  8
001
370
     9
  0
POLYLINE
  5
BE
330
B3
100
AcDbEntity
  8
001
370
     9
100
AcDb2dPolyline
 66
     1
 10
0.0
 20
0.0
 30
0.0
  0
VERTEX
  5
C0
330
BE
100
AcDbEntity
  8
001
370
     9
100
AcDbVertex
100
AcDb2dVertex
 10
103.976134
 20
106.598882
 30
0.0
  0
VERTEX
  5
C1
330
BE
100
AcDbEntity
  8
001
370
     9
100
AcDbVertex
100
AcDb2dVertex
 10
105.851134
 20
106.096477
 30
0.0
  0
VERTEX
  5
C2
330
BE
100
AcDbEntity
  8
001
370
     9
100
AcDbVertex
100
AcDb2dVertex
 10
103.976134
 20
105.594072
 30
0.0
  0
SEQEND
  5
BF
330
BE
100
AcDbEntity
  8
001
370
     9
  0
TEXT
  5
C3
330
B3
100
AcDbEntity
  8
001
370
    30
100
AcDbText
 10
105.851134
 20
107.346477
 30
0.0
 40
5.0
  1
５
 41
0.833333
100
AcDbText
  0
POINT
  5
C4
330
B3
100
AcDbEntity
  8
001
370
     9
100
AcDbPoint
 10
110.851134
 20
119.960605
 30
0.0
  0
POINT
  5
C5
330
B3
100
AcDbEntity
  8
001
370
     9
100
AcDbPoint
 10
105.851134
 20
119.960605
 30
0.0
  0
POINT
  5
C6
330
B3
100
AcDbEntity
  8
001
370
     9
100
AcDbPoint
 10
105.851134
 20
106.096477
 30
0.0
  0
LINE
  5
C7
330
B3
100
AcDbEntity
  8
001
370
     9
100
AcDbLine
 10
110.851134
 20
106.096477
 30
0.0
 11
113.976134
 21
106.096477
 31
0.0
  0
LINE
  5
C8
330
B3
100
AcDbEntity
  8
001
370
     9
100
AcDbLine
 10
105.851134
 20
106.096477
 30
0.0
 11
102.726134
 21
106.096477
 31
0.0
  0
ENDBLK
  5
B5
330
B3
100
AcDbEntity
  8
0
100
AcDbBlockEnd
  0
BLOCK
  5
CA
330
C9
100
AcDbEntity
  8
0
100
AcDbBlockBegin
  2
*D9
 70
     1
 10
0.0
 20
0.0
 30
0.0
  3
*D9
  1

  0
LINE
  5
CC
330
C9
100
AcDbEntity
  8
001
370
     9
100
AcDbLine
 10
82.119083
 20
154.960605
 30
0.0
 11
53.649699
 21
154.960605
 31
0.0
  0
LINE
  5
CD
330
C9
100
AcDbEntity
  8
001
370
     9
100
AcDbLine
 10
82.119083
 20
122.960605
 30
0.0
 11
53.649699
 21
122.960605
 31
0.0
  0
LINE
  5
CE
330
C9
100
AcDbEntity
  8
001
370
     9
100
AcDbLine
 10
57.087199
 20
154.960605
 30
0.0
 11
57.087199
 21
122.960605
 31
0.0
  0
POLYLINE
  5
CF
330
C9
100
AcDbEntity
  8
001
370
     9
100
AcDb2dPolyline
 66
     1
 10
0.0
 20
0.0
 30
0.0
  0
VERTEX
  5
D1
330
CF
100
AcDbEntity
  8
001
370
     9
100
AcDbVertex
100
AcDb2dVertex
 10
56.584795
 20
153.085605
 30
0.0
  0
VERTEX
  5
D2
330
CF
100
AcDbEntity
  8
001
370
     9
100
AcDbVertex
100
AcDb2dVertex
 10
57.087199
 20
154.960605
 30
0.0
  0
VERTEX
  5
D3
330
CF
100
AcDbEntity
  8
001
370
     9
100
AcDbVertex
100
AcDb2dVertex
 10
57.589604
 20
153.085605
 30
0.0
  0
SEQEND
  5
D0
330
CF
100
AcDbEntity
  8
001
370
     9
  0
POLYLINE
  5
D4
330
C9
100
AcDbEntity
  8
001
370
     9
100
AcDb2dPolyline
 66
     1
 10
0.0
 20
0.0
 30
0.0
  0
VERTEX
  5
D6
330
D4
100
AcDbEntity
  8
001
370
     9
100
AcDbVertex
100
AcDb2dVertex
 10
57.589604
 20
124.835605
 30
0.0
  0
VERTEX
  5
D7
330
D4
100
AcDbEntity
  8
001
370
     9
100
AcDbVertex
100
AcDb2dVertex
 10
57.087199
 20
122.960605
 30
0.0
  0
VERTEX
  5
D8
330
D4
100
AcDbEntity
  8
001
370
     9
100
AcDbVertex
100
AcDb2dVertex
 10
56.584795
 20
124.835605
 30
0.0
  0
SEQEND
  5
D5
330
D4
100
AcDbEntity
  8
001
370
     9
  0
TEXT
  5
D9
330
C9
100
AcDbEntity
  8
001
370
    30
100
AcDbText
 10
55.837199
 20
131.460605
 30
0.0
 40
5.0
  1
%%c３２
 50
90.000003
 41
0.882353
100
AcDbText
  0
POINT
  5
DA
330
C9
100
AcDbEntity
  8
001
370
     9
100
AcDbPoint
 10
82.119083
 20
154.960605
 30
0.0
  0
POINT
  5
DB
330
C9
100
AcDbEntity
  8
001
370
     9
100
AcDbPoint
 10
82.119083
 20
122.960605
 30
0.0
  0
POINT
  5
DC
330
C9
100
AcDbEntity
  8
001
370
     9
100
AcDbPoint
 10
57.087199
 20
122.960605
 30
0.0
  0
ENDBLK
  5
CB
330
C9
100
AcDbEntity
  8
0
100
AcDbBlockEnd
  0
BLOCK
  5
DE
330
DD
100
AcDbEntity
  8
0
100
AcDbBlockBegin
  2
*D10
 70
     1
 10
0.0
 20
0.0
 30
0.0
  3
*D10
  1

  0
LINE
  5
E0
330
DD
100
AcDbEntity
  8
001
370
     9
100
AcDbLine
 10
106.851134
 20
158.960605
 30
0.0
 11
40.175677
 21
158.960605
 31
0.0
  0
LINE
  5
E1
330
DD
100
AcDbEntity
  8
001
370
     9
100
AcDbLine
 10
106.851134
 20
118.960605
 30
0.0
 11
40.175677
 21
118.960605
 31
0.0
  0
LINE
  5
E2
330
DD
100
AcDbEntity
  8
001
370
     9
100
AcDbLine
 10
43.613177
 20
158.960605
 30
0.0
 11
43.613177
 21
118.960605
 31
0.0
  0
POLYLINE
  5
E3
330
DD
100
AcDbEntity
  8
001
370
     9
100
AcDb2dPolyline
 66
     1
 10
0.0
 20
0.0
 30
0.0
  0
VERTEX
  5
E5
330
E3
100
AcDbEntity
  8
001
370
     9
100
AcDbVertex
100
AcDb2dVertex
 10
43.110772
 20
157.085605
 30
0.0
  0
VERTEX
  5
E6
330
E3
100
AcDbEntity
  8
001
370
     9
100
AcDbVertex
100
AcDb2dVertex
 10
43.613177
 20
158.960605
 30
0.0
  0
VERTEX
  5
E7
330
E3
100
AcDbEntity
  8
001
370
     9
100
AcDbVertex
100
AcDb2dVertex
 10
44.115582
 20
157.085605
 30
0.0
  0
SEQEND
  5
E4
330
E3
100
AcDbEntity
  8
001
370
     9
  0
POLYLINE
  5
E8
330
DD
100
AcDbEntity
  8
001
370
     9
100
AcDb2dPolyline
 66
     1
 10
0.0
 20
0.0
 30
0.0
  0
VERTEX
  5
EA
330
E8
100
AcDbEntity
  8
001
370
     9
100
AcDbVertex
100
AcDb2dVertex
 10
44.115582
 20
120.835605
 30
0.0
  0
VERTEX
  5
EB
330
E8
100
AcDbEntity
  8
001
370
     9
100
AcDbVertex
100
AcDb2dVertex
 10
43.613177
 20
118.960605
 30
0.0
  0
VERTEX
  5
EC
330
E8
100
AcDbEntity
  8
001
370
     9
100
AcDbVertex
100
AcDb2dVertex
 10
43.110772
 20
120.835605
 30
0.0
  0
SEQEND
  5
E9
330
E8
100
AcDbEntity
  8
001
370
     9
  0
TEXT
  5
ED
330
DD
100
AcDbEntity
  8
001
370
    30
100
AcDbText
 10
42.363177
 20
131.460605
 30
0.0
 40
5.0
  1
%%c４０
 50
90.000003
 41
0.882353
100
AcDbText
  0
POINT
  5
EE
330
DD
100
AcDbEntity
  8
001
370
     9
100
AcDbPoint
 10
106.851134
 20
158.960605
 30
0.0
  0
POINT
  5
EF
330
DD
100
AcDbEntity
  8
001
370
     9
100
AcDbPoint
 10
106.851134
 20
118.960605
 30
0.0
  0
POINT
  5
F0
330
DD
100
AcDbEntity
  8
001
370
     9
100
AcDbPoint
 10
43.613177
 20
118.960605
 30
0.0
  0
ENDBLK
  5
DF
330
DD
100
AcDbEntity
  8
0
100
AcDbBlockEnd
  0
BLOCK
  5
F2
330
F1
100
AcDbEntity
  8
0
100
AcDbBlockBegin
  2
*D11
 70
     1
 10
0.0
 20
0.0
 30
0.0
  3
*D11
  1

  0
LINE
  5
F4
330
F1
100
AcDbEntity
  8
001
370
     9
100
AcDbLine
 10
188.851134
 20
154.960605
 30
0.0
 11
230.754566
 21
154.960605
 31
0.0
  0
LINE
  5
F5
330
F1
100
AcDbEntity
  8
001
370
     9
100
AcDbLine
 10
188.851134
 20
122.960605
 30
0.0
 11
230.754566
 21
122.960605
 31
0.0
  0
LINE
  5
F6
330
F1
100
AcDbEntity
  8
001
370
     9
100
AcDbLine
 10
227.317066
 20
154.960605
 30
0.0
 11
227.317066
 21
122.960605
 31
0.0
  0
POLYLINE
  5
F7
330
F1
100
AcDbEntity
  8
001
370
     9
100
AcDb2dPolyline
 66
     1
 10
0.0
 20
0.0
 30
0.0
  0
VERTEX
  5
F9
330
F7
100
AcDbEntity
  8
001
370
     9
100
AcDbVertex
100
AcDb2dVertex
 10
226.814661
 20
153.085605
 30
0.0
  0
VERTEX
  5
FA
330
F7
100
AcDbEntity
  8
001
370
     9
100
AcDbVertex
100
AcDb2dVertex
 10
227.317066
 20
154.960605
 30
0.0
  0
VERTEX
  5
FB
330
F7
100
AcDbEntity
  8
001
370
     9
100
AcDbVertex
100
AcDb2dVertex
 10
227.819471
 20
153.085605
 30
0.0
  0
SEQEND
  5
F8
330
F7
100
AcDbEntity
  8
001
370
     9
  0
POLYLINE
  5
FC
330
F1
100
AcDbEntity
  8
001
370
     9
100
AcDb2dPolyline
 66
     1
 10
0.0
 20
0.0
 30
0.0
  0
VERTEX
  5
FE
330
FC
100
AcDbEntity
  8
001
370
     9
100
AcDbVertex
100
AcDb2dVertex
 10
227.819471
 20
124.835605
 30
0.0
  0
VERTEX
  5
FF
330
FC
100
AcDbEntity
  8
001
370
     9
100
AcDbVertex
100
AcDb2dVertex
 10
227.317066
 20
122.960605
 30
0.0
  0
VERTEX
  5
100
330
FC
100
AcDbEntity
  8
001
370
     9
100
AcDbVertex
100
AcDb2dVertex
 10
226.814661
 20
124.835605
 30
0.0
  0
SEQEND
  5
FD
330
FC
100
AcDbEntity
  8
001
370
     9
  0
TEXT
  5
101
330
F1
100
AcDbEntity
  8
001
370
    30
100
AcDbText
 10
226.067066
 20
127.460605
 30
0.0
 40
5.0
  1
%%c３２
 50
90.000003
 41
0.882353
100
AcDbText
  0
TEXT
  5
102
330
F1
100
AcDbEntity
  8
001
370
    30
100
AcDbText
 10
225.567066
 20
142.460605
 30
0.0
 40
4.0
  1
ｈ７
 50
90.000003
 41
0.833333
100
AcDbText
  0
POINT
  5
103
330
F1
100
AcDbEntity
  8
001
370
     9
100
AcDbPoint
 10
188.851134
 20
154.960605
 30
0.0
  0
POINT
  5
104
330
F1
100
AcDbEntity
  8
001
370
     9
100
AcDbPoint
 10
188.851134
 20
122.960605
 30
0.0
  0
POINT
  5
105
330
F1
100
AcDbEntity
  8
001
370
     9
100
AcDbPoint
 10
227.317066
 20
122.960605
 30
0.0
  0
ENDBLK
  5
F3
330
F1
100
AcDbEntity
  8
0
100
AcDbBlockEnd
  0
BLOCK
  5
107
330
106
100
AcDbEntity
  8
0
100
AcDbBlockBegin
  2
*D12
 70
     1
 10
0.0
 20
0.0
 30
0.0
  3
*D12
  1

  0
LINE
  5
109
330
106
100
AcDbEntity
  8
001
370
     9
100
AcDbLine
 10
86.851134
 20
63.015105
 30
0.0
 11
86.851134
 21
74.165753
 31
0.0
  0
LINE
  5
10A
330
106
100
AcDbEntity
  8
001
370
     9
100
AcDbLine
 10
75.851134
 20
53.302466
 30
0.0
 11
75.851134
 21
74.165753
 31
0.0
  0
LINE
  5
10B
330
106
100
AcDbEntity
  8
001
370
     9
100
AcDbLine
 10
86.851134
 20
70.728253
 30
0.0
 11
75.851134
 21
70.728253
 31
0.0
  0
POLYLINE
  5
10C
330
106
100
AcDbEntity
  8
001
370
     9
100
AcDb2dPolyline
 66
     1
 10
0.0
 20
0.0
 30
0.0
  0
VERTEX
  5
10E
330
10C
100
AcDbEntity
  8
001
370
     9
100
AcDbVertex
100
AcDb2dVertex
 10
88.726134
 20
70.225849
 30
0.0
  0
VERTEX
  5
10F
330
10C
100
AcDbEntity
  8
001
370
     9
100
AcDbVertex
100
AcDb2dVertex
 10
86.851134
 20
70.728253
 30
0.0
  0
VERTEX
  5
110
330
10C
100
AcDbEntity
  8
001
370
     9
100
AcDbVertex
100
AcDb2dVertex
 10
88.726134
 20
71.230658
 30
0.0
  0
SEQEND
  5
10D
330
10C
100
AcDbEntity
  8
001
370
     9
  0
POLYLINE
  5
111
330
106
100
AcDbEntity
  8
001
370
     9
100
AcDb2dPolyline
 66
     1
 10
0.0
 20
0.0
 30
0.0
  0
VERTEX
  5
113
330
111
100
AcDbEntity
  8
001
370
     9
100
AcDbVertex
100
AcDb2dVertex
 10
73.976134
 20
71.230658
 30
0.0
  0
VERTEX
  5
114
330
111
100
AcDbEntity
  8
001
370
     9
100
AcDbVertex
100
AcDb2dVertex
 10
75.851134
 20
70.728253
 30
0.0
  0
VERTEX
  5
115
330
111
100
AcDbEntity
  8
001
370
     9
100
AcDbVertex
100
AcDb2dVertex
 10
73.976134
 20
70.225849
 30
0.0
  0
SEQEND
  5
112
330
111
100
AcDbEntity
  8
001
370
     9
  0
TEXT
  5
116
330
106
100
AcDbEntity
  8
001
370
    30
100
AcDbText
 10
76.351134
 20
71.978253
 30
0.0
 40
5.0
  1
１１
 41
0.833333
100
AcDbText
  0
POINT
  5
117
330
106
100
AcDbEntity
  8
001
370
     9
100
AcDbPoint
 10
86.851134
 20
63.015105
 30
0.0
  0
POINT
  5
118
330
106
100
AcDbEntity
  8
001
370
     9
100
AcDbPoint
 10
75.851134
 20
53.302466
 30
0.0
  0
POINT
  5
119
330
106
100
AcDbEntity
  8
001
370
     9
100
AcDbPoint
 10
75.851134
 20
70.728253
 30
0.0
  0
LINE
  5
11A
330
106
100
AcDbEntity
  8
001
370
     9
100
AcDbLine
 10
86.851134
 20
70.728253
 30
0.0
 11
89.976134
 21
70.728253
 31
0.0
  0
LINE
  5
11B
330
106
100
AcDbEntity
  8
001
370
     9
100
AcDbLine
 10
75.851134
 20
70.728253
 30
0.0
 11
72.726134
 21
70.728253
 31
0.0
  0
ENDBLK
  5
108
330
106
100
AcDbEntity
  8
0
100
AcDbBlockEnd
  0
BLOCK
  5
11D
330
11C
100
AcDbEntity
  8
0
100
AcDbBlockBegin
  2
*D13
 70
     1
 10
0.0
 20
0.0
 30
0.0
  3
*D13
  1

  0
LINE
  5
11F
330
11C
100
AcDbEntity
  8
001
370
     9
100
AcDbLine
 10
99.851134
 20
63.015105
 30
0.0
 11
99.851134
 21
74.165753
 31
0.0
  0
LINE
  5
120
330
11C
100
AcDbEntity
  8
001
370
     9
100
AcDbLine
 10
86.851134
 20
63.015105
 30
0.0
 11
86.851134
 21
74.165753
 31
0.0
  0
LINE
  5
121
330
11C
100
AcDbEntity
  8
001
370
     9
100
AcDbLine
 10
99.851134
 20
70.728253
 30
0.0
 11
86.851134
 21
70.728253
 31
0.0
  0
POLYLINE
  5
122
330
11C
100
AcDbEntity
  8
001
370
     9
100
AcDb2dPolyline
 66
     1
 10
0.0
 20
0.0
 30
0.0
  0
VERTEX
  5
124
330
122
100
AcDbEntity
  8
001
370
     9
100
AcDbVertex
100
AcDb2dVertex
 10
101.726134
 20
70.225849
 30
0.0
  0
VERTEX
  5
125
330
122
100
AcDbEntity
  8
001
370
     9
100
AcDbVertex
100
AcDb2dVertex
 10
99.851134
 20
70.728253
 30
0.0
  0
VERTEX
  5
126
330
122
100
AcDbEntity
  8
001
370
     9
100
AcDbVertex
100
AcDb2dVertex
 10
101.726134
 20
71.230658
 30
0.0
  0
SEQEND
  5
123
330
122
100
AcDbEntity
  8
001
370
     9
  0
POLYLINE
  5
127
330
11C
100
AcDbEntity
  8
001
370
     9
100
AcDb2dPolyline
 66
     1
 10
0.0
 20
0.0
 30
0.0
  0
VERTEX
  5
129
330
127
100
AcDbEntity
  8
001
370
     9
100
AcDbVertex
100
AcDb2dVertex
 10
84.976134
 20
71.230658
 30
0.0
  0
VERTEX
  5
12A
330
127
100
AcDbEntity
  8
001
370
     9
100
AcDbVertex
100
AcDb2dVertex
 10
86.851134
 20
70.728253
 30
0.0
  0
VERTEX
  5
12B
330
127
100
AcDbEntity
  8
001
370
     9
100
AcDbVertex
100
AcDb2dVertex
 10
84.976134
 20
70.225849
 30
0.0
  0
SEQEND
  5
128
330
127
100
AcDbEntity
  8
001
370
     9
  0
TEXT
  5
12C
330
11C
100
AcDbEntity
  8
001
370
    30
100
AcDbText
 10
88.351134
 20
71.978253
 30
0.0
 40
5.0
  1
１３
 41
0.833333
100
AcDbText
  0
POINT
  5
12D
330
11C
100
AcDbEntity
  8
001
370
     9
100
AcDbPoint
 10
99.851134
 20
63.015105
 30
0.0
  0
POINT
  5
12E
330
11C
100
AcDbEntity
  8
001
370
     9
100
AcDbPoint
 10
86.851134
 20
63.015105
 30
0.0
  0
POINT
  5
12F
330
11C
100
AcDbEntity
  8
001
370
     9
100
AcDbPoint
 10
86.851134
 20
70.728253
 30
0.0
  0
LINE
  5
130
330
11C
100
AcDbEntity
  8
001
370
     9
100
AcDbLine
 10
99.851134
 20
70.728253
 30
0.0
 11
102.976134
 21
70.728253
 31
0.0
  0
LINE
  5
131
330
11C
100
AcDbEntity
  8
001
370
     9
100
AcDbLine
 10
86.851134
 20
70.728253
 30
0.0
 11
83.726134
 21
70.728253
 31
0.0
  0
ENDBLK
  5
11E
330
11C
100
AcDbEntity
  8
0
100
AcDbBlockEnd
  0
BLOCK
  5
133
330
132
100
AcDbEntity
  8
0
100
AcDbBlockBegin
  2
DIM-6
 70
     0
 10
0.0
 20
0.0
 30
0.0
  3
DIM-6
  1

  0
TEXT
  5
135
330
132
100
AcDbEntity
  8
001
370
    30
100
AcDbText
 10
2.490562
 20
89.720176
 30
0.0
 40
5.0
  1
２－Ｍ８×１．２５，貫通
 41
0.833333
100
AcDbText
  0
POLYLINE
  5
136
330
132
100
AcDbEntity
  8
001
370
     9
100
AcDb2dPolyline
 66
     1
 10
0.0
 20
0.0
 30
0.0
  0
VERTEX
  5
138
330
136
100
AcDbEntity
  8
001
370
     9
100
AcDbVertex
100
AcDb2dVertex
 10
85.224629
 20
133.236486
 30
0.0
  0
VERTEX
  5
139
330
136
100
AcDbEntity
  8
001
370
     9
100
AcDbVertex
100
AcDb2dVertex
 10
86.469998
 20
134.725477
 30
0.0
  0
VERTEX
  5
13A
330
136
100
AcDbEntity
  8
001
370
     9
100
AcDbVertex
100
AcDb2dVertex
 10
86.135972
 20
132.813289
 30
0.0
  0
SEQEND
  5
137
330
136
100
AcDbEntity
  8
001
370
     9
  0
POLYLINE
  5
13B
330
132
100
AcDbEntity
  8
001
370
     9
100
AcDb2dPolyline
 66
     1
 10
0.0
 20
0.0
 30
0.0
  0
VERTEX
  5
13D
330
13B
100
AcDbEntity
  8
001
370
     9
100
AcDbVertex
100
AcDb2dVertex
 10
86.469998
 20
134.725477
 30
0.0
  0
VERTEX
  5
13E
330
13B
100
AcDbEntity
  8
001
370
     9
100
AcDbVertex
100
AcDb2dVertex
 10
64.990562
 20
88.470176
 30
0.0
  0
VERTEX
  5
13F
330
13B
100
AcDbEntity
  8
001
370
     9
100
AcDbVertex
100
AcDb2dVertex
 10
-0.009438
 20
88.470176
 30
0.0
  0
SEQEND
  5
13C
330
13B
100
AcDbEntity
  8
001
370
     9
  0
ENDBLK
  5
134
330
132
100
AcDbEntity
  8
0
100
AcDbBlockEnd
  0
BLOCK
  5
141
330
140
100
AcDbEntity
  8
0
100
AcDbBlockBegin
  2
*D15
 70
     1
 10
0.0
 20
0.0
 30
0.0
  3
*D15
  1

  0
LINE
  5
143
330
140
100
AcDbEntity
  8
001
370
     9
100
AcDbLine
 10
254.072028
 20
131.214638
 30
0.0
 11
254.072028
 21
94.269534
 31
0.0
  0
LINE
  5
144
330
140
100
AcDbEntity
  8
001
370
     9
100
AcDbLine
 10
284.072028
 20
138.960605
 30
0.0
 11
284.072028
 21
94.269534
 31
0.0
  0
LINE
  5
145
330
140
100
AcDbEntity
  8
001
370
     9
100
AcDbLine
 10
254.072028
 20
97.707034
 30
0.0
 11
284.072028
 21
97.707034
 31
0.0
  0
POLYLINE
  5
146
330
140
100
AcDbEntity
  8
001
370
     9
100
AcDb2dPolyline
 66
     1
 10
0.0
 20
0.0
 30
0.0
  0
VERTEX
  5
148
330
146
100
AcDbEntity
  8
001
370
     9
100
AcDbVertex
100
AcDb2dVertex
 10
255.947028
 20
97.204629
 30
0.0
  0
VERTEX
  5
149
330
146
100
AcDbEntity
  8
001
370
     9
100
AcDbVertex
100
AcDb2dVertex
 10
254.072028
 20
97.707034
 30
0.0
  0
VERTEX
  5
14A
330
146
100
AcDbEntity
  8
001
370
     9
100
AcDbVertex
100
AcDb2dVertex
 10
255.947028
 20
98.209439
 30
0.0
  0
SEQEND
  5
147
330
146
100
AcDbEntity
  8
001
370
     9
  0
POLYLINE
  5
14B
330
140
100
AcDbEntity
  8
001
370
     9
100
AcDb2dPolyline
 66
     1
 10
0.0
 20
0.0
 30
0.0
  0
VERTEX
  5
14D
330
14B
100
AcDbEntity
  8
001
370
     9
100
AcDbVertex
100
AcDb2dVertex
 10
282.197028
 20
98.209439
 30
0.0
  0
VERTEX
  5
14E
330
14B
100
AcDbEntity
  8
001
370
     9
100
AcDbVertex
100
AcDb2dVertex
 10
284.072028
 20
97.707034
 30
0.0
  0
VERTEX
  5
14F
330
14B
100
AcDbEntity
  8
001
370
     9
100
AcDbVertex
100
AcDb2dVertex
 10
282.197028
 20
97.204629
 30
0.0
  0
SEQEND
  5
14C
330
14B
100
AcDbEntity
  8
001
370
     9
  0
TEXT
  5
150
330
140
100
AcDbEntity
  8
001
370
    30
100
AcDbText
 10
264.072028
 20
98.957034
 30
0.0
 40
5.0
  1
３０
 41
0.833333
100
AcDbText
  0
POINT
  5
151
330
140
100
AcDbEntity
  8
001
370
     9
100
AcDbPoint
 10
254.072028
 20
131.214638
 30
0.0
  0
POINT
  5
152
330
140
100
AcDbEntity
  8
001
370
     9
100
AcDbPoint
 10
284.072028
 20
138.960605
 30
0.0
  0
POINT
  5
153
330
140
100
AcDbEntity
  8
001
370
     9
100
AcDbPoint
 10
284.072028
 20
97.707034
 30
0.0
  0
ENDBLK
  5
142
330
140
100
AcDbEntity
  8
0
100
AcDbBlockEnd
  0
BLOCK
  5
155
330
154
100
AcDbEntity
  8
0
100
AcDbBlockBegin
  2
*D16
 70
     1
 10
0.0
 20
0.0
 30
0.0
  3
*D16
  1

  0
LINE
  5
157
330
154
100
AcDbEntity
  8
001
370
     9
100
AcDbLine
 10
190.851134
 20
124.960605
 30
0.0
 11
190.851134
 21
102.658977
 31
0.0
  0
LINE
  5
158
330
154
100
AcDbEntity
  8
001
370
     9
100
AcDbLine
 10
110.851134
 20
119.960605
 30
0.0
 11
110.851134
 21
102.658977
 31
0.0
  0
LINE
  5
159
330
154
100
AcDbEntity
  8
001
370
     9
100
AcDbLine
 10
190.851134
 20
106.096477
 30
0.0
 11
110.851134
 21
106.096477
 31
0.0
  0
POLYLINE
  5
15A
330
154
100
AcDbEntity
  8
001
370
     9
100
AcDb2dPolyline
 66
     1
 10
0.0
 20
0.0
 30
0.0
  0
VERTEX
  5
15C
330
15A
100
AcDbEntity
  8
001
370
     9
100
AcDbVertex
100
AcDb2dVertex
 10
188.976134
 20
106.598882
 30
0.0
  0
VERTEX
  5
15D
330
15A
100
AcDbEntity
  8
001
370
     9
100
AcDbVertex
100
AcDb2dVertex
 10
190.851134
 20
106.096477
 30
0.0
  0
VERTEX
  5
15E
330
15A
100
AcDbEntity
  8
001
370
     9
100
AcDbVertex
100
AcDb2dVertex
 10
188.976134
 20
105.594072
 30
0.0
  0
SEQEND
  5
15B
330
15A
100
AcDbEntity
  8
001
370
     9
  0
POLYLINE
  5
15F
330
154
100
AcDbEntity
  8
001
370
     9
100
AcDb2dPolyline
 66
     1
 10
0.0
 20
0.0
 30
0.0
  0
VERTEX
  5
161
330
15F
100
AcDbEntity
  8
001
370
     9
100
AcDbVertex
100
AcDb2dVertex
 10
112.726134
 20
105.594072
 30
0.0
  0
VERTEX
  5
162
330
15F
100
AcDbEntity
  8
001
370
     9
100
AcDbVertex
100
AcDb2dVertex
 10
110.851134
 20
106.096477
 30
0.0
  0
VERTEX
  5
163
330
15F
100
AcDbEntity
  8
001
370
     9
100
AcDbVertex
100
AcDb2dVertex
 10
112.726134
 20
106.598882
 30
0.0
  0
SEQEND
  5
160
330
15F
100
AcDbEntity
  8
001
370
     9
  0
TEXT
  5
164
330
154
100
AcDbEntity
  8
001
370
    30
100
AcDbText
 10
140.851134
 20
107.346477
 30
0.0
 40
5.0
  1
（８０）
 41
0.833333
100
AcDbText
  0
POINT
  5
165
330
154
100
AcDbEntity
  8
001
370
     9
100
AcDbPoint
 10
190.851134
 20
124.960605
 30
0.0
  0
POINT
  5
166
330
154
100
AcDbEntity
  8
001
370
     9
100
AcDbPoint
 10
110.851134
 20
119.960605
 30
0.0
  0
POINT
  5
167
330
154
100
AcDbEntity
  8
001
370
     9
100
AcDbPoint
 10
110.851134
 20
106.096477
 30
0.0
  0
ENDBLK
  5
156
330
154
100
AcDbEntity
  8
0
100
AcDbBlockEnd
  0
BLOCK
  5
169
330
168
100
AcDbEntity
  8
0
100
AcDbBlockBegin
  2
*D17
 70
     1
 10
0.0
 20
0.0
 30
0.0
  3
*D17
  1

  0
LINE
  5
16B
330
168
100
AcDbEntity
  8
001
370
     9
100
AcDbLine
 10
81.619083
 20
154.82663
 30
0.0
 11
120.189436
 21
177.095234
 31
0.0
  0
ARC
  5
16C
330
168
100
AcDbEntity
  8
001
370
     9
100
AcDbCircle
 10
54.138321
 20
138.960605
 30
0.0
 40
72.83175755998295
100
AcDbArc
 50
0.0
 51
30.0
  0
POLYLINE
  5
16D
330
168
100
AcDbEntity
  8
001
370
     9
100
AcDb2dPolyline
 66
     1
 10
0.0
 20
0.0
 30
0.0
  0
VERTEX
  5
16F
330
16D
100
AcDbEntity
  8
001
370
     9
100
AcDbVertex
100
AcDb2dVertex
 10
117.690702
 20
173.495172
 30
0.0
  0
VERTEX
  5
170
330
16D
100
AcDbEntity
  8
001
370
     9
100
AcDbVertex
100
AcDb2dVertex
 10
117.212473
 20
175.376484
 30
0.0
  0
VERTEX
  5
171
330
16D
100
AcDbEntity
  8
001
370
     9
100
AcDbVertex
100
AcDb2dVertex
 10
118.567287
 20
173.986334
 30
0.0
  0
SEQEND
  5
16E
330
16D
100
AcDbEntity
  8
001
370
     9
  0
POLYLINE
  5
172
330
168
100
AcDbEntity
  8
001
370
     9
100
AcDb2dPolyline
 66
     1
 10
0.0
 20
0.0
 30
0.0
  0
VERTEX
  5
174
330
172
100
AcDbEntity
  8
001
370
     9
100
AcDbVertex
100
AcDb2dVertex
 10
127.448307
 20
140.841916
 30
0.0
  0
VERTEX
  5
175
330
172
100
AcDbEntity
  8
001
370
     9
100
AcDbVertex
100
AcDb2dVertex
 10
126.970079
 20
138.960605
 30
0.0
  0
VERTEX
  5
176
330
172
100
AcDbEntity
  8
001
370
     9
100
AcDbVertex
100
AcDb2dVertex
 10
126.443581
 20
140.828983
 30
0.0
  0
SEQEND
  5
173
330
172
100
AcDbEntity
  8
001
370
     9
  0
TEXT
  5
177
330
168
100
AcDbEntity
  8
001
370
    30
100
AcDbText
 10
121.932201
 20
169.755841
 30
0.0
 40
5.0
  1
３０%%d
 50
288.648931
 41
0.978261
100
AcDbText
  0
POINT
  5
178
330
168
100
AcDbEntity
  8
001
370
     9
100
AcDbPoint
 10
81.619083
 20
154.82663
 30
0.0
  0
POINT
  5
179
330
168
100
AcDbEntity
  8
001
370
     9
100
AcDbPoint
 10
54.138321
 20
138.960605
 30
0.0
  0
POINT
  5
17A
330
168
100
AcDbEntity
  8
001
370
     9
100
AcDbPoint
 10
54.138321
 20
138.960605
 30
0.0
  0
POINT
  5
17B
330
168
100
AcDbEntity
  8
001
370
     9
100
AcDbPoint
 10
68.305533
 20
138.960605
 30
0.0
  0
ENDBLK
  5
16A
330
168
100
AcDbEntity
  8
0
100
AcDbBlockEnd
  0
BLOCK
  5
17D
330
17C
100
AcDbEntity
  8
0
100
AcDbBlockBegin
  2
*D18
 70
     1
 10
0.0
 20
0.0
 30
0.0
  3
*D18
  1

  0
LINE
  5
17F
330
17C
100
AcDbEntity
  8
001
370
     9
100
AcDbLine
 10
188.851134
 20
152.960605
 30
0.0
 11
190.483907
 21
154.115617
 31
0.0
  0
POLYLINE
  5
180
330
17C
100
AcDbEntity
  8
001
370
     9
100
AcDb2dPolyline
 66
     1
 10
0.0
 20
0.0
 30
0.0
  0
VERTEX
  5
182
330
180
100
AcDbEntity
  8
001
370
     9
100
AcDbVertex
100
AcDb2dVertex
 10
192.304773
 20
154.788284
 30
0.0
  0
VERTEX
  5
183
330
180
100
AcDbEntity
  8
001
370
     9
100
AcDbVertex
100
AcDb2dVertex
 10
190.483907
 20
154.115617
 30
0.0
  0
VERTEX
  5
184
330
180
100
AcDbEntity
  8
001
370
     9
100
AcDbVertex
100
AcDb2dVertex
 10
191.72449
 20
155.608597
 30
0.0
  0
SEQEND
  5
181
330
180
100
AcDbEntity
  8
001
370
     9
  0
TEXT
  5
185
330
17C
100
AcDbEntity
  8
001
370
    30
100
AcDbText
 10
193.333715
 20
157.662688
 30
0.0
 40
5.0
  1
（Ｒ２）
 50
35.275311
 41
0.833333
100
AcDbText
  0
POINT
  5
186
330
17C
100
AcDbEntity
  8
001
370
     9
100
AcDbPoint
 10
190.483907
 20
154.115617
 30
0.0
  0
POINT
  5
187
330
17C
100
AcDbEntity
  8
001
370
     9
100
AcDbPoint
 10
188.851134
 20
152.960605
 30
0.0
  0
LINE
  5
188
330
17C
100
AcDbEntity
  8
001
370
     9
100
AcDbLine
 10
190.483907
 20
154.115617
 30
0.0
 11
213.444777
 21
170.357971
 31
0.0
  0
ENDBLK
  5
17E
330
17C
100
AcDbEntity
  8
0
100
AcDbBlockEnd
  0
BLOCK
  5
18A
330
189
100
AcDbEntity
  8
0
100
AcDbBlockBegin
  2
*D19
 70
     1
 10
0.0
 20
0.0
 30
0.0
  3
*D19
  1

  0
LINE
  5
18C
330
189
100
AcDbEntity
  8
001
370
     9
100
AcDbLine
 10
81.851134
 20
154.960605
 30
0.0
 11
81.851134
 21
172.153174
 31
0.0
  0
LINE
  5
18D
330
189
100
AcDbEntity
  8
001
370
     9
100
AcDbLine
 10
75.851134
 20
150.919153
 30
0.0
 11
75.851134
 21
172.153174
 31
0.0
  0
LINE
  5
18E
330
189
100
AcDbEntity
  8
001
370
     9
100
AcDbLine
 10
81.851134
 20
168.715674
 30
0.0
 11
75.851134
 21
168.715674
 31
0.0
  0
POLYLINE
  5
18F
330
189
100
AcDbEntity
  8
001
370
     9
100
AcDb2dPolyline
 66
     1
 10
0.0
 20
0.0
 30
0.0
  0
VERTEX
  5
191
330
18F
100
AcDbEntity
  8
001
370
     9
100
AcDbVertex
100
AcDb2dVertex
 10
83.726134
 20
168.21327
 30
0.0
  0
VERTEX
  5
192
330
18F
100
AcDbEntity
  8
001
370
     9
100
AcDbVertex
100
AcDb2dVertex
 10
81.851134
 20
168.715674
 30
0.0
  0
VERTEX
  5
193
330
18F
100
AcDbEntity
  8
001
370
     9
100
AcDbVertex
100
AcDb2dVertex
 10
83.726134
 20
169.218079
 30
0.0
  0
SEQEND
  5
190
330
18F
100
AcDbEntity
  8
001
370
     9
  0
POLYLINE
  5
194
330
189
100
AcDbEntity
  8
001
370
     9
100
AcDb2dPolyline
 66
     1
 10
0.0
 20
0.0
 30
0.0
  0
VERTEX
  5
196
330
194
100
AcDbEntity
  8
001
370
     9
100
AcDbVertex
100
AcDb2dVertex
 10
73.976134
 20
169.218079
 30
0.0
  0
VERTEX
  5
197
330
194
100
AcDbEntity
  8
001
370
     9
100
AcDbVertex
100
AcDb2dVertex
 10
75.851134
 20
168.715674
 30
0.0
  0
VERTEX
  5
198
330
194
100
AcDbEntity
  8
001
370
     9
100
AcDbVertex
100
AcDb2dVertex
 10
73.976134
 20
168.21327
 30
0.0
  0
SEQEND
  5
195
330
194
100
AcDbEntity
  8
001
370
     9
  0
TEXT
  5
199
330
189
100
AcDbEntity
  8
001
370
    30
100
AcDbText
 10
56.476134
 20
169.965674
 30
0.0
 40
5.0
  1
（６）
 41
0.833333
100
AcDbText
  0
POINT
  5
19A
330
189
100
AcDbEntity
  8
001
370
     9
100
AcDbPoint
 10
81.851134
 20
154.960605
 30
0.0
  0
POINT
  5
19B
330
189
100
AcDbEntity
  8
001
370
     9
100
AcDbPoint
 10
75.851134
 20
150.919153
 30
0.0
  0
POINT
  5
19C
330
189
100
AcDbEntity
  8
001
370
     9
100
AcDbPoint
 10
75.851134
 20
168.715674
 30
0.0
  0
LINE
  5
19D
330
189
100
AcDbEntity
  8
001
370
     9
100
AcDbLine
 10
81.851134
 20
168.715674
 30
0.0
 11
84.976134
 21
168.715674
 31
0.0
  0
LINE
  5
19E
330
189
100
AcDbEntity
  8
001
370
     9
100
AcDbLine
 10
75.851134
 20
168.715674
 30
0.0
 11
52.726134
 21
168.715674
 31
0.0
  0
ENDBLK
  5
18B
330
189
100
AcDbEntity
  8
0
100
AcDbBlockEnd
  0
BLOCK
  5
1A0
330
19F
100
AcDbEntity
  8
0
100
AcDbBlockBegin
  2
*D20
 70
     1
 10
0.0
 20
0.0
 30
0.0
  3
*D20
  1

  0
LINE
  5
1A2
330
19F
100
AcDbEntity
  8
001
370
     9
100
AcDbLine
 10
82.119083
 20
26.343917
 30
0.0
 11
81.733214
 21
25.421364
 31
0.0
  0
POLYLINE
  5
1A3
330
19F
100
AcDbEntity
  8
001
370
     9
100
AcDb2dPolyline
 66
     1
 10
0.0
 20
0.0
 30
0.0
  0
VERTEX
  5
1A5
330
1A3
100
AcDbEntity
  8
001
370
     9
100
AcDbVertex
100
AcDb2dVertex
 10
80.546213
 20
23.885439
 30
0.0
  0
VERTEX
  5
1A6
330
1A3
100
AcDbEntity
  8
001
370
     9
100
AcDbVertex
100
AcDb2dVertex
 10
81.733214
 20
25.421364
 30
0.0
  0
VERTEX
  5
1A7
330
1A3
100
AcDbEntity
  8
001
370
     9
100
AcDbVertex
100
AcDb2dVertex
 10
81.473204
 20
23.497714
 30
0.0
  0
SEQEND
  5
1A4
330
1A3
100
AcDbEntity
  8
001
370
     9
  0
TEXT
  5
1A8
330
19F
100
AcDbEntity
  8
001
370
    30
100
AcDbText
 10
71.174456
 20
3.416461
 30
0.0
 40
5.0
  1
２－Ｒ１
 50
67.30228
 41
0.833333
100
AcDbText
  0
POINT
  5
1A9
330
19F
100
AcDbEntity
  8
001
370
     9
100
AcDbPoint
 10
81.733214
 20
25.421364
 30
0.0
  0
POINT
  5
1AA
330
19F
100
AcDbEntity
  8
001
370
     9
100
AcDbPoint
 10
82.119083
 20
26.343917
 30
0.0
  0
LINE
  5
1AB
330
19F
100
AcDbEntity
  8
001
370
     9
100
AcDbLine
 10
81.733214
 20
25.421364
 30
0.0
 11
70.880637
 21
-0.525451
 31
0.0
  0
ENDBLK
  5
1A1
330
19F
100
AcDbEntity
  8
0
100
AcDbBlockEnd
  0
BLOCK
  5
1AD
330
1AC
100
AcDbEntity
  8
0
100
AcDbBlockBegin
  2
*D21
 70
     1
 10
0.0
 20
0.0
 30
0.0
  3
*D21
  1

  0
LINE
  5
1AF
330
1AC
100
AcDbEntity
  8
001
370
     9
100
AcDbLine
 10
75.851134
 20
51.343917
 30
0.0
 11
53.988959
 21
51.343917
 31
0.0
  0
LINE
  5
1B0
330
1AC
100
AcDbEntity
  8
001
370
     9
100
AcDbLine
 10
75.851134
 20
31.343917
 30
0.0
 11
53.988959
 21
31.343917
 31
0.0
  0
LINE
  5
1B1
330
1AC
100
AcDbEntity
  8
001
370
     9
100
AcDbLine
 10
57.426459
 20
51.343917
 30
0.0
 11
57.426459
 21
31.343917
 31
0.0
  0
POLYLINE
  5
1B2
330
1AC
100
AcDbEntity
  8
001
370
     9
100
AcDb2dPolyline
 66
     1
 10
0.0
 20
0.0
 30
0.0
  0
VERTEX
  5
1B4
330
1B2
100
AcDbEntity
  8
001
370
     9
100
AcDbVertex
100
AcDb2dVertex
 10
57.928863
 20
53.218917
 30
0.0
  0
VERTEX
  5
1B5
330
1B2
100
AcDbEntity
  8
001
370
     9
100
AcDbVertex
100
AcDb2dVertex
 10
57.426459
 20
51.343917
 30
0.0
  0
VERTEX
  5
1B6
330
1B2
100
AcDbEntity
  8
001
370
     9
100
AcDbVertex
100
AcDb2dVertex
 10
56.924054
 20
53.218917
 30
0.0
  0
SEQEND
  5
1B3
330
1B2
100
AcDbEntity
  8
001
370
     9
  0
POLYLINE
  5
1B7
330
1AC
100
AcDbEntity
  8
001
370
     9
100
AcDb2dPolyline
 66
     1
 10
0.0
 20
0.0
 30
0.0
  0
VERTEX
  5
1B9
330
1B7
100
AcDbEntity
  8
001
370
     9
100
AcDbVertex
100
AcDb2dVertex
 10
56.924054
 20
29.468917
 30
0.0
  0
VERTEX
  5
1BA
330
1B7
100
AcDbEntity
  8
001
370
     9
100
AcDbVertex
100
AcDb2dVertex
 10
57.426459
 20
31.343917
 30
0.0
  0
VERTEX
  5
1BB
330
1B7
100
AcDbEntity
  8
001
370
     9
100
AcDbVertex
100
AcDb2dVertex
 10
57.928863
 20
29.468917
 30
0.0
  0
SEQEND
  5
1B8
330
1B7
100
AcDbEntity
  8
001
370
     9
  0
TEXT
  5
1BC
330
1AC
100
AcDbEntity
  8
001
370
    30
100
AcDbText
 10
56.176459
 20
11.968917
 30
0.0
 40
5.0
  1
%%c２０
 50
90.000003
 41
0.882353
100
AcDbText
  0
POINT
  5
1BD
330
1AC
100
AcDbEntity
  8
001
370
     9
100
AcDbPoint
 10
75.851134
 20
51.343917
 30
0.0
  0
POINT
  5
1BE
330
1AC
100
AcDbEntity
  8
001
370
     9
100
AcDbPoint
 10
75.851134
 20
31.343917
 30
0.0
  0
POINT
  5
1BF
330
1AC
100
AcDbEntity
  8
001
370
     9
100
AcDbPoint
 10
57.426459
 20
31.343917
 30
0.0
  0
LINE
  5
1C0
330
1AC
100
AcDbEntity
  8
001
370
     9
100
AcDbLine
 10
57.426459
 20
51.343917
 30
0.0
 11
57.426459
 21
54.468917
 31
0.0
  0
LINE
  5
1C1
330
1AC
100
AcDbEntity
  8
001
370
     9
100
AcDbLine
 10
57.426459
 20
31.343917
 30
0.0
 11
57.426459
 21
8.218917
 31
0.0
  0
ENDBLK
  5
1AE
330
1AC
100
AcDbEntity
  8
0
100
AcDbBlockEnd
  0
ENDSEC
  0
SECTION
  2
ENTITIES
  0
INSERT
  5
1C2
330
1F
100
AcDbEntity
  8
001
  6
ByBlock
 62
     0
370
    -2
100
AcDbBlockReference
  2
JZB-1
 10
0.0
 20
0.0
 30
0.0
  0
INSERT
  5
1C3
330
1F
100
AcDbEntity
  8
001
  6
ByBlock
 62
     0
370
    -2
100
AcDbBlockReference
  2
JZB-2
 10
0.0
 20
0.0
 30
0.0
  0
INSERT
  5
1C4
330
1F
100
AcDbEntity
  8
001
  6
ByBlock
 62
     0
370
    -2
100
AcDbBlockReference
  2
JZB-3
 10
0.0
 20
0.0
 30
0.0
  0
INSERT
  5
1C5
330
1F
100
AcDbEntity
  8
001
  6
ByBlock
 62
     0
370
    -2
100
AcDbBlockReference
  2
JZB-4
 10
0.0
 20
0.0
 30
0.0
  0
INSERT
  5
1C6
330
1F
100
AcDbEntity
  8
001
  6
ByBlock
 62
     0
370
    -2
100
AcDbBlockReference
  2
JZB-5
 10
0.0
 20
0.0
 30
0.0
  0
DIMENSION
  5
1C7
330
1F
100
AcDbEntity
  8
001
370
     9
100
AcDbDimension
  2
*D6
 10
190.851134
 20
93.795414
 30
0.0
 11
133.351134
 21
97.545414
 31
0.0
 70
   160
 71
     5
 42
-1.0
  3
Standard
100
AcDbAlignedDimension
 13
75.851134
 23
127.002057
 33
0.0
 14
190.851134
 24
124.960605
 34
0.0
100
AcDbRotatedDimension
  0
DIMENSION
  5
1C8
330
1F
100
AcDbEntity
  8
001
370
     9
100
AcDbDimension
  2
*D7
 10
75.851134
 20
106.096477
 30
0.0
 11
90.851134
 21
109.846477
 31
0.0
 70
   160
 71
     5
 42
-1.0
  3
Standard
100
AcDbAlignedDimension
 13
105.851134
 23
119.960605
 33
0.0
 14
75.851134
 24
127.002057
 34
0.0
 50
180.0
100
AcDbRotatedDimension
  0
DIMENSION
  5
1C9
330
1F
100
AcDbEntity
  8
001
370
     9
100
AcDbDimension
  2
*D8
 10
105.851134
 20
106.096477
 30
0.0
 11
108.351134
 21
109.846477
 31
0.0
 70
   160
 71
     5
 42
-1.0
  3
Standard
100
AcDbAlignedDimension
 13
110.851134
 23
119.960605
 33
0.0
 14
105.851134
 24
119.960605
 34
0.0
 50
180.0
100
AcDbRotatedDimension
  0
DIMENSION
  5
1CA
330
1F
100
AcDbEntity
  8
001
370
     9
100
AcDbDimension
  2
*D9
 10
57.087199
 20
122.960605
 30
0.0
 11
53.337199
 21
138.960605
 31
0.0
 70
   160
 71
     5
 42
-1.0
  3
Standard
100
AcDbAlignedDimension
 13
82.119083
 23
154.960605
 33
0.0
 14
82.119083
 24
122.960605
 34
0.0
 50
270.0
100
AcDbRotatedDimension
  0
DIMENSION
  5
1CB
330
1F
100
AcDbEntity
  8
001
370
     9
100
AcDbDimension
  2
*D10
 10
43.613177
 20
118.960605
 30
0.0
 11
39.863177
 21
138.960605
 31
0.0
 70
   160
 71
     5
 42
-1.0
  3
Standard
100
AcDbAlignedDimension
 13
106.851134
 23
158.960605
 33
0.0
 14
106.851134
 24
118.960605
 34
0.0
 50
270.0
100
AcDbRotatedDimension
  0
DIMENSION
  5
1CC
330
1F
100
AcDbEntity
  8
001
370
     9
100
AcDbDimension
  2
*D11
 10
227.317066
 20
122.960605
 30
0.0
 11
223.567066
 21
138.960605
 31
0.0
 70
   160
 71
     5
 42
-1.0
  3
Standard
100
AcDbAlignedDimension
 13
188.851134
 23
154.960605
 33
0.0
 14
188.851134
 24
122.960605
 34
0.0
 50
270.0
100
AcDbRotatedDimension
  0
DIMENSION
  5
1CD
330
1F
100
AcDbEntity
  8
001
370
     9
100
AcDbDimension
  2
*D12
 10
75.851134
 20
70.728253
 30
0.0
 11
81.351134
 21
74.478253
 31
0.0
 70
   160
 71
     5
 42
-1.0
  3
Standard
100
AcDbAlignedDimension
 13
86.851134
 23
63.015105
 33
0.0
 14
75.851134
 24
53.302466
 34
0.0
 50
180.0
100
AcDbRotatedDimension
  0
DIMENSION
  5
1CE
330
1F
100
AcDbEntity
  8
001
370
     9
100
AcDbDimension
  2
*D13
 10
86.851134
 20
70.728253
 30
0.0
 11
93.351134
 21
74.478253
 31
0.0
 70
   160
 71
     5
 42
-1.0
  3
Standard
100
AcDbAlignedDimension
 13
99.851134
 23
63.015105
 33
0.0
 14
86.851134
 24
63.015105
 34
0.0
 50
180.0
100
AcDbRotatedDimension
  0
INSERT
  5
1CF
330
1F
100
AcDbEntity
  8
001
  6
ByBlock
 62
     0
370
    -2
100
AcDbBlockReference
  2
DIM-6
 10
0.0
 20
0.0
 30
0.0
  0
DIMENSION
  5
1D0
330
1F
100
AcDbEntity
  8
001
370
     9
100
AcDbDimension
  2
*D15
 10
284.072028
 20
97.707034
 30
0.0
 11
269.072028
 21
101.457034
 31
0.0
 70
   160
 71
     5
 42
-1.0
  3
Standard
100
AcDbAlignedDimension
 13
254.072028
 23
131.214638
 33
0.0
 14
284.072028
 24
138.960605
 34
0.0
100
AcDbRotatedDimension
  0
DIMENSION
  5
1D1
330
1F
100
AcDbEntity
  8
001
370
     9
100
AcDbDimension
  2
*D16
 10
110.851134
 20
106.096477
 30
0.0
 11
150.851134
 21
109.846477
 31
0.0
 70
   160
 71
     5
 42
-1.0
  3
Standard
100
AcDbAlignedDimension
 13
190.851134
 23
124.960605
 33
0.0
 14
110.851134
 24
119.960605
 34
0.0
 50
180.0
100
AcDbRotatedDimension
  0
DIMENSION
  5
1D2
330
1F
100
AcDbEntity
  8
001
370
     9
100
AcDbDimension
  2
*D17
 10
54.138321
 20
138.960605
 30
0.0
 11
126.699205
 21
163.449045
 31
0.0
 70
    34
 71
     5
 42
-1.0
  3
Standard
100
AcDb2LineAngularDimension
 13
81.619083
 23
154.82663
 33
0.0
 14
54.138321
 24
138.960605
 34
0.0
 15
68.305533
 25
138.960605
 35
0.0
 16
124.488397
 26
157.810851
 36
0.0
  0
DIMENSION
  5
1D3
330
1F
100
AcDbEntity
  8
001
370
     9
100
AcDbDimension
  2
*D18
 10
188.851134
 20
152.960605
 30
0.0
 11
200.053816
 21
165.478713
 31
0.0
 70
   164
 71
     5
 42
-1.0
  3
Standard
100
AcDbRadialDimension
 15
190.483907
 25
154.115617
 35
0.0
 40
0.0
  0
DIMENSION
  5
1D4
330
1F
100
AcDbEntity
  8
001
370
     9
100
AcDbDimension
  2
*D19
 10
75.851134
 20
168.715674
 30
0.0
 11
63.976134
 21
172.465674
 31
0.0
 70
   160
 71
     5
 42
-1.0
  3
Standard
100
AcDbAlignedDimension
 13
81.851134
 23
154.960605
 33
0.0
 14
75.851134
 24
150.919153
 34
0.0
 50
180.0
100
AcDbRotatedDimension
  0
DIMENSION
  5
1D5
330
1F
100
AcDbEntity
  8
001
370
     9
100
AcDbDimension
  2
*D20
 10
82.119083
 20
26.343917
 30
0.0
 11
72.726766
 21
13.606669
 31
0.0
 70
   164
 71
     5
 42
-1.0
  3
Standard
100
AcDbRadialDimension
 15
81.733214
 25
25.421364
 35
0.0
 40
0.0
  0
DIMENSION
  5
1D6
330
1F
100
AcDbEntity
  8
001
370
     9
100
AcDbDimension
  2
*D21
 10
57.426459
 20
31.343917
 30
0.0
 11
53.676458
 21
19.468917
 31
0.0
 70
   160
 71
     5
 42
-1.0
  3
Standard
100
AcDbAlignedDimension
 13
75.851134
 23
51.343917
 33
0.0
 14
75.851134
 24
31.343917
 34
0.0
 50
270.0
100
AcDbRotatedDimension
  0
ARC
  5
1D7
330
1F
100
AcDbEntity
  8
001
 62
   253
370
    50
100
AcDbCircle
 10
109.851134
 20
157.960605
 30
0.0
 40
1.0
100
AcDbArc
 50
0.0
 51
90.0
  0
ARC
  5
1D8
330
1F
100
AcDbEntity
  8
001
 62
   253
370
    50
100
AcDbCircle
 10
109.851134
 20
119.960605
 30
0.0
 40
1.0
100
AcDbArc
 50
270.0
 51
0.0
  0
LINE
  5
1D9
330
1F
100
AcDbEntity
  8
001
 62
   253
370
    50
100
AcDbLine
 10
110.851134
 20
157.960605
 30
0.0
 11
110.851134
 21
119.960605
 31
0.0
  0
ARC
  5
1DA
330
1F
100
AcDbEntity
  8
001
 62
   253
370
    50
100
AcDbCircle
 10
106.851134
 20
119.960605
 30
0.0
 40
1.0
100
AcDbArc
 50
180.0
 51
270.0
  0
ARC
  5
1DB
330
1F
100
AcDbEntity
  8
001
 62
   253
370
    50
100
AcDbCircle
 10
106.851134
 20
157.960605
 30
0.0
 40
1.0
100
AcDbArc
 50
90.0
 51
180.0
  0
LINE
  5
1DC
330
1F
100
AcDbEntity
  8
001
 62
   253
370
    50
100
AcDbLine
 10
105.851134
 20
119.960605
 30
0.0
 11
105.851134
 21
157.960605
 31
0.0
  0
LINE
  5
1DD
330
1F
100
AcDbEntity
  8
001
 62
   253
370
    50
100
AcDbLine
 10
109.851134
 20
158.960605
 30
0.0
 11
106.851134
 21
158.960605
 31
0.0
  0
LINE
  5
1DE
330
1F
100
AcDbEntity
  8
001
 62
   253
370
    50
100
AcDbLine
 10
106.851134
 20
118.960605
 30
0.0
 11
109.851134
 21
118.960605
 31
0.0
  0
POLYLINE
  5
1DF
330
1F
100
AcDbEntity
  8
001
 62
   253
370
    50
100
AcDb2dPolyline
 66
     1
 10
0.0
 20
0.0
 30
0.0
  0
VERTEX
  5
1E1
330
1DF
100
AcDbEntity
  8
001
 62
   253
370
    50
100
AcDbVertex
100
AcDb2dVertex
 10
89.019041
 20
135.296359
 30
0.0
  0
VERTEX
  5
1E2
330
1DF
100
AcDbEntity
  8
001
 62
   253
370
    50
100
AcDbVertex
100
AcDb2dVertex
 10
89.182659
 20
135.400153
 30
0.0
  0
VERTEX
  5
1E3
330
1DF
100
AcDbEntity
  8
001
 62
   253
370
    50
100
AcDbVertex
100
AcDb2dVertex
 10
89.34647
 20
135.513242
 30
0.0
  0
VERTEX
  5
1E4
330
1DF
100
AcDbEntity
  8
001
 62
   253
370
    50
100
AcDbVertex
100
AcDb2dVertex
 10
89.475604
 20
135.613787
 30
0.0
  0
VERTEX
  5
1E5
330
1DF
100
AcDbEntity
  8
001
 62
   253
370
    50
100
AcDbVertex
100
AcDb2dVertex
 10
89.590314
 20
135.712441
 30
0.0
  0
VERTEX
  5
1E6
330
1DF
100
AcDbEntity
  8
001
 62
   253
370
    50
100
AcDbVertex
100
AcDb2dVertex
 10
89.640888
 20
135.76013
 30
0.0
  0
VERTEX
  5
1E7
330
1DF
100
AcDbEntity
  8
001
 62
   253
370
    50
100
AcDbVertex
100
AcDb2dVertex
 10
89.702082
 20
135.822954
 30
0.0
  0
VERTEX
  5
1E8
330
1DF
100
AcDbEntity
  8
001
 62
   253
370
    50
100
AcDbVertex
100
AcDb2dVertex
 10
89.718966
 20
135.841571
 30
0.0
  0
VERTEX
  5
1E9
330
1DF
100
AcDbEntity
  8
001
 62
   253
370
    50
100
AcDbVertex
100
AcDb2dVertex
 10
89.725998
 20
135.853664
 30
0.0
  0
VERTEX
  5
1EA
330
1DF
100
AcDbEntity
  8
001
 62
   253
370
    50
100
AcDbVertex
100
AcDb2dVertex
 10
89.710187
 20
135.851291
 30
0.0
  0
VERTEX
  5
1EB
330
1DF
100
AcDbEntity
  8
001
 62
   253
370
    50
100
AcDbVertex
100
AcDb2dVertex
 10
89.680038
 20
135.837416
 30
0.0
  0
VERTEX
  5
1EC
330
1DF
100
AcDbEntity
  8
001
 62
   253
370
    50
100
AcDbVertex
100
AcDb2dVertex
 10
89.597107
 20
135.787216
 30
0.0
  0
VERTEX
  5
1ED
330
1DF
100
AcDbEntity
  8
001
 62
   253
370
    50
100
AcDbVertex
100
AcDb2dVertex
 10
89.540267
 20
135.741775
 30
0.0
  0
VERTEX
  5
1EE
330
1DF
100
AcDbEntity
  8
001
 62
   253
370
    50
100
AcDbVertex
100
AcDb2dVertex
 10
89.268387
 20
135.569024
 30
0.0
  0
VERTEX
  5
1EF
330
1DF
100
AcDbEntity
  8
001
 62
   253
370
    50
100
AcDbVertex
100
AcDb2dVertex
 10
88.944563
 20
135.414715
 30
0.0
  0
VERTEX
  5
1F0
330
1DF
100
AcDbEntity
  8
001
 62
   253
370
    50
100
AcDbVertex
100
AcDb2dVertex
 10
88.706552
 20
135.317377
 30
0.0
  0
VERTEX
  5
1F1
330
1DF
100
AcDbEntity
  8
001
 62
   253
370
    50
100
AcDbVertex
100
AcDb2dVertex
 10
88.469769
 20
135.237502
 30
0.0
  0
VERTEX
  5
1F2
330
1DF
100
AcDbEntity
  8
001
 62
   253
370
    50
100
AcDbVertex
100
AcDb2dVertex
 10
88.221769
 20
135.17382
 30
0.0
  0
VERTEX
  5
1F3
330
1DF
100
AcDbEntity
  8
001
 62
   253
370
    50
100
AcDbVertex
100
AcDb2dVertex
 10
87.968606
 20
135.119869
 30
0.0
  0
SEQEND
  5
1E0
330
1DF
100
AcDbEntity
  8
001
370
    50
  0
LINE
  5
1F4
330
1F
100
AcDbEntity
  8
001
 62
   253
370
    50
100
AcDbLine
 10
88.607209
 20
135.082103
 30
0.0
 11
88.772914
 21
135.161482
 31
0.0
  0
POLYLINE
  5
1F5
330
1F
100
AcDbEntity
  8
001
 62
   253
370
    50
100
AcDb2dPolyline
 66
     1
 10
0.0
 20
0.0
 30
0.0
  0
VERTEX
  5
1F7
330
1F5
100
AcDbEntity
  8
001
 62
   253
370
    50
100
AcDbVertex
100
AcDb2dVertex
 10
88.772914
 20
135.161482
 30
0.0
  0
VERTEX
  5
1F8
330
1F5
100
AcDbEntity
  8
001
 62
   253
370
    50
100
AcDbVertex
100
AcDb2dVertex
 10
88.782971
 20
135.16659
 30
0.0
  0
VERTEX
  5
1F9
330
1F5
100
AcDbEntity
  8
001
 62
   253
370
    50
100
AcDbVertex
100
AcDb2dVertex
 10
88.793017
 20
135.171718
 30
0.0
  0
VERTEX
  5
1FA
330
1F5
100
AcDbEntity
  8
001
 62
   253
370
    50
100
AcDbVertex
100
AcDb2dVertex
 10
88.872555
 20
135.213819
 30
0.0
  0
VERTEX
  5
1FB
330
1F5
100
AcDbEntity
  8
001
 62
   253
370
    50
100
AcDbVertex
100
AcDb2dVertex
 10
88.951431
 20
135.257183
 30
0.0
  0
SEQEND
  5
1F6
330
1F5
100
AcDbEntity
  8
001
370
    50
  0
LINE
  5
1FC
330
1F
100
AcDbEntity
  8
001
 62
   253
370
    50
100
AcDbLine
 10
88.951431
 20
135.257183
 30
0.0
 11
89.016844
 21
135.295053
 31
0.0
  0
LINE
  5
1FD
330
1F
100
AcDbEntity
  8
001
 62
   253
370
    50
100
AcDbLine
 10
86.42984
 20
134.723969
 30
0.0
 11
86.566994
 21
134.712565
 31
0.0
  0
LINE
  5
1FE
330
1F
100
AcDbEntity
  8
001
 62
   253
370
    50
100
AcDbLine
 10
88.411892
 20
134.999467
 30
0.0
 11
88.690411
 21
135.120861
 31
0.0
  0
POLYLINE
  5
1FF
330
1F
100
AcDbEntity
  8
001
 62
   253
370
    50
100
AcDb2dPolyline
 66
     1
 10
0.0
 20
0.0
 30
0.0
  0
VERTEX
  5
201
330
1FF
100
AcDbEntity
  8
001
 62
   253
370
    50
100
AcDbVertex
100
AcDb2dVertex
 10
86.469998
 20
134.725477
 30
0.0
  0
VERTEX
  5
202
330
1FF
100
AcDbEntity
  8
001
 62
   253
370
    50
100
AcDbVertex
100
AcDb2dVertex
 10
86.350235
 20
134.743332
 30
0.0
  0
VERTEX
  5
203
330
1FF
100
AcDbEntity
  8
001
 62
   253
370
    50
100
AcDbVertex
100
AcDb2dVertex
 10
86.231129
 20
134.764522
 30
0.0
  0
VERTEX
  5
204
330
1FF
100
AcDbEntity
  8
001
 62
   253
370
    50
100
AcDbVertex
100
AcDb2dVertex
 10
86.170674
 20
134.777823
 30
0.0
  0
VERTEX
  5
205
330
1FF
100
AcDbEntity
  8
001
 62
   253
370
    50
100
AcDbVertex
100
AcDb2dVertex
 10
86.1108
 20
134.793851
 30
0.0
  0
VERTEX
  5
206
330
1FF
100
AcDbEntity
  8
001
 62
   253
370
    50
100
AcDbVertex
100
AcDb2dVertex
 10
86.052522
 20
134.813573
 30
0.0
  0
VERTEX
  5
207
330
1FF
100
AcDbEntity
  8
001
 62
   253
370
    50
100
AcDbVertex
100
AcDb2dVertex
 10
85.996708
 20
134.83902
 30
0.0
  0
VERTEX
  5
208
330
1FF
100
AcDbEntity
  8
001
 62
   253
370
    50
100
AcDbVertex
100
AcDb2dVertex
 10
85.982534
 20
134.846921
 30
0.0
  0
VERTEX
  5
209
330
1FF
100
AcDbEntity
  8
001
 62
   253
370
    50
100
AcDbVertex
100
AcDb2dVertex
 10
85.968505
 20
134.855096
 30
0.0
  0
SEQEND
  5
200
330
1FF
100
AcDbEntity
  8
001
370
    50
  0
LINE
  5
20A
330
1F
100
AcDbEntity
  8
001
 62
   253
370
    50
100
AcDbLine
 10
88.577148
 20
135.071293
 30
0.0
 11
88.763378
 21
135.157742
 31
0.0
  0
POLYLINE
  5
20B
330
1F
100
AcDbEntity
  8
001
 62
   253
370
    50
100
AcDb2dPolyline
 66
     1
 10
0.0
 20
0.0
 30
0.0
  0
VERTEX
  5
20D
330
20B
100
AcDbEntity
  8
001
 62
   253
370
    50
100
AcDbVertex
100
AcDb2dVertex
 10
88.763378
 20
135.157742
 30
0.0
  0
VERTEX
  5
20E
330
20B
100
AcDbEntity
  8
001
 62
   253
370
    50
100
AcDbVertex
100
AcDb2dVertex
 10
88.786572
 20
135.169357
 30
0.0
  0
VERTEX
  5
20F
330
20B
100
AcDbEntity
  8
001
 62
   253
370
    50
100
AcDbVertex
100
AcDb2dVertex
 10
88.809708
 20
135.181084
 30
0.0
  0
VERTEX
  5
210
330
20B
100
AcDbEntity
  8
001
 62
   253
370
    50
100
AcDbVertex
100
AcDb2dVertex
 10
88.881688
 20
135.219111
 30
0.0
  0
VERTEX
  5
211
330
20B
100
AcDbEntity
  8
001
 62
   253
370
    50
100
AcDbVertex
100
AcDb2dVertex
 10
88.953089
 20
135.258247
 30
0.0
  0
SEQEND
  5
20C
330
20B
100
AcDbEntity
  8
001
370
    50
  0
LINE
  5
212
330
1F
100
AcDbEntity
  8
001
 62
   253
370
    50
100
AcDbLine
 10
88.953089
 20
135.258247
 30
0.0
 11
89.019041
 21
135.296359
 31
0.0
  0
POLYLINE
  5
213
330
1F
100
AcDbEntity
  8
001
 62
   253
370
    50
100
AcDb2dPolyline
 66
     1
 10
0.0
 20
0.0
 30
0.0
  0
VERTEX
  5
215
330
213
100
AcDbEntity
  8
001
 62
   253
370
    50
100
AcDbVertex
100
AcDb2dVertex
 10
88.577148
 20
135.071293
 30
0.0
  0
VERTEX
  5
216
330
213
100
AcDbEntity
  8
001
 62
   253
370
    50
100
AcDbVertex
100
AcDb2dVertex
 10
88.377766
 20
134.989374
 30
0.0
  0
VERTEX
  5
217
330
213
100
AcDbEntity
  8
001
 62
   253
370
    50
100
AcDbVertex
100
AcDb2dVertex
 10
88.175916
 20
134.91445
 30
0.0
  0
VERTEX
  5
218
330
213
100
AcDbEntity
  8
001
 62
   253
370
    50
100
AcDbVertex
100
AcDb2dVertex
 10
87.966726
 20
134.851188
 30
0.0
  0
VERTEX
  5
219
330
213
100
AcDbEntity
  8
001
 62
   253
370
    50
100
AcDbVertex
100
AcDb2dVertex
 10
87.753971
 20
134.800224
 30
0.0
  0
VERTEX
  5
21A
330
213
100
AcDbEntity
  8
001
 62
   253
370
    50
100
AcDbVertex
100
AcDb2dVertex
 10
87.4509
 20
134.746353
 30
0.0
  0
VERTEX
  5
21B
330
213
100
AcDbEntity
  8
001
 62
   253
370
    50
100
AcDbVertex
100
AcDb2dVertex
 10
87.144917
 20
134.713262
 30
0.0
  0
VERTEX
  5
21C
330
213
100
AcDbEntity
  8
001
 62
   253
370
    50
100
AcDbVertex
100
AcDb2dVertex
 10
86.97682
 20
134.70445
 30
0.0
  0
VERTEX
  5
21D
330
213
100
AcDbEntity
  8
001
 62
   253
370
    50
100
AcDbVertex
100
AcDb2dVertex
 10
86.808628
 20
134.703812
 30
0.0
  0
VERTEX
  5
21E
330
213
100
AcDbEntity
  8
001
 62
   253
370
    50
100
AcDbVertex
100
AcDb2dVertex
 10
86.639227
 20
134.712112
 30
0.0
  0
VERTEX
  5
21F
330
213
100
AcDbEntity
  8
001
 62
   253
370
    50
100
AcDbVertex
100
AcDb2dVertex
 10
86.469998
 20
134.725477
 30
0.0
  0
SEQEND
  5
214
330
213
100
AcDbEntity
  8
001
370
    50
  0
LINE
  5
220
330
1F
100
AcDbEntity
  8
001
 62
   253
370
    50
100
AcDbLine
 10
82.948641
 20
139.838416
 30
0.0
 11
82.917231
 21
139.70778
 31
0.0
  0
POLYLINE
  5
221
330
1F
100
AcDbEntity
  8
001
 62
   253
370
    50
100
AcDb2dPolyline
 66
     1
 10
0.0
 20
0.0
 30
0.0
  0
VERTEX
  5
223
330
221
100
AcDbEntity
  8
001
 62
   253
370
    50
100
AcDbVertex
100
AcDb2dVertex
 10
82.903204
 20
139.642211
 30
0.0
  0
VERTEX
  5
224
330
221
100
AcDbEntity
  8
001
 62
   253
370
    50
100
AcDbVertex
100
AcDb2dVertex
 10
82.871807
 20
139.463728
 30
0.0
  0
VERTEX
  5
225
330
221
100
AcDbEntity
  8
001
 62
   253
370
    50
100
AcDbVertex
100
AcDb2dVertex
 10
82.846496
 20
139.284568
 30
0.0
  0
VERTEX
  5
226
330
221
100
AcDbEntity
  8
001
 62
   253
370
    50
100
AcDbVertex
100
AcDb2dVertex
 10
82.830762
 20
139.093851
 30
0.0
  0
VERTEX
  5
227
330
221
100
AcDbEntity
  8
001
 62
   253
370
    50
100
AcDbVertex
100
AcDb2dVertex
 10
82.821835
 20
138.902375
 30
0.0
  0
SEQEND
  5
222
330
221
100
AcDbEntity
  8
001
370
    50
  0
POLYLINE
  5
228
330
1F
100
AcDbEntity
  8
001
 62
   253
370
    50
100
AcDb2dPolyline
 66
     1
 10
0.0
 20
0.0
 30
0.0
  0
VERTEX
  5
22A
330
228
100
AcDbEntity
  8
001
 62
   253
370
    50
100
AcDbVertex
100
AcDb2dVertex
 10
82.821835
 20
138.902375
 30
0.0
  0
VERTEX
  5
22B
330
228
100
AcDbEntity
  8
001
 62
   253
370
    50
100
AcDbVertex
100
AcDb2dVertex
 10
82.821862
 20
138.806364
 30
0.0
  0
VERTEX
  5
22C
330
228
100
AcDbEntity
  8
001
 62
   253
370
    50
100
AcDbVertex
100
AcDb2dVertex
 10
82.823177
 20
138.710368
 30
0.0
  0
VERTEX
  5
22D
330
228
100
AcDbEntity
  8
001
 62
   253
370
    50
100
AcDbVertex
100
AcDb2dVertex
 10
82.846598
 20
138.377717
 30
0.0
  0
VERTEX
  5
22E
330
228
100
AcDbEntity
  8
001
 62
   253
370
    50
100
AcDbVertex
100
AcDb2dVertex
 10
82.89861
 20
138.047983
 30
0.0
  0
VERTEX
  5
22F
330
228
100
AcDbEntity
  8
001
 62
   253
370
    50
100
AcDbVertex
100
AcDb2dVertex
 10
82.97973
 20
137.714529
 30
0.0
  0
VERTEX
  5
230
330
228
100
AcDbEntity
  8
001
 62
   253
370
    50
100
AcDbVertex
100
AcDb2dVertex
 10
83.088308
 20
137.38913
 30
0.0
  0
VERTEX
  5
231
330
228
100
AcDbEntity
  8
001
 62
   253
370
    50
100
AcDbVertex
100
AcDb2dVertex
 10
83.221409
 20
137.079435
 30
0.0
  0
VERTEX
  5
232
330
228
100
AcDbEntity
  8
001
 62
   253
370
    50
100
AcDbVertex
100
AcDb2dVertex
 10
83.37967
 20
136.781761
 30
0.0
  0
VERTEX
  5
233
330
228
100
AcDbEntity
  8
001
 62
   253
370
    50
100
AcDbVertex
100
AcDb2dVertex
 10
83.567382
 20
136.49028
 30
0.0
  0
VERTEX
  5
234
330
228
100
AcDbEntity
  8
001
 62
   253
370
    50
100
AcDbVertex
100
AcDb2dVertex
 10
83.778953
 20
136.215607
 30
0.0
  0
VERTEX
  5
235
330
228
100
AcDbEntity
  8
001
 62
   253
370
    50
100
AcDbVertex
100
AcDb2dVertex
 10
84.008572
 20
135.963989
 30
0.0
  0
VERTEX
  5
236
330
228
100
AcDbEntity
  8
001
 62
   253
370
    50
100
AcDbVertex
100
AcDb2dVertex
 10
84.258195
 20
135.732327
 30
0.0
  0
VERTEX
  5
237
330
228
100
AcDbEntity
  8
001
 62
   253
370
    50
100
AcDbVertex
100
AcDb2dVertex
 10
84.533986
 20
135.516575
 30
0.0
  0
VERTEX
  5
238
330
228
100
AcDbEntity
  8
001
 62
   253
370
    50
100
AcDbVertex
100
AcDb2dVertex
 10
84.82681
 20
135.324133
 30
0.0
  0
VERTEX
  5
239
330
228
100
AcDbEntity
  8
001
 62
   253
370
    50
100
AcDbVertex
100
AcDb2dVertex
 10
85.095063
 20
135.175829
 30
0.0
  0
VERTEX
  5
23A
330
228
100
AcDbEntity
  8
001
 62
   253
370
    50
100
AcDbVertex
100
AcDb2dVertex
 10
85.373914
 20
135.049833
 30
0.0
  0
VERTEX
  5
23B
330
228
100
AcDbEntity
  8
001
 62
   253
370
    50
100
AcDbVertex
100
AcDb2dVertex
 10
85.668585
 20
134.945504
 30
0.0
  0
VERTEX
  5
23C
330
228
100
AcDbEntity
  8
001
 62
   253
370
    50
100
AcDbVertex
100
AcDb2dVertex
 10
85.968505
 20
134.855096
 30
0.0
  0
SEQEND
  5
229
330
228
100
AcDbEntity
  8
001
370
    50
  0
POLYLINE
  5
23D
330
1F
100
AcDbEntity
  8
001
 62
   253
370
    50
100
AcDb2dPolyline
 66
     1
 10
0.0
 20
0.0
 30
0.0
  0
VERTEX
  5
23F
330
23D
100
AcDbEntity
  8
001
 62
   253
370
    50
100
AcDbVertex
100
AcDb2dVertex
 10
102.019041
 20
135.296359
 30
0.0
  0
VERTEX
  5
240
330
23D
100
AcDbEntity
  8
001
 62
   253
370
    50
100
AcDbVertex
100
AcDb2dVertex
 10
102.182659
 20
135.400153
 30
0.0
  0
VERTEX
  5
241
330
23D
100
AcDbEntity
  8
001
 62
   253
370
    50
100
AcDbVertex
100
AcDb2dVertex
 10
102.34647
 20
135.513242
 30
0.0
  0
VERTEX
  5
242
330
23D
100
AcDbEntity
  8
001
 62
   253
370
    50
100
AcDbVertex
100
AcDb2dVertex
 10
102.475604
 20
135.613787
 30
0.0
  0
VERTEX
  5
243
330
23D
100
AcDbEntity
  8
001
 62
   253
370
    50
100
AcDbVertex
100
AcDb2dVertex
 10
102.590314
 20
135.712441
 30
0.0
  0
VERTEX
  5
244
330
23D
100
AcDbEntity
  8
001
 62
   253
370
    50
100
AcDbVertex
100
AcDb2dVertex
 10
102.640888
 20
135.76013
 30
0.0
  0
VERTEX
  5
245
330
23D
100
AcDbEntity
  8
001
 62
   253
370
    50
100
AcDbVertex
100
AcDb2dVertex
 10
102.702082
 20
135.822954
 30
0.0
  0
VERTEX
  5
246
330
23D
100
AcDbEntity
  8
001
 62
   253
370
    50
100
AcDbVertex
100
AcDb2dVertex
 10
102.718966
 20
135.841571
 30
0.0
  0
VERTEX
  5
247
330
23D
100
AcDbEntity
  8
001
 62
   253
370
    50
100
AcDbVertex
100
AcDb2dVertex
 10
102.725998
 20
135.853664
 30
0.0
  0
VERTEX
  5
248
330
23D
100
AcDbEntity
  8
001
 62
   253
370
    50
100
AcDbVertex
100
AcDb2dVertex
 10
102.710187
 20
135.851291
 30
0.0
  0
VERTEX
  5
249
330
23D
100
AcDbEntity
  8
001
 62
   253
370
    50
100
AcDbVertex
100
AcDb2dVertex
 10
102.680038
 20
135.837416
 30
0.0
  0
VERTEX
  5
24A
330
23D
100
AcDbEntity
  8
001
 62
   253
370
    50
100
AcDbVertex
100
AcDb2dVertex
 10
102.597107
 20
135.787216
 30
0.0
  0
VERTEX
  5
24B
330
23D
100
AcDbEntity
  8
001
 62
   253
370
    50
100
AcDbVertex
100
AcDb2dVertex
 10
102.540267
 20
135.741775
 30
0.0
  0
VERTEX
  5
24C
330
23D
100
AcDbEntity
  8
001
 62
   253
370
    50
100
AcDbVertex
100
AcDb2dVertex
 10
102.268387
 20
135.569024
 30
0.0
  0
VERTEX
  5
24D
330
23D
100
AcDbEntity
  8
001
 62
   253
370
    50
100
AcDbVertex
100
AcDb2dVertex
 10
101.944563
 20
135.414715
 30
0.0
  0
VERTEX
  5
24E
330
23D
100
AcDbEntity
  8
001
 62
   253
370
    50
100
AcDbVertex
100
AcDb2dVertex
 10
101.706552
 20
135.317377
 30
0.0
  0
VERTEX
  5
24F
330
23D
100
AcDbEntity
  8
001
 62
   253
370
    50
100
AcDbVertex
100
AcDb2dVertex
 10
101.469769
 20
135.237502
 30
0.0
  0
VERTEX
  5
250
330
23D
100
AcDbEntity
  8
001
 62
   253
370
    50
100
AcDbVertex
100
AcDb2dVertex
 10
101.221769
 20
135.17382
 30
0.0
  0
VERTEX
  5
251
330
23D
100
AcDbEntity
  8
001
 62
   253
370
    50
100
AcDbVertex
100
AcDb2dVertex
 10
100.968606
 20
135.119869
 30
0.0
  0
SEQEND
  5
23E
330
23D
100
AcDbEntity
  8
001
370
    50
  0
LINE
  5
252
330
1F
100
AcDbEntity
  8
001
 62
   253
370
    50
100
AcDbLine
 10
101.607209
 20
135.082103
 30
0.0
 11
101.772914
 21
135.161482
 31
0.0
  0
POLYLINE
  5
253
330
1F
100
AcDbEntity
  8
001
 62
   253
370
    50
100
AcDb2dPolyline
 66
     1
 10
0.0
 20
0.0
 30
0.0
  0
VERTEX
  5
255
330
253
100
AcDbEntity
  8
001
 62
   253
370
    50
100
AcDbVertex
100
AcDb2dVertex
 10
101.772914
 20
135.161482
 30
0.0
  0
VERTEX
  5
256
330
253
100
AcDbEntity
  8
001
 62
   253
370
    50
100
AcDbVertex
100
AcDb2dVertex
 10
101.782971
 20
135.16659
 30
0.0
  0
VERTEX
  5
257
330
253
100
AcDbEntity
  8
001
 62
   253
370
    50
100
AcDbVertex
100
AcDb2dVertex
 10
101.793017
 20
135.171718
 30
0.0
  0
VERTEX
  5
258
330
253
100
AcDbEntity
  8
001
 62
   253
370
    50
100
AcDbVertex
100
AcDb2dVertex
 10
101.872555
 20
135.213819
 30
0.0
  0
VERTEX
  5
259
330
253
100
AcDbEntity
  8
001
 62
   253
370
    50
100
AcDbVertex
100
AcDb2dVertex
 10
101.951431
 20
135.257183
 30
0.0
  0
SEQEND
  5
254
330
253
100
AcDbEntity
  8
001
370
    50
  0
LINE
  5
25A
330
1F
100
AcDbEntity
  8
001
 62
   253
370
    50
100
AcDbLine
 10
101.951431
 20
135.257183
 30
0.0
 11
102.016844
 21
135.295053
 31
0.0
  0
LINE
  5
25B
330
1F
100
AcDbEntity
  8
001
 62
   253
370
    50
100
AcDbLine
 10
99.42984
 20
134.723969
 30
0.0
 11
99.566994
 21
134.712565
 31
0.0
  0
LINE
  5
25C
330
1F
100
AcDbEntity
  8
001
 62
   253
370
    50
100
AcDbLine
 10
101.411892
 20
134.999467
 30
0.0
 11
101.690411
 21
135.120861
 31
0.0
  0
POLYLINE
  5
25D
330
1F
100
AcDbEntity
  8
001
 62
   253
370
    50
100
AcDb2dPolyline
 66
     1
 10
0.0
 20
0.0
 30
0.0
  0
VERTEX
  5
25F
330
25D
100
AcDbEntity
  8
001
 62
   253
370
    50
100
AcDbVertex
100
AcDb2dVertex
 10
99.469998
 20
134.725477
 30
0.0
  0
VERTEX
  5
260
330
25D
100
AcDbEntity
  8
001
 62
   253
370
    50
100
AcDbVertex
100
AcDb2dVertex
 10
99.350235
 20
134.743332
 30
0.0
  0
VERTEX
  5
261
330
25D
100
AcDbEntity
  8
001
 62
   253
370
    50
100
AcDbVertex
100
AcDb2dVertex
 10
99.231129
 20
134.764522
 30
0.0
  0
VERTEX
  5
262
330
25D
100
AcDbEntity
  8
001
 62
   253
370
    50
100
AcDbVertex
100
AcDb2dVertex
 10
99.170674
 20
134.777823
 30
0.0
  0
VERTEX
  5
263
330
25D
100
AcDbEntity
  8
001
 62
   253
370
    50
100
AcDbVertex
100
AcDb2dVertex
 10
99.1108
 20
134.793851
 30
0.0
  0
VERTEX
  5
264
330
25D
100
AcDbEntity
  8
001
 62
   253
370
    50
100
AcDbVertex
100
AcDb2dVertex
 10
99.052522
 20
134.813573
 30
0.0
  0
VERTEX
  5
265
330
25D
100
AcDbEntity
  8
001
 62
   253
370
    50
100
AcDbVertex
100
AcDb2dVertex
 10
98.996708
 20
134.83902
 30
0.0
  0
VERTEX
  5
266
330
25D
100
AcDbEntity
  8
001
 62
   253
370
    50
100
AcDbVertex
100
AcDb2dVertex
 10
98.982534
 20
134.846921
 30
0.0
  0
VERTEX
  5
267
330
25D
100
AcDbEntity
  8
001
 62
   253
370
    50
100
AcDbVertex
100
AcDb2dVertex
 10
98.968505
 20
134.855096
 30
0.0
  0
SEQEND
  5
25E
330
25D
100
AcDbEntity
  8
001
370
    50
  0
POLYLINE
  5
268
330
1F
100
AcDbEntity
  8
001
 62
   253
370
    50
100
AcDb2dPolyline
 66
     1
 10
0.0
 20
0.0
 30
0.0
  0
VERTEX
  5
26A
330
268
100
AcDbEntity
  8
001
 62
   253
370
    50
100
AcDbVertex
100
AcDb2dVertex
 10
100.968606
 20
135.119869
 30
0.0
  0
VERTEX
  5
26B
330
268
100
AcDbEntity
  8
001
 62
   253
370
    50
100
AcDbVertex
100
AcDb2dVertex
 10
100.943764
 20
135.112749
 30
0.0
  0
VERTEX
  5
26C
330
268
100
AcDbEntity
  8
001
 62
   253
370
    50
100
AcDbVertex
100
AcDb2dVertex
 10
100.918888
 20
135.105751
 30
0.0
  0
VERTEX
  5
26D
330
268
100
AcDbEntity
  8
001
 62
   253
370
    50
100
AcDbVertex
100
AcDb2dVertex
 10
100.893955
 20
135.098953
 30
0.0
  0
VERTEX
  5
26E
330
268
100
AcDbEntity
  8
001
 62
   253
370
    50
100
AcDbVertex
100
AcDb2dVertex
 10
100.868988
 20
135.092276
 30
0.0
  0
SEQEND
  5
269
330
268
100
AcDbEntity
  8
001
370
    50
  0
LINE
  5
26F
330
1F
100
AcDbEntity
  8
001
 62
   253
370
    50
100
AcDbLine
 10
101.577148
 20
135.071293
 30
0.0
 11
101.763378
 21
135.157742
 31
0.0
  0
POLYLINE
  5
270
330
1F
100
AcDbEntity
  8
001
 62
   253
370
    50
100
AcDb2dPolyline
 66
     1
 10
0.0
 20
0.0
 30
0.0
  0
VERTEX
  5
272
330
270
100
AcDbEntity
  8
001
 62
   253
370
    50
100
AcDbVertex
100
AcDb2dVertex
 10
101.763378
 20
135.157742
 30
0.0
  0
VERTEX
  5
273
330
270
100
AcDbEntity
  8
001
 62
   253
370
    50
100
AcDbVertex
100
AcDb2dVertex
 10
101.786572
 20
135.169357
 30
0.0
  0
VERTEX
  5
274
330
270
100
AcDbEntity
  8
001
 62
   253
370
    50
100
AcDbVertex
100
AcDb2dVertex
 10
101.809708
 20
135.181084
 30
0.0
  0
VERTEX
  5
275
330
270
100
AcDbEntity
  8
001
 62
   253
370
    50
100
AcDbVertex
100
AcDb2dVertex
 10
101.881688
 20
135.219111
 30
0.0
  0
VERTEX
  5
276
330
270
100
AcDbEntity
  8
001
 62
   253
370
    50
100
AcDbVertex
100
AcDb2dVertex
 10
101.953089
 20
135.258247
 30
0.0
  0
SEQEND
  5
271
330
270
100
AcDbEntity
  8
001
370
    50
  0
LINE
  5
277
330
1F
100
AcDbEntity
  8
001
 62
   253
370
    50
100
AcDbLine
 10
101.953089
 20
135.258247
 30
0.0
 11
102.019041
 21
135.296359
 31
0.0
  0
POLYLINE
  5
278
330
1F
100
AcDbEntity
  8
001
 62
   253
370
    50
100
AcDb2dPolyline
 66
     1
 10
0.0
 20
0.0
 30
0.0
  0
VERTEX
  5
27A
330
278
100
AcDbEntity
  8
001
 62
   253
370
    50
100
AcDbVertex
100
AcDb2dVertex
 10
101.577148
 20
135.071293
 30
0.0
  0
VERTEX
  5
27B
330
278
100
AcDbEntity
  8
001
 62
   253
370
    50
100
AcDbVertex
100
AcDb2dVertex
 10
101.377766
 20
134.989374
 30
0.0
  0
VERTEX
  5
27C
330
278
100
AcDbEntity
  8
001
 62
   253
370
    50
100
AcDbVertex
100
AcDb2dVertex
 10
101.175916
 20
134.91445
 30
0.0
  0
VERTEX
  5
27D
330
278
100
AcDbEntity
  8
001
 62
   253
370
    50
100
AcDbVertex
100
AcDb2dVertex
 10
100.966726
 20
134.851188
 30
0.0
  0
VERTEX
  5
27E
330
278
100
AcDbEntity
  8
001
 62
   253
370
    50
100
AcDbVertex
100
AcDb2dVertex
 10
100.753971
 20
134.800224
 30
0.0
  0
VERTEX
  5
27F
330
278
100
AcDbEntity
  8
001
 62
   253
370
    50
100
AcDbVertex
100
AcDb2dVertex
 10
100.4509
 20
134.746353
 30
0.0
  0
VERTEX
  5
280
330
278
100
AcDbEntity
  8
001
 62
   253
370
    50
100
AcDbVertex
100
AcDb2dVertex
 10
100.144917
 20
134.713262
 30
0.0
  0
VERTEX
  5
281
330
278
100
AcDbEntity
  8
001
 62
   253
370
    50
100
AcDbVertex
100
AcDb2dVertex
 10
99.97682
 20
134.70445
 30
0.0
  0
VERTEX
  5
282
330
278
100
AcDbEntity
  8
001
 62
   253
370
    50
100
AcDbVertex
100
AcDb2dVertex
 10
99.808628
 20
134.703812
 30
0.0
  0
VERTEX
  5
283
330
278
100
AcDbEntity
  8
001
 62
   253
370
    50
100
AcDbVertex
100
AcDb2dVertex
 10
99.639227
 20
134.712112
 30
0.0
  0
VERTEX
  5
284
330
278
100
AcDbEntity
  8
001
 62
   253
370
    50
100
AcDbVertex
100
AcDb2dVertex
 10
99.469998
 20
134.725477
 30
0.0
  0
SEQEND
  5
279
330
278
100
AcDbEntity
  8
001
370
    50
  0
LINE
  5
285
330
1F
100
AcDbEntity
  8
001
 62
   253
370
    50
100
AcDbLine
 10
95.948641
 20
139.838416
 30
0.0
 11
95.917231
 21
139.70778
 31
0.0
  0
LINE
  5
286
330
1F
100
AcDbEntity
  8
001
 62
   253
370
    50
100
AcDbLine
 10
95.917231
 20
139.70778
 30
0.0
 11
95.903204
 21
139.642211
 31
0.0
  0
POLYLINE
  5
287
330
1F
100
AcDbEntity
  8
001
 62
   253
370
    50
100
AcDb2dPolyline
 66
     1
 10
0.0
 20
0.0
 30
0.0
  0
VERTEX
  5
289
330
287
100
AcDbEntity
  8
001
 62
   253
370
    50
100
AcDbVertex
100
AcDb2dVertex
 10
95.903204
 20
139.642211
 30
0.0
  0
VERTEX
  5
28A
330
287
100
AcDbEntity
  8
001
 62
   253
370
    50
100
AcDbVertex
100
AcDb2dVertex
 10
95.871807
 20
139.463728
 30
0.0
  0
VERTEX
  5
28B
330
287
100
AcDbEntity
  8
001
 62
   253
370
    50
100
AcDbVertex
100
AcDb2dVertex
 10
95.846496
 20
139.284568
 30
0.0
  0
VERTEX
  5
28C
330
287
100
AcDbEntity
  8
001
 62
   253
370
    50
100
AcDbVertex
100
AcDb2dVertex
 10
95.830762
 20
139.093851
 30
0.0
  0
VERTEX
  5
28D
330
287
100
AcDbEntity
  8
001
 62
   253
370
    50
100
AcDbVertex
100
AcDb2dVertex
 10
95.821835
 20
138.902375
 30
0.0
  0
SEQEND
  5
288
330
287
100
AcDbEntity
  8
001
370
    50
  0
POLYLINE
  5
28E
330
1F
100
AcDbEntity
  8
001
 62
   253
370
    50
100
AcDb2dPolyline
 66
     1
 10
0.0
 20
0.0
 30
0.0
  0
VERTEX
  5
290
330
28E
100
AcDbEntity
  8
001
 62
   253
370
    50
100
AcDbVertex
100
AcDb2dVertex
 10
95.821835
 20
138.902375
 30
0.0
  0
VERTEX
  5
291
330
28E
100
AcDbEntity
  8
001
 62
   253
370
    50
100
AcDbVertex
100
AcDb2dVertex
 10
95.821862
 20
138.806364
 30
0.0
  0
VERTEX
  5
292
330
28E
100
AcDbEntity
  8
001
 62
   253
370
    50
100
AcDbVertex
100
AcDb2dVertex
 10
95.823177
 20
138.710368
 30
0.0
  0
VERTEX
  5
293
330
28E
100
AcDbEntity
  8
001
 62
   253
370
    50
100
AcDbVertex
100
AcDb2dVertex
 10
95.846598
 20
138.377717
 30
0.0
  0
VERTEX
  5
294
330
28E
100
AcDbEntity
  8
001
 62
   253
370
    50
100
AcDbVertex
100
AcDb2dVertex
 10
95.89861
 20
138.047983
 30
0.0
  0
VERTEX
  5
295
330
28E
100
AcDbEntity
  8
001
 62
   253
370
    50
100
AcDbVertex
100
AcDb2dVertex
 10
95.97973
 20
137.714529
 30
0.0
  0
VERTEX
  5
296
330
28E
100
AcDbEntity
  8
001
 62
   253
370
    50
100
AcDbVertex
100
AcDb2dVertex
 10
96.088308
 20
137.38913
 30
0.0
  0
VERTEX
  5
297
330
28E
100
AcDbEntity
  8
001
 62
   253
370
    50
100
AcDbVertex
100
AcDb2dVertex
 10
96.221409
 20
137.079435
 30
0.0
  0
VERTEX
  5
298
330
28E
100
AcDbEntity
  8
001
 62
   253
370
    50
100
AcDbVertex
100
AcDb2dVertex
 10
96.37967
 20
136.781761
 30
0.0
  0
VERTEX
  5
299
330
28E
100
AcDbEntity
  8
001
 62
   253
370
    50
100
AcDbVertex
100
AcDb2dVertex
 10
96.567382
 20
136.49028
 30
0.0
  0
VERTEX
  5
29A
330
28E
100
AcDbEntity
  8
001
 62
   253
370
    50
100
AcDbVertex
100
AcDb2dVertex
 10
96.778953
 20
136.215607
 30
0.0
  0
VERTEX
  5
29B
330
28E
100
AcDbEntity
  8
001
 62
   253
370
    50
100
AcDbVertex
100
AcDb2dVertex
 10
97.008572
 20
135.963989
 30
0.0
  0
VERTEX
  5
29C
330
28E
100
AcDbEntity
  8
001
 62
   253
370
    50
100
AcDbVertex
100
AcDb2dVertex
 10
97.258195
 20
135.732327
 30
0.0
  0
VERTEX
  5
29D
330
28E
100
AcDbEntity
  8
001
 62
   253
370
    50
100
AcDbVertex
100
AcDb2dVertex
 10
97.533986
 20
135.516575
 30
0.0
  0
VERTEX
  5
29E
330
28E
100
AcDbEntity
  8
001
 62
   253
370
    50
100
AcDbVertex
100
AcDb2dVertex
 10
97.82681
 20
135.324133
 30
0.0
  0
VERTEX
  5
29F
330
28E
100
AcDbEntity
  8
001
 62
   253
370
    50
100
AcDbVertex
100
AcDb2dVertex
 10
98.095063
 20
135.175829
 30
0.0
  0
VERTEX
  5
2A0
330
28E
100
AcDbEntity
  8
001
 62
   253
370
    50
100
AcDbVertex
100
AcDb2dVertex
 10
98.373914
 20
135.049833
 30
0.0
  0
VERTEX
  5
2A1
330
28E
100
AcDbEntity
  8
001
 62
   253
370
    50
100
AcDbVertex
100
AcDb2dVertex
 10
98.668585
 20
134.945504
 30
0.0
  0
VERTEX
  5
2A2
330
28E
100
AcDbEntity
  8
001
 62
   253
370
    50
100
AcDbVertex
100
AcDb2dVertex
 10
98.968505
 20
134.855096
 30
0.0
  0
SEQEND
  5
28F
330
28E
100
AcDbEntity
  8
001
370
    50
  0
POLYLINE
  5
2A3
330
1F
100
AcDbEntity
  8
001
 62
   253
370
    50
100
AcDb2dPolyline
 66
     1
 10
0.0
 20
0.0
 30
0.0
  0
VERTEX
  5
2A5
330
2A3
100
AcDbEntity
  8
001
 62
   253
370
    50
100
AcDbVertex
100
AcDb2dVertex
 10
82.119083
 20
138.813645
 30
0.0
  0
VERTEX
  5
2A6
330
2A3
100
AcDbEntity
  8
001
 62
   253
370
    50
100
AcDbVertex
100
AcDb2dVertex
 10
82.125358
 20
138.709873
 30
0.0
  0
VERTEX
  5
2A7
330
2A3
100
AcDbEntity
  8
001
 62
   253
370
    50
100
AcDbVertex
100
AcDb2dVertex
 10
82.133342
 20
138.606237
 30
0.0
  0
VERTEX
  5
2A8
330
2A3
100
AcDbEntity
  8
001
 62
   253
370
    50
100
AcDbVertex
100
AcDb2dVertex
 10
82.174618
 20
138.30655
 30
0.0
  0
VERTEX
  5
2A9
330
2A3
100
AcDbEntity
  8
001
 62
   253
370
    50
100
AcDbVertex
100
AcDb2dVertex
 10
82.241486
 20
138.01116
 30
0.0
  0
VERTEX
  5
2AA
330
2A3
100
AcDbEntity
  8
001
 62
   253
370
    50
100
AcDbVertex
100
AcDb2dVertex
 10
82.33101
 20
137.722437
 30
0.0
  0
VERTEX
  5
2AB
330
2A3
100
AcDbEntity
  8
001
 62
   253
370
    50
100
AcDbVertex
100
AcDb2dVertex
 10
82.442701
 20
137.441733
 30
0.0
  0
VERTEX
  5
2AC
330
2A3
100
AcDbEntity
  8
001
 62
   253
370
    50
100
AcDbVertex
100
AcDb2dVertex
 10
82.579466
 20
137.164731
 30
0.0
  0
VERTEX
  5
2AD
330
2A3
100
AcDbEntity
  8
001
 62
   253
370
    50
100
AcDbVertex
100
AcDb2dVertex
 10
82.737392
 20
136.899111
 30
0.0
  0
VERTEX
  5
2AE
330
2A3
100
AcDbEntity
  8
001
 62
   253
370
    50
100
AcDbVertex
100
AcDb2dVertex
 10
82.914379
 20
136.646365
 30
0.0
  0
VERTEX
  5
2AF
330
2A3
100
AcDbEntity
  8
001
 62
   253
370
    50
100
AcDbVertex
100
AcDb2dVertex
 10
83.109343
 20
136.407269
 30
0.0
  0
VERTEX
  5
2B0
330
2A3
100
AcDbEntity
  8
001
 62
   253
370
    50
100
AcDbVertex
100
AcDb2dVertex
 10
83.345611
 20
136.158765
 30
0.0
  0
VERTEX
  5
2B1
330
2A3
100
AcDbEntity
  8
001
 62
   253
370
    50
100
AcDbVertex
100
AcDb2dVertex
 10
83.600352
 20
135.92911
 30
0.0
  0
VERTEX
  5
2B2
330
2A3
100
AcDbEntity
  8
001
 62
   253
370
    50
100
AcDbVertex
100
AcDb2dVertex
 10
83.871585
 20
135.718792
 30
0.0
  0
VERTEX
  5
2B3
330
2A3
100
AcDbEntity
  8
001
 62
   253
370
    50
100
AcDbVertex
100
AcDb2dVertex
 10
84.157401
 20
135.528903
 30
0.0
  0
VERTEX
  5
2B4
330
2A3
100
AcDbEntity
  8
001
 62
   253
370
    50
100
AcDbVertex
100
AcDb2dVertex
 10
84.496067
 20
135.339655
 30
0.0
  0
VERTEX
  5
2B5
330
2A3
100
AcDbEntity
  8
001
 62
   253
370
    50
100
AcDbVertex
100
AcDb2dVertex
 10
84.848561
 20
135.177014
 30
0.0
  0
VERTEX
  5
2B6
330
2A3
100
AcDbEntity
  8
001
 62
   253
370
    50
100
AcDbVertex
100
AcDb2dVertex
 10
85.213226
 20
135.040682
 30
0.0
  0
VERTEX
  5
2B7
330
2A3
100
AcDbEntity
  8
001
 62
   253
370
    50
100
AcDbVertex
100
AcDb2dVertex
 10
85.587257
 20
134.934209
 30
0.0
  0
VERTEX
  5
2B8
330
2A3
100
AcDbEntity
  8
001
 62
   253
370
    50
100
AcDbVertex
100
AcDb2dVertex
 10
85.777403
 20
134.892538
 30
0.0
  0
VERTEX
  5
2B9
330
2A3
100
AcDbEntity
  8
001
 62
   253
370
    50
100
AcDbVertex
100
AcDb2dVertex
 10
85.968505
 20
134.855096
 30
0.0
  0
SEQEND
  5
2A4
330
2A3
100
AcDbEntity
  8
001
370
    50
  0
LINE
  5
2BA
330
1F
100
AcDbEntity
  8
001
 62
   253
370
    50
100
AcDbLine
 10
82.119083
 20
139.107565
 30
0.0
 11
82.119083
 21
138.813645
 31
0.0
  0
POLYLINE
  5
2BB
330
1F
100
AcDbEntity
  8
001
 62
   253
370
    50
100
AcDb2dPolyline
 66
     1
 10
0.0
 20
0.0
 30
0.0
  0
VERTEX
  5
2BD
330
2BB
100
AcDbEntity
  8
001
 62
   253
370
    50
100
AcDbVertex
100
AcDb2dVertex
 10
88.577148
 20
135.071293
 30
0.0
  0
VERTEX
  5
2BE
330
2BB
100
AcDbEntity
  8
001
 62
   253
370
    50
100
AcDbVertex
100
AcDb2dVertex
 10
88.753169
 20
135.13767
 30
0.0
  0
VERTEX
  5
2BF
330
2BB
100
AcDbEntity
  8
001
 62
   253
370
    50
100
AcDbVertex
100
AcDb2dVertex
 10
88.927538
 20
135.20804
 30
0.0
  0
VERTEX
  5
2C0
330
2BB
100
AcDbEntity
  8
001
 62
   253
370
    50
100
AcDbVertex
100
AcDb2dVertex
 10
89.175352
 20
135.323166
 30
0.0
  0
VERTEX
  5
2C1
330
2BB
100
AcDbEntity
  8
001
 62
   253
370
    50
100
AcDbVertex
100
AcDb2dVertex
 10
89.416039
 20
135.452915
 30
0.0
  0
VERTEX
  5
2C2
330
2BB
100
AcDbEntity
  8
001
 62
   253
370
    50
100
AcDbVertex
100
AcDb2dVertex
 10
89.649678
 20
135.595722
 30
0.0
  0
VERTEX
  5
2C3
330
2BB
100
AcDbEntity
  8
001
 62
   253
370
    50
100
AcDbVertex
100
AcDb2dVertex
 10
89.874954
 20
135.751242
 30
0.0
  0
VERTEX
  5
2C4
330
2BB
100
AcDbEntity
  8
001
 62
   253
370
    50
100
AcDbVertex
100
AcDb2dVertex
 10
90.089906
 20
135.918917
 30
0.0
  0
VERTEX
  5
2C5
330
2BB
100
AcDbEntity
  8
001
 62
   253
370
    50
100
AcDbVertex
100
AcDb2dVertex
 10
90.294451
 20
136.099196
 30
0.0
  0
VERTEX
  5
2C6
330
2BB
100
AcDbEntity
  8
001
 62
   253
370
    50
100
AcDbVertex
100
AcDb2dVertex
 10
90.526947
 20
136.334081
 30
0.0
  0
VERTEX
  5
2C7
330
2BB
100
AcDbEntity
  8
001
 62
   253
370
    50
100
AcDbVertex
100
AcDb2dVertex
 10
90.741076
 20
136.585917
 30
0.0
  0
VERTEX
  5
2C8
330
2BB
100
AcDbEntity
  8
001
 62
   253
370
    50
100
AcDbVertex
100
AcDb2dVertex
 10
90.935339
 20
136.853787
 30
0.0
  0
VERTEX
  5
2C9
330
2BB
100
AcDbEntity
  8
001
 62
   253
370
    50
100
AcDbVertex
100
AcDb2dVertex
 10
91.107322
 20
137.136338
 30
0.0
  0
VERTEX
  5
2CA
330
2BB
100
AcDbEntity
  8
001
 62
   253
370
    50
100
AcDbVertex
100
AcDb2dVertex
 10
91.217173
 20
137.350387
 30
0.0
  0
VERTEX
  5
2CB
330
2BB
100
AcDbEntity
  8
001
 62
   253
370
    50
100
AcDbVertex
100
AcDb2dVertex
 10
91.313637
 20
137.570782
 30
0.0
  0
VERTEX
  5
2CC
330
2BB
100
AcDbEntity
  8
001
 62
   253
370
    50
100
AcDbVertex
100
AcDb2dVertex
 10
91.396771
 20
137.79798
 30
0.0
  0
VERTEX
  5
2CD
330
2BB
100
AcDbEntity
  8
001
 62
   253
370
    50
100
AcDbVertex
100
AcDb2dVertex
 10
91.465532
 20
138.029937
 30
0.0
  0
VERTEX
  5
2CE
330
2BB
100
AcDbEntity
  8
001
 62
   253
370
    50
100
AcDbVertex
100
AcDb2dVertex
 10
91.519244
 20
138.265077
 30
0.0
  0
VERTEX
  5
2CF
330
2BB
100
AcDbEntity
  8
001
 62
   253
370
    50
100
AcDbVertex
100
AcDb2dVertex
 10
91.557431
 20
138.503235
 30
0.0
  0
VERTEX
  5
2D0
330
2BB
100
AcDbEntity
  8
001
 62
   253
370
    50
100
AcDbVertex
100
AcDb2dVertex
 10
91.583153
 20
138.819903
 30
0.0
  0
VERTEX
  5
2D1
330
2BB
100
AcDbEntity
  8
001
 62
   253
370
    50
100
AcDbVertex
100
AcDb2dVertex
 10
91.581289
 20
139.13774
 30
0.0
  0
VERTEX
  5
2D2
330
2BB
100
AcDbEntity
  8
001
 62
   253
370
    50
100
AcDbVertex
100
AcDb2dVertex
 10
91.55237
 20
139.454137
 30
0.0
  0
VERTEX
  5
2D3
330
2BB
100
AcDbEntity
  8
001
 62
   253
370
    50
100
AcDbVertex
100
AcDb2dVertex
 10
91.496382
 20
139.766778
 30
0.0
  0
VERTEX
  5
2D4
330
2BB
100
AcDbEntity
  8
001
 62
   253
370
    50
100
AcDbVertex
100
AcDb2dVertex
 10
91.418511
 20
140.057399
 30
0.0
  0
VERTEX
  5
2D5
330
2BB
100
AcDbEntity
  8
001
 62
   253
370
    50
100
AcDbVertex
100
AcDb2dVertex
 10
91.317726
 20
140.340941
 30
0.0
  0
VERTEX
  5
2D6
330
2BB
100
AcDbEntity
  8
001
 62
   253
370
    50
100
AcDbVertex
100
AcDb2dVertex
 10
91.195658
 20
140.615395
 30
0.0
  0
VERTEX
  5
2D7
330
2BB
100
AcDbEntity
  8
001
 62
   253
370
    50
100
AcDbVertex
100
AcDb2dVertex
 10
91.053109
 20
140.879751
 30
0.0
  0
VERTEX
  5
2D8
330
2BB
100
AcDbEntity
  8
001
 62
   253
370
    50
100
AcDbVertex
100
AcDb2dVertex
 10
90.880297
 20
141.14806
 30
0.0
  0
VERTEX
  5
2D9
330
2BB
100
AcDbEntity
  8
001
 62
   253
370
    50
100
AcDbVertex
100
AcDb2dVertex
 10
90.687325
 20
141.402322
 30
0.0
  0
VERTEX
  5
2DA
330
2BB
100
AcDbEntity
  8
001
 62
   253
370
    50
100
AcDbVertex
100
AcDb2dVertex
 10
90.476249
 20
141.641413
 30
0.0
  0
VERTEX
  5
2DB
330
2BB
100
AcDbEntity
  8
001
 62
   253
370
    50
100
AcDbVertex
100
AcDb2dVertex
 10
90.24841
 20
141.864552
 30
0.0
  0
VERTEX
  5
2DC
330
2BB
100
AcDbEntity
  8
001
 62
   253
370
    50
100
AcDbVertex
100
AcDb2dVertex
 10
89.973214
 20
142.095944
 30
0.0
  0
VERTEX
  5
2DD
330
2BB
100
AcDbEntity
  8
001
 62
   253
370
    50
100
AcDbVertex
100
AcDb2dVertex
 10
89.680876
 20
142.305399
 30
0.0
  0
VERTEX
  5
2DE
330
2BB
100
AcDbEntity
  8
001
 62
   253
370
    50
100
AcDbVertex
100
AcDb2dVertex
 10
89.373206
 20
142.492729
 30
0.0
  0
VERTEX
  5
2DF
330
2BB
100
AcDbEntity
  8
001
 62
   253
370
    50
100
AcDbVertex
100
AcDb2dVertex
 10
89.052653
 20
142.656859
 30
0.0
  0
VERTEX
  5
2E0
330
2BB
100
AcDbEntity
  8
001
 62
   253
370
    50
100
AcDbVertex
100
AcDb2dVertex
 10
88.806409
 20
142.763737
 30
0.0
  0
VERTEX
  5
2E1
330
2BB
100
AcDbEntity
  8
001
 62
   253
370
    50
100
AcDbVertex
100
AcDb2dVertex
 10
88.554845
 20
142.85736
 30
0.0
  0
VERTEX
  5
2E2
330
2BB
100
AcDbEntity
  8
001
 62
   253
370
    50
100
AcDbVertex
100
AcDb2dVertex
 10
88.29757
 20
142.938105
 30
0.0
  0
VERTEX
  5
2E3
330
2BB
100
AcDbEntity
  8
001
 62
   253
370
    50
100
AcDbVertex
100
AcDb2dVertex
 10
88.036465
 20
143.005471
 30
0.0
  0
VERTEX
  5
2E4
330
2BB
100
AcDbEntity
  8
001
 62
   253
370
    50
100
AcDbVertex
100
AcDb2dVertex
 10
87.772622
 20
143.0593
 30
0.0
  0
VERTEX
  5
2E5
330
2BB
100
AcDbEntity
  8
001
 62
   253
370
    50
100
AcDbVertex
100
AcDb2dVertex
 10
87.506364
 20
143.099479
 30
0.0
  0
VERTEX
  5
2E6
330
2BB
100
AcDbEntity
  8
001
 62
   253
370
    50
100
AcDbVertex
100
AcDb2dVertex
 10
87.222922
 20
143.126929
 30
0.0
  0
VERTEX
  5
2E7
330
2BB
100
AcDbEntity
  8
001
 62
   253
370
    50
100
AcDbVertex
100
AcDb2dVertex
 10
86.938397
 20
143.139047
 30
0.0
  0
VERTEX
  5
2E8
330
2BB
100
AcDbEntity
  8
001
 62
   253
370
    50
100
AcDbVertex
100
AcDb2dVertex
 10
86.652716
 20
143.135975
 30
0.0
  0
VERTEX
  5
2E9
330
2BB
100
AcDbEntity
  8
001
 62
   253
370
    50
100
AcDbVertex
100
AcDb2dVertex
 10
86.367606
 20
143.117695
 30
0.0
  0
VERTEX
  5
2EA
330
2BB
100
AcDbEntity
  8
001
 62
   253
370
    50
100
AcDbVertex
100
AcDb2dVertex
 10
86.084948
 20
143.084339
 30
0.0
  0
VERTEX
  5
2EB
330
2BB
100
AcDbEntity
  8
001
 62
   253
370
    50
100
AcDbVertex
100
AcDb2dVertex
 10
85.804522
 20
143.035705
 30
0.0
  0
VERTEX
  5
2EC
330
2BB
100
AcDbEntity
  8
001
 62
   253
370
    50
100
AcDbVertex
100
AcDb2dVertex
 10
85.524717
 20
142.971034
 30
0.0
  0
VERTEX
  5
2ED
330
2BB
100
AcDbEntity
  8
001
 62
   253
370
    50
100
AcDbVertex
100
AcDb2dVertex
 10
85.248923
 20
142.890931
 30
0.0
  0
VERTEX
  5
2EE
330
2BB
100
AcDbEntity
  8
001
 62
   253
370
    50
100
AcDbVertex
100
AcDb2dVertex
 10
84.977596
 20
142.795535
 30
0.0
  0
VERTEX
  5
2EF
330
2BB
100
AcDbEntity
  8
001
 62
   253
370
    50
100
AcDbVertex
100
AcDb2dVertex
 10
84.712032
 20
142.685107
 30
0.0
  0
VERTEX
  5
2F0
330
2BB
100
AcDbEntity
  8
001
 62
   253
370
    50
100
AcDbVertex
100
AcDb2dVertex
 10
84.454484
 20
142.560422
 30
0.0
  0
VERTEX
  5
2F1
330
2BB
100
AcDbEntity
  8
001
 62
   253
370
    50
100
AcDbVertex
100
AcDb2dVertex
 10
84.204658
 20
142.420935
 30
0.0
  0
VERTEX
  5
2F2
330
2BB
100
AcDbEntity
  8
001
 62
   253
370
    50
100
AcDbVertex
100
AcDb2dVertex
 10
83.967731
 20
142.269486
 30
0.0
  0
VERTEX
  5
2F3
330
2BB
100
AcDbEntity
  8
001
 62
   253
370
    50
100
AcDbVertex
100
AcDb2dVertex
 10
83.740226
 20
142.104211
 30
0.0
  0
VERTEX
  5
2F4
330
2BB
100
AcDbEntity
  8
001
 62
   253
370
    50
100
AcDbVertex
100
AcDb2dVertex
 10
83.522433
 20
141.925072
 30
0.0
  0
VERTEX
  5
2F5
330
2BB
100
AcDbEntity
  8
001
 62
   253
370
    50
100
AcDbVertex
100
AcDb2dVertex
 10
83.316008
 20
141.732927
 30
0.0
  0
VERTEX
  5
2F6
330
2BB
100
AcDbEntity
  8
001
 62
   253
370
    50
100
AcDbVertex
100
AcDb2dVertex
 10
83.122788
 20
141.52899
 30
0.0
  0
VERTEX
  5
2F7
330
2BB
100
AcDbEntity
  8
001
 62
   253
370
    50
100
AcDbVertex
100
AcDb2dVertex
 10
82.943339
 20
141.312885
 30
0.0
  0
VERTEX
  5
2F8
330
2BB
100
AcDbEntity
  8
001
 62
   253
370
    50
100
AcDbVertex
100
AcDb2dVertex
 10
82.791561
 20
141.103703
 30
0.0
  0
VERTEX
  5
2F9
330
2BB
100
AcDbEntity
  8
001
 62
   253
370
    50
100
AcDbVertex
100
AcDb2dVertex
 10
82.653206
 20
140.885381
 30
0.0
  0
VERTEX
  5
2FA
330
2BB
100
AcDbEntity
  8
001
 62
   253
370
    50
100
AcDbVertex
100
AcDb2dVertex
 10
82.528214
 20
140.657477
 30
0.0
  0
VERTEX
  5
2FB
330
2BB
100
AcDbEntity
  8
001
 62
   253
370
    50
100
AcDbVertex
100
AcDb2dVertex
 10
82.418319
 20
140.421966
 30
0.0
  0
VERTEX
  5
2FC
330
2BB
100
AcDbEntity
  8
001
 62
   253
370
    50
100
AcDbVertex
100
AcDb2dVertex
 10
82.324663
 20
140.180394
 30
0.0
  0
VERTEX
  5
2FD
330
2BB
100
AcDbEntity
  8
001
 62
   253
370
    50
100
AcDbVertex
100
AcDb2dVertex
 10
82.247284
 20
139.93304
 30
0.0
  0
VERTEX
  5
2FE
330
2BB
100
AcDbEntity
  8
001
 62
   253
370
    50
100
AcDbVertex
100
AcDb2dVertex
 10
82.197184
 20
139.729824
 30
0.0
  0
VERTEX
  5
2FF
330
2BB
100
AcDbEntity
  8
001
 62
   253
370
    50
100
AcDbVertex
100
AcDb2dVertex
 10
82.159873
 20
139.524087
 30
0.0
  0
VERTEX
  5
300
330
2BB
100
AcDbEntity
  8
001
 62
   253
370
    50
100
AcDbVertex
100
AcDb2dVertex
 10
82.135774
 20
139.316312
 30
0.0
  0
VERTEX
  5
301
330
2BB
100
AcDbEntity
  8
001
 62
   253
370
    50
100
AcDbVertex
100
AcDb2dVertex
 10
82.119083
 20
139.107565
 30
0.0
  0
SEQEND
  5
2BC
330
2BB
100
AcDbEntity
  8
001
370
    50
  0
ARC
  5
302
330
1F
100
AcDbEntity
  8
001
 62
   253
370
    50
100
AcDbCircle
 10
82.119083
 20
123.960605
 30
0.0
 40
0.9999999999999966
100
AcDbArc
 50
240.0
 51
270.0
  0
ARC
  5
303
330
1F
100
AcDbEntity
  8
001
 62
   253
370
    50
100
AcDbCircle
 10
82.119083
 20
153.960605
 30
0.0
 40
0.9999999999999966
100
AcDbArc
 50
90.0
 51
120.0
  0
LINE
  5
304
330
1F
100
AcDbEntity
  8
001
 62
   253
370
    50
100
AcDbLine
 10
105.851134
 20
154.960605
 30
0.0
 11
82.119083
 21
154.960605
 31
0.0
  0
LINE
  5
305
330
1F
100
AcDbEntity
  8
001
 62
   253
370
    50
100
AcDbLine
 10
82.119083
 20
122.960605
 30
0.0
 11
105.851134
 21
122.960605
 31
0.0
  0
POLYLINE
  5
306
330
1F
100
AcDbEntity
  8
001
 62
   253
370
    50
100
AcDb2dPolyline
 66
     1
 10
0.0
 20
0.0
 30
0.0
  0
VERTEX
  5
308
330
306
100
AcDbEntity
  8
001
 62
   253
370
    50
100
AcDbVertex
100
AcDb2dVertex
 10
101.577148
 20
135.071293
 30
0.0
  0
VERTEX
  5
309
330
306
100
AcDbEntity
  8
001
 62
   253
370
    50
100
AcDbVertex
100
AcDb2dVertex
 10
101.904403
 20
135.203058
 30
0.0
  0
VERTEX
  5
30A
330
306
100
AcDbEntity
  8
001
 62
   253
370
    50
100
AcDbVertex
100
AcDb2dVertex
 10
102.224909
 20
135.349029
 30
0.0
  0
VERTEX
  5
30B
330
306
100
AcDbEntity
  8
001
 62
   253
370
    50
100
AcDbVertex
100
AcDb2dVertex
 10
102.532269
 20
135.519947
 30
0.0
  0
VERTEX
  5
30C
330
306
100
AcDbEntity
  8
001
 62
   253
370
    50
100
AcDbVertex
100
AcDb2dVertex
 10
102.825465
 20
135.714975
 30
0.0
  0
VERTEX
  5
30D
330
306
100
AcDbEntity
  8
001
 62
   253
370
    50
100
AcDbVertex
100
AcDb2dVertex
 10
103.082308
 20
135.913023
 30
0.0
  0
VERTEX
  5
30E
330
306
100
AcDbEntity
  8
001
 62
   253
370
    50
100
AcDbVertex
100
AcDb2dVertex
 10
103.324794
 20
136.128161
 30
0.0
  0
VERTEX
  5
30F
330
306
100
AcDbEntity
  8
001
 62
   253
370
    50
100
AcDbVertex
100
AcDb2dVertex
 10
103.551112
 20
136.360327
 30
0.0
  0
VERTEX
  5
310
330
306
100
AcDbEntity
  8
001
 62
   253
370
    50
100
AcDbVertex
100
AcDb2dVertex
 10
103.759332
 20
136.608845
 30
0.0
  0
VERTEX
  5
311
330
306
100
AcDbEntity
  8
001
 62
   253
370
    50
100
AcDbVertex
100
AcDb2dVertex
 10
103.908801
 20
136.814696
 30
0.0
  0
VERTEX
  5
312
330
306
100
AcDbEntity
  8
001
 62
   253
370
    50
100
AcDbVertex
100
AcDb2dVertex
 10
104.045269
 20
137.029353
 30
0.0
  0
VERTEX
  5
313
330
306
100
AcDbEntity
  8
001
 62
   253
370
    50
100
AcDbVertex
100
AcDb2dVertex
 10
104.168749
 20
137.253326
 30
0.0
  0
VERTEX
  5
314
330
306
100
AcDbEntity
  8
001
 62
   253
370
    50
100
AcDbVertex
100
AcDb2dVertex
 10
104.277763
 20
137.484708
 30
0.0
  0
VERTEX
  5
315
330
306
100
AcDbEntity
  8
001
 62
   253
370
    50
100
AcDbVertex
100
AcDb2dVertex
 10
104.371279
 20
137.722017
 30
0.0
  0
VERTEX
  5
316
330
306
100
AcDbEntity
  8
001
 62
   253
370
    50
100
AcDbVertex
100
AcDb2dVertex
 10
104.448581
 20
137.965046
 30
0.0
  0
VERTEX
  5
317
330
306
100
AcDbEntity
  8
001
 62
   253
370
    50
100
AcDbVertex
100
AcDb2dVertex
 10
104.502132
 20
138.181443
 30
0.0
  0
VERTEX
  5
318
330
306
100
AcDbEntity
  8
001
 62
   253
370
    50
100
AcDbVertex
100
AcDb2dVertex
 10
104.542511
 20
138.40069
 30
0.0
  0
VERTEX
  5
319
330
306
100
AcDbEntity
  8
001
 62
   253
370
    50
100
AcDbVertex
100
AcDb2dVertex
 10
104.569851
 20
138.622993
 30
0.0
  0
VERTEX
  5
31A
330
306
100
AcDbEntity
  8
001
 62
   253
370
    50
100
AcDbVertex
100
AcDb2dVertex
 10
104.583826
 20
138.846529
 30
0.0
  0
VERTEX
  5
31B
330
306
100
AcDbEntity
  8
001
 62
   253
370
    50
100
AcDbVertex
100
AcDb2dVertex
 10
104.584289
 20
139.069657
 30
0.0
  0
VERTEX
  5
31C
330
306
100
AcDbEntity
  8
001
 62
   253
370
    50
100
AcDbVertex
100
AcDb2dVertex
 10
104.571053
 20
139.2924
 30
0.0
  0
VERTEX
  5
31D
330
306
100
AcDbEntity
  8
001
 62
   253
370
    50
100
AcDbVertex
100
AcDb2dVertex
 10
104.530994
 20
139.59256
 30
0.0
  0
VERTEX
  5
31E
330
306
100
AcDbEntity
  8
001
 62
   253
370
    50
100
AcDbVertex
100
AcDb2dVertex
 10
104.466448
 20
139.888534
 30
0.0
  0
VERTEX
  5
31F
330
306
100
AcDbEntity
  8
001
 62
   253
370
    50
100
AcDbVertex
100
AcDb2dVertex
 10
104.378713
 20
140.17798
 30
0.0
  0
VERTEX
  5
320
330
306
100
AcDbEntity
  8
001
 62
   253
370
    50
100
AcDbVertex
100
AcDb2dVertex
 10
104.268387
 20
140.459523
 30
0.0
  0
VERTEX
  5
321
330
306
100
AcDbEntity
  8
001
 62
   253
370
    50
100
AcDbVertex
100
AcDb2dVertex
 10
104.133305
 20
140.736924
 30
0.0
  0
VERTEX
  5
322
330
306
100
AcDbEntity
  8
001
 62
   253
370
    50
100
AcDbVertex
100
AcDb2dVertex
 10
103.977104
 20
141.003066
 30
0.0
  0
VERTEX
  5
323
330
306
100
AcDbEntity
  8
001
 62
   253
370
    50
100
AcDbVertex
100
AcDb2dVertex
 10
103.801757
 20
141.256441
 30
0.0
  0
VERTEX
  5
324
330
306
100
AcDbEntity
  8
001
 62
   253
370
    50
100
AcDbVertex
100
AcDb2dVertex
 10
103.608347
 20
141.496281
 30
0.0
  0
VERTEX
  5
325
330
306
100
AcDbEntity
  8
001
 62
   253
370
    50
100
AcDbVertex
100
AcDb2dVertex
 10
103.373964
 20
141.745513
 30
0.0
  0
VERTEX
  5
326
330
306
100
AcDbEntity
  8
001
 62
   253
370
    50
100
AcDbVertex
100
AcDb2dVertex
 10
103.121055
 20
141.976014
 30
0.0
  0
VERTEX
  5
327
330
306
100
AcDbEntity
  8
001
 62
   253
370
    50
100
AcDbVertex
100
AcDb2dVertex
 10
102.851594
 20
142.187268
 30
0.0
  0
VERTEX
  5
328
330
306
100
AcDbEntity
  8
001
 62
   253
370
    50
100
AcDbVertex
100
AcDb2dVertex
 10
102.567493
 20
142.378336
 30
0.0
  0
VERTEX
  5
329
330
306
100
AcDbEntity
  8
001
 62
   253
370
    50
100
AcDbVertex
100
AcDb2dVertex
 10
102.2306
 20
142.569303
 30
0.0
  0
VERTEX
  5
32A
330
306
100
AcDbEntity
  8
001
 62
   253
370
    50
100
AcDbVertex
100
AcDb2dVertex
 10
101.879696
 20
142.733328
 30
0.0
  0
VERTEX
  5
32B
330
306
100
AcDbEntity
  8
001
 62
   253
370
    50
100
AcDbVertex
100
AcDb2dVertex
 10
101.516408
 20
142.87051
 30
0.0
  0
VERTEX
  5
32C
330
306
100
AcDbEntity
  8
001
 62
   253
370
    50
100
AcDbVertex
100
AcDb2dVertex
 10
101.143885
 20
142.979791
 30
0.0
  0
VERTEX
  5
32D
330
306
100
AcDbEntity
  8
001
 62
   253
370
    50
100
AcDbVertex
100
AcDb2dVertex
 10
100.87024
 20
143.041058
 30
0.0
  0
VERTEX
  5
32E
330
306
100
AcDbEntity
  8
001
 62
   253
370
    50
100
AcDbVertex
100
AcDb2dVertex
 10
100.593722
 20
143.087549
 30
0.0
  0
VERTEX
  5
32F
330
306
100
AcDbEntity
  8
001
 62
   253
370
    50
100
AcDbVertex
100
AcDb2dVertex
 10
100.314002
 20
143.119488
 30
0.0
  0
VERTEX
  5
330
330
306
100
AcDbEntity
  8
001
 62
   253
370
    50
100
AcDbVertex
100
AcDb2dVertex
 10
100.032981
 20
143.136669
 30
0.0
  0
VERTEX
  5
331
330
306
100
AcDbEntity
  8
001
 62
   253
370
    50
100
AcDbVertex
100
AcDb2dVertex
 10
99.752219
 20
143.139054
 30
0.0
  0
VERTEX
  5
332
330
306
100
AcDbEntity
  8
001
 62
   253
370
    50
100
AcDbVertex
100
AcDb2dVertex
 10
99.471736
 20
143.126516
 30
0.0
  0
VERTEX
  5
333
330
306
100
AcDbEntity
  8
001
 62
   253
370
    50
100
AcDbVertex
100
AcDb2dVertex
 10
99.185827
 20
143.098087
 30
0.0
  0
VERTEX
  5
334
330
306
100
AcDbEntity
  8
001
 62
   253
370
    50
100
AcDbVertex
100
AcDb2dVertex
 10
98.901887
 20
143.054073
 30
0.0
  0
VERTEX
  5
335
330
306
100
AcDbEntity
  8
001
 62
   253
370
    50
100
AcDbVertex
100
AcDb2dVertex
 10
98.620224
 20
142.994594
 30
0.0
  0
VERTEX
  5
336
330
306
100
AcDbEntity
  8
001
 62
   253
370
    50
100
AcDbVertex
100
AcDb2dVertex
 10
98.342229
 20
142.919824
 30
0.0
  0
VERTEX
  5
337
330
306
100
AcDbEntity
  8
001
 62
   253
370
    50
100
AcDbVertex
100
AcDb2dVertex
 10
98.070119
 20
142.830283
 30
0.0
  0
VERTEX
  5
338
330
306
100
AcDbEntity
  8
001
 62
   253
370
    50
100
AcDbVertex
100
AcDb2dVertex
 10
97.803507
 20
142.725545
 30
0.0
  0
VERTEX
  5
339
330
306
100
AcDbEntity
  8
001
 62
   253
370
    50
100
AcDbVertex
100
AcDb2dVertex
 10
97.544854
 20
142.606306
 30
0.0
  0
VERTEX
  5
33A
330
306
100
AcDbEntity
  8
001
 62
   253
370
    50
100
AcDbVertex
100
AcDb2dVertex
 10
97.293469
 20
142.472364
 30
0.0
  0
VERTEX
  5
33B
330
306
100
AcDbEntity
  8
001
 62
   253
370
    50
100
AcDbVertex
100
AcDb2dVertex
 10
97.049776
 20
142.323821
 30
0.0
  0
VERTEX
  5
33C
330
306
100
AcDbEntity
  8
001
 62
   253
370
    50
100
AcDbVertex
100
AcDb2dVertex
 10
96.815378
 20
142.161095
 30
0.0
  0
VERTEX
  5
33D
330
306
100
AcDbEntity
  8
001
 62
   253
370
    50
100
AcDbVertex
100
AcDb2dVertex
 10
96.592373
 20
141.985242
 30
0.0
  0
VERTEX
  5
33E
330
306
100
AcDbEntity
  8
001
 62
   253
370
    50
100
AcDbVertex
100
AcDb2dVertex
 10
96.380366
 20
141.796077
 30
0.0
  0
VERTEX
  5
33F
330
306
100
AcDbEntity
  8
001
 62
   253
370
    50
100
AcDbVertex
100
AcDb2dVertex
 10
96.190132
 20
141.604333
 30
0.0
  0
VERTEX
  5
340
330
306
100
AcDbEntity
  8
001
 62
   253
370
    50
100
AcDbVertex
100
AcDb2dVertex
 10
96.013667
 20
141.400263
 30
0.0
  0
VERTEX
  5
341
330
306
100
AcDbEntity
  8
001
 62
   253
370
    50
100
AcDbVertex
100
AcDb2dVertex
 10
95.851556
 20
141.183198
 30
0.0
  0
VERTEX
  5
342
330
306
100
AcDbEntity
  8
001
 62
   253
370
    50
100
AcDbVertex
100
AcDb2dVertex
 10
95.698054
 20
140.959476
 30
0.0
  0
SEQEND
  5
307
330
306
100
AcDbEntity
  8
001
370
    50
  0
POLYLINE
  5
343
330
1F
100
AcDbEntity
  8
001
 62
   253
370
    50
100
AcDb2dPolyline
 66
     1
 10
0.0
 20
0.0
 30
0.0
  0
VERTEX
  5
345
330
343
100
AcDbEntity
  8
001
 62
   253
370
    50
100
AcDbVertex
100
AcDb2dVertex
 10
95.698054
 20
140.959476
 30
0.0
  0
VERTEX
  5
346
330
343
100
AcDbEntity
  8
001
 62
   253
370
    50
100
AcDbVertex
100
AcDb2dVertex
 10
95.56553
 20
140.723617
 30
0.0
  0
VERTEX
  5
347
330
343
100
AcDbEntity
  8
001
 62
   253
370
    50
100
AcDbVertex
100
AcDb2dVertex
 10
95.44403
 20
140.482456
 30
0.0
  0
VERTEX
  5
348
330
343
100
AcDbEntity
  8
001
 62
   253
370
    50
100
AcDbVertex
100
AcDb2dVertex
 10
95.353896
 20
140.263934
 30
0.0
  0
VERTEX
  5
349
330
343
100
AcDbEntity
  8
001
 62
   253
370
    50
100
AcDbVertex
100
AcDb2dVertex
 10
95.278731
 20
140.03951
 30
0.0
  0
VERTEX
  5
34A
330
343
100
AcDbEntity
  8
001
 62
   253
370
    50
100
AcDbVertex
100
AcDb2dVertex
 10
95.216801
 20
139.809846
 30
0.0
  0
VERTEX
  5
34B
330
343
100
AcDbEntity
  8
001
 62
   253
370
    50
100
AcDbVertex
100
AcDb2dVertex
 10
95.169014
 20
139.576957
 30
0.0
  0
VERTEX
  5
34C
330
343
100
AcDbEntity
  8
001
 62
   253
370
    50
100
AcDbVertex
100
AcDb2dVertex
 10
95.136306
 20
139.342246
 30
0.0
  0
VERTEX
  5
34D
330
343
100
AcDbEntity
  8
001
 62
   253
370
    50
100
AcDbVertex
100
AcDb2dVertex
 10
95.119014
 20
139.105849
 30
0.0
  0
VERTEX
  5
34E
330
343
100
AcDbEntity
  8
001
 62
   253
370
    50
100
AcDbVertex
100
AcDb2dVertex
 10
95.120116
 20
138.795385
 30
0.0
  0
VERTEX
  5
34F
330
343
100
AcDbEntity
  8
001
 62
   253
370
    50
100
AcDbVertex
100
AcDb2dVertex
 10
95.147539
 20
138.486036
 30
0.0
  0
VERTEX
  5
350
330
343
100
AcDbEntity
  8
001
 62
   253
370
    50
100
AcDbVertex
100
AcDb2dVertex
 10
95.200457
 20
138.180304
 30
0.0
  0
VERTEX
  5
351
330
343
100
AcDbEntity
  8
001
 62
   253
370
    50
100
AcDbVertex
100
AcDb2dVertex
 10
95.278581
 20
137.880101
 30
0.0
  0
VERTEX
  5
352
330
343
100
AcDbEntity
  8
001
 62
   253
370
    50
100
AcDbVertex
100
AcDb2dVertex
 10
95.378592
 20
137.594706
 30
0.0
  0
VERTEX
  5
353
330
343
100
AcDbEntity
  8
001
 62
   253
370
    50
100
AcDbVertex
100
AcDb2dVertex
 10
95.500746
 20
137.318013
 30
0.0
  0
VERTEX
  5
354
330
343
100
AcDbEntity
  8
001
 62
   253
370
    50
100
AcDbVertex
100
AcDb2dVertex
 10
95.643256
 20
137.05185
 30
0.0
  0
VERTEX
  5
355
330
343
100
AcDbEntity
  8
001
 62
   253
370
    50
100
AcDbVertex
100
AcDb2dVertex
 10
95.805215
 20
136.797087
 30
0.0
  0
VERTEX
  5
356
330
343
100
AcDbEntity
  8
001
 62
   253
370
    50
100
AcDbVertex
100
AcDb2dVertex
 10
96.001461
 20
136.535208
 30
0.0
  0
VERTEX
  5
357
330
343
100
AcDbEntity
  8
001
 62
   253
370
    50
100
AcDbVertex
100
AcDb2dVertex
 10
96.217284
 20
136.289146
 30
0.0
  0
VERTEX
  5
358
330
343
100
AcDbEntity
  8
001
 62
   253
370
    50
100
AcDbVertex
100
AcDb2dVertex
 10
96.450628
 20
136.059788
 30
0.0
  0
VERTEX
  5
359
330
343
100
AcDbEntity
  8
001
 62
   253
370
    50
100
AcDbVertex
100
AcDb2dVertex
 10
96.699949
 20
135.847916
 30
0.0
  0
VERTEX
  5
35A
330
343
100
AcDbEntity
  8
001
 62
   253
370
    50
100
AcDbVertex
100
AcDb2dVertex
 10
96.999595
 20
135.630085
 30
0.0
  0
VERTEX
  5
35B
330
343
100
AcDbEntity
  8
001
 62
   253
370
    50
100
AcDbVertex
100
AcDb2dVertex
 10
97.315362
 20
135.436313
 30
0.0
  0
VERTEX
  5
35C
330
343
100
AcDbEntity
  8
001
 62
   253
370
    50
100
AcDbVertex
100
AcDb2dVertex
 10
97.64555
 20
135.266706
 30
0.0
  0
VERTEX
  5
35D
330
343
100
AcDbEntity
  8
001
 62
   253
370
    50
100
AcDbVertex
100
AcDb2dVertex
 10
97.987249
 20
135.121544
 30
0.0
  0
VERTEX
  5
35E
330
343
100
AcDbEntity
  8
001
 62
   253
370
    50
100
AcDbVertex
100
AcDb2dVertex
 10
98.227072
 20
135.036328
 30
0.0
  0
VERTEX
  5
35F
330
343
100
AcDbEntity
  8
001
 62
   253
370
    50
100
AcDbVertex
100
AcDb2dVertex
 10
98.470983
 20
134.96437
 30
0.0
  0
VERTEX
  5
360
330
343
100
AcDbEntity
  8
001
 62
   253
370
    50
100
AcDbVertex
100
AcDb2dVertex
 10
98.718791
 20
134.905928
 30
0.0
  0
VERTEX
  5
361
330
343
100
AcDbEntity
  8
001
 62
   253
370
    50
100
AcDbVertex
100
AcDb2dVertex
 10
98.968505
 20
134.855096
 30
0.0
  0
SEQEND
  5
344
330
343
100
AcDbEntity
  8
001
370
    50
  0
LINE
  5
362
330
1F
100
AcDbEntity
  8
001
 62
   253
370
    50
100
AcDbLine
 10
81.619083
 20
154.82663
 30
0.0
 11
76.351134
 21
151.785178
 31
0.0
  0
LINE
  5
363
330
1F
100
AcDbEntity
  8
001
 62
   253
370
    50
100
AcDbLine
 10
76.351134
 20
126.136031
 30
0.0
 11
81.619083
 21
123.09458
 31
0.0
  0
LINE
  5
364
330
1F
100
AcDbEntity
  8
001
 62
   253
370
    50
100
AcDbLine
 10
188.851134
 20
146.706572
 30
0.0
 11
113.851134
 21
146.706572
 31
0.0
  0
POLYLINE
  5
365
330
1F
100
AcDbEntity
  8
001
 62
   253
370
    50
100
AcDb2dPolyline
 66
     1
 10
0.0
 20
0.0
 30
0.0
  0
VERTEX
  5
367
330
365
100
AcDbEntity
  8
001
 62
   253
370
    50
100
AcDbVertex
100
AcDb2dVertex
 10
190.851134
 20
138.960605
 30
0.0
  0
VERTEX
  5
368
330
365
100
AcDbEntity
  8
001
 62
   253
370
    50
100
AcDbVertex
100
AcDb2dVertex
 10
190.853417
 20
139.62777
 30
0.0
  0
VERTEX
  5
369
330
365
100
AcDbEntity
  8
001
 62
   253
370
    50
100
AcDbVertex
100
AcDb2dVertex
 10
190.854057
 20
140.294945
 30
0.0
  0
VERTEX
  5
36A
330
365
100
AcDbEntity
  8
001
 62
   253
370
    50
100
AcDbVertex
100
AcDb2dVertex
 10
190.850828
 20
140.962071
 30
0.0
  0
VERTEX
  5
36B
330
365
100
AcDbEntity
  8
001
 62
   253
370
    50
100
AcDbVertex
100
AcDb2dVertex
 10
190.839188
 20
141.629107
 30
0.0
  0
VERTEX
  5
36C
330
365
100
AcDbEntity
  8
001
 62
   253
370
    50
100
AcDbVertex
100
AcDb2dVertex
 10
190.814137
 20
142.295335
 30
0.0
  0
VERTEX
  5
36D
330
365
100
AcDbEntity
  8
001
 62
   253
370
    50
100
AcDbVertex
100
AcDb2dVertex
 10
190.77107
 20
142.960605
 30
0.0
  0
VERTEX
  5
36E
330
365
100
AcDbEntity
  8
001
 62
   253
370
    50
100
AcDbVertex
100
AcDb2dVertex
 10
190.740913
 20
143.294694
 30
0.0
  0
VERTEX
  5
36F
330
365
100
AcDbEntity
  8
001
 62
   253
370
    50
100
AcDbVertex
100
AcDb2dVertex
 10
190.702954
 20
143.627972
 30
0.0
  0
VERTEX
  5
370
330
365
100
AcDbEntity
  8
001
 62
   253
370
    50
100
AcDbVertex
100
AcDb2dVertex
 10
190.655102
 20
143.96014
 30
0.0
  0
VERTEX
  5
371
330
365
100
AcDbEntity
  8
001
 62
   253
370
    50
100
AcDbVertex
100
AcDb2dVertex
 10
190.595432
 20
144.290408
 30
0.0
  0
VERTEX
  5
372
330
365
100
AcDbEntity
  8
001
 62
   253
370
    50
100
AcDbVertex
100
AcDb2dVertex
 10
190.522211
 20
144.617159
 30
0.0
  0
VERTEX
  5
373
330
365
100
AcDbEntity
  8
001
 62
   253
370
    50
100
AcDbVertex
100
AcDb2dVertex
 10
190.433298
 20
144.939944
 30
0.0
  0
VERTEX
  5
374
330
365
100
AcDbEntity
  8
001
 62
   253
370
    50
100
AcDbVertex
100
AcDb2dVertex
 10
190.369865
 20
145.135729
 30
0.0
  0
VERTEX
  5
375
330
365
100
AcDbEntity
  8
001
 62
   253
370
    50
100
AcDbVertex
100
AcDb2dVertex
 10
190.298591
 20
145.328782
 30
0.0
  0
VERTEX
  5
376
330
365
100
AcDbEntity
  8
001
 62
   253
370
    50
100
AcDbVertex
100
AcDb2dVertex
 10
190.218436
 20
145.518187
 30
0.0
  0
VERTEX
  5
377
330
365
100
AcDbEntity
  8
001
 62
   253
370
    50
100
AcDbVertex
100
AcDb2dVertex
 10
190.128398
 20
145.703104
 30
0.0
  0
VERTEX
  5
378
330
365
100
AcDbEntity
  8
001
 62
   253
370
    50
100
AcDbVertex
100
AcDb2dVertex
 10
190.026003
 20
145.884646
 30
0.0
  0
VERTEX
  5
379
330
365
100
AcDbEntity
  8
001
 62
   253
370
    50
100
AcDbVertex
100
AcDb2dVertex
 10
189.910688
 20
146.058346
 30
0.0
  0
VERTEX
  5
37A
330
365
100
AcDbEntity
  8
001
 62
   253
370
    50
100
AcDbVertex
100
AcDb2dVertex
 10
189.781203
 20
146.221123
 30
0.0
  0
VERTEX
  5
37B
330
365
100
AcDbEntity
  8
001
 62
   253
370
    50
100
AcDbVertex
100
AcDb2dVertex
 10
189.635892
 20
146.369597
 30
0.0
  0
VERTEX
  5
37C
330
365
100
AcDbEntity
  8
001
 62
   253
370
    50
100
AcDbVertex
100
AcDb2dVertex
 10
189.559302
 20
146.435185
 30
0.0
  0
VERTEX
  5
37D
330
365
100
AcDbEntity
  8
001
 62
   253
370
    50
100
AcDbVertex
100
AcDb2dVertex
 10
189.478637
 20
146.495694
 30
0.0
  0
VERTEX
  5
37E
330
365
100
AcDbEntity
  8
001
 62
   253
370
    50
100
AcDbVertex
100
AcDb2dVertex
 10
189.393963
 20
146.550309
 30
0.0
  0
VERTEX
  5
37F
330
365
100
AcDbEntity
  8
001
 62
   253
370
    50
100
AcDbVertex
100
AcDb2dVertex
 10
189.305283
 20
146.59807
 30
0.0
  0
VERTEX
  5
380
330
365
100
AcDbEntity
  8
001
 62
   253
370
    50
100
AcDbVertex
100
AcDb2dVertex
 10
189.211682
 20
146.638413
 30
0.0
  0
VERTEX
  5
381
330
365
100
AcDbEntity
  8
001
 62
   253
370
    50
100
AcDbVertex
100
AcDb2dVertex
 10
189.114739
 20
146.670178
 30
0.0
  0
VERTEX
  5
382
330
365
100
AcDbEntity
  8
001
 62
   253
370
    50
100
AcDbVertex
100
AcDb2dVertex
 10
189.015283
 20
146.692703
 30
0.0
  0
VERTEX
  5
383
330
365
100
AcDbEntity
  8
001
 62
   253
370
    50
100
AcDbVertex
100
AcDb2dVertex
 10
188.914185
 20
146.704518
 30
0.0
  0
VERTEX
  5
384
330
365
100
AcDbEntity
  8
001
 62
   253
370
    50
100
AcDbVertex
100
AcDb2dVertex
 10
188.882674
 20
146.705844
 30
0.0
  0
VERTEX
  5
385
330
365
100
AcDbEntity
  8
001
 62
   253
370
    50
100
AcDbVertex
100
AcDb2dVertex
 10
188.851134
 20
146.706572
 30
0.0
  0
SEQEND
  5
366
330
365
100
AcDbEntity
  8
001
370
    50
  0
POLYLINE
  5
386
330
1F
100
AcDbEntity
  8
001
 62
   253
370
    50
100
AcDb2dPolyline
 66
     1
 10
0.0
 20
0.0
 30
0.0
  0
VERTEX
  5
388
330
386
100
AcDbEntity
  8
001
 62
   253
370
    50
100
AcDbVertex
100
AcDb2dVertex
 10
188.851134
 20
131.214638
 30
0.0
  0
VERTEX
  5
389
330
386
100
AcDbEntity
  8
001
 62
   253
370
    50
100
AcDbVertex
100
AcDb2dVertex
 10
188.912521
 20
131.217397
 30
0.0
  0
VERTEX
  5
38A
330
386
100
AcDbEntity
  8
001
 62
   253
370
    50
100
AcDbVertex
100
AcDb2dVertex
 10
188.973698
 20
131.222406
 30
0.0
  0
VERTEX
  5
38B
330
386
100
AcDbEntity
  8
001
 62
   253
370
    50
100
AcDbVertex
100
AcDb2dVertex
 10
189.135388
 20
131.256075
 30
0.0
  0
VERTEX
  5
38C
330
386
100
AcDbEntity
  8
001
 62
   253
370
    50
100
AcDbVertex
100
AcDb2dVertex
 10
189.290074
 20
131.315867
 30
0.0
  0
VERTEX
  5
38D
330
386
100
AcDbEntity
  8
001
 62
   253
370
    50
100
AcDbVertex
100
AcDb2dVertex
 10
189.391364
 20
131.36952
 30
0.0
  0
VERTEX
  5
38E
330
386
100
AcDbEntity
  8
001
 62
   253
370
    50
100
AcDbVertex
100
AcDb2dVertex
 10
189.487379
 20
131.431699
 30
0.0
  0
VERTEX
  5
38F
330
386
100
AcDbEntity
  8
001
 62
   253
370
    50
100
AcDbVertex
100
AcDb2dVertex
 10
189.578288
 20
131.501523
 30
0.0
  0
VERTEX
  5
390
330
386
100
AcDbEntity
  8
001
 62
   253
370
    50
100
AcDbVertex
100
AcDb2dVertex
 10
189.663966
 20
131.577798
 30
0.0
  0
VERTEX
  5
391
330
386
100
AcDbEntity
  8
001
 62
   253
370
    50
100
AcDbVertex
100
AcDb2dVertex
 10
189.788674
 20
131.708745
 30
0.0
  0
VERTEX
  5
392
330
386
100
AcDbEntity
  8
001
 62
   253
370
    50
100
AcDbVertex
100
AcDb2dVertex
 10
189.901381
 20
131.850239
 30
0.0
  0
VERTEX
  5
393
330
386
100
AcDbEntity
  8
001
 62
   253
370
    50
100
AcDbVertex
100
AcDb2dVertex
 10
190.003247
 20
132.000103
 30
0.0
  0
VERTEX
  5
394
330
386
100
AcDbEntity
  8
001
 62
   253
370
    50
100
AcDbVertex
100
AcDb2dVertex
 10
190.095212
 20
132.156232
 30
0.0
  0
VERTEX
  5
395
330
386
100
AcDbEntity
  8
001
 62
   253
370
    50
100
AcDbVertex
100
AcDb2dVertex
 10
190.200645
 20
132.363705
 30
0.0
  0
VERTEX
  5
396
330
386
100
AcDbEntity
  8
001
 62
   253
370
    50
100
AcDbVertex
100
AcDb2dVertex
 10
190.293185
 20
132.577278
 30
0.0
  0
VERTEX
  5
397
330
386
100
AcDbEntity
  8
001
 62
   253
370
    50
100
AcDbVertex
100
AcDb2dVertex
 10
190.374427
 20
132.79632
 30
0.0
  0
VERTEX
  5
398
330
386
100
AcDbEntity
  8
001
 62
   253
370
    50
100
AcDbVertex
100
AcDb2dVertex
 10
190.4452
 20
133.018941
 30
0.0
  0
VERTEX
  5
399
330
386
100
AcDbEntity
  8
001
 62
   253
370
    50
100
AcDbVertex
100
AcDb2dVertex
 10
190.506742
 20
133.244021
 30
0.0
  0
VERTEX
  5
39A
330
386
100
AcDbEntity
  8
001
 62
   253
370
    50
100
AcDbVertex
100
AcDb2dVertex
 10
190.560806
 20
133.471042
 30
0.0
  0
VERTEX
  5
39B
330
386
100
AcDbEntity
  8
001
 62
   253
370
    50
100
AcDbVertex
100
AcDb2dVertex
 10
190.665534
 20
134.009695
 30
0.0
  0
VERTEX
  5
39C
330
386
100
AcDbEntity
  8
001
 62
   253
370
    50
100
AcDbVertex
100
AcDb2dVertex
 10
190.74323
 20
134.553027
 30
0.0
  0
VERTEX
  5
39D
330
386
100
AcDbEntity
  8
001
 62
   253
370
    50
100
AcDbVertex
100
AcDb2dVertex
 10
190.798287
 20
135.099985
 30
0.0
  0
VERTEX
  5
39E
330
386
100
AcDbEntity
  8
001
 62
   253
370
    50
100
AcDbVertex
100
AcDb2dVertex
 10
190.834259
 20
135.648488
 30
0.0
  0
VERTEX
  5
39F
330
386
100
AcDbEntity
  8
001
 62
   253
370
    50
100
AcDbVertex
100
AcDb2dVertex
 10
190.854754
 20
136.200038
 30
0.0
  0
VERTEX
  5
3A0
330
386
100
AcDbEntity
  8
001
 62
   253
370
    50
100
AcDbVertex
100
AcDb2dVertex
 10
190.86311
 20
136.751913
 30
0.0
  0
VERTEX
  5
3A1
330
386
100
AcDbEntity
  8
001
 62
   253
370
    50
100
AcDbVertex
100
AcDb2dVertex
 10
190.863031
 20
137.30486
 30
0.0
  0
VERTEX
  5
3A2
330
386
100
AcDbEntity
  8
001
 62
   253
370
    50
100
AcDbVertex
100
AcDb2dVertex
 10
190.858997
 20
137.85779
 30
0.0
  0
VERTEX
  5
3A3
330
386
100
AcDbEntity
  8
001
 62
   253
370
    50
100
AcDbVertex
100
AcDb2dVertex
 10
190.854879
 20
138.409197
 30
0.0
  0
VERTEX
  5
3A4
330
386
100
AcDbEntity
  8
001
 62
   253
370
    50
100
AcDbVertex
100
AcDb2dVertex
 10
190.851134
 20
138.960605
 30
0.0
  0
SEQEND
  5
387
330
386
100
AcDbEntity
  8
001
370
    50
  0
LINE
  5
3A5
330
1F
100
AcDbEntity
  8
001
 62
   253
370
    50
100
AcDbLine
 10
113.851134
 20
131.214638
 30
0.0
 11
188.851134
 21
131.214638
 31
0.0
  0
LINE
  5
3A6
330
1F
100
AcDbEntity
  8
001
 62
   253
370
    50
100
AcDbLine
 10
110.851134
 20
132.308538
 30
0.0
 11
113.851134
 21
132.308538
 31
0.0
  0
LINE
  5
3A7
330
1F
100
AcDbEntity
  8
001
 62
   253
370
    50
100
AcDbLine
 10
113.851134
 20
145.612672
 30
0.0
 11
110.851134
 21
145.612672
 31
0.0
  0
LINE
  5
3A8
330
1F
100
AcDbEntity
  8
001
 62
   253
370
    50
100
AcDbLine
 10
113.851134
 20
154.460605
 30
0.0
 11
110.851134
 21
154.460605
 31
0.0
  0
LINE
  5
3A9
330
1F
100
AcDbEntity
  8
001
 62
   253
370
    50
100
AcDbLine
 10
110.851134
 20
123.460605
 30
0.0
 11
113.851134
 21
123.460605
 31
0.0
  0
ARC
  5
3AA
330
1F
100
AcDbEntity
  8
001
 62
   253
370
    50
100
AcDbCircle
 10
188.851134
 20
152.960605
 30
0.0
 40
2.0
100
AcDbArc
 50
0.0
 51
90.0
  0
ARC
  5
3AB
330
1F
100
AcDbEntity
  8
001
 62
   253
370
    50
100
AcDbCircle
 10
188.851134
 20
124.960605
 30
0.0
 40
2.0
100
AcDbArc
 50
270.0
 51
0.0
  0
LINE
  5
3AC
330
1F
100
AcDbEntity
  8
001
 62
   253
370
    50
100
AcDbLine
 10
190.851134
 20
152.960605
 30
0.0
 11
190.851134
 21
140.55904
 31
0.0
  0
LINE
  5
3AD
330
1F
100
AcDbEntity
  8
001
 62
   253
370
    50
100
AcDbLine
 10
190.851134
 20
136.293803
 30
0.0
 11
190.851134
 21
124.960605
 31
0.0
  0
LINE
  5
3AE
330
1F
100
AcDbEntity
  8
001
 62
   253
370
    50
100
AcDbLine
 10
113.851134
 20
154.960605
 30
0.0
 11
113.851134
 21
145.612672
 31
0.0
  0
LINE
  5
3AF
330
1F
100
AcDbEntity
  8
001
 62
   253
370
    50
100
AcDbLine
 10
188.851134
 20
154.960605
 30
0.0
 11
113.851134
 21
154.960605
 31
0.0
  0
LINE
  5
3B0
330
1F
100
AcDbEntity
  8
001
 62
   253
370
    50
100
AcDbLine
 10
113.851134
 20
122.960605
 30
0.0
 11
188.851134
 21
122.960605
 31
0.0
  0
LINE
  5
3B1
330
1F
100
AcDbEntity
  8
001
 62
   253
370
    50
100
AcDbLine
 10
113.851134
 20
132.308538
 30
0.0
 11
113.851134
 21
122.960605
 31
0.0
  0
ARC
  5
3B2
330
1F
100
AcDbEntity
  8
001
 62
   253
370
    50
100
AcDbCircle
 10
76.851134
 20
127.002057
 30
0.0
 40
1.0
100
AcDbArc
 50
180.0
 51
240.0
  0
ARC
  5
3B3
330
1F
100
AcDbEntity
  8
001
 62
   253
370
    50
100
AcDbCircle
 10
76.851134
 20
150.919153
 30
0.0
 40
1.0
100
AcDbArc
 50
120.0
 51
180.0
  0
LINE
  5
3B4
330
1F
100
AcDbEntity
  8
001
 62
   253
370
    50
100
AcDbLine
 10
75.851134
 20
127.002057
 30
0.0
 11
75.851134
 21
150.919153
 31
0.0
  0
ARC
  5
3B5
330
1F
100
AcDbEntity
  8
001
 62
   253
370
    50
100
AcDbCircle
 10
268.072028
 20
138.960605
 30
0.0
 40
15.99999999999999
100
AcDbArc
 50
208.955024
 51
151.044976
  0
LINE
  5
3B6
330
1F
100
AcDbEntity
  8
001
 62
   253
370
    50
100
AcDbLine
 10
254.072028
 20
131.214638
 30
0.0
 11
254.072028
 21
146.706572
 31
0.0
  0
CIRCLE
  5
3B7
330
1F
100
AcDbEntity
  8
001
 62
   253
370
    50
100
AcDbCircle
 10
268.072028
 20
138.960605
 30
0.0
 40
10.20710678118654
  0
CIRCLE
  5
3B8
330
1F
100
AcDbEntity
  8
001
 62
   253
370
    50
100
AcDbCircle
 10
268.072028
 20
138.960605
 30
0.0
 40
9.999999999999993
  0
CIRCLE
  5
3B9
330
1F
100
AcDbEntity
  8
001
 62
   253
370
    50
100
AcDbCircle
 10
268.072028
 20
138.960605
 30
0.0
 40
20.0
  0
ARC
  5
3BA
330
1F
100
AcDbEntity
  8
001
 62
   253
370
    50
100
AcDbCircle
 10
109.851134
 20
60.343917
 30
0.0
 40
1.0
100
AcDbArc
 50
0.0
 51
90.0
  0
ARC
  5
3BB
330
1F
100
AcDbEntity
  8
001
 62
   253
370
    50
100
AcDbCircle
 10
109.851134
 20
22.343917
 30
0.0
 40
1.0
100
AcDbArc
 50
270.0
 51
0.0
  0
LINE
  5
3BC
330
1F
100
AcDbEntity
  8
001
 62
   253
370
    50
100
AcDbLine
 10
110.851134
 20
22.343917
 30
0.0
 11
110.851134
 21
60.343917
 31
0.0
  0
ARC
  5
3BD
330
1F
100
AcDbEntity
  8
001
 62
   253
370
    50
100
AcDbCircle
 10
106.851134
 20
22.343917
 30
0.0
 40
1.0
100
AcDbArc
 50
180.0
 51
270.0
  0
ARC
  5
3BE
330
1F
100
AcDbEntity
  8
001
 62
   253
370
    50
100
AcDbCircle
 10
106.851134
 20
60.343917
 30
0.0
 40
1.0
100
AcDbArc
 50
90.0
 51
180.0
  0
LINE
  5
3BF
330
1F
100
AcDbEntity
  8
001
 62
   253
370
    50
100
AcDbLine
 10
105.851134
 20
60.343917
 30
0.0
 11
105.851134
 21
22.343917
 31
0.0
  0
LINE
  5
3C0
330
1F
100
AcDbEntity
  8
001
 62
   253
370
    50
100
AcDbLine
 10
109.851134
 20
61.343917
 30
0.0
 11
106.851134
 21
61.343917
 31
0.0
  0
LINE
  5
3C1
330
1F
100
AcDbEntity
  8
001
 62
   253
370
    50
100
AcDbLine
 10
106.851134
 20
21.343917
 30
0.0
 11
109.851134
 21
21.343917
 31
0.0
  0
POLYLINE
  5
3C2
330
1F
100
AcDbEntity
  8
001
 62
   253
370
    50
100
AcDb2dPolyline
 66
     1
 10
0.0
 20
0.0
 30
0.0
  0
VERTEX
  5
3C4
330
3C2
100
AcDbEntity
  8
001
 62
   253
370
    50
100
AcDbVertex
100
AcDb2dVertex
 10
95.116127
 20
57.343917
 30
0.0
  0
VERTEX
  5
3C5
330
3C2
100
AcDbEntity
  8
001
 62
   253
370
    50
100
AcDbVertex
100
AcDb2dVertex
 10
95.130992
 20
57.34053
 30
0.0
  0
VERTEX
  5
3C6
330
3C2
100
AcDbEntity
  8
001
 62
   253
370
    50
100
AcDbVertex
100
AcDb2dVertex
 10
95.145859
 20
57.337147
 30
0.0
  0
VERTEX
  5
3C7
330
3C2
100
AcDbEntity
  8
001
 62
   253
370
    50
100
AcDbVertex
100
AcDb2dVertex
 10
95.212199
 20
57.322175
 30
0.0
  0
VERTEX
  5
3C8
330
3C2
100
AcDbEntity
  8
001
 62
   253
370
    50
100
AcDbVertex
100
AcDb2dVertex
 10
95.278581
 20
57.307392
 30
0.0
  0
VERTEX
  5
3C9
330
3C2
100
AcDbEntity
  8
001
 62
   253
370
    50
100
AcDbVertex
100
AcDb2dVertex
 10
95.387885
 20
57.283466
 30
0.0
  0
VERTEX
  5
3CA
330
3C2
100
AcDbEntity
  8
001
 62
   253
370
    50
100
AcDbVertex
100
AcDb2dVertex
 10
95.497297
 20
57.260038
 30
0.0
  0
VERTEX
  5
3CB
330
3C2
100
AcDbEntity
  8
001
 62
   253
370
    50
100
AcDbVertex
100
AcDb2dVertex
 10
95.651152
 20
57.227994
 30
0.0
  0
VERTEX
  5
3CC
330
3C2
100
AcDbEntity
  8
001
 62
   253
370
    50
100
AcDbVertex
100
AcDb2dVertex
 10
95.805215
 20
57.196967
 30
0.0
  0
VERTEX
  5
3CD
330
3C2
100
AcDbEntity
  8
001
 62
   253
370
    50
100
AcDbVertex
100
AcDb2dVertex
 10
96.008507
 20
57.157665
 30
0.0
  0
VERTEX
  5
3CE
330
3C2
100
AcDbEntity
  8
001
 62
   253
370
    50
100
AcDbVertex
100
AcDb2dVertex
 10
96.212144
 20
57.120186
 30
0.0
  0
VERTEX
  5
3CF
330
3C2
100
AcDbEntity
  8
001
 62
   253
370
    50
100
AcDbVertex
100
AcDb2dVertex
 10
96.455819
 20
57.077855
 30
0.0
  0
VERTEX
  5
3D0
330
3C2
100
AcDbEntity
  8
001
 62
   253
370
    50
100
AcDbVertex
100
AcDb2dVertex
 10
96.699949
 20
57.038221
 30
0.0
  0
VERTEX
  5
3D1
330
3C2
100
AcDbEntity
  8
001
 62
   253
370
    50
100
AcDbVertex
100
AcDb2dVertex
 10
97.003515
 20
56.992858
 30
0.0
  0
VERTEX
  5
3D2
330
3C2
100
AcDbEntity
  8
001
 62
   253
370
    50
100
AcDbVertex
100
AcDb2dVertex
 10
97.307701
 20
56.951859
 30
0.0
  0
VERTEX
  5
3D3
330
3C2
100
AcDbEntity
  8
001
 62
   253
370
    50
100
AcDbVertex
100
AcDb2dVertex
 10
97.647169
 20
56.911454
 30
0.0
  0
VERTEX
  5
3D4
330
3C2
100
AcDbEntity
  8
001
 62
   253
370
    50
100
AcDbVertex
100
AcDb2dVertex
 10
97.987249
 20
56.876516
 30
0.0
  0
VERTEX
  5
3D5
330
3C2
100
AcDbEntity
  8
001
 62
   253
370
    50
100
AcDbVertex
100
AcDb2dVertex
 10
98.227744
 20
56.855161
 30
0.0
  0
VERTEX
  5
3D6
330
3C2
100
AcDbEntity
  8
001
 62
   253
370
    50
100
AcDbVertex
100
AcDb2dVertex
 10
98.468487
 20
56.836984
 30
0.0
  0
VERTEX
  5
3D7
330
3C2
100
AcDbEntity
  8
001
 62
   253
370
    50
100
AcDbVertex
100
AcDb2dVertex
 10
98.718431
 20
56.821611
 30
0.0
  0
VERTEX
  5
3D8
330
3C2
100
AcDbEntity
  8
001
 62
   253
370
    50
100
AcDbVertex
100
AcDb2dVertex
 10
98.968505
 20
56.808224
 30
0.0
  0
SEQEND
  5
3C3
330
3C2
100
AcDbEntity
  8
001
370
    50
  0
LINE
  5
3D9
330
1F
100
AcDbEntity
  8
001
 62
   253
370
    50
100
AcDbLine
 10
95.125398
 20
57.343917
 30
0.0
 11
91.575662
 21
57.343917
 31
0.0
  0
LINE
  5
3DA
330
1F
100
AcDbEntity
  8
001
 62
   253
370
    50
100
AcDbLine
 10
105.851134
 20
57.343917
 30
0.0
 11
104.585693
 21
57.343917
 31
0.0
  0
LINE
  5
3DB
330
1F
100
AcDbEntity
  8
001
 62
   253
370
    50
100
AcDbLine
 10
82.119083
 20
25.343917
 30
0.0
 11
105.851134
 21
25.343917
 31
0.0
  0
POLYLINE
  5
3DC
330
1F
100
AcDbEntity
  8
001
 62
   253
370
    50
100
AcDb2dPolyline
 66
     1
 10
0.0
 20
0.0
 30
0.0
  0
VERTEX
  5
3DE
330
3DC
100
AcDbEntity
  8
001
 62
   253
370
    50
100
AcDbVertex
100
AcDb2dVertex
 10
82.119083
 20
57.343242
 30
0.0
  0
VERTEX
  5
3DF
330
3DC
100
AcDbEntity
  8
001
 62
   253
370
    50
100
AcDbVertex
100
AcDb2dVertex
 10
82.126212
 20
57.341617
 30
0.0
  0
VERTEX
  5
3E0
330
3DC
100
AcDbEntity
  8
001
 62
   253
370
    50
100
AcDbVertex
100
AcDb2dVertex
 10
82.133342
 20
57.339993
 30
0.0
  0
VERTEX
  5
3E1
330
3DC
100
AcDbEntity
  8
001
 62
   253
370
    50
100
AcDbVertex
100
AcDb2dVertex
 10
82.186157
 20
57.32803
 30
0.0
  0
VERTEX
  5
3E2
330
3DC
100
AcDbEntity
  8
001
 62
   253
370
    50
100
AcDbVertex
100
AcDb2dVertex
 10
82.238999
 20
57.316186
 30
0.0
  0
VERTEX
  5
3E3
330
3DC
100
AcDbEntity
  8
001
 62
   253
370
    50
100
AcDbVertex
100
AcDb2dVertex
 10
82.340803
 20
57.293707
 30
0.0
  0
VERTEX
  5
3E4
330
3DC
100
AcDbEntity
  8
001
 62
   253
370
    50
100
AcDbVertex
100
AcDb2dVertex
 10
82.442701
 20
57.271661
 30
0.0
  0
VERTEX
  5
3E5
330
3DC
100
AcDbEntity
  8
001
 62
   253
370
    50
100
AcDbVertex
100
AcDb2dVertex
 10
82.587928
 20
57.241035
 30
0.0
  0
VERTEX
  5
3E6
330
3DC
100
AcDbEntity
  8
001
 62
   253
370
    50
100
AcDbVertex
100
AcDb2dVertex
 10
82.733341
 20
57.21131
 30
0.0
  0
VERTEX
  5
3E7
330
3DC
100
AcDbEntity
  8
001
 62
   253
370
    50
100
AcDbVertex
100
AcDb2dVertex
 10
82.921193
 20
57.174315
 30
0.0
  0
VERTEX
  5
3E8
330
3DC
100
AcDbEntity
  8
001
 62
   253
370
    50
100
AcDbVertex
100
AcDb2dVertex
 10
83.109343
 20
57.138868
 30
0.0
  0
VERTEX
  5
3E9
330
3DC
100
AcDbEntity
  8
001
 62
   253
370
    50
100
AcDbVertex
100
AcDb2dVertex
 10
83.351616
 20
57.095621
 30
0.0
  0
VERTEX
  5
3EA
330
3DC
100
AcDbEntity
  8
001
 62
   253
370
    50
100
AcDbVertex
100
AcDb2dVertex
 10
83.594348
 20
57.05502
 30
0.0
  0
VERTEX
  5
3EB
330
3DC
100
AcDbEntity
  8
001
 62
   253
370
    50
100
AcDbVertex
100
AcDb2dVertex
 10
83.8756
 20
57.011436
 30
0.0
  0
VERTEX
  5
3EC
330
3DC
100
AcDbEntity
  8
001
 62
   253
370
    50
100
AcDbVertex
100
AcDb2dVertex
 10
84.157401
 20
56.971567
 30
0.0
  0
VERTEX
  5
3ED
330
3DC
100
AcDbEntity
  8
001
 62
   253
370
    50
100
AcDbVertex
100
AcDb2dVertex
 10
84.498211
 20
56.92851
 30
0.0
  0
VERTEX
  5
3EE
330
3DC
100
AcDbEntity
  8
001
 62
   253
370
    50
100
AcDbVertex
100
AcDb2dVertex
 10
84.839683
 20
56.890946
 30
0.0
  0
VERTEX
  5
3EF
330
3DC
100
AcDbEntity
  8
001
 62
   253
370
    50
100
AcDbVertex
100
AcDb2dVertex
 10
85.213175
 20
56.85628
 30
0.0
  0
VERTEX
  5
3F0
330
3DC
100
AcDbEntity
  8
001
 62
   253
370
    50
100
AcDbVertex
100
AcDb2dVertex
 10
85.587257
 20
56.829011
 30
0.0
  0
VERTEX
  5
3F1
330
3DC
100
AcDbEntity
  8
001
 62
   253
370
    50
100
AcDbVertex
100
AcDb2dVertex
 10
85.777849
 20
56.818077
 30
0.0
  0
VERTEX
  5
3F2
330
3DC
100
AcDbEntity
  8
001
 62
   253
370
    50
100
AcDbVertex
100
AcDb2dVertex
 10
85.968505
 20
56.808224
 30
0.0
  0
SEQEND
  5
3DD
330
3DC
100
AcDbEntity
  8
001
370
    50
  0
POLYLINE
  5
3F3
330
1F
100
AcDbEntity
  8
001
 62
   253
370
    50
100
AcDb2dPolyline
 66
     1
 10
0.0
 20
0.0
 30
0.0
  0
VERTEX
  5
3F5
330
3F3
100
AcDbEntity
  8
001
 62
   253
370
    50
100
AcDbVertex
100
AcDb2dVertex
 10
88.577148
 20
56.864009
 30
0.0
  0
VERTEX
  5
3F6
330
3F3
100
AcDbEntity
  8
001
 62
   253
370
    50
100
AcDbVertex
100
AcDb2dVertex
 10
88.375353
 20
56.842938
 30
0.0
  0
VERTEX
  5
3F7
330
3F3
100
AcDbEntity
  8
001
 62
   253
370
    50
100
AcDbVertex
100
AcDb2dVertex
 10
88.173395
 20
56.823646
 30
0.0
  0
VERTEX
  5
3F8
330
3F3
100
AcDbEntity
  8
001
 62
   253
370
    50
100
AcDbVertex
100
AcDb2dVertex
 10
87.963807
 20
56.806997
 30
0.0
  0
VERTEX
  5
3F9
330
3F3
100
AcDbEntity
  8
001
 62
   253
370
    50
100
AcDbVertex
100
AcDb2dVertex
 10
87.753971
 20
56.793553
 30
0.0
  0
VERTEX
  5
3FA
330
3F3
100
AcDbEntity
  8
001
 62
   253
370
    50
100
AcDbVertex
100
AcDb2dVertex
 10
87.44955
 20
56.778854
 30
0.0
  0
VERTEX
  5
3FB
330
3F3
100
AcDbEntity
  8
001
 62
   253
370
    50
100
AcDbVertex
100
AcDb2dVertex
 10
87.144917
 20
56.769872
 30
0.0
  0
VERTEX
  5
3FC
330
3F3
100
AcDbEntity
  8
001
 62
   253
370
    50
100
AcDbVertex
100
AcDb2dVertex
 10
86.975999
 20
56.767497
 30
0.0
  0
VERTEX
  5
3FD
330
3F3
100
AcDbEntity
  8
001
 62
   253
370
    50
100
AcDbVertex
100
AcDb2dVertex
 10
86.807065
 20
56.767241
 30
0.0
  0
VERTEX
  5
3FE
330
3F3
100
AcDbEntity
  8
001
 62
   253
370
    50
100
AcDbVertex
100
AcDb2dVertex
 10
86.638509
 20
56.769255
 30
0.0
  0
VERTEX
  5
3FF
330
3F3
100
AcDbEntity
  8
001
 62
   253
370
    50
100
AcDbVertex
100
AcDb2dVertex
 10
86.469998
 20
56.77323
 30
0.0
  0
VERTEX
  5
400
330
3F3
100
AcDbEntity
  8
001
 62
   253
370
    50
100
AcDbVertex
100
AcDb2dVertex
 10
86.348058
 20
56.777256
 30
0.0
  0
VERTEX
  5
401
330
3F3
100
AcDbEntity
  8
001
 62
   253
370
    50
100
AcDbVertex
100
AcDb2dVertex
 10
86.226145
 20
56.782915
 30
0.0
  0
VERTEX
  5
402
330
3F3
100
AcDbEntity
  8
001
 62
   253
370
    50
100
AcDbVertex
100
AcDb2dVertex
 10
86.111151
 20
56.790873
 30
0.0
  0
VERTEX
  5
403
330
3F3
100
AcDbEntity
  8
001
 62
   253
370
    50
100
AcDbVertex
100
AcDb2dVertex
 10
85.996708
 20
56.803948
 30
0.0
  0
VERTEX
  5
404
330
3F3
100
AcDbEntity
  8
001
 62
   253
370
    50
100
AcDbVertex
100
AcDb2dVertex
 10
85.982602
 20
56.806055
 30
0.0
  0
VERTEX
  5
405
330
3F3
100
AcDbEntity
  8
001
 62
   253
370
    50
100
AcDbVertex
100
AcDb2dVertex
 10
85.968505
 20
56.808224
 30
0.0
  0
SEQEND
  5
3F4
330
3F3
100
AcDbEntity
  8
001
370
    50
  0
POLYLINE
  5
406
330
1F
100
AcDbEntity
  8
001
 62
   253
370
    50
100
AcDb2dPolyline
 66
     1
 10
0.0
 20
0.0
 30
0.0
  0
VERTEX
  5
408
330
406
100
AcDbEntity
  8
001
 62
   253
370
    50
100
AcDbVertex
100
AcDb2dVertex
 10
88.577148
 20
56.864009
 30
0.0
  0
VERTEX
  5
409
330
406
100
AcDbEntity
  8
001
 62
   253
370
    50
100
AcDbVertex
100
AcDb2dVertex
 10
88.752391
 20
56.880349
 30
0.0
  0
VERTEX
  5
40A
330
406
100
AcDbEntity
  8
001
 62
   253
370
    50
100
AcDbVertex
100
AcDb2dVertex
 10
88.927538
 20
56.897639
 30
0.0
  0
VERTEX
  5
40B
330
406
100
AcDbEntity
  8
001
 62
   253
370
    50
100
AcDbVertex
100
AcDb2dVertex
 10
89.109736
 20
56.917448
 30
0.0
  0
VERTEX
  5
40C
330
406
100
AcDbEntity
  8
001
 62
   253
370
    50
100
AcDbVertex
100
AcDb2dVertex
 10
89.291739
 20
56.939016
 30
0.0
  0
VERTEX
  5
40D
330
406
100
AcDbEntity
  8
001
 62
   253
370
    50
100
AcDbVertex
100
AcDb2dVertex
 10
89.465905
 20
56.961101
 30
0.0
  0
VERTEX
  5
40E
330
406
100
AcDbEntity
  8
001
 62
   253
370
    50
100
AcDbVertex
100
AcDb2dVertex
 10
89.639886
 20
56.984588
 30
0.0
  0
VERTEX
  5
40F
330
406
100
AcDbEntity
  8
001
 62
   253
370
    50
100
AcDbVertex
100
AcDb2dVertex
 10
89.809376
 20
57.008888
 30
0.0
  0
VERTEX
  5
410
330
406
100
AcDbEntity
  8
001
 62
   253
370
    50
100
AcDbVertex
100
AcDb2dVertex
 10
89.978667
 20
57.034538
 30
0.0
  0
VERTEX
  5
411
330
406
100
AcDbEntity
  8
001
 62
   253
370
    50
100
AcDbVertex
100
AcDb2dVertex
 10
90.136651
 20
57.059689
 30
0.0
  0
VERTEX
  5
412
330
406
100
AcDbEntity
  8
001
 62
   253
370
    50
100
AcDbVertex
100
AcDb2dVertex
 10
90.294451
 20
57.085975
 30
0.0
  0
VERTEX
  5
413
330
406
100
AcDbEntity
  8
001
 62
   253
370
    50
100
AcDbVertex
100
AcDb2dVertex
 10
90.515578
 20
57.124765
 30
0.0
  0
VERTEX
  5
414
330
406
100
AcDbEntity
  8
001
 62
   253
370
    50
100
AcDbVertex
100
AcDb2dVertex
 10
90.736312
 20
57.165736
 30
0.0
  0
VERTEX
  5
415
330
406
100
AcDbEntity
  8
001
 62
   253
370
    50
100
AcDbVertex
100
AcDb2dVertex
 10
90.921966
 20
57.201914
 30
0.0
  0
VERTEX
  5
416
330
406
100
AcDbEntity
  8
001
 62
   253
370
    50
100
AcDbVertex
100
AcDb2dVertex
 10
91.107322
 20
57.239579
 30
0.0
  0
VERTEX
  5
417
330
406
100
AcDbEntity
  8
001
 62
   253
370
    50
100
AcDbVertex
100
AcDb2dVertex
 10
91.186137
 20
57.256057
 30
0.0
  0
VERTEX
  5
418
330
406
100
AcDbEntity
  8
001
 62
   253
370
    50
100
AcDbVertex
100
AcDb2dVertex
 10
91.264897
 20
57.272801
 30
0.0
  0
VERTEX
  5
419
330
406
100
AcDbEntity
  8
001
 62
   253
370
    50
100
AcDbVertex
100
AcDb2dVertex
 10
91.329037
 20
57.286641
 30
0.0
  0
VERTEX
  5
41A
330
406
100
AcDbEntity
  8
001
 62
   253
370
    50
100
AcDbVertex
100
AcDb2dVertex
 10
91.393141
 20
57.300652
 30
0.0
  0
VERTEX
  5
41B
330
406
100
AcDbEntity
  8
001
 62
   253
370
    50
100
AcDbVertex
100
AcDb2dVertex
 10
91.44308
 20
57.311688
 30
0.0
  0
VERTEX
  5
41C
330
406
100
AcDbEntity
  8
001
 62
   253
370
    50
100
AcDbVertex
100
AcDb2dVertex
 10
91.492996
 20
57.322829
 30
0.0
  0
VERTEX
  5
41D
330
406
100
AcDbEntity
  8
001
 62
   253
370
    50
100
AcDbVertex
100
AcDb2dVertex
 10
91.525219
 20
57.330081
 30
0.0
  0
VERTEX
  5
41E
330
406
100
AcDbEntity
  8
001
 62
   253
370
    50
100
AcDbVertex
100
AcDb2dVertex
 10
91.557431
 20
57.337379
 30
0.0
  0
VERTEX
  5
41F
330
406
100
AcDbEntity
  8
001
 62
   253
370
    50
100
AcDbVertex
100
AcDb2dVertex
 10
91.571786
 20
57.340646
 30
0.0
  0
VERTEX
  5
420
330
406
100
AcDbEntity
  8
001
 62
   253
370
    50
100
AcDbVertex
100
AcDb2dVertex
 10
91.586141
 20
57.343917
 30
0.0
  0
SEQEND
  5
407
330
406
100
AcDbEntity
  8
001
370
    50
  0
POLYLINE
  5
421
330
1F
100
AcDbEntity
  8
001
 62
   253
370
    50
100
AcDb2dPolyline
 66
     1
 10
0.0
 20
0.0
 30
0.0
  0
VERTEX
  5
423
330
421
100
AcDbEntity
  8
001
 62
   253
370
    50
100
AcDbVertex
100
AcDb2dVertex
 10
101.577148
 20
56.864009
 30
0.0
  0
VERTEX
  5
424
330
421
100
AcDbEntity
  8
001
 62
   253
370
    50
100
AcDbVertex
100
AcDb2dVertex
 10
101.375353
 20
56.842938
 30
0.0
  0
VERTEX
  5
425
330
421
100
AcDbEntity
  8
001
 62
   253
370
    50
100
AcDbVertex
100
AcDb2dVertex
 10
101.173395
 20
56.823646
 30
0.0
  0
VERTEX
  5
426
330
421
100
AcDbEntity
  8
001
 62
   253
370
    50
100
AcDbVertex
100
AcDb2dVertex
 10
100.963807
 20
56.806997
 30
0.0
  0
VERTEX
  5
427
330
421
100
AcDbEntity
  8
001
 62
   253
370
    50
100
AcDbVertex
100
AcDb2dVertex
 10
100.753971
 20
56.793553
 30
0.0
  0
VERTEX
  5
428
330
421
100
AcDbEntity
  8
001
 62
   253
370
    50
100
AcDbVertex
100
AcDb2dVertex
 10
100.44955
 20
56.778854
 30
0.0
  0
VERTEX
  5
429
330
421
100
AcDbEntity
  8
001
 62
   253
370
    50
100
AcDbVertex
100
AcDb2dVertex
 10
100.144917
 20
56.769872
 30
0.0
  0
VERTEX
  5
42A
330
421
100
AcDbEntity
  8
001
 62
   253
370
    50
100
AcDbVertex
100
AcDb2dVertex
 10
99.975999
 20
56.767497
 30
0.0
  0
VERTEX
  5
42B
330
421
100
AcDbEntity
  8
001
 62
   253
370
    50
100
AcDbVertex
100
AcDb2dVertex
 10
99.807065
 20
56.767241
 30
0.0
  0
VERTEX
  5
42C
330
421
100
AcDbEntity
  8
001
 62
   253
370
    50
100
AcDbVertex
100
AcDb2dVertex
 10
99.638509
 20
56.769255
 30
0.0
  0
VERTEX
  5
42D
330
421
100
AcDbEntity
  8
001
 62
   253
370
    50
100
AcDbVertex
100
AcDb2dVertex
 10
99.469998
 20
56.77323
 30
0.0
  0
VERTEX
  5
42E
330
421
100
AcDbEntity
  8
001
 62
   253
370
    50
100
AcDbVertex
100
AcDb2dVertex
 10
99.348058
 20
56.777256
 30
0.0
  0
VERTEX
  5
42F
330
421
100
AcDbEntity
  8
001
 62
   253
370
    50
100
AcDbVertex
100
AcDb2dVertex
 10
99.226145
 20
56.782915
 30
0.0
  0
VERTEX
  5
430
330
421
100
AcDbEntity
  8
001
 62
   253
370
    50
100
AcDbVertex
100
AcDb2dVertex
 10
99.111151
 20
56.790873
 30
0.0
  0
VERTEX
  5
431
330
421
100
AcDbEntity
  8
001
 62
   253
370
    50
100
AcDbVertex
100
AcDb2dVertex
 10
98.996708
 20
56.803948
 30
0.0
  0
VERTEX
  5
432
330
421
100
AcDbEntity
  8
001
 62
   253
370
    50
100
AcDbVertex
100
AcDb2dVertex
 10
98.982602
 20
56.806055
 30
0.0
  0
VERTEX
  5
433
330
421
100
AcDbEntity
  8
001
 62
   253
370
    50
100
AcDbVertex
100
AcDb2dVertex
 10
98.968505
 20
56.808224
 30
0.0
  0
SEQEND
  5
422
330
421
100
AcDbEntity
  8
001
370
    50
  0
POLYLINE
  5
434
330
1F
100
AcDbEntity
  8
001
 62
   253
370
    50
100
AcDb2dPolyline
 66
     1
 10
0.0
 20
0.0
 30
0.0
  0
VERTEX
  5
436
330
434
100
AcDbEntity
  8
001
 62
   253
370
    50
100
AcDbVertex
100
AcDb2dVertex
 10
101.577148
 20
56.864009
 30
0.0
  0
VERTEX
  5
437
330
434
100
AcDbEntity
  8
001
 62
   253
370
    50
100
AcDbVertex
100
AcDb2dVertex
 10
101.89802
 20
56.895504
 30
0.0
  0
VERTEX
  5
438
330
434
100
AcDbEntity
  8
001
 62
   253
370
    50
100
AcDbVertex
100
AcDb2dVertex
 10
102.218535
 20
56.930171
 30
0.0
  0
VERTEX
  5
439
330
434
100
AcDbEntity
  8
001
 62
   253
370
    50
100
AcDbVertex
100
AcDb2dVertex
 10
102.522312
 20
56.968314
 30
0.0
  0
VERTEX
  5
43A
330
434
100
AcDbEntity
  8
001
 62
   253
370
    50
100
AcDbVertex
100
AcDb2dVertex
 10
102.825465
 20
57.011269
 30
0.0
  0
VERTEX
  5
43B
330
434
100
AcDbEntity
  8
001
 62
   253
370
    50
100
AcDbVertex
100
AcDb2dVertex
 10
103.07297
 20
57.049448
 30
0.0
  0
VERTEX
  5
43C
330
434
100
AcDbEntity
  8
001
 62
   253
370
    50
100
AcDbVertex
100
AcDb2dVertex
 10
103.320034
 20
57.090346
 30
0.0
  0
VERTEX
  5
43D
330
434
100
AcDbEntity
  8
001
 62
   253
370
    50
100
AcDbVertex
100
AcDb2dVertex
 10
103.539879
 20
57.129158
 30
0.0
  0
VERTEX
  5
43E
330
434
100
AcDbEntity
  8
001
 62
   253
370
    50
100
AcDbVertex
100
AcDb2dVertex
 10
103.759332
 20
57.170137
 30
0.0
  0
VERTEX
  5
43F
330
434
100
AcDbEntity
  8
001
 62
   253
370
    50
100
AcDbVertex
100
AcDb2dVertex
 10
103.867399
 20
57.191118
 30
0.0
  0
VERTEX
  5
440
330
434
100
AcDbEntity
  8
001
 62
   253
370
    50
100
AcDbVertex
100
AcDb2dVertex
 10
103.975367
 20
57.212606
 30
0.0
  0
VERTEX
  5
441
330
434
100
AcDbEntity
  8
001
 62
   253
370
    50
100
AcDbVertex
100
AcDb2dVertex
 10
104.069075
 20
57.231681
 30
0.0
  0
VERTEX
  5
442
330
434
100
AcDbEntity
  8
001
 62
   253
370
    50
100
AcDbVertex
100
AcDb2dVertex
 10
104.162705
 20
57.251131
 30
0.0
  0
VERTEX
  5
443
330
434
100
AcDbEntity
  8
001
 62
   253
370
    50
100
AcDbVertex
100
AcDb2dVertex
 10
104.243326
 20
57.268187
 30
0.0
  0
VERTEX
  5
444
330
434
100
AcDbEntity
  8
001
 62
   253
370
    50
100
AcDbVertex
100
AcDb2dVertex
 10
104.323887
 20
57.285519
 30
0.0
  0
VERTEX
  5
445
330
434
100
AcDbEntity
  8
001
 62
   253
370
    50
100
AcDbVertex
100
AcDb2dVertex
 10
104.386252
 20
57.299136
 30
0.0
  0
VERTEX
  5
446
330
434
100
AcDbEntity
  8
001
 62
   253
370
    50
100
AcDbVertex
100
AcDb2dVertex
 10
104.448581
 20
57.312914
 30
0.0
  0
VERTEX
  5
447
330
434
100
AcDbEntity
  8
001
 62
   253
370
    50
100
AcDbVertex
100
AcDb2dVertex
 10
104.50901
 20
57.326431
 30
0.0
  0
VERTEX
  5
448
330
434
100
AcDbEntity
  8
001
 62
   253
370
    50
100
AcDbVertex
100
AcDb2dVertex
 10
104.569404
 20
57.340101
 30
0.0
  0
VERTEX
  5
449
330
434
100
AcDbEntity
  8
001
 62
   253
370
    50
100
AcDbVertex
100
AcDb2dVertex
 10
104.577773
 20
57.342009
 30
0.0
  0
VERTEX
  5
44A
330
434
100
AcDbEntity
  8
001
 62
   253
370
    50
100
AcDbVertex
100
AcDb2dVertex
 10
104.586141
 20
57.343917
 30
0.0
  0
SEQEND
  5
435
330
434
100
AcDbEntity
  8
001
370
    50
  0
ARC
  5
44B
330
1F
100
AcDbEntity
  8
001
 62
   253
370
    50
100
AcDbCircle
 10
82.119083
 20
26.343917
 30
0.0
 40
0.9999999999999966
100
AcDbArc
 50
240.0
 51
270.0
  0
ARC
  5
44C
330
1F
100
AcDbEntity
  8
001
 62
   253
370
    50
100
AcDbCircle
 10
82.119083
 20
56.343917
 30
0.0
 40
0.9999999999999966
100
AcDbArc
 50
89.989574
 51
120.0
  0
LINE
  5
44D
330
1F
100
AcDbEntity
  8
001
 62
   253
370
    50
100
AcDbLine
 10
113.851134
 20
25.343917
 30
0.0
 11
188.851134
 21
25.343917
 31
0.0
  0
LINE
  5
44E
330
1F
100
AcDbEntity
  8
001
 62
   253
370
    50
100
AcDbLine
 10
113.851134
 20
55.343917
 30
0.0
 11
113.851134
 21
25.343917
 31
0.0
  0
ARC
  5
44F
330
1F
100
AcDbEntity
  8
001
 62
   253
370
    50
100
AcDbCircle
 10
188.851134
 20
27.343917
 30
0.0
 40
2.0
100
AcDbArc
 50
270.0
 51
0.0
  0
LINE
  5
450
330
1F
100
AcDbEntity
  8
001
 62
   253
370
    50
100
AcDbLine
 10
190.851134
 20
55.343917
 30
0.0
 11
190.851134
 21
27.343917
 31
0.0
  0
LINE
  5
451
330
1F
100
AcDbEntity
  8
001
 62
   253
370
    50
100
AcDbLine
 10
81.619083
 20
57.209943
 30
0.0
 11
76.351134
 21
54.168491
 31
0.0
  0
LINE
  5
452
330
1F
100
AcDbEntity
  8
001
 62
   253
370
    50
100
AcDbLine
 10
76.351134
 20
28.519344
 30
0.0
 11
81.619083
 21
25.477892
 31
0.0
  0
LINE
  5
453
330
1F
100
AcDbEntity
  8
001
 62
   253
370
    50
100
AcDbLine
 10
110.851134
 20
25.843917
 30
0.0
 11
113.851134
 21
25.843917
 31
0.0
  0
LINE
  5
454
330
1F
100
AcDbEntity
  8
001
 62
   253
370
    50
100
AcDbLine
 10
110.851134
 20
55.343917
 30
0.0
 11
190.851134
 21
55.343917
 31
0.0
  0
ARC
  5
455
330
1F
100
AcDbEntity
  8
001
 62
   253
370
    50
100
AcDbCircle
 10
76.851134
 20
29.385369
 30
0.0
 40
1.0
100
AcDbArc
 50
180.0
 51
240.0
  0
ARC
  5
456
330
1F
100
AcDbEntity
  8
001
 62
   253
370
    50
100
AcDbCircle
 10
76.851134
 20
53.302466
 30
0.0
 40
1.0
100
AcDbArc
 50
120.0
 51
180.0
  0
LINE
  5
457
330
1F
100
AcDbEntity
  8
001
 62
   253
370
    50
100
AcDbLine
 10
75.851134
 20
53.302466
 30
0.0
 11
75.851134
 21
29.385369
 31
0.0
  0
LINE
  5
458
330
1F
100
AcDbEntity
  8
001
  6
CENTER
370
     9
100
AcDbLine
 10
243.708467
 20
138.960605
 30
0.0
 11
292.599927
 21
138.960605
 31
0.0
  0
LINE
  5
459
330
1F
100
AcDbEntity
  8
001
  6
CENTER
 62
   253
370
     9
100
AcDbLine
 10
268.072028
 20
112.114687
 30
0.0
 11
268.072028
 21
164.570985
 31
0.0
  0
LINE
  5
45A
330
1F
100
AcDbEntity
  8
001
  6
CENTER
370
     9
100
AcDbLine
 10
68.305533
 20
138.960605
 30
0.0
 11
195.346332
 21
138.960605
 31
0.0
  0
LINE
  5
45B
330
1F
100
AcDbEntity
  8
001
  6
CENTER
370
     9
100
AcDbLine
 10
68.305533
 20
41.343917
 30
0.0
 11
195.346332
 21
41.343917
 31
0.0
  0
LINE
  5
45C
330
1F
100
AcDbEntity
  8
001
  6
DASHED
370
    50
100
AcDbLine
 10
75.851134
 20
51.343917
 30
0.0
 11
190.851134
 21
51.343917
 31
0.0
  0
LINE
  5
45D
330
1F
100
AcDbEntity
  8
001
  6
DASHED
370
    50
100
AcDbLine
 10
75.851134
 20
31.343917
 30
0.0
 11
190.851134
 21
31.343917
 31
0.0
  0
LINE
  5
45E
330
1F
100
AcDbEntity
  8
001
  6
CENTER
370
     9
100
AcDbLine
 10
99.851134
 20
63.015105
 30
0.0
 11
99.851134
 21
45.089841
 31
0.0
  0
LINE
  5
45F
330
1F
100
AcDbEntity
  8
001
  6
CENTER
370
     9
100
AcDbLine
 10
86.851134
 20
63.015105
 30
0.0
 11
86.851134
 21
45.551808
 31
0.0
  0
LINE
  5
460
330
1F
100
AcDbEntity
  8
001
370
     9
100
AcDbLine
 10
113.851134
 20
146.706572
 30
0.0
 11
188.851134
 21
131.214638
 31
0.0
  0
LINE
  5
461
330
1F
100
AcDbEntity
  8
001
370
     9
100
AcDbLine
 10
188.851134
 20
146.706572
 30
0.0
 11
113.851134
 21
131.214638
 31
0.0
  0
LINE
  5
462
330
1F
100
AcDbEntity
  8
001
  6
DASHED
370
    30
100
AcDbLine
 10
96.451134
 20
57.078643
 30
0.0
 11
96.451134
 21
51.343917
 31
0.0
  0
LINE
  5
463
330
1F
100
AcDbEntity
  8
001
  6
DASHED
370
    30
100
AcDbLine
 10
95.851134
 20
57.187926
 30
0.0
 11
95.851134
 21
51.343917
 31
0.0
  0
LINE
  5
464
330
1F
100
AcDbEntity
  8
001
  6
DASHED
370
    30
100
AcDbLine
 10
90.851134
 20
57.187927
 30
0.0
 11
90.851134
 21
51.343917
 31
0.0
  0
LINE
  5
465
330
1F
100
AcDbEntity
  8
001
  6
DASHED
370
    30
100
AcDbLine
 10
90.251134
 20
57.078643
 30
0.0
 11
90.251134
 21
51.343917
 31
0.0
  0
LINE
  5
466
330
1F
100
AcDbEntity
  8
001
  6
DASHED
370
    30
100
AcDbLine
 10
83.451134
 20
57.078643
 30
0.0
 11
83.451134
 21
51.343917
 31
0.0
  0
LINE
  5
467
330
1F
100
AcDbEntity
  8
001
  6
DASHED
370
    30
100
AcDbLine
 10
82.851134
 20
57.187926
 30
0.0
 11
82.851134
 21
51.343917
 31
0.0
  0
LINE
  5
468
330
1F
100
AcDbEntity
  8
001
  6
DASHED
370
    30
100
AcDbLine
 10
103.851134
 20
57.187927
 30
0.0
 11
103.851134
 21
51.343917
 31
0.0
  0
LINE
  5
469
330
1F
100
AcDbEntity
  8
001
  6
DASHED
370
    30
100
AcDbLine
 10
103.251134
 20
57.078653
 30
0.0
 11
103.251134
 21
51.343917
 31
0.0
  0
TEXT
  5
46A
330
1F
100
AcDbEntity
  8
001
370
    30
100
AcDbText
 10
47.833181
 20
199.16144
 30
0.0
 40
10.0
  1
オイルッシャー　ＫＪＤ３２Ｓ２０
 41
0.833333
100
AcDbText
  0
ENDSEC
  0
SECTION
  2
OBJECTS
  0
DICTIONARY
  5
C
330
0
100
AcDbDictionary
281
     1
  3
ACAD_GROUP
350
D
  3
ACAD_LAYOUT
350
1A
  3
ACAD_MLEADERSTYLE
350
46E
  3
ACAD_MLINESTYLE
350
17
  3
ACAD_PLOTSETTINGS
350
19
  3
ACAD_PLOTSTYLENAME
350
E
  3
ACAD_SCALELIST
350
3B
  3
ACAD_TABLESTYLE
350
46D
  3
ACAD_VISUALSTYLE
350
2A
  3
AcDbVariableDictionary
350
46B
  0
DICTIONARY
  5
D
102
{ACAD_REACTORS
330
C
102
}
330
C
100
AcDbDictionary
281
     1
  0
DICTIONARY
  5
1A
102
{ACAD_REACTORS
330
C
102
}
330
C
100
AcDbDictionary
281
     1
  3
Layout1
350
1E
  3
Layout2
350
26
  3
Model
350
22
  0
DICTIONARY
  5
46E
102
{ACAD_REACTORS
330
C
102
}
330
C
100
AcDbDictionary
281
     1
  0
DICTIONARY
  5
17
102
{ACAD_REACTORS
330
C
102
}
330
C
100
AcDbDictionary
281
     1
  3
Standard
350
18
  0
DICTIONARY
  5
19
102
{ACAD_REACTORS
330
C
102
}
330
C
100
AcDbDictionary
281
     1
  0
ACDBDICTIONARYWDFLT
  5
E
102
{ACAD_REACTORS
330
C
102
}
330
C
100
AcDbDictionary
281
     1
  3
Normal
350
F
100
AcDbDictionaryWithDefault
340
F
  0
DICTIONARY
  5
3B
102
{ACAD_REACTORS
330
C
102
}
330
C
100
AcDbDictionary
281
     1
  3
A0
350
3C
  3
A1
350
3D
  3
A2
350
3E
  3
A3
350
3F
  3
A4
350
40
  3
A5
350
41
  3
A6
350
42
  3
A7
350
43
  3
A8
350
44
  3
A9
350
45
  3
B0
350
46
  3
B1
350
47
  3
B2
350
48
  3
B3
350
49
  3
B4
350
4A
  3
B5
350
4B
  3
B6
350
4C
  3
B7
350
4D
  3
B8
350
4E
  3
B9
350
4F
  3
C0
350
50
  3
C1
350
51
  3
C2
350
52
  3
C3
350
53
  3
C4
350
54
  3
C5
350
55
  3
C6
350
56
  3
C7
350
57
  3
C8
350
58
  3
C9
350
59
  3
D0
350
5A
  3
D1
350
5B
  3
D2
350
5C
  0
DICTIONARY
  5
46D
102
{ACAD_REACTORS
330
C
102
}
330
C
100
AcDbDictionary
281
     1
  0
DICTIONARY
  5
2A
102
{ACAD_REACTORS
330
C
102
}
330
C
100
AcDbDictionary
281
     1
  3
2dWireframe
350
2F
  3
3D Hidden
350
31
  3
3dWireframe
350
30
  3
Basic
350
32
  3
Brighten
350
36
  3
ColorChange
350
3A
  3
Conceptual
350
34
  3
Dim
350
35
  3
Facepattern
350
39
  3
Flat
350
2B
  3
FlatWithEdges
350
2C
  3
Gouraud
350
2D
  3
GouraudWithEdges
350
2E
  3
Linepattern
350
38
  3
Realistic
350
33
  3
Thicken
350
37
  0
DICTIONARY
  5
46B
102
{ACAD_REACTORS
330
C
102
}
330
C
100
AcDbDictionary
281
     1
  3
CANNOSCALE
350
46C
  3
PSOLHEIGHT
350
470
  3
PSOLWIDTH
350
46F
  0
LAYOUT
  5
1E
102
{ACAD_REACTORS
330
1A
102
}
330
1A
100
AcDbPlotSettings
  1

  2
none_device
  4

  6

 40
0.0
 41
0.0
 42
0.0
 43
0.0
 44
0.0
 45
0.0
 46
0.0
 47
0.0
 48
0.0
 49
0.0
140
0.0
141
0.0
142
1.0
143
1.0
 70
   688
 72
     0
 73
     0
 74
     5
  7

 75
    16
147
1.0
148
0.0
149
0.0
100
AcDbLayout
  1
Layout1
 70
     1
 71
     1
 10
0.0
 20
0.0
 11
12.0
 21
9.0
 12
0.0
 22
0.0
 32
0.0
 14
1.000000E+20
 24
1.000000E+20
 34
0.0
 15
-1.000000E+20
 25
-1.000000E+20
 35
0.0
146
0.0
 13
0.0
 23
0.0
 33
0.0
 16
1.0
 26
0.0
 36
0.0
 17
0.0
 27
1.0
 37
0.0
 76
     0
330
1B
  0
LAYOUT
  5
26
102
{ACAD_REACTORS
330
1A
102
}
330
1A
100
AcDbPlotSettings
  1

  2
none_device
  4

  6

 40
0.0
 41
0.0
 42
0.0
 43
0.0
 44
0.0
 45
0.0
 46
0.0
 47
0.0
 48
0.0
 49
0.0
140
0.0
141
0.0
142
1.0
143
1.0
 70
   688
 72
     0
 73
     0
 74
     5
  7

 75
    16
147
1.0
148
0.0
149
0.0
100
AcDbLayout
  1
Layout2
 70
     1
 71
     2
 10
0.0
 20
0.0
 11
0.0
 21
0.0
 12
0.0
 22
0.0
 32
0.0
 14
0.0
 24
0.0
 34
0.0
 15
0.0
 25
0.0
 35
0.0
146
0.0
 13
0.0
 23
0.0
 33
0.0
 16
1.0
 26
0.0
 36
0.0
 17
0.0
 27
1.0
 37
0.0
 76
     0
330
23
  0
LAYOUT
  5
22
102
{ACAD_REACTORS
330
1A
102
}
330
1A
100
AcDbPlotSettings
  1

  2
none_device
  4

  6

 40
0.0
 41
0.0
 42
0.0
 43
0.0
 44
0.0
 45
0.0
 46
0.0
 47
0.0
 48
0.0
 49
0.0
140
0.0
141
0.0
142
1.0
143
1.0
 70
  1712
 72
     0
 73
     0
 74
     0
  7

 75
     0
147
1.0
148
0.0
149
0.0
100
AcDbLayout
  1
Model
 70
     1
 71
     0
 10
0.0
 20
0.0
 11
12.0
 21
9.0
 12
0.0
 22
0.0
 32
0.0
 14
-0.00943
 24
-0.525452
 34
0.0
 15
292.599915
 25
209.161438
 35
0.0
146
0.0
 13
0.0
 23
0.0
 33
0.0
 16
1.0
 26
0.0
 36
0.0
 17
0.0
 27
1.0
 37
0.0
 76
     0
330
1F
331
29
  0
MLINESTYLE
  5
18
102
{ACAD_REACTORS
330
17
102
}
330
17
100
AcDbMlineStyle
  2
Standard
 70
     0
  3

 62
   256
 51
90.0
 52
90.0
 71
     2
 49
0.5
 62
   256
  6
BYLAYER
 49
-0.5
 62
   256
  6
BYLAYER
  0
ACDBPLACEHOLDER
  5
F
102
{ACAD_REACTORS
330
E
102
}
330
E
  0
SCALE
  5
3C
102
{ACAD_REACTORS
330
3B
102
}
330
3B
100
AcDbScale
 70
     0
300
1:1
140
1.0
141
1.0
290
     1
  0
SCALE
  5
3D
102
{ACAD_REACTORS
330
3B
102
}
330
3B
100
AcDbScale
 70
     0
300
1:2
140
1.0
141
2.0
290
     0
  0
SCALE
  5
3E
102
{ACAD_REACTORS
330
3B
102
}
330
3B
100
AcDbScale
 70
     0
300
1:4
140
1.0
141
4.0
290
     0
  0
SCALE
  5
3F
102
{ACAD_REACTORS
330
3B
102
}
330
3B
100
AcDbScale
 70
     0
300
1:5
140
1.0
141
5.0
290
     0
  0
SCALE
  5
40
102
{ACAD_REACTORS
330
3B
102
}
330
3B
100
AcDbScale
 70
     0
300
1:8
140
1.0
141
8.0
290
     0
  0
SCALE
  5
41
102
{ACAD_REACTORS
330
3B
102
}
330
3B
100
AcDbScale
 70
     0
300
1:10
140
1.0
141
10.0
290
     0
  0
SCALE
  5
42
102
{ACAD_REACTORS
330
3B
102
}
330
3B
100
AcDbScale
 70
     0
300
1:16
140
1.0
141
16.0
290
     0
  0
SCALE
  5
43
102
{ACAD_REACTORS
330
3B
102
}
330
3B
100
AcDbScale
 70
     0
300
1:20
140
1.0
141
20.0
290
     0
  0
SCALE
  5
44
102
{ACAD_REACTORS
330
3B
102
}
330
3B
100
AcDbScale
 70
     0
300
1:30
140
1.0
141
30.0
290
     0
  0
SCALE
  5
45
102
{ACAD_REACTORS
330
3B
102
}
330
3B
100
AcDbScale
 70
     0
300
1:40
140
1.0
141
40.0
290
     0
  0
SCALE
  5
46
102
{ACAD_REACTORS
330
3B
102
}
330
3B
100
AcDbScale
 70
     0
300
1:50
140
1.0
141
50.0
290
     0
  0
SCALE
  5
47
102
{ACAD_REACTORS
330
3B
102
}
330
3B
100
AcDbScale
 70
     0
300
1:100
140
1.0
141
100.0
290
     0
  0
SCALE
  5
48
102
{ACAD_REACTORS
330
3B
102
}
330
3B
100
AcDbScale
 70
     0
300
2:1
140
2.0
141
1.0
290
     0
  0
SCALE
  5
49
102
{ACAD_REACTORS
330
3B
102
}
330
3B
100
AcDbScale
 70
     0
300
4:1
140
4.0
141
1.0
290
     0
  0
SCALE
  5
4A
102
{ACAD_REACTORS
330
3B
102
}
330
3B
100
AcDbScale
 70
     0
300
8:1
140
8.0
141
1.0
290
     0
  0
SCALE
  5
4B
102
{ACAD_REACTORS
330
3B
102
}
330
3B
100
AcDbScale
 70
     0
300
10:1
140
10.0
141
1.0
290
     0
  0
SCALE
  5
4C
102
{ACAD_REACTORS
330
3B
102
}
330
3B
100
AcDbScale
 70
     0
300
100:1
140
100.0
141
1.0
290
     0
  0
SCALE
  5
4D
102
{ACAD_REACTORS
330
3B
102
}
330
3B
100
AcDbScale
 70
     0
300
1/128" = 1'-0"
140
0.007812
141
12.0
290
     0
  0
SCALE
  5
4E
102
{ACAD_REACTORS
330
3B
102
}
330
3B
100
AcDbScale
 70
     0
300
1/64" = 1'-0"
140
0.015625
141
12.0
290
     0
  0
SCALE
  5
4F
102
{ACAD_REACTORS
330
3B
102
}
330
3B
100
AcDbScale
 70
     0
300
1/32" = 1'-0"
140
0.03125
141
12.0
290
     0
  0
SCALE
  5
50
102
{ACAD_REACTORS
330
3B
102
}
330
3B
100
AcDbScale
 70
     0
300
1/16" = 1'-0"
140
0.0625
141
12.0
290
     0
  0
SCALE
  5
51
102
{ACAD_REACTORS
330
3B
102
}
330
3B
100
AcDbScale
 70
     0
300
3/32" = 1'-0"
140
0.09375
141
12.0
290
     0
  0
SCALE
  5
52
102
{ACAD_REACTORS
330
3B
102
}
330
3B
100
AcDbScale
 70
     0
300
1/8" = 1'-0"
140
0.125
141
12.0
290
     0
  0
SCALE
  5
53
102
{ACAD_REACTORS
330
3B
102
}
330
3B
100
AcDbScale
 70
     0
300
3/16" = 1'-0"
140
0.1875
141
12.0
290
     0
  0
SCALE
  5
54
102
{ACAD_REACTORS
330
3B
102
}
330
3B
100
AcDbScale
 70
     0
300
1/4" = 1'-0"
140
0.25
141
12.0
290
     0
  0
SCALE
  5
55
102
{ACAD_REACTORS
330
3B
102
}
330
3B
100
AcDbScale
 70
     0
300
3/8" = 1'-0"
140
0.375
141
12.0
290
     0
  0
SCALE
  5
56
102
{ACAD_REACTORS
330
3B
102
}
330
3B
100
AcDbScale
 70
     0
300
1/2" = 1'-0"
140
0.5
141
12.0
290
     0
  0
SCALE
  5
57
102
{ACAD_REACTORS
330
3B
102
}
330
3B
100
AcDbScale
 70
     0
300
3/4" = 1'-0"
140
0.75
141
12.0
290
     0
  0
SCALE
  5
58
102
{ACAD_REACTORS
330
3B
102
}
330
3B
100
AcDbScale
 70
     0
300
1" = 1'-0"
140
1.0
141
12.0
290
     0
  0
SCALE
  5
59
102
{ACAD_REACTORS
330
3B
102
}
330
3B
100
AcDbScale
 70
     0
300
1-1/2" = 1'-0"
140
1.5
141
12.0
290
     0
  0
SCALE
  5
5A
102
{ACAD_REACTORS
330
3B
102
}
330
3B
100
AcDbScale
 70
     0
300
3" = 1'-0"
140
3.0
141
12.0
290
     0
  0
SCALE
  5
5B
102
{ACAD_REACTORS
330
3B
102
}
330
3B
100
AcDbScale
 70
     0
300
6" = 1'-0"
140
6.0
141
12.0
290
     0
  0
SCALE
  5
5C
102
{ACAD_REACTORS
330
3B
102
}
330
3B
100
AcDbScale
 70
     0
300
1'-0" = 1'-0"
140
12.0
141
12.0
290
     0
  0
VISUALSTYLE
  5
2F
102
{ACAD_REACTORS
330
2A
102
}
330
2A
100
AcDbVisualStyle
  2
2dWireframe
 70
     4
 71
     0
 72
     2
 73
     0
 90
        0
 40
-0.6
 41
-30.0
 62
     5
 63
     7
 74
     1
 91
        4
 64
     7
 65
   257
 75
     1
175
     1
 42
1.0
 92
        0
 66
   257
 43
1.0
 76
     1
 77
     6
 78
     2
 67
     7
 79
     5
170
     0
171
     0
290
     0
174
     0
 93
        1
 44
0.0
173
     0
291
     0
 45
0.0
1001
ACAD
1000
AcDbSavedByObjectVersion
1070
     0
  0
VISUALSTYLE
  5
31
102
{ACAD_REACTORS
330
2A
102
}
330
2A
100
AcDbVisualStyle
  2
3D Hidden
 70
     6
 71
     1
 72
     2
 73
     2
 90
        0
 40
-0.6
 41
-30.0
 62
     5
 63
     7
 74
     2
 91
        2
 64
     7
 65
   257
 75
     2
175
     1
 42
40.0
 92
        0
 66
   257
 43
1.0
 76
     1
 77
     6
 78
     2
 67
     7
 79
     3
170
     0
171
     0
290
     0
174
     0
 93
        1
 44
0.0
173
     0
291
     0
 45
0.0
1001
ACAD
1000
AcDbSavedByObjectVersion
1070
     0
  0
VISUALSTYLE
  5
30
102
{ACAD_REACTORS
330
2A
102
}
330
2A
100
AcDbVisualStyle
  2
3dWireframe
 70
     5
 71
     0
 72
     2
 73
     0
 90
        0
 40
-0.6
 41
-30.0
 62
     5
 63
     7
 74
     1
 91
        4
 64
     7
 65
   257
 75
     1
175
     1
 42
1.0
 92
        0
 66
   257
 43
1.0
 76
     1
 77
     6
 78
     2
 67
     7
 79
     5
170
     0
171
     0
290
     0
174
     0
 93
        1
 44
0.0
173
     0
291
     0
 45
0.0
1001
ACAD
1000
AcDbSavedByObjectVersion
1070
     0
  0
VISUALSTYLE
  5
32
102
{ACAD_REACTORS
330
2A
102
}
330
2A
100
AcDbVisualStyle
  2
Basic
 70
     7
 71
     1
 72
     0
 73
     1
 90
        0
 40
-0.6
 41
-30.0
 62
     5
 63
     7
 74
     0
 91
        4
 64
     7
 65
   257
 75
     1
175
     1
 42
1.0
 92
        8
 66
     7
 43
1.0
 76
     1
 77
     6
 78
     2
 67
     7
 79
     5
170
     0
171
     0
290
     0
174
     0
 93
        1
 44
0.0
173
     0
291
     1
 45
0.0
1001
ACAD
1000
AcDbSavedByObjectVersion
1070
     0
  0
VISUALSTYLE
  5
36
102
{ACAD_REACTORS
330
2A
102
}
330
2A
100
AcDbVisualStyle
  2
Brighten
 70
    12
 71
     2
 72
     2
 73
     0
 90
        0
 40
-0.6
 41
-30.0
 62
     5
 63
     7
 74
     1
 91
        4
 64
     7
 65
   257
 75
     1
175
     1
 42
1.0
 92
        8
 66
     7
 43
1.0
 76
     1
 77
     6
 78
     2
 67
     7
 79
     5
170
     0
171
     0
290
     0
174
     0
 93
        1
 44
50.0
173
     0
291
     1
 45
0.0
1001
ACAD
1000
AcDbSavedByObjectVersion
1070
     0
  0
VISUALSTYLE
  5
3A
102
{ACAD_REACTORS
330
2A
102
}
330
2A
100
AcDbVisualStyle
  2
ColorChange
 70
    16
 71
     2
 72
     2
 73
     3
 90
        0
 40
-0.6
 41
-30.0
 62
     5
 63
     8
 74
     1
 91
        4
 64
     7
 65
   257
 75
     1
175
     1
 42
1.0
 92
        8
 66
     8
 43
1.0
 76
     1
 77
     6
 78
     2
 67
     7
 79
     5
170
     0
171
     0
290
     0
174
     0
 93
        1
 44
0.0
173
     0
291
     1
 45
0.0
1001
ACAD
1000
AcDbSavedByObjectVersion
1070
     0
  0
VISUALSTYLE
  5
34
102
{ACAD_REACTORS
330
2A
102
}
330
2A
100
AcDbVisualStyle
  2
Conceptual
 70
     9
 71
     3
 72
     2
 73
     0
 90
        0
 40
-0.6
 41
-30.0
 62
     5
 63
     7
 74
     2
 91
        2
 64
     7
 65
   257
 75
     1
175
     1
 42
40.0
 92
        8
 66
     7
 43
1.0
 76
     1
 77
     6
 78
     2
 67
     7
 79
     3
170
     0
171
     0
290
     0
174
     0
 93
        1
 44
0.0
173
     0
291
     0
 45
0.0
1001
ACAD
1000
AcDbSavedByObjectVersion
1070
     0
  0
VISUALSTYLE
  5
35
102
{ACAD_REACTORS
330
2A
102
}
330
2A
100
AcDbVisualStyle
  2
Dim
 70
    11
 71
     2
 72
     2
 73
     0
 90
        0
 40
-0.6
 41
-30.0
 62
     5
 63
     7
 74
     1
 91
        4
 64
     7
 65
   257
 75
     1
175
     1
 42
1.0
 92
        8
 66
     7
 43
1.0
 76
     1
 77
     6
 78
     2
 67
     7
 79
     5
170
     0
171
     0
290
     0
174
     0
 93
        1
 44
-50.0
173
     0
291
     1
 45
0.0
1001
ACAD
1000
AcDbSavedByObjectVersion
1070
     0
  0
VISUALSTYLE
  5
39
102
{ACAD_REACTORS
330
2A
102
}
330
2A
100
AcDbVisualStyle
  2
Facepattern
 70
    15
 71
     2
 72
     2
 73
     0
 90
        0
 40
-0.6
 41
-30.0
 62
     5
 63
     7
 74
     1
 91
        4
 64
     7
 65
   257
 75
     1
175
     1
 42
1.0
 92
        8
 66
     7
 43
1.0
 76
     1
 77
     6
 78
     2
 67
     7
 79
     5
170
     0
171
     0
290
     0
174
     0
 93
        1
 44
0.0
173
     0
291
     1
 45
0.0
1001
ACAD
1000
AcDbSavedByObjectVersion
1070
     0
  0
VISUALSTYLE
  5
2B
102
{ACAD_REACTORS
330
2A
102
}
330
2A
100
AcDbVisualStyle
  2
Flat
 70
     0
 71
     2
 72
     1
 73
     1
 90
        2
 40
-0.6
 41
30.0
 62
     5
 63
     7
 74
     0
 91
        4
 64
     7
 65
   257
 75
     1
175
     1
 42
1.0
 92
        8
 66
     7
 43
1.0
 76
     1
 77
     6
 78
     2
 67
     7
 79
     5
170
     0
171
     0
290
     0
174
     0
 93
       13
 44
0.0
173
     0
291
     1
 45
0.0
1001
ACAD
1000
AcDbSavedByObjectVersion
1070
     0
  0
VISUALSTYLE
  5
2C
102
{ACAD_REACTORS
330
2A
102
}
330
2A
100
AcDbVisualStyle
  2
FlatWithEdges
 70
     1
 71
     2
 72
     1
 73
     1
 90
        2
 40
-0.6
 41
30.0
 62
     5
 63
     7
 74
     1
 91
        4
 64
     7
 65
   257
 75
     1
175
     1
 42
1.0
 92
        0
 66
   257
 43
1.0
 76
     1
 77
     6
 78
     2
 67
     7
 79
     5
170
     0
171
     0
290
     0
174
     0
 93
       13
 44
0.0
173
     0
291
     1
 45
0.0
1001
ACAD
1000
AcDbSavedByObjectVersion
1070
     0
  0
VISUALSTYLE
  5
2D
102
{ACAD_REACTORS
330
2A
102
}
330
2A
100
AcDbVisualStyle
  2
Gouraud
 70
     2
 71
     2
 72
     2
 73
     1
 90
        2
 40
-0.6
 41
30.0
 62
     5
 63
     7
 74
     0
 91
        4
 64
     7
 65
   257
 75
     1
175
     1
 42
1.0
 92
        0
 66
     7
 43
1.0
 76
     1
 77
     6
 78
     2
 67
     7
 79
     5
170
     0
171
     0
290
     0
174
     0
 93
       13
 44
0.0
173
     0
291
     1
 45
0.0
1001
ACAD
1000
AcDbSavedByObjectVersion
1070
     0
  0
VISUALSTYLE
  5
2E
102
{ACAD_REACTORS
330
2A
102
}
330
2A
100
AcDbVisualStyle
  2
GouraudWithEdges
 70
     3
 71
     2
 72
     2
 73
     1
 90
        2
 40
-0.6
 41
30.0
 62
     5
 63
     7
 74
     1
 91
        4
 64
     7
 65
   257
 75
     1
175
     1
 42
1.0
 92
        0
 66
   257
 43
1.0
 76
     1
 77
     6
 78
     2
 67
     7
 79
     5
170
     0
171
     0
290
     0
174
     0
 93
       13
 44
0.0
173
     0
291
     1
 45
0.0
1001
ACAD
1000
AcDbSavedByObjectVersion
1070
     0
  0
VISUALSTYLE
  5
38
102
{ACAD_REACTORS
330
2A
102
}
330
2A
100
AcDbVisualStyle
  2
Linepattern
 70
    14
 71
     2
 72
     2
 73
     0
 90
        0
 40
-0.6
 41
-30.0
 62
     5
 63
     7
 74
     1
 91
        4
 64
     7
 65
   257
 75
     7
175
     7
 42
1.0
 92
        8
 66
     7
 43
1.0
 76
     1
 77
     6
 78
     2
 67
     7
 79
     5
170
     0
171
     0
290
     0
174
     0
 93
        1
 44
0.0
173
     0
291
     1
 45
0.0
1001
ACAD
1000
AcDbSavedByObjectVersion
1070
     0
  0
VISUALSTYLE
  5
33
102
{ACAD_REACTORS
330
2A
102
}
330
2A
100
AcDbVisualStyle
  2
Realistic
 70
     8
 71
     2
 72
     2
 73
     0
 90
        0
 40
-0.6
 41
-30.0
 62
     5
 63
     7
 74
     1
 91
        0
 64
     7
 65
   257
 75
     1
175
     1
 42
1.0
 92
        8
 66
     8
 43
1.0
 76
     1
 77
     6
 78
     2
 67
     7
 79
     5
170
     0
171
     0
290
     0
174
     0
 93
       13
 44
0.0
173
     0
291
     0
 45
0.0
1001
ACAD
1000
AcDbSavedByObjectVersion
1070
     0
  0
VISUALSTYLE
  5
37
102
{ACAD_REACTORS
330
2A
102
}
330
2A
100
AcDbVisualStyle
  2
Thicken
 70
    13
 71
     2
 72
     2
 73
     0
 90
        0
 40
-0.6
 41
-30.0
 62
     5
 63
     7
 74
     1
 91
        4
 64
     7
 65
   257
 75
     1
175
     1
 42
1.0
 92
       12
 66
     7
 43
1.0
 76
     1
 77
     6
 78
     2
 67
     7
 79
     5
170
     0
171
     0
290
     0
174
     0
 93
        1
 44
0.0
173
     0
291
     1
 45
0.0
1001
ACAD
1000
AcDbSavedByObjectVersion
1070
     0
  0
DICTIONARYVAR
  5
46C
102
{ACAD_REACTORS
330
46B
102
}
330
46B
100
DictionaryVariables
280
     0
  1
1:1
  0
DICTIONARYVAR
  5
470
102
{ACAD_REACTORS
330
46B
102
}
330
46B
100
DictionaryVariables
280
     0
  1
80.000000
  0
DICTIONARYVAR
  5
46F
102
{ACAD_REACTORS
330
46B
102
}
330
46B
100
DictionaryVariables
280
     0
  1
5.000000
  0
ENDSEC
  0
EOF
