  0
SECTION
  2
HEADER
  9
$ACADVER
  1
AC1014
  9
$ACADMAINTVER
 70
     9
  9
$DWGCODEPAGE
  3
DOS932
  9
$INSBASE
 10
0.0
 20
0.0
 30
0.0
  9
$EXTMIN
 10
0.0
 20
0.0
 30
0.0
  9
$EXTMAX
 10
297.0
 20
210.0
 30
0.0
  9
$LIMMIN
 10
0.0
 20
0.0
  9
$LIMMAX
 10
297.0
 20
210.0
  9
$ORTHOMODE
 70
     0
  9
$REGENMODE
 70
     1
  9
$FILLMODE
 70
     1
  9
$QTEXTMODE
 70
     0
  9
$MIRRTEXT
 70
     1
  9
$DRAGMODE
 70
     2
  9
$LTSCALE
 40
1.0
  9
$OSMODE
 70
    37
  9
$ATTMODE
 70
     1
  9
$TEXTSIZE
 40
3.5
  9
$TRACEWID
 40
1.0
  9
$TEXTSTYLE
  7
STANDARD
  9
$CLAYER
  8
0
  9
$CELTYPE
  6
BYLAYER
  9
$CECOLOR
 62
   256
  9
$CELTSCALE
 40
1.0
  9
$DELOBJ
 70
     1
  9
$DISPSILH
 70
     0
  9
$DIMSCALE
 40
1.0
  9
$DIMASZ
 40
3.302
  9
$DIMEXO
 40
1.0
  9
$DIMDLI
 40
3.75
  9
$DIMRND
 40
0.0
  9
$DIMDLE
 40
0.0
  9
$DIMEXE
 40
1.0
  9
$DIMTP
 40
0.0
  9
$DIMTM
 40
0.0
  9
$DIMTXT
 40
3.5
  9
$DIMCEN
 40
2.5
  9
$DIMTSZ
 40
0.0
  9
$DIMTOL
 70
     0
  9
$DIMLIM
 70
     0
  9
$DIMTIH
 70
     1
  9
$DIMTOH
 70
     1
  9
$DIMSE1
 70
     0
  9
$DIMSE2
 70
     0
  9
$DIMTAD
 70
     1
  9
$DIMZIN
 70
     0
  9
$DIMBLK
  1

  9
$DIMASO
 70
     1
  9
$DIMSHO
 70
     1
  9
$DIMPOST
  1

  9
$DIMAPOST
  1

  9
$DIMALT
 70
     0
  9
$DIMALTD
 70
     3
  9
$DIMALTF
 40
0.0393700787
  9
$DIMLFAC
 40
1.0
  9
$DIMTOFL
 70
     1
  9
$DIMTVP
 40
0.0
  9
$DIMTIX
 70
     0
  9
$DIMSOXD
 70
     0
  9
$DIMSAH
 70
     0
  9
$DIMBLK1
  1

  9
$DIMBLK2
  1

  9
$DIMSTYLE
  2
ISO-25
  9
$DIMCLRD
 70
     0
  9
$DIMCLRE
 70
     0
  9
$DIMCLRT
 70
     0
  9
$DIMTFAC
 40
1.0
  9
$DIMGAP
 40
1.524
  9
$DIMJUST
 70
     0
  9
$DIMSD1
 70
     0
  9
$DIMSD2
 70
     0
  9
$DIMTOLJ
 70
     0
  9
$DIMTZIN
 70
     0
  9
$DIMALTZ
 70
     0
  9
$DIMALTTZ
 70
     0
  9
$DIMFIT
 70
     3
  9
$DIMUPT
 70
     0
  9
$DIMUNIT
 70
     2
  9
$DIMDEC
 70
     2
  9
$DIMTDEC
 70
     2
  9
$DIMALTU
 70
     2
  9
$DIMALTTD
 70
     3
  9
$DIMTXSTY
  7
STANDARD
  9
$DIMAUNIT
 70
     0
  9
$LUNITS
 70
     2
  9
$LUPREC
 70
     2
  9
$SKETCHINC
 40
1.0
  9
$FILLETRAD
 40
10.0
  9
$AUNITS
 70
     0
  9
$AUPREC
 70
     2
  9
$MENU
  1
.
  9
$ELEVATION
 40
0.0
  9
$PELEVATION
 40
0.0
  9
$THICKNESS
 40
0.0
  9
$LIMCHECK
 70
     0
  9
$CHAMFERA
 40
0.0
  9
$CHAMFERB
 40
0.0
  9
$CHAMFERC
 40
0.0
  9
$CHAMFERD
 40
0.0
  9
$SKPOLY
 70
     0
  9
$TDCREATE
 40
2457774.699605903
  9
$TDUPDATE
 40
2457774.69960662
  9
$TDINDWG
 40
0.0000000116
  9
$TDUSRTIMER
 40
0.0000000116
  9
$USRTIMER
 70
     1
  9
$ANGBASE
 50
0.0
  9
$ANGDIR
 70
     0
  9
$PDMODE
 70
     0
  9
$PDSIZE
 40
-1.0
  9
$PLINEWID
 40
0.0
  9
$COORDS
 70
     1
  9
$SPLFRAME
 70
     0
  9
$SPLINETYPE
 70
     6
  9
$SPLINESEGS
 70
     8
  9
$ATTDIA
 70
     0
  9
$ATTREQ
 70
     1
  9
$HANDLING
 70
     1
  9
$HANDSEED
  5
1E2
  9
$SURFTAB1
 70
     6
  9
$SURFTAB2
 70
     6
  9
$SURFTYPE
 70
     6
  9
$SURFU
 70
     6
  9
$SURFV
 70
     6
  9
$UCSNAME
  2

  9
$UCSORG
 10
0.0
 20
0.0
 30
0.0
  9
$UCSXDIR
 10
1.0
 20
0.0
 30
0.0
  9
$UCSYDIR
 10
0.0
 20
1.0
 30
0.0
  9
$PUCSNAME
  2

  9
$PUCSORG
 10
0.0
 20
0.0
 30
0.0
  9
$PUCSXDIR
 10
1.0
 20
0.0
 30
0.0
  9
$PUCSYDIR
 10
0.0
 20
1.0
 30
0.0
  9
$USERI1
 70
     0
  9
$USERI2
 70
     0
  9
$USERI3
 70
     0
  9
$USERI4
 70
     0
  9
$USERI5
 70
     0
  9
$USERR1
 40
0.0
  9
$USERR2
 40
0.0
  9
$USERR3
 40
0.0
  9
$USERR4
 40
0.0
  9
$USERR5
 40
0.0
  9
$WORLDVIEW
 70
     1
  9
$SHADEDGE
 70
     3
  9
$SHADEDIF
 70
    70
  9
$TILEMODE
 70
     1
  9
$MAXACTVP
 70
    64
  9
$PINSBASE
 10
0.0
 20
0.0
 30
0.0
  9
$PLIMCHECK
 70
     0
  9
$PEXTMIN
 10
1.0000000000E+20
 20
1.0000000000E+20
 30
1.0000000000E+20
  9
$PEXTMAX
 10
-1.0000000000E+20
 20
-1.0000000000E+20
 30
-1.0000000000E+20
  9
$PLIMMIN
 10
0.0
 20
0.0
  9
$PLIMMAX
 10
420.0
 20
297.0
  9
$UNITMODE
 70
     0
  9
$VISRETAIN
 70
     1
  9
$PLINEGEN
 70
     0
  9
$PSLTSCALE
 70
     1
  9
$TREEDEPTH
 70
  3020
  9
$PICKSTYLE
 70
     1
  9
$CMLSTYLE
  2
STANDARD
  9
$CMLJUST
 70
     0
  9
$CMLSCALE
 40
20.0
  9
$PROXYGRAPHICS
 70
     1
  9
$MEASUREMENT
 70
     1
  0
ENDSEC
  0
SECTION
  2
CLASSES
  0
CLASS
  1
ACDBDICTIONARYWDFLT
  2
AcDbDictionaryWithDefault
  3
ObjectDBX Classes
 90
        0
280
     0
281
     0
  0
CLASS
  1
VISUALSTYLE
  2
AcDbVisualStyle
  3
ObjectDBX Classes
 90
     4095
280
     0
281
     0
  0
CLASS
  1
MATERIAL
  2
AcDbMaterial
  3
ObjectDBX Classes
 90
     1153
280
     0
281
     0
  0
CLASS
  1
SCALE
  2
AcDbScale
  3
ObjectDBX Classes
 90
     1153
280
     0
281
     0
  0
CLASS
  1
TABLESTYLE
  2
AcDbTableStyle
  3
ObjectDBX Classes
 90
     4095
280
     0
281
     0
  0
CLASS
  1
MLEADERSTYLE
  2
AcDbMLeaderStyle
  3
ACDB_MLEADERSTYLE_CLASS
 90
     4095
280
     0
281
     0
  0
CLASS
  1
SUN
  2
AcDbSun
  3
SCENEOE
 90
     1153
280
     0
281
     0
  0
CLASS
  1
XRECORD
  2
AcDbXrecord
  3
ObjectDBX Classes
 90
        0
280
     0
281
     0
  0
CLASS
  1
LWPOLYLINE
  2
AcDbPolyline
  3
ObjectDBX Classes
 90
        0
280
     0
281
     1
  0
CLASS
  1
HATCH
  2
AcDbHatch
  3
ObjectDBX Classes
 90
        0
280
     0
281
     1
  0
ENDSEC
  0
SECTION
  2
TABLES
  0
TABLE
  2
VPORT
  5
8
330
0
100
AcDbSymbolTable
 70
     1
  0
VPORT
  5
29
330
8
100
AcDbSymbolTableRecord
100
AcDbViewportTableRecord
  2
*ACTIVE
 70
     0
 10
0.0
 20
0.0
 11
1.0
 21
1.0
 12
148.5
 22
105.0
 13
0.0
 23
0.0
 14
10.0
 24
10.0
 15
10.0
 25
10.0
 16
0.0
 26
0.0
 36
1.0
 17
0.0
 27
0.0
 37
0.0
 40
210.0
 41
1.4142857143
 42
50.0
 43
0.0
 44
0.0
 50
0.0
 51
0.0
 71
     0
 72
  2000
 73
     1
 74
     3
 75
     0
 76
     0
 77
     0
 78
     0
  0
ENDTAB
  0
TABLE
  2
LTYPE
  5
5
330
0
100
AcDbSymbolTable
 70
     6
  0
LTYPE
  5
14
330
5
100
AcDbSymbolTableRecord
100
AcDbLinetypeTableRecord
  2
BYBLOCK
 70
     0
  3

 72
    65
 73
     0
 40
0.0
  0
LTYPE
  5
15
330
5
100
AcDbSymbolTableRecord
100
AcDbLinetypeTableRecord
  2
BYLAYER
 70
     0
  3

 72
    65
 73
     0
 40
0.0
  0
LTYPE
  5
16
330
5
100
AcDbSymbolTableRecord
100
AcDbLinetypeTableRecord
  2
CONTINUOUS
 70
     0
  3
Solid line
 72
    65
 73
     0
 40
0.0
  0
LTYPE
  5
6E
330
5
100
AcDbSymbolTableRecord
100
AcDbLinetypeTableRecord
  2
HIDDEN
 70
     0
  3
Hidden __ __ __ __ __ __ __ __ __ __ __ __ __ __
 72
    65
 73
     2
 40
1.905
 49
1.27
 74
     0
 49
-0.635
 74
     0
  0
LTYPE
  5
6F
330
5
100
AcDbSymbolTableRecord
100
AcDbLinetypeTableRecord
  2
PHANTOM
 70
     0
  3
Phantom ______  __  __  ______  __  __  ______
 72
    65
 73
     6
 40
12.7
 49
6.35
 74
     0
 49
-1.27
 74
     0
 49
1.27
 74
     0
 49
-1.27
 74
     0
 49
1.27
 74
     0
 49
-1.27
 74
     0
  0
LTYPE
  5
70
330
5
100
AcDbSymbolTableRecord
100
AcDbLinetypeTableRecord
  2
CENTER
 70
     0
  3
Center ____ _ ____ _ ____ _ ____ _ ____ _ ____
 72
    65
 73
     4
 40
10.16
 49
6.35
 74
     0
 49
-1.27
 74
     0
 49
1.27
 74
     0
 49
-1.27
 74
     0
  0
LTYPE
  5
71
330
5
100
AcDbSymbolTableRecord
100
AcDbLinetypeTableRecord
  2
CENTERX2
 70
     0
  3
Center (2x) ________  __  ________  __  _____
 72
    65
 73
     4
 40
20.32
 49
12.7
 74
     0
 49
-2.54
 74
     0
 49
2.54
 74
     0
 49
-2.54
 74
     0
  0
LTYPE
  5
72
330
5
100
AcDbSymbolTableRecord
100
AcDbLinetypeTableRecord
  2
DOT2
 70
     0
  3
Dot (.5x) ........................................
 72
    65
 73
     2
 40
0.635
 49
0.0
 74
     0
 49
-0.635
 74
     0
  0
ENDTAB
  0
TABLE
  2
LAYER
  5
2
330
0
100
AcDbSymbolTable
 70
     1
  0
LAYER
  5
10
330
2
100
AcDbSymbolTableRecord
100
AcDbLayerTableRecord
  2
0
 70
     0
 62
     7
  6
CONTINUOUS
  0
ENDTAB
  0
TABLE
  2
STYLE
  5
3
330
0
100
AcDbSymbolTable
 70
     3
  0
STYLE
  5
11
330
3
100
AcDbSymbolTableRecord
100
AcDbTextStyleTableRecord
  2
STANDARD
 70
     0
 40
0.0
 41
1.0
 50
0.0
 71
     0
 42
3.5
  3
GOTHIC.TTF
  4

1001
ACAD
1000
CENTURY GOTHIC
1071
       34
  0
STYLE
  5
73
330
3
100
AcDbSymbolTableRecord
100
AcDbTextStyleTableRecord
  2
SLDTEXTSTYLE0
 70
     0
 40
0.0
 41
0.913
 50
0.0
 71
     0
 42
3.5
  3
GOTHIC.TTF
  4
bigfont
1001
ACAD
1000
Century Gothic
1071
      290
  0
STYLE
  5
A6
330
3
100
AcDbSymbolTableRecord
100
AcDbTextStyleTableRecord
  2
SLDTEXTSTYLE1
 70
     0
 40
0.0
 41
0.913
 50
0.0
 71
     0
 42
3.5
  3
GOTHIC.TTF
  4

1001
ACAD
1000
Century Gothic
1071
      290
  0
ENDTAB
  0
TABLE
  2
VIEW
  5
6
330
0
100
AcDbSymbolTable
 70
     0
  0
ENDTAB
  0
TABLE
  2
UCS
  5
7
330
0
100
AcDbSymbolTable
 70
     0
  0
ENDTAB
  0
TABLE
  2
APPID
  5
9
330
0
100
AcDbSymbolTable
 70
     1
  0
APPID
  5
12
330
9
100
AcDbSymbolTableRecord
100
AcDbRegAppTableRecord
  2
ACAD
 70
     0
  0
ENDTAB
  0
TABLE
  2
DIMSTYLE
  5
A
330
0
100
AcDbSymbolTable
 70
     4
  0
DIMSTYLE
105
27
330
A
100
AcDbSymbolTableRecord
100
AcDbDimStyleTableRecord
  2
ISO-25
 70
     0
  3

  4

  5

  6

  7

 40
1.0
 41
2.5
 42
0.625
 43
3.75
 44
1.25
 45
0.0
 46
0.0
 47
0.0
 48
0.0
140
2.5
141
2.5
142
0.0
143
0.0393700787
144
1.0
145
0.0
146
1.0
147
0.625
 71
     0
 72
     0
 73
     0
 74
     0
 75
     0
 76
     0
 77
     1
 78
     8
170
     0
171
     3
172
     1
173
     0
174
     0
175
     0
176
     0
177
     0
178
     0
270
     2
271
     2
272
     2
273
     2
274
     3
340
11
275
     0
280
     0
281
     0
282
     0
283
     0
284
     8
285
     0
286
     0
287
     3
288
     0
  0
DIMSTYLE
105
A7
102
{ACAD_REACTORS
330
A5
330
B9
330
DA
330
119
330
1BE
102
}
330
A
100
AcDbSymbolTableRecord
100
AcDbDimStyleTableRecord
  2
SLDDIMSTYLE0
 70
     0
  3

  4

  5

  6
OPEN30
  7
OPEN30
 40
1.0
 41
3.302
 42
0.0625
 43
0.38
 44
0.0
 45
0.000000001
 46
0.0
 47
0.0
 48
0.0
140
3.5
141
0.09
142
0.0
143
25.4
144
1.0
145
0.0
146
1.0
147
0.875
 71
     0
 72
     0
 73
     0
 74
     0
 75
     0
 76
     0
 77
     3
 78
    12
170
     0
171
     2
172
     1
173
     1
174
     0
175
     0
176
     0
177
     0
178
     0
270
     2
271
     2
272
     2
273
     2
274
     2
340
A6
275
     0
280
     0
281
     0
282
     0
283
     1
284
    12
285
     0
286
     0
288
     0
  0
DIMSTYLE
105
C6
102
{ACAD_REACTORS
330
C5
330
D0
330
1A8
330
1B2
330
1CB
102
}
330
A
100
AcDbSymbolTableRecord
100
AcDbDimStyleTableRecord
  2
SLDDIMSTYLE1
 70
     0
  3

  4

  5

  6
OPEN30
  7
OPEN30
 40
1.0
 41
3.302
 42
0.0625
 43
0.38
 44
0.0
 45
0.000000001
 46
0.0
 47
0.0
 48
0.0
140
3.5
141
0.09
142
0.0
143
25.4
144
1.0
145
0.0
146
1.0
147
0.875
 71
     0
 72
     0
 73
     0
 74
     0
 75
     0
 76
     0
 77
     3
 78
    12
170
     0
171
     2
172
     0
173
     1
174
     0
175
     0
176
     0
177
     0
178
     0
270
     2
271
     2
272
     2
273
     2
274
     2
340
A6
275
     0
280
     0
281
     0
282
     0
283
     1
284
    12
285
     0
286
     0
287
     3
288
     0
  0
DIMSTYLE
105
1DC
330
A
100
AcDbSymbolTableRecord
100
AcDbDimStyleTableRecord
  2
SLDDIMSTYLE2
 70
     0
  3

  4

  5

  6
OPEN30
  7
OPEN30
 40
1.0
 41
3.302
 42
0.0625
 43
0.38
 44
0.0
 45
0.000000001
 46
0.0
 47
0.0
 48
0.0
140
0.18
141
0.09
142
0.0
143
25.4
144
1.0
145
0.0
146
3.302
147
0.0
 71
     0
 72
     0
 73
     1
 74
     1
 75
     0
 76
     0
 77
     0
 78
     0
170
     0
171
     2
172
     0
173
     1
174
     0
175
     0
176
     0
177
     0
178
     0
270
     2
271
     0
272
     0
273
     2
274
     2
340
11
275
     0
280
     0
281
     0
282
     0
283
     1
284
     0
285
     0
286
     0
287
     3
288
     0
  0
ENDTAB
  0
TABLE
  2
BLOCK_RECORD
  5
1
330
0
100
AcDbSymbolTable
 70
    18
  0
BLOCK_RECORD
  5
1F
330
1
100
AcDbSymbolTableRecord
100
AcDbBlockTableRecord
  2
*MODEL_SPACE
  0
BLOCK_RECORD
  5
1B
330
1
100
AcDbSymbolTableRecord
100
AcDbBlockTableRecord
  2
*PAPER_SPACE
  0
BLOCK_RECORD
  5
23
330
1
100
AcDbSymbolTableRecord
100
AcDbBlockTableRecord
  2
*PAPER_SPACE0
  0
BLOCK_RECORD
  5
A8
330
1
100
AcDbSymbolTableRecord
100
AcDbBlockTableRecord
  2
_OPEN30
  0
BLOCK_RECORD
  5
AE
330
1
100
AcDbSymbolTableRecord
100
AcDbBlockTableRecord
  2
_D
  0
BLOCK_RECORD
  5
BA
330
1
100
AcDbSymbolTableRecord
100
AcDbBlockTableRecord
  2
_D_1
  0
BLOCK_RECORD
  5
C7
330
1
100
AcDbSymbolTableRecord
100
AcDbBlockTableRecord
  2
_D_2
  0
BLOCK_RECORD
  5
D1
330
1
100
AcDbSymbolTableRecord
100
AcDbBlockTableRecord
  2
_D_3
  0
BLOCK_RECORD
  5
DB
330
1
100
AcDbSymbolTableRecord
100
AcDbBlockTableRecord
  2
_D_4
  0
BLOCK_RECORD
  5
E7
330
1
100
AcDbSymbolTableRecord
100
AcDbBlockTableRecord
  2
SW_CENTERMARKSYMBOL_0
  0
BLOCK_RECORD
  5
F3
330
1
100
AcDbSymbolTableRecord
100
AcDbBlockTableRecord
  2
SW_CENTERMARKSYMBOL_1
  0
BLOCK_RECORD
  5
FF
330
1
100
AcDbSymbolTableRecord
100
AcDbBlockTableRecord
  2
SW_CENTERMARKSYMBOL_2
  0
BLOCK_RECORD
  5
11A
330
1
100
AcDbSymbolTableRecord
100
AcDbBlockTableRecord
  2
_D_5
  0
BLOCK_RECORD
  5
123
330
1
100
AcDbSymbolTableRecord
100
AcDbBlockTableRecord
  2
SW_CENTERMARKSYMBOL_3
  0
BLOCK_RECORD
  5
12F
330
1
100
AcDbSymbolTableRecord
100
AcDbBlockTableRecord
  2
SW_CENTERMARKSYMBOL_4
  0
BLOCK_RECORD
  5
1A9
330
1
100
AcDbSymbolTableRecord
100
AcDbBlockTableRecord
  2
_D_6
  0
BLOCK_RECORD
  5
1B3
330
1
100
AcDbSymbolTableRecord
100
AcDbBlockTableRecord
  2
_D_7
  0
BLOCK_RECORD
  5
1BF
330
1
100
AcDbSymbolTableRecord
100
AcDbBlockTableRecord
  2
_D_8
  0
BLOCK_RECORD
  5
1CC
330
1
100
AcDbSymbolTableRecord
100
AcDbBlockTableRecord
  2
_D_9
  0
BLOCK_RECORD
  5
1D5
330
1
100
AcDbSymbolTableRecord
100
AcDbBlockTableRecord
  2
SW_NOTE_0
  0
ENDTAB
  0
ENDSEC
  0
SECTION
  2
BLOCKS
  0
BLOCK
  5
20
330
1F
100
AcDbEntity
  8
0
100
AcDbBlockBegin
  2
*MODEL_SPACE
 70
     0
 10
0.0
 20
0.0
 30
0.0
  3
*MODEL_SPACE
  1

  0
ENDBLK
  5
21
330
1F
100
AcDbEntity
  8
0
100
AcDbBlockEnd
  0
BLOCK
  5
1C
330
1B
100
AcDbEntity
 67
     1
  8
0
100
AcDbBlockBegin
  2
*PAPER_SPACE
 70
     0
 10
0.0
 20
0.0
 30
0.0
  3
*PAPER_SPACE
  1

  0
ENDBLK
  5
1D
330
1B
100
AcDbEntity
 67
     1
  8
0
100
AcDbBlockEnd
  0
BLOCK
  5
24
330
23
100
AcDbEntity
  8
0
100
AcDbBlockBegin
  2
*PAPER_SPACE0
 70
     0
 10
0.0
 20
0.0
 30
0.0
  3
*PAPER_SPACE0
  1

  0
ENDBLK
  5
25
330
23
100
AcDbEntity
  8
0
100
AcDbBlockEnd
  0
BLOCK
  5
A9
330
A8
100
AcDbEntity
  8
0
100
AcDbBlockBegin
  2
_OPEN30
 70
     0
 10
0.0
 20
0.0
 30
0.0
  3
_OPEN30
  1

  0
LINE
  5
AB
330
A8
100
AcDbEntity
  8
0
  6
BYBLOCK
 62
     0
100
AcDbLine
 10
-1.0
 20
0.267949
 30
0.0
 11
0.0
 21
0.0
 31
0.0
  0
LINE
  5
AC
330
A8
100
AcDbEntity
  8
0
  6
BYBLOCK
 62
     0
100
AcDbLine
 10
0.0
 20
0.0
 30
0.0
 11
-1.0
 21
-0.267949
 31
0.0
  0
LINE
  5
AD
330
A8
100
AcDbEntity
  8
0
  6
BYBLOCK
 62
     0
100
AcDbLine
 10
0.0
 20
0.0
 30
0.0
 11
-1.0
 21
0.0
 31
0.0
  0
ENDBLK
  5
AA
330
A8
100
AcDbEntity
  8
0
100
AcDbBlockEnd
  0
BLOCK
  5
AF
330
AE
100
AcDbEntity
  8
0
100
AcDbBlockBegin
  2
_D
 70
     0
 10
0.0
 20
0.0
 30
0.0
  3
_D
  1

  0
INSERT
  5
B1
330
AE
100
AcDbEntity
  8
0
  6
CONTINUOUS
 62
     7
100
AcDbBlockReference
  2
_OPEN30
 10
122.4553418691
 20
123.8581011231
 30
0.0
 41
3.302
 42
3.302
 50
0.0
  0
INSERT
  5
B2
330
AE
100
AcDbEntity
  8
0
  6
CONTINUOUS
 62
     7
100
AcDbBlockReference
  2
_OPEN30
 10
128.4553418691
 20
123.8581011231
 30
0.0
 41
3.302
 42
3.302
 50
180.0
  0
LINE
  5
B3
330
AE
100
AcDbEntity
  8
0
  6
CONTINUOUS
 62
     7
100
AcDbLine
 10
122.4553418691
 20
114.523005529
 30
0.0
 11
122.4553418691
 21
124.8581011231
 31
0.0
  0
LINE
  5
B4
330
AE
100
AcDbEntity
  8
0
  6
CONTINUOUS
 62
     7
100
AcDbLine
 10
128.4553418691
 20
111.523005529
 30
0.0
 11
128.4553418691
 21
124.8581011231
 31
0.0
  0
LINE
  5
B5
330
AE
100
AcDbEntity
  8
0
  6
CONTINUOUS
 62
     7
100
AcDbLine
 10
122.4553418691
 20
123.8581011231
 30
0.0
 11
112.9301381349
 21
123.8581011231
 31
0.0
  0
LINE
  5
B6
330
AE
100
AcDbEntity
  8
0
  6
CONTINUOUS
 62
     7
100
AcDbLine
 10
122.4553418691
 20
123.8581011231
 30
0.0
 11
128.4553418691
 21
123.8581011231
 31
0.0
  0
LINE
  5
B7
330
AE
100
AcDbEntity
  8
0
  6
CONTINUOUS
 62
     7
100
AcDbLine
 10
128.4553418691
 20
123.8581011231
 30
0.0
 11
134.8053418691
 21
123.8581011231
 31
0.0
  0
MTEXT
  5
B8
330
AE
100
AcDbEntity
  8
0
  6
CONTINUOUS
 62
     7
100
AcDbMText
 10
112.9301381349
 20
128.3288040735
 30
0.0
 40
3.5
 41
0.0
 71
     1
 72
     1
  1
6
  7
SLDTEXTSTYLE1
  0
ENDBLK
  5
B0
330
AE
100
AcDbEntity
  8
0
100
AcDbBlockEnd
  0
BLOCK
  5
BB
330
BA
100
AcDbEntity
  8
0
100
AcDbBlockBegin
  2
_D_1
 70
     0
 10
0.0
 20
0.0
 30
0.0
  3
_D_1
  1

  0
INSERT
  5
BD
330
BA
100
AcDbEntity
  8
0
  6
CONTINUOUS
 62
     7
100
AcDbBlockReference
  2
_OPEN30
 10
122.4553418691
 20
131.523005529
 30
0.0
 41
3.302
 42
3.302
 50
0.0
  0
INSERT
  5
BE
330
BA
100
AcDbEntity
  8
0
  6
CONTINUOUS
 62
     7
100
AcDbBlockReference
  2
_OPEN30
 10
138.4553418691
 20
131.523005529
 30
0.0
 41
3.302
 42
3.302
 50
180.0
  0
LINE
  5
BF
330
BA
100
AcDbEntity
  8
0
  6
CONTINUOUS
 62
     7
100
AcDbLine
 10
122.4553418691
 20
114.523005529
 30
0.0
 11
122.4553418691
 21
132.523005529
 31
0.0
  0
LINE
  5
C0
330
BA
100
AcDbEntity
  8
0
  6
CONTINUOUS
 62
     7
100
AcDbLine
 10
138.4553418691
 20
111.523005529
 30
0.0
 11
138.4553418691
 21
132.523005529
 31
0.0
  0
LINE
  5
C1
330
BA
100
AcDbEntity
  8
0
  6
CONTINUOUS
 62
     7
100
AcDbLine
 10
122.4553418691
 20
131.523005529
 30
0.0
 11
116.1053418691
 21
131.523005529
 31
0.0
  0
LINE
  5
C2
330
BA
100
AcDbEntity
  8
0
  6
CONTINUOUS
 62
     7
100
AcDbLine
 10
122.4553418691
 20
131.523005529
 30
0.0
 11
138.4553418691
 21
131.523005529
 31
0.0
  0
LINE
  5
C3
330
BA
100
AcDbEntity
  8
0
  6
CONTINUOUS
 62
     7
100
AcDbLine
 10
138.4553418691
 20
131.523005529
 30
0.0
 11
144.8053418691
 21
131.523005529
 31
0.0
  0
MTEXT
  5
C4
330
BA
100
AcDbEntity
  8
0
  6
CONTINUOUS
 62
     7
100
AcDbMText
 10
127.0922681109
 20
135.9937084794
 30
0.0
 40
3.5
 41
0.0
 71
     1
 72
     1
  1
16
  7
SLDTEXTSTYLE1
  0
ENDBLK
  5
BC
330
BA
100
AcDbEntity
  8
0
100
AcDbBlockEnd
  0
BLOCK
  5
C8
330
C7
100
AcDbEntity
  8
0
100
AcDbBlockBegin
  2
_D_2
 70
     0
 10
0.0
 20
0.0
 30
0.0
  3
_D_2
  1

  0
INSERT
  5
CA
330
C7
100
AcDbEntity
  8
0
  6
CONTINUOUS
 62
     7
100
AcDbBlockReference
  2
_OPEN30
 10
122.4553418691
 20
139.9889555041
 30
0.0
 41
3.302
 42
3.302
 50
180.0
  0
INSERT
  5
CB
330
C7
100
AcDbEntity
  8
0
  6
CONTINUOUS
 62
     7
100
AcDbBlockReference
  2
_OPEN30
 10
148.4553418691
 20
139.9889555041
 30
0.0
 41
3.302
 42
3.302
 50
0.0
  0
LINE
  5
CC
330
C7
100
AcDbEntity
  8
0
  6
CONTINUOUS
 62
     7
100
AcDbLine
 10
122.4553418691
 20
114.523005529
 30
0.0
 11
122.4553418691
 21
140.9889555041
 31
0.0
  0
LINE
  5
CD
330
C7
100
AcDbEntity
  8
0
  6
CONTINUOUS
 62
     7
100
AcDbLine
 10
148.4553418691
 20
111.523005529
 30
0.0
 11
148.4553418691
 21
140.9889555041
 31
0.0
  0
LINE
  5
CE
330
C7
100
AcDbEntity
  8
0
  6
CONTINUOUS
 62
     7
100
AcDbLine
 10
122.4553418691
 20
139.9889555041
 30
0.0
 11
148.4553418691
 21
139.9889555041
 31
0.0
  0
MTEXT
  5
CF
330
C7
100
AcDbEntity
  8
0
  6
CONTINUOUS
 62
     7
100
AcDbMText
 10
132.6170471316
 20
144.4596584545
 30
0.0
 40
3.5
 41
0.0
 71
     1
 72
     1
  1
26
  7
SLDTEXTSTYLE1
  0
ENDBLK
  5
C9
330
C7
100
AcDbEntity
  8
0
100
AcDbBlockEnd
  0
BLOCK
  5
D2
330
D1
100
AcDbEntity
  8
0
100
AcDbBlockBegin
  2
_D_3
 70
     0
 10
0.0
 20
0.0
 30
0.0
  3
_D_3
  1

  0
INSERT
  5
D4
330
D1
100
AcDbEntity
  8
0
  6
CONTINUOUS
 62
     7
100
AcDbBlockReference
  2
_OPEN30
 10
122.4553418691
 20
149.523005529
 30
0.0
 41
3.302
 42
3.302
 50
180.0
  0
INSERT
  5
D5
330
D1
100
AcDbEntity
  8
0
  6
CONTINUOUS
 62
     7
100
AcDbBlockReference
  2
_OPEN30
 10
222.4553418691
 20
149.523005529
 30
0.0
 41
3.302
 42
3.302
 50
0.0
  0
LINE
  5
D6
330
D1
100
AcDbEntity
  8
0
  6
CONTINUOUS
 62
     7
100
AcDbLine
 10
122.4553418691
 20
114.523005529
 30
0.0
 11
122.4553418691
 21
150.523005529
 31
0.0
  0
LINE
  5
D7
330
D1
100
AcDbEntity
  8
0
  6
CONTINUOUS
 62
     7
100
AcDbLine
 10
222.4553418691
 20
115.523005529
 30
0.0
 11
222.4553418691
 21
150.523005529
 31
0.0
  0
LINE
  5
D8
330
D1
100
AcDbEntity
  8
0
  6
CONTINUOUS
 62
     7
100
AcDbLine
 10
122.4553418691
 20
149.523005529
 30
0.0
 11
222.4553418691
 21
149.523005529
 31
0.0
  0
MTEXT
  5
D9
330
D1
100
AcDbEntity
  8
0
  6
CONTINUOUS
 62
     7
100
AcDbMText
 10
164.4325030736
 20
153.9937084794
 30
0.0
 40
3.5
 41
0.0
 71
     1
 72
     1
  1
100
  7
SLDTEXTSTYLE1
  0
ENDBLK
  5
D3
330
D1
100
AcDbEntity
  8
0
100
AcDbBlockEnd
  0
BLOCK
  5
DC
330
DB
100
AcDbEntity
  8
0
100
AcDbBlockBegin
  2
_D_4
 70
     0
 10
0.0
 20
0.0
 30
0.0
  3
_D_4
  1

  0
INSERT
  5
DE
330
DB
100
AcDbEntity
  8
0
  6
CONTINUOUS
 62
     7
100
AcDbBlockReference
  2
_OPEN30
 10
241.2975090903
 20
115.523005529
 30
0.0
 41
3.302
 42
3.302
 50
270.0
  0
INSERT
  5
DF
330
DB
100
AcDbEntity
  8
0
  6
CONTINUOUS
 62
     7
100
AcDbBlockReference
  2
_OPEN30
 10
241.2975090903
 20
95.523005529
 30
0.0
 41
3.302
 42
3.302
 50
90.0
  0
LINE
  5
E0
330
DB
100
AcDbEntity
  8
0
  6
CONTINUOUS
 62
     7
100
AcDbLine
 10
222.4553418691
 20
115.523005529
 30
0.0
 11
242.2975090903
 21
115.523005529
 31
0.0
  0
LINE
  5
E1
330
DB
100
AcDbEntity
  8
0
  6
CONTINUOUS
 62
     7
100
AcDbLine
 10
222.4553418691
 20
95.523005529
 30
0.0
 11
242.2975090903
 21
95.523005529
 31
0.0
  0
LINE
  5
E2
330
DB
100
AcDbEntity
  8
0
  6
CONTINUOUS
 62
     7
100
AcDbLine
 10
241.2975090903
 20
115.523005529
 30
0.0
 11
241.2975090903
 21
121.873005529
 31
0.0
  0
LINE
  5
E3
330
DB
100
AcDbEntity
  8
0
  6
CONTINUOUS
 62
     7
100
AcDbLine
 10
241.2975090903
 20
115.523005529
 30
0.0
 11
241.2975090903
 21
95.523005529
 31
0.0
  0
LINE
  5
E4
330
DB
100
AcDbEntity
  8
0
  6
CONTINUOUS
 62
     7
100
AcDbLine
 10
241.2975090903
 20
95.523005529
 30
0.0
 11
241.2975090903
 21
89.173005529
 31
0.0
  0
MTEXT
  5
E5
330
DB
100
AcDbEntity
  8
0
  6
CONTINUOUS
 62
     7
100
AcDbMText
 10
236.8268059653
 20
100.1349819135
 30
0.0
 40
3.5
 41
0.0
 71
     1
 72
     1
  1
%%c
  7
SLDTEXTSTYLE1
 11
-7.044195017643634E-15
 21
1.0
 31
0.0
  0
MTEXT
  5
E6
330
DB
100
AcDbEntity
  8
0
  6
CONTINUOUS
 62
     7
100
AcDbMText
 10
236.7733337886
 20
105.4134193119
 30
0.0
 40
3.5
 41
0.0
 71
     1
 72
     1
  1
20
  7
SLDTEXTSTYLE1
 11
-7.044195017643634E-15
 21
1.0
 31
0.0
  0
ENDBLK
  5
DD
330
DB
100
AcDbEntity
  8
0
100
AcDbBlockEnd
  0
BLOCK
  5
E8
330
E7
100
AcDbEntity
  8
0
100
AcDbBlockBegin
  2
SW_CENTERMARKSYMBOL_0
 70
     0
 10
0.0
 20
0.0
 30
0.0
  3
SW_CENTERMARKSYMBOL_0
  1

  0
LINE
  5
EA
330
E7
100
AcDbEntity
  8
0
  6
CONTINUOUS
 62
     0
100
AcDbLine
 10
0.0
 20
0.0
 30
0.0
 11
0.0
 21
2.5
 31
0.0
  0
LINE
  5
EB
330
E7
100
AcDbEntity
  8
0
  6
CONTINUOUS
 62
     0
100
AcDbLine
 10
0.0
 20
0.0
 30
0.0
 11
-2.5
 21
0.0
 31
0.0
  0
LINE
  5
EC
330
E7
100
AcDbEntity
  8
0
  6
CONTINUOUS
 62
     0
100
AcDbLine
 10
0.0
 20
0.0
 30
0.0
 11
0.0
 21
-2.5
 31
0.0
  0
LINE
  5
ED
330
E7
100
AcDbEntity
  8
0
  6
CONTINUOUS
 62
     0
100
AcDbLine
 10
0.0
 20
0.0
 30
0.0
 11
2.5
 21
0.0
 31
0.0
  0
LINE
  5
EE
330
E7
100
AcDbEntity
  8
0
  6
CONTINUOUS
 62
     0
100
AcDbLine
 10
0.0
 20
2.5
 30
0.0
 11
0.0
 21
5.0
 31
0.0
  0
LINE
  5
EF
330
E7
100
AcDbEntity
  8
0
  6
CONTINUOUS
 62
     0
100
AcDbLine
 10
-2.5
 20
0.0
 30
0.0
 11
-5.0
 21
0.0
 31
0.0
  0
LINE
  5
F0
330
E7
100
AcDbEntity
  8
0
  6
CONTINUOUS
 62
     0
100
AcDbLine
 10
0.0
 20
-2.5
 30
0.0
 11
0.0
 21
-5.0
 31
0.0
  0
LINE
  5
F1
330
E7
100
AcDbEntity
  8
0
  6
CONTINUOUS
 62
     0
100
AcDbLine
 10
2.5
 20
0.0
 30
0.0
 11
5.0
 21
0.0
 31
0.0
  0
ENDBLK
  5
E9
330
E7
100
AcDbEntity
  8
0
100
AcDbBlockEnd
  0
BLOCK
  5
F4
330
F3
100
AcDbEntity
  8
0
100
AcDbBlockBegin
  2
SW_CENTERMARKSYMBOL_1
 70
     0
 10
0.0
 20
0.0
 30
0.0
  3
SW_CENTERMARKSYMBOL_1
  1

  0
LINE
  5
F6
330
F3
100
AcDbEntity
  8
0
  6
CONTINUOUS
 62
     0
100
AcDbLine
 10
0.0
 20
0.0
 30
0.0
 11
0.0
 21
2.5
 31
0.0
  0
LINE
  5
F7
330
F3
100
AcDbEntity
  8
0
  6
CONTINUOUS
 62
     0
100
AcDbLine
 10
0.0
 20
0.0
 30
0.0
 11
-2.5
 21
0.0
 31
0.0
  0
LINE
  5
F8
330
F3
100
AcDbEntity
  8
0
  6
CONTINUOUS
 62
     0
100
AcDbLine
 10
0.0
 20
0.0
 30
0.0
 11
0.0
 21
-2.5
 31
0.0
  0
LINE
  5
F9
330
F3
100
AcDbEntity
  8
0
  6
CONTINUOUS
 62
     0
100
AcDbLine
 10
0.0
 20
0.0
 30
0.0
 11
2.5
 21
0.0
 31
0.0
  0
LINE
  5
FA
330
F3
100
AcDbEntity
  8
0
  6
CONTINUOUS
 62
     0
100
AcDbLine
 10
0.0
 20
2.5
 30
0.0
 11
0.0
 21
5.0
 31
0.0
  0
LINE
  5
FB
330
F3
100
AcDbEntity
  8
0
  6
CONTINUOUS
 62
     0
100
AcDbLine
 10
-2.5
 20
0.0
 30
0.0
 11
-5.0
 21
0.0
 31
0.0
  0
LINE
  5
FC
330
F3
100
AcDbEntity
  8
0
  6
CONTINUOUS
 62
     0
100
AcDbLine
 10
0.0
 20
-2.5
 30
0.0
 11
0.0
 21
-5.0
 31
0.0
  0
LINE
  5
FD
330
F3
100
AcDbEntity
  8
0
  6
CONTINUOUS
 62
     0
100
AcDbLine
 10
2.5
 20
0.0
 30
0.0
 11
5.0
 21
0.0
 31
0.0
  0
ENDBLK
  5
F5
330
F3
100
AcDbEntity
  8
0
100
AcDbBlockEnd
  0
BLOCK
  5
100
330
FF
100
AcDbEntity
  8
0
100
AcDbBlockBegin
  2
SW_CENTERMARKSYMBOL_2
 70
     0
 10
0.0
 20
0.0
 30
0.0
  3
SW_CENTERMARKSYMBOL_2
  1

  0
LINE
  5
102
330
FF
100
AcDbEntity
  8
0
  6
CONTINUOUS
 62
     0
100
AcDbLine
 10
0.0
 20
0.0
 30
0.0
 11
0.0
 21
2.5
 31
0.0
  0
LINE
  5
103
330
FF
100
AcDbEntity
  8
0
  6
CONTINUOUS
 62
     0
100
AcDbLine
 10
0.0
 20
0.0
 30
0.0
 11
-2.5
 21
0.0
 31
0.0
  0
LINE
  5
104
330
FF
100
AcDbEntity
  8
0
  6
CONTINUOUS
 62
     0
100
AcDbLine
 10
0.0
 20
0.0
 30
0.0
 11
0.0
 21
-2.5
 31
0.0
  0
LINE
  5
105
330
FF
100
AcDbEntity
  8
0
  6
CONTINUOUS
 62
     0
100
AcDbLine
 10
0.0
 20
0.0
 30
0.0
 11
2.5
 21
0.0
 31
0.0
  0
LINE
  5
106
330
FF
100
AcDbEntity
  8
0
  6
CONTINUOUS
 62
     0
100
AcDbLine
 10
0.0
 20
2.5
 30
0.0
 11
0.0
 21
5.0
 31
0.0
  0
LINE
  5
107
330
FF
100
AcDbEntity
  8
0
  6
CONTINUOUS
 62
     0
100
AcDbLine
 10
-2.5
 20
0.0
 30
0.0
 11
-5.0
 21
0.0
 31
0.0
  0
LINE
  5
108
330
FF
100
AcDbEntity
  8
0
  6
CONTINUOUS
 62
     0
100
AcDbLine
 10
0.0
 20
-2.5
 30
0.0
 11
0.0
 21
-5.0
 31
0.0
  0
LINE
  5
109
330
FF
100
AcDbEntity
  8
0
  6
CONTINUOUS
 62
     0
100
AcDbLine
 10
2.5
 20
0.0
 30
0.0
 11
5.0
 21
0.0
 31
0.0
  0
ENDBLK
  5
101
330
FF
100
AcDbEntity
  8
0
100
AcDbBlockEnd
  0
BLOCK
  5
11B
330
11A
100
AcDbEntity
  8
0
100
AcDbBlockBegin
  2
_D_5
 70
     0
 10
0.0
 20
0.0
 30
0.0
  3
_D_5
  1

  0
INSERT
  5
11D
330
11A
100
AcDbEntity
  8
0
  6
CONTINUOUS
 62
     7
100
AcDbBlockReference
  2
_OPEN30
 10
55.3816394235
 20
123.8616223468
 30
50.0
 41
3.302
 42
3.302
 50
180.0
  0
INSERT
  5
11E
330
11A
100
AcDbEntity
  8
0
  6
CONTINUOUS
 62
     7
100
AcDbBlockReference
  2
_OPEN30
 10
74.3816394235
 20
123.8616223468
 30
50.0
 41
3.302
 42
3.302
 50
0.0
  0
LINE
  5
11F
330
11A
100
AcDbEntity
  8
0
  6
CONTINUOUS
 62
     7
100
AcDbLine
 10
55.3816394235
 20
109.6455045282
 30
0.0
 11
55.3816394235
 21
124.8616223468
 31
0.0
  0
LINE
  5
120
330
11A
100
AcDbEntity
  8
0
  6
CONTINUOUS
 62
     7
100
AcDbLine
 10
74.3816394235
 20
109.6455045282
 30
0.0
 11
74.3816394235
 21
124.8616223468
 31
0.0
  0
LINE
  5
121
330
11A
100
AcDbEntity
  8
0
  6
CONTINUOUS
 62
     7
100
AcDbLine
 10
55.3816394235
 20
123.8616223468
 30
0.0
 11
74.3816394235
 21
123.8616223468
 31
0.0
  0
MTEXT
  5
122
330
11A
100
AcDbEntity
  8
0
  6
CONTINUOUS
 62
     7
100
AcDbMText
 10
62.0681894337
 20
128.3323252972
 30
0.0
 40
3.5
 41
0.0
 71
     1
 72
     1
  1
19
  7
SLDTEXTSTYLE1
  0
ENDBLK
  5
11C
330
11A
100
AcDbEntity
  8
0
100
AcDbBlockEnd
  0
BLOCK
  5
124
330
123
100
AcDbEntity
  8
0
100
AcDbBlockBegin
  2
SW_CENTERMARKSYMBOL_3
 70
     0
 10
0.0
 20
0.0
 30
0.0
  3
SW_CENTERMARKSYMBOL_3
  1

  0
LINE
  5
126
330
123
100
AcDbEntity
  8
0
  6
CONTINUOUS
 62
     0
100
AcDbLine
 10
0.0
 20
0.0
 30
0.0
 11
0.0
 21
2.5
 31
0.0
  0
LINE
  5
127
330
123
100
AcDbEntity
  8
0
  6
CONTINUOUS
 62
     0
100
AcDbLine
 10
0.0
 20
0.0
 30
0.0
 11
-2.5
 21
0.0
 31
0.0
  0
LINE
  5
128
330
123
100
AcDbEntity
  8
0
  6
CONTINUOUS
 62
     0
100
AcDbLine
 10
0.0
 20
0.0
 30
0.0
 11
0.0
 21
-2.5
 31
0.0
  0
LINE
  5
129
330
123
100
AcDbEntity
  8
0
  6
CONTINUOUS
 62
     0
100
AcDbLine
 10
0.0
 20
0.0
 30
0.0
 11
2.5
 21
0.0
 31
0.0
  0
LINE
  5
12A
330
123
100
AcDbEntity
  8
0
  6
CONTINUOUS
 62
     0
100
AcDbLine
 10
0.0
 20
5.0
 30
0.0
 11
0.0
 21
8.5
 31
0.0
  0
LINE
  5
12B
330
123
100
AcDbEntity
  8
0
  6
CONTINUOUS
 62
     0
100
AcDbLine
 10
-5.0
 20
0.0
 30
0.0
 11
-8.5
 21
0.0
 31
0.0
  0
LINE
  5
12C
330
123
100
AcDbEntity
  8
0
  6
CONTINUOUS
 62
     0
100
AcDbLine
 10
0.0
 20
-5.0
 30
0.0
 11
0.0
 21
-8.5
 31
0.0
  0
LINE
  5
12D
330
123
100
AcDbEntity
  8
0
  6
CONTINUOUS
 62
     0
100
AcDbLine
 10
5.0
 20
0.0
 30
0.0
 11
8.5
 21
0.0
 31
0.0
  0
ENDBLK
  5
125
330
123
100
AcDbEntity
  8
0
100
AcDbBlockEnd
  0
BLOCK
  5
130
330
12F
100
AcDbEntity
  8
0
100
AcDbBlockBegin
  2
SW_CENTERMARKSYMBOL_4
 70
     0
 10
0.0
 20
0.0
 30
0.0
  3
SW_CENTERMARKSYMBOL_4
  1

  0
LINE
  5
132
330
12F
100
AcDbEntity
  8
0
  6
CONTINUOUS
 62
     0
100
AcDbLine
 10
0.0
 20
0.0
 30
0.0
 11
0.0
 21
2.5
 31
0.0
  0
LINE
  5
133
330
12F
100
AcDbEntity
  8
0
  6
CONTINUOUS
 62
     0
100
AcDbLine
 10
0.0
 20
0.0
 30
0.0
 11
-2.5
 21
0.0
 31
0.0
  0
LINE
  5
134
330
12F
100
AcDbEntity
  8
0
  6
CONTINUOUS
 62
     0
100
AcDbLine
 10
0.0
 20
0.0
 30
0.0
 11
0.0
 21
-2.5
 31
0.0
  0
LINE
  5
135
330
12F
100
AcDbEntity
  8
0
  6
CONTINUOUS
 62
     0
100
AcDbLine
 10
0.0
 20
0.0
 30
0.0
 11
2.5
 21
0.0
 31
0.0
  0
LINE
  5
136
330
12F
100
AcDbEntity
  8
0
  6
CONTINUOUS
 62
     0
100
AcDbLine
 10
0.0
 20
5.0
 30
0.0
 11
0.0
 21
12.5
 31
0.0
  0
LINE
  5
137
330
12F
100
AcDbEntity
  8
0
  6
CONTINUOUS
 62
     0
100
AcDbLine
 10
-5.0
 20
0.0
 30
0.0
 11
-12.5
 21
0.0
 31
0.0
  0
LINE
  5
138
330
12F
100
AcDbEntity
  8
0
  6
CONTINUOUS
 62
     0
100
AcDbLine
 10
0.0
 20
-5.0
 30
0.0
 11
0.0
 21
-12.5
 31
0.0
  0
LINE
  5
139
330
12F
100
AcDbEntity
  8
0
  6
CONTINUOUS
 62
     0
100
AcDbLine
 10
5.0
 20
0.0
 30
0.0
 11
12.5
 21
0.0
 31
0.0
  0
ENDBLK
  5
131
330
12F
100
AcDbEntity
  8
0
100
AcDbBlockEnd
  0
BLOCK
  5
1AA
330
1A9
100
AcDbEntity
  8
0
100
AcDbBlockBegin
  2
_D_6
 70
     0
 10
0.0
 20
0.0
 30
0.0
  3
_D_6
  1

  0
INSERT
  5
1AC
330
1A9
100
AcDbEntity
  8
0
  6
CONTINUOUS
 62
     7
100
AcDbBlockReference
  2
_OPEN30
 10
122.4553418691
 20
74.1790589039
 30
0.0
 41
3.302
 42
3.302
 50
180.0
  0
INSERT
  5
1AD
330
1A9
100
AcDbEntity
  8
0
  6
CONTINUOUS
 62
     7
100
AcDbBlockReference
  2
_OPEN30
 10
162.4553418691
 20
74.1790589039
 30
0.0
 41
3.302
 42
3.302
 50
0.0
  0
LINE
  5
1AE
330
1A9
100
AcDbEntity
  8
0
  6
CONTINUOUS
 62
     7
100
AcDbLine
 10
122.4553418691
 20
59.8484485958
 30
0.0
 11
122.4553418691
 21
75.1790589039
 31
0.0
  0
LINE
  5
1AF
330
1A9
100
AcDbEntity
  8
0
  6
CONTINUOUS
 62
     7
100
AcDbLine
 10
162.4553418691
 20
58.8484485958
 30
0.0
 11
162.4553418691
 21
75.1790589039
 31
0.0
  0
LINE
  5
1B0
330
1A9
100
AcDbEntity
  8
0
  6
CONTINUOUS
 62
     7
100
AcDbLine
 10
122.4553418691
 20
74.1790589039
 30
0.0
 11
162.4553418691
 21
74.1790589039
 31
0.0
  0
MTEXT
  5
1B1
330
1A9
100
AcDbEntity
  8
0
  6
CONTINUOUS
 62
     7
100
AcDbMText
 10
139.1677898834
 20
78.6497618543
 30
0.0
 40
3.5
 41
0.0
 71
     1
 72
     1
  1
40
  7
SLDTEXTSTYLE1
  0
ENDBLK
  5
1AB
330
1A9
100
AcDbEntity
  8
0
100
AcDbBlockEnd
  0
BLOCK
  5
1B4
330
1B3
100
AcDbEntity
  8
0
100
AcDbBlockBegin
  2
_D_7
 70
     0
 10
0.0
 20
0.0
 30
0.0
  3
_D_7
  1

  0
INSERT
  5
1B6
330
1B3
100
AcDbEntity
  8
0
  6
CONTINUOUS
 62
     7
100
AcDbBlockReference
  2
_OPEN30
 10
106.4553418691
 20
44.8484485958
 30
0.0
 41
3.302
 42
3.302
 50
270.0
  0
INSERT
  5
1B7
330
1B3
100
AcDbEntity
  8
0
  6
CONTINUOUS
 62
     7
100
AcDbBlockReference
  2
_OPEN30
 10
106.4553418691
 20
56.8484485958
 30
0.0
 41
3.302
 42
3.302
 50
90.0
  0
LINE
  5
1B8
330
1B3
100
AcDbEntity
  8
0
  6
CONTINUOUS
 62
     7
100
AcDbLine
 10
121.9553418691
 20
44.8484485958
 30
0.0
 11
105.4553418691
 21
44.8484485958
 31
0.0
  0
LINE
  5
1B9
330
1B3
100
AcDbEntity
  8
0
  6
CONTINUOUS
 62
     7
100
AcDbLine
 10
121.9553418691
 20
56.8484485958
 30
0.0
 11
105.4553418691
 21
56.8484485958
 31
0.0
  0
LINE
  5
1BA
330
1B3
100
AcDbEntity
  8
0
  6
CONTINUOUS
 62
     7
100
AcDbLine
 10
106.4553418691
 20
44.8484485958
 30
0.0
 11
106.4553418691
 21
29.2544927816
 31
0.0
  0
LINE
  5
1BB
330
1B3
100
AcDbEntity
  8
0
  6
CONTINUOUS
 62
     7
100
AcDbLine
 10
106.4553418691
 20
44.8484485958
 30
0.0
 11
106.4553418691
 21
56.8484485958
 31
0.0
  0
MTEXT
  5
1BC
330
1B3
100
AcDbEntity
  8
0
  6
CONTINUOUS
 62
     7
100
AcDbMText
 10
101.9846387441
 20
29.2544927816
 30
0.0
 40
3.5
 41
0.0
 71
     1
 72
     1
  1
%%c
  7
SLDTEXTSTYLE1
 11
6.123233995736766E-17
 21
1.0
 31
0.0
  0
MTEXT
  5
1BD
330
1B3
100
AcDbEntity
  8
0
  6
CONTINUOUS
 62
     7
100
AcDbMText
 10
101.9311665675
 20
34.53293018
 30
0.0
 40
3.5
 41
0.0
 71
     1
 72
     1
  1
12
  7
SLDTEXTSTYLE1
 11
6.123233995736766E-17
 21
1.0
 31
0.0
  0
ENDBLK
  5
1B5
330
1B3
100
AcDbEntity
  8
0
100
AcDbBlockEnd
  0
BLOCK
  5
1C0
330
1BF
100
AcDbEntity
  8
0
100
AcDbBlockBegin
  2
_D_8
 70
     0
 10
0.0
 20
0.0
 30
0.0
  3
_D_8
  1

  0
INSERT
  5
1C2
330
1BF
100
AcDbEntity
  8
0
  6
CONTINUOUS
 62
     7
100
AcDbBlockReference
  2
_OPEN30
 10
239.8978826893
 20
43.8484485958
 30
0.0
 41
3.302
 42
3.302
 50
90.0
  0
INSERT
  5
1C3
330
1BF
100
AcDbEntity
  8
0
  6
CONTINUOUS
 62
     7
100
AcDbBlockReference
  2
_OPEN30
 10
239.8978826893
 20
57.8484485958
 30
0.0
 41
3.302
 42
3.302
 50
270.0
  0
LINE
  5
1C4
330
1BF
100
AcDbEntity
  8
0
  6
CONTINUOUS
 62
     7
100
AcDbLine
 10
222.9553418691
 20
43.8484485958
 30
0.0
 11
240.8978826893
 21
43.8484485958
 31
0.0
  0
LINE
  5
1C5
330
1BF
100
AcDbEntity
  8
0
  6
CONTINUOUS
 62
     7
100
AcDbLine
 10
222.9553418691
 20
57.8484485958
 30
0.0
 11
240.8978826893
 21
57.8484485958
 31
0.0
  0
LINE
  5
1C6
330
1BF
100
AcDbEntity
  8
0
  6
CONTINUOUS
 62
     7
100
AcDbLine
 10
239.8978826893
 20
43.8484485958
 30
0.0
 11
239.8978826893
 21
37.4984485958
 31
0.0
  0
LINE
  5
1C7
330
1BF
100
AcDbEntity
  8
0
  6
CONTINUOUS
 62
     7
100
AcDbLine
 10
239.8978826893
 20
43.8484485958
 30
0.0
 11
239.8978826893
 21
57.8484485958
 31
0.0
  0
LINE
  5
1C8
330
1BF
100
AcDbEntity
  8
0
  6
CONTINUOUS
 62
     7
100
AcDbLine
 10
239.8978826893
 20
57.8484485958
 30
0.0
 11
239.8978826893
 21
64.1984485958
 31
0.0
  0
MTEXT
  5
1C9
330
1BF
100
AcDbEntity
  8
0
  6
CONTINUOUS
 62
     7
100
AcDbMText
 10
235.4271795643
 20
44.6830699813
 30
0.0
 40
3.5
 41
0.0
 71
     1
 72
     1
  1
%%c
  7
SLDTEXTSTYLE1
 11
6.123233995736766E-17
 21
1.0
 31
0.0
  0
MTEXT
  5
1CA
330
1BF
100
AcDbEntity
  8
0
  6
CONTINUOUS
 62
     7
100
AcDbMText
 10
235.3737073876
 20
49.9615073796
 30
0.0
 40
3.5
 41
0.0
 71
     1
 72
     1
  1
14
  7
SLDTEXTSTYLE1
 11
6.123233995736766E-17
 21
1.0
 31
0.0
  0
ENDBLK
  5
1C1
330
1BF
100
AcDbEntity
  8
0
100
AcDbBlockEnd
  0
BLOCK
  5
1CD
330
1CC
100
AcDbEntity
  8
0
100
AcDbBlockBegin
  2
_D_9
 70
     0
 10
0.0
 20
0.0
 30
0.0
  3
_D_9
  1

  0
INSERT
  5
1CF
330
1CC
100
AcDbEntity
  8
0
  6
CONTINUOUS
 62
     7
100
AcDbBlockReference
  2
_OPEN30
 10
162.4553418691
 20
74.1820175623
 30
0.0
 41
3.302
 42
3.302
 50
180.0
  0
INSERT
  5
1D0
330
1CC
100
AcDbEntity
  8
0
  6
CONTINUOUS
 62
     7
100
AcDbBlockReference
  2
_OPEN30
 10
222.4553418691
 20
74.1820175623
 30
0.0
 41
3.302
 42
3.302
 50
0.0
  0
LINE
  5
1D1
330
1CC
100
AcDbEntity
  8
0
  6
CONTINUOUS
 62
     7
100
AcDbLine
 10
162.4553418691
 20
58.8484485958
 30
0.0
 11
162.4553418691
 21
75.1820175623
 31
0.0
  0
LINE
  5
1D2
330
1CC
100
AcDbEntity
  8
0
  6
CONTINUOUS
 62
     7
100
AcDbLine
 10
222.4553418691
 20
60.8484485958
 30
0.0
 11
222.4553418691
 21
75.1820175623
 31
0.0
  0
LINE
  5
1D3
330
1CC
100
AcDbEntity
  8
0
  6
CONTINUOUS
 62
     7
100
AcDbLine
 10
162.4553418691
 20
74.1820175623
 30
0.0
 11
222.4553418691
 21
74.1820175623
 31
0.0
  0
MTEXT
  5
1D4
330
1CC
100
AcDbEntity
  8
0
  6
CONTINUOUS
 62
     7
100
AcDbMText
 10
190.1125837271
 20
78.6527205127
 30
0.0
 40
3.5
 41
0.0
 71
     1
 72
     1
  1
60
  7
SLDTEXTSTYLE1
  0
ENDBLK
  5
1CE
330
1CC
100
AcDbEntity
  8
0
100
AcDbBlockEnd
  0
BLOCK
  5
1D6
330
1D5
100
AcDbEntity
  8
0
100
AcDbBlockBegin
  2
SW_NOTE_0
 70
     0
 10
0.0
 20
0.0
 30
0.0
  3
SW_NOTE_0
  1

  0
LINE
  5
1D8
330
1D5
100
AcDbEntity
  8
0
  6
CONTINUOUS
 62
     0
100
AcDbLine
 10
-32.9150855178
 20
0.0
 30
0.0
 11
0.0
 21
0.0
 31
0.0
  0
MTEXT
  5
1D9
330
1D5
100
AcDbEntity
  8
0
  6
CONTINUOUS
 62
     0
100
AcDbMText
 10
-33.2950346227
 20
8.9877124627
 30
0.0
 40
3.5
 41
0.0
 71
     1
 72
     1
  1
3-M6×1.0
  7
SLDTEXTSTYLE1
  0
MTEXT
  5
1DA
330
1D5
100
AcDbEntity
  8
0
  6
CONTINUOUS
 62
     0
100
AcDbMText
 10
-33.2950346227
 20
4.4620179322
 30
0.0
 40
3.5
 41
0.0
 71
     1
 72
     1
  1
止めネジ:ESH-2S
  7
SLDTEXTSTYLE0
  0
ENDBLK
  5
1D7
330
1D5
100
AcDbEntity
  8
0
100
AcDbBlockEnd
  0
ENDSEC
  0
SECTION
  2
ENTITIES
  0
MTEXT
  5
74
330
1F
100
AcDbEntity
  8
0
  6
CONTINUOUS
 62
     7
100
AcDbMText
 10
102.9384953684
 20
172.6026413035
 30
0.0
 40
6.35
 41
0.0
 71
     1
 72
     1
  1
イースリーブ　ESL1220
  7
SLDTEXTSTYLE0
  0
LINE
  5
75
330
1F
100
AcDbEntity
  8
0
  6
CONTINUOUS
 62
     7
100
AcDbLine
 10
221.4553413327
 20
95.5230057525
 30
0.0
 11
222.4553433592
 21
96.5230059165
 31
0.0
  0
LINE
  5
76
330
1F
100
AcDbEntity
  8
0
  6
CONTINUOUS
 62
     7
100
AcDbLine
 10
222.4553433592
 20
114.5230051416
 30
0.0
 11
221.4553413327
 21
115.5230053055
 31
0.0
  0
LINE
  5
77
330
1F
100
AcDbEntity
  8
0
  6
CONTINUOUS
 62
     7
100
AcDbLine
 10
124.4553419641
 20
115.5230053055
 30
0.0
 11
122.4553418691
 21
113.523005909
 31
0.0
  0
LINE
  5
78
330
1F
100
AcDbEntity
  8
0
  6
CONTINUOUS
 62
     7
100
AcDbLine
 10
122.4553418691
 20
97.523005149
 30
0.0
 11
124.4553419641
 21
95.5230057525
 31
0.0
  0
LINE
  5
79
330
1F
100
AcDbEntity
  8
0
  6
CONTINUOUS
 62
     7
100
AcDbLine
 10
124.4553419641
 20
95.5230057525
 30
0.0
 11
221.4553413327
 21
95.5230057525
 31
0.0
  0
LINE
  5
7A
330
1F
100
AcDbEntity
  8
0
  6
CONTINUOUS
 62
     7
100
AcDbLine
 10
221.4553413327
 20
115.5230053055
 30
0.0
 11
124.4553419641
 21
115.5230053055
 31
0.0
  0
CIRCLE
  5
7B
330
1F
100
AcDbEntity
  8
0
  6
CONTINUOUS
 62
     7
100
AcDbCircle
 10
148.4553418691
 20
105.523005529
 30
0.0
 40
2.300000000000011
  0
LINE
  5
7C
330
1F
100
AcDbEntity
  8
0
  6
CONTINUOUS
 62
     7
100
AcDbLine
 10
149.3213680918
 20
104.023005516
 30
0.0
 11
150.1873919154
 21
105.523005529
 31
0.0
  0
LINE
  5
7D
330
1F
100
AcDbEntity
  8
0
  6
CONTINUOUS
 62
     7
100
AcDbLine
 10
150.1873919154
 20
105.523005529
 30
0.0
 11
149.3213680918
 21
107.0230055421
 31
0.0
  0
LINE
  5
7E
330
1F
100
AcDbEntity
  8
0
  6
CONTINUOUS
 62
     7
100
AcDbLine
 10
149.3213680918
 20
107.0230055421
 30
0.0
 11
147.5893167193
 21
107.0230055421
 31
0.0
  0
LINE
  5
7F
330
1F
100
AcDbEntity
  8
0
  6
CONTINUOUS
 62
     7
100
AcDbLine
 10
147.5893167193
 20
107.0230055421
 30
0.0
 11
146.723291033
 21
105.523005529
 31
0.0
  0
LINE
  5
80
330
1F
100
AcDbEntity
  8
0
  6
CONTINUOUS
 62
     7
100
AcDbLine
 10
146.723291033
 20
105.523005529
 30
0.0
 11
147.5893167193
 21
104.023005516
 31
0.0
  0
LINE
  5
81
330
1F
100
AcDbEntity
  8
0
  6
CONTINUOUS
 62
     7
100
AcDbLine
 10
147.5893167193
 20
104.023005516
 30
0.0
 11
149.3213680918
 21
104.023005516
 31
0.0
  0
CIRCLE
  5
82
330
1F
100
AcDbEntity
  8
0
  6
CONTINUOUS
 62
     7
100
AcDbCircle
 10
148.4553418691
 20
105.523005529
 30
0.0
 40
3.0
  0
CIRCLE
  5
83
330
1F
100
AcDbEntity
  8
0
  6
CONTINUOUS
 62
     7
100
AcDbCircle
 10
148.4553418691
 20
105.523005529
 30
0.0
 40
0.9999999999999716
  0
CIRCLE
  5
84
330
1F
100
AcDbEntity
  8
0
  6
CONTINUOUS
 62
     7
100
AcDbCircle
 10
138.4553418691
 20
105.523005529
 30
0.0
 40
2.299999999999983
  0
LINE
  5
85
330
1F
100
AcDbEntity
  8
0
  6
CONTINUOUS
 62
     7
100
AcDbLine
 10
139.3213664527
 20
104.023005516
 30
0.0
 11
140.187392139
 21
105.523005529
 31
0.0
  0
LINE
  5
86
330
1F
100
AcDbEntity
  8
0
  6
CONTINUOUS
 62
     7
100
AcDbLine
 10
140.187392139
 20
105.523005529
 30
0.0
 11
139.3213664527
 21
107.0230055421
 31
0.0
  0
LINE
  5
87
330
1F
100
AcDbEntity
  8
0
  6
CONTINUOUS
 62
     7
100
AcDbLine
 10
139.3213664527
 20
107.0230055421
 30
0.0
 11
137.5893160115
 21
107.0230055421
 31
0.0
  0
LINE
  5
88
330
1F
100
AcDbEntity
  8
0
  6
CONTINUOUS
 62
     7
100
AcDbLine
 10
137.5893160115
 20
107.0230055421
 30
0.0
 11
136.7232912565
 21
105.523005529
 31
0.0
  0
LINE
  5
89
330
1F
100
AcDbEntity
  8
0
  6
CONTINUOUS
 62
     7
100
AcDbLine
 10
136.7232912565
 20
105.523005529
 30
0.0
 11
137.5893160115
 21
104.023005516
 31
0.0
  0
LINE
  5
8A
330
1F
100
AcDbEntity
  8
0
  6
CONTINUOUS
 62
     7
100
AcDbLine
 10
137.5893160115
 20
104.023005516
 30
0.0
 11
139.3213664527
 21
104.023005516
 31
0.0
  0
CIRCLE
  5
8B
330
1F
100
AcDbEntity
  8
0
  6
CONTINUOUS
 62
     7
100
AcDbCircle
 10
138.4553418691
 20
105.523005529
 30
0.0
 40
3.0
  0
CIRCLE
  5
8C
330
1F
100
AcDbEntity
  8
0
  6
CONTINUOUS
 62
     7
100
AcDbCircle
 10
138.4553418691
 20
105.523005529
 30
0.0
 40
1.0
  0
CIRCLE
  5
8D
330
1F
100
AcDbEntity
  8
0
  6
CONTINUOUS
 62
     7
100
AcDbCircle
 10
128.4553418691
 20
105.523005529
 30
0.0
 40
2.300000000000011
  0
LINE
  5
8E
330
1F
100
AcDbEntity
  8
0
  6
CONTINUOUS
 62
     7
100
AcDbLine
 10
129.3213671419
 20
104.023005516
 30
0.0
 11
130.1873928281
 21
105.523005529
 31
0.0
  0
LINE
  5
8F
330
1F
100
AcDbEntity
  8
0
  6
CONTINUOUS
 62
     7
100
AcDbLine
 10
130.1873928281
 20
105.523005529
 30
0.0
 11
129.3213671419
 21
107.0230055421
 31
0.0
  0
LINE
  5
90
330
1F
100
AcDbEntity
  8
0
  6
CONTINUOUS
 62
     7
100
AcDbLine
 10
129.3213671419
 20
107.0230055421
 30
0.0
 11
127.589316235
 21
107.0230055421
 31
0.0
  0
LINE
  5
91
330
1F
100
AcDbEntity
  8
0
  6
CONTINUOUS
 62
     7
100
AcDbLine
 10
127.589316235
 20
107.0230055421
 30
0.0
 11
126.7232910144
 21
105.523005529
 31
0.0
  0
LINE
  5
92
330
1F
100
AcDbEntity
  8
0
  6
CONTINUOUS
 62
     7
100
AcDbLine
 10
126.7232910144
 20
105.523005529
 30
0.0
 11
127.589316235
 21
104.023005516
 31
0.0
  0
LINE
  5
93
330
1F
100
AcDbEntity
  8
0
  6
CONTINUOUS
 62
     7
100
AcDbLine
 10
127.589316235
 20
104.023005516
 30
0.0
 11
129.3213671419
 21
104.023005516
 31
0.0
  0
CIRCLE
  5
94
330
1F
100
AcDbEntity
  8
0
  6
CONTINUOUS
 62
     7
100
AcDbCircle
 10
128.4553418691
 20
105.523005529
 30
0.0
 40
3.0
  0
CIRCLE
  5
95
330
1F
100
AcDbEntity
  8
0
  6
CONTINUOUS
 62
     7
100
AcDbCircle
 10
128.4553418691
 20
105.523005529
 30
0.0
 40
1.0
  0
LINE
  5
96
330
1F
100
AcDbEntity
  8
0
  6
CONTINUOUS
 62
     7
100
AcDbLine
 10
222.4553433592
 20
105.523005529
 30
0.0
 11
222.4553433592
 21
114.5230051416
 31
0.0
  0
LINE
  5
97
330
1F
100
AcDbEntity
  8
0
  6
CONTINUOUS
 62
     7
100
AcDbLine
 10
222.4553433592
 20
96.5230059165
 30
0.0
 11
222.4553433592
 21
105.523005529
 31
0.0
  0
SPLINE
  5
98
330
1F
100
AcDbEntity
  8
0
  6
CONTINUOUS
 62
     7
100
AcDbSpline
210
0.0
220
0.0
230
1.0
 70
     8
 71
     3
 72
    15
 73
    11
 74
     0
 42
0.000000001
 43
0.00000001
 40
0.0
 40
0.0
 40
0.0
 40
0.0
 40
0.2500000000000001
 40
0.2500000000000001
 40
0.5000000000000001
 40
0.5000000000000001
 40
0.6250000000000001
 40
0.6250000000000001
 40
0.7500000000000002
 40
1.0
 40
1.0
 40
1.0
 40
1.0
 10
221.455341869115
 20
102.4005065298209
 30
0.0
 10
221.6128886758223
 20
102.9050601157397
 30
0.0
 10
221.7401414138325
 20
103.4253979072008
 30
0.0
 10
221.9108828876251
 20
104.468711880107
 30
0.0
 10
221.9554439991885
 20
104.9945093145738
 30
0.0
 10
221.9552905389207
 20
105.7900026333829
 30
0.0
 10
221.9439768857889
 20
106.0573644415616
 30
0.0
 10
221.8996467094689
 20
106.5863895544099
 30
0.0
 10
221.800907948329
 20
107.3730451254048
 30
0.0
 10
221.612978373183
 20
108.1406636808451
 30
0.0
 10
221.4553418691149
 20
108.6455045282194
 30
0.0
  0
LINE
  5
99
330
1F
100
AcDbEntity
  8
0
  6
CONTINUOUS
 62
     7
100
AcDbLine
 10
221.4553413327
 20
108.6455045088
 30
0.0
 11
221.4553413327
 21
115.5230053055
 31
0.0
  0
LINE
  5
9A
330
1F
100
AcDbEntity
  8
0
  6
CONTINUOUS
 62
     7
100
AcDbLine
 10
221.4553413327
 20
95.5230057525
 30
0.0
 11
221.4553413327
 21
102.4005065492
 31
0.0
  0
SPLINE
  5
9B
330
1F
100
AcDbEntity
  8
0
  6
CONTINUOUS
 62
     7
100
AcDbSpline
210
0.0
220
0.0
230
1.0
 70
     8
 71
     3
 72
    16
 73
    12
 74
     0
 42
0.000000001
 43
0.00000001
 40
0.0
 40
0.0
 40
0.0
 40
0.0
 40
0.25
 40
0.25
 40
0.5
 40
0.5
 40
0.625
 40
0.625
 40
0.75
 40
0.75
 40
1.0
 40
1.0
 40
1.0
 40
1.0
 10
124.4553418691148
 20
102.400506529821
 30
0.0
 10
124.2987703048834
 20
102.9019368401961
 30
0.0
 10
124.1710654588859
 20
103.4228525754967
 30
0.0
 10
123.9999379247284
 20
104.4672255234352
 30
0.0
 10
123.9553472033587
 20
104.9930748285297
 30
0.0
 10
123.955339202715
 20
105.7878274268595
 30
0.0
 10
123.9665511185891
 20
106.0548435734924
 30
0.0
 10
124.0108574798617
 20
106.5849042555903
 30
0.0
 10
124.0437924077178
 20
106.8475285036136
 30
0.0
 10
124.1723525375329
 20
107.6287609388706
 30
0.0
 10
124.2977261847741
 20
108.1407303573353
 30
0.0
 10
124.4553418691148
 20
108.6455045282194
 30
0.0
  0
LINE
  5
9C
330
1F
100
AcDbEntity
  8
0
  6
CONTINUOUS
 62
     7
100
AcDbLine
 10
124.4553419641
 20
95.5230057525
 30
0.0
 11
124.4553419641
 21
102.4005065492
 31
0.0
  0
LINE
  5
9D
330
1F
100
AcDbEntity
  8
0
  6
CONTINUOUS
 62
     7
100
AcDbLine
 10
124.4553419641
 20
108.6455045088
 30
0.0
 11
124.4553419641
 21
115.5230053055
 31
0.0
  0
LINE
  5
9E
330
1F
100
AcDbEntity
  8
0
  6
CONTINUOUS
 62
     7
100
AcDbLine
 10
122.4553418691
 20
105.523005529
 30
0.0
 11
122.4553418691
 21
113.523005909
 31
0.0
  0
LINE
  5
9F
330
1F
100
AcDbEntity
  8
0
  6
CONTINUOUS
 62
     7
100
AcDbLine
 10
122.4553418691
 20
97.523005149
 30
0.0
 11
122.4553418691
 21
105.523005529
 31
0.0
  0
CIRCLE
  5
A0
330
1F
100
AcDbEntity
  8
0
  6
CONTINUOUS
 62
     7
100
AcDbCircle
 10
128.4553418691
 20
105.523005529
 30
0.0
 40
3.024999999999977
  0
CIRCLE
  5
A1
330
1F
100
AcDbEntity
  8
0
  6
CONTINUOUS
 62
     7
100
AcDbCircle
 10
138.4553418691
 20
105.523005529
 30
0.0
 40
3.025000000000006
  0
CIRCLE
  5
A2
330
1F
100
AcDbEntity
  8
0
  6
CONTINUOUS
 62
     7
100
AcDbCircle
 10
148.4553418691
 20
105.523005529
 30
0.0
 40
3.025000000000006
  0
LINE
  5
A3
330
1F
100
AcDbEntity
  8
0
  6
CONTINUOUS
 62
     7
100
AcDbLine
 10
124.4553419641
 20
108.6455045088
 30
0.0
 11
221.4553413327
 21
108.6455045088
 31
0.0
  0
LINE
  5
A4
330
1F
100
AcDbEntity
  8
0
  6
CONTINUOUS
 62
     7
100
AcDbLine
 10
221.4553413327
 20
102.4005065492
 30
0.0
 11
124.4553419641
 21
102.4005065492
 31
0.0
  0
DIMENSION
  5
A5
330
1F
100
AcDbEntity
  8
0
  6
CONTINUOUS
 62
     7
100
AcDbDimension
  2
_D
 10
128.4553418691
 20
123.8581011231
 30
0.0
 11
114.2231937316
 21
123.8581011231
 31
0.0
 70
   160
  1
<>
  3
SLDDIMSTYLE0
100
AcDbAlignedDimension
 13
122.4553418691
 23
113.523005529
 33
0.0
 14
128.4553418691
 24
110.523005529
 34
0.0
100
AcDbRotatedDimension
  0
DIMENSION
  5
B9
330
1F
100
AcDbEntity
  8
0
  6
CONTINUOUS
 62
     7
100
AcDbDimension
  2
_D_1
 10
138.4553418691
 20
131.523005529
 30
0.0
 11
129.6783793044
 21
131.523005529
 31
0.0
 70
   160
  1
<>
  3
SLDDIMSTYLE0
100
AcDbAlignedDimension
 13
122.4553418691
 23
113.523005529
 33
0.0
 14
138.4553418691
 24
110.523005529
 34
0.0
100
AcDbRotatedDimension
  0
DIMENSION
  5
C5
330
1F
100
AcDbEntity
  8
0
  6
CONTINUOUS
 62
     7
100
AcDbDimension
  2
_D_2
 10
148.4553418691
 20
139.9889555041
 30
0.0
 11
135.2031583252
 21
139.9889555041
 31
0.0
 70
   160
  1
<>
  3
SLDDIMSTYLE1
100
AcDbAlignedDimension
 13
122.4553418691
 23
113.523005529
 33
0.0
 14
148.4553418691
 24
110.523005529
 34
0.0
100
AcDbRotatedDimension
  0
DIMENSION
  5
D0
330
1F
100
AcDbEntity
  8
0
  6
CONTINUOUS
 62
     7
100
AcDbDimension
  2
_D_3
 10
222.4553418691
 20
149.523005529
 30
0.0
 11
168.3116697475
 21
149.523005529
 31
0.0
 70
   160
  1
<>
  3
SLDDIMSTYLE1
100
AcDbAlignedDimension
 13
122.4553418691
 23
113.523005529
 33
0.0
 14
222.4553418691
 24
114.523005529
 34
0.0
100
AcDbRotatedDimension
  0
DIMENSION
  5
DA
330
1F
100
AcDbEntity
  8
0
  6
CONTINUOUS
 62
     7
100
AcDbDimension
  2
_D_4
 10
241.2975090903
 20
95.523005529
 30
0.0
 11
241.2975090903
 21
105.360312039
 31
0.0
 70
   160
  1
%%c<>
  3
SLDDIMSTYLE0
100
AcDbAlignedDimension
 13
221.4553418691
 23
115.523005529
 33
0.0
 14
221.4553418691
 24
95.523005529
 34
0.0
 50
90.0
100
AcDbRotatedDimension
  0
INSERT
  5
F2
330
1F
100
AcDbEntity
  8
0
  6
CONTINUOUS
 62
     7
100
AcDbBlockReference
  2
SW_CENTERMARKSYMBOL_0
 10
148.4553418691
 20
105.523005529
 30
0.0
  0
INSERT
  5
FE
330
1F
100
AcDbEntity
  8
0
  6
CONTINUOUS
 62
     7
100
AcDbBlockReference
  2
SW_CENTERMARKSYMBOL_1
 10
138.4553418691
 20
105.523005529
 30
0.0
  0
INSERT
  5
10A
330
1F
100
AcDbEntity
  8
0
  6
CONTINUOUS
 62
     7
100
AcDbBlockReference
  2
SW_CENTERMARKSYMBOL_2
 10
128.4553418691
 20
105.523005529
 30
0.0
  0
LINE
  5
10B
330
1F
100
AcDbEntity
  8
0
  6
CENTERX2
 62
     7
100
AcDbLine
 10
120.4553418691
 20
105.523005529
 30
0.0
 11
224.4553418691
 21
105.523005529
 31
0.0
  0
LINE
  5
10C
330
1F
100
AcDbEntity
  8
0
  6
CONTINUOUS
 62
     7
100
AcDbLine
 10
76.1816397856
 20
108.5230055551
 30
0.0
 11
74.381639118
 21
108.5230055551
 31
0.0
  0
LINE
  5
10D
330
1F
100
AcDbEntity
  8
0
  6
CONTINUOUS
 62
     7
100
AcDbLine
 10
74.381639118
 20
102.5230055029
 30
0.0
 11
76.1816397856
 21
102.5230055029
 31
0.0
  0
LINE
  5
10E
330
1F
100
AcDbEntity
  8
0
  6
CONTINUOUS
 62
     7
100
AcDbLine
 10
76.1816397856
 20
102.5230055029
 30
0.0
 11
76.8816395278
 21
103.223005478
 31
0.0
  0
LINE
  5
10F
330
1F
100
AcDbEntity
  8
0
  6
CONTINUOUS
 62
     7
100
AcDbLine
 10
76.8816395278
 20
107.8230055801
 30
0.0
 11
76.1816397856
 21
108.5230055551
 31
0.0
  0
LINE
  5
110
330
1F
100
AcDbEntity
  8
0
  6
CONTINUOUS
 62
     7
100
AcDbLine
 10
76.1816397856
 20
108.5230055551
 30
0.0
 11
76.1816397856
 21
102.5230055029
 31
0.0
  0
LINE
  5
111
330
1F
100
AcDbEntity
  8
0
  6
CONTINUOUS
 62
     7
100
AcDbLine
 10
76.8816395278
 20
107.8230055801
 30
0.0
 11
76.8816395278
 21
103.223005478
 31
0.0
  0
SPLINE
  5
112
330
1F
100
AcDbEntity
  8
0
  6
CONTINUOUS
 62
     7
100
AcDbSpline
210
0.0
220
0.0
230
1.0
 70
    24
 71
     3
 72
    16
 73
    12
 74
     0
 42
0.000000001
 43
0.00000001
 40
0.0
 40
0.0
 40
0.0
 40
0.0
 40
0.25
 40
0.25
 40
0.5
 40
0.5
 40
0.625
 40
0.625
 40
0.75
 40
0.75
 40
1.0
 40
1.0
 40
1.0
 40
1.0
 10
74.38163942350663
 20
102.400506529821
 30
0.0
 10
74.38163942350663
 20
102.9019368401961
 30
0.0
 10
74.38163942350663
 20
103.4228525754967
 30
0.0
 10
74.38163942350663
 20
104.4672255234352
 30
0.0
 10
74.38163942350663
 20
104.9930748285297
 30
0.0
 10
74.38163942350663
 20
105.7878274268595
 30
0.0
 10
74.38163942350663
 20
106.0548435734924
 30
0.0
 10
74.38163942350663
 20
106.5849042555903
 30
0.0
 10
74.38163942350663
 20
106.8475285036136
 30
0.0
 10
74.38163942350663
 20
107.6287609388706
 30
0.0
 10
74.38163942350663
 20
108.1407303573353
 30
0.0
 10
74.38163942350663
 20
108.6455045282194
 30
0.0
  0
ARC
  5
113
330
1F
100
AcDbEntity
  8
0
  6
CONTINUOUS
 62
     7
100
AcDbCircle
 10
64.8816394235
 20
105.523005529
 30
0.0
 40
10.00000000000001
100
AcDbArc
 50
198.1948723388
 51
341.8051276612
  0
SPLINE
  5
114
330
1F
100
AcDbEntity
  8
0
  6
CONTINUOUS
 62
     7
100
AcDbSpline
210
0.0
220
0.0
230
1.0
 70
    24
 71
     3
 72
    16
 73
    12
 74
     0
 42
0.000000001
 43
0.00000001
 40
0.0
 40
0.0
 40
0.0
 40
0.0
 40
0.25
 40
0.25
 40
0.5
 40
0.5
 40
0.625
 40
0.625
 40
0.75
 40
0.75
 40
1.0
 40
1.0
 40
1.0
 40
1.0
 10
55.38163942350663
 20
102.400506529821
 30
0.0
 10
55.38163942350663
 20
102.9019368401961
 30
0.0
 10
55.38163942350663
 20
103.4228525754967
 30
0.0
 10
55.38163942350663
 20
104.4672255234352
 30
0.0
 10
55.38163942350663
 20
104.9930748285297
 30
0.0
 10
55.38163942350663
 20
105.7878274268595
 30
0.0
 10
55.38163942350663
 20
106.0548435734924
 30
0.0
 10
55.38163942350663
 20
106.5849042555903
 30
0.0
 10
55.38163942350663
 20
106.8475285036136
 30
0.0
 10
55.38163942350663
 20
107.6287609388706
 30
0.0
 10
55.38163942350663
 20
108.1407303573353
 30
0.0
 10
55.38163942350663
 20
108.6455045282194
 30
0.0
  0
ARC
  5
115
330
1F
100
AcDbEntity
  8
0
  6
CONTINUOUS
 62
     7
100
AcDbCircle
 10
64.8816394235
 20
105.523005529
 30
0.0
 40
10.00000000000001
100
AcDbArc
 50
18.1948723388
 51
161.8051276612
  0
CIRCLE
  5
116
330
1F
100
AcDbEntity
  8
0
  6
CONTINUOUS
 62
     7
100
AcDbCircle
 10
64.8816394235
 20
105.523005529
 30
0.0
 40
7.999999999999986
  0
CIRCLE
  5
117
330
1F
100
AcDbEntity
  8
0
  6
CONTINUOUS
 62
     7
100
AcDbCircle
 10
64.8816394235
 20
105.523005529
 30
0.0
 40
6.499999999999986
  0
CIRCLE
  5
118
330
1F
100
AcDbEntity
  8
0
  6
CONTINUOUS
 62
     7
100
AcDbCircle
 10
64.8816394235
 20
105.523005529
 30
0.0
 40
5.999999999999986
  0
DIMENSION
  5
119
330
1F
100
AcDbEntity
  8
0
  6
CONTINUOUS
 62
     7
100
AcDbDimension
  2
_D_5
 10
74.3816394235
 20
123.8616223468
 30
0.0
 11
64.6543006272
 21
123.8616223468
 31
0.0
 70
   160
  1
<>
  3
SLDDIMSTYLE0
100
AcDbAlignedDimension
 13
55.3816394235
 23
108.6455045282
 33
0.0
 14
74.3816394235
 24
108.6455045282
 34
0.0
100
AcDbRotatedDimension
  0
INSERT
  5
12E
330
1F
100
AcDbEntity
  8
0
  6
CONTINUOUS
 62
     7
100
AcDbBlockReference
  2
SW_CENTERMARKSYMBOL_3
 10
64.8816394235
 20
105.523005529
 30
0.0
  0
INSERT
  5
13A
330
1F
100
AcDbEntity
  8
0
  6
CONTINUOUS
 62
     7
100
AcDbBlockReference
  2
SW_CENTERMARKSYMBOL_4
 10
64.8816394235
 20
105.523005529
 30
0.0
  0
LINE
  5
13B
330
1F
100
AcDbEntity
  8
0
  6
CONTINUOUS
 62
     7
100
AcDbLine
 10
145.4553419138
 20
62.1484489579
 30
0.0
 11
145.4553419138
 21
60.3484482904
 31
0.0
  0
LINE
  5
13C
330
1F
100
AcDbEntity
  8
0
  6
CONTINUOUS
 62
     7
100
AcDbLine
 10
151.4553410346
 20
60.3484482904
 30
0.0
 11
151.4553410346
 21
62.1484489579
 31
0.0
  0
LINE
  5
13D
330
1F
100
AcDbEntity
  8
0
  6
CONTINUOUS
 62
     7
100
AcDbLine
 10
151.4553410346
 20
62.1484489579
 30
0.0
 11
150.7553422238
 21
62.8484487002
 31
0.0
  0
LINE
  5
13E
330
1F
100
AcDbEntity
  8
0
  6
CONTINUOUS
 62
     7
100
AcDbLine
 10
146.1553425874
 20
62.8484487002
 30
0.0
 11
145.4553419138
 21
62.1484489579
 31
0.0
  0
LINE
  5
13F
330
1F
100
AcDbEntity
  8
0
  6
CONTINUOUS
 62
     7
100
AcDbLine
 10
135.4553421373
 20
62.1484489579
 30
0.0
 11
135.4553421373
 21
60.3484482904
 31
0.0
  0
LINE
  5
140
330
1F
100
AcDbEntity
  8
0
  6
CONTINUOUS
 62
     7
100
AcDbLine
 10
141.4553412582
 20
60.3484482904
 30
0.0
 11
141.4553412582
 21
62.1484489579
 31
0.0
  0
LINE
  5
141
330
1F
100
AcDbEntity
  8
0
  6
CONTINUOUS
 62
     7
100
AcDbLine
 10
141.4553412582
 20
62.1484489579
 30
0.0
 11
140.7553424473
 21
62.8484487002
 31
0.0
  0
LINE
  5
142
330
1F
100
AcDbEntity
  8
0
  6
CONTINUOUS
 62
     7
100
AcDbLine
 10
136.1553418795
 20
62.8484487002
 30
0.0
 11
135.4553421373
 21
62.1484489579
 31
0.0
  0
LINE
  5
143
330
1F
100
AcDbEntity
  8
0
  6
CONTINUOUS
 62
     7
100
AcDbLine
 10
125.4553418952
 20
62.1484489579
 30
0.0
 11
125.4553418952
 21
60.3484482904
 31
0.0
  0
LINE
  5
144
330
1F
100
AcDbEntity
  8
0
  6
CONTINUOUS
 62
     7
100
AcDbLine
 10
131.4553414817
 20
60.3484482904
 30
0.0
 11
131.4553414817
 21
62.1484489579
 31
0.0
  0
LINE
  5
145
330
1F
100
AcDbEntity
  8
0
  6
CONTINUOUS
 62
     7
100
AcDbLine
 10
131.4553414817
 20
62.1484489579
 30
0.0
 11
130.7553417395
 21
62.8484487002
 31
0.0
  0
LINE
  5
146
330
1F
100
AcDbEntity
  8
0
  6
CONTINUOUS
 62
     7
100
AcDbLine
 10
126.1553418702
 20
62.8484487002
 30
0.0
 11
125.4553418952
 21
62.1484489579
 31
0.0
  0
LINE
  5
147
330
1F
100
AcDbEntity
  8
0
  6
CONTINUOUS
 62
     7
100
AcDbLine
 10
123.9553418822
 20
60.3484482904
 30
0.0
 11
122.4553418691
 21
58.8484489758
 31
0.0
  0
LINE
  5
148
330
1F
100
AcDbEntity
  8
0
  6
CONTINUOUS
 62
     7
100
AcDbLine
 10
122.4553418691
 20
42.8484482159
 30
0.0
 11
123.9553418822
 21
41.3484489013
 31
0.0
  0
LINE
  5
149
330
1F
100
AcDbEntity
  8
0
  6
CONTINUOUS
 62
     7
100
AcDbLine
 10
221.955342346
 20
41.3484489013
 30
0.0
 11
222.4553433592
 21
41.8484489833
 31
0.0
  0
LINE
  5
14A
330
1F
100
AcDbEntity
  8
0
  6
CONTINUOUS
 62
     7
100
AcDbLine
 10
222.4553433592
 20
59.8484482084
 30
0.0
 11
221.955342346
 21
60.3484482904
 31
0.0
  0
LINE
  5
14B
330
1F
100
AcDbEntity
  8
0
  6
CONTINUOUS
 62
     7
100
AcDbLine
 10
145.4553419138
 20
62.1484489579
 30
0.0
 11
151.4553410346
 21
62.1484489579
 31
0.0
  0
LINE
  5
14C
330
1F
100
AcDbEntity
  8
0
  6
CONTINUOUS
 62
     7
100
AcDbLine
 10
146.1553425874
 20
62.8484487002
 30
0.0
 11
150.7553422238
 21
62.8484487002
 31
0.0
  0
LINE
  5
14D
330
1F
100
AcDbEntity
  8
0
  6
CONTINUOUS
 62
     7
100
AcDbLine
 10
135.4553421373
 20
62.1484489579
 30
0.0
 11
141.4553412582
 21
62.1484489579
 31
0.0
  0
LINE
  5
14E
330
1F
100
AcDbEntity
  8
0
  6
CONTINUOUS
 62
     7
100
AcDbLine
 10
136.1553418795
 20
62.8484487002
 30
0.0
 11
140.7553424473
 21
62.8484487002
 31
0.0
  0
LINE
  5
14F
330
1F
100
AcDbEntity
  8
0
  6
CONTINUOUS
 62
     7
100
AcDbLine
 10
125.4553418952
 20
62.1484489579
 30
0.0
 11
131.4553414817
 21
62.1484489579
 31
0.0
  0
LINE
  5
150
330
1F
100
AcDbEntity
  8
0
  6
CONTINUOUS
 62
     7
100
AcDbLine
 10
126.1553418702
 20
62.8484487002
 30
0.0
 11
130.7553417395
 21
62.8484487002
 31
0.0
  0
SPLINE
  5
151
330
1F
100
AcDbEntity
  8
0
  6
CONTINUOUS
 62
     7
100
AcDbSpline
210
0.0
220
0.0
230
1.0
 70
    24
 71
     3
 72
    10
 73
     6
 74
     0
 42
0.000000001
 43
0.00000001
 40
0.0
 40
0.0
 40
0.0
 40
0.0
 40
0.2679411438343548
 40
0.7201967128031953
 40
0.9999999999999999
 40
0.9999999999999999
 40
0.9999999999999999
 40
0.9999999999999999
 10
124.4553419641097
 20
60.34844829037352
 30
0.0
 10
124.3770870592276
 20
60.34844829037352
 30
0.0
 10
124.1667463685435
 20
60.34844829037352
 30
0.0
 10
123.9736273208513
 20
60.34844829037353
 30
0.0
 10
123.9798844982341
 20
60.34844829037352
 30
0.0
 10
123.9822760802572
 20
60.34844829037352
 30
0.0
  0
LINE
  5
152
330
1F
100
AcDbEntity
  8
0
  6
CONTINUOUS
 62
     7
100
AcDbLine
 10
124.4553419641
 20
41.3484489013
 30
0.0
 11
124.4553419641
 21
60.3484482904
 31
0.0
  0
SPLINE
  5
153
330
1F
100
AcDbEntity
  8
0
  6
CONTINUOUS
 62
     7
100
AcDbSpline
210
0.0
220
0.0
230
1.0
 70
    24
 71
     3
 72
    10
 73
     6
 74
     0
 42
0.000000001
 43
0.00000001
 40
0.0
 40
0.0
 40
0.0
 40
0.0
 40
0.2699177442975274
 40
0.7320558918264455
 40
0.9999999999999999
 40
0.9999999999999999
 40
0.9999999999999999
 40
0.9999999999999999
 10
123.981330089352
 20
41.34844890132113
 30
0.0
 10
123.9788156554032
 20
41.34844890132113
 30
0.0
 10
123.9719961475131
 20
41.34844890132113
 30
0.0
 10
124.1638785956547
 20
41.34844890132113
 30
0.0
 10
124.3770916341058
 20
41.34844890132113
 30
0.0
 10
124.4553419641097
 20
41.34844890132113
 30
0.0
  0
LINE
  5
154
330
1F
100
AcDbEntity
  8
0
  6
CONTINUOUS
 62
     7
100
AcDbLine
 10
122.4553418691
 20
42.8484482159
 30
0.0
 11
122.4553418691
 21
58.8484489758
 31
0.0
  0
LINE
  5
155
330
1F
100
AcDbEntity
  8
0
  6
CONTINUOUS
 62
     7
100
AcDbLine
 10
222.4553433592
 20
41.8484489833
 30
0.0
 11
222.4553433592
 21
59.8484482084
 31
0.0
  0
SPLINE
  5
156
330
1F
100
AcDbEntity
  8
0
  6
CONTINUOUS
 62
     7
100
AcDbSpline
210
0.0
220
0.0
230
1.0
 70
    24
 71
     3
 72
    10
 73
     6
 74
     0
 42
0.000000001
 43
0.00000001
 40
0.0
 40
0.0
 40
0.0
 40
0.0
 40
0.3075386035987325
 40
0.7709216898820013
 40
1.0
 40
1.0
 40
1.0
 40
1.0
 10
221.931664400815
 20
60.34844829037352
 30
0.0
 10
221.9311371475257
 20
60.34844829037352
 30
0.0
 10
221.929815456551
 20
60.34844829037352
 30
0.0
 10
221.727589803458
 20
60.34844829037352
 30
0.0
 10
221.5230174394956
 20
60.34844829037352
 30
0.0
 10
221.455341332673
 20
60.34844829037352
 30
0.0
  0
SPLINE
  5
157
330
1F
100
AcDbEntity
  8
0
  6
CONTINUOUS
 62
     7
100
AcDbSpline
210
0.0
220
0.0
230
1.0
 70
    24
 71
     3
 72
    10
 73
     6
 74
     0
 42
0.000000001
 43
0.00000001
 40
0.0
 40
0.0
 40
0.0
 40
0.0
 40
0.2290762494363794
 40
0.682629317079187
 40
0.9999999999999999
 40
0.9999999999999999
 40
0.9999999999999999
 40
0.9999999999999999
 10
221.455341332673
 20
41.34844890132113
 30
0.0
 10
221.5230196547718
 20
41.34844890132113
 30
0.0
 10
221.7246957644033
 20
41.34844890132113
 30
0.0
 10
221.9281689941268
 20
41.34844890132113
 30
0.0
 10
221.9301120025494
 20
41.34844890132113
 30
0.0
 10
221.9309118921747
 20
41.34844890132113
 30
0.0
  0
LINE
  5
158
330
1F
100
AcDbEntity
  8
0
  6
CONTINUOUS
 62
     7
100
AcDbLine
 10
221.4553413327
 20
41.3484489013
 30
0.0
 11
221.4553413327
 21
60.3484482904
 31
0.0
  0
LINE
  5
159
330
1F
100
AcDbEntity
  8
0
  6
CONTINUOUS
 62
     7
100
AcDbLine
 10
124.4553419641
 20
41.3484489013
 30
0.0
 11
221.4553413327
 21
41.3484489013
 31
0.0
  0
LINE
  5
15A
330
1F
100
AcDbEntity
  8
0
  6
CONTINUOUS
 62
     7
100
AcDbLine
 10
221.4553413327
 20
60.3484482904
 30
0.0
 11
124.4553419641
 21
60.3484482904
 31
0.0
  0
LINE
  5
15B
330
1F
100
AcDbEntity
  8
0
  6
HIDDEN
 62
     7
100
AcDbLine
 10
145.4553419138
 20
57.5484483902
 30
0.0
 11
151.4553410346
 21
57.5484483902
 31
0.0
  0
LINE
  5
15C
330
1F
100
AcDbEntity
  8
0
  6
HIDDEN
 62
     7
100
AcDbLine
 10
146.1553425874
 20
56.848448648
 30
0.0
 11
150.7553422238
 21
56.848448648
 31
0.0
  0
SPLINE
  5
15D
330
1F
100
AcDbEntity
  8
0
  6
HIDDEN
 62
     7
100
AcDbSpline
210
0.0
220
0.0
230
1.0
 70
     8
 71
     3
 72
    11
 73
     7
 74
     0
 42
0.000000001
 43
0.00000001
 40
0.0
 40
0.0
 40
0.0
 40
0.0
 40
0.2164498776882737
 40
0.4402999502157536
 40
0.7518914369235649
 40
0.9999999999999999
 40
0.9999999999999999
 40
0.9999999999999999
 40
0.9999999999999999
 10
149.3213680918207
 20
61.08049949898882
 30
0.0
 10
149.3806897497796
 20
61.0261716272235
 30
0.0
 10
149.5013612111128
 20
60.91565847060232
 30
0.0
 10
149.7253004759727
 20
60.82354139744421
 30
0.0
 10
149.9655181387574
 20
60.87907330923196
 30
0.0
 10
150.1192460909948
 20
61.01863390148107
 30
0.0
 10
150.1873919154395
 20
61.08049949898882
 30
0.0
  0
SPLINE
  5
15E
330
1F
100
AcDbEntity
  8
0
  6
HIDDEN
 62
     7
100
AcDbSpline
210
0.0
220
0.0
230
1.0
 70
     8
 71
     3
 72
    11
 73
     7
 74
     0
 42
0.000000001
 43
0.00000001
 40
0.0
 40
0.0
 40
0.0
 40
0.0
 40
0.2018128923138802
 40
0.5199894437400029
 40
0.8310667355191117
 40
1.0
 40
1.0
 40
1.0
 40
1.0
 10
147.5893167192926
 20
61.08049949898882
 30
0.0
 10
147.6995972291705
 20
61.02962538466699
 30
0.0
 10
147.9837450867691
 20
60.89854355880507
 30
0.0
 10
148.4884715074006
 20
60.81202163412618
 30
0.0
 10
148.9677235384754
 20
60.91549866001618
 30
0.0
 10
149.2293072277627
 20
61.03754642743032
 30
0.0
 10
149.3213680918207
 20
61.08049949898882
 30
0.0
  0
SPLINE
  5
15F
330
1F
100
AcDbEntity
  8
0
  6
HIDDEN
 62
     7
100
AcDbSpline
210
0.0
220
0.0
230
1.0
 70
     8
 71
     3
 72
    11
 73
     7
 74
     0
 42
0.000000001
 43
0.00000001
 40
0.0
 40
0.0
 40
0.0
 40
0.0
 40
0.2164497666792287
 40
0.4402997244023809
 40
0.7518915641691641
 40
1.0
 40
1.0
 40
1.0
 40
1.0
 10
146.7232910330286
 20
61.08049949898882
 30
0.0
 10
146.7826127156189
 20
61.0261716237512
 30
0.0
 10
146.9032842270569
 20
60.9156584600667
 30
0.0
 10
147.1272232080736
 20
60.82354138562243
 30
0.0
 10
147.3674431828064
 20
60.87907317606879
 30
0.0
 10
147.5211710118856
 20
61.01863389985895
 30
0.0
 10
147.5893167192926
 20
61.08049949898882
 30
0.0
  0
LINE
  5
160
330
1F
100
AcDbEntity
  8
0
  6
HIDDEN
 62
     7
100
AcDbLine
 10
147.5893167193
 20
61.080499499
 30
0.0
 11
147.5893167193
 21
62.8484487002
 31
0.0
  0
LINE
  5
161
330
1F
100
AcDbEntity
  8
0
  6
HIDDEN
 62
     7
100
AcDbLine
 10
149.3213680918
 20
61.080499499
 30
0.0
 11
149.3213680918
 21
62.8484487002
 31
0.0
  0
LINE
  5
162
330
1F
100
AcDbEntity
  8
0
  6
HIDDEN
 62
     7
100
AcDbLine
 10
150.1873919154
 20
61.080499499
 30
0.0
 11
150.1873919154
 21
62.8484487002
 31
0.0
  0
LINE
  5
163
330
1F
100
AcDbEntity
  8
0
  6
HIDDEN
 62
     7
100
AcDbLine
 10
146.723291033
 20
61.080499499
 30
0.0
 11
146.723291033
 21
62.8484487002
 31
0.0
  0
LINE
  5
164
330
1F
100
AcDbEntity
  8
0
  6
HIDDEN
 62
     7
100
AcDbLine
 10
135.4553421373
 20
57.5484483902
 30
0.0
 11
141.4553412582
 21
57.5484483902
 31
0.0
  0
LINE
  5
165
330
1F
100
AcDbEntity
  8
0
  6
HIDDEN
 62
     7
100
AcDbLine
 10
136.1553418795
 20
56.848448648
 30
0.0
 11
140.7553424473
 21
56.848448648
 31
0.0
  0
SPLINE
  5
166
330
1F
100
AcDbEntity
  8
0
  6
HIDDEN
 62
     7
100
AcDbSpline
210
0.0
220
0.0
230
1.0
 70
     8
 71
     3
 72
    11
 73
     7
 74
     0
 42
0.000000001
 43
0.00000001
 40
0.0
 40
0.0
 40
0.0
 40
0.0
 40
0.2164502513190802
 40
0.4403002171051013
 40
0.751891555232528
 40
1.0
 40
1.0
 40
1.0
 40
1.0
 10
139.3213664526929
 20
61.08049949898882
 30
0.0
 10
139.380688856187
 20
61.02617164098781
 30
0.0
 10
139.5013616989231
 20
60.91565863614294
 30
0.0
 10
139.7253005397496
 20
60.82354135533016
 30
0.0
 10
139.9655183970434
 20
60.87907331839834
 30
0.0
 10
140.119246325191
 20
61.01863390429641
 30
0.0
 10
140.187392138957
 20
61.08049949898882
 30
0.0
  0
SPLINE
  5
167
330
1F
100
AcDbEntity
  8
0
  6
HIDDEN
 62
     7
100
AcDbSpline
210
0.0
220
0.0
230
1.0
 70
     8
 71
     3
 72
    11
 73
     7
 74
     0
 42
0.000000001
 43
0.00000001
 40
0.0
 40
0.0
 40
0.0
 40
0.0
 40
0.2018129805494605
 40
0.5199901809170343
 40
0.8310676087037344
 40
0.9999999999999999
 40
0.9999999999999999
 40
0.9999999999999999
 40
0.9999999999999999
 10
137.5893160114874
 20
61.08049949898882
 30
0.0
 10
137.6995965239732
 20
61.02962537542196
 30
0.0
 10
137.9837446668873
 20
60.89854339721866
 30
0.0
 10
138.48847137448
 20
60.81202179624708
 30
0.0
 10
138.9677233676301
 20
60.91549812362247
 30
0.0
 10
139.2293062182537
 20
61.03754640322469
 30
0.0
 10
139.3213664526929
 20
61.08049949898882
 30
0.0
  0
SPLINE
  5
168
330
1F
100
AcDbEntity
  8
0
  6
HIDDEN
 62
     7
100
AcDbSpline
210
0.0
220
0.0
230
1.0
 70
     8
 71
     3
 72
    11
 73
     7
 74
     0
 42
0.000000001
 43
0.00000001
 40
0.0
 40
0.0
 40
0.0
 40
0.0
 40
0.2164500637729525
 40
0.4402998291177981
 40
0.7518914969151577
 40
1.0
 40
1.0
 40
1.0
 40
1.0
 10
136.723291256546
 20
61.08049949898882
 30
0.0
 10
136.782613372097
 20
61.02617163816213
 30
0.0
 10
136.9032856273263
 20
60.91565862919658
 30
0.0
 10
137.1272231673915
 20
60.82354132437501
 30
0.0
 10
137.367442452051
 20
60.87907326117145
 30
0.0
 10
137.5211702753993
 20
61.0186339063585
 30
0.0
 10
137.5893160114874
 20
61.08049949898882
 30
0.0
  0
LINE
  5
169
330
1F
100
AcDbEntity
  8
0
  6
HIDDEN
 62
     7
100
AcDbLine
 10
139.3213664527
 20
61.080499499
 30
0.0
 11
139.3213664527
 21
62.8484487002
 31
0.0
  0
LINE
  5
16A
330
1F
100
AcDbEntity
  8
0
  6
HIDDEN
 62
     7
100
AcDbLine
 10
137.5893160115
 20
61.080499499
 30
0.0
 11
137.5893160115
 21
62.8484487002
 31
0.0
  0
LINE
  5
16B
330
1F
100
AcDbEntity
  8
0
  6
HIDDEN
 62
     7
100
AcDbLine
 10
140.187392139
 20
61.080499499
 30
0.0
 11
140.187392139
 21
62.8484487002
 31
0.0
  0
LINE
  5
16C
330
1F
100
AcDbEntity
  8
0
  6
HIDDEN
 62
     7
100
AcDbLine
 10
136.7232912565
 20
61.080499499
 30
0.0
 11
136.7232912565
 21
62.8484487002
 31
0.0
  0
LINE
  5
16D
330
1F
100
AcDbEntity
  8
0
  6
HIDDEN
 62
     7
100
AcDbLine
 10
125.4553418952
 20
57.5484483902
 30
0.0
 11
131.4553414817
 21
57.5484483902
 31
0.0
  0
LINE
  5
16E
330
1F
100
AcDbEntity
  8
0
  6
HIDDEN
 62
     7
100
AcDbLine
 10
126.1553418702
 20
56.848448648
 30
0.0
 11
130.7553417395
 21
56.848448648
 31
0.0
  0
SPLINE
  5
16F
330
1F
100
AcDbEntity
  8
0
  6
HIDDEN
 62
     7
100
AcDbSpline
210
0.0
220
0.0
230
1.0
 70
     8
 71
     3
 72
    11
 73
     7
 74
     0
 42
0.000000001
 43
0.00000001
 40
0.0
 40
0.0
 40
0.0
 40
0.0
 40
0.216450010451366
 40
0.4402998471799147
 40
0.7518914382179427
 40
1.0
 40
1.0
 40
1.0
 40
1.0
 10
129.3213671418716
 20
61.08049949898882
 30
0.0
 10
129.3806892193976
 20
61.02617163574185
 30
0.0
 10
129.5013614319542
 20
60.91565859009509
 30
0.0
 10
129.7252996888315
 20
60.82354134043216
 30
0.0
 10
129.9655186714825
 20
60.87907329721767
 30
0.0
 10
130.1192468959258
 20
61.01863390590559
 30
0.0
 10
130.1873928281357
 20
61.08049949898882
 30
0.0
  0
SPLINE
  5
170
330
1F
100
AcDbEntity
  8
0
  6
HIDDEN
 62
     7
100
AcDbSpline
210
0.0
220
0.0
230
1.0
 70
     8
 71
     3
 72
    11
 73
     7
 74
     0
 42
0.000000001
 43
0.00000001
 40
0.0
 40
0.0
 40
0.0
 40
0.0
 40
0.2018129327680102
 40
0.5199900578036205
 40
0.8310674119393067
 40
1.0
 40
1.0
 40
1.0
 40
1.0
 10
127.5893162350049
 20
61.08049949898882
 30
0.0
 10
127.6995967468654
 20
61.0296253768569
 30
0.0
 10
127.9837448881686
 20
60.89854340235085
 30
0.0
 10
128.488471613088
 20
60.81202176161241
 30
0.0
 10
128.9677236894339
 20
60.91549825500532
 30
0.0
 10
129.2293067499486
 20
61.03754640856905
 30
0.0
 10
129.3213671418716
 20
61.08049949898882
 30
0.0
  0
SPLINE
  5
171
330
1F
100
AcDbEntity
  8
0
  6
HIDDEN
 62
     7
100
AcDbSpline
210
0.0
220
0.0
230
1.0
 70
     8
 71
     3
 72
    11
 73
     7
 74
     0
 42
0.000000001
 43
0.00000001
 40
0.0
 40
0.0
 40
0.0
 40
0.0
 40
0.2164500363859174
 40
0.4402998999356484
 40
0.7518915283078778
 40
1.0
 40
1.0
 40
1.0
 40
1.0
 10
126.7232910144021
 20
61.08049949898882
 30
0.0
 10
126.7826130936987
 20
61.0261716352658
 30
0.0
 10
126.9032853098571
 20
60.91565858865067
 30
0.0
 10
127.1272235353502
 20
60.82354134742565
 30
0.0
 10
127.3674426356868
 20
60.87907325420255
 30
0.0
 10
127.5211704866676
 20
61.01863390421809
 30
0.0
 10
127.5893162350049
 20
61.08049949898882
 30
0.0
  0
LINE
  5
172
330
1F
100
AcDbEntity
  8
0
  6
HIDDEN
 62
     7
100
AcDbLine
 10
129.3213671419
 20
61.080499499
 30
0.0
 11
129.3213671419
 21
62.8484487002
 31
0.0
  0
LINE
  5
173
330
1F
100
AcDbEntity
  8
0
  6
HIDDEN
 62
     7
100
AcDbLine
 10
127.589316235
 20
61.080499499
 30
0.0
 11
127.589316235
 21
62.8484487002
 31
0.0
  0
LINE
  5
174
330
1F
100
AcDbEntity
  8
0
  6
HIDDEN
 62
     7
100
AcDbLine
 10
130.1873928281
 20
61.080499499
 30
0.0
 11
130.1873928281
 21
62.8484487002
 31
0.0
  0
LINE
  5
175
330
1F
100
AcDbEntity
  8
0
  6
HIDDEN
 62
     7
100
AcDbLine
 10
126.7232910144
 20
61.080499499
 30
0.0
 11
126.7232910144
 21
62.8484487002
 31
0.0
  0
LINE
  5
176
330
1F
100
AcDbEntity
  8
0
  6
HIDDEN
 62
     7
100
AcDbLine
 10
221.955342346
 20
43.8484483798
 30
0.0
 11
221.955342346
 21
57.8484488119
 31
0.0
  0
LINE
  5
177
330
1F
100
AcDbEntity
  8
0
  6
HIDDEN
 62
     7
100
AcDbLine
 10
162.455340975
 20
43.8484483798
 30
0.0
 11
162.455340975
 21
57.8484488119
 31
0.0
  0
LINE
  5
178
330
1F
100
AcDbEntity
  8
0
  6
HIDDEN
 62
     7
100
AcDbLine
 10
122.9553418929
 20
44.8484485437
 30
0.0
 11
122.9553418929
 21
56.848448648
 31
0.0
  0
LWPOLYLINE
  5
179
330
1F
100
AcDbEntity
  8
0
  6
HIDDEN
 62
     7
100
AcDbPolyline
 90
       21
 70
   128
 43
0.0
 10
146.1682749326
 20
56.7633616206
 10
146.122101822
 20
56.78090215
 10
146.0003090436
 20
56.8298519988
 10
145.9563450302
 20
56.8480304842
 10
145.979326346
 20
56.838495138
 10
146.2030151273
 20
56.7495477785
 10
146.6517822231
 20
56.5932569493
 10
146.9635219659
 20
56.503139383
 10
147.3283266063
 20
56.4180234846
 10
147.7224623198
 20
56.3518213507
 10
148.1554900641
 20
56.3110405979
 10
148.5521328981
 20
56.3036635917
 10
148.9583068873
 20
56.3259454843
 10
149.6698783125
 20
56.4363910285
 10
150.2949782993
 20
56.6046856743
 10
150.5536699082
 20
56.6925042708
 10
150.7584863688
 20
56.7691306983
 10
150.8886927153
 20
56.8209858079
 10
150.9513260211
 20
56.846776924
 10
150.955341884
 20
56.848448648
 10
150.955341884
 20
56.848448648
  0
ARC
  5
17A
330
1F
100
AcDbEntity
  8
0
  6
HIDDEN
 62
     7
100
AcDbCircle
 10
138.4554765893
 20
62.5318650344
 30
0.0
 40
6.208908875978327
100
AcDbArc
 50
246.3043604593
 51
293.7424189108
  0
ARC
  5
17B
330
1F
100
AcDbEntity
  8
0
  6
HIDDEN
 62
     7
100
AcDbCircle
 10
128.455476463
 20
62.531867269
 30
0.0
 40
6.208911062371293
100
AcDbArc
 50
246.3043658005
 51
293.7424135631
  0
LINE
  5
17C
330
1F
100
AcDbEntity
  8
0
  6
HIDDEN
 62
     7
100
AcDbLine
 10
125.9553419771
 20
59.8234487165
 30
0.0
 11
130.9553423311
 21
59.8234487165
 31
0.0
  0
LINE
  5
17D
330
1F
100
AcDbEntity
  8
0
  6
HIDDEN
 62
     7
100
AcDbLine
 10
145.9553410645
 20
59.8234487165
 30
0.0
 11
150.955341884
 21
59.8234487165
 31
0.0
  0
LINE
  5
17E
330
1F
100
AcDbEntity
  8
0
  6
HIDDEN
 62
     7
100
AcDbLine
 10
135.9553422193
 20
59.8234487165
 30
0.0
 11
140.9553421075
 21
59.8234487165
 31
0.0
  0
LINE
  5
17F
330
1F
100
AcDbEntity
  8
0
  6
HIDDEN
 62
     7
100
AcDbLine
 10
145.4553419138
 20
57.5484483902
 30
0.0
 11
146.1553425874
 21
56.848448648
 31
0.0
  0
LINE
  5
180
330
1F
100
AcDbEntity
  8
0
  6
HIDDEN
 62
     7
100
AcDbLine
 10
150.7553422238
 20
56.848448648
 30
0.0
 11
151.4553410346
 21
57.5484483902
 31
0.0
  0
LINE
  5
181
330
1F
100
AcDbEntity
  8
0
  6
HIDDEN
 62
     7
100
AcDbLine
 10
145.4553419138
 20
60.3484482904
 30
0.0
 11
145.4553419138
 21
57.5484483902
 31
0.0
  0
LINE
  5
182
330
1F
100
AcDbEntity
  8
0
  6
HIDDEN
 62
     7
100
AcDbLine
 10
151.4553410346
 20
57.5484483902
 30
0.0
 11
151.4553410346
 21
60.3484482904
 31
0.0
  0
LINE
  5
183
330
1F
100
AcDbEntity
  8
0
  6
HIDDEN
 62
     7
100
AcDbLine
 10
146.723291033
 20
61.080499499
 30
0.0
 11
147.4553422416
 21
60.3484482904
 31
0.0
  0
LINE
  5
184
330
1F
100
AcDbEntity
  8
0
  6
HIDDEN
 62
     7
100
AcDbLine
 10
149.4553425695
 20
60.3484482904
 30
0.0
 11
150.1873919154
 21
61.080499499
 31
0.0
  0
LINE
  5
185
330
1F
100
AcDbEntity
  8
0
  6
HIDDEN
 62
     7
100
AcDbLine
 10
135.4553421373
 20
57.5484483902
 30
0.0
 11
136.1553418795
 21
56.848448648
 31
0.0
  0
LINE
  5
186
330
1F
100
AcDbEntity
  8
0
  6
HIDDEN
 62
     7
100
AcDbLine
 10
140.7553424473
 20
56.848448648
 30
0.0
 11
141.4553412582
 21
57.5484483902
 31
0.0
  0
LINE
  5
187
330
1F
100
AcDbEntity
  8
0
  6
HIDDEN
 62
     7
100
AcDbLine
 10
135.4553421373
 20
60.3484482904
 30
0.0
 11
135.4553421373
 21
57.5484483902
 31
0.0
  0
LINE
  5
188
330
1F
100
AcDbEntity
  8
0
  6
HIDDEN
 62
     7
100
AcDbLine
 10
141.4553412582
 20
57.5484483902
 30
0.0
 11
141.4553412582
 21
60.3484482904
 31
0.0
  0
LINE
  5
189
330
1F
100
AcDbEntity
  8
0
  6
HIDDEN
 62
     7
100
AcDbLine
 10
136.7232912565
 20
61.080499499
 30
0.0
 11
137.4553415338
 21
60.3484482904
 31
0.0
  0
LINE
  5
18A
330
1F
100
AcDbEntity
  8
0
  6
HIDDEN
 62
     7
100
AcDbLine
 10
139.455342793
 20
60.3484482904
 30
0.0
 11
140.187392139
 21
61.080499499
 31
0.0
  0
LINE
  5
18B
330
1F
100
AcDbEntity
  8
0
  6
HIDDEN
 62
     7
100
AcDbLine
 10
125.4553418952
 20
57.5484483902
 30
0.0
 11
126.1553418702
 21
56.848448648
 31
0.0
  0
LINE
  5
18C
330
1F
100
AcDbEntity
  8
0
  6
HIDDEN
 62
     7
100
AcDbLine
 10
130.7553417395
 20
56.848448648
 30
0.0
 11
131.4553414817
 21
57.5484483902
 31
0.0
  0
LINE
  5
18D
330
1F
100
AcDbEntity
  8
0
  6
HIDDEN
 62
     7
100
AcDbLine
 10
125.4553418952
 20
60.3484482904
 30
0.0
 11
125.4553418952
 21
57.5484483902
 31
0.0
  0
LINE
  5
18E
330
1F
100
AcDbEntity
  8
0
  6
HIDDEN
 62
     7
100
AcDbLine
 10
131.4553414817
 20
57.5484483902
 30
0.0
 11
131.4553414817
 21
60.3484482904
 31
0.0
  0
LINE
  5
18F
330
1F
100
AcDbEntity
  8
0
  6
HIDDEN
 62
     7
100
AcDbLine
 10
126.7232910144
 20
61.080499499
 30
0.0
 11
127.4553417574
 21
60.3484482904
 31
0.0
  0
LINE
  5
190
330
1F
100
AcDbEntity
  8
0
  6
HIDDEN
 62
     7
100
AcDbLine
 10
129.4553420852
 20
60.3484482904
 30
0.0
 11
130.1873928281
 21
61.080499499
 31
0.0
  0
LINE
  5
191
330
1F
100
AcDbEntity
  8
0
  6
HIDDEN
 62
     7
100
AcDbLine
 10
222.4553433592
 20
58.3484484282
 30
0.0
 11
221.955342346
 21
57.8484488119
 31
0.0
  0
LINE
  5
192
330
1F
100
AcDbEntity
  8
0
  6
HIDDEN
 62
     7
100
AcDbLine
 10
221.955342346
 20
43.8484483798
 30
0.0
 11
222.4553433592
 21
43.3484487635
 31
0.0
  0
LINE
  5
193
330
1F
100
AcDbEntity
  8
0
  6
HIDDEN
 62
     7
100
AcDbLine
 10
162.455340975
 20
43.8484483798
 30
0.0
 11
221.955342346
 21
43.8484483798
 31
0.0
  0
LINE
  5
194
330
1F
100
AcDbEntity
  8
0
  6
HIDDEN
 62
     7
100
AcDbLine
 10
221.955342346
 20
57.8484488119
 30
0.0
 11
162.455340975
 21
57.8484488119
 31
0.0
  0
LINE
  5
195
330
1F
100
AcDbEntity
  8
0
  6
HIDDEN
 62
     7
100
AcDbLine
 10
122.4553418691
 20
44.3484484617
 30
0.0
 11
122.9553418929
 21
44.8484485437
 31
0.0
  0
LINE
  5
196
330
1F
100
AcDbEntity
  8
0
  6
HIDDEN
 62
     7
100
AcDbLine
 10
122.9553418929
 20
56.848448648
 30
0.0
 11
122.4553418691
 21
57.34844873
 31
0.0
  0
LINE
  5
197
330
1F
100
AcDbEntity
  8
0
  6
HIDDEN
 62
     7
100
AcDbLine
 10
122.9553418929
 20
44.8484485437
 30
0.0
 11
162.455340975
 21
44.8484485437
 31
0.0
  0
LINE
  5
198
330
1F
100
AcDbEntity
  8
0
  6
HIDDEN
 62
     7
100
AcDbLine
 10
125.9602516769
 20
56.848448648
 30
0.0
 11
122.9553418929
 21
56.848448648
 31
0.0
  0
LINE
  5
199
330
1F
100
AcDbEntity
  8
0
  6
HIDDEN
 62
     7
100
AcDbLine
 10
135.9602521519
 20
56.848448648
 30
0.0
 11
130.9553423311
 21
56.848448648
 31
0.0
  0
LINE
  5
19A
330
1F
100
AcDbEntity
  8
0
  6
HIDDEN
 62
     7
100
AcDbLine
 10
145.9602509971
 20
56.848448648
 30
0.0
 11
140.9553421075
 21
56.848448648
 31
0.0
  0
LINE
  5
19B
330
1F
100
AcDbEntity
  8
0
  6
HIDDEN
 62
     7
100
AcDbLine
 10
162.455340975
 20
56.848448648
 30
0.0
 11
150.955341884
 21
56.848448648
 31
0.0
  0
LINE
  5
19C
330
1F
100
AcDbEntity
  8
0
  6
HIDDEN
 62
     7
100
AcDbLine
 10
125.4303419377
 20
60.3484482904
 30
0.0
 11
125.9553419771
 21
59.8234487165
 31
0.0
  0
LINE
  5
19D
330
1F
100
AcDbEntity
  8
0
  6
HIDDEN
 62
     7
100
AcDbLine
 10
130.9553423311
 20
59.8234487165
 30
0.0
 11
131.4803419049
 21
60.3484482904
 31
0.0
  0
LINE
  5
19E
330
1F
100
AcDbEntity
  8
0
  6
HIDDEN
 62
     7
100
AcDbLine
 10
145.4303414906
 20
60.3484482904
 30
0.0
 11
145.9553410645
 21
59.8234487165
 31
0.0
  0
LINE
  5
19F
330
1F
100
AcDbEntity
  8
0
  6
HIDDEN
 62
     7
100
AcDbLine
 10
150.955341884
 20
59.8234487165
 30
0.0
 11
151.4803414578
 21
60.3484482904
 31
0.0
  0
LINE
  5
1A0
330
1F
100
AcDbEntity
  8
0
  6
HIDDEN
 62
     7
100
AcDbLine
 10
135.4303417141
 20
60.3484482904
 30
0.0
 11
135.9553422193
 21
59.8234487165
 31
0.0
  0
LINE
  5
1A1
330
1F
100
AcDbEntity
  8
0
  6
HIDDEN
 62
     7
100
AcDbLine
 10
140.9553421075
 20
59.8234487165
 30
0.0
 11
141.4803416814
 21
60.3484482904
 31
0.0
  0
LINE
  5
1A2
330
1F
100
AcDbEntity
  8
0
  6
HIDDEN
 62
     7
100
AcDbLine
 10
125.9553419771
 20
59.8234487165
 30
0.0
 11
125.9553419771
 21
56.8464146395
 31
0.0
  0
LINE
  5
1A3
330
1F
100
AcDbEntity
  8
0
  6
HIDDEN
 62
     7
100
AcDbLine
 10
130.9553423311
 20
56.848448648
 30
0.0
 11
130.9553423311
 21
59.8234487165
 31
0.0
  0
LINE
  5
1A4
330
1F
100
AcDbEntity
  8
0
  6
HIDDEN
 62
     7
100
AcDbLine
 10
145.9553410645
 20
59.8234487165
 30
0.0
 11
145.9553410645
 21
56.8464146395
 31
0.0
  0
LINE
  5
1A5
330
1F
100
AcDbEntity
  8
0
  6
HIDDEN
 62
     7
100
AcDbLine
 10
150.955341884
 20
56.848448648
 30
0.0
 11
150.955341884
 21
59.8234487165
 31
0.0
  0
LINE
  5
1A6
330
1F
100
AcDbEntity
  8
0
  6
HIDDEN
 62
     7
100
AcDbLine
 10
135.9553422193
 20
59.8234487165
 30
0.0
 11
135.9553422193
 21
56.8464146395
 31
0.0
  0
LINE
  5
1A7
330
1F
100
AcDbEntity
  8
0
  6
HIDDEN
 62
     7
100
AcDbLine
 10
140.9553421075
 20
56.848448648
 30
0.0
 11
140.9553421075
 21
59.8234487165
 31
0.0
  0
DIMENSION
  5
1A8
330
1F
100
AcDbEntity
  8
0
  6
CONTINUOUS
 62
     7
100
AcDbDimension
  2
_D_6
 10
162.4553418691
 20
74.1790589039
 30
0.0
 11
141.753901077
 21
74.1790589039
 31
0.0
 70
   160
  1
<>
  3
SLDDIMSTYLE1
100
AcDbAlignedDimension
 13
122.4553418691
 23
58.8484485958
 33
0.0
 14
162.4553418691
 24
57.8484485958
 34
0.0
100
AcDbRotatedDimension
  0
DIMENSION
  5
1B2
330
1F
100
AcDbEntity
  8
0
  6
CONTINUOUS
 62
     7
100
AcDbDimension
  2
_D_7
 10
106.4553418691
 20
56.8484485958
 30
0.0
 11
106.4553418691
 21
34.4798229072
 31
0.0
 70
   160
  1
%%c<>
  3
SLDDIMSTYLE1
100
AcDbAlignedDimension
 13
122.9553418691
 23
44.8484485958
 33
0.0
 14
122.9553418691
 24
56.8484485958
 34
0.0
 50
90.0
100
AcDbRotatedDimension
  0
DIMENSION
  5
1BE
330
1F
100
AcDbEntity
  8
0
  6
CONTINUOUS
 62
     7
100
AcDbDimension
  2
_D_8
 10
239.8978826893
 20
57.8484485958
 30
0.0
 11
239.8978826893
 21
49.9084001068
 31
0.0
 70
   160
  1
%%c<>
  3
SLDDIMSTYLE0
100
AcDbAlignedDimension
 13
221.9553418691
 23
43.8484485958
 33
0.0
 14
221.9553418691
 24
57.8484485958
 34
0.0
 50
90.0
100
AcDbRotatedDimension
  0
DIMENSION
  5
1CB
330
1F
100
AcDbEntity
  8
0
  6
CONTINUOUS
 62
     7
100
AcDbDimension
  2
_D_9
 10
222.4553418691
 20
74.1820175623
 30
0.0
 11
192.6986949206
 21
74.1820175623
 31
0.0
 70
   160
  1
<>
  3
SLDDIMSTYLE1
100
AcDbAlignedDimension
 13
162.4553418691
 23
57.8484485958
 33
0.0
 14
222.4553418691
 24
59.8484485958
 34
0.0
100
AcDbRotatedDimension
  0
INSERT
  5
1DB
330
1F
100
AcDbEntity
  8
0
  6
CONTINUOUS
 62
     7
100
AcDbBlockReference
  2
SW_NOTE_0
 10
113.0593542925
 20
73.1620496743
 30
0.0
  0
LEADER
  5
1DD
330
1F
100
AcDbEntity
  8
0
  6
CONTINUOUS
 62
     7
100
AcDbLeader
  3
SLDDIMSTYLE2
 76
     2
 10
128.4553418691
 20
60.7078896488
 30
0.0
 10
113.0593542925
 20
73.1620496743
 30
0.0
1001
ACAD
1000
DSTYLE
1002
{
1070
     6
1000
OPEN30
1002
}
  0
LINE
  5
1DE
330
1F
100
AcDbEntity
  8
0
  6
CENTERX2
 62
     7
100
AcDbLine
 10
120.4553418691
 20
50.8484485958
 30
0.0
 11
224.4553418691
 21
50.8484485958
 31
0.0
  0
LINE
  5
1DF
330
1F
100
AcDbEntity
  8
0
  6
CENTERX2
 62
     7
100
AcDbLine
 10
128.4553418691
 20
54.8484485958
 30
0.0
 11
128.4553418691
 21
61.8234485958
 31
0.0
  0
LINE
  5
1E0
330
1F
100
AcDbEntity
  8
0
  6
CENTERX2
 62
     7
100
AcDbLine
 10
138.4553418691
 20
54.8484485958
 30
0.0
 11
138.4553418691
 21
61.8234485958
 31
0.0
  0
LINE
  5
1E1
330
1F
100
AcDbEntity
  8
0
  6
CENTERX2
 62
     7
100
AcDbLine
 10
148.4553418691
 20
54.8484485958
 30
0.0
 11
148.4553418691
 21
61.8234485958
 31
0.0
  0
ENDSEC
  0
SECTION
  2
OBJECTS
  0
DICTIONARY
  5
C
330
0
100
AcDbDictionary
  3
ACAD_GROUP
350
D
  3
ACAD_MLINESTYLE
350
17
  3
ACAD_SCALELIST
350
47
  0
DICTIONARY
  5
D
102
{ACAD_REACTORS
330
C
102
}
330
C
100
AcDbDictionary
  0
DICTIONARY
  5
17
102
{ACAD_REACTORS
330
C
102
}
330
C
100
AcDbDictionary
  3
STANDARD
350
18
  0
DICTIONARY
  5
47
102
{ACAD_REACTORS
330
C
102
}
330
C
100
AcDbDictionary
  0
MLINESTYLE
  5
18
102
{ACAD_REACTORS
330
17
102
}
330
17
100
AcDbMlineStyle
  2
Standard
 70
     0
  3

 62
   256
 51
90.0
 52
90.0
 71
     2
 49
0.5
 62
   256
  6
BYLAYER
 49
-0.5
 62
   256
  6
BYLAYER
  0
ENDSEC
  0
EOF
