  0
SECTION
  2
HEADER
  9
$ACADVER
  1
AC1015
  9
$ACADMAINTVER
 70
     6
  9
$DWGCODEPAGE
  3
ANSI_932
  9
$INSBASE
 10
0.0
 20
0.0
 30
0.0
  9
$EXTMIN
 10
47.738983
 20
59.202911
 30
0.0
  9
$EXTMAX
 10
454.376312
 20
396.20639
 30
0.0
  9
$LIMMIN
 10
0.0
 20
0.0
  9
$LIMMAX
 10
12.0
 20
9.0
  9
$ORTHOMODE
 70
     0
  9
$REGENMODE
 70
     1
  9
$FILLMODE
 70
     1
  9
$QTEXTMODE
 70
     0
  9
$MIRRTEXT
 70
     1
  9
$LTSCALE
 40
5.281338
  9
$ATTMODE
 70
     1
  9
$TEXTSIZE
 40
3.2
  9
$TRACEWID
 40
1.0
  9
$TEXTSTYLE
  7
Standard
  9
$CLAYER
  8
0
  9
$CELTYPE
  6
ByLayer
  9
$CECOLOR
 62
   256
  9
$CELTSCALE
 40
1.0
  9
$DISPSILH
 70
     0
  9
$DIMSCALE
 40
1.0
  9
$DIMASZ
 40
2.5
  9
$DIMEXO
 40
0.625
  9
$DIMDLI
 40
3.75
  9
$DIMRND
 40
0.0
  9
$DIMDLE
 40
0.0
  9
$DIMEXE
 40
1.25
  9
$DIMTP
 40
0.0
  9
$DIMTM
 40
0.0
  9
$DIMTXT
 40
2.5
  9
$DIMCEN
 40
0.09
  9
$DIMTSZ
 40
0.0
  9
$DIMTOL
 70
     0
  9
$DIMLIM
 70
     0
  9
$DIMTIH
 70
     0
  9
$DIMTOH
 70
     0
  9
$DIMSE1
 70
     0
  9
$DIMSE2
 70
     0
  9
$DIMTAD
 70
     0
  9
$DIMZIN
 70
     8
  9
$DIMBLK
  1

  9
$DIMASO
 70
     1
  9
$DIMSHO
 70
     0
  9
$DIMPOST
  1

  9
$DIMAPOST
  1

  9
$DIMALT
 70
     0
  9
$DIMALTD
 70
     3
  9
$DIMALTF
 40
0.03937
  9
$DIMLFAC
 40
1.0
  9
$DIMTOFL
 70
     1
  9
$DIMTVP
 40
0.0
  9
$DIMTIX
 70
     0
  9
$DIMSOXD
 70
     0
  9
$DIMSAH
 70
     0
  9
$DIMBLK1
  1

  9
$DIMBLK2
  1

  9
$DIMSTYLE
  2
ISO-25
  9
$DIMCLRD
 70
     0
  9
$DIMCLRE
 70
     0
  9
$DIMCLRT
 70
     0
  9
$DIMTFAC
 40
1.0
  9
$DIMGAP
 40
0.625
  9
$DIMJUST
 70
     0
  9
$DIMSD1
 70
     0
  9
$DIMSD2
 70
     0
  9
$DIMTOLJ
 70
     0
  9
$DIMTZIN
 70
     8
  9
$DIMALTZ
 70
     0
  9
$DIMALTTZ
 70
     0
  9
$DIMUPT
 70
     0
  9
$DIMDEC
 70
     2
  9
$DIMTDEC
 70
     2
  9
$DIMALTU
 70
     2
  9
$DIMALTTD
 70
     3
  9
$DIMTXSTY
  7
Standard
  9
$DIMAUNIT
 70
     0
  9
$DIMADEC
 70
     0
  9
$DIMALTRND
 40
0.0
  9
$DIMAZIN
 70
     0
  9
$DIMDSEP
 70
    44
  9
$DIMATFIT
 70
     3
  9
$DIMFRAC
 70
     0
  9
$DIMLDRBLK
  1

  9
$DIMLUNIT
 70
     2
  9
$DIMLWD
 70
    -2
  9
$DIMLWE
 70
    -2
  9
$DIMTMOVE
 70
     0
  9
$LUNITS
 70
     2
  9
$LUPREC
 70
     4
  9
$SKETCHINC
 40
1.0
  9
$FILLETRAD
 40
0.0
  9
$AUNITS
 70
     0
  9
$AUPREC
 70
     0
  9
$MENU
  1
.
  9
$ELEVATION
 40
0.0
  9
$PELEVATION
 40
0.0
  9
$THICKNESS
 40
0.0
  9
$LIMCHECK
 70
     0
  9
$CHAMFERA
 40
10.0
  9
$CHAMFERB
 40
10.0
  9
$CHAMFERC
 40
20.0
  9
$CHAMFERD
 40
0.0
  9
$SKPOLY
 70
     0
  9
$TDCREATE
 40
2454847.678897026
  9
$TDUCREATE
 40
2454847.303897026
  9
$TDUPDATE
 40
2454847.678897037
  9
$TDUUPDATE
 40
2454847.303897037
  9
$TDINDWG
 40
0.0000000116
  9
$TDUSRTIMER
 40
0.0000000116
  9
$USRTIMER
 70
     1
  9
$ANGBASE
 50
0.0
  9
$ANGDIR
 70
     0
  9
$PDMODE
 70
     0
  9
$PDSIZE
 40
0.0
  9
$PLINEWID
 40
0.0
  9
$SPLFRAME
 70
     0
  9
$SPLINETYPE
 70
     6
  9
$SPLINESEGS
 70
     8
  9
$HANDSEED
  5
8BF
  9
$SURFTAB1
 70
     6
  9
$SURFTAB2
 70
     6
  9
$SURFTYPE
 70
     6
  9
$SURFU
 70
     6
  9
$SURFV
 70
     6
  9
$UCSBASE
  2

  9
$UCSNAME
  2

  9
$UCSORG
 10
0.0
 20
0.0
 30
0.0
  9
$UCSXDIR
 10
1.0
 20
0.0
 30
0.0
  9
$UCSYDIR
 10
0.0
 20
1.0
 30
0.0
  9
$UCSORTHOREF
  2

  9
$UCSORTHOVIEW
 70
     0
  9
$UCSORGTOP
 10
0.0
 20
0.0
 30
0.0
  9
$UCSORGBOTTOM
 10
0.0
 20
0.0
 30
0.0
  9
$UCSORGLEFT
 10
0.0
 20
0.0
 30
0.0
  9
$UCSORGRIGHT
 10
0.0
 20
0.0
 30
0.0
  9
$UCSORGFRONT
 10
0.0
 20
0.0
 30
0.0
  9
$UCSORGBACK
 10
0.0
 20
0.0
 30
0.0
  9
$PUCSBASE
  2

  9
$PUCSNAME
  2

  9
$PUCSORG
 10
0.0
 20
0.0
 30
0.0
  9
$PUCSXDIR
 10
1.0
 20
0.0
 30
0.0
  9
$PUCSYDIR
 10
0.0
 20
1.0
 30
0.0
  9
$PUCSORTHOREF
  2

  9
$PUCSORTHOVIEW
 70
     0
  9
$PUCSORGTOP
 10
0.0
 20
0.0
 30
0.0
  9
$PUCSORGBOTTOM
 10
0.0
 20
0.0
 30
0.0
  9
$PUCSORGLEFT
 10
0.0
 20
0.0
 30
0.0
  9
$PUCSORGRIGHT
 10
0.0
 20
0.0
 30
0.0
  9
$PUCSORGFRONT
 10
0.0
 20
0.0
 30
0.0
  9
$PUCSORGBACK
 10
0.0
 20
0.0
 30
0.0
  9
$USERI1
 70
     0
  9
$USERI2
 70
     0
  9
$USERI3
 70
     0
  9
$USERI4
 70
     0
  9
$USERI5
 70
     0
  9
$USERR1
 40
0.0
  9
$USERR2
 40
0.0
  9
$USERR3
 40
0.0
  9
$USERR4
 40
0.0
  9
$USERR5
 40
0.0
  9
$WORLDVIEW
 70
     1
  9
$SHADEDGE
 70
     3
  9
$SHADEDIF
 70
    70
  9
$TILEMODE
 70
     1
  9
$MAXACTVP
 70
    64
  9
$PINSBASE
 10
0.0
 20
0.0
 30
0.0
  9
$PLIMCHECK
 70
     0
  9
$PEXTMIN
 10
1.000000E+20
 20
1.000000E+20
 30
0.0
  9
$PEXTMAX
 10
-1.000000E+20
 20
-1.000000E+20
 30
0.0
  9
$PLIMMIN
 10
0.0
 20
0.0
  9
$PLIMMAX
 10
12.0
 20
9.0
  9
$UNITMODE
 70
     0
  9
$VISRETAIN
 70
     1
  9
$PLINEGEN
 70
     0
  9
$PSLTSCALE
 70
     1
  9
$TREEDEPTH
 70
  3020
  9
$CMLSTYLE
  2
Standard
  9
$CMLJUST
 70
     0
  9
$CMLSCALE
 40
20.0
  9
$PROXYGRAPHICS
 70
     1
  9
$MEASUREMENT
 70
     1
  9
$CELWEIGHT
370
    -1
  9
$ENDCAPS
280
     0
  9
$JOINSTYLE
280
     0
  9
$LWDISPLAY
290
     0
  9
$INSUNITS
 70
     4
  9
$HYPERLINKBASE
  1

  9
$STYLESHEET
  1

  9
$XEDIT
290
     1
  9
$CEPSNTYPE
380
     0
  9
$PSTYLEMODE
290
     1
  9
$FINGERPRINTGUID
  2
{6EF0FC28-C43E-4508-98A1-20C197FEEACD}
  9
$VERSIONGUID
  2
{FAEB1C32-E019-11D5-929B-00C0DF256EC4}
  9
$EXTNAMES
290
     1
  9
$PSVPSCALE
 40
0.0
  9
$OLESTARTUP
290
     0
  0
ENDSEC
  0
SECTION
  2
CLASSES
  0
CLASS
  1
ACDBDICTIONARYWDFLT
  2
AcDbDictionaryWithDefault
  3
ObjectDBX Classes
 90
        0
280
     0
281
     0
  0
CLASS
  1
VISUALSTYLE
  2
AcDbVisualStyle
  3
ObjectDBX Classes
 90
     4095
280
     0
281
     0
  0
CLASS
  1
SCALE
  2
AcDbScale
  3
ObjectDBX Classes
 90
     1153
280
     0
281
     0
  0
CLASS
  1
DICTIONARYVAR
  2
AcDbDictionaryVar
  3
ObjectDBX Classes
 90
        0
280
     0
281
     0
  0
CLASS
  1
ACDBPLACEHOLDER
  2
AcDbPlaceHolder
  3
ObjectDBX Classes
 90
        0
280
     0
281
     0
  0
CLASS
  1
LAYOUT
  2
AcDbLayout
  3
ObjectDBX Classes
 90
        0
280
     0
281
     0
  0
ENDSEC
  0
SECTION
  2
TABLES
  0
TABLE
  2
VPORT
  5
8
330
0
100
AcDbSymbolTable
 70
     1
  0
VPORT
  5
29
330
8
100
AcDbSymbolTableRecord
100
AcDbViewportTableRecord
  2
*Active
 70
     0
 10
0.0
 20
0.0
 11
1.0
 21
1.0
 12
251.057648
 22
227.704651
 13
0.0
 23
0.0
 14
1.0
 24
1.0
 15
0.0
 25
0.0
 16
0.0
 26
0.0
 36
1.0
 17
0.0
 27
0.0
 37
0.0
 40
340.373514
 41
1.691288
 42
50.0
 43
0.0
 44
0.0
 50
0.0
 51
0.0
 71
     0
 72
   100
 73
     1
 74
     3
 75
     0
 76
     0
 77
     0
 78
     0
281
     0
 65
     1
110
0.0
120
0.0
130
0.0
111
1.0
121
0.0
131
0.0
112
0.0
122
1.0
132
0.0
 79
     0
146
0.0
  0
ENDTAB
  0
TABLE
  2
LTYPE
  5
5
330
0
100
AcDbSymbolTable
 70
     5
  0
LTYPE
  5
14
330
5
100
AcDbSymbolTableRecord
100
AcDbLinetypeTableRecord
  2
ByBlock
 70
     0
  3

 72
    65
 73
     0
 40
0.0
  0
LTYPE
  5
15
330
5
100
AcDbSymbolTableRecord
100
AcDbLinetypeTableRecord
  2
ByLayer
 70
     0
  3

 72
    65
 73
     0
 40
0.0
  0
LTYPE
  5
16
330
5
100
AcDbSymbolTableRecord
100
AcDbLinetypeTableRecord
  2
Continuous
 70
     0
  3
Solid line
 72
    65
 73
     0
 40
0.0
  0
LTYPE
  5
5D
330
5
100
AcDbSymbolTableRecord
100
AcDbLinetypeTableRecord
  2
DASHED
 70
     0
  3
DASHED
 72
    83
 73
     2
 40
0.75
 49
0.5
 74
     0
 49
-0.25
 74
     0
  0
LTYPE
  5
5E
330
5
100
AcDbSymbolTableRecord
100
AcDbLinetypeTableRecord
  2
HIDDEN
 70
     0
  3
HIDDEN
 72
    83
 73
     2
 40
0.375
 49
0.25
 74
     0
 49
-0.125
 74
     0
  0
LTYPE
  5
5F
330
5
100
AcDbSymbolTableRecord
100
AcDbLinetypeTableRecord
  2
CENTER
 70
     0
  3
CENTER
 72
    83
 73
     4
 40
2.0
 49
1.25
 74
     0
 49
-0.25
 74
     0
 49
0.25
 74
     0
 49
-0.25
 74
     0
  0
LTYPE
  5
60
330
5
100
AcDbSymbolTableRecord
100
AcDbLinetypeTableRecord
  2
PHANTOM
 70
     0
  3
PHANTOM
 72
    83
 73
     6
 40
2.5
 49
1.25
 74
     0
 49
-0.25
 74
     0
 49
0.25
 74
     0
 49
-0.25
 74
     0
 49
0.25
 74
     0
 49
-0.25
 74
     0
  0
ENDTAB
  0
TABLE
  2
LAYER
  5
2
330
0
100
AcDbSymbolTable
 70
     2
  0
LAYER
  5
10
330
2
100
AcDbSymbolTableRecord
100
AcDbLayerTableRecord
  2
0
 70
     0
 62
     7
  6
Continuous
370
    -3
390
F
  0
LAYER
  5
61
330
2
100
AcDbSymbolTableRecord
100
AcDbLayerTableRecord
  2
001
 70
     0
 62
     7
  6
Continuous
370
    -3
390
F
  0
ENDTAB
  0
TABLE
  2
STYLE
  5
3
330
0
100
AcDbSymbolTable
 70
     2
  0
STYLE
  5
11
330
3
100
AcDbSymbolTableRecord
100
AcDbTextStyleTableRecord
  2
Standard
 70
     0
 40
0.0
 41
1.0
 50
0.0
 71
     0
 42
0.2
  3
TXT
  4
BIGFONT
  0
STYLE
  5
62
330
3
100
AcDbSymbolTableRecord
100
AcDbTextStyleTableRecord
  2
TATEGAKI
 70
     4
 40
1.0
 41
1.0
 50
0.0
 71
     0
 42
0.2
  3
TXT
  4
BIGFONT
  0
ENDTAB
  0
TABLE
  2
VIEW
  5
6
330
0
100
AcDbSymbolTable
 70
     0
  0
ENDTAB
  0
TABLE
  2
UCS
  5
7
330
0
100
AcDbSymbolTable
 70
     0
  0
ENDTAB
  0
TABLE
  2
APPID
  5
9
330
0
100
AcDbSymbolTable
 70
     1
  0
APPID
  5
12
330
9
100
AcDbSymbolTableRecord
100
AcDbRegAppTableRecord
  2
ACAD
 70
     0
  0
ENDTAB
  0
TABLE
  2
DIMSTYLE
  5
A
330
0
100
AcDbSymbolTable
 70
     2
100
AcDbDimStyleTable
  0
DIMSTYLE
105
27
330
A
100
AcDbSymbolTableRecord
100
AcDbDimStyleTableRecord
  2
ISO-25
 70
     0
 41
2.5
 42
0.625
 43
3.75
 44
1.25
 73
     0
 74
     0
 77
     1
 78
     8
140
2.5
141
2.5
143
0.03937
147
0.625
171
     3
172
     1
271
     2
272
     2
274
     3
278
    44
283
     0
284
     8
340
11
  0
DIMSTYLE
105
63
102
{ACAD_REACTORS
330
136
330
148
330
155
330
161
330
162
330
180
330
18C
330
18D
330
18E
330
18F
102
}
330
A
100
AcDbSymbolTableRecord
100
AcDbDimStyleTableRecord
  2
Standard
 70
     0
 41
1.5
 42
0.0
 44
2.75
 73
     0
 74
     0
 77
     1
 78
     8
 79
     2
140
4.0
146
0.8
147
1.0
172
     1
179
     1
271
     1
340
11
  0
ENDTAB
  0
TABLE
  2
BLOCK_RECORD
  5
1
330
0
100
AcDbSymbolTable
 70
    11
  0
BLOCK_RECORD
  5
1F
330
1
100
AcDbSymbolTableRecord
100
AcDbBlockTableRecord
  2
*Model_Space
340
22
  0
BLOCK_RECORD
  5
1B
330
1
100
AcDbSymbolTableRecord
100
AcDbBlockTableRecord
  2
*Paper_Space
340
1E
  0
BLOCK_RECORD
  5
23
330
1
100
AcDbSymbolTableRecord
100
AcDbBlockTableRecord
  2
*Paper_Space0
340
26
  0
BLOCK_RECORD
  5
64
330
1
100
AcDbSymbolTableRecord
100
AcDbBlockTableRecord
  2
*D1
340
0
  0
BLOCK_RECORD
  5
78
330
1
100
AcDbSymbolTableRecord
100
AcDbBlockTableRecord
  2
*D2
340
0
  0
BLOCK_RECORD
  5
8C
330
1
100
AcDbSymbolTableRecord
100
AcDbBlockTableRecord
  2
*D3
340
0
  0
BLOCK_RECORD
  5
A3
330
1
100
AcDbSymbolTableRecord
100
AcDbBlockTableRecord
  2
*D4
340
0
  0
BLOCK_RECORD
  5
B7
330
1
100
AcDbSymbolTableRecord
100
AcDbBlockTableRecord
  2
*D5
340
0
  0
BLOCK_RECORD
  5
CD
330
1
100
AcDbSymbolTableRecord
100
AcDbBlockTableRecord
  2
*D6
340
0
  0
BLOCK_RECORD
  5
E4
330
1
100
AcDbSymbolTableRecord
100
AcDbBlockTableRecord
  2
*D7
340
0
  0
BLOCK_RECORD
  5
F8
330
1
100
AcDbSymbolTableRecord
100
AcDbBlockTableRecord
  2
*D8
340
0
  0
BLOCK_RECORD
  5
10E
330
1
100
AcDbSymbolTableRecord
100
AcDbBlockTableRecord
  2
*D9
340
0
  0
BLOCK_RECORD
  5
122
330
1
100
AcDbSymbolTableRecord
100
AcDbBlockTableRecord
  2
*D10
340
0
  0
ENDTAB
  0
ENDSEC
  0
SECTION
  2
BLOCKS
  0
BLOCK
  5
20
330
1F
100
AcDbEntity
  8
0
100
AcDbBlockBegin
  2
*Model_Space
 70
     0
 10
0.0
 20
0.0
 30
0.0
  3
*Model_Space
  1

  0
ENDBLK
  5
21
330
1F
100
AcDbEntity
  8
0
100
AcDbBlockEnd
  0
BLOCK
  5
1C
330
1B
100
AcDbEntity
 67
     1
  8
0
100
AcDbBlockBegin
  2
*Paper_Space
 70
     0
 10
0.0
 20
0.0
 30
0.0
  3
*Paper_Space
  1

  0
ENDBLK
  5
1D
330
1B
100
AcDbEntity
 67
     1
  8
0
100
AcDbBlockEnd
  0
BLOCK
  5
24
330
23
100
AcDbEntity
  8
0
100
AcDbBlockBegin
  2
*Paper_Space0
 70
     0
 10
0.0
 20
0.0
 30
0.0
  3
*Paper_Space0
  1

  0
ENDBLK
  5
25
330
23
100
AcDbEntity
  8
0
100
AcDbBlockEnd
  0
BLOCK
  5
65
330
64
100
AcDbEntity
  8
0
100
AcDbBlockBegin
  2
*D1
 70
     1
 10
0.0
 20
0.0
 30
0.0
  3
*D1
  1

  0
LINE
  5
67
330
64
100
AcDbEntity
  8
001
370
     9
100
AcDbLine
 10
204.711223
 20
114.484562
 30
0.0
 11
204.711223
 21
69.928241
 31
0.0
  0
LINE
  5
68
330
64
100
AcDbEntity
  8
001
370
     9
100
AcDbLine
 10
124.711223
 20
100.884562
 30
0.0
 11
124.711223
 21
69.928241
 31
0.0
  0
LINE
  5
69
330
64
100
AcDbEntity
  8
001
370
     9
100
AcDbLine
 10
204.711223
 20
72.678241
 30
0.0
 11
124.711223
 21
72.678241
 31
0.0
  0
POLYLINE
  5
6A
330
64
100
AcDbEntity
  8
001
370
     9
100
AcDb2dPolyline
 66
     1
 10
0.0
 20
0.0
 30
0.0
  0
VERTEX
  5
6C
330
6A
100
AcDbEntity
  8
001
370
     9
100
AcDbVertex
100
AcDb2dVertex
 10
203.211223
 20
73.080165
 30
0.0
  0
VERTEX
  5
6D
330
6A
100
AcDbEntity
  8
001
370
     9
100
AcDbVertex
100
AcDb2dVertex
 10
204.711223
 20
72.678241
 30
0.0
  0
VERTEX
  5
6E
330
6A
100
AcDbEntity
  8
001
370
     9
100
AcDbVertex
100
AcDb2dVertex
 10
203.211223
 20
72.276317
 30
0.0
  0
SEQEND
  5
6B
330
6A
100
AcDbEntity
  8
001
370
     9
  0
POLYLINE
  5
6F
330
64
100
AcDbEntity
  8
001
370
     9
100
AcDb2dPolyline
 66
     1
 10
0.0
 20
0.0
 30
0.0
  0
VERTEX
  5
71
330
6F
100
AcDbEntity
  8
001
370
     9
100
AcDbVertex
100
AcDb2dVertex
 10
126.211223
 20
72.276317
 30
0.0
  0
VERTEX
  5
72
330
6F
100
AcDbEntity
  8
001
370
     9
100
AcDbVertex
100
AcDb2dVertex
 10
124.711223
 20
72.678241
 30
0.0
  0
VERTEX
  5
73
330
6F
100
AcDbEntity
  8
001
370
     9
100
AcDbVertex
100
AcDb2dVertex
 10
126.211223
 20
73.080165
 30
0.0
  0
SEQEND
  5
70
330
6F
100
AcDbEntity
  8
001
370
     9
  0
TEXT
  5
74
330
64
100
AcDbEntity
  8
001
370
    30
100
AcDbText
 10
160.711223
 20
73.678241
 30
0.0
 40
4.0
  1
８０
 41
0.833333
100
AcDbText
  0
POINT
  5
75
330
64
100
AcDbEntity
  8
001
370
     9
100
AcDbPoint
 10
204.711223
 20
114.484562
 30
0.0
  0
POINT
  5
76
330
64
100
AcDbEntity
  8
001
370
     9
100
AcDbPoint
 10
124.711223
 20
100.884562
 30
0.0
  0
POINT
  5
77
330
64
100
AcDbEntity
  8
001
370
     9
100
AcDbPoint
 10
124.711223
 20
72.678241
 30
0.0
  0
ENDBLK
  5
66
330
64
100
AcDbEntity
  8
0
100
AcDbBlockEnd
  0
BLOCK
  5
79
330
78
100
AcDbEntity
  8
0
100
AcDbBlockBegin
  2
*D2
 70
     1
 10
0.0
 20
0.0
 30
0.0
  3
*D2
  1

  0
LINE
  5
7B
330
78
100
AcDbEntity
  8
001
370
     9
100
AcDbLine
 10
204.711223
 20
114.484562
 30
0.0
 11
204.711223
 21
59.202907
 31
0.0
  0
LINE
  5
7C
330
78
100
AcDbEntity
  8
001
370
     9
100
AcDbLine
 10
99.711223
 20
72.678241
 30
0.0
 11
99.711223
 21
59.202907
 31
0.0
  0
LINE
  5
7D
330
78
100
AcDbEntity
  8
001
370
     9
100
AcDbLine
 10
204.711223
 20
61.952907
 30
0.0
 11
99.711223
 21
61.952907
 31
0.0
  0
POLYLINE
  5
7E
330
78
100
AcDbEntity
  8
001
370
     9
100
AcDb2dPolyline
 66
     1
 10
0.0
 20
0.0
 30
0.0
  0
VERTEX
  5
80
330
7E
100
AcDbEntity
  8
001
370
     9
100
AcDbVertex
100
AcDb2dVertex
 10
203.211223
 20
62.354831
 30
0.0
  0
VERTEX
  5
81
330
7E
100
AcDbEntity
  8
001
370
     9
100
AcDbVertex
100
AcDb2dVertex
 10
204.711223
 20
61.952907
 30
0.0
  0
VERTEX
  5
82
330
7E
100
AcDbEntity
  8
001
370
     9
100
AcDbVertex
100
AcDb2dVertex
 10
203.211223
 20
61.550983
 30
0.0
  0
SEQEND
  5
7F
330
7E
100
AcDbEntity
  8
001
370
     9
  0
POLYLINE
  5
83
330
78
100
AcDbEntity
  8
001
370
     9
100
AcDb2dPolyline
 66
     1
 10
0.0
 20
0.0
 30
0.0
  0
VERTEX
  5
85
330
83
100
AcDbEntity
  8
001
370
     9
100
AcDbVertex
100
AcDb2dVertex
 10
101.211223
 20
61.550983
 30
0.0
  0
VERTEX
  5
86
330
83
100
AcDbEntity
  8
001
370
     9
100
AcDbVertex
100
AcDb2dVertex
 10
99.711223
 20
61.952907
 30
0.0
  0
VERTEX
  5
87
330
83
100
AcDbEntity
  8
001
370
     9
100
AcDbVertex
100
AcDb2dVertex
 10
101.211223
 20
62.354831
 30
0.0
  0
SEQEND
  5
84
330
83
100
AcDbEntity
  8
001
370
     9
  0
TEXT
  5
88
330
78
100
AcDbEntity
  8
001
370
    30
100
AcDbText
 10
146.211223
 20
62.952907
 30
0.0
 40
4.0
  1
１０５
 41
0.833333
100
AcDbText
  0
POINT
  5
89
330
78
100
AcDbEntity
  8
001
370
     9
100
AcDbPoint
 10
204.711223
 20
114.484562
 30
0.0
  0
POINT
  5
8A
330
78
100
AcDbEntity
  8
001
370
     9
100
AcDbPoint
 10
99.711223
 20
72.678241
 30
0.0
  0
POINT
  5
8B
330
78
100
AcDbEntity
  8
001
370
     9
100
AcDbPoint
 10
99.711223
 20
61.952907
 30
0.0
  0
ENDBLK
  5
7A
330
78
100
AcDbEntity
  8
0
100
AcDbBlockEnd
  0
BLOCK
  5
8D
330
8C
100
AcDbEntity
  8
0
100
AcDbBlockBegin
  2
*D3
 70
     1
 10
0.0
 20
0.0
 30
0.0
  3
*D3
  1

  0
LINE
  5
8F
330
8C
100
AcDbEntity
  8
001
370
     9
100
AcDbLine
 10
99.711223
 20
90.287447
 30
0.0
 11
99.711223
 21
82.081435
 31
0.0
  0
LINE
  5
90
330
8C
100
AcDbEntity
  8
001
370
     9
100
AcDbLine
 10
95.442239
 20
94.534562
 30
0.0
 11
87.258097
 21
94.534562
 31
0.0
  0
ARC
  5
91
330
8C
100
AcDbEntity
  8
001
370
     9
100
AcDbCircle
 10
99.711223
 20
94.534562
 30
0.0
 40
9.703126174710874
100
AcDbArc
 50
180.0
 51
270.0
  0
POLYLINE
  5
92
330
8C
100
AcDbEntity
  8
001
370
     9
100
AcDb2dPolyline
 66
     1
 10
0.0
 20
0.0
 30
0.0
  0
VERTEX
  5
94
330
92
100
AcDbEntity
  8
001
370
     9
100
AcDbVertex
100
AcDb2dVertex
 10
101.23778
 20
84.546538
 30
0.0
  0
VERTEX
  5
95
330
92
100
AcDbEntity
  8
001
370
     9
100
AcDbVertex
100
AcDb2dVertex
 10
99.711223
 20
84.831435
 30
0.0
  0
VERTEX
  5
96
330
92
100
AcDbEntity
  8
001
370
     9
100
AcDbVertex
100
AcDb2dVertex
 10
101.175709
 20
85.347986
 30
0.0
  0
SEQEND
  5
93
330
92
100
AcDbEntity
  8
001
370
     9
  0
POLYLINE
  5
97
330
8C
100
AcDbEntity
  8
001
370
     9
100
AcDb2dPolyline
 66
     1
 10
0.0
 20
0.0
 30
0.0
  0
VERTEX
  5
99
330
97
100
AcDbEntity
  8
001
370
     9
100
AcDbVertex
100
AcDb2dVertex
 10
90.524647
 20
95.999047
 30
0.0
  0
VERTEX
  5
9A
330
97
100
AcDbEntity
  8
001
370
     9
100
AcDbVertex
100
AcDb2dVertex
 10
90.008097
 20
94.534562
 30
0.0
  0
VERTEX
  5
9B
330
97
100
AcDbEntity
  8
001
370
     9
100
AcDbVertex
100
AcDb2dVertex
 10
89.7232
 20
96.061119
 30
0.0
  0
SEQEND
  5
98
330
97
100
AcDbEntity
  8
001
370
     9
  0
TEXT
  5
9C
330
8C
100
AcDbEntity
  8
001
370
    30
100
AcDbText
 10
89.314543
 20
92.623163
 30
0.0
 40
4.0
  1
９０%%d
 50
314.999992
 41
0.978261
100
AcDbText
  0
POINT
  5
9D
330
8C
100
AcDbEntity
  8
001
370
     9
100
AcDbPoint
 10
99.711223
 20
90.287447
 30
0.0
  0
POINT
  5
9E
330
8C
100
AcDbEntity
  8
001
370
     9
100
AcDbPoint
 10
99.711223
 20
94.534562
 30
0.0
  0
POINT
  5
9F
330
8C
100
AcDbEntity
  8
001
370
     9
100
AcDbPoint
 10
99.711223
 20
94.534562
 30
0.0
  0
POINT
  5
A0
330
8C
100
AcDbEntity
  8
001
370
     9
100
AcDbPoint
 10
95.442239
 20
94.534562
 30
0.0
  0
ARC
  5
A1
330
8C
100
AcDbEntity
  8
001
370
     9
100
AcDbCircle
 10
99.711223
 20
94.534562
 30
0.0
 40
9.703126174710874
100
AcDbArc
 50
165.237804
 51
180.0
  0
ARC
  5
A2
330
8C
100
AcDbEntity
  8
001
370
     9
100
AcDbCircle
 10
99.711223
 20
94.534562
 30
0.0
 40
9.703126174710874
100
AcDbArc
 50
270.0
 51
284.762196
  0
ENDBLK
  5
8E
330
8C
100
AcDbEntity
  8
0
100
AcDbBlockEnd
  0
BLOCK
  5
A4
330
A3
100
AcDbEntity
  8
0
100
AcDbBlockBegin
  2
*D4
 70
     1
 10
0.0
 20
0.0
 30
0.0
  3
*D4
  1

  0
LINE
  5
A6
330
A3
100
AcDbEntity
  8
001
370
     9
100
AcDbLine
 10
198.711223
 20
140.484562
 30
0.0
 11
232.364868
 21
140.484562
 31
0.0
  0
LINE
  5
A7
330
A3
100
AcDbEntity
  8
001
370
     9
100
AcDbLine
 10
198.711223
 20
108.484562
 30
0.0
 11
232.364868
 21
108.484562
 31
0.0
  0
LINE
  5
A8
330
A3
100
AcDbEntity
  8
001
370
     9
100
AcDbLine
 10
229.614868
 20
140.484562
 30
0.0
 11
229.614868
 21
108.484562
 31
0.0
  0
POLYLINE
  5
A9
330
A3
100
AcDbEntity
  8
001
370
     9
100
AcDb2dPolyline
 66
     1
 10
0.0
 20
0.0
 30
0.0
  0
VERTEX
  5
AB
330
A9
100
AcDbEntity
  8
001
370
     9
100
AcDbVertex
100
AcDb2dVertex
 10
229.212944
 20
138.984562
 30
0.0
  0
VERTEX
  5
AC
330
A9
100
AcDbEntity
  8
001
370
     9
100
AcDbVertex
100
AcDb2dVertex
 10
229.614868
 20
140.484562
 30
0.0
  0
VERTEX
  5
AD
330
A9
100
AcDbEntity
  8
001
370
     9
100
AcDbVertex
100
AcDb2dVertex
 10
230.016792
 20
138.984562
 30
0.0
  0
SEQEND
  5
AA
330
A9
100
AcDbEntity
  8
001
370
     9
  0
POLYLINE
  5
AE
330
A3
100
AcDbEntity
  8
001
370
     9
100
AcDb2dPolyline
 66
     1
 10
0.0
 20
0.0
 30
0.0
  0
VERTEX
  5
B0
330
AE
100
AcDbEntity
  8
001
370
     9
100
AcDbVertex
100
AcDb2dVertex
 10
230.016792
 20
109.984562
 30
0.0
  0
VERTEX
  5
B1
330
AE
100
AcDbEntity
  8
001
370
     9
100
AcDbVertex
100
AcDb2dVertex
 10
229.614868
 20
108.484562
 30
0.0
  0
VERTEX
  5
B2
330
AE
100
AcDbEntity
  8
001
370
     9
100
AcDbVertex
100
AcDb2dVertex
 10
229.212944
 20
109.984562
 30
0.0
  0
SEQEND
  5
AF
330
AE
100
AcDbEntity
  8
001
370
     9
  0
TEXT
  5
B3
330
A3
100
AcDbEntity
  8
001
370
    30
100
AcDbText
 10
228.614868
 20
118.484562
 30
0.0
 40
4.0
  1
%%c３２
 50
90.000003
 41
0.882353
100
AcDbText
  0
POINT
  5
B4
330
A3
100
AcDbEntity
  8
001
370
     9
100
AcDbPoint
 10
198.711223
 20
140.484562
 30
0.0
  0
POINT
  5
B5
330
A3
100
AcDbEntity
  8
001
370
     9
100
AcDbPoint
 10
198.711223
 20
108.484562
 30
0.0
  0
POINT
  5
B6
330
A3
100
AcDbEntity
  8
001
370
     9
100
AcDbPoint
 10
229.614868
 20
108.484562
 30
0.0
  0
ENDBLK
  5
A5
330
A3
100
AcDbEntity
  8
0
100
AcDbBlockEnd
  0
BLOCK
  5
B8
330
B7
100
AcDbEntity
  8
0
100
AcDbBlockBegin
  2
*D5
 70
     1
 10
0.0
 20
0.0
 30
0.0
  3
*D5
  1

  0
LINE
  5
BA
330
B7
100
AcDbEntity
  8
001
370
     9
100
AcDbLine
 10
115.010378
 20
94.637869
 30
0.0
 11
115.010378
 21
77.545406
 31
0.0
  0
LINE
  5
BB
330
B7
100
AcDbEntity
  8
001
370
     9
100
AcDbLine
 10
99.711223
 20
90.287447
 30
0.0
 11
99.711223
 21
77.545406
 31
0.0
  0
LINE
  5
BC
330
B7
100
AcDbEntity
  8
001
370
     9
100
AcDbLine
 10
115.010378
 20
80.295406
 30
0.0
 11
99.711223
 21
80.295406
 31
0.0
  0
POLYLINE
  5
BD
330
B7
100
AcDbEntity
  8
001
370
     9
100
AcDb2dPolyline
 66
     1
 10
0.0
 20
0.0
 30
0.0
  0
VERTEX
  5
BF
330
BD
100
AcDbEntity
  8
001
370
     9
100
AcDbVertex
100
AcDb2dVertex
 10
116.510378
 20
79.893482
 30
0.0
  0
VERTEX
  5
C0
330
BD
100
AcDbEntity
  8
001
370
     9
100
AcDbVertex
100
AcDb2dVertex
 10
115.010378
 20
80.295406
 30
0.0
  0
VERTEX
  5
C1
330
BD
100
AcDbEntity
  8
001
370
     9
100
AcDbVertex
100
AcDb2dVertex
 10
116.510378
 20
80.69733
 30
0.0
  0
SEQEND
  5
BE
330
BD
100
AcDbEntity
  8
001
370
     9
  0
POLYLINE
  5
C2
330
B7
100
AcDbEntity
  8
001
370
     9
100
AcDb2dPolyline
 66
     1
 10
0.0
 20
0.0
 30
0.0
  0
VERTEX
  5
C4
330
C2
100
AcDbEntity
  8
001
370
     9
100
AcDbVertex
100
AcDb2dVertex
 10
98.211223
 20
80.69733
 30
0.0
  0
VERTEX
  5
C5
330
C2
100
AcDbEntity
  8
001
370
     9
100
AcDbVertex
100
AcDb2dVertex
 10
99.711223
 20
80.295406
 30
0.0
  0
VERTEX
  5
C6
330
C2
100
AcDbEntity
  8
001
370
     9
100
AcDbVertex
100
AcDb2dVertex
 10
98.211223
 20
79.893482
 30
0.0
  0
SEQEND
  5
C3
330
C2
100
AcDbEntity
  8
001
370
     9
  0
TEXT
  5
C7
330
B7
100
AcDbEntity
  8
001
370
    30
100
AcDbText
 10
72.211223
 20
81.295406
 30
0.0
 40
4.0
  1
（１５．３）
 41
0.833333
100
AcDbText
  0
POINT
  5
C8
330
B7
100
AcDbEntity
  8
001
370
     9
100
AcDbPoint
 10
115.010378
 20
94.637869
 30
0.0
  0
POINT
  5
C9
330
B7
100
AcDbEntity
  8
001
370
     9
100
AcDbPoint
 10
99.711223
 20
90.287447
 30
0.0
  0
POINT
  5
CA
330
B7
100
AcDbEntity
  8
001
370
     9
100
AcDbPoint
 10
99.711223
 20
80.295406
 30
0.0
  0
LINE
  5
CB
330
B7
100
AcDbEntity
  8
001
370
     9
100
AcDbLine
 10
115.010378
 20
80.295406
 30
0.0
 11
117.510378
 21
80.295406
 31
0.0
  0
LINE
  5
CC
330
B7
100
AcDbEntity
  8
001
370
     9
100
AcDbLine
 10
99.711223
 20
80.295406
 30
0.0
 11
69.211223
 21
80.295406
 31
0.0
  0
ENDBLK
  5
B9
330
B7
100
AcDbEntity
  8
0
100
AcDbBlockEnd
  0
BLOCK
  5
CE
330
CD
100
AcDbEntity
  8
0
100
AcDbBlockBegin
  2
*D6
 70
     1
 10
0.0
 20
0.0
 30
0.0
  3
*D6
  1

  0
LINE
  5
D0
330
CD
100
AcDbEntity
  8
001
370
     9
100
AcDbLine
 10
99.711223
 20
281.705795
 30
0.0
 11
99.711223
 21
273.499784
 31
0.0
  0
LINE
  5
D1
330
CD
100
AcDbEntity
  8
001
370
     9
100
AcDbLine
 10
95.442239
 20
285.95291
 30
0.0
 11
87.258097
 21
285.95291
 31
0.0
  0
ARC
  5
D2
330
CD
100
AcDbEntity
  8
001
370
     9
100
AcDbCircle
 10
99.711223
 20
285.95291
 30
0.0
 40
9.703126174710874
100
AcDbArc
 50
180.0
 51
270.0
  0
POLYLINE
  5
D3
330
CD
100
AcDbEntity
  8
001
370
     9
100
AcDb2dPolyline
 66
     1
 10
0.0
 20
0.0
 30
0.0
  0
VERTEX
  5
D5
330
D3
100
AcDbEntity
  8
001
370
     9
100
AcDbVertex
100
AcDb2dVertex
 10
101.23778
 20
275.964886
 30
0.0
  0
VERTEX
  5
D6
330
D3
100
AcDbEntity
  8
001
370
     9
100
AcDbVertex
100
AcDb2dVertex
 10
99.711223
 20
276.249784
 30
0.0
  0
VERTEX
  5
D7
330
D3
100
AcDbEntity
  8
001
370
     9
100
AcDbVertex
100
AcDb2dVertex
 10
101.175709
 20
276.766334
 30
0.0
  0
SEQEND
  5
D4
330
D3
100
AcDbEntity
  8
001
370
     9
  0
POLYLINE
  5
D8
330
CD
100
AcDbEntity
  8
001
370
     9
100
AcDb2dPolyline
 66
     1
 10
0.0
 20
0.0
 30
0.0
  0
VERTEX
  5
DA
330
D8
100
AcDbEntity
  8
001
370
     9
100
AcDbVertex
100
AcDb2dVertex
 10
90.524647
 20
287.417395
 30
0.0
  0
VERTEX
  5
DB
330
D8
100
AcDbEntity
  8
001
370
     9
100
AcDbVertex
100
AcDb2dVertex
 10
90.008097
 20
285.95291
 30
0.0
  0
VERTEX
  5
DC
330
D8
100
AcDbEntity
  8
001
370
     9
100
AcDbVertex
100
AcDb2dVertex
 10
89.7232
 20
287.479467
 30
0.0
  0
SEQEND
  5
D9
330
D8
100
AcDbEntity
  8
001
370
     9
  0
TEXT
  5
DD
330
CD
100
AcDbEntity
  8
001
370
    30
100
AcDbText
 10
89.314543
 20
284.041511
 30
0.0
 40
4.0
  1
９０%%d
 50
314.999992
 41
0.978261
100
AcDbText
  0
POINT
  5
DE
330
CD
100
AcDbEntity
  8
001
370
     9
100
AcDbPoint
 10
99.711223
 20
281.705795
 30
0.0
  0
POINT
  5
DF
330
CD
100
AcDbEntity
  8
001
370
     9
100
AcDbPoint
 10
99.711223
 20
285.95291
 30
0.0
  0
POINT
  5
E0
330
CD
100
AcDbEntity
  8
001
370
     9
100
AcDbPoint
 10
99.711223
 20
285.95291
 30
0.0
  0
POINT
  5
E1
330
CD
100
AcDbEntity
  8
001
370
     9
100
AcDbPoint
 10
95.442239
 20
285.95291
 30
0.0
  0
ARC
  5
E2
330
CD
100
AcDbEntity
  8
001
370
     9
100
AcDbCircle
 10
99.711223
 20
285.95291
 30
0.0
 40
9.703126174710874
100
AcDbArc
 50
165.237804
 51
180.0
  0
ARC
  5
E3
330
CD
100
AcDbEntity
  8
001
370
     9
100
AcDbCircle
 10
99.711223
 20
285.95291
 30
0.0
 40
9.703126174710874
100
AcDbArc
 50
270.0
 51
284.762196
  0
ENDBLK
  5
CF
330
CD
100
AcDbEntity
  8
0
100
AcDbBlockEnd
  0
BLOCK
  5
E5
330
E4
100
AcDbEntity
  8
0
100
AcDbBlockBegin
  2
*D7
 70
     1
 10
0.0
 20
0.0
 30
0.0
  3
*D7
  1

  0
LINE
  5
E7
330
E4
100
AcDbEntity
  8
001
370
     9
100
AcDbLine
 10
268.711223
 20
331.90291
 30
0.0
 11
302.364868
 21
331.90291
 31
0.0
  0
LINE
  5
E8
330
E4
100
AcDbEntity
  8
001
370
     9
100
AcDbLine
 10
268.711223
 20
299.90291
 30
0.0
 11
302.364868
 21
299.90291
 31
0.0
  0
LINE
  5
E9
330
E4
100
AcDbEntity
  8
001
370
     9
100
AcDbLine
 10
299.614868
 20
331.90291
 30
0.0
 11
299.614868
 21
299.90291
 31
0.0
  0
POLYLINE
  5
EA
330
E4
100
AcDbEntity
  8
001
370
     9
100
AcDb2dPolyline
 66
     1
 10
0.0
 20
0.0
 30
0.0
  0
VERTEX
  5
EC
330
EA
100
AcDbEntity
  8
001
370
     9
100
AcDbVertex
100
AcDb2dVertex
 10
299.212944
 20
330.40291
 30
0.0
  0
VERTEX
  5
ED
330
EA
100
AcDbEntity
  8
001
370
     9
100
AcDbVertex
100
AcDb2dVertex
 10
299.614868
 20
331.90291
 30
0.0
  0
VERTEX
  5
EE
330
EA
100
AcDbEntity
  8
001
370
     9
100
AcDbVertex
100
AcDb2dVertex
 10
300.016792
 20
330.40291
 30
0.0
  0
SEQEND
  5
EB
330
EA
100
AcDbEntity
  8
001
370
     9
  0
POLYLINE
  5
EF
330
E4
100
AcDbEntity
  8
001
370
     9
100
AcDb2dPolyline
 66
     1
 10
0.0
 20
0.0
 30
0.0
  0
VERTEX
  5
F1
330
EF
100
AcDbEntity
  8
001
370
     9
100
AcDbVertex
100
AcDb2dVertex
 10
300.016792
 20
301.40291
 30
0.0
  0
VERTEX
  5
F2
330
EF
100
AcDbEntity
  8
001
370
     9
100
AcDbVertex
100
AcDb2dVertex
 10
299.614868
 20
299.90291
 30
0.0
  0
VERTEX
  5
F3
330
EF
100
AcDbEntity
  8
001
370
     9
100
AcDbVertex
100
AcDb2dVertex
 10
299.212944
 20
301.40291
 30
0.0
  0
SEQEND
  5
F0
330
EF
100
AcDbEntity
  8
001
370
     9
  0
TEXT
  5
F4
330
E4
100
AcDbEntity
  8
001
370
    30
100
AcDbText
 10
298.614868
 20
309.90291
 30
0.0
 40
4.0
  1
%%c３２
 50
90.000003
 41
0.882353
100
AcDbText
  0
POINT
  5
F5
330
E4
100
AcDbEntity
  8
001
370
     9
100
AcDbPoint
 10
268.711223
 20
331.90291
 30
0.0
  0
POINT
  5
F6
330
E4
100
AcDbEntity
  8
001
370
     9
100
AcDbPoint
 10
268.711223
 20
299.90291
 30
0.0
  0
POINT
  5
F7
330
E4
100
AcDbEntity
  8
001
370
     9
100
AcDbPoint
 10
299.614868
 20
299.90291
 30
0.0
  0
ENDBLK
  5
E6
330
E4
100
AcDbEntity
  8
0
100
AcDbBlockEnd
  0
BLOCK
  5
F9
330
F8
100
AcDbEntity
  8
0
100
AcDbBlockBegin
  2
*D8
 70
     1
 10
0.0
 20
0.0
 30
0.0
  3
*D8
  1

  0
LINE
  5
FB
330
F8
100
AcDbEntity
  8
001
370
     9
100
AcDbLine
 10
115.010378
 20
286.056217
 30
0.0
 11
115.010378
 21
268.963754
 31
0.0
  0
LINE
  5
FC
330
F8
100
AcDbEntity
  8
001
370
     9
100
AcDbLine
 10
99.711223
 20
281.705795
 30
0.0
 11
99.711223
 21
268.963754
 31
0.0
  0
LINE
  5
FD
330
F8
100
AcDbEntity
  8
001
370
     9
100
AcDbLine
 10
115.010378
 20
271.713754
 30
0.0
 11
99.711223
 21
271.713754
 31
0.0
  0
POLYLINE
  5
FE
330
F8
100
AcDbEntity
  8
001
370
     9
100
AcDb2dPolyline
 66
     1
 10
0.0
 20
0.0
 30
0.0
  0
VERTEX
  5
100
330
FE
100
AcDbEntity
  8
001
370
     9
100
AcDbVertex
100
AcDb2dVertex
 10
116.510378
 20
271.31183
 30
0.0
  0
VERTEX
  5
101
330
FE
100
AcDbEntity
  8
001
370
     9
100
AcDbVertex
100
AcDb2dVertex
 10
115.010378
 20
271.713754
 30
0.0
  0
VERTEX
  5
102
330
FE
100
AcDbEntity
  8
001
370
     9
100
AcDbVertex
100
AcDb2dVertex
 10
116.510378
 20
272.115678
 30
0.0
  0
SEQEND
  5
FF
330
FE
100
AcDbEntity
  8
001
370
     9
  0
POLYLINE
  5
103
330
F8
100
AcDbEntity
  8
001
370
     9
100
AcDb2dPolyline
 66
     1
 10
0.0
 20
0.0
 30
0.0
  0
VERTEX
  5
105
330
103
100
AcDbEntity
  8
001
370
     9
100
AcDbVertex
100
AcDb2dVertex
 10
98.211223
 20
272.115678
 30
0.0
  0
VERTEX
  5
106
330
103
100
AcDbEntity
  8
001
370
     9
100
AcDbVertex
100
AcDb2dVertex
 10
99.711223
 20
271.713754
 30
0.0
  0
VERTEX
  5
107
330
103
100
AcDbEntity
  8
001
370
     9
100
AcDbVertex
100
AcDb2dVertex
 10
98.211223
 20
271.31183
 30
0.0
  0
SEQEND
  5
104
330
103
100
AcDbEntity
  8
001
370
     9
  0
TEXT
  5
108
330
F8
100
AcDbEntity
  8
001
370
    30
100
AcDbText
 10
72.211223
 20
272.713754
 30
0.0
 40
4.0
  1
（１５．３）
 41
0.833333
100
AcDbText
  0
POINT
  5
109
330
F8
100
AcDbEntity
  8
001
370
     9
100
AcDbPoint
 10
115.010378
 20
286.056217
 30
0.0
  0
POINT
  5
10A
330
F8
100
AcDbEntity
  8
001
370
     9
100
AcDbPoint
 10
99.711223
 20
281.705795
 30
0.0
  0
POINT
  5
10B
330
F8
100
AcDbEntity
  8
001
370
     9
100
AcDbPoint
 10
99.711223
 20
271.713754
 30
0.0
  0
LINE
  5
10C
330
F8
100
AcDbEntity
  8
001
370
     9
100
AcDbLine
 10
115.010378
 20
271.713754
 30
0.0
 11
117.510378
 21
271.713754
 31
0.0
  0
LINE
  5
10D
330
F8
100
AcDbEntity
  8
001
370
     9
100
AcDbLine
 10
99.711223
 20
271.713754
 30
0.0
 11
69.211223
 21
271.713754
 31
0.0
  0
ENDBLK
  5
FA
330
F8
100
AcDbEntity
  8
0
100
AcDbBlockEnd
  0
BLOCK
  5
10F
330
10E
100
AcDbEntity
  8
0
100
AcDbBlockBegin
  2
*D9
 70
     1
 10
0.0
 20
0.0
 30
0.0
  3
*D9
  1

  0
LINE
  5
111
330
10E
100
AcDbEntity
  8
001
370
     9
100
AcDbLine
 10
274.711223
 20
305.90291
 30
0.0
 11
274.711223
 21
250.621255
 31
0.0
  0
LINE
  5
112
330
10E
100
AcDbEntity
  8
001
370
     9
100
AcDbLine
 10
99.711223
 20
264.096589
 30
0.0
 11
99.711223
 21
250.621255
 31
0.0
  0
LINE
  5
113
330
10E
100
AcDbEntity
  8
001
370
     9
100
AcDbLine
 10
274.711223
 20
253.371255
 30
0.0
 11
99.711223
 21
253.371255
 31
0.0
  0
POLYLINE
  5
114
330
10E
100
AcDbEntity
  8
001
370
     9
100
AcDb2dPolyline
 66
     1
 10
0.0
 20
0.0
 30
0.0
  0
VERTEX
  5
116
330
114
100
AcDbEntity
  8
001
370
     9
100
AcDbVertex
100
AcDb2dVertex
 10
273.211223
 20
253.773179
 30
0.0
  0
VERTEX
  5
117
330
114
100
AcDbEntity
  8
001
370
     9
100
AcDbVertex
100
AcDb2dVertex
 10
274.711223
 20
253.371255
 30
0.0
  0
VERTEX
  5
118
330
114
100
AcDbEntity
  8
001
370
     9
100
AcDbVertex
100
AcDb2dVertex
 10
273.211223
 20
252.969331
 30
0.0
  0
SEQEND
  5
115
330
114
100
AcDbEntity
  8
001
370
     9
  0
POLYLINE
  5
119
330
10E
100
AcDbEntity
  8
001
370
     9
100
AcDb2dPolyline
 66
     1
 10
0.0
 20
0.0
 30
0.0
  0
VERTEX
  5
11B
330
119
100
AcDbEntity
  8
001
370
     9
100
AcDbVertex
100
AcDb2dVertex
 10
101.211223
 20
252.969331
 30
0.0
  0
VERTEX
  5
11C
330
119
100
AcDbEntity
  8
001
370
     9
100
AcDbVertex
100
AcDb2dVertex
 10
99.711223
 20
253.371255
 30
0.0
  0
VERTEX
  5
11D
330
119
100
AcDbEntity
  8
001
370
     9
100
AcDbVertex
100
AcDb2dVertex
 10
101.211223
 20
253.773179
 30
0.0
  0
SEQEND
  5
11A
330
119
100
AcDbEntity
  8
001
370
     9
  0
TEXT
  5
11E
330
10E
100
AcDbEntity
  8
001
370
    30
100
AcDbText
 10
181.211223
 20
254.371255
 30
0.0
 40
4.0
  1
１７５
 41
0.833333
100
AcDbText
  0
POINT
  5
11F
330
10E
100
AcDbEntity
  8
001
370
     9
100
AcDbPoint
 10
274.711223
 20
305.90291
 30
0.0
  0
POINT
  5
120
330
10E
100
AcDbEntity
  8
001
370
     9
100
AcDbPoint
 10
99.711223
 20
264.096589
 30
0.0
  0
POINT
  5
121
330
10E
100
AcDbEntity
  8
001
370
     9
100
AcDbPoint
 10
99.711223
 20
253.371255
 30
0.0
  0
ENDBLK
  5
110
330
10E
100
AcDbEntity
  8
0
100
AcDbBlockEnd
  0
BLOCK
  5
123
330
122
100
AcDbEntity
  8
0
100
AcDbBlockBegin
  2
*D10
 70
     1
 10
0.0
 20
0.0
 30
0.0
  3
*D10
  1

  0
LINE
  5
125
330
122
100
AcDbEntity
  8
001
370
     9
100
AcDbLine
 10
274.711223
 20
305.90291
 30
0.0
 11
274.711223
 21
261.346589
 31
0.0
  0
LINE
  5
126
330
122
100
AcDbEntity
  8
001
370
     9
100
AcDbLine
 10
124.711223
 20
292.30291
 30
0.0
 11
124.711223
 21
261.346589
 31
0.0
  0
LINE
  5
127
330
122
100
AcDbEntity
  8
001
370
     9
100
AcDbLine
 10
274.711223
 20
264.096589
 30
0.0
 11
124.711223
 21
264.096589
 31
0.0
  0
POLYLINE
  5
128
330
122
100
AcDbEntity
  8
001
370
     9
100
AcDb2dPolyline
 66
     1
 10
0.0
 20
0.0
 30
0.0
  0
VERTEX
  5
12A
330
128
100
AcDbEntity
  8
001
370
     9
100
AcDbVertex
100
AcDb2dVertex
 10
273.211223
 20
264.498513
 30
0.0
  0
VERTEX
  5
12B
330
128
100
AcDbEntity
  8
001
370
     9
100
AcDbVertex
100
AcDb2dVertex
 10
274.711223
 20
264.096589
 30
0.0
  0
VERTEX
  5
12C
330
128
100
AcDbEntity
  8
001
370
     9
100
AcDbVertex
100
AcDb2dVertex
 10
273.211223
 20
263.694665
 30
0.0
  0
SEQEND
  5
129
330
128
100
AcDbEntity
  8
001
370
     9
  0
POLYLINE
  5
12D
330
122
100
AcDbEntity
  8
001
370
     9
100
AcDb2dPolyline
 66
     1
 10
0.0
 20
0.0
 30
0.0
  0
VERTEX
  5
12F
330
12D
100
AcDbEntity
  8
001
370
     9
100
AcDbVertex
100
AcDb2dVertex
 10
126.211223
 20
263.694665
 30
0.0
  0
VERTEX
  5
130
330
12D
100
AcDbEntity
  8
001
370
     9
100
AcDbVertex
100
AcDb2dVertex
 10
124.711223
 20
264.096589
 30
0.0
  0
VERTEX
  5
131
330
12D
100
AcDbEntity
  8
001
370
     9
100
AcDbVertex
100
AcDb2dVertex
 10
126.211223
 20
264.498513
 30
0.0
  0
SEQEND
  5
12E
330
12D
100
AcDbEntity
  8
001
370
     9
  0
TEXT
  5
132
330
122
100
AcDbEntity
  8
001
370
    30
100
AcDbText
 10
193.711223
 20
265.096589
 30
0.0
 40
4.0
  1
１５０
 41
0.833333
100
AcDbText
  0
POINT
  5
133
330
122
100
AcDbEntity
  8
001
370
     9
100
AcDbPoint
 10
274.711223
 20
305.90291
 30
0.0
  0
POINT
  5
134
330
122
100
AcDbEntity
  8
001
370
     9
100
AcDbPoint
 10
124.711223
 20
292.30291
 30
0.0
  0
POINT
  5
135
330
122
100
AcDbEntity
  8
001
370
     9
100
AcDbPoint
 10
124.711223
 20
264.096589
 30
0.0
  0
ENDBLK
  5
124
330
122
100
AcDbEntity
  8
0
100
AcDbBlockEnd
  0
ENDSEC
  0
SECTION
  2
ENTITIES
  0
DIMENSION
  5
136
330
1F
100
AcDbEntity
  8
001
370
     9
100
AcDbDimension
  2
*D1
 10
124.711223
 20
72.678241
 30
0.0
 11
164.711223
 21
75.678241
 31
0.0
 70
   160
 71
     5
 42
-1.0
  3
Standard
100
AcDbAlignedDimension
 13
204.711223
 23
114.484562
 33
0.0
 14
124.711223
 24
100.884562
 34
0.0
 50
180.0
100
AcDbRotatedDimension
  0
TEXT
  5
137
330
1F
100
AcDbEntity
  8
001
370
    30
100
AcDbText
 10
108.211223
 20
73.678241
 30
0.0
 40
4.0
  1
２５
 41
0.833333
100
AcDbText
  0
POLYLINE
  5
138
330
1F
100
AcDbEntity
  8
001
370
     9
100
AcDb2dPolyline
 66
     1
 10
0.0
 20
0.0
 30
0.0
  0
VERTEX
  5
13A
330
138
100
AcDbEntity
  8
001
370
     9
100
AcDbVertex
100
AcDb2dVertex
 10
123.211223
 20
73.080165
 30
0.0
  0
VERTEX
  5
13B
330
138
100
AcDbEntity
  8
001
370
     9
100
AcDbVertex
100
AcDb2dVertex
 10
124.711223
 20
72.678241
 30
0.0
  0
VERTEX
  5
13C
330
138
100
AcDbEntity
  8
001
370
     9
100
AcDbVertex
100
AcDb2dVertex
 10
123.211223
 20
72.276317
 30
0.0
  0
SEQEND
  5
139
330
138
100
AcDbEntity
  8
001
370
     9
  0
POLYLINE
  5
13D
330
1F
100
AcDbEntity
  8
001
370
     9
100
AcDb2dPolyline
 66
     1
 10
0.0
 20
0.0
 30
0.0
  0
VERTEX
  5
13F
330
13D
100
AcDbEntity
  8
001
370
     9
100
AcDbVertex
100
AcDb2dVertex
 10
101.211223
 20
72.276317
 30
0.0
  0
VERTEX
  5
140
330
13D
100
AcDbEntity
  8
001
370
     9
100
AcDbVertex
100
AcDb2dVertex
 10
99.711223
 20
72.678241
 30
0.0
  0
VERTEX
  5
141
330
13D
100
AcDbEntity
  8
001
370
     9
100
AcDbVertex
100
AcDb2dVertex
 10
101.211223
 20
73.080165
 30
0.0
  0
SEQEND
  5
13E
330
13D
100
AcDbEntity
  8
001
370
     9
  0
LINE
  5
142
330
1F
100
AcDbEntity
  8
001
370
     9
100
AcDbLine
 10
124.711223
 20
72.678241
 30
0.0
 11
99.711223
 21
72.678241
 31
0.0
  0
POLYLINE
  5
143
330
1F
100
AcDbEntity
  8
001
370
     9
100
AcDb2dPolyline
 66
     1
 10
0.0
 20
0.0
 30
0.0
  0
VERTEX
  5
145
330
143
100
AcDbEntity
  8
001
370
     9
100
AcDbVertex
100
AcDb2dVertex
 10
99.711223
 20
90.287447
 30
0.0
  0
VERTEX
  5
146
330
143
100
AcDbEntity
  8
001
370
     9
100
AcDbVertex
100
AcDb2dVertex
 10
99.711223
 20
72.678241
 30
0.0
  0
VERTEX
  5
147
330
143
100
AcDbEntity
  8
001
370
     9
100
AcDbVertex
100
AcDb2dVertex
 10
99.711223
 20
69.928241
 30
0.0
  0
SEQEND
  5
144
330
143
100
AcDbEntity
  8
001
370
     9
  0
DIMENSION
  5
148
330
1F
100
AcDbEntity
  8
001
370
     9
100
AcDbDimension
  2
*D2
 10
99.711223
 20
61.952907
 30
0.0
 11
152.211223
 21
64.952907
 31
0.0
 70
   160
 71
     5
 42
-1.0
  3
Standard
100
AcDbAlignedDimension
 13
204.711223
 23
114.484562
 33
0.0
 14
99.711223
 24
72.678241
 34
0.0
 50
180.0
100
AcDbRotatedDimension
  0
TEXT
  5
149
330
1F
100
AcDbEntity
  8
001
370
    30
100
AcDbText
 10
75.265025
 20
118.534562
 30
0.0
 40
4.0
  1
%%c６０
 50
90.000003
 41
0.882353
100
AcDbText
  0
POLYLINE
  5
14A
330
1F
100
AcDbEntity
  8
001
370
     9
100
AcDb2dPolyline
 66
     1
 10
0.0
 20
0.0
 30
0.0
  0
VERTEX
  5
14C
330
14A
100
AcDbEntity
  8
001
370
     9
100
AcDbVertex
100
AcDb2dVertex
 10
76.666949
 20
96.034562
 30
0.0
  0
VERTEX
  5
14D
330
14A
100
AcDbEntity
  8
001
370
     9
100
AcDbVertex
100
AcDb2dVertex
 10
76.265025
 20
94.534562
 30
0.0
  0
VERTEX
  5
14E
330
14A
100
AcDbEntity
  8
001
370
     9
100
AcDbVertex
100
AcDb2dVertex
 10
75.863101
 20
96.034562
 30
0.0
  0
SEQEND
  5
14B
330
14A
100
AcDbEntity
  8
001
370
     9
  0
LINE
  5
14F
330
1F
100
AcDbEntity
  8
001
370
     9
100
AcDbLine
 10
76.265025
 20
94.534562
 30
0.0
 11
76.265025
 21
154.534562
 31
0.0
  0
POLYLINE
  5
150
330
1F
100
AcDbEntity
  8
001
370
     9
100
AcDb2dPolyline
 66
     1
 10
0.0
 20
0.0
 30
0.0
  0
VERTEX
  5
152
330
150
100
AcDbEntity
  8
001
370
     9
100
AcDbVertex
100
AcDb2dVertex
 10
95.442239
 20
94.534562
 30
0.0
  0
VERTEX
  5
153
330
150
100
AcDbEntity
  8
001
370
     9
100
AcDbVertex
100
AcDb2dVertex
 10
76.265025
 20
94.534562
 30
0.0
  0
VERTEX
  5
154
330
150
100
AcDbEntity
  8
001
370
     9
100
AcDbVertex
100
AcDb2dVertex
 10
73.515025
 20
94.534562
 30
0.0
  0
SEQEND
  5
151
330
150
100
AcDbEntity
  8
001
370
     9
  0
DIMENSION
  5
155
330
1F
100
AcDbEntity
  8
001
370
     9
100
AcDbDimension
  2
*D3
 10
99.711223
 20
94.534562
 30
0.0
 11
94.971396
 21
89.794735
 31
0.0
 70
    34
 71
     5
 42
-1.0
  3
Standard
100
AcDb2LineAngularDimension
 13
99.711223
 23
90.287447
 33
0.0
 14
99.711223
 24
94.534562
 34
0.0
 15
95.442239
 25
94.534562
 35
0.0
 16
92.850077
 26
87.673415
 36
0.0
  0
TEXT
  5
156
330
1F
100
AcDbEntity
  8
001
370
    30
100
AcDbText
 10
49.738972
 20
108.072559
 30
0.0
 40
4.0
  1
Ｒ０．５
 41
0.833333
100
AcDbText
  0
POLYLINE
  5
157
330
1F
100
AcDbEntity
  8
001
370
     9
100
AcDb2dPolyline
 66
     1
 10
0.0
 20
0.0
 30
0.0
  0
VERTEX
  5
159
330
157
100
AcDbEntity
  8
001
370
     9
100
AcDbVertex
100
AcDb2dVertex
 10
98.475645
 20
96.106622
 30
0.0
  0
VERTEX
  5
15A
330
157
100
AcDbEntity
  8
001
370
     9
100
AcDbVertex
100
AcDb2dVertex
 10
99.742401
 20
95.208361
 30
0.0
  0
VERTEX
  5
15B
330
157
100
AcDbEntity
  8
001
370
     9
100
AcDbVertex
100
AcDb2dVertex
 10
98.196228
 20
95.3529
 30
0.0
  0
SEQEND
  5
158
330
157
100
AcDbEntity
  8
001
370
     9
  0
POLYLINE
  5
15C
330
1F
100
AcDbEntity
  8
001
370
     9
100
AcDb2dPolyline
 66
     1
 10
0.0
 20
0.0
 30
0.0
  0
VERTEX
  5
15E
330
15C
100
AcDbEntity
  8
001
370
     9
100
AcDbVertex
100
AcDb2dVertex
 10
99.742401
 20
95.208361
 30
0.0
  0
VERTEX
  5
15F
330
15C
100
AcDbEntity
  8
001
370
     9
100
AcDbVertex
100
AcDb2dVertex
 10
67.738972
 20
107.072559
 30
0.0
  0
VERTEX
  5
160
330
15C
100
AcDbEntity
  8
001
370
     9
100
AcDbVertex
100
AcDb2dVertex
 10
47.738972
 20
107.072559
 30
0.0
  0
SEQEND
  5
15D
330
15C
100
AcDbEntity
  8
001
370
     9
  0
DIMENSION
  5
161
330
1F
100
AcDbEntity
  8
001
370
     9
100
AcDbDimension
  2
*D4
 10
229.614868
 20
108.484562
 30
0.0
 11
226.614868
 21
124.484562
 31
0.0
 70
   160
 71
     5
 42
-1.0
  3
Standard
100
AcDbAlignedDimension
 13
198.711223
 23
140.484562
 33
0.0
 14
198.711223
 24
108.484562
 34
0.0
 50
270.0
100
AcDbRotatedDimension
  0
DIMENSION
  5
162
330
1F
100
AcDbEntity
  8
001
370
     9
100
AcDbDimension
  2
*D5
 10
99.711223
 20
80.295406
 30
0.0
 11
84.211223
 21
83.295406
 31
0.0
 70
   160
 71
     5
 42
-1.0
  3
Standard
100
AcDbAlignedDimension
 13
115.010378
 23
94.637869
 33
0.0
 14
99.711223
 24
90.287447
 34
0.0
 50
180.0
100
AcDbRotatedDimension
  0
TEXT
  5
163
330
1F
100
AcDbEntity
  8
001
370
    30
100
AcDbText
 10
108.211223
 20
265.096589
 30
0.0
 40
4.0
  1
２５
 41
0.833333
100
AcDbText
  0
POLYLINE
  5
164
330
1F
100
AcDbEntity
  8
001
370
     9
100
AcDb2dPolyline
 66
     1
 10
0.0
 20
0.0
 30
0.0
  0
VERTEX
  5
166
330
164
100
AcDbEntity
  8
001
370
     9
100
AcDbVertex
100
AcDb2dVertex
 10
123.211223
 20
264.498513
 30
0.0
  0
VERTEX
  5
167
330
164
100
AcDbEntity
  8
001
370
     9
100
AcDbVertex
100
AcDb2dVertex
 10
124.711223
 20
264.096589
 30
0.0
  0
VERTEX
  5
168
330
164
100
AcDbEntity
  8
001
370
     9
100
AcDbVertex
100
AcDb2dVertex
 10
123.211223
 20
263.694665
 30
0.0
  0
SEQEND
  5
165
330
164
100
AcDbEntity
  8
001
370
     9
  0
POLYLINE
  5
169
330
1F
100
AcDbEntity
  8
001
370
     9
100
AcDb2dPolyline
 66
     1
 10
0.0
 20
0.0
 30
0.0
  0
VERTEX
  5
16B
330
169
100
AcDbEntity
  8
001
370
     9
100
AcDbVertex
100
AcDb2dVertex
 10
101.211223
 20
263.694665
 30
0.0
  0
VERTEX
  5
16C
330
169
100
AcDbEntity
  8
001
370
     9
100
AcDbVertex
100
AcDb2dVertex
 10
99.711223
 20
264.096589
 30
0.0
  0
VERTEX
  5
16D
330
169
100
AcDbEntity
  8
001
370
     9
100
AcDbVertex
100
AcDb2dVertex
 10
101.211223
 20
264.498513
 30
0.0
  0
SEQEND
  5
16A
330
169
100
AcDbEntity
  8
001
370
     9
  0
LINE
  5
16E
330
1F
100
AcDbEntity
  8
001
370
     9
100
AcDbLine
 10
124.711223
 20
264.096589
 30
0.0
 11
99.711223
 21
264.096589
 31
0.0
  0
POLYLINE
  5
16F
330
1F
100
AcDbEntity
  8
001
370
     9
100
AcDb2dPolyline
 66
     1
 10
0.0
 20
0.0
 30
0.0
  0
VERTEX
  5
171
330
16F
100
AcDbEntity
  8
001
370
     9
100
AcDbVertex
100
AcDb2dVertex
 10
99.711223
 20
281.705795
 30
0.0
  0
VERTEX
  5
172
330
16F
100
AcDbEntity
  8
001
370
     9
100
AcDbVertex
100
AcDb2dVertex
 10
99.711223
 20
264.096589
 30
0.0
  0
VERTEX
  5
173
330
16F
100
AcDbEntity
  8
001
370
     9
100
AcDbVertex
100
AcDb2dVertex
 10
99.711223
 20
261.346589
 30
0.0
  0
SEQEND
  5
170
330
16F
100
AcDbEntity
  8
001
370
     9
  0
TEXT
  5
174
330
1F
100
AcDbEntity
  8
001
370
    30
100
AcDbText
 10
75.265025
 20
309.95291
 30
0.0
 40
4.0
  1
%%c６０
 50
90.000003
 41
0.882353
100
AcDbText
  0
POLYLINE
  5
175
330
1F
100
AcDbEntity
  8
001
370
     9
100
AcDb2dPolyline
 66
     1
 10
0.0
 20
0.0
 30
0.0
  0
VERTEX
  5
177
330
175
100
AcDbEntity
  8
001
370
     9
100
AcDbVertex
100
AcDb2dVertex
 10
76.666949
 20
287.45291
 30
0.0
  0
VERTEX
  5
178
330
175
100
AcDbEntity
  8
001
370
     9
100
AcDbVertex
100
AcDb2dVertex
 10
76.265025
 20
285.95291
 30
0.0
  0
VERTEX
  5
179
330
175
100
AcDbEntity
  8
001
370
     9
100
AcDbVertex
100
AcDb2dVertex
 10
75.863101
 20
287.45291
 30
0.0
  0
SEQEND
  5
176
330
175
100
AcDbEntity
  8
001
370
     9
  0
LINE
  5
17A
330
1F
100
AcDbEntity
  8
001
370
     9
100
AcDbLine
 10
76.265025
 20
285.95291
 30
0.0
 11
76.265025
 21
345.95291
 31
0.0
  0
POLYLINE
  5
17B
330
1F
100
AcDbEntity
  8
001
370
     9
100
AcDb2dPolyline
 66
     1
 10
0.0
 20
0.0
 30
0.0
  0
VERTEX
  5
17D
330
17B
100
AcDbEntity
  8
001
370
     9
100
AcDbVertex
100
AcDb2dVertex
 10
95.442239
 20
285.95291
 30
0.0
  0
VERTEX
  5
17E
330
17B
100
AcDbEntity
  8
001
370
     9
100
AcDbVertex
100
AcDb2dVertex
 10
76.265025
 20
285.95291
 30
0.0
  0
VERTEX
  5
17F
330
17B
100
AcDbEntity
  8
001
370
     9
100
AcDbVertex
100
AcDb2dVertex
 10
73.515025
 20
285.95291
 30
0.0
  0
SEQEND
  5
17C
330
17B
100
AcDbEntity
  8
001
370
     9
  0
DIMENSION
  5
180
330
1F
100
AcDbEntity
  8
001
370
     9
100
AcDbDimension
  2
*D6
 10
99.711223
 20
285.95291
 30
0.0
 11
94.971396
 21
281.213083
 31
0.0
 70
    34
 71
     5
 42
-1.0
  3
Standard
100
AcDb2LineAngularDimension
 13
99.711223
 23
281.705795
 33
0.0
 14
99.711223
 24
285.95291
 34
0.0
 15
95.442239
 25
285.95291
 35
0.0
 16
92.850077
 26
279.091763
 36
0.0
  0
TEXT
  5
181
330
1F
100
AcDbEntity
  8
001
370
    30
100
AcDbText
 10
49.738972
 20
299.490907
 30
0.0
 40
4.0
  1
Ｒ０．５
 41
0.833333
100
AcDbText
  0
POLYLINE
  5
182
330
1F
100
AcDbEntity
  8
001
370
     9
100
AcDb2dPolyline
 66
     1
 10
0.0
 20
0.0
 30
0.0
  0
VERTEX
  5
184
330
182
100
AcDbEntity
  8
001
370
     9
100
AcDbVertex
100
AcDb2dVertex
 10
98.475645
 20
287.52497
 30
0.0
  0
VERTEX
  5
185
330
182
100
AcDbEntity
  8
001
370
     9
100
AcDbVertex
100
AcDb2dVertex
 10
99.742401
 20
286.62671
 30
0.0
  0
VERTEX
  5
186
330
182
100
AcDbEntity
  8
001
370
     9
100
AcDbVertex
100
AcDb2dVertex
 10
98.196228
 20
286.771248
 30
0.0
  0
SEQEND
  5
183
330
182
100
AcDbEntity
  8
001
370
     9
  0
POLYLINE
  5
187
330
1F
100
AcDbEntity
  8
001
370
     9
100
AcDb2dPolyline
 66
     1
 10
0.0
 20
0.0
 30
0.0
  0
VERTEX
  5
189
330
187
100
AcDbEntity
  8
001
370
     9
100
AcDbVertex
100
AcDb2dVertex
 10
99.742401
 20
286.62671
 30
0.0
  0
VERTEX
  5
18A
330
187
100
AcDbEntity
  8
001
370
     9
100
AcDbVertex
100
AcDb2dVertex
 10
67.738972
 20
298.490907
 30
0.0
  0
VERTEX
  5
18B
330
187
100
AcDbEntity
  8
001
370
     9
100
AcDbVertex
100
AcDb2dVertex
 10
47.738972
 20
298.490907
 30
0.0
  0
SEQEND
  5
188
330
187
100
AcDbEntity
  8
001
370
     9
  0
DIMENSION
  5
18C
330
1F
100
AcDbEntity
  8
001
370
     9
100
AcDbDimension
  2
*D7
 10
299.614868
 20
299.90291
 30
0.0
 11
296.614868
 21
315.90291
 31
0.0
 70
   160
 71
     5
 42
-1.0
  3
Standard
100
AcDbAlignedDimension
 13
268.711223
 23
331.90291
 33
0.0
 14
268.711223
 24
299.90291
 34
0.0
 50
270.0
100
AcDbRotatedDimension
  0
DIMENSION
  5
18D
330
1F
100
AcDbEntity
  8
001
370
     9
100
AcDbDimension
  2
*D8
 10
99.711223
 20
271.713754
 30
0.0
 11
84.211223
 21
274.713754
 31
0.0
 70
   160
 71
     5
 42
-1.0
  3
Standard
100
AcDbAlignedDimension
 13
115.010378
 23
286.056217
 33
0.0
 14
99.711223
 24
281.705795
 34
0.0
 50
180.0
100
AcDbRotatedDimension
  0
DIMENSION
  5
18E
330
1F
100
AcDbEntity
  8
001
370
     9
100
AcDbDimension
  2
*D9
 10
99.711223
 20
253.371255
 30
0.0
 11
187.211223
 21
256.371255
 31
0.0
 70
   160
 71
     5
 42
-1.0
  3
Standard
100
AcDbAlignedDimension
 13
274.711223
 23
305.90291
 33
0.0
 14
99.711223
 24
264.096589
 34
0.0
 50
180.0
100
AcDbRotatedDimension
  0
DIMENSION
  5
18F
330
1F
100
AcDbEntity
  8
001
370
     9
100
AcDbDimension
  2
*D10
 10
124.711223
 20
264.096589
 30
0.0
 11
199.711223
 21
267.096589
 31
0.0
 70
   160
 71
     5
 42
-1.0
  3
Standard
100
AcDbAlignedDimension
 13
274.711223
 23
305.90291
 33
0.0
 14
124.711223
 24
292.30291
 34
0.0
 50
180.0
100
AcDbRotatedDimension
  0
TEXT
  5
190
330
1F
100
AcDbEntity
  8
001
370
    30
100
AcDbText
 10
374.098711
 20
96.280925
 30
0.0
 40
4.0
  1
%%c６０
 50
90.000003
 41
0.882353
100
AcDbText
  0
POLYLINE
  5
191
330
1F
100
AcDbEntity
  8
001
370
     9
100
AcDb2dPolyline
 66
     1
 10
0.0
 20
0.0
 30
0.0
  0
VERTEX
  5
193
330
191
100
AcDbEntity
  8
001
370
     9
100
AcDbVertex
100
AcDb2dVertex
 10
375.500634
 20
73.780925
 30
0.0
  0
VERTEX
  5
194
330
191
100
AcDbEntity
  8
001
370
     9
100
AcDbVertex
100
AcDb2dVertex
 10
375.098711
 20
72.280925
 30
0.0
  0
VERTEX
  5
195
330
191
100
AcDbEntity
  8
001
370
     9
100
AcDbVertex
100
AcDb2dVertex
 10
374.696787
 20
73.780925
 30
0.0
  0
SEQEND
  5
192
330
191
100
AcDbEntity
  8
001
370
     9
  0
LINE
  5
196
330
1F
100
AcDbEntity
  8
001
370
     9
100
AcDbLine
 10
375.098711
 20
72.280925
 30
0.0
 11
375.098711
 21
132.280925
 31
0.0
  0
POLYLINE
  5
197
330
1F
100
AcDbEntity
  8
001
370
     9
100
AcDb2dPolyline
 66
     1
 10
0.0
 20
0.0
 30
0.0
  0
VERTEX
  5
199
330
197
100
AcDbEntity
  8
001
370
     9
100
AcDbVertex
100
AcDb2dVertex
 10
394.275924
 20
72.280925
 30
0.0
  0
VERTEX
  5
19A
330
197
100
AcDbEntity
  8
001
370
     9
100
AcDbVertex
100
AcDb2dVertex
 10
375.098711
 20
72.280925
 30
0.0
  0
VERTEX
  5
19B
330
197
100
AcDbEntity
  8
001
370
     9
100
AcDbVertex
100
AcDb2dVertex
 10
372.348711
 20
72.280925
 30
0.0
  0
SEQEND
  5
198
330
197
100
AcDbEntity
  8
001
370
     9
  0
TEXT
  5
19C
330
1F
100
AcDbEntity
  8
001
370
    30
100
AcDbText
 10
379.198209
 20
62.109681
 30
0.0
 40
4.0
  1
Ｒ１
 41
0.833333
100
AcDbText
  0
POLYLINE
  5
19D
330
1F
100
AcDbEntity
  8
001
370
     9
100
AcDb2dPolyline
 66
     1
 10
0.0
 20
0.0
 30
0.0
  0
VERTEX
  5
19F
330
19D
100
AcDbEntity
  8
001
370
     9
100
AcDbVertex
100
AcDb2dVertex
 10
397.658563
 20
71.643855
 30
0.0
  0
VERTEX
  5
1A0
330
19D
100
AcDbEntity
  8
001
370
     9
100
AcDbVertex
100
AcDb2dVertex
 10
398.937958
 20
72.52402
 30
0.0
  0
VERTEX
  5
1A1
330
19D
100
AcDbEntity
  8
001
370
     9
100
AcDbVertex
100
AcDb2dVertex
 10
398.270052
 20
71.122077
 30
0.0
  0
SEQEND
  5
19E
330
19D
100
AcDbEntity
  8
001
370
     9
  0
POLYLINE
  5
1A2
330
1F
100
AcDbEntity
  8
001
370
     9
100
AcDb2dPolyline
 66
     1
 10
0.0
 20
0.0
 30
0.0
  0
VERTEX
  5
1A4
330
1A2
100
AcDbEntity
  8
001
370
     9
100
AcDbVertex
100
AcDb2dVertex
 10
398.937958
 20
72.52402
 30
0.0
  0
VERTEX
  5
1A5
330
1A2
100
AcDbEntity
  8
001
370
     9
100
AcDbVertex
100
AcDb2dVertex
 10
389.198209
 20
61.109681
 30
0.0
  0
VERTEX
  5
1A6
330
1A2
100
AcDbEntity
  8
001
370
     9
100
AcDbVertex
100
AcDb2dVertex
 10
377.198209
 20
61.109681
 30
0.0
  0
SEQEND
  5
1A3
330
1A2
100
AcDbEntity
  8
001
370
     9
  0
TEXT
  5
1A7
330
1F
100
AcDbEntity
  8
001
370
    30
100
AcDbText
 10
374.098711
 20
186.216462
 30
0.0
 40
4.0
  1
%%c６０
 50
90.000003
 41
0.882353
100
AcDbText
  0
POLYLINE
  5
1A8
330
1F
100
AcDbEntity
  8
001
370
     9
100
AcDb2dPolyline
 66
     1
 10
0.0
 20
0.0
 30
0.0
  0
VERTEX
  5
1AA
330
1A8
100
AcDbEntity
  8
001
370
     9
100
AcDbVertex
100
AcDb2dVertex
 10
375.500634
 20
163.716462
 30
0.0
  0
VERTEX
  5
1AB
330
1A8
100
AcDbEntity
  8
001
370
     9
100
AcDbVertex
100
AcDb2dVertex
 10
375.098711
 20
162.216462
 30
0.0
  0
VERTEX
  5
1AC
330
1A8
100
AcDbEntity
  8
001
370
     9
100
AcDbVertex
100
AcDb2dVertex
 10
374.696787
 20
163.716462
 30
0.0
  0
SEQEND
  5
1A9
330
1A8
100
AcDbEntity
  8
001
370
     9
  0
LINE
  5
1AD
330
1F
100
AcDbEntity
  8
001
370
     9
100
AcDbLine
 10
375.098711
 20
162.216462
 30
0.0
 11
375.098711
 21
222.216462
 31
0.0
  0
POLYLINE
  5
1AE
330
1F
100
AcDbEntity
  8
001
370
     9
100
AcDb2dPolyline
 66
     1
 10
0.0
 20
0.0
 30
0.0
  0
VERTEX
  5
1B0
330
1AE
100
AcDbEntity
  8
001
370
     9
100
AcDbVertex
100
AcDb2dVertex
 10
394.275924
 20
162.216462
 30
0.0
  0
VERTEX
  5
1B1
330
1AE
100
AcDbEntity
  8
001
370
     9
100
AcDbVertex
100
AcDb2dVertex
 10
375.098711
 20
162.216462
 30
0.0
  0
VERTEX
  5
1B2
330
1AE
100
AcDbEntity
  8
001
370
     9
100
AcDbVertex
100
AcDb2dVertex
 10
372.348711
 20
162.216462
 30
0.0
  0
SEQEND
  5
1AF
330
1AE
100
AcDbEntity
  8
001
370
     9
  0
TEXT
  5
1B3
330
1F
100
AcDbEntity
  8
001
370
    30
100
AcDbText
 10
374.098711
 20
275.227197
 30
0.0
 40
4.0
  1
%%c６０
 50
90.000003
 41
0.882353
100
AcDbText
  0
POLYLINE
  5
1B4
330
1F
100
AcDbEntity
  8
001
370
     9
100
AcDb2dPolyline
 66
     1
 10
0.0
 20
0.0
 30
0.0
  0
VERTEX
  5
1B6
330
1B4
100
AcDbEntity
  8
001
370
     9
100
AcDbVertex
100
AcDb2dVertex
 10
375.500634
 20
252.727197
 30
0.0
  0
VERTEX
  5
1B7
330
1B4
100
AcDbEntity
  8
001
370
     9
100
AcDbVertex
100
AcDb2dVertex
 10
375.098711
 20
251.227197
 30
0.0
  0
VERTEX
  5
1B8
330
1B4
100
AcDbEntity
  8
001
370
     9
100
AcDbVertex
100
AcDb2dVertex
 10
374.696787
 20
252.727197
 30
0.0
  0
SEQEND
  5
1B5
330
1B4
100
AcDbEntity
  8
001
370
     9
  0
LINE
  5
1B9
330
1F
100
AcDbEntity
  8
001
370
     9
100
AcDbLine
 10
375.098711
 20
251.227197
 30
0.0
 11
375.098711
 21
311.227197
 31
0.0
  0
POLYLINE
  5
1BA
330
1F
100
AcDbEntity
  8
001
370
     9
100
AcDb2dPolyline
 66
     1
 10
0.0
 20
0.0
 30
0.0
  0
VERTEX
  5
1BC
330
1BA
100
AcDbEntity
  8
001
370
     9
100
AcDbVertex
100
AcDb2dVertex
 10
394.275924
 20
251.227197
 30
0.0
  0
VERTEX
  5
1BD
330
1BA
100
AcDbEntity
  8
001
370
     9
100
AcDbVertex
100
AcDb2dVertex
 10
375.098711
 20
251.227197
 30
0.0
  0
VERTEX
  5
1BE
330
1BA
100
AcDbEntity
  8
001
370
     9
100
AcDbVertex
100
AcDb2dVertex
 10
372.348711
 20
251.227197
 30
0.0
  0
SEQEND
  5
1BB
330
1BA
100
AcDbEntity
  8
001
370
     9
  0
TEXT
  5
1BF
330
1F
100
AcDbEntity
  8
001
370
    30
100
AcDbText
 10
367.630322
 20
152.440643
 30
0.0
 40
4.0
  1
Ｒ１．５
 41
0.833333
100
AcDbText
  0
POLYLINE
  5
1C0
330
1F
100
AcDbEntity
  8
001
370
     9
100
AcDb2dPolyline
 66
     1
 10
0.0
 20
0.0
 30
0.0
  0
VERTEX
  5
1C2
330
1C0
100
AcDbEntity
  8
001
370
     9
100
AcDbVertex
100
AcDb2dVertex
 10
397.580422
 20
162.091503
 30
0.0
  0
VERTEX
  5
1C3
330
1C0
100
AcDbEntity
  8
001
370
     9
100
AcDbVertex
100
AcDb2dVertex
 10
398.984719
 20
162.754447
 30
0.0
  0
VERTEX
  5
1C4
330
1C0
100
AcDbEntity
  8
001
370
     9
100
AcDbVertex
100
AcDb2dVertex
 10
398.100034
 20
161.478173
 30
0.0
  0
SEQEND
  5
1C1
330
1C0
100
AcDbEntity
  8
001
370
     9
  0
POLYLINE
  5
1C5
330
1F
100
AcDbEntity
  8
001
370
     9
100
AcDb2dPolyline
 66
     1
 10
0.0
 20
0.0
 30
0.0
  0
VERTEX
  5
1C7
330
1C5
100
AcDbEntity
  8
001
370
     9
100
AcDbVertex
100
AcDb2dVertex
 10
398.984719
 20
162.754447
 30
0.0
  0
VERTEX
  5
1C8
330
1C5
100
AcDbEntity
  8
001
370
     9
100
AcDbVertex
100
AcDb2dVertex
 10
385.630322
 20
151.440643
 30
0.0
  0
VERTEX
  5
1C9
330
1C5
100
AcDbEntity
  8
001
370
     9
100
AcDbVertex
100
AcDb2dVertex
 10
365.630322
 20
151.440643
 30
0.0
  0
SEQEND
  5
1C6
330
1C5
100
AcDbEntity
  8
001
370
     9
  0
TEXT
  5
1CA
330
1F
100
AcDbEntity
  8
001
370
    30
100
AcDbText
 10
379.038272
 20
239.189676
 30
0.0
 40
4.0
  1
Ｒ２
 41
0.833333
100
AcDbText
  0
POLYLINE
  5
1CB
330
1F
100
AcDbEntity
  8
001
370
     9
100
AcDb2dPolyline
 66
     1
 10
0.0
 20
0.0
 30
0.0
  0
VERTEX
  5
1CD
330
1CB
100
AcDbEntity
  8
001
370
     9
100
AcDbVertex
100
AcDb2dVertex
 10
398.212797
 20
250.715294
 30
0.0
  0
VERTEX
  5
1CE
330
1CB
100
AcDbEntity
  8
001
370
     9
100
AcDbVertex
100
AcDb2dVertex
 10
399.448176
 20
251.656241
 30
0.0
  0
VERTEX
  5
1CF
330
1CB
100
AcDbEntity
  8
001
370
     9
100
AcDbVertex
100
AcDb2dVertex
 10
398.84878
 20
250.223668
 30
0.0
  0
SEQEND
  5
1CC
330
1CB
100
AcDbEntity
  8
001
370
     9
  0
POLYLINE
  5
1D0
330
1F
100
AcDbEntity
  8
001
370
     9
100
AcDb2dPolyline
 66
     1
 10
0.0
 20
0.0
 30
0.0
  0
VERTEX
  5
1D2
330
1D0
100
AcDbEntity
  8
001
370
     9
100
AcDbVertex
100
AcDb2dVertex
 10
399.448176
 20
251.656241
 30
0.0
  0
VERTEX
  5
1D3
330
1D0
100
AcDbEntity
  8
001
370
     9
100
AcDbVertex
100
AcDb2dVertex
 10
389.038272
 20
238.189676
 30
0.0
  0
VERTEX
  5
1D4
330
1D0
100
AcDbEntity
  8
001
370
     9
100
AcDbVertex
100
AcDb2dVertex
 10
377.038272
 20
238.189676
 30
0.0
  0
SEQEND
  5
1D1
330
1D0
100
AcDbEntity
  8
001
370
     9
  0
TEXT
  5
1D5
330
1F
100
AcDbEntity
  8
001
370
    30
100
AcDbText
 10
374.098711
 20
360.2064
 30
0.0
 40
4.0
  1
%%c６０
 50
90.000003
 41
0.882353
100
AcDbText
  0
POLYLINE
  5
1D6
330
1F
100
AcDbEntity
  8
001
370
     9
100
AcDb2dPolyline
 66
     1
 10
0.0
 20
0.0
 30
0.0
  0
VERTEX
  5
1D8
330
1D6
100
AcDbEntity
  8
001
370
     9
100
AcDbVertex
100
AcDb2dVertex
 10
375.500634
 20
337.7064
 30
0.0
  0
VERTEX
  5
1D9
330
1D6
100
AcDbEntity
  8
001
370
     9
100
AcDbVertex
100
AcDb2dVertex
 10
375.098711
 20
336.2064
 30
0.0
  0
VERTEX
  5
1DA
330
1D6
100
AcDbEntity
  8
001
370
     9
100
AcDbVertex
100
AcDb2dVertex
 10
374.696787
 20
337.7064
 30
0.0
  0
SEQEND
  5
1D7
330
1D6
100
AcDbEntity
  8
001
370
     9
  0
LINE
  5
1DB
330
1F
100
AcDbEntity
  8
001
370
     9
100
AcDbLine
 10
375.098711
 20
336.2064
 30
0.0
 11
375.098711
 21
396.2064
 31
0.0
  0
POLYLINE
  5
1DC
330
1F
100
AcDbEntity
  8
001
370
     9
100
AcDb2dPolyline
 66
     1
 10
0.0
 20
0.0
 30
0.0
  0
VERTEX
  5
1DE
330
1DC
100
AcDbEntity
  8
001
370
     9
100
AcDbVertex
100
AcDb2dVertex
 10
394.275924
 20
336.2064
 30
0.0
  0
VERTEX
  5
1DF
330
1DC
100
AcDbEntity
  8
001
370
     9
100
AcDbVertex
100
AcDb2dVertex
 10
375.098711
 20
336.2064
 30
0.0
  0
VERTEX
  5
1E0
330
1DC
100
AcDbEntity
  8
001
370
     9
100
AcDbVertex
100
AcDb2dVertex
 10
372.348711
 20
336.2064
 30
0.0
  0
SEQEND
  5
1DD
330
1DC
100
AcDbEntity
  8
001
370
     9
  0
TEXT
  5
1E1
330
1F
100
AcDbEntity
  8
001
370
    30
100
AcDbText
 10
367.660767
 20
325.245568
 30
0.0
 40
4.0
  1
Ｒ２．５
 41
0.833333
100
AcDbText
  0
POLYLINE
  5
1E2
330
1F
100
AcDbEntity
  8
001
370
     9
100
AcDb2dPolyline
 66
     1
 10
0.0
 20
0.0
 30
0.0
  0
VERTEX
  5
1E4
330
1E2
100
AcDbEntity
  8
001
370
     9
100
AcDbVertex
100
AcDb2dVertex
 10
398.011711
 20
336.290535
 30
0.0
  0
VERTEX
  5
1E5
330
1E2
100
AcDbEntity
  8
001
370
     9
100
AcDbVertex
100
AcDb2dVertex
 10
399.383533
 20
337.018302
 30
0.0
  0
VERTEX
  5
1E6
330
1E2
100
AcDbEntity
  8
001
370
     9
100
AcDbVertex
100
AcDb2dVertex
 10
398.559384
 20
335.702126
 30
0.0
  0
SEQEND
  5
1E3
330
1E2
100
AcDbEntity
  8
001
370
     9
  0
POLYLINE
  5
1E7
330
1F
100
AcDbEntity
  8
001
370
     9
100
AcDb2dPolyline
 66
     1
 10
0.0
 20
0.0
 30
0.0
  0
VERTEX
  5
1E9
330
1E7
100
AcDbEntity
  8
001
370
     9
100
AcDbVertex
100
AcDb2dVertex
 10
399.383533
 20
337.018302
 30
0.0
  0
VERTEX
  5
1EA
330
1E7
100
AcDbEntity
  8
001
370
     9
100
AcDbVertex
100
AcDb2dVertex
 10
385.660767
 20
324.245568
 30
0.0
  0
VERTEX
  5
1EB
330
1E7
100
AcDbEntity
  8
001
370
     9
100
AcDbVertex
100
AcDb2dVertex
 10
365.660767
 20
324.245568
 30
0.0
  0
SEQEND
  5
1E8
330
1E7
100
AcDbEntity
  8
001
370
     9
  0
TEXT
  5
1EC
330
1F
100
AcDbEntity
  8
001
370
    30
100
AcDbText
 10
55.04921
 20
191.13729
 30
0.0
 40
10.0
  1
すみっこ　ＳＫ３２－６０ＡＳＲ　（４枚刃）
 41
0.833333
100
AcDbText
  0
TEXT
  5
1ED
330
1F
100
AcDbEntity
  8
001
370
    30
100
AcDbText
 10
50.04921
 20
378.253271
 30
0.0
 40
10.0
  1
すみっこ　ＳＫ３２－６０ＡＳＲＬ　（４枚刃）
 41
0.833333
100
AcDbText
  0
POLYLINE
  5
1EE
330
1F
100
AcDbEntity
  8
001
370
    50
100
AcDb2dPolyline
 66
     1
 10
0.0
 20
0.0
 30
0.0
  0
VERTEX
  5
1F0
330
1EE
100
AcDbEntity
  8
001
370
    50
100
AcDbVertex
100
AcDb2dVertex
 10
115.592286
 20
112.484562
 30
0.0
  0
VERTEX
  5
1F1
330
1EE
100
AcDbEntity
  8
001
370
    50
100
AcDbVertex
100
AcDb2dVertex
 10
116.107467
 20
112.47289
 30
0.0
  0
VERTEX
  5
1F2
330
1EE
100
AcDbEntity
  8
001
370
    50
100
AcDbVertex
100
AcDb2dVertex
 10
116.62202
 20
112.450055
 30
0.0
  0
VERTEX
  5
1F3
330
1EE
100
AcDbEntity
  8
001
370
    50
100
AcDbVertex
100
AcDb2dVertex
 10
117.137716
 20
112.407109
 30
0.0
  0
VERTEX
  5
1F4
330
1EE
100
AcDbEntity
  8
001
370
    50
100
AcDbVertex
100
AcDb2dVertex
 10
117.651754
 20
112.345271
 30
0.0
  0
VERTEX
  5
1F5
330
1EE
100
AcDbEntity
  8
001
370
    50
100
AcDbVertex
100
AcDb2dVertex
 10
118.171629
 20
112.265557
 30
0.0
  0
VERTEX
  5
1F6
330
1EE
100
AcDbEntity
  8
001
370
    50
100
AcDbVertex
100
AcDb2dVertex
 10
118.687802
 20
112.166103
 30
0.0
  0
VERTEX
  5
1F7
330
1EE
100
AcDbEntity
  8
001
370
    50
100
AcDbVertex
100
AcDb2dVertex
 10
119.200842
 20
112.045181
 30
0.0
  0
VERTEX
  5
1F8
330
1EE
100
AcDbEntity
  8
001
370
    50
100
AcDbVertex
100
AcDb2dVertex
 10
119.711223
 20
111.912319
 30
0.0
  0
SEQEND
  5
1EF
330
1EE
100
AcDbEntity
  8
001
370
    50
  0
POLYLINE
  5
1F9
330
1F
100
AcDbEntity
  8
001
370
    50
100
AcDb2dPolyline
 66
     1
 10
0.0
 20
0.0
 30
0.0
  0
VERTEX
  5
1FB
330
1F9
100
AcDbEntity
  8
001
370
    50
100
AcDbVertex
100
AcDb2dVertex
 10
119.711223
 20
111.912319
 30
0.0
  0
VERTEX
  5
1FC
330
1F9
100
AcDbEntity
  8
001
370
    50
100
AcDbVertex
100
AcDb2dVertex
 10
120.087108
 20
111.795318
 30
0.0
  0
VERTEX
  5
1FD
330
1F9
100
AcDbEntity
  8
001
370
    50
100
AcDbVertex
100
AcDb2dVertex
 10
120.460341
 20
111.67055
 30
0.0
  0
VERTEX
  5
1FE
330
1F9
100
AcDbEntity
  8
001
370
    50
100
AcDbVertex
100
AcDb2dVertex
 10
120.809329
 20
111.5395
 30
0.0
  0
VERTEX
  5
1FF
330
1F9
100
AcDbEntity
  8
001
370
    50
100
AcDbVertex
100
AcDb2dVertex
 10
121.153392
 20
111.395805
 30
0.0
  0
VERTEX
  5
200
330
1F9
100
AcDbEntity
  8
001
370
    50
100
AcDbVertex
100
AcDb2dVertex
 10
121.411979
 20
111.278532
 30
0.0
  0
VERTEX
  5
201
330
1F9
100
AcDbEntity
  8
001
370
    50
100
AcDbVertex
100
AcDb2dVertex
 10
121.667279
 20
111.15434
 30
0.0
  0
VERTEX
  5
202
330
1F9
100
AcDbEntity
  8
001
370
    50
100
AcDbVertex
100
AcDb2dVertex
 10
121.902806
 20
111.031654
 30
0.0
  0
VERTEX
  5
203
330
1F9
100
AcDbEntity
  8
001
370
    50
100
AcDbVertex
100
AcDb2dVertex
 10
122.134889
 20
110.902562
 30
0.0
  0
VERTEX
  5
204
330
1F9
100
AcDbEntity
  8
001
370
    50
100
AcDbVertex
100
AcDb2dVertex
 10
122.34625
 20
110.777377
 30
0.0
  0
VERTEX
  5
205
330
1F9
100
AcDbEntity
  8
001
370
    50
100
AcDbVertex
100
AcDb2dVertex
 10
122.55414
 20
110.646506
 30
0.0
  0
VERTEX
  5
206
330
1F9
100
AcDbEntity
  8
001
370
    50
100
AcDbVertex
100
AcDb2dVertex
 10
122.826534
 20
110.462124
 30
0.0
  0
VERTEX
  5
207
330
1F9
100
AcDbEntity
  8
001
370
    50
100
AcDbVertex
100
AcDb2dVertex
 10
123.091373
 20
110.267002
 30
0.0
  0
VERTEX
  5
208
330
1F9
100
AcDbEntity
  8
001
370
    50
100
AcDbVertex
100
AcDb2dVertex
 10
123.319393
 20
110.084566
 30
0.0
  0
VERTEX
  5
209
330
1F9
100
AcDbEntity
  8
001
370
    50
100
AcDbVertex
100
AcDb2dVertex
 10
123.539815
 20
109.893126
 30
0.0
  0
VERTEX
  5
20A
330
1F9
100
AcDbEntity
  8
001
370
    50
100
AcDbVertex
100
AcDb2dVertex
 10
123.726216
 20
109.717474
 30
0.0
  0
VERTEX
  5
20B
330
1F9
100
AcDbEntity
  8
001
370
    50
100
AcDbVertex
100
AcDb2dVertex
 10
123.90557
 20
109.534425
 30
0.0
  0
VERTEX
  5
20C
330
1F9
100
AcDbEntity
  8
001
370
    50
100
AcDbVertex
100
AcDb2dVertex
 10
124.110274
 20
109.304545
 30
0.0
  0
VERTEX
  5
20D
330
1F9
100
AcDbEntity
  8
001
370
    50
100
AcDbVertex
100
AcDb2dVertex
 10
124.29966
 20
109.062529
 30
0.0
  0
VERTEX
  5
20E
330
1F9
100
AcDbEntity
  8
001
370
    50
100
AcDbVertex
100
AcDb2dVertex
 10
124.436791
 20
108.859979
 30
0.0
  0
VERTEX
  5
20F
330
1F9
100
AcDbEntity
  8
001
370
    50
100
AcDbVertex
100
AcDb2dVertex
 10
124.560094
 20
108.647398
 30
0.0
  0
VERTEX
  5
210
330
1F9
100
AcDbEntity
  8
001
370
    50
100
AcDbVertex
100
AcDb2dVertex
 10
124.638856
 20
108.482786
 30
0.0
  0
VERTEX
  5
211
330
1F9
100
AcDbEntity
  8
001
370
    50
100
AcDbVertex
100
AcDb2dVertex
 10
124.692347
 20
108.310273
 30
0.0
  0
VERTEX
  5
212
330
1F9
100
AcDbEntity
  8
001
370
    50
100
AcDbVertex
100
AcDb2dVertex
 10
124.703404
 20
108.240447
 30
0.0
  0
VERTEX
  5
213
330
1F9
100
AcDbEntity
  8
001
370
    50
100
AcDbVertex
100
AcDb2dVertex
 10
124.711223
 20
108.169897
 30
0.0
  0
SEQEND
  5
1FA
330
1F9
100
AcDbEntity
  8
001
370
    50
  0
LINE
  5
214
330
1F
100
AcDbEntity
  8
001
  6
DASHED
370
    30
100
AcDbLine
 10
102.200243
 20
134.484562
 30
0.0
 11
102.200243
 21
114.484562
 31
0.0
  0
LINE
  5
215
330
1F
100
AcDbEntity
  8
001
  6
DASHED
370
    30
100
AcDbLine
 10
102.200243
 20
134.484562
 30
0.0
 11
100.41944
 21
151.427769
 31
0.0
  0
LINE
  5
216
330
1F
100
AcDbEntity
  8
001
  6
DASHED
370
    50
100
AcDbLine
 10
100.41944
 20
126.135704
 30
0.0
 11
100.41944
 21
126.137141
 31
0.0
  0
POLYLINE
  5
217
330
1F
100
AcDbEntity
  8
001
370
    50
100
AcDb2dPolyline
 66
     1
 10
0.0
 20
0.0
 30
0.0
  0
VERTEX
  5
219
330
217
100
AcDbEntity
  8
001
370
    50
100
AcDbVertex
100
AcDb2dVertex
 10
124.711223
 20
107.218464
 30
0.0
  0
VERTEX
  5
21A
330
217
100
AcDbEntity
  8
001
370
    50
100
AcDbVertex
100
AcDb2dVertex
 10
124.711268
 20
107.209811
 30
0.0
  0
VERTEX
  5
21B
330
217
100
AcDbEntity
  8
001
370
    50
100
AcDbVertex
100
AcDb2dVertex
 10
124.711336
 20
107.201158
 30
0.0
  0
VERTEX
  5
21C
330
217
100
AcDbEntity
  8
001
370
    50
100
AcDbVertex
100
AcDb2dVertex
 10
124.72009
 20
107.032389
 30
0.0
  0
VERTEX
  5
21D
330
217
100
AcDbEntity
  8
001
370
    50
100
AcDbVertex
100
AcDb2dVertex
 10
124.738347
 20
106.86416
 30
0.0
  0
VERTEX
  5
21E
330
217
100
AcDbEntity
  8
001
370
    50
100
AcDbVertex
100
AcDb2dVertex
 10
124.763258
 20
106.671526
 30
0.0
  0
VERTEX
  5
21F
330
217
100
AcDbEntity
  8
001
370
    50
100
AcDbVertex
100
AcDb2dVertex
 10
124.788626
 20
106.479053
 30
0.0
  0
VERTEX
  5
220
330
217
100
AcDbEntity
  8
001
370
    50
100
AcDbVertex
100
AcDb2dVertex
 10
124.833785
 20
106.073743
 30
0.0
  0
VERTEX
  5
221
330
217
100
AcDbEntity
  8
001
370
    50
100
AcDbVertex
100
AcDb2dVertex
 10
124.860125
 20
105.666828
 30
0.0
  0
VERTEX
  5
222
330
217
100
AcDbEntity
  8
001
370
    50
100
AcDbVertex
100
AcDb2dVertex
 10
124.861492
 20
105.27324
 30
0.0
  0
VERTEX
  5
223
330
217
100
AcDbEntity
  8
001
370
    50
100
AcDbVertex
100
AcDb2dVertex
 10
124.839968
 20
104.880204
 30
0.0
  0
VERTEX
  5
224
330
217
100
AcDbEntity
  8
001
370
    50
100
AcDbVertex
100
AcDb2dVertex
 10
124.799734
 20
104.492243
 30
0.0
  0
VERTEX
  5
225
330
217
100
AcDbEntity
  8
001
370
    50
100
AcDbVertex
100
AcDb2dVertex
 10
124.749464
 20
104.105349
 30
0.0
  0
SEQEND
  5
218
330
217
100
AcDbEntity
  8
001
370
    50
  0
POLYLINE
  5
226
330
1F
100
AcDbEntity
  8
001
370
    50
100
AcDb2dPolyline
 66
     1
 10
0.0
 20
0.0
 30
0.0
  0
VERTEX
  5
228
330
226
100
AcDbEntity
  8
001
370
    50
100
AcDbVertex
100
AcDb2dVertex
 10
124.749464
 20
104.105349
 30
0.0
  0
VERTEX
  5
229
330
226
100
AcDbEntity
  8
001
370
    50
100
AcDbVertex
100
AcDb2dVertex
 10
124.184718
 20
105.125469
 30
0.0
  0
VERTEX
  5
22A
330
226
100
AcDbEntity
  8
001
370
    50
100
AcDbVertex
100
AcDb2dVertex
 10
123.31852
 20
106.475563
 30
0.0
  0
VERTEX
  5
22B
330
226
100
AcDbEntity
  8
001
370
    50
100
AcDbVertex
100
AcDb2dVertex
 10
122.420995
 20
107.601625
 30
0.0
  0
VERTEX
  5
22C
330
226
100
AcDbEntity
  8
001
370
    50
100
AcDbVertex
100
AcDb2dVertex
 10
121.481389
 20
108.53692
 30
0.0
  0
VERTEX
  5
22D
330
226
100
AcDbEntity
  8
001
370
    50
100
AcDbVertex
100
AcDb2dVertex
 10
120.441498
 20
109.414455
 30
0.0
  0
VERTEX
  5
22E
330
226
100
AcDbEntity
  8
001
370
    50
100
AcDbVertex
100
AcDb2dVertex
 10
119.301178
 20
110.218607
 30
0.0
  0
VERTEX
  5
22F
330
226
100
AcDbEntity
  8
001
370
    50
100
AcDbVertex
100
AcDb2dVertex
 10
118.088588
 20
110.901811
 30
0.0
  0
VERTEX
  5
230
330
226
100
AcDbEntity
  8
001
370
    50
100
AcDbVertex
100
AcDb2dVertex
 10
116.852782
 20
111.462855
 30
0.0
  0
VERTEX
  5
231
330
226
100
AcDbEntity
  8
001
370
    50
100
AcDbVertex
100
AcDb2dVertex
 10
115.613398
 20
111.905771
 30
0.0
  0
VERTEX
  5
232
330
226
100
AcDbEntity
  8
001
370
    50
100
AcDbVertex
100
AcDb2dVertex
 10
114.220308
 20
112.226922
 30
0.0
  0
VERTEX
  5
233
330
226
100
AcDbEntity
  8
001
370
    50
100
AcDbVertex
100
AcDb2dVertex
 10
112.645555
 20
112.42014
 30
0.0
  0
VERTEX
  5
234
330
226
100
AcDbEntity
  8
001
370
    50
100
AcDbVertex
100
AcDb2dVertex
 10
111.494186
 20
112.484562
 30
0.0
  0
SEQEND
  5
227
330
226
100
AcDbEntity
  8
001
370
    50
  0
LINE
  5
235
330
1F
100
AcDbEntity
  8
001
370
    50
100
AcDbLine
 10
129.711223
 20
140.484562
 30
0.0
 11
129.711223
 21
108.484562
 31
0.0
  0
ARC
  5
236
330
1F
100
AcDbEntity
  8
001
370
    50
100
AcDbCircle
 10
129.711223
 20
145.484562
 30
0.0
 40
5.000000000000001
100
AcDbArc
 50
180.0
 51
270.0
  0
ARC
  5
237
330
1F
100
AcDbEntity
  8
001
370
    50
100
AcDbCircle
 10
129.711223
 20
103.484562
 30
0.0
 40
5.000000000000001
100
AcDbArc
 50
90.0
 51
180.0
  0
POLYLINE
  5
238
330
1F
100
AcDbEntity
  8
001
370
    50
100
AcDb2dPolyline
 66
     1
 10
0.0
 20
0.0
 30
0.0
  0
VERTEX
  5
23A
330
238
100
AcDbEntity
  8
001
370
    50
100
AcDbVertex
100
AcDb2dVertex
 10
115.592286
 20
150.445301
 30
0.0
  0
VERTEX
  5
23B
330
238
100
AcDbEntity
  8
001
370
    50
100
AcDbVertex
100
AcDb2dVertex
 10
116.107222
 20
150.439929
 30
0.0
  0
VERTEX
  5
23C
330
238
100
AcDbEntity
  8
001
370
    50
100
AcDbVertex
100
AcDb2dVertex
 10
116.62202
 20
150.429323
 30
0.0
  0
VERTEX
  5
23D
330
238
100
AcDbEntity
  8
001
370
    50
100
AcDbVertex
100
AcDb2dVertex
 10
117.137067
 20
150.409357
 30
0.0
  0
VERTEX
  5
23E
330
238
100
AcDbEntity
  8
001
370
    50
100
AcDbVertex
100
AcDb2dVertex
 10
117.651754
 20
150.380461
 30
0.0
  0
VERTEX
  5
23F
330
238
100
AcDbEntity
  8
001
370
    50
100
AcDbVertex
100
AcDb2dVertex
 10
118.170232
 20
150.343158
 30
0.0
  0
VERTEX
  5
240
330
238
100
AcDbEntity
  8
001
370
    50
100
AcDbVertex
100
AcDb2dVertex
 10
118.687802
 20
150.295714
 30
0.0
  0
VERTEX
  5
241
330
238
100
AcDbEntity
  8
001
370
    50
100
AcDbVertex
100
AcDb2dVertex
 10
119.199848
 20
150.237528
 30
0.0
  0
VERTEX
  5
242
330
238
100
AcDbEntity
  8
001
370
    50
100
AcDbVertex
100
AcDb2dVertex
 10
119.711223
 20
150.173055
 30
0.0
  0
SEQEND
  5
239
330
238
100
AcDbEntity
  8
001
370
    50
  0
POLYLINE
  5
243
330
1F
100
AcDbEntity
  8
001
370
    50
100
AcDb2dPolyline
 66
     1
 10
0.0
 20
0.0
 30
0.0
  0
VERTEX
  5
245
330
243
100
AcDbEntity
  8
001
370
    50
100
AcDbVertex
100
AcDb2dVertex
 10
119.711223
 20
150.173055
 30
0.0
  0
VERTEX
  5
246
330
243
100
AcDbEntity
  8
001
370
    50
100
AcDbVertex
100
AcDb2dVertex
 10
120.089197
 20
150.092526
 30
0.0
  0
VERTEX
  5
247
330
243
100
AcDbEntity
  8
001
370
    50
100
AcDbVertex
100
AcDb2dVertex
 10
120.460341
 20
149.989621
 30
0.0
  0
VERTEX
  5
248
330
243
100
AcDbEntity
  8
001
370
    50
100
AcDbVertex
100
AcDb2dVertex
 10
120.814203
 20
149.849344
 30
0.0
  0
VERTEX
  5
249
330
243
100
AcDbEntity
  8
001
370
    50
100
AcDbVertex
100
AcDb2dVertex
 10
121.153392
 20
149.674531
 30
0.0
  0
VERTEX
  5
24A
330
243
100
AcDbEntity
  8
001
370
    50
100
AcDbVertex
100
AcDb2dVertex
 10
121.415813
 20
149.513574
 30
0.0
  0
VERTEX
  5
24B
330
243
100
AcDbEntity
  8
001
370
    50
100
AcDbVertex
100
AcDb2dVertex
 10
121.667279
 20
149.336556
 30
0.0
  0
VERTEX
  5
24C
330
243
100
AcDbEntity
  8
001
370
    50
100
AcDbVertex
100
AcDb2dVertex
 10
121.906839
 20
149.144684
 30
0.0
  0
VERTEX
  5
24D
330
243
100
AcDbEntity
  8
001
370
    50
100
AcDbVertex
100
AcDb2dVertex
 10
122.134889
 20
148.939118
 30
0.0
  0
VERTEX
  5
24E
330
243
100
AcDbEntity
  8
001
370
    50
100
AcDbVertex
100
AcDb2dVertex
 10
122.350212
 20
148.72269
 30
0.0
  0
VERTEX
  5
24F
330
243
100
AcDbEntity
  8
001
370
    50
100
AcDbVertex
100
AcDb2dVertex
 10
122.55414
 20
148.495511
 30
0.0
  0
VERTEX
  5
250
330
243
100
AcDbEntity
  8
001
370
    50
100
AcDbVertex
100
AcDb2dVertex
 10
122.834657
 20
148.142745
 30
0.0
  0
VERTEX
  5
251
330
243
100
AcDbEntity
  8
001
370
    50
100
AcDbVertex
100
AcDb2dVertex
 10
123.091373
 20
147.772145
 30
0.0
  0
VERTEX
  5
252
330
243
100
AcDbEntity
  8
001
370
    50
100
AcDbVertex
100
AcDb2dVertex
 10
123.326706
 20
147.384006
 30
0.0
  0
VERTEX
  5
253
330
243
100
AcDbEntity
  8
001
370
    50
100
AcDbVertex
100
AcDb2dVertex
 10
123.539815
 20
146.983289
 30
0.0
  0
VERTEX
  5
254
330
243
100
AcDbEntity
  8
001
370
    50
100
AcDbVertex
100
AcDb2dVertex
 10
123.732657
 20
146.570258
 30
0.0
  0
VERTEX
  5
255
330
243
100
AcDbEntity
  8
001
370
    50
100
AcDbVertex
100
AcDb2dVertex
 10
123.90557
 20
146.148434
 30
0.0
  0
VERTEX
  5
256
330
243
100
AcDbEntity
  8
001
370
    50
100
AcDbVertex
100
AcDb2dVertex
 10
124.120773
 20
145.532267
 30
0.0
  0
VERTEX
  5
257
330
243
100
AcDbEntity
  8
001
370
    50
100
AcDbVertex
100
AcDb2dVertex
 10
124.29966
 20
144.904552
 30
0.0
  0
VERTEX
  5
258
330
243
100
AcDbEntity
  8
001
370
    50
100
AcDbVertex
100
AcDb2dVertex
 10
124.446437
 20
144.256396
 30
0.0
  0
VERTEX
  5
259
330
243
100
AcDbEntity
  8
001
370
    50
100
AcDbVertex
100
AcDb2dVertex
 10
124.560094
 20
143.601501
 30
0.0
  0
VERTEX
  5
25A
330
243
100
AcDbEntity
  8
001
370
    50
100
AcDbVertex
100
AcDb2dVertex
 10
124.643322
 20
142.933174
 30
0.0
  0
VERTEX
  5
25B
330
243
100
AcDbEntity
  8
001
370
    50
100
AcDbVertex
100
AcDb2dVertex
 10
124.692347
 20
142.261748
 30
0.0
  0
VERTEX
  5
25C
330
243
100
AcDbEntity
  8
001
370
    50
100
AcDbVertex
100
AcDb2dVertex
 10
124.704485
 20
141.899564
 30
0.0
  0
VERTEX
  5
25D
330
243
100
AcDbEntity
  8
001
370
    50
100
AcDbVertex
100
AcDb2dVertex
 10
124.711223
 20
141.537178
 30
0.0
  0
SEQEND
  5
244
330
243
100
AcDbEntity
  8
001
370
    50
  0
ARC
  5
25E
330
1F
100
AcDbEntity
  8
001
370
    50
100
AcDbCircle
 10
119.711223
 20
148.084562
 30
0.0
 40
5.000000000000001
100
AcDbArc
 50
0.0
 51
90.0
  0
LINE
  5
25F
330
1F
100
AcDbEntity
  8
001
370
    50
100
AcDbLine
 10
204.711223
 20
114.484562
 30
0.0
 11
204.711223
 21
134.484562
 31
0.0
  0
POLYLINE
  5
260
330
1F
100
AcDbEntity
  8
001
370
    50
100
AcDb2dPolyline
 66
     1
 10
0.0
 20
0.0
 30
0.0
  0
VERTEX
  5
262
330
260
100
AcDbEntity
  8
001
370
    50
100
AcDbVertex
100
AcDb2dVertex
 10
114.426123
 20
153.084562
 30
0.0
  0
VERTEX
  5
263
330
260
100
AcDbEntity
  8
001
370
    50
100
AcDbVertex
100
AcDb2dVertex
 10
114.354331
 20
153.084094
 30
0.0
  0
VERTEX
  5
264
330
260
100
AcDbEntity
  8
001
370
    50
100
AcDbVertex
100
AcDb2dVertex
 10
114.249428
 20
153.08206
 30
0.0
  0
VERTEX
  5
265
330
260
100
AcDbEntity
  8
001
370
    50
100
AcDbVertex
100
AcDb2dVertex
 10
114.144835
 20
153.078154
 30
0.0
  0
VERTEX
  5
266
330
260
100
AcDbEntity
  8
001
370
    50
100
AcDbVertex
100
AcDb2dVertex
 10
114.073306
 20
153.074557
 30
0.0
  0
SEQEND
  5
261
330
260
100
AcDbEntity
  8
001
370
    50
  0
LINE
  5
267
330
1F
100
AcDbEntity
  8
001
370
    50
100
AcDbLine
 10
109.783536
 20
153.084562
 30
0.0
 11
101.911223
 21
153.084562
 31
0.0
  0
LINE
  5
268
330
1F
100
AcDbEntity
  8
001
370
    50
100
AcDbLine
 10
119.711223
 20
153.084562
 30
0.0
 11
114.426123
 21
153.084562
 31
0.0
  0
LINE
  5
269
330
1F
100
AcDbEntity
  8
001
370
    50
100
AcDbLine
 10
101.911223
 20
150.445301
 30
0.0
 11
115.592286
 21
150.445301
 31
0.0
  0
POLYLINE
  5
26A
330
1F
100
AcDbEntity
  8
001
370
    50
100
AcDb2dPolyline
 66
     1
 10
0.0
 20
0.0
 30
0.0
  0
VERTEX
  5
26C
330
26A
100
AcDbEntity
  8
001
370
    50
100
AcDbVertex
100
AcDb2dVertex
 10
114.073306
 20
153.074557
 30
0.0
  0
VERTEX
  5
26D
330
26A
100
AcDbEntity
  8
001
370
    50
100
AcDbVertex
100
AcDb2dVertex
 10
113.202024
 20
153.078153
 30
0.0
  0
VERTEX
  5
26E
330
26A
100
AcDbEntity
  8
001
370
    50
100
AcDbVertex
100
AcDb2dVertex
 10
111.928608
 20
153.08206
 30
0.0
  0
VERTEX
  5
26F
330
26A
100
AcDbEntity
  8
001
370
    50
100
AcDbVertex
100
AcDb2dVertex
 10
110.654972
 20
153.084093
 30
0.0
  0
VERTEX
  5
270
330
26A
100
AcDbEntity
  8
001
370
    50
100
AcDbVertex
100
AcDb2dVertex
 10
109.783536
 20
153.084562
 30
0.0
  0
SEQEND
  5
26B
330
26A
100
AcDbEntity
  8
001
370
    50
  0
LINE
  5
271
330
1F
100
AcDbEntity
  8
001
370
    50
100
AcDbLine
 10
100.41944
 20
148.60792
 30
0.0
 11
100.411414
 21
148.756202
 31
0.0
  0
POLYLINE
  5
272
330
1F
100
AcDbEntity
  8
001
370
    50
100
AcDb2dPolyline
 66
     1
 10
0.0
 20
0.0
 30
0.0
  0
VERTEX
  5
274
330
272
100
AcDbEntity
  8
001
370
    50
100
AcDbVertex
100
AcDb2dVertex
 10
100.411414
 20
148.756202
 30
0.0
  0
VERTEX
  5
275
330
272
100
AcDbEntity
  8
001
370
    50
100
AcDbVertex
100
AcDb2dVertex
 10
100.423464
 20
148.959533
 30
0.0
  0
VERTEX
  5
276
330
272
100
AcDbEntity
  8
001
370
    50
100
AcDbVertex
100
AcDb2dVertex
 10
100.450046
 20
149.160505
 30
0.0
  0
VERTEX
  5
277
330
272
100
AcDbEntity
  8
001
370
    50
100
AcDbVertex
100
AcDb2dVertex
 10
100.488085
 20
149.312435
 30
0.0
  0
VERTEX
  5
278
330
272
100
AcDbEntity
  8
001
370
    50
100
AcDbVertex
100
AcDb2dVertex
 10
100.540661
 20
149.460431
 30
0.0
  0
VERTEX
  5
279
330
272
100
AcDbEntity
  8
001
370
    50
100
AcDbVertex
100
AcDb2dVertex
 10
100.605546
 20
149.603234
 30
0.0
  0
VERTEX
  5
27A
330
272
100
AcDbEntity
  8
001
370
    50
100
AcDbVertex
100
AcDb2dVertex
 10
100.682844
 20
149.739459
 30
0.0
  0
VERTEX
  5
27B
330
272
100
AcDbEntity
  8
001
370
    50
100
AcDbVertex
100
AcDb2dVertex
 10
100.767694
 20
149.860886
 30
0.0
  0
VERTEX
  5
27C
330
272
100
AcDbEntity
  8
001
370
    50
100
AcDbVertex
100
AcDb2dVertex
 10
100.863374
 20
149.974129
 30
0.0
  0
VERTEX
  5
27D
330
272
100
AcDbEntity
  8
001
370
    50
100
AcDbVertex
100
AcDb2dVertex
 10
100.969024
 20
150.07805
 30
0.0
  0
VERTEX
  5
27E
330
272
100
AcDbEntity
  8
001
370
    50
100
AcDbVertex
100
AcDb2dVertex
 10
101.084135
 20
150.171137
 30
0.0
  0
VERTEX
  5
27F
330
272
100
AcDbEntity
  8
001
370
    50
100
AcDbVertex
100
AcDb2dVertex
 10
101.195467
 20
150.24456
 30
0.0
  0
VERTEX
  5
280
330
272
100
AcDbEntity
  8
001
370
    50
100
AcDbVertex
100
AcDb2dVertex
 10
101.313076
 20
150.307905
 30
0.0
  0
VERTEX
  5
281
330
272
100
AcDbEntity
  8
001
370
    50
100
AcDbVertex
100
AcDb2dVertex
 10
101.435927
 20
150.360694
 30
0.0
  0
VERTEX
  5
282
330
272
100
AcDbEntity
  8
001
370
    50
100
AcDbVertex
100
AcDb2dVertex
 10
101.563157
 20
150.40019
 30
0.0
  0
VERTEX
  5
283
330
272
100
AcDbEntity
  8
001
370
    50
100
AcDbVertex
100
AcDb2dVertex
 10
101.735681
 20
150.429956
 30
0.0
  0
VERTEX
  5
284
330
272
100
AcDbEntity
  8
001
370
    50
100
AcDbVertex
100
AcDb2dVertex
 10
101.911223
 20
150.445301
 30
0.0
  0
SEQEND
  5
273
330
272
100
AcDbEntity
  8
001
370
    50
  0
ARC
  5
285
330
1F
100
AcDbEntity
  8
001
370
    50
100
AcDbCircle
 10
101.911223
 20
151.584562
 30
0.0
 40
1.499999999999998
100
AcDbArc
 50
90.0
 51
180.0
  0
ARC
  5
286
330
1F
100
AcDbEntity
  8
001
  6
DASHED
370
    30
100
AcDbCircle
 10
101.911223
 20
151.584562
 30
0.0
 40
1.499999999999998
100
AcDbArc
 50
180.0
 51
186.0
  0
LINE
  5
287
330
1F
100
AcDbEntity
  8
001
370
    50
100
AcDbLine
 10
100.411223
 20
151.584562
 30
0.0
 11
100.411223
 21
148.777753
 31
0.0
  0
POLYLINE
  5
288
330
1F
100
AcDbEntity
  8
001
370
    50
100
AcDb2dPolyline
 66
     1
 10
0.0
 20
0.0
 30
0.0
  0
VERTEX
  5
28A
330
288
100
AcDbEntity
  8
001
370
    50
100
AcDbVertex
100
AcDb2dVertex
 10
124.711223
 20
100.887764
 30
0.0
  0
VERTEX
  5
28B
330
288
100
AcDbEntity
  8
001
370
    50
100
AcDbVertex
100
AcDb2dVertex
 10
124.693268
 20
100.525991
 30
0.0
  0
VERTEX
  5
28C
330
288
100
AcDbEntity
  8
001
370
    50
100
AcDbVertex
100
AcDb2dVertex
 10
124.658864
 20
100.16612
 30
0.0
  0
VERTEX
  5
28D
330
288
100
AcDbEntity
  8
001
370
    50
100
AcDbVertex
100
AcDb2dVertex
 10
124.583156
 20
99.758205
 30
0.0
  0
VERTEX
  5
28E
330
288
100
AcDbEntity
  8
001
370
    50
100
AcDbVertex
100
AcDb2dVertex
 10
124.470773
 20
99.357999
 30
0.0
  0
VERTEX
  5
28F
330
288
100
AcDbEntity
  8
001
370
    50
100
AcDbVertex
100
AcDb2dVertex
 10
124.327274
 20
98.968812
 30
0.0
  0
VERTEX
  5
290
330
288
100
AcDbEntity
  8
001
370
    50
100
AcDbVertex
100
AcDb2dVertex
 10
124.152783
 20
98.592942
 30
0.0
  0
VERTEX
  5
291
330
288
100
AcDbEntity
  8
001
370
    50
100
AcDbVertex
100
AcDb2dVertex
 10
123.947155
 20
98.233601
 30
0.0
  0
VERTEX
  5
292
330
288
100
AcDbEntity
  8
001
370
    50
100
AcDbVertex
100
AcDb2dVertex
 10
123.712102
 20
97.892538
 30
0.0
  0
VERTEX
  5
293
330
288
100
AcDbEntity
  8
001
370
    50
100
AcDbVertex
100
AcDb2dVertex
 10
123.45056
 20
97.572663
 30
0.0
  0
VERTEX
  5
294
330
288
100
AcDbEntity
  8
001
370
    50
100
AcDbVertex
100
AcDb2dVertex
 10
123.163457
 20
97.27569
 30
0.0
  0
VERTEX
  5
295
330
288
100
AcDbEntity
  8
001
370
    50
100
AcDbVertex
100
AcDb2dVertex
 10
122.8504
 20
97.002515
 30
0.0
  0
VERTEX
  5
296
330
288
100
AcDbEntity
  8
001
370
    50
100
AcDbVertex
100
AcDb2dVertex
 10
122.515486
 20
96.756415
 30
0.0
  0
VERTEX
  5
297
330
288
100
AcDbEntity
  8
001
370
    50
100
AcDbVertex
100
AcDb2dVertex
 10
122.162194
 20
96.539268
 30
0.0
  0
VERTEX
  5
298
330
288
100
AcDbEntity
  8
001
370
    50
100
AcDbVertex
100
AcDb2dVertex
 10
121.792071
 20
96.35263
 30
0.0
  0
VERTEX
  5
299
330
288
100
AcDbEntity
  8
001
370
    50
100
AcDbVertex
100
AcDb2dVertex
 10
121.403677
 20
96.196993
 30
0.0
  0
VERTEX
  5
29A
330
288
100
AcDbEntity
  8
001
370
    50
100
AcDbVertex
100
AcDb2dVertex
 10
121.003384
 20
96.074036
 30
0.0
  0
VERTEX
  5
29B
330
288
100
AcDbEntity
  8
001
370
    50
100
AcDbVertex
100
AcDb2dVertex
 10
120.594705
 20
95.984079
 30
0.0
  0
VERTEX
  5
29C
330
288
100
AcDbEntity
  8
001
370
    50
100
AcDbVertex
100
AcDb2dVertex
 10
120.180218
 20
95.931296
 30
0.0
  0
VERTEX
  5
29D
330
288
100
AcDbEntity
  8
001
370
    50
100
AcDbVertex
100
AcDb2dVertex
 10
119.945938
 20
95.918686
 30
0.0
  0
VERTEX
  5
29E
330
288
100
AcDbEntity
  8
001
370
    50
100
AcDbVertex
100
AcDb2dVertex
 10
119.711223
 20
95.91279
 30
0.0
  0
SEQEND
  5
289
330
288
100
AcDbEntity
  8
001
370
    50
  0
LINE
  5
29F
330
1F
100
AcDbEntity
  8
001
  6
DASHED
370
    50
100
AcDbLine
 10
101.911223
 20
112.484562
 30
0.0
 11
101.907574
 21
112.484562
 31
0.0
  0
ARC
  5
2A0
330
1F
100
AcDbEntity
  8
001
370
    50
100
AcDbCircle
 10
119.711223
 20
100.884562
 30
0.0
 40
5.000000000000001
100
AcDbArc
 50
270.0
 51
0.0
  0
LINE
  5
2A1
330
1F
100
AcDbEntity
  8
001
370
    50
100
AcDbLine
 10
124.711223
 20
103.48816
 30
0.0
 11
124.711223
 21
100.884562
 31
0.0
  0
LINE
  5
2A2
330
1F
100
AcDbEntity
  8
001
  6
DASHED
370
    50
100
AcDbLine
 10
100.411223
 20
126.138089
 30
0.0
 11
100.411223
 21
126.135504
 31
0.0
  0
LINE
  5
2A3
330
1F
100
AcDbEntity
  8
001
  6
CENTER
370
     9
100
AcDbLine
 10
208.868706
 20
124.484562
 30
0.0
 11
96.681547
 21
124.484562
 31
0.0
  0
LINE
  5
2A4
330
1F
100
AcDbEntity
  8
001
370
    50
100
AcDbLine
 10
124.711223
 20
108.169897
 30
0.0
 11
124.711223
 21
107.218464
 31
0.0
  0
LINE
  5
2A5
330
1F
100
AcDbEntity
  8
001
370
    50
100
AcDbLine
 10
100.411223
 20
112.484562
 30
0.0
 11
115.592286
 21
112.484562
 31
0.0
  0
LINE
  5
2A6
330
1F
100
AcDbEntity
  8
001
370
    50
100
AcDbLine
 10
101.467555
 20
136.484562
 30
0.0
 11
100.411223
 21
136.484562
 31
0.0
  0
LINE
  5
2A7
330
1F
100
AcDbEntity
  8
001
370
    50
100
AcDbLine
 10
124.711223
 20
148.084562
 30
0.0
 11
124.711223
 21
136.437882
 31
0.0
  0
LINE
  5
2A8
330
1F
100
AcDbEntity
  8
001
370
    50
100
AcDbLine
 10
100.411223
 20
126.309562
 30
0.0
 11
100.411223
 21
112.484562
 31
0.0
  0
LINE
  5
2A9
330
1F
100
AcDbEntity
  8
001
370
    50
100
AcDbLine
 10
132.711223
 20
108.484562
 30
0.0
 11
132.711223
 21
140.484562
 31
0.0
  0
LINE
  5
2AA
330
1F
100
AcDbEntity
  8
001
370
    50
100
AcDbLine
 10
132.711223
 20
139.984562
 30
0.0
 11
129.711223
 21
139.984562
 31
0.0
  0
LINE
  5
2AB
330
1F
100
AcDbEntity
  8
001
370
    50
100
AcDbLine
 10
129.711223
 20
108.984562
 30
0.0
 11
132.711223
 21
108.984562
 31
0.0
  0
LINE
  5
2AC
330
1F
100
AcDbEntity
  8
001
370
    50
100
AcDbLine
 10
198.711223
 20
140.484562
 30
0.0
 11
132.711223
 21
140.484562
 31
0.0
  0
LINE
  5
2AD
330
1F
100
AcDbEntity
  8
001
370
    50
100
AcDbLine
 10
198.711223
 20
108.484562
 30
0.0
 11
132.711223
 21
108.484562
 31
0.0
  0
LINE
  5
2AE
330
1F
100
AcDbEntity
  8
001
370
    50
100
AcDbLine
 10
204.711223
 20
124.484562
 30
0.0
 11
208.175324
 21
126.484562
 31
0.0
  0
LINE
  5
2AF
330
1F
100
AcDbEntity
  8
001
370
    50
100
AcDbLine
 10
204.711223
 20
124.484562
 30
0.0
 11
208.175324
 21
122.484562
 31
0.0
  0
ARC
  5
2B0
330
1F
100
AcDbEntity
  8
001
370
    50
100
AcDbCircle
 10
198.711223
 20
134.484562
 30
0.0
 40
6.0
100
AcDbArc
 50
0.0
 51
90.0
  0
ARC
  5
2B1
330
1F
100
AcDbEntity
  8
001
370
    50
100
AcDbCircle
 10
198.711223
 20
114.484562
 30
0.0
 40
6.0
100
AcDbArc
 50
270.0
 51
0.0
  0
LINE
  5
2B2
330
1F
100
AcDbEntity
  8
001
370
    50
100
AcDbLine
 10
100.40649
 20
103.695998
 30
0.0
 11
99.712833
 21
95.074661
 31
0.0
  0
CIRCLE
  5
2B3
330
1F
100
AcDbEntity
  8
001
370
    50
100
AcDbCircle
 10
108.020105
 20
99.351683
 30
0.0
 40
3.0
  0
LINE
  5
2B4
330
1F
100
AcDbEntity
  8
001
370
    50
100
AcDbLine
 10
115.406298
 20
95.005779
 30
0.0
 11
116.099954
 21
103.627117
 31
0.0
  0
LINE
  5
2B5
330
1F
100
AcDbEntity
  8
001
370
    50
100
AcDbLine
 10
115.598074
 20
104.167204
 30
0.0
 11
100.802409
 21
104.063909
 31
0.0
  0
CIRCLE
  5
2B6
330
1F
100
AcDbEntity
  8
001
370
    50
100
AcDbCircle
 10
108.025092
 20
99.364948
 30
0.0
 40
2.5
  0
LINE
  5
2B7
330
1F
100
AcDbEntity
  8
001
370
    50
100
AcDbLine
 10
108.604662
 20
100.363664
 30
0.0
 11
108.288341
 21
100.914368
 31
0.0
  0
LINE
  5
2B8
330
1F
100
AcDbEntity
  8
001
370
    50
100
AcDbLine
 10
107.449964
 20
100.366228
 30
0.0
 11
107.768727
 21
100.915521
 31
0.0
  0
ARC
  5
2B9
330
1F
100
AcDbEntity
  8
001
370
    50
100
AcDbCircle
 10
108.028201
 20
100.764945
 30
0.0
 40
0.3
100
AcDbArc
 50
29.872778
 51
149.872778
  0
LINE
  5
2BA
330
1F
100
AcDbEntity
  8
001
370
    50
100
AcDbLine
 10
107.449964
 20
100.366228
 30
0.0
 11
106.81488
 21
100.367638
 31
0.0
  0
LINE
  5
2BB
330
1F
100
AcDbEntity
  8
001
370
    50
100
AcDbLine
 10
106.870395
 20
99.367512
 30
0.0
 11
106.554074
 21
99.918216
 31
0.0
  0
ARC
  5
2BC
330
1F
100
AcDbEntity
  8
001
370
    50
100
AcDbCircle
 10
106.814214
 20
100.067639
 30
0.0
 40
0.3
100
AcDbArc
 50
89.872778
 51
209.872778
  0
LINE
  5
2BD
330
1F
100
AcDbEntity
  8
001
370
    50
100
AcDbLine
 10
106.870395
 20
99.367512
 30
0.0
 11
106.551632
 21
98.818219
 31
0.0
  0
LINE
  5
2BE
330
1F
100
AcDbEntity
  8
001
370
    50
100
AcDbLine
 10
107.445523
 20
98.366233
 30
0.0
 11
106.810439
 21
98.367643
 31
0.0
  0
ARC
  5
2BF
330
1F
100
AcDbEntity
  8
001
370
    50
100
AcDbCircle
 10
106.811106
 20
98.667642
 30
0.0
 40
0.3
100
AcDbArc
 50
149.872778
 51
269.872778
  0
LINE
  5
2C0
330
1F
100
AcDbEntity
  8
001
370
    50
100
AcDbLine
 10
107.445523
 20
98.366233
 30
0.0
 11
107.761844
 21
97.815529
 31
0.0
  0
LINE
  5
2C1
330
1F
100
AcDbEntity
  8
001
370
    50
100
AcDbLine
 10
108.600221
 20
98.363669
 30
0.0
 11
108.281458
 21
97.814375
 31
0.0
  0
ARC
  5
2C2
330
1F
100
AcDbEntity
  8
001
370
    50
100
AcDbCircle
 10
108.021984
 20
97.964952
 30
0.0
 40
0.3
100
AcDbArc
 50
209.872778
 51
329.872778
  0
LINE
  5
2C3
330
1F
100
AcDbEntity
  8
001
370
    50
100
AcDbLine
 10
108.600221
 20
98.363669
 30
0.0
 11
109.235305
 21
98.362259
 31
0.0
  0
LINE
  5
2C4
330
1F
100
AcDbEntity
  8
001
370
    50
100
AcDbLine
 10
109.17979
 20
99.362384
 30
0.0
 11
109.496111
 21
98.811681
 31
0.0
  0
ARC
  5
2C5
330
1F
100
AcDbEntity
  8
001
370
    50
100
AcDbCircle
 10
109.235971
 20
98.662258
 30
0.0
 40
0.3
100
AcDbArc
 50
269.872778
 51
29.872778
  0
LINE
  5
2C6
330
1F
100
AcDbEntity
  8
001
370
    50
100
AcDbLine
 10
109.17979
 20
99.362384
 30
0.0
 11
109.498553
 21
99.911678
 31
0.0
  0
LINE
  5
2C7
330
1F
100
AcDbEntity
  8
001
370
    50
100
AcDbLine
 10
108.604662
 20
100.363664
 30
0.0
 11
109.239745
 21
100.362254
 31
0.0
  0
ARC
  5
2C8
330
1F
100
AcDbEntity
  8
001
370
    50
100
AcDbCircle
 10
109.239079
 20
100.062254
 30
0.0
 40
0.3
100
AcDbArc
 50
329.872778
 51
89.872778
  0
ARC
  5
2C9
330
1F
100
AcDbEntity
  8
001
370
    50
100
AcDbCircle
 10
100.211223
 20
95.034562
 30
0.0
 40
0.5
100
AcDbArc
 50
175.4
 51
270.4
  0
LINE
  5
2CA
330
1F
100
AcDbEntity
  8
001
370
    50
100
AcDbLine
 10
115.010378
 20
94.637869
 30
0.0
 11
100.214713
 21
94.534574
 31
0.0
  0
ARC
  5
2CB
330
1F
100
AcDbEntity
  8
001
370
    50
100
AcDbCircle
 10
115.601564
 20
103.667216
 30
0.0
 40
0.5
100
AcDbArc
 50
355.4
 51
90.4
  0
ARC
  5
2CC
330
1F
100
AcDbEntity
  8
001
370
    50
100
AcDbCircle
 10
114.365346
 20
102.413615
 30
0.0
 40
3.0
100
AcDbArc
 50
298.349498
 51
144.83356
  0
ARC
  5
2CD
330
1F
100
AcDbEntity
  8
001
370
    50
100
AcDbCircle
 10
100.805201
 20
103.663919
 30
0.0
 40
0.4
100
AcDbArc
 50
90.4
 51
175.4
  0
ARC
  5
2CE
330
1F
100
AcDbEntity
  8
001
370
    50
100
AcDbCircle
 10
115.007586
 20
95.037859
 30
0.0
 40
0.4
100
AcDbArc
 50
270.4
 51
355.4
  0
POLYLINE
  5
2CF
330
1F
100
AcDbEntity
  8
001
370
    50
100
AcDb2dPolyline
 66
     1
 10
0.0
 20
0.0
 30
0.0
  0
VERTEX
  5
2D1
330
2CF
100
AcDbEntity
  8
001
370
    50
100
AcDbVertex
100
AcDb2dVertex
 10
115.482727
 20
95.955705
 30
0.0
  0
VERTEX
  5
2D2
330
2CF
100
AcDbEntity
  8
001
370
    50
100
AcDbVertex
100
AcDb2dVertex
 10
116.357563
 20
95.945278
 30
0.0
  0
VERTEX
  5
2D3
330
2CF
100
AcDbEntity
  8
001
370
    50
100
AcDbVertex
100
AcDb2dVertex
 10
117.547388
 20
95.932308
 30
0.0
  0
VERTEX
  5
2D4
330
2CF
100
AcDbEntity
  8
001
370
    50
100
AcDbVertex
100
AcDb2dVertex
 10
118.83216
 20
95.92016
 30
0.0
  0
VERTEX
  5
2D5
330
2CF
100
AcDbEntity
  8
001
370
    50
100
AcDbVertex
100
AcDb2dVertex
 10
119.711223
 20
95.91279
 30
0.0
  0
SEQEND
  5
2D0
330
2CF
100
AcDbEntity
  8
001
370
    50
  0
LINE
  5
2D6
330
1F
100
AcDbEntity
  8
001
370
    50
100
AcDbLine
 10
115.477003
 20
95.884562
 30
0.0
 11
119.711223
 21
95.884562
 31
0.0
  0
POLYLINE
  5
2D7
330
1F
100
AcDbEntity
  8
001
370
    50
100
AcDb2dPolyline
 66
     1
 10
0.0
 20
0.0
 30
0.0
  0
VERTEX
  5
2D9
330
2D7
100
AcDbEntity
  8
001
370
    50
100
AcDbVertex
100
AcDb2dVertex
 10
101.467592
 20
112.484362
 30
0.0
  0
VERTEX
  5
2DA
330
2D7
100
AcDbEntity
  8
001
370
    50
100
AcDbVertex
100
AcDb2dVertex
 10
101.238925
 20
109.618203
 30
0.0
  0
VERTEX
  5
2DB
330
2D7
100
AcDbEntity
  8
001
370
    50
100
AcDbVertex
100
AcDb2dVertex
 10
101.00094
 20
106.752835
 30
0.0
  0
VERTEX
  5
2DC
330
2D7
100
AcDbEntity
  8
001
370
    50
100
AcDbVertex
100
AcDb2dVertex
 10
100.899209
 20
105.584201
 30
0.0
  0
VERTEX
  5
2DD
330
2D7
100
AcDbEntity
  8
001
370
    50
100
AcDbVertex
100
AcDb2dVertex
 10
100.79487
 20
104.41579
 30
0.0
  0
VERTEX
  5
2DE
330
2D7
100
AcDbEntity
  8
001
370
    50
100
AcDbVertex
100
AcDb2dVertex
 10
100.778973
 20
104.239712
 30
0.0
  0
VERTEX
  5
2DF
330
2D7
100
AcDbEntity
  8
001
370
    50
100
AcDbVertex
100
AcDb2dVertex
 10
100.763076
 20
104.063634
 30
0.0
  0
SEQEND
  5
2D8
330
2D7
100
AcDbEntity
  8
001
370
    50
  0
LINE
  5
2E0
330
1F
100
AcDbEntity
  8
001
370
    50
100
AcDbLine
 10
101.052772
 20
104.065657
 30
0.0
 11
101.907574
 21
112.484562
 31
0.0
  0
LINE
  5
2E1
330
1F
100
AcDbEntity
  8
001
  6
DASHED
370
    30
100
AcDbLine
 10
101.10521
 20
104.066023
 30
0.0
 11
102.200243
 21
114.484562
 31
0.0
  0
LINE
  5
2E2
330
1F
100
AcDbEntity
  8
001
370
    50
100
AcDbLine
 10
100.40649
 20
145.273125
 30
0.0
 11
99.712833
 21
153.894462
 31
0.0
  0
ARC
  5
2E3
330
1F
100
AcDbEntity
  8
001
370
    50
100
AcDbCircle
 10
100.211223
 20
153.934562
 30
0.0
 40
0.5
100
AcDbArc
 50
89.6
 51
184.6
  0
LINE
  5
2E4
330
1F
100
AcDbEntity
  8
001
370
    50
100
AcDbLine
 10
115.010378
 20
154.331255
 30
0.0
 11
100.214713
 21
154.434549
 31
0.0
  0
ARC
  5
2E5
330
1F
100
AcDbEntity
  8
001
370
    50
100
AcDbCircle
 10
115.007586
 20
153.931264
 30
0.0
 40
0.4
100
AcDbArc
 50
4.6
 51
89.6
  0
LINE
  5
2E6
330
1F
100
AcDbEntity
  8
001
370
    50
100
AcDbLine
 10
115.406298
 20
153.963344
 30
0.0
 11
115.477003
 21
153.084562
 31
0.0
  0
ARC
  5
2E7
330
1F
100
AcDbEntity
  8
001
370
    50
100
AcDbCircle
 10
100.805201
 20
145.305205
 30
0.0
 40
0.4
100
AcDbArc
 50
184.6
 51
263.661054
  0
LINE
  5
2E8
330
1F
100
AcDbEntity
  8
001
370
     9
100
AcDbLine
 10
99.711223
 20
95.034562
 30
0.0
 11
99.711223
 21
90.287447
 31
0.0
  0
LINE
  5
2E9
330
1F
100
AcDbEntity
  8
001
370
     9
100
AcDbLine
 10
100.211223
 20
94.534562
 30
0.0
 11
95.442239
 21
94.534562
 31
0.0
  0
POLYLINE
  5
2EA
330
1F
100
AcDbEntity
  8
001
370
    50
100
AcDb2dPolyline
 66
     1
 10
0.0
 20
0.0
 30
0.0
  0
VERTEX
  5
2EC
330
2EA
100
AcDbEntity
  8
001
370
    50
100
AcDbVertex
100
AcDb2dVertex
 10
115.592286
 20
303.90291
 30
0.0
  0
VERTEX
  5
2ED
330
2EA
100
AcDbEntity
  8
001
370
    50
100
AcDbVertex
100
AcDb2dVertex
 10
116.107467
 20
303.891238
 30
0.0
  0
VERTEX
  5
2EE
330
2EA
100
AcDbEntity
  8
001
370
    50
100
AcDbVertex
100
AcDb2dVertex
 10
116.62202
 20
303.868403
 30
0.0
  0
VERTEX
  5
2EF
330
2EA
100
AcDbEntity
  8
001
370
    50
100
AcDbVertex
100
AcDb2dVertex
 10
117.137716
 20
303.825457
 30
0.0
  0
VERTEX
  5
2F0
330
2EA
100
AcDbEntity
  8
001
370
    50
100
AcDbVertex
100
AcDb2dVertex
 10
117.651754
 20
303.763619
 30
0.0
  0
VERTEX
  5
2F1
330
2EA
100
AcDbEntity
  8
001
370
    50
100
AcDbVertex
100
AcDb2dVertex
 10
118.171629
 20
303.683905
 30
0.0
  0
VERTEX
  5
2F2
330
2EA
100
AcDbEntity
  8
001
370
    50
100
AcDbVertex
100
AcDb2dVertex
 10
118.687802
 20
303.584452
 30
0.0
  0
VERTEX
  5
2F3
330
2EA
100
AcDbEntity
  8
001
370
    50
100
AcDbVertex
100
AcDb2dVertex
 10
119.200842
 20
303.463529
 30
0.0
  0
VERTEX
  5
2F4
330
2EA
100
AcDbEntity
  8
001
370
    50
100
AcDbVertex
100
AcDb2dVertex
 10
119.711223
 20
303.330667
 30
0.0
  0
SEQEND
  5
2EB
330
2EA
100
AcDbEntity
  8
001
370
    50
  0
POLYLINE
  5
2F5
330
1F
100
AcDbEntity
  8
001
370
    50
100
AcDb2dPolyline
 66
     1
 10
0.0
 20
0.0
 30
0.0
  0
VERTEX
  5
2F7
330
2F5
100
AcDbEntity
  8
001
370
    50
100
AcDbVertex
100
AcDb2dVertex
 10
119.711223
 20
303.330667
 30
0.0
  0
VERTEX
  5
2F8
330
2F5
100
AcDbEntity
  8
001
370
    50
100
AcDbVertex
100
AcDb2dVertex
 10
120.087108
 20
303.213666
 30
0.0
  0
VERTEX
  5
2F9
330
2F5
100
AcDbEntity
  8
001
370
    50
100
AcDbVertex
100
AcDb2dVertex
 10
120.460341
 20
303.088898
 30
0.0
  0
VERTEX
  5
2FA
330
2F5
100
AcDbEntity
  8
001
370
    50
100
AcDbVertex
100
AcDb2dVertex
 10
120.809329
 20
302.957848
 30
0.0
  0
VERTEX
  5
2FB
330
2F5
100
AcDbEntity
  8
001
370
    50
100
AcDbVertex
100
AcDb2dVertex
 10
121.153392
 20
302.814153
 30
0.0
  0
VERTEX
  5
2FC
330
2F5
100
AcDbEntity
  8
001
370
    50
100
AcDbVertex
100
AcDb2dVertex
 10
121.411979
 20
302.696881
 30
0.0
  0
VERTEX
  5
2FD
330
2F5
100
AcDbEntity
  8
001
370
    50
100
AcDbVertex
100
AcDb2dVertex
 10
121.667279
 20
302.572688
 30
0.0
  0
VERTEX
  5
2FE
330
2F5
100
AcDbEntity
  8
001
370
    50
100
AcDbVertex
100
AcDb2dVertex
 10
121.902806
 20
302.450002
 30
0.0
  0
VERTEX
  5
2FF
330
2F5
100
AcDbEntity
  8
001
370
    50
100
AcDbVertex
100
AcDb2dVertex
 10
122.134889
 20
302.32091
 30
0.0
  0
VERTEX
  5
300
330
2F5
100
AcDbEntity
  8
001
370
    50
100
AcDbVertex
100
AcDb2dVertex
 10
122.34625
 20
302.195725
 30
0.0
  0
VERTEX
  5
301
330
2F5
100
AcDbEntity
  8
001
370
    50
100
AcDbVertex
100
AcDb2dVertex
 10
122.55414
 20
302.064854
 30
0.0
  0
VERTEX
  5
302
330
2F5
100
AcDbEntity
  8
001
370
    50
100
AcDbVertex
100
AcDb2dVertex
 10
122.826534
 20
301.880472
 30
0.0
  0
VERTEX
  5
303
330
2F5
100
AcDbEntity
  8
001
370
    50
100
AcDbVertex
100
AcDb2dVertex
 10
123.091373
 20
301.68535
 30
0.0
  0
VERTEX
  5
304
330
2F5
100
AcDbEntity
  8
001
370
    50
100
AcDbVertex
100
AcDb2dVertex
 10
123.319393
 20
301.502914
 30
0.0
  0
VERTEX
  5
305
330
2F5
100
AcDbEntity
  8
001
370
    50
100
AcDbVertex
100
AcDb2dVertex
 10
123.539815
 20
301.311474
 30
0.0
  0
VERTEX
  5
306
330
2F5
100
AcDbEntity
  8
001
370
    50
100
AcDbVertex
100
AcDb2dVertex
 10
123.726216
 20
301.135822
 30
0.0
  0
VERTEX
  5
307
330
2F5
100
AcDbEntity
  8
001
370
    50
100
AcDbVertex
100
AcDb2dVertex
 10
123.90557
 20
300.952773
 30
0.0
  0
VERTEX
  5
308
330
2F5
100
AcDbEntity
  8
001
370
    50
100
AcDbVertex
100
AcDb2dVertex
 10
124.110274
 20
300.722893
 30
0.0
  0
VERTEX
  5
309
330
2F5
100
AcDbEntity
  8
001
370
    50
100
AcDbVertex
100
AcDb2dVertex
 10
124.29966
 20
300.480877
 30
0.0
  0
VERTEX
  5
30A
330
2F5
100
AcDbEntity
  8
001
370
    50
100
AcDbVertex
100
AcDb2dVertex
 10
124.436791
 20
300.278327
 30
0.0
  0
VERTEX
  5
30B
330
2F5
100
AcDbEntity
  8
001
370
    50
100
AcDbVertex
100
AcDb2dVertex
 10
124.560094
 20
300.065746
 30
0.0
  0
VERTEX
  5
30C
330
2F5
100
AcDbEntity
  8
001
370
    50
100
AcDbVertex
100
AcDb2dVertex
 10
124.638856
 20
299.901134
 30
0.0
  0
VERTEX
  5
30D
330
2F5
100
AcDbEntity
  8
001
370
    50
100
AcDbVertex
100
AcDb2dVertex
 10
124.692347
 20
299.728621
 30
0.0
  0
VERTEX
  5
30E
330
2F5
100
AcDbEntity
  8
001
370
    50
100
AcDbVertex
100
AcDb2dVertex
 10
124.703404
 20
299.658795
 30
0.0
  0
VERTEX
  5
30F
330
2F5
100
AcDbEntity
  8
001
370
    50
100
AcDbVertex
100
AcDb2dVertex
 10
124.711223
 20
299.588245
 30
0.0
  0
SEQEND
  5
2F6
330
2F5
100
AcDbEntity
  8
001
370
    50
  0
LINE
  5
310
330
1F
100
AcDbEntity
  8
001
  6
DASHED
370
    30
100
AcDbLine
 10
102.200243
 20
325.90291
 30
0.0
 11
102.200243
 21
305.90291
 31
0.0
  0
LINE
  5
311
330
1F
100
AcDbEntity
  8
001
  6
DASHED
370
    30
100
AcDbLine
 10
102.200243
 20
325.90291
 30
0.0
 11
100.41944
 21
342.846117
 31
0.0
  0
LINE
  5
312
330
1F
100
AcDbEntity
  8
001
  6
DASHED
370
    50
100
AcDbLine
 10
100.41944
 20
317.554052
 30
0.0
 11
100.41944
 21
317.555489
 31
0.0
  0
POLYLINE
  5
313
330
1F
100
AcDbEntity
  8
001
370
    50
100
AcDb2dPolyline
 66
     1
 10
0.0
 20
0.0
 30
0.0
  0
VERTEX
  5
315
330
313
100
AcDbEntity
  8
001
370
    50
100
AcDbVertex
100
AcDb2dVertex
 10
124.711223
 20
298.636812
 30
0.0
  0
VERTEX
  5
316
330
313
100
AcDbEntity
  8
001
370
    50
100
AcDbVertex
100
AcDb2dVertex
 10
124.711268
 20
298.628159
 30
0.0
  0
VERTEX
  5
317
330
313
100
AcDbEntity
  8
001
370
    50
100
AcDbVertex
100
AcDb2dVertex
 10
124.711336
 20
298.619506
 30
0.0
  0
VERTEX
  5
318
330
313
100
AcDbEntity
  8
001
370
    50
100
AcDbVertex
100
AcDb2dVertex
 10
124.72009
 20
298.450737
 30
0.0
  0
VERTEX
  5
319
330
313
100
AcDbEntity
  8
001
370
    50
100
AcDbVertex
100
AcDb2dVertex
 10
124.738347
 20
298.282508
 30
0.0
  0
VERTEX
  5
31A
330
313
100
AcDbEntity
  8
001
370
    50
100
AcDbVertex
100
AcDb2dVertex
 10
124.763258
 20
298.089874
 30
0.0
  0
VERTEX
  5
31B
330
313
100
AcDbEntity
  8
001
370
    50
100
AcDbVertex
100
AcDb2dVertex
 10
124.788626
 20
297.897401
 30
0.0
  0
VERTEX
  5
31C
330
313
100
AcDbEntity
  8
001
370
    50
100
AcDbVertex
100
AcDb2dVertex
 10
124.833785
 20
297.492091
 30
0.0
  0
VERTEX
  5
31D
330
313
100
AcDbEntity
  8
001
370
    50
100
AcDbVertex
100
AcDb2dVertex
 10
124.860125
 20
297.085176
 30
0.0
  0
VERTEX
  5
31E
330
313
100
AcDbEntity
  8
001
370
    50
100
AcDbVertex
100
AcDb2dVertex
 10
124.861492
 20
296.691588
 30
0.0
  0
VERTEX
  5
31F
330
313
100
AcDbEntity
  8
001
370
    50
100
AcDbVertex
100
AcDb2dVertex
 10
124.839968
 20
296.298552
 30
0.0
  0
VERTEX
  5
320
330
313
100
AcDbEntity
  8
001
370
    50
100
AcDbVertex
100
AcDb2dVertex
 10
124.799734
 20
295.910591
 30
0.0
  0
VERTEX
  5
321
330
313
100
AcDbEntity
  8
001
370
    50
100
AcDbVertex
100
AcDb2dVertex
 10
124.749464
 20
295.523697
 30
0.0
  0
SEQEND
  5
314
330
313
100
AcDbEntity
  8
001
370
    50
  0
POLYLINE
  5
322
330
1F
100
AcDbEntity
  8
001
370
    50
100
AcDb2dPolyline
 66
     1
 10
0.0
 20
0.0
 30
0.0
  0
VERTEX
  5
324
330
322
100
AcDbEntity
  8
001
370
    50
100
AcDbVertex
100
AcDb2dVertex
 10
124.749464
 20
295.523697
 30
0.0
  0
VERTEX
  5
325
330
322
100
AcDbEntity
  8
001
370
    50
100
AcDbVertex
100
AcDb2dVertex
 10
124.184718
 20
296.543817
 30
0.0
  0
VERTEX
  5
326
330
322
100
AcDbEntity
  8
001
370
    50
100
AcDbVertex
100
AcDb2dVertex
 10
123.31852
 20
297.893911
 30
0.0
  0
VERTEX
  5
327
330
322
100
AcDbEntity
  8
001
370
    50
100
AcDbVertex
100
AcDb2dVertex
 10
122.420995
 20
299.019973
 30
0.0
  0
VERTEX
  5
328
330
322
100
AcDbEntity
  8
001
370
    50
100
AcDbVertex
100
AcDb2dVertex
 10
121.481389
 20
299.955268
 30
0.0
  0
VERTEX
  5
329
330
322
100
AcDbEntity
  8
001
370
    50
100
AcDbVertex
100
AcDb2dVertex
 10
120.441498
 20
300.832803
 30
0.0
  0
VERTEX
  5
32A
330
322
100
AcDbEntity
  8
001
370
    50
100
AcDbVertex
100
AcDb2dVertex
 10
119.301178
 20
301.636955
 30
0.0
  0
VERTEX
  5
32B
330
322
100
AcDbEntity
  8
001
370
    50
100
AcDbVertex
100
AcDb2dVertex
 10
118.088588
 20
302.320159
 30
0.0
  0
VERTEX
  5
32C
330
322
100
AcDbEntity
  8
001
370
    50
100
AcDbVertex
100
AcDb2dVertex
 10
116.852782
 20
302.881203
 30
0.0
  0
VERTEX
  5
32D
330
322
100
AcDbEntity
  8
001
370
    50
100
AcDbVertex
100
AcDb2dVertex
 10
115.613398
 20
303.324119
 30
0.0
  0
VERTEX
  5
32E
330
322
100
AcDbEntity
  8
001
370
    50
100
AcDbVertex
100
AcDb2dVertex
 10
114.220308
 20
303.64527
 30
0.0
  0
VERTEX
  5
32F
330
322
100
AcDbEntity
  8
001
370
    50
100
AcDbVertex
100
AcDb2dVertex
 10
112.645555
 20
303.838488
 30
0.0
  0
VERTEX
  5
330
330
322
100
AcDbEntity
  8
001
370
    50
100
AcDbVertex
100
AcDb2dVertex
 10
111.494186
 20
303.90291
 30
0.0
  0
SEQEND
  5
323
330
322
100
AcDbEntity
  8
001
370
    50
  0
LINE
  5
331
330
1F
100
AcDbEntity
  8
001
370
    50
100
AcDbLine
 10
129.711223
 20
331.90291
 30
0.0
 11
129.711223
 21
299.90291
 31
0.0
  0
ARC
  5
332
330
1F
100
AcDbEntity
  8
001
370
    50
100
AcDbCircle
 10
129.711223
 20
336.90291
 30
0.0
 40
5.000000000000001
100
AcDbArc
 50
180.0
 51
270.0
  0
ARC
  5
333
330
1F
100
AcDbEntity
  8
001
370
    50
100
AcDbCircle
 10
129.711223
 20
294.90291
 30
0.0
 40
5.000000000000001
100
AcDbArc
 50
90.0
 51
180.0
  0
POLYLINE
  5
334
330
1F
100
AcDbEntity
  8
001
370
    50
100
AcDb2dPolyline
 66
     1
 10
0.0
 20
0.0
 30
0.0
  0
VERTEX
  5
336
330
334
100
AcDbEntity
  8
001
370
    50
100
AcDbVertex
100
AcDb2dVertex
 10
115.592286
 20
341.863649
 30
0.0
  0
VERTEX
  5
337
330
334
100
AcDbEntity
  8
001
370
    50
100
AcDbVertex
100
AcDb2dVertex
 10
116.107222
 20
341.858277
 30
0.0
  0
VERTEX
  5
338
330
334
100
AcDbEntity
  8
001
370
    50
100
AcDbVertex
100
AcDb2dVertex
 10
116.62202
 20
341.847671
 30
0.0
  0
VERTEX
  5
339
330
334
100
AcDbEntity
  8
001
370
    50
100
AcDbVertex
100
AcDb2dVertex
 10
117.137067
 20
341.827705
 30
0.0
  0
VERTEX
  5
33A
330
334
100
AcDbEntity
  8
001
370
    50
100
AcDbVertex
100
AcDb2dVertex
 10
117.651754
 20
341.798809
 30
0.0
  0
VERTEX
  5
33B
330
334
100
AcDbEntity
  8
001
370
    50
100
AcDbVertex
100
AcDb2dVertex
 10
118.170232
 20
341.761506
 30
0.0
  0
VERTEX
  5
33C
330
334
100
AcDbEntity
  8
001
370
    50
100
AcDbVertex
100
AcDb2dVertex
 10
118.687802
 20
341.714062
 30
0.0
  0
VERTEX
  5
33D
330
334
100
AcDbEntity
  8
001
370
    50
100
AcDbVertex
100
AcDb2dVertex
 10
119.199848
 20
341.655876
 30
0.0
  0
VERTEX
  5
33E
330
334
100
AcDbEntity
  8
001
370
    50
100
AcDbVertex
100
AcDb2dVertex
 10
119.711223
 20
341.591403
 30
0.0
  0
SEQEND
  5
335
330
334
100
AcDbEntity
  8
001
370
    50
  0
POLYLINE
  5
33F
330
1F
100
AcDbEntity
  8
001
370
    50
100
AcDb2dPolyline
 66
     1
 10
0.0
 20
0.0
 30
0.0
  0
VERTEX
  5
341
330
33F
100
AcDbEntity
  8
001
370
    50
100
AcDbVertex
100
AcDb2dVertex
 10
119.711223
 20
341.591403
 30
0.0
  0
VERTEX
  5
342
330
33F
100
AcDbEntity
  8
001
370
    50
100
AcDbVertex
100
AcDb2dVertex
 10
120.089197
 20
341.510874
 30
0.0
  0
VERTEX
  5
343
330
33F
100
AcDbEntity
  8
001
370
    50
100
AcDbVertex
100
AcDb2dVertex
 10
120.460341
 20
341.407969
 30
0.0
  0
VERTEX
  5
344
330
33F
100
AcDbEntity
  8
001
370
    50
100
AcDbVertex
100
AcDb2dVertex
 10
120.814203
 20
341.267692
 30
0.0
  0
VERTEX
  5
345
330
33F
100
AcDbEntity
  8
001
370
    50
100
AcDbVertex
100
AcDb2dVertex
 10
121.153392
 20
341.092879
 30
0.0
  0
VERTEX
  5
346
330
33F
100
AcDbEntity
  8
001
370
    50
100
AcDbVertex
100
AcDb2dVertex
 10
121.415813
 20
340.931922
 30
0.0
  0
VERTEX
  5
347
330
33F
100
AcDbEntity
  8
001
370
    50
100
AcDbVertex
100
AcDb2dVertex
 10
121.667279
 20
340.754904
 30
0.0
  0
VERTEX
  5
348
330
33F
100
AcDbEntity
  8
001
370
    50
100
AcDbVertex
100
AcDb2dVertex
 10
121.906839
 20
340.563033
 30
0.0
  0
VERTEX
  5
349
330
33F
100
AcDbEntity
  8
001
370
    50
100
AcDbVertex
100
AcDb2dVertex
 10
122.134889
 20
340.357466
 30
0.0
  0
VERTEX
  5
34A
330
33F
100
AcDbEntity
  8
001
370
    50
100
AcDbVertex
100
AcDb2dVertex
 10
122.350212
 20
340.141038
 30
0.0
  0
VERTEX
  5
34B
330
33F
100
AcDbEntity
  8
001
370
    50
100
AcDbVertex
100
AcDb2dVertex
 10
122.55414
 20
339.913859
 30
0.0
  0
VERTEX
  5
34C
330
33F
100
AcDbEntity
  8
001
370
    50
100
AcDbVertex
100
AcDb2dVertex
 10
122.834657
 20
339.561093
 30
0.0
  0
VERTEX
  5
34D
330
33F
100
AcDbEntity
  8
001
370
    50
100
AcDbVertex
100
AcDb2dVertex
 10
123.091373
 20
339.190493
 30
0.0
  0
VERTEX
  5
34E
330
33F
100
AcDbEntity
  8
001
370
    50
100
AcDbVertex
100
AcDb2dVertex
 10
123.326706
 20
338.802355
 30
0.0
  0
VERTEX
  5
34F
330
33F
100
AcDbEntity
  8
001
370
    50
100
AcDbVertex
100
AcDb2dVertex
 10
123.539815
 20
338.401637
 30
0.0
  0
VERTEX
  5
350
330
33F
100
AcDbEntity
  8
001
370
    50
100
AcDbVertex
100
AcDb2dVertex
 10
123.732657
 20
337.988606
 30
0.0
  0
VERTEX
  5
351
330
33F
100
AcDbEntity
  8
001
370
    50
100
AcDbVertex
100
AcDb2dVertex
 10
123.90557
 20
337.566783
 30
0.0
  0
VERTEX
  5
352
330
33F
100
AcDbEntity
  8
001
370
    50
100
AcDbVertex
100
AcDb2dVertex
 10
124.120773
 20
336.950615
 30
0.0
  0
VERTEX
  5
353
330
33F
100
AcDbEntity
  8
001
370
    50
100
AcDbVertex
100
AcDb2dVertex
 10
124.29966
 20
336.3229
 30
0.0
  0
VERTEX
  5
354
330
33F
100
AcDbEntity
  8
001
370
    50
100
AcDbVertex
100
AcDb2dVertex
 10
124.446437
 20
335.674744
 30
0.0
  0
VERTEX
  5
355
330
33F
100
AcDbEntity
  8
001
370
    50
100
AcDbVertex
100
AcDb2dVertex
 10
124.560094
 20
335.019849
 30
0.0
  0
VERTEX
  5
356
330
33F
100
AcDbEntity
  8
001
370
    50
100
AcDbVertex
100
AcDb2dVertex
 10
124.643322
 20
334.351522
 30
0.0
  0
VERTEX
  5
357
330
33F
100
AcDbEntity
  8
001
370
    50
100
AcDbVertex
100
AcDb2dVertex
 10
124.692347
 20
333.680096
 30
0.0
  0
VERTEX
  5
358
330
33F
100
AcDbEntity
  8
001
370
    50
100
AcDbVertex
100
AcDb2dVertex
 10
124.704485
 20
333.317912
 30
0.0
  0
VERTEX
  5
359
330
33F
100
AcDbEntity
  8
001
370
    50
100
AcDbVertex
100
AcDb2dVertex
 10
124.711223
 20
332.955526
 30
0.0
  0
SEQEND
  5
340
330
33F
100
AcDbEntity
  8
001
370
    50
  0
ARC
  5
35A
330
1F
100
AcDbEntity
  8
001
370
    50
100
AcDbCircle
 10
119.711223
 20
339.50291
 30
0.0
 40
5.000000000000001
100
AcDbArc
 50
0.0
 51
90.0
  0
LINE
  5
35B
330
1F
100
AcDbEntity
  8
001
370
    50
100
AcDbLine
 10
274.711223
 20
305.90291
 30
0.0
 11
274.711223
 21
325.90291
 31
0.0
  0
POLYLINE
  5
35C
330
1F
100
AcDbEntity
  8
001
370
    50
100
AcDb2dPolyline
 66
     1
 10
0.0
 20
0.0
 30
0.0
  0
VERTEX
  5
35E
330
35C
100
AcDbEntity
  8
001
370
    50
100
AcDbVertex
100
AcDb2dVertex
 10
114.426123
 20
344.50291
 30
0.0
  0
VERTEX
  5
35F
330
35C
100
AcDbEntity
  8
001
370
    50
100
AcDbVertex
100
AcDb2dVertex
 10
114.354331
 20
344.502442
 30
0.0
  0
VERTEX
  5
360
330
35C
100
AcDbEntity
  8
001
370
    50
100
AcDbVertex
100
AcDb2dVertex
 10
114.249428
 20
344.500409
 30
0.0
  0
VERTEX
  5
361
330
35C
100
AcDbEntity
  8
001
370
    50
100
AcDbVertex
100
AcDb2dVertex
 10
114.144835
 20
344.496502
 30
0.0
  0
VERTEX
  5
362
330
35C
100
AcDbEntity
  8
001
370
    50
100
AcDbVertex
100
AcDb2dVertex
 10
114.073306
 20
344.492905
 30
0.0
  0
SEQEND
  5
35D
330
35C
100
AcDbEntity
  8
001
370
    50
  0
LINE
  5
363
330
1F
100
AcDbEntity
  8
001
370
    50
100
AcDbLine
 10
109.783536
 20
344.50291
 30
0.0
 11
101.911223
 21
344.50291
 31
0.0
  0
LINE
  5
364
330
1F
100
AcDbEntity
  8
001
370
    50
100
AcDbLine
 10
119.711223
 20
344.50291
 30
0.0
 11
114.426123
 21
344.50291
 31
0.0
  0
LINE
  5
365
330
1F
100
AcDbEntity
  8
001
370
    50
100
AcDbLine
 10
101.911223
 20
341.863649
 30
0.0
 11
115.592286
 21
341.863649
 31
0.0
  0
POLYLINE
  5
366
330
1F
100
AcDbEntity
  8
001
370
    50
100
AcDb2dPolyline
 66
     1
 10
0.0
 20
0.0
 30
0.0
  0
VERTEX
  5
368
330
366
100
AcDbEntity
  8
001
370
    50
100
AcDbVertex
100
AcDb2dVertex
 10
114.073306
 20
344.492905
 30
0.0
  0
VERTEX
  5
369
330
366
100
AcDbEntity
  8
001
370
    50
100
AcDbVertex
100
AcDb2dVertex
 10
113.202024
 20
344.496501
 30
0.0
  0
VERTEX
  5
36A
330
366
100
AcDbEntity
  8
001
370
    50
100
AcDbVertex
100
AcDb2dVertex
 10
111.928608
 20
344.500409
 30
0.0
  0
VERTEX
  5
36B
330
366
100
AcDbEntity
  8
001
370
    50
100
AcDbVertex
100
AcDb2dVertex
 10
110.654972
 20
344.502441
 30
0.0
  0
VERTEX
  5
36C
330
366
100
AcDbEntity
  8
001
370
    50
100
AcDbVertex
100
AcDb2dVertex
 10
109.783536
 20
344.50291
 30
0.0
  0
SEQEND
  5
367
330
366
100
AcDbEntity
  8
001
370
    50
  0
LINE
  5
36D
330
1F
100
AcDbEntity
  8
001
370
    50
100
AcDbLine
 10
100.41944
 20
340.026268
 30
0.0
 11
100.411414
 21
340.17455
 31
0.0
  0
POLYLINE
  5
36E
330
1F
100
AcDbEntity
  8
001
370
    50
100
AcDb2dPolyline
 66
     1
 10
0.0
 20
0.0
 30
0.0
  0
VERTEX
  5
370
330
36E
100
AcDbEntity
  8
001
370
    50
100
AcDbVertex
100
AcDb2dVertex
 10
100.411414
 20
340.17455
 30
0.0
  0
VERTEX
  5
371
330
36E
100
AcDbEntity
  8
001
370
    50
100
AcDbVertex
100
AcDb2dVertex
 10
100.423464
 20
340.377881
 30
0.0
  0
VERTEX
  5
372
330
36E
100
AcDbEntity
  8
001
370
    50
100
AcDbVertex
100
AcDb2dVertex
 10
100.450046
 20
340.578853
 30
0.0
  0
VERTEX
  5
373
330
36E
100
AcDbEntity
  8
001
370
    50
100
AcDbVertex
100
AcDb2dVertex
 10
100.488085
 20
340.730783
 30
0.0
  0
VERTEX
  5
374
330
36E
100
AcDbEntity
  8
001
370
    50
100
AcDbVertex
100
AcDb2dVertex
 10
100.540661
 20
340.878779
 30
0.0
  0
VERTEX
  5
375
330
36E
100
AcDbEntity
  8
001
370
    50
100
AcDbVertex
100
AcDb2dVertex
 10
100.605546
 20
341.021582
 30
0.0
  0
VERTEX
  5
376
330
36E
100
AcDbEntity
  8
001
370
    50
100
AcDbVertex
100
AcDb2dVertex
 10
100.682844
 20
341.157807
 30
0.0
  0
VERTEX
  5
377
330
36E
100
AcDbEntity
  8
001
370
    50
100
AcDbVertex
100
AcDb2dVertex
 10
100.767694
 20
341.279234
 30
0.0
  0
VERTEX
  5
378
330
36E
100
AcDbEntity
  8
001
370
    50
100
AcDbVertex
100
AcDb2dVertex
 10
100.863374
 20
341.392477
 30
0.0
  0
VERTEX
  5
379
330
36E
100
AcDbEntity
  8
001
370
    50
100
AcDbVertex
100
AcDb2dVertex
 10
100.969024
 20
341.496398
 30
0.0
  0
VERTEX
  5
37A
330
36E
100
AcDbEntity
  8
001
370
    50
100
AcDbVertex
100
AcDb2dVertex
 10
101.084135
 20
341.589485
 30
0.0
  0
VERTEX
  5
37B
330
36E
100
AcDbEntity
  8
001
370
    50
100
AcDbVertex
100
AcDb2dVertex
 10
101.195467
 20
341.662908
 30
0.0
  0
VERTEX
  5
37C
330
36E
100
AcDbEntity
  8
001
370
    50
100
AcDbVertex
100
AcDb2dVertex
 10
101.313076
 20
341.726253
 30
0.0
  0
VERTEX
  5
37D
330
36E
100
AcDbEntity
  8
001
370
    50
100
AcDbVertex
100
AcDb2dVertex
 10
101.435927
 20
341.779042
 30
0.0
  0
VERTEX
  5
37E
330
36E
100
AcDbEntity
  8
001
370
    50
100
AcDbVertex
100
AcDb2dVertex
 10
101.563157
 20
341.818538
 30
0.0
  0
VERTEX
  5
37F
330
36E
100
AcDbEntity
  8
001
370
    50
100
AcDbVertex
100
AcDb2dVertex
 10
101.735681
 20
341.848304
 30
0.0
  0
VERTEX
  5
380
330
36E
100
AcDbEntity
  8
001
370
    50
100
AcDbVertex
100
AcDb2dVertex
 10
101.911223
 20
341.863649
 30
0.0
  0
SEQEND
  5
36F
330
36E
100
AcDbEntity
  8
001
370
    50
  0
ARC
  5
381
330
1F
100
AcDbEntity
  8
001
370
    50
100
AcDbCircle
 10
101.911223
 20
343.00291
 30
0.0
 40
1.499999999999998
100
AcDbArc
 50
90.0
 51
180.0
  0
ARC
  5
382
330
1F
100
AcDbEntity
  8
001
  6
DASHED
370
    30
100
AcDbCircle
 10
101.911223
 20
343.00291
 30
0.0
 40
1.499999999999998
100
AcDbArc
 50
180.0
 51
186.0
  0
LINE
  5
383
330
1F
100
AcDbEntity
  8
001
370
    50
100
AcDbLine
 10
100.411223
 20
343.00291
 30
0.0
 11
100.411223
 21
340.196101
 31
0.0
  0
POLYLINE
  5
384
330
1F
100
AcDbEntity
  8
001
370
    50
100
AcDb2dPolyline
 66
     1
 10
0.0
 20
0.0
 30
0.0
  0
VERTEX
  5
386
330
384
100
AcDbEntity
  8
001
370
    50
100
AcDbVertex
100
AcDb2dVertex
 10
124.711223
 20
292.306112
 30
0.0
  0
VERTEX
  5
387
330
384
100
AcDbEntity
  8
001
370
    50
100
AcDbVertex
100
AcDb2dVertex
 10
124.693268
 20
291.944339
 30
0.0
  0
VERTEX
  5
388
330
384
100
AcDbEntity
  8
001
370
    50
100
AcDbVertex
100
AcDb2dVertex
 10
124.658864
 20
291.584468
 30
0.0
  0
VERTEX
  5
389
330
384
100
AcDbEntity
  8
001
370
    50
100
AcDbVertex
100
AcDb2dVertex
 10
124.583156
 20
291.176553
 30
0.0
  0
VERTEX
  5
38A
330
384
100
AcDbEntity
  8
001
370
    50
100
AcDbVertex
100
AcDb2dVertex
 10
124.470773
 20
290.776347
 30
0.0
  0
VERTEX
  5
38B
330
384
100
AcDbEntity
  8
001
370
    50
100
AcDbVertex
100
AcDb2dVertex
 10
124.327274
 20
290.38716
 30
0.0
  0
VERTEX
  5
38C
330
384
100
AcDbEntity
  8
001
370
    50
100
AcDbVertex
100
AcDb2dVertex
 10
124.152783
 20
290.01129
 30
0.0
  0
VERTEX
  5
38D
330
384
100
AcDbEntity
  8
001
370
    50
100
AcDbVertex
100
AcDb2dVertex
 10
123.947155
 20
289.651949
 30
0.0
  0
VERTEX
  5
38E
330
384
100
AcDbEntity
  8
001
370
    50
100
AcDbVertex
100
AcDb2dVertex
 10
123.712102
 20
289.310886
 30
0.0
  0
VERTEX
  5
38F
330
384
100
AcDbEntity
  8
001
370
    50
100
AcDbVertex
100
AcDb2dVertex
 10
123.45056
 20
288.991011
 30
0.0
  0
VERTEX
  5
390
330
384
100
AcDbEntity
  8
001
370
    50
100
AcDbVertex
100
AcDb2dVertex
 10
123.163457
 20
288.694038
 30
0.0
  0
VERTEX
  5
391
330
384
100
AcDbEntity
  8
001
370
    50
100
AcDbVertex
100
AcDb2dVertex
 10
122.8504
 20
288.420863
 30
0.0
  0
VERTEX
  5
392
330
384
100
AcDbEntity
  8
001
370
    50
100
AcDbVertex
100
AcDb2dVertex
 10
122.515486
 20
288.174763
 30
0.0
  0
VERTEX
  5
393
330
384
100
AcDbEntity
  8
001
370
    50
100
AcDbVertex
100
AcDb2dVertex
 10
122.162194
 20
287.957616
 30
0.0
  0
VERTEX
  5
394
330
384
100
AcDbEntity
  8
001
370
    50
100
AcDbVertex
100
AcDb2dVertex
 10
121.792071
 20
287.770978
 30
0.0
  0
VERTEX
  5
395
330
384
100
AcDbEntity
  8
001
370
    50
100
AcDbVertex
100
AcDb2dVertex
 10
121.403677
 20
287.615341
 30
0.0
  0
VERTEX
  5
396
330
384
100
AcDbEntity
  8
001
370
    50
100
AcDbVertex
100
AcDb2dVertex
 10
121.003384
 20
287.492385
 30
0.0
  0
VERTEX
  5
397
330
384
100
AcDbEntity
  8
001
370
    50
100
AcDbVertex
100
AcDb2dVertex
 10
120.594705
 20
287.402427
 30
0.0
  0
VERTEX
  5
398
330
384
100
AcDbEntity
  8
001
370
    50
100
AcDbVertex
100
AcDb2dVertex
 10
120.180218
 20
287.349644
 30
0.0
  0
VERTEX
  5
399
330
384
100
AcDbEntity
  8
001
370
    50
100
AcDbVertex
100
AcDb2dVertex
 10
119.945938
 20
287.337034
 30
0.0
  0
VERTEX
  5
39A
330
384
100
AcDbEntity
  8
001
370
    50
100
AcDbVertex
100
AcDb2dVertex
 10
119.711223
 20
287.331138
 30
0.0
  0
SEQEND
  5
385
330
384
100
AcDbEntity
  8
001
370
    50
  0
LINE
  5
39B
330
1F
100
AcDbEntity
  8
001
  6
DASHED
370
    50
100
AcDbLine
 10
101.911223
 20
303.90291
 30
0.0
 11
101.907574
 21
303.90291
 31
0.0
  0
ARC
  5
39C
330
1F
100
AcDbEntity
  8
001
370
    50
100
AcDbCircle
 10
119.711223
 20
292.30291
 30
0.0
 40
5.000000000000001
100
AcDbArc
 50
270.0
 51
0.0
  0
LINE
  5
39D
330
1F
100
AcDbEntity
  8
001
370
    50
100
AcDbLine
 10
124.711223
 20
294.906508
 30
0.0
 11
124.711223
 21
292.30291
 31
0.0
  0
LINE
  5
39E
330
1F
100
AcDbEntity
  8
001
  6
DASHED
370
    50
100
AcDbLine
 10
100.411223
 20
317.556437
 30
0.0
 11
100.411223
 21
317.553852
 31
0.0
  0
LINE
  5
39F
330
1F
100
AcDbEntity
  8
001
370
    50
100
AcDbLine
 10
124.711223
 20
299.588245
 30
0.0
 11
124.711223
 21
298.636812
 31
0.0
  0
LINE
  5
3A0
330
1F
100
AcDbEntity
  8
001
370
    50
100
AcDbLine
 10
100.411223
 20
303.90291
 30
0.0
 11
115.592286
 21
303.90291
 31
0.0
  0
LINE
  5
3A1
330
1F
100
AcDbEntity
  8
001
370
    50
100
AcDbLine
 10
101.467555
 20
327.90291
 30
0.0
 11
100.411223
 21
327.90291
 31
0.0
  0
LINE
  5
3A2
330
1F
100
AcDbEntity
  8
001
370
    50
100
AcDbLine
 10
124.711223
 20
339.50291
 30
0.0
 11
124.711223
 21
327.85623
 31
0.0
  0
LINE
  5
3A3
330
1F
100
AcDbEntity
  8
001
370
    50
100
AcDbLine
 10
132.711223
 20
299.90291
 30
0.0
 11
132.711223
 21
331.90291
 31
0.0
  0
LINE
  5
3A4
330
1F
100
AcDbEntity
  8
001
370
    50
100
AcDbLine
 10
132.711223
 20
331.40291
 30
0.0
 11
129.711223
 21
331.40291
 31
0.0
  0
LINE
  5
3A5
330
1F
100
AcDbEntity
  8
001
370
    50
100
AcDbLine
 10
129.711223
 20
300.40291
 30
0.0
 11
132.711223
 21
300.40291
 31
0.0
  0
LINE
  5
3A6
330
1F
100
AcDbEntity
  8
001
370
    50
100
AcDbLine
 10
268.711223
 20
331.90291
 30
0.0
 11
132.711223
 21
331.90291
 31
0.0
  0
LINE
  5
3A7
330
1F
100
AcDbEntity
  8
001
370
    50
100
AcDbLine
 10
268.711223
 20
299.90291
 30
0.0
 11
132.711223
 21
299.90291
 31
0.0
  0
LINE
  5
3A8
330
1F
100
AcDbEntity
  8
001
370
    50
100
AcDbLine
 10
274.711223
 20
315.90291
 30
0.0
 11
278.175324
 21
317.90291
 31
0.0
  0
LINE
  5
3A9
330
1F
100
AcDbEntity
  8
001
370
    50
100
AcDbLine
 10
274.711223
 20
315.90291
 30
0.0
 11
278.175324
 21
313.90291
 31
0.0
  0
ARC
  5
3AA
330
1F
100
AcDbEntity
  8
001
370
    50
100
AcDbCircle
 10
268.711223
 20
325.90291
 30
0.0
 40
6.0
100
AcDbArc
 50
0.0
 51
90.0
  0
ARC
  5
3AB
330
1F
100
AcDbEntity
  8
001
370
    50
100
AcDbCircle
 10
268.711223
 20
305.90291
 30
0.0
 40
6.0
100
AcDbArc
 50
270.0
 51
0.0
  0
LINE
  5
3AC
330
1F
100
AcDbEntity
  8
001
370
    50
100
AcDbLine
 10
100.40649
 20
295.114346
 30
0.0
 11
99.712833
 21
286.493009
 31
0.0
  0
CIRCLE
  5
3AD
330
1F
100
AcDbEntity
  8
001
370
    50
100
AcDbCircle
 10
108.020105
 20
290.770031
 30
0.0
 40
3.0
  0
LINE
  5
3AE
330
1F
100
AcDbEntity
  8
001
370
    50
100
AcDbLine
 10
115.406298
 20
286.424127
 30
0.0
 11
116.099954
 21
295.045465
 31
0.0
  0
LINE
  5
3AF
330
1F
100
AcDbEntity
  8
001
370
    50
100
AcDbLine
 10
115.598074
 20
295.585552
 30
0.0
 11
100.802409
 21
295.482257
 31
0.0
  0
CIRCLE
  5
3B0
330
1F
100
AcDbEntity
  8
001
370
    50
100
AcDbCircle
 10
108.025092
 20
290.783296
 30
0.0
 40
2.5
  0
LINE
  5
3B1
330
1F
100
AcDbEntity
  8
001
370
    50
100
AcDbLine
 10
108.604662
 20
291.782012
 30
0.0
 11
108.288341
 21
292.332716
 31
0.0
  0
LINE
  5
3B2
330
1F
100
AcDbEntity
  8
001
370
    50
100
AcDbLine
 10
107.449964
 20
291.784576
 30
0.0
 11
107.768727
 21
292.333869
 31
0.0
  0
ARC
  5
3B3
330
1F
100
AcDbEntity
  8
001
370
    50
100
AcDbCircle
 10
108.028201
 20
292.183293
 30
0.0
 40
0.3
100
AcDbArc
 50
29.872778
 51
149.872778
  0
LINE
  5
3B4
330
1F
100
AcDbEntity
  8
001
370
    50
100
AcDbLine
 10
107.449964
 20
291.784576
 30
0.0
 11
106.81488
 21
291.785986
 31
0.0
  0
LINE
  5
3B5
330
1F
100
AcDbEntity
  8
001
370
    50
100
AcDbLine
 10
106.870395
 20
290.78586
 30
0.0
 11
106.554074
 21
291.336564
 31
0.0
  0
ARC
  5
3B6
330
1F
100
AcDbEntity
  8
001
370
    50
100
AcDbCircle
 10
106.814214
 20
291.485987
 30
0.0
 40
0.3
100
AcDbArc
 50
89.872778
 51
209.872778
  0
LINE
  5
3B7
330
1F
100
AcDbEntity
  8
001
370
    50
100
AcDbLine
 10
106.870395
 20
290.78586
 30
0.0
 11
106.551632
 21
290.236567
 31
0.0
  0
LINE
  5
3B8
330
1F
100
AcDbEntity
  8
001
370
    50
100
AcDbLine
 10
107.445523
 20
289.784581
 30
0.0
 11
106.810439
 21
289.785991
 31
0.0
  0
ARC
  5
3B9
330
1F
100
AcDbEntity
  8
001
370
    50
100
AcDbCircle
 10
106.811106
 20
290.08599
 30
0.0
 40
0.3
100
AcDbArc
 50
149.872778
 51
269.872778
  0
LINE
  5
3BA
330
1F
100
AcDbEntity
  8
001
370
    50
100
AcDbLine
 10
107.445523
 20
289.784581
 30
0.0
 11
107.761844
 21
289.233877
 31
0.0
  0
LINE
  5
3BB
330
1F
100
AcDbEntity
  8
001
370
    50
100
AcDbLine
 10
108.600221
 20
289.782017
 30
0.0
 11
108.281458
 21
289.232723
 31
0.0
  0
ARC
  5
3BC
330
1F
100
AcDbEntity
  8
001
370
    50
100
AcDbCircle
 10
108.021984
 20
289.3833
 30
0.0
 40
0.3
100
AcDbArc
 50
209.872778
 51
329.872778
  0
LINE
  5
3BD
330
1F
100
AcDbEntity
  8
001
370
    50
100
AcDbLine
 10
108.600221
 20
289.782017
 30
0.0
 11
109.235305
 21
289.780607
 31
0.0
  0
LINE
  5
3BE
330
1F
100
AcDbEntity
  8
001
370
    50
100
AcDbLine
 10
109.17979
 20
290.780732
 30
0.0
 11
109.496111
 21
290.230029
 31
0.0
  0
ARC
  5
3BF
330
1F
100
AcDbEntity
  8
001
370
    50
100
AcDbCircle
 10
109.235971
 20
290.080606
 30
0.0
 40
0.3
100
AcDbArc
 50
269.872778
 51
29.872778
  0
LINE
  5
3C0
330
1F
100
AcDbEntity
  8
001
370
    50
100
AcDbLine
 10
109.17979
 20
290.780732
 30
0.0
 11
109.498553
 21
291.330026
 31
0.0
  0
LINE
  5
3C1
330
1F
100
AcDbEntity
  8
001
370
    50
100
AcDbLine
 10
108.604662
 20
291.782012
 30
0.0
 11
109.239745
 21
291.780602
 31
0.0
  0
ARC
  5
3C2
330
1F
100
AcDbEntity
  8
001
370
    50
100
AcDbCircle
 10
109.239079
 20
291.480603
 30
0.0
 40
0.3
100
AcDbArc
 50
329.872778
 51
89.872778
  0
ARC
  5
3C3
330
1F
100
AcDbEntity
  8
001
370
    50
100
AcDbCircle
 10
100.211223
 20
286.45291
 30
0.0
 40
0.5
100
AcDbArc
 50
175.4
 51
270.4
  0
LINE
  5
3C4
330
1F
100
AcDbEntity
  8
001
370
    50
100
AcDbLine
 10
115.010378
 20
286.056217
 30
0.0
 11
100.214713
 21
285.952922
 31
0.0
  0
ARC
  5
3C5
330
1F
100
AcDbEntity
  8
001
370
    50
100
AcDbCircle
 10
115.601564
 20
295.085564
 30
0.0
 40
0.5
100
AcDbArc
 50
355.4
 51
90.4
  0
ARC
  5
3C6
330
1F
100
AcDbEntity
  8
001
370
    50
100
AcDbCircle
 10
114.365346
 20
293.831963
 30
0.0
 40
3.0
100
AcDbArc
 50
298.349498
 51
144.83356
  0
ARC
  5
3C7
330
1F
100
AcDbEntity
  8
001
370
    50
100
AcDbCircle
 10
100.805201
 20
295.082267
 30
0.0
 40
0.4
100
AcDbArc
 50
90.4
 51
175.4
  0
ARC
  5
3C8
330
1F
100
AcDbEntity
  8
001
370
    50
100
AcDbCircle
 10
115.007586
 20
286.456207
 30
0.0
 40
0.4
100
AcDbArc
 50
270.4
 51
355.4
  0
POLYLINE
  5
3C9
330
1F
100
AcDbEntity
  8
001
370
    50
100
AcDb2dPolyline
 66
     1
 10
0.0
 20
0.0
 30
0.0
  0
VERTEX
  5
3CB
330
3C9
100
AcDbEntity
  8
001
370
    50
100
AcDbVertex
100
AcDb2dVertex
 10
115.482727
 20
287.374054
 30
0.0
  0
VERTEX
  5
3CC
330
3C9
100
AcDbEntity
  8
001
370
    50
100
AcDbVertex
100
AcDb2dVertex
 10
116.357563
 20
287.363626
 30
0.0
  0
VERTEX
  5
3CD
330
3C9
100
AcDbEntity
  8
001
370
    50
100
AcDbVertex
100
AcDb2dVertex
 10
117.547388
 20
287.350656
 30
0.0
  0
VERTEX
  5
3CE
330
3C9
100
AcDbEntity
  8
001
370
    50
100
AcDbVertex
100
AcDb2dVertex
 10
118.83216
 20
287.338508
 30
0.0
  0
VERTEX
  5
3CF
330
3C9
100
AcDbEntity
  8
001
370
    50
100
AcDbVertex
100
AcDb2dVertex
 10
119.711223
 20
287.331138
 30
0.0
  0
SEQEND
  5
3CA
330
3C9
100
AcDbEntity
  8
001
370
    50
  0
LINE
  5
3D0
330
1F
100
AcDbEntity
  8
001
370
    50
100
AcDbLine
 10
115.477003
 20
287.30291
 30
0.0
 11
119.711223
 21
287.30291
 31
0.0
  0
POLYLINE
  5
3D1
330
1F
100
AcDbEntity
  8
001
370
    50
100
AcDb2dPolyline
 66
     1
 10
0.0
 20
0.0
 30
0.0
  0
VERTEX
  5
3D3
330
3D1
100
AcDbEntity
  8
001
370
    50
100
AcDbVertex
100
AcDb2dVertex
 10
101.467592
 20
303.90271
 30
0.0
  0
VERTEX
  5
3D4
330
3D1
100
AcDbEntity
  8
001
370
    50
100
AcDbVertex
100
AcDb2dVertex
 10
101.238925
 20
301.036551
 30
0.0
  0
VERTEX
  5
3D5
330
3D1
100
AcDbEntity
  8
001
370
    50
100
AcDbVertex
100
AcDb2dVertex
 10
101.00094
 20
298.171184
 30
0.0
  0
VERTEX
  5
3D6
330
3D1
100
AcDbEntity
  8
001
370
    50
100
AcDbVertex
100
AcDb2dVertex
 10
100.899209
 20
297.002549
 30
0.0
  0
VERTEX
  5
3D7
330
3D1
100
AcDbEntity
  8
001
370
    50
100
AcDbVertex
100
AcDb2dVertex
 10
100.79487
 20
295.834138
 30
0.0
  0
VERTEX
  5
3D8
330
3D1
100
AcDbEntity
  8
001
370
    50
100
AcDbVertex
100
AcDb2dVertex
 10
100.778973
 20
295.65806
 30
0.0
  0
VERTEX
  5
3D9
330
3D1
100
AcDbEntity
  8
001
370
    50
100
AcDbVertex
100
AcDb2dVertex
 10
100.763076
 20
295.481982
 30
0.0
  0
SEQEND
  5
3D2
330
3D1
100
AcDbEntity
  8
001
370
    50
  0
LINE
  5
3DA
330
1F
100
AcDbEntity
  8
001
370
    50
100
AcDbLine
 10
101.052772
 20
295.484005
 30
0.0
 11
101.907574
 21
303.90291
 31
0.0
  0
LINE
  5
3DB
330
1F
100
AcDbEntity
  8
001
  6
DASHED
370
    30
100
AcDbLine
 10
101.10521
 20
295.484371
 30
0.0
 11
102.200243
 21
305.90291
 31
0.0
  0
LINE
  5
3DC
330
1F
100
AcDbEntity
  8
001
370
    50
100
AcDbLine
 10
100.40649
 20
336.691473
 30
0.0
 11
99.712833
 21
345.31281
 31
0.0
  0
ARC
  5
3DD
330
1F
100
AcDbEntity
  8
001
370
    50
100
AcDbCircle
 10
100.211223
 20
345.35291
 30
0.0
 40
0.5
100
AcDbArc
 50
89.6
 51
184.6
  0
LINE
  5
3DE
330
1F
100
AcDbEntity
  8
001
370
    50
100
AcDbLine
 10
115.010378
 20
345.749603
 30
0.0
 11
100.214713
 21
345.852898
 31
0.0
  0
ARC
  5
3DF
330
1F
100
AcDbEntity
  8
001
370
    50
100
AcDbCircle
 10
115.007586
 20
345.349612
 30
0.0
 40
0.4
100
AcDbArc
 50
4.6
 51
89.6
  0
LINE
  5
3E0
330
1F
100
AcDbEntity
  8
001
370
    50
100
AcDbLine
 10
115.406298
 20
345.381692
 30
0.0
 11
115.477003
 21
344.50291
 31
0.0
  0
ARC
  5
3E1
330
1F
100
AcDbEntity
  8
001
370
    50
100
AcDbCircle
 10
100.805201
 20
336.723553
 30
0.0
 40
0.4
100
AcDbArc
 50
184.6
 51
263.661054
  0
LINE
  5
3E2
330
1F
100
AcDbEntity
  8
001
370
     9
100
AcDbLine
 10
99.711223
 20
286.45291
 30
0.0
 11
99.711223
 21
281.705795
 31
0.0
  0
LINE
  5
3E3
330
1F
100
AcDbEntity
  8
001
370
     9
100
AcDbLine
 10
100.211223
 20
285.95291
 30
0.0
 11
95.442239
 21
285.95291
 31
0.0
  0
LINE
  5
3E4
330
1F
100
AcDbEntity
  8
001
  6
CENTER
370
     9
100
AcDbLine
 10
281.00326
 20
315.90291
 30
0.0
 11
96.681547
 21
315.90291
 31
0.0
  0
POLYLINE
  5
3E5
330
1F
100
AcDbEntity
  8
001
370
    50
100
AcDb2dPolyline
 66
     1
 10
0.0
 20
0.0
 30
0.0
  0
VERTEX
  5
3E7
330
3E5
100
AcDbEntity
  8
001
370
    50
100
AcDbVertex
100
AcDb2dVertex
 10
414.425972
 20
90.230925
 30
0.0
  0
VERTEX
  5
3E8
330
3E5
100
AcDbEntity
  8
001
370
    50
100
AcDbVertex
100
AcDb2dVertex
 10
414.941153
 20
90.219254
 30
0.0
  0
VERTEX
  5
3E9
330
3E5
100
AcDbEntity
  8
001
370
    50
100
AcDbVertex
100
AcDb2dVertex
 10
415.455706
 20
90.196419
 30
0.0
  0
VERTEX
  5
3EA
330
3E5
100
AcDbEntity
  8
001
370
    50
100
AcDbVertex
100
AcDb2dVertex
 10
415.971402
 20
90.153473
 30
0.0
  0
VERTEX
  5
3EB
330
3E5
100
AcDbEntity
  8
001
370
    50
100
AcDbVertex
100
AcDb2dVertex
 10
416.48544
 20
90.091635
 30
0.0
  0
VERTEX
  5
3EC
330
3E5
100
AcDbEntity
  8
001
370
    50
100
AcDbVertex
100
AcDb2dVertex
 10
417.005315
 20
90.011921
 30
0.0
  0
VERTEX
  5
3ED
330
3E5
100
AcDbEntity
  8
001
370
    50
100
AcDbVertex
100
AcDb2dVertex
 10
417.521488
 20
89.912467
 30
0.0
  0
VERTEX
  5
3EE
330
3E5
100
AcDbEntity
  8
001
370
    50
100
AcDbVertex
100
AcDb2dVertex
 10
418.034528
 20
89.791545
 30
0.0
  0
VERTEX
  5
3EF
330
3E5
100
AcDbEntity
  8
001
370
    50
100
AcDbVertex
100
AcDb2dVertex
 10
418.544909
 20
89.658682
 30
0.0
  0
SEQEND
  5
3E6
330
3E5
100
AcDbEntity
  8
001
370
    50
  0
POLYLINE
  5
3F0
330
1F
100
AcDbEntity
  8
001
370
    50
100
AcDb2dPolyline
 66
     1
 10
0.0
 20
0.0
 30
0.0
  0
VERTEX
  5
3F2
330
3F0
100
AcDbEntity
  8
001
370
    50
100
AcDbVertex
100
AcDb2dVertex
 10
418.544909
 20
89.658682
 30
0.0
  0
VERTEX
  5
3F3
330
3F0
100
AcDbEntity
  8
001
370
    50
100
AcDbVertex
100
AcDb2dVertex
 10
418.920794
 20
89.541682
 30
0.0
  0
VERTEX
  5
3F4
330
3F0
100
AcDbEntity
  8
001
370
    50
100
AcDbVertex
100
AcDb2dVertex
 10
419.294027
 20
89.416914
 30
0.0
  0
VERTEX
  5
3F5
330
3F0
100
AcDbEntity
  8
001
370
    50
100
AcDbVertex
100
AcDb2dVertex
 10
419.643015
 20
89.285863
 30
0.0
  0
VERTEX
  5
3F6
330
3F0
100
AcDbEntity
  8
001
370
    50
100
AcDbVertex
100
AcDb2dVertex
 10
419.987078
 20
89.142169
 30
0.0
  0
VERTEX
  5
3F7
330
3F0
100
AcDbEntity
  8
001
370
    50
100
AcDbVertex
100
AcDb2dVertex
 10
420.245665
 20
89.024896
 30
0.0
  0
VERTEX
  5
3F8
330
3F0
100
AcDbEntity
  8
001
370
    50
100
AcDbVertex
100
AcDb2dVertex
 10
420.500965
 20
88.900704
 30
0.0
  0
VERTEX
  5
3F9
330
3F0
100
AcDbEntity
  8
001
370
    50
100
AcDbVertex
100
AcDb2dVertex
 10
420.736491
 20
88.778017
 30
0.0
  0
VERTEX
  5
3FA
330
3F0
100
AcDbEntity
  8
001
370
    50
100
AcDbVertex
100
AcDb2dVertex
 10
420.968574
 20
88.648925
 30
0.0
  0
VERTEX
  5
3FB
330
3F0
100
AcDbEntity
  8
001
370
    50
100
AcDbVertex
100
AcDb2dVertex
 10
421.179935
 20
88.523741
 30
0.0
  0
VERTEX
  5
3FC
330
3F0
100
AcDbEntity
  8
001
370
    50
100
AcDbVertex
100
AcDb2dVertex
 10
421.387826
 20
88.39287
 30
0.0
  0
VERTEX
  5
3FD
330
3F0
100
AcDbEntity
  8
001
370
    50
100
AcDbVertex
100
AcDb2dVertex
 10
421.66022
 20
88.208488
 30
0.0
  0
VERTEX
  5
3FE
330
3F0
100
AcDbEntity
  8
001
370
    50
100
AcDbVertex
100
AcDb2dVertex
 10
421.925058
 20
88.013366
 30
0.0
  0
VERTEX
  5
3FF
330
3F0
100
AcDbEntity
  8
001
370
    50
100
AcDbVertex
100
AcDb2dVertex
 10
422.153078
 20
87.83093
 30
0.0
  0
VERTEX
  5
400
330
3F0
100
AcDbEntity
  8
001
370
    50
100
AcDbVertex
100
AcDb2dVertex
 10
422.3735
 20
87.63949
 30
0.0
  0
VERTEX
  5
401
330
3F0
100
AcDbEntity
  8
001
370
    50
100
AcDbVertex
100
AcDb2dVertex
 10
422.559901
 20
87.463838
 30
0.0
  0
VERTEX
  5
402
330
3F0
100
AcDbEntity
  8
001
370
    50
100
AcDbVertex
100
AcDb2dVertex
 10
422.739256
 20
87.280788
 30
0.0
  0
VERTEX
  5
403
330
3F0
100
AcDbEntity
  8
001
370
    50
100
AcDbVertex
100
AcDb2dVertex
 10
422.94396
 20
87.050909
 30
0.0
  0
VERTEX
  5
404
330
3F0
100
AcDbEntity
  8
001
370
    50
100
AcDbVertex
100
AcDb2dVertex
 10
423.133346
 20
86.808893
 30
0.0
  0
VERTEX
  5
405
330
3F0
100
AcDbEntity
  8
001
370
    50
100
AcDbVertex
100
AcDb2dVertex
 10
423.270477
 20
86.606343
 30
0.0
  0
VERTEX
  5
406
330
3F0
100
AcDbEntity
  8
001
370
    50
100
AcDbVertex
100
AcDb2dVertex
 10
423.39378
 20
86.393762
 30
0.0
  0
VERTEX
  5
407
330
3F0
100
AcDbEntity
  8
001
370
    50
100
AcDbVertex
100
AcDb2dVertex
 10
423.472541
 20
86.22915
 30
0.0
  0
VERTEX
  5
408
330
3F0
100
AcDbEntity
  8
001
370
    50
100
AcDbVertex
100
AcDb2dVertex
 10
423.526032
 20
86.056637
 30
0.0
  0
VERTEX
  5
409
330
3F0
100
AcDbEntity
  8
001
370
    50
100
AcDbVertex
100
AcDb2dVertex
 10
423.537089
 20
85.986811
 30
0.0
  0
VERTEX
  5
40A
330
3F0
100
AcDbEntity
  8
001
370
    50
100
AcDbVertex
100
AcDb2dVertex
 10
423.544909
 20
85.916261
 30
0.0
  0
SEQEND
  5
3F1
330
3F0
100
AcDbEntity
  8
001
370
    50
  0
LINE
  5
40B
330
1F
100
AcDbEntity
  8
001
  6
DASHED
370
    30
100
AcDbLine
 10
401.033929
 20
112.230925
 30
0.0
 11
401.033929
 21
92.230925
 31
0.0
  0
LINE
  5
40C
330
1F
100
AcDbEntity
  8
001
  6
DASHED
370
    30
100
AcDbLine
 10
401.033929
 20
112.230925
 30
0.0
 11
399.253126
 21
129.174133
 31
0.0
  0
LINE
  5
40D
330
1F
100
AcDbEntity
  8
001
  6
DASHED
370
    50
100
AcDbLine
 10
399.253126
 20
103.882068
 30
0.0
 11
399.253126
 21
103.883505
 31
0.0
  0
POLYLINE
  5
40E
330
1F
100
AcDbEntity
  8
001
370
    50
100
AcDb2dPolyline
 66
     1
 10
0.0
 20
0.0
 30
0.0
  0
VERTEX
  5
410
330
40E
100
AcDbEntity
  8
001
370
    50
100
AcDbVertex
100
AcDb2dVertex
 10
423.544909
 20
84.964828
 30
0.0
  0
VERTEX
  5
411
330
40E
100
AcDbEntity
  8
001
370
    50
100
AcDbVertex
100
AcDb2dVertex
 10
423.544954
 20
84.956175
 30
0.0
  0
VERTEX
  5
412
330
40E
100
AcDbEntity
  8
001
370
    50
100
AcDbVertex
100
AcDb2dVertex
 10
423.545021
 20
84.947522
 30
0.0
  0
VERTEX
  5
413
330
40E
100
AcDbEntity
  8
001
370
    50
100
AcDbVertex
100
AcDb2dVertex
 10
423.553776
 20
84.778753
 30
0.0
  0
VERTEX
  5
414
330
40E
100
AcDbEntity
  8
001
370
    50
100
AcDbVertex
100
AcDb2dVertex
 10
423.572033
 20
84.610524
 30
0.0
  0
VERTEX
  5
415
330
40E
100
AcDbEntity
  8
001
370
    50
100
AcDbVertex
100
AcDb2dVertex
 10
423.596944
 20
84.41789
 30
0.0
  0
VERTEX
  5
416
330
40E
100
AcDbEntity
  8
001
370
    50
100
AcDbVertex
100
AcDb2dVertex
 10
423.622312
 20
84.225417
 30
0.0
  0
VERTEX
  5
417
330
40E
100
AcDbEntity
  8
001
370
    50
100
AcDbVertex
100
AcDb2dVertex
 10
423.667471
 20
83.820106
 30
0.0
  0
VERTEX
  5
418
330
40E
100
AcDbEntity
  8
001
370
    50
100
AcDbVertex
100
AcDb2dVertex
 10
423.693811
 20
83.413192
 30
0.0
  0
VERTEX
  5
419
330
40E
100
AcDbEntity
  8
001
370
    50
100
AcDbVertex
100
AcDb2dVertex
 10
423.695177
 20
83.019603
 30
0.0
  0
VERTEX
  5
41A
330
40E
100
AcDbEntity
  8
001
370
    50
100
AcDbVertex
100
AcDb2dVertex
 10
423.673653
 20
82.626567
 30
0.0
  0
VERTEX
  5
41B
330
40E
100
AcDbEntity
  8
001
370
    50
100
AcDbVertex
100
AcDb2dVertex
 10
423.63342
 20
82.238606
 30
0.0
  0
VERTEX
  5
41C
330
40E
100
AcDbEntity
  8
001
370
    50
100
AcDbVertex
100
AcDb2dVertex
 10
423.583149
 20
81.851713
 30
0.0
  0
SEQEND
  5
40F
330
40E
100
AcDbEntity
  8
001
370
    50
  0
POLYLINE
  5
41D
330
1F
100
AcDbEntity
  8
001
370
    50
100
AcDb2dPolyline
 66
     1
 10
0.0
 20
0.0
 30
0.0
  0
VERTEX
  5
41F
330
41D
100
AcDbEntity
  8
001
370
    50
100
AcDbVertex
100
AcDb2dVertex
 10
423.583149
 20
81.851713
 30
0.0
  0
VERTEX
  5
420
330
41D
100
AcDbEntity
  8
001
370
    50
100
AcDbVertex
100
AcDb2dVertex
 10
423.018404
 20
82.871833
 30
0.0
  0
VERTEX
  5
421
330
41D
100
AcDbEntity
  8
001
370
    50
100
AcDbVertex
100
AcDb2dVertex
 10
422.152206
 20
84.221927
 30
0.0
  0
VERTEX
  5
422
330
41D
100
AcDbEntity
  8
001
370
    50
100
AcDbVertex
100
AcDb2dVertex
 10
421.25468
 20
85.347989
 30
0.0
  0
VERTEX
  5
423
330
41D
100
AcDbEntity
  8
001
370
    50
100
AcDbVertex
100
AcDb2dVertex
 10
420.315074
 20
86.283284
 30
0.0
  0
VERTEX
  5
424
330
41D
100
AcDbEntity
  8
001
370
    50
100
AcDbVertex
100
AcDb2dVertex
 10
419.275184
 20
87.160819
 30
0.0
  0
VERTEX
  5
425
330
41D
100
AcDbEntity
  8
001
370
    50
100
AcDbVertex
100
AcDb2dVertex
 10
418.134863
 20
87.96497
 30
0.0
  0
VERTEX
  5
426
330
41D
100
AcDbEntity
  8
001
370
    50
100
AcDbVertex
100
AcDb2dVertex
 10
416.922273
 20
88.648175
 30
0.0
  0
VERTEX
  5
427
330
41D
100
AcDbEntity
  8
001
370
    50
100
AcDbVertex
100
AcDb2dVertex
 10
415.686467
 20
89.209219
 30
0.0
  0
VERTEX
  5
428
330
41D
100
AcDbEntity
  8
001
370
    50
100
AcDbVertex
100
AcDb2dVertex
 10
414.447084
 20
89.652135
 30
0.0
  0
VERTEX
  5
429
330
41D
100
AcDbEntity
  8
001
370
    50
100
AcDbVertex
100
AcDb2dVertex
 10
413.053993
 20
89.973286
 30
0.0
  0
VERTEX
  5
42A
330
41D
100
AcDbEntity
  8
001
370
    50
100
AcDbVertex
100
AcDb2dVertex
 10
411.479241
 20
90.166504
 30
0.0
  0
VERTEX
  5
42B
330
41D
100
AcDbEntity
  8
001
370
    50
100
AcDbVertex
100
AcDb2dVertex
 10
410.327872
 20
90.230925
 30
0.0
  0
SEQEND
  5
41E
330
41D
100
AcDbEntity
  8
001
370
    50
  0
LINE
  5
42C
330
1F
100
AcDbEntity
  8
001
370
    50
100
AcDbLine
 10
428.544909
 20
118.230925
 30
0.0
 11
428.544909
 21
86.230925
 31
0.0
  0
ARC
  5
42D
330
1F
100
AcDbEntity
  8
001
370
    50
100
AcDbCircle
 10
428.544909
 20
123.230925
 30
0.0
 40
5.000000000000001
100
AcDbArc
 50
180.0
 51
270.0
  0
ARC
  5
42E
330
1F
100
AcDbEntity
  8
001
370
    50
100
AcDbCircle
 10
428.544909
 20
81.230925
 30
0.0
 40
5.000000000000001
100
AcDbArc
 50
90.0
 51
180.0
  0
POLYLINE
  5
42F
330
1F
100
AcDbEntity
  8
001
370
    50
100
AcDb2dPolyline
 66
     1
 10
0.0
 20
0.0
 30
0.0
  0
VERTEX
  5
431
330
42F
100
AcDbEntity
  8
001
370
    50
100
AcDbVertex
100
AcDb2dVertex
 10
414.425972
 20
128.191665
 30
0.0
  0
VERTEX
  5
432
330
42F
100
AcDbEntity
  8
001
370
    50
100
AcDbVertex
100
AcDb2dVertex
 10
414.940908
 20
128.186293
 30
0.0
  0
VERTEX
  5
433
330
42F
100
AcDbEntity
  8
001
370
    50
100
AcDbVertex
100
AcDb2dVertex
 10
415.455706
 20
128.175687
 30
0.0
  0
VERTEX
  5
434
330
42F
100
AcDbEntity
  8
001
370
    50
100
AcDbVertex
100
AcDb2dVertex
 10
415.970753
 20
128.155721
 30
0.0
  0
VERTEX
  5
435
330
42F
100
AcDbEntity
  8
001
370
    50
100
AcDbVertex
100
AcDb2dVertex
 10
416.48544
 20
128.126825
 30
0.0
  0
VERTEX
  5
436
330
42F
100
AcDbEntity
  8
001
370
    50
100
AcDbVertex
100
AcDb2dVertex
 10
417.003918
 20
128.089522
 30
0.0
  0
VERTEX
  5
437
330
42F
100
AcDbEntity
  8
001
370
    50
100
AcDbVertex
100
AcDb2dVertex
 10
417.521488
 20
128.042078
 30
0.0
  0
VERTEX
  5
438
330
42F
100
AcDbEntity
  8
001
370
    50
100
AcDbVertex
100
AcDb2dVertex
 10
418.033534
 20
127.983892
 30
0.0
  0
VERTEX
  5
439
330
42F
100
AcDbEntity
  8
001
370
    50
100
AcDbVertex
100
AcDb2dVertex
 10
418.544909
 20
127.919419
 30
0.0
  0
SEQEND
  5
430
330
42F
100
AcDbEntity
  8
001
370
    50
  0
POLYLINE
  5
43A
330
1F
100
AcDbEntity
  8
001
370
    50
100
AcDb2dPolyline
 66
     1
 10
0.0
 20
0.0
 30
0.0
  0
VERTEX
  5
43C
330
43A
100
AcDbEntity
  8
001
370
    50
100
AcDbVertex
100
AcDb2dVertex
 10
418.544909
 20
127.919419
 30
0.0
  0
VERTEX
  5
43D
330
43A
100
AcDbEntity
  8
001
370
    50
100
AcDbVertex
100
AcDb2dVertex
 10
418.922883
 20
127.83889
 30
0.0
  0
VERTEX
  5
43E
330
43A
100
AcDbEntity
  8
001
370
    50
100
AcDbVertex
100
AcDb2dVertex
 10
419.294027
 20
127.735985
 30
0.0
  0
VERTEX
  5
43F
330
43A
100
AcDbEntity
  8
001
370
    50
100
AcDbVertex
100
AcDb2dVertex
 10
419.647889
 20
127.595708
 30
0.0
  0
VERTEX
  5
440
330
43A
100
AcDbEntity
  8
001
370
    50
100
AcDbVertex
100
AcDb2dVertex
 10
419.987078
 20
127.420895
 30
0.0
  0
VERTEX
  5
441
330
43A
100
AcDbEntity
  8
001
370
    50
100
AcDbVertex
100
AcDb2dVertex
 10
420.249499
 20
127.259937
 30
0.0
  0
VERTEX
  5
442
330
43A
100
AcDbEntity
  8
001
370
    50
100
AcDbVertex
100
AcDb2dVertex
 10
420.500965
 20
127.08292
 30
0.0
  0
VERTEX
  5
443
330
43A
100
AcDbEntity
  8
001
370
    50
100
AcDbVertex
100
AcDb2dVertex
 10
420.740524
 20
126.891048
 30
0.0
  0
VERTEX
  5
444
330
43A
100
AcDbEntity
  8
001
370
    50
100
AcDbVertex
100
AcDb2dVertex
 10
420.968574
 20
126.685482
 30
0.0
  0
VERTEX
  5
445
330
43A
100
AcDbEntity
  8
001
370
    50
100
AcDbVertex
100
AcDb2dVertex
 10
421.183897
 20
126.469054
 30
0.0
  0
VERTEX
  5
446
330
43A
100
AcDbEntity
  8
001
370
    50
100
AcDbVertex
100
AcDb2dVertex
 10
421.387826
 20
126.241875
 30
0.0
  0
VERTEX
  5
447
330
43A
100
AcDbEntity
  8
001
370
    50
100
AcDbVertex
100
AcDb2dVertex
 10
421.668343
 20
125.889108
 30
0.0
  0
VERTEX
  5
448
330
43A
100
AcDbEntity
  8
001
370
    50
100
AcDbVertex
100
AcDb2dVertex
 10
421.925058
 20
125.518509
 30
0.0
  0
VERTEX
  5
449
330
43A
100
AcDbEntity
  8
001
370
    50
100
AcDbVertex
100
AcDb2dVertex
 10
422.160392
 20
125.13037
 30
0.0
  0
VERTEX
  5
44A
330
43A
100
AcDbEntity
  8
001
370
    50
100
AcDbVertex
100
AcDb2dVertex
 10
422.3735
 20
124.729652
 30
0.0
  0
VERTEX
  5
44B
330
43A
100
AcDbEntity
  8
001
370
    50
100
AcDbVertex
100
AcDb2dVertex
 10
422.566343
 20
124.316622
 30
0.0
  0
VERTEX
  5
44C
330
43A
100
AcDbEntity
  8
001
370
    50
100
AcDbVertex
100
AcDb2dVertex
 10
422.739256
 20
123.894798
 30
0.0
  0
VERTEX
  5
44D
330
43A
100
AcDbEntity
  8
001
370
    50
100
AcDbVertex
100
AcDb2dVertex
 10
422.954459
 20
123.278631
 30
0.0
  0
VERTEX
  5
44E
330
43A
100
AcDbEntity
  8
001
370
    50
100
AcDbVertex
100
AcDb2dVertex
 10
423.133346
 20
122.650916
 30
0.0
  0
VERTEX
  5
44F
330
43A
100
AcDbEntity
  8
001
370
    50
100
AcDbVertex
100
AcDb2dVertex
 10
423.280123
 20
122.002759
 30
0.0
  0
VERTEX
  5
450
330
43A
100
AcDbEntity
  8
001
370
    50
100
AcDbVertex
100
AcDb2dVertex
 10
423.39378
 20
121.347865
 30
0.0
  0
VERTEX
  5
451
330
43A
100
AcDbEntity
  8
001
370
    50
100
AcDbVertex
100
AcDb2dVertex
 10
423.477007
 20
120.679537
 30
0.0
  0
VERTEX
  5
452
330
43A
100
AcDbEntity
  8
001
370
    50
100
AcDbVertex
100
AcDb2dVertex
 10
423.526032
 20
120.008112
 30
0.0
  0
VERTEX
  5
453
330
43A
100
AcDbEntity
  8
001
370
    50
100
AcDbVertex
100
AcDb2dVertex
 10
423.538171
 20
119.645928
 30
0.0
  0
VERTEX
  5
454
330
43A
100
AcDbEntity
  8
001
370
    50
100
AcDbVertex
100
AcDb2dVertex
 10
423.544909
 20
119.283542
 30
0.0
  0
SEQEND
  5
43B
330
43A
100
AcDbEntity
  8
001
370
    50
  0
ARC
  5
455
330
1F
100
AcDbEntity
  8
001
370
    50
100
AcDbCircle
 10
418.544909
 20
125.830925
 30
0.0
 40
5.000000000000001
100
AcDbArc
 50
0.0
 51
90.0
  0
POLYLINE
  5
456
330
1F
100
AcDbEntity
  8
001
370
    50
100
AcDb2dPolyline
 66
     1
 10
0.0
 20
0.0
 30
0.0
  0
VERTEX
  5
458
330
456
100
AcDbEntity
  8
001
370
    50
100
AcDbVertex
100
AcDb2dVertex
 10
413.259809
 20
130.830925
 30
0.0
  0
VERTEX
  5
459
330
456
100
AcDbEntity
  8
001
370
    50
100
AcDbVertex
100
AcDb2dVertex
 10
413.188016
 20
130.830458
 30
0.0
  0
VERTEX
  5
45A
330
456
100
AcDbEntity
  8
001
370
    50
100
AcDbVertex
100
AcDb2dVertex
 10
413.083114
 20
130.828424
 30
0.0
  0
VERTEX
  5
45B
330
456
100
AcDbEntity
  8
001
370
    50
100
AcDbVertex
100
AcDb2dVertex
 10
412.978521
 20
130.824517
 30
0.0
  0
VERTEX
  5
45C
330
456
100
AcDbEntity
  8
001
370
    50
100
AcDbVertex
100
AcDb2dVertex
 10
412.906991
 20
130.820921
 30
0.0
  0
SEQEND
  5
457
330
456
100
AcDbEntity
  8
001
370
    50
  0
LINE
  5
45D
330
1F
100
AcDbEntity
  8
001
370
    50
100
AcDbLine
 10
408.617221
 20
130.830925
 30
0.0
 11
400.744909
 21
130.830925
 31
0.0
  0
LINE
  5
45E
330
1F
100
AcDbEntity
  8
001
370
    50
100
AcDbLine
 10
418.544909
 20
130.830925
 30
0.0
 11
413.259809
 21
130.830925
 31
0.0
  0
LINE
  5
45F
330
1F
100
AcDbEntity
  8
001
370
    50
100
AcDbLine
 10
400.744909
 20
128.191665
 30
0.0
 11
414.425972
 21
128.191665
 31
0.0
  0
POLYLINE
  5
460
330
1F
100
AcDbEntity
  8
001
370
    50
100
AcDb2dPolyline
 66
     1
 10
0.0
 20
0.0
 30
0.0
  0
VERTEX
  5
462
330
460
100
AcDbEntity
  8
001
370
    50
100
AcDbVertex
100
AcDb2dVertex
 10
412.906991
 20
130.820921
 30
0.0
  0
VERTEX
  5
463
330
460
100
AcDbEntity
  8
001
370
    50
100
AcDbVertex
100
AcDb2dVertex
 10
412.03571
 20
130.824516
 30
0.0
  0
VERTEX
  5
464
330
460
100
AcDbEntity
  8
001
370
    50
100
AcDbVertex
100
AcDb2dVertex
 10
410.762294
 20
130.828424
 30
0.0
  0
VERTEX
  5
465
330
460
100
AcDbEntity
  8
001
370
    50
100
AcDbVertex
100
AcDb2dVertex
 10
409.488658
 20
130.830456
 30
0.0
  0
VERTEX
  5
466
330
460
100
AcDbEntity
  8
001
370
    50
100
AcDbVertex
100
AcDb2dVertex
 10
408.617221
 20
130.830925
 30
0.0
  0
SEQEND
  5
461
330
460
100
AcDbEntity
  8
001
370
    50
  0
LINE
  5
467
330
1F
100
AcDbEntity
  8
001
370
    50
100
AcDbLine
 10
399.253126
 20
126.354284
 30
0.0
 11
399.2451
 21
126.502565
 31
0.0
  0
POLYLINE
  5
468
330
1F
100
AcDbEntity
  8
001
370
    50
100
AcDb2dPolyline
 66
     1
 10
0.0
 20
0.0
 30
0.0
  0
VERTEX
  5
46A
330
468
100
AcDbEntity
  8
001
370
    50
100
AcDbVertex
100
AcDb2dVertex
 10
399.2451
 20
126.502565
 30
0.0
  0
VERTEX
  5
46B
330
468
100
AcDbEntity
  8
001
370
    50
100
AcDbVertex
100
AcDb2dVertex
 10
399.257149
 20
126.705896
 30
0.0
  0
VERTEX
  5
46C
330
468
100
AcDbEntity
  8
001
370
    50
100
AcDbVertex
100
AcDb2dVertex
 10
399.283732
 20
126.906869
 30
0.0
  0
VERTEX
  5
46D
330
468
100
AcDbEntity
  8
001
370
    50
100
AcDbVertex
100
AcDb2dVertex
 10
399.321771
 20
127.058799
 30
0.0
  0
VERTEX
  5
46E
330
468
100
AcDbEntity
  8
001
370
    50
100
AcDbVertex
100
AcDb2dVertex
 10
399.374347
 20
127.206795
 30
0.0
  0
VERTEX
  5
46F
330
468
100
AcDbEntity
  8
001
370
    50
100
AcDbVertex
100
AcDb2dVertex
 10
399.439231
 20
127.349597
 30
0.0
  0
VERTEX
  5
470
330
468
100
AcDbEntity
  8
001
370
    50
100
AcDbVertex
100
AcDb2dVertex
 10
399.516529
 20
127.485823
 30
0.0
  0
VERTEX
  5
471
330
468
100
AcDbEntity
  8
001
370
    50
100
AcDbVertex
100
AcDb2dVertex
 10
399.60138
 20
127.607249
 30
0.0
  0
VERTEX
  5
472
330
468
100
AcDbEntity
  8
001
370
    50
100
AcDbVertex
100
AcDb2dVertex
 10
399.69706
 20
127.720492
 30
0.0
  0
VERTEX
  5
473
330
468
100
AcDbEntity
  8
001
370
    50
100
AcDbVertex
100
AcDb2dVertex
 10
399.802709
 20
127.824414
 30
0.0
  0
VERTEX
  5
474
330
468
100
AcDbEntity
  8
001
370
    50
100
AcDbVertex
100
AcDb2dVertex
 10
399.917821
 20
127.917501
 30
0.0
  0
VERTEX
  5
475
330
468
100
AcDbEntity
  8
001
370
    50
100
AcDbVertex
100
AcDb2dVertex
 10
400.029153
 20
127.990923
 30
0.0
  0
VERTEX
  5
476
330
468
100
AcDbEntity
  8
001
370
    50
100
AcDbVertex
100
AcDb2dVertex
 10
400.146761
 20
128.054269
 30
0.0
  0
VERTEX
  5
477
330
468
100
AcDbEntity
  8
001
370
    50
100
AcDbVertex
100
AcDb2dVertex
 10
400.269612
 20
128.107058
 30
0.0
  0
VERTEX
  5
478
330
468
100
AcDbEntity
  8
001
370
    50
100
AcDbVertex
100
AcDb2dVertex
 10
400.396843
 20
128.146554
 30
0.0
  0
VERTEX
  5
479
330
468
100
AcDbEntity
  8
001
370
    50
100
AcDbVertex
100
AcDb2dVertex
 10
400.569367
 20
128.17632
 30
0.0
  0
VERTEX
  5
47A
330
468
100
AcDbEntity
  8
001
370
    50
100
AcDbVertex
100
AcDb2dVertex
 10
400.744909
 20
128.191665
 30
0.0
  0
SEQEND
  5
469
330
468
100
AcDbEntity
  8
001
370
    50
  0
ARC
  5
47B
330
1F
100
AcDbEntity
  8
001
370
    50
100
AcDbCircle
 10
400.744909
 20
129.330925
 30
0.0
 40
1.499999999999998
100
AcDbArc
 50
90.0
 51
180.0
  0
ARC
  5
47C
330
1F
100
AcDbEntity
  8
001
  6
DASHED
370
    30
100
AcDbCircle
 10
400.744909
 20
129.330925
 30
0.0
 40
1.499999999999998
100
AcDbArc
 50
180.0
 51
186.0
  0
LINE
  5
47D
330
1F
100
AcDbEntity
  8
001
370
    50
100
AcDbLine
 10
399.244909
 20
129.330925
 30
0.0
 11
399.244909
 21
126.524117
 31
0.0
  0
POLYLINE
  5
47E
330
1F
100
AcDbEntity
  8
001
370
    50
100
AcDb2dPolyline
 66
     1
 10
0.0
 20
0.0
 30
0.0
  0
VERTEX
  5
480
330
47E
100
AcDbEntity
  8
001
370
    50
100
AcDbVertex
100
AcDb2dVertex
 10
423.544909
 20
78.634127
 30
0.0
  0
VERTEX
  5
481
330
47E
100
AcDbEntity
  8
001
370
    50
100
AcDbVertex
100
AcDb2dVertex
 10
423.526954
 20
78.272355
 30
0.0
  0
VERTEX
  5
482
330
47E
100
AcDbEntity
  8
001
370
    50
100
AcDbVertex
100
AcDb2dVertex
 10
423.49255
 20
77.912484
 30
0.0
  0
VERTEX
  5
483
330
47E
100
AcDbEntity
  8
001
370
    50
100
AcDbVertex
100
AcDb2dVertex
 10
423.416842
 20
77.504568
 30
0.0
  0
VERTEX
  5
484
330
47E
100
AcDbEntity
  8
001
370
    50
100
AcDbVertex
100
AcDb2dVertex
 10
423.304459
 20
77.104363
 30
0.0
  0
VERTEX
  5
485
330
47E
100
AcDbEntity
  8
001
370
    50
100
AcDbVertex
100
AcDb2dVertex
 10
423.160959
 20
76.715176
 30
0.0
  0
VERTEX
  5
486
330
47E
100
AcDbEntity
  8
001
370
    50
100
AcDbVertex
100
AcDb2dVertex
 10
422.986468
 20
76.339306
 30
0.0
  0
VERTEX
  5
487
330
47E
100
AcDbEntity
  8
001
370
    50
100
AcDbVertex
100
AcDb2dVertex
 10
422.78084
 20
75.979965
 30
0.0
  0
VERTEX
  5
488
330
47E
100
AcDbEntity
  8
001
370
    50
100
AcDbVertex
100
AcDb2dVertex
 10
422.545788
 20
75.638902
 30
0.0
  0
VERTEX
  5
489
330
47E
100
AcDbEntity
  8
001
370
    50
100
AcDbVertex
100
AcDb2dVertex
 10
422.284245
 20
75.319026
 30
0.0
  0
VERTEX
  5
48A
330
47E
100
AcDbEntity
  8
001
370
    50
100
AcDbVertex
100
AcDb2dVertex
 10
421.997143
 20
75.022054
 30
0.0
  0
VERTEX
  5
48B
330
47E
100
AcDbEntity
  8
001
370
    50
100
AcDbVertex
100
AcDb2dVertex
 10
421.684085
 20
74.748878
 30
0.0
  0
VERTEX
  5
48C
330
47E
100
AcDbEntity
  8
001
370
    50
100
AcDbVertex
100
AcDb2dVertex
 10
421.349172
 20
74.502779
 30
0.0
  0
VERTEX
  5
48D
330
47E
100
AcDbEntity
  8
001
370
    50
100
AcDbVertex
100
AcDb2dVertex
 10
420.99588
 20
74.285632
 30
0.0
  0
VERTEX
  5
48E
330
47E
100
AcDbEntity
  8
001
370
    50
100
AcDbVertex
100
AcDb2dVertex
 10
420.625756
 20
74.098994
 30
0.0
  0
VERTEX
  5
48F
330
47E
100
AcDbEntity
  8
001
370
    50
100
AcDbVertex
100
AcDb2dVertex
 10
420.237363
 20
73.943357
 30
0.0
  0
VERTEX
  5
490
330
47E
100
AcDbEntity
  8
001
370
    50
100
AcDbVertex
100
AcDb2dVertex
 10
419.83707
 20
73.8204
 30
0.0
  0
VERTEX
  5
491
330
47E
100
AcDbEntity
  8
001
370
    50
100
AcDbVertex
100
AcDb2dVertex
 10
419.428391
 20
73.730442
 30
0.0
  0
VERTEX
  5
492
330
47E
100
AcDbEntity
  8
001
370
    50
100
AcDbVertex
100
AcDb2dVertex
 10
419.013904
 20
73.67766
 30
0.0
  0
VERTEX
  5
493
330
47E
100
AcDbEntity
  8
001
370
    50
100
AcDbVertex
100
AcDb2dVertex
 10
418.779623
 20
73.66505
 30
0.0
  0
VERTEX
  5
494
330
47E
100
AcDbEntity
  8
001
370
    50
100
AcDbVertex
100
AcDb2dVertex
 10
418.544909
 20
73.659154
 30
0.0
  0
SEQEND
  5
47F
330
47E
100
AcDbEntity
  8
001
370
    50
  0
LINE
  5
495
330
1F
100
AcDbEntity
  8
001
  6
DASHED
370
    50
100
AcDbLine
 10
400.744909
 20
90.230925
 30
0.0
 11
400.74126
 21
90.230925
 31
0.0
  0
ARC
  5
496
330
1F
100
AcDbEntity
  8
001
370
    50
100
AcDbCircle
 10
418.544909
 20
78.630925
 30
0.0
 40
5.000000000000001
100
AcDbArc
 50
270.0
 51
0.0
  0
LINE
  5
497
330
1F
100
AcDbEntity
  8
001
370
    50
100
AcDbLine
 10
423.544909
 20
81.234524
 30
0.0
 11
423.544909
 21
78.630925
 31
0.0
  0
LINE
  5
498
330
1F
100
AcDbEntity
  8
001
  6
DASHED
370
    50
100
AcDbLine
 10
399.244909
 20
103.884452
 30
0.0
 11
399.244909
 21
103.881867
 31
0.0
  0
LINE
  5
499
330
1F
100
AcDbEntity
  8
001
370
    50
100
AcDbLine
 10
423.544909
 20
85.916261
 30
0.0
 11
423.544909
 21
84.964828
 31
0.0
  0
LINE
  5
49A
330
1F
100
AcDbEntity
  8
001
370
    50
100
AcDbLine
 10
399.244909
 20
90.230925
 30
0.0
 11
414.425972
 21
90.230925
 31
0.0
  0
LINE
  5
49B
330
1F
100
AcDbEntity
  8
001
370
    50
100
AcDbLine
 10
400.30124
 20
114.230925
 30
0.0
 11
399.244909
 21
114.230925
 31
0.0
  0
LINE
  5
49C
330
1F
100
AcDbEntity
  8
001
370
    50
100
AcDbLine
 10
423.544909
 20
125.830925
 30
0.0
 11
423.544909
 21
114.184246
 31
0.0
  0
LINE
  5
49D
330
1F
100
AcDbEntity
  8
001
370
    50
100
AcDbLine
 10
431.544909
 20
86.230925
 30
0.0
 11
431.544909
 21
118.230925
 31
0.0
  0
LINE
  5
49E
330
1F
100
AcDbEntity
  8
001
370
    50
100
AcDbLine
 10
431.544909
 20
117.730925
 30
0.0
 11
428.544909
 21
117.730925
 31
0.0
  0
LINE
  5
49F
330
1F
100
AcDbEntity
  8
001
370
    50
100
AcDbLine
 10
428.544909
 20
86.730925
 30
0.0
 11
431.544909
 21
86.730925
 31
0.0
  0
LINE
  5
4A0
330
1F
100
AcDbEntity
  8
001
370
    50
100
AcDbLine
 10
398.59028
 20
73.364921
 30
0.0
 11
399.240175
 21
81.442362
 31
0.0
  0
CIRCLE
  5
4A1
330
1F
100
AcDbEntity
  8
001
370
    50
100
AcDbCircle
 10
406.85379
 20
77.098046
 30
0.0
 40
3.0
  0
LINE
  5
4A2
330
1F
100
AcDbEntity
  8
001
370
    50
100
AcDbLine
 10
414.889879
 20
80.829584
 30
0.0
 11
414.239983
 21
72.752143
 31
0.0
  0
LINE
  5
4A3
330
1F
100
AcDbEntity
  8
001
370
    50
100
AcDbLine
 10
413.886119
 20
81.909758
 30
0.0
 11
399.636094
 21
81.810273
 31
0.0
  0
CIRCLE
  5
4A4
330
1F
100
AcDbEntity
  8
001
370
    50
100
AcDbCircle
 10
406.858778
 20
77.111312
 30
0.0
 40
2.5
  0
LINE
  5
4A5
330
1F
100
AcDbEntity
  8
001
370
    50
100
AcDbLine
 10
407.438347
 20
78.110028
 30
0.0
 11
407.122027
 21
78.660731
 31
0.0
  0
LINE
  5
4A6
330
1F
100
AcDbEntity
  8
001
370
    50
100
AcDbLine
 10
406.28365
 20
78.112592
 30
0.0
 11
406.602413
 21
78.661885
 31
0.0
  0
ARC
  5
4A7
330
1F
100
AcDbEntity
  8
001
370
    50
100
AcDbCircle
 10
406.861887
 20
78.511309
 30
0.0
 40
0.3
100
AcDbArc
 50
29.872778
 51
149.872778
  0
LINE
  5
4A8
330
1F
100
AcDbEntity
  8
001
370
    50
100
AcDbLine
 10
406.28365
 20
78.112592
 30
0.0
 11
405.648566
 21
78.114002
 31
0.0
  0
LINE
  5
4A9
330
1F
100
AcDbEntity
  8
001
370
    50
100
AcDbLine
 10
405.70408
 20
77.113876
 30
0.0
 11
405.38776
 21
77.66458
 31
0.0
  0
ARC
  5
4AA
330
1F
100
AcDbEntity
  8
001
370
    50
100
AcDbCircle
 10
405.6479
 20
77.814002
 30
0.0
 40
0.3
100
AcDbArc
 50
89.872778
 51
209.872778
  0
LINE
  5
4AB
330
1F
100
AcDbEntity
  8
001
370
    50
100
AcDbLine
 10
405.70408
 20
77.113876
 30
0.0
 11
405.385317
 21
76.564582
 31
0.0
  0
LINE
  5
4AC
330
1F
100
AcDbEntity
  8
001
370
    50
100
AcDbLine
 10
406.279209
 20
76.112596
 30
0.0
 11
405.644125
 21
76.114007
 31
0.0
  0
ARC
  5
4AD
330
1F
100
AcDbEntity
  8
001
370
    50
100
AcDbCircle
 10
405.644791
 20
76.414006
 30
0.0
 40
0.3
100
AcDbArc
 50
149.872778
 51
269.872778
  0
LINE
  5
4AE
330
1F
100
AcDbEntity
  8
001
370
    50
100
AcDbLine
 10
406.279209
 20
76.112596
 30
0.0
 11
406.595529
 21
75.561893
 31
0.0
  0
LINE
  5
4AF
330
1F
100
AcDbEntity
  8
001
370
    50
100
AcDbLine
 10
407.433907
 20
76.110033
 30
0.0
 11
407.115143
 21
75.560739
 31
0.0
  0
ARC
  5
4B0
330
1F
100
AcDbEntity
  8
001
370
    50
100
AcDbCircle
 10
406.85567
 20
75.711315
 30
0.0
 40
0.3
100
AcDbArc
 50
209.872778
 51
329.872778
  0
LINE
  5
4B1
330
1F
100
AcDbEntity
  8
001
370
    50
100
AcDbLine
 10
407.433907
 20
76.110033
 30
0.0
 11
408.06899
 21
76.108622
 31
0.0
  0
LINE
  5
4B2
330
1F
100
AcDbEntity
  8
001
370
    50
100
AcDbLine
 10
408.013476
 20
77.108748
 30
0.0
 11
408.329796
 21
76.558044
 31
0.0
  0
ARC
  5
4B3
330
1F
100
AcDbEntity
  8
001
370
    50
100
AcDbCircle
 10
408.069656
 20
76.408622
 30
0.0
 40
0.3
100
AcDbArc
 50
269.872778
 51
29.872778
  0
LINE
  5
4B4
330
1F
100
AcDbEntity
  8
001
370
    50
100
AcDbLine
 10
408.013476
 20
77.108748
 30
0.0
 11
408.332239
 21
77.658042
 31
0.0
  0
LINE
  5
4B5
330
1F
100
AcDbEntity
  8
001
370
    50
100
AcDbLine
 10
407.438347
 20
78.110028
 30
0.0
 11
408.073431
 21
78.108617
 31
0.0
  0
ARC
  5
4B6
330
1F
100
AcDbEntity
  8
001
370
    50
100
AcDbCircle
 10
408.072765
 20
77.808618
 30
0.0
 40
0.3
100
AcDbArc
 50
329.872778
 51
89.872778
  0
LINE
  5
4B7
330
1F
100
AcDbEntity
  8
001
370
    50
100
AcDbLine
 10
399.59404
 20
72.284747
 30
0.0
 11
413.844064
 21
72.384232
 31
0.0
  0
ARC
  5
4B8
330
1F
100
AcDbEntity
  8
001
370
    50
100
AcDbCircle
 10
413.199032
 20
80.159979
 30
0.0
 40
3.0
100
AcDbArc
 50
298.349498
 51
144.83356
  0
ARC
  5
4B9
330
1F
100
AcDbEntity
  8
001
370
    50
100
AcDbCircle
 10
399.638887
 20
81.410282
 30
0.0
 40
0.4
100
AcDbArc
 50
90.4
 51
175.4
  0
ARC
  5
4BA
330
1F
100
AcDbEntity
  8
001
370
    50
100
AcDbCircle
 10
413.841272
 20
72.784223
 30
0.0
 40
0.4
100
AcDbArc
 50
270.4
 51
355.4
  0
POLYLINE
  5
4BB
330
1F
100
AcDbEntity
  8
001
370
    50
100
AcDb2dPolyline
 66
     1
 10
0.0
 20
0.0
 30
0.0
  0
VERTEX
  5
4BD
330
4BB
100
AcDbEntity
  8
001
370
    50
100
AcDbVertex
100
AcDb2dVertex
 10
414.316412
 20
73.702069
 30
0.0
  0
VERTEX
  5
4BE
330
4BB
100
AcDbEntity
  8
001
370
    50
100
AcDbVertex
100
AcDb2dVertex
 10
415.191249
 20
73.691642
 30
0.0
  0
VERTEX
  5
4BF
330
4BB
100
AcDbEntity
  8
001
370
    50
100
AcDbVertex
100
AcDb2dVertex
 10
416.381074
 20
73.678672
 30
0.0
  0
VERTEX
  5
4C0
330
4BB
100
AcDbEntity
  8
001
370
    50
100
AcDbVertex
100
AcDb2dVertex
 10
417.665845
 20
73.666524
 30
0.0
  0
VERTEX
  5
4C1
330
4BB
100
AcDbEntity
  8
001
370
    50
100
AcDbVertex
100
AcDb2dVertex
 10
418.544909
 20
73.659154
 30
0.0
  0
SEQEND
  5
4BC
330
4BB
100
AcDbEntity
  8
001
370
    50
  0
LINE
  5
4C2
330
1F
100
AcDbEntity
  8
001
370
    50
100
AcDbLine
 10
414.310688
 20
73.630925
 30
0.0
 11
418.544909
 21
73.630925
 31
0.0
  0
POLYLINE
  5
4C3
330
1F
100
AcDbEntity
  8
001
370
    50
100
AcDb2dPolyline
 66
     1
 10
0.0
 20
0.0
 30
0.0
  0
VERTEX
  5
4C5
330
4C3
100
AcDbEntity
  8
001
370
    50
100
AcDbVertex
100
AcDb2dVertex
 10
400.301278
 20
90.230725
 30
0.0
  0
VERTEX
  5
4C6
330
4C3
100
AcDbEntity
  8
001
370
    50
100
AcDbVertex
100
AcDb2dVertex
 10
400.07261
 20
87.364567
 30
0.0
  0
VERTEX
  5
4C7
330
4C3
100
AcDbEntity
  8
001
370
    50
100
AcDbVertex
100
AcDb2dVertex
 10
399.834625
 20
84.499199
 30
0.0
  0
VERTEX
  5
4C8
330
4C3
100
AcDbEntity
  8
001
370
    50
100
AcDbVertex
100
AcDb2dVertex
 10
399.732895
 20
83.330564
 30
0.0
  0
VERTEX
  5
4C9
330
4C3
100
AcDbEntity
  8
001
370
    50
100
AcDbVertex
100
AcDb2dVertex
 10
399.628556
 20
82.162154
 30
0.0
  0
VERTEX
  5
4CA
330
4C3
100
AcDbEntity
  8
001
370
    50
100
AcDbVertex
100
AcDb2dVertex
 10
399.612659
 20
81.986076
 30
0.0
  0
VERTEX
  5
4CB
330
4C3
100
AcDbEntity
  8
001
370
    50
100
AcDbVertex
100
AcDb2dVertex
 10
399.596762
 20
81.809998
 30
0.0
  0
SEQEND
  5
4C4
330
4C3
100
AcDbEntity
  8
001
370
    50
  0
LINE
  5
4CC
330
1F
100
AcDbEntity
  8
001
370
    50
100
AcDbLine
 10
399.886457
 20
81.812021
 30
0.0
 11
400.74126
 21
90.230925
 31
0.0
  0
LINE
  5
4CD
330
1F
100
AcDbEntity
  8
001
  6
DASHED
370
    30
100
AcDbLine
 10
399.938896
 20
81.812387
 30
0.0
 11
401.033929
 21
92.230925
 31
0.0
  0
LINE
  5
4CE
330
1F
100
AcDbEntity
  8
001
370
    50
100
AcDbLine
 10
398.59028
 20
131.096929
 30
0.0
 11
399.240175
 21
123.019489
 31
0.0
  0
LINE
  5
4CF
330
1F
100
AcDbEntity
  8
001
370
    50
100
AcDbLine
 10
399.59404
 20
132.177104
 30
0.0
 11
413.844064
 21
132.077618
 31
0.0
  0
ARC
  5
4D0
330
1F
100
AcDbEntity
  8
001
370
    50
100
AcDbCircle
 10
413.841272
 20
131.677628
 30
0.0
 40
0.4
100
AcDbArc
 50
4.6
 51
89.6
  0
LINE
  5
4D1
330
1F
100
AcDbEntity
  8
001
370
    50
100
AcDbLine
 10
414.239983
 20
131.709708
 30
0.0
 11
414.310688
 21
130.830925
 31
0.0
  0
ARC
  5
4D2
330
1F
100
AcDbEntity
  8
001
370
    50
100
AcDbCircle
 10
399.638887
 20
123.051568
 30
0.0
 40
0.4
100
AcDbArc
 50
184.6
 51
263.661054
  0
LINE
  5
4D3
330
1F
100
AcDbEntity
  8
001
370
     9
100
AcDbLine
 10
399.044909
 20
72.280925
 30
0.0
 11
394.275924
 21
72.280925
 31
0.0
  0
LINE
  5
4D4
330
1F
100
AcDbEntity
  8
001
370
    50
100
AcDbLine
 10
446.172727
 20
118.230925
 30
0.0
 11
431.544909
 21
118.230925
 31
0.0
  0
LINE
  5
4D5
330
1F
100
AcDbEntity
  8
001
370
    50
100
AcDbLine
 10
446.172727
 20
86.230925
 30
0.0
 11
431.544909
 21
86.230925
 31
0.0
  0
LINE
  5
4D6
330
1F
100
AcDbEntity
  8
001
  6
CENTER
370
     9
100
AcDbLine
 10
454.376307
 20
102.230925
 30
0.0
 11
395.515233
 21
102.230925
 31
0.0
  0
ARC
  5
4D7
330
1F
100
AcDbEntity
  8
001
370
    50
100
AcDbCircle
 10
413.8931
 20
80.909783
 30
0.0
 40
1.0
100
AcDbArc
 50
355.4
 51
90.4
  0
ARC
  5
4D8
330
1F
100
AcDbEntity
  8
001
370
    50
100
AcDbCircle
 10
399.587059
 20
73.284723
 30
0.0
 40
1.0
100
AcDbArc
 50
175.4
 51
270.4
  0
ARC
  5
4D9
330
1F
100
AcDbEntity
  8
001
370
    50
100
AcDbCircle
 10
399.587059
 20
131.177128
 30
0.0
 40
1.0
100
AcDbArc
 50
89.6
 51
184.6
  0
POLYLINE
  5
4DA
330
1F
100
AcDbEntity
  8
001
370
    50
100
AcDb2dPolyline
 66
     1
 10
0.0
 20
0.0
 30
0.0
  0
VERTEX
  5
4DC
330
4DA
100
AcDbEntity
  8
001
370
    50
100
AcDbVertex
100
AcDb2dVertex
 10
414.425972
 20
180.166462
 30
0.0
  0
VERTEX
  5
4DD
330
4DA
100
AcDbEntity
  8
001
370
    50
100
AcDbVertex
100
AcDb2dVertex
 10
414.941153
 20
180.15479
 30
0.0
  0
VERTEX
  5
4DE
330
4DA
100
AcDbEntity
  8
001
370
    50
100
AcDbVertex
100
AcDb2dVertex
 10
415.455706
 20
180.131955
 30
0.0
  0
VERTEX
  5
4DF
330
4DA
100
AcDbEntity
  8
001
370
    50
100
AcDbVertex
100
AcDb2dVertex
 10
415.971402
 20
180.089009
 30
0.0
  0
VERTEX
  5
4E0
330
4DA
100
AcDbEntity
  8
001
370
    50
100
AcDbVertex
100
AcDb2dVertex
 10
416.48544
 20
180.027171
 30
0.0
  0
VERTEX
  5
4E1
330
4DA
100
AcDbEntity
  8
001
370
    50
100
AcDbVertex
100
AcDb2dVertex
 10
417.005315
 20
179.947457
 30
0.0
  0
VERTEX
  5
4E2
330
4DA
100
AcDbEntity
  8
001
370
    50
100
AcDbVertex
100
AcDb2dVertex
 10
417.521488
 20
179.848003
 30
0.0
  0
VERTEX
  5
4E3
330
4DA
100
AcDbEntity
  8
001
370
    50
100
AcDbVertex
100
AcDb2dVertex
 10
418.034528
 20
179.727081
 30
0.0
  0
VERTEX
  5
4E4
330
4DA
100
AcDbEntity
  8
001
370
    50
100
AcDbVertex
100
AcDb2dVertex
 10
418.544909
 20
179.594219
 30
0.0
  0
SEQEND
  5
4DB
330
4DA
100
AcDbEntity
  8
001
370
    50
  0
POLYLINE
  5
4E5
330
1F
100
AcDbEntity
  8
001
370
    50
100
AcDb2dPolyline
 66
     1
 10
0.0
 20
0.0
 30
0.0
  0
VERTEX
  5
4E7
330
4E5
100
AcDbEntity
  8
001
370
    50
100
AcDbVertex
100
AcDb2dVertex
 10
418.544909
 20
179.594219
 30
0.0
  0
VERTEX
  5
4E8
330
4E5
100
AcDbEntity
  8
001
370
    50
100
AcDbVertex
100
AcDb2dVertex
 10
418.920794
 20
179.477218
 30
0.0
  0
VERTEX
  5
4E9
330
4E5
100
AcDbEntity
  8
001
370
    50
100
AcDbVertex
100
AcDb2dVertex
 10
419.294027
 20
179.35245
 30
0.0
  0
VERTEX
  5
4EA
330
4E5
100
AcDbEntity
  8
001
370
    50
100
AcDbVertex
100
AcDb2dVertex
 10
419.643015
 20
179.2214
 30
0.0
  0
VERTEX
  5
4EB
330
4E5
100
AcDbEntity
  8
001
370
    50
100
AcDbVertex
100
AcDb2dVertex
 10
419.987078
 20
179.077705
 30
0.0
  0
VERTEX
  5
4EC
330
4E5
100
AcDbEntity
  8
001
370
    50
100
AcDbVertex
100
AcDb2dVertex
 10
420.245665
 20
178.960433
 30
0.0
  0
VERTEX
  5
4ED
330
4E5
100
AcDbEntity
  8
001
370
    50
100
AcDbVertex
100
AcDb2dVertex
 10
420.500965
 20
178.83624
 30
0.0
  0
VERTEX
  5
4EE
330
4E5
100
AcDbEntity
  8
001
370
    50
100
AcDbVertex
100
AcDb2dVertex
 10
420.736491
 20
178.713554
 30
0.0
  0
VERTEX
  5
4EF
330
4E5
100
AcDbEntity
  8
001
370
    50
100
AcDbVertex
100
AcDb2dVertex
 10
420.968574
 20
178.584462
 30
0.0
  0
VERTEX
  5
4F0
330
4E5
100
AcDbEntity
  8
001
370
    50
100
AcDbVertex
100
AcDb2dVertex
 10
421.179935
 20
178.459277
 30
0.0
  0
VERTEX
  5
4F1
330
4E5
100
AcDbEntity
  8
001
370
    50
100
AcDbVertex
100
AcDb2dVertex
 10
421.387826
 20
178.328406
 30
0.0
  0
VERTEX
  5
4F2
330
4E5
100
AcDbEntity
  8
001
370
    50
100
AcDbVertex
100
AcDb2dVertex
 10
421.66022
 20
178.144024
 30
0.0
  0
VERTEX
  5
4F3
330
4E5
100
AcDbEntity
  8
001
370
    50
100
AcDbVertex
100
AcDb2dVertex
 10
421.925058
 20
177.948902
 30
0.0
  0
VERTEX
  5
4F4
330
4E5
100
AcDbEntity
  8
001
370
    50
100
AcDbVertex
100
AcDb2dVertex
 10
422.153078
 20
177.766466
 30
0.0
  0
VERTEX
  5
4F5
330
4E5
100
AcDbEntity
  8
001
370
    50
100
AcDbVertex
100
AcDb2dVertex
 10
422.3735
 20
177.575026
 30
0.0
  0
VERTEX
  5
4F6
330
4E5
100
AcDbEntity
  8
001
370
    50
100
AcDbVertex
100
AcDb2dVertex
 10
422.559901
 20
177.399374
 30
0.0
  0
VERTEX
  5
4F7
330
4E5
100
AcDbEntity
  8
001
370
    50
100
AcDbVertex
100
AcDb2dVertex
 10
422.739256
 20
177.216325
 30
0.0
  0
VERTEX
  5
4F8
330
4E5
100
AcDbEntity
  8
001
370
    50
100
AcDbVertex
100
AcDb2dVertex
 10
422.94396
 20
176.986445
 30
0.0
  0
VERTEX
  5
4F9
330
4E5
100
AcDbEntity
  8
001
370
    50
100
AcDbVertex
100
AcDb2dVertex
 10
423.133346
 20
176.744429
 30
0.0
  0
VERTEX
  5
4FA
330
4E5
100
AcDbEntity
  8
001
370
    50
100
AcDbVertex
100
AcDb2dVertex
 10
423.270477
 20
176.541879
 30
0.0
  0
VERTEX
  5
4FB
330
4E5
100
AcDbEntity
  8
001
370
    50
100
AcDbVertex
100
AcDb2dVertex
 10
423.39378
 20
176.329298
 30
0.0
  0
VERTEX
  5
4FC
330
4E5
100
AcDbEntity
  8
001
370
    50
100
AcDbVertex
100
AcDb2dVertex
 10
423.472541
 20
176.164686
 30
0.0
  0
VERTEX
  5
4FD
330
4E5
100
AcDbEntity
  8
001
370
    50
100
AcDbVertex
100
AcDb2dVertex
 10
423.526032
 20
175.992173
 30
0.0
  0
VERTEX
  5
4FE
330
4E5
100
AcDbEntity
  8
001
370
    50
100
AcDbVertex
100
AcDb2dVertex
 10
423.537089
 20
175.922347
 30
0.0
  0
VERTEX
  5
4FF
330
4E5
100
AcDbEntity
  8
001
370
    50
100
AcDbVertex
100
AcDb2dVertex
 10
423.544909
 20
175.851797
 30
0.0
  0
SEQEND
  5
4E6
330
4E5
100
AcDbEntity
  8
001
370
    50
  0
LINE
  5
500
330
1F
100
AcDbEntity
  8
001
  6
DASHED
370
    30
100
AcDbLine
 10
401.033929
 20
202.166462
 30
0.0
 11
401.033929
 21
182.166462
 31
0.0
  0
LINE
  5
501
330
1F
100
AcDbEntity
  8
001
  6
DASHED
370
    30
100
AcDbLine
 10
401.033929
 20
202.166462
 30
0.0
 11
399.253126
 21
219.109669
 31
0.0
  0
LINE
  5
502
330
1F
100
AcDbEntity
  8
001
  6
DASHED
370
    50
100
AcDbLine
 10
399.253126
 20
193.817604
 30
0.0
 11
399.253126
 21
193.819041
 31
0.0
  0
POLYLINE
  5
503
330
1F
100
AcDbEntity
  8
001
370
    50
100
AcDb2dPolyline
 66
     1
 10
0.0
 20
0.0
 30
0.0
  0
VERTEX
  5
505
330
503
100
AcDbEntity
  8
001
370
    50
100
AcDbVertex
100
AcDb2dVertex
 10
423.544909
 20
174.900364
 30
0.0
  0
VERTEX
  5
506
330
503
100
AcDbEntity
  8
001
370
    50
100
AcDbVertex
100
AcDb2dVertex
 10
423.544954
 20
174.891711
 30
0.0
  0
VERTEX
  5
507
330
503
100
AcDbEntity
  8
001
370
    50
100
AcDbVertex
100
AcDb2dVertex
 10
423.545021
 20
174.883058
 30
0.0
  0
VERTEX
  5
508
330
503
100
AcDbEntity
  8
001
370
    50
100
AcDbVertex
100
AcDb2dVertex
 10
423.553776
 20
174.714289
 30
0.0
  0
VERTEX
  5
509
330
503
100
AcDbEntity
  8
001
370
    50
100
AcDbVertex
100
AcDb2dVertex
 10
423.572033
 20
174.54606
 30
0.0
  0
VERTEX
  5
50A
330
503
100
AcDbEntity
  8
001
370
    50
100
AcDbVertex
100
AcDb2dVertex
 10
423.596944
 20
174.353426
 30
0.0
  0
VERTEX
  5
50B
330
503
100
AcDbEntity
  8
001
370
    50
100
AcDbVertex
100
AcDb2dVertex
 10
423.622312
 20
174.160953
 30
0.0
  0
VERTEX
  5
50C
330
503
100
AcDbEntity
  8
001
370
    50
100
AcDbVertex
100
AcDb2dVertex
 10
423.667471
 20
173.755643
 30
0.0
  0
VERTEX
  5
50D
330
503
100
AcDbEntity
  8
001
370
    50
100
AcDbVertex
100
AcDb2dVertex
 10
423.693811
 20
173.348728
 30
0.0
  0
VERTEX
  5
50E
330
503
100
AcDbEntity
  8
001
370
    50
100
AcDbVertex
100
AcDb2dVertex
 10
423.695177
 20
172.95514
 30
0.0
  0
VERTEX
  5
50F
330
503
100
AcDbEntity
  8
001
370
    50
100
AcDbVertex
100
AcDb2dVertex
 10
423.673653
 20
172.562104
 30
0.0
  0
VERTEX
  5
510
330
503
100
AcDbEntity
  8
001
370
    50
100
AcDbVertex
100
AcDb2dVertex
 10
423.63342
 20
172.174143
 30
0.0
  0
VERTEX
  5
511
330
503
100
AcDbEntity
  8
001
370
    50
100
AcDbVertex
100
AcDb2dVertex
 10
423.583149
 20
171.787249
 30
0.0
  0
SEQEND
  5
504
330
503
100
AcDbEntity
  8
001
370
    50
  0
POLYLINE
  5
512
330
1F
100
AcDbEntity
  8
001
370
    50
100
AcDb2dPolyline
 66
     1
 10
0.0
 20
0.0
 30
0.0
  0
VERTEX
  5
514
330
512
100
AcDbEntity
  8
001
370
    50
100
AcDbVertex
100
AcDb2dVertex
 10
423.583149
 20
171.787249
 30
0.0
  0
VERTEX
  5
515
330
512
100
AcDbEntity
  8
001
370
    50
100
AcDbVertex
100
AcDb2dVertex
 10
423.018404
 20
172.807369
 30
0.0
  0
VERTEX
  5
516
330
512
100
AcDbEntity
  8
001
370
    50
100
AcDbVertex
100
AcDb2dVertex
 10
422.152206
 20
174.157463
 30
0.0
  0
VERTEX
  5
517
330
512
100
AcDbEntity
  8
001
370
    50
100
AcDbVertex
100
AcDb2dVertex
 10
421.25468
 20
175.283525
 30
0.0
  0
VERTEX
  5
518
330
512
100
AcDbEntity
  8
001
370
    50
100
AcDbVertex
100
AcDb2dVertex
 10
420.315074
 20
176.21882
 30
0.0
  0
VERTEX
  5
519
330
512
100
AcDbEntity
  8
001
370
    50
100
AcDbVertex
100
AcDb2dVertex
 10
419.275184
 20
177.096355
 30
0.0
  0
VERTEX
  5
51A
330
512
100
AcDbEntity
  8
001
370
    50
100
AcDbVertex
100
AcDb2dVertex
 10
418.134863
 20
177.900507
 30
0.0
  0
VERTEX
  5
51B
330
512
100
AcDbEntity
  8
001
370
    50
100
AcDbVertex
100
AcDb2dVertex
 10
416.922273
 20
178.583711
 30
0.0
  0
VERTEX
  5
51C
330
512
100
AcDbEntity
  8
001
370
    50
100
AcDbVertex
100
AcDb2dVertex
 10
415.686467
 20
179.144755
 30
0.0
  0
VERTEX
  5
51D
330
512
100
AcDbEntity
  8
001
370
    50
100
AcDbVertex
100
AcDb2dVertex
 10
414.447084
 20
179.587671
 30
0.0
  0
VERTEX
  5
51E
330
512
100
AcDbEntity
  8
001
370
    50
100
AcDbVertex
100
AcDb2dVertex
 10
413.053993
 20
179.908822
 30
0.0
  0
VERTEX
  5
51F
330
512
100
AcDbEntity
  8
001
370
    50
100
AcDbVertex
100
AcDb2dVertex
 10
411.479241
 20
180.10204
 30
0.0
  0
VERTEX
  5
520
330
512
100
AcDbEntity
  8
001
370
    50
100
AcDbVertex
100
AcDb2dVertex
 10
410.327872
 20
180.166462
 30
0.0
  0
SEQEND
  5
513
330
512
100
AcDbEntity
  8
001
370
    50
  0
LINE
  5
521
330
1F
100
AcDbEntity
  8
001
370
    50
100
AcDbLine
 10
428.544909
 20
208.166462
 30
0.0
 11
428.544909
 21
176.166462
 31
0.0
  0
ARC
  5
522
330
1F
100
AcDbEntity
  8
001
370
    50
100
AcDbCircle
 10
428.544909
 20
213.166462
 30
0.0
 40
5.000000000000001
100
AcDbArc
 50
180.0
 51
270.0
  0
ARC
  5
523
330
1F
100
AcDbEntity
  8
001
370
    50
100
AcDbCircle
 10
428.544909
 20
171.166462
 30
0.0
 40
5.000000000000001
100
AcDbArc
 50
90.0
 51
180.0
  0
POLYLINE
  5
524
330
1F
100
AcDbEntity
  8
001
370
    50
100
AcDb2dPolyline
 66
     1
 10
0.0
 20
0.0
 30
0.0
  0
VERTEX
  5
526
330
524
100
AcDbEntity
  8
001
370
    50
100
AcDbVertex
100
AcDb2dVertex
 10
414.425972
 20
218.127201
 30
0.0
  0
VERTEX
  5
527
330
524
100
AcDbEntity
  8
001
370
    50
100
AcDbVertex
100
AcDb2dVertex
 10
414.940908
 20
218.121829
 30
0.0
  0
VERTEX
  5
528
330
524
100
AcDbEntity
  8
001
370
    50
100
AcDbVertex
100
AcDb2dVertex
 10
415.455706
 20
218.111223
 30
0.0
  0
VERTEX
  5
529
330
524
100
AcDbEntity
  8
001
370
    50
100
AcDbVertex
100
AcDb2dVertex
 10
415.970753
 20
218.091257
 30
0.0
  0
VERTEX
  5
52A
330
524
100
AcDbEntity
  8
001
370
    50
100
AcDbVertex
100
AcDb2dVertex
 10
416.48544
 20
218.062361
 30
0.0
  0
VERTEX
  5
52B
330
524
100
AcDbEntity
  8
001
370
    50
100
AcDbVertex
100
AcDb2dVertex
 10
417.003918
 20
218.025058
 30
0.0
  0
VERTEX
  5
52C
330
524
100
AcDbEntity
  8
001
370
    50
100
AcDbVertex
100
AcDb2dVertex
 10
417.521488
 20
217.977614
 30
0.0
  0
VERTEX
  5
52D
330
524
100
AcDbEntity
  8
001
370
    50
100
AcDbVertex
100
AcDb2dVertex
 10
418.033534
 20
217.919428
 30
0.0
  0
VERTEX
  5
52E
330
524
100
AcDbEntity
  8
001
370
    50
100
AcDbVertex
100
AcDb2dVertex
 10
418.544909
 20
217.854955
 30
0.0
  0
SEQEND
  5
525
330
524
100
AcDbEntity
  8
001
370
    50
  0
POLYLINE
  5
52F
330
1F
100
AcDbEntity
  8
001
370
    50
100
AcDb2dPolyline
 66
     1
 10
0.0
 20
0.0
 30
0.0
  0
VERTEX
  5
531
330
52F
100
AcDbEntity
  8
001
370
    50
100
AcDbVertex
100
AcDb2dVertex
 10
418.544909
 20
217.854955
 30
0.0
  0
VERTEX
  5
532
330
52F
100
AcDbEntity
  8
001
370
    50
100
AcDbVertex
100
AcDb2dVertex
 10
418.922883
 20
217.774426
 30
0.0
  0
VERTEX
  5
533
330
52F
100
AcDbEntity
  8
001
370
    50
100
AcDbVertex
100
AcDb2dVertex
 10
419.294027
 20
217.671521
 30
0.0
  0
VERTEX
  5
534
330
52F
100
AcDbEntity
  8
001
370
    50
100
AcDbVertex
100
AcDb2dVertex
 10
419.647889
 20
217.531244
 30
0.0
  0
VERTEX
  5
535
330
52F
100
AcDbEntity
  8
001
370
    50
100
AcDbVertex
100
AcDb2dVertex
 10
419.987078
 20
217.356431
 30
0.0
  0
VERTEX
  5
536
330
52F
100
AcDbEntity
  8
001
370
    50
100
AcDbVertex
100
AcDb2dVertex
 10
420.249499
 20
217.195474
 30
0.0
  0
VERTEX
  5
537
330
52F
100
AcDbEntity
  8
001
370
    50
100
AcDbVertex
100
AcDb2dVertex
 10
420.500965
 20
217.018456
 30
0.0
  0
VERTEX
  5
538
330
52F
100
AcDbEntity
  8
001
370
    50
100
AcDbVertex
100
AcDb2dVertex
 10
420.740524
 20
216.826584
 30
0.0
  0
VERTEX
  5
539
330
52F
100
AcDbEntity
  8
001
370
    50
100
AcDbVertex
100
AcDb2dVertex
 10
420.968574
 20
216.621018
 30
0.0
  0
VERTEX
  5
53A
330
52F
100
AcDbEntity
  8
001
370
    50
100
AcDbVertex
100
AcDb2dVertex
 10
421.183897
 20
216.40459
 30
0.0
  0
VERTEX
  5
53B
330
52F
100
AcDbEntity
  8
001
370
    50
100
AcDbVertex
100
AcDb2dVertex
 10
421.387826
 20
216.177411
 30
0.0
  0
VERTEX
  5
53C
330
52F
100
AcDbEntity
  8
001
370
    50
100
AcDbVertex
100
AcDb2dVertex
 10
421.668343
 20
215.824645
 30
0.0
  0
VERTEX
  5
53D
330
52F
100
AcDbEntity
  8
001
370
    50
100
AcDbVertex
100
AcDb2dVertex
 10
421.925058
 20
215.454045
 30
0.0
  0
VERTEX
  5
53E
330
52F
100
AcDbEntity
  8
001
370
    50
100
AcDbVertex
100
AcDb2dVertex
 10
422.160392
 20
215.065906
 30
0.0
  0
VERTEX
  5
53F
330
52F
100
AcDbEntity
  8
001
370
    50
100
AcDbVertex
100
AcDb2dVertex
 10
422.3735
 20
214.665189
 30
0.0
  0
VERTEX
  5
540
330
52F
100
AcDbEntity
  8
001
370
    50
100
AcDbVertex
100
AcDb2dVertex
 10
422.566343
 20
214.252158
 30
0.0
  0
VERTEX
  5
541
330
52F
100
AcDbEntity
  8
001
370
    50
100
AcDbVertex
100
AcDb2dVertex
 10
422.739256
 20
213.830334
 30
0.0
  0
VERTEX
  5
542
330
52F
100
AcDbEntity
  8
001
370
    50
100
AcDbVertex
100
AcDb2dVertex
 10
422.954459
 20
213.214167
 30
0.0
  0
VERTEX
  5
543
330
52F
100
AcDbEntity
  8
001
370
    50
100
AcDbVertex
100
AcDb2dVertex
 10
423.133346
 20
212.586452
 30
0.0
  0
VERTEX
  5
544
330
52F
100
AcDbEntity
  8
001
370
    50
100
AcDbVertex
100
AcDb2dVertex
 10
423.280123
 20
211.938296
 30
0.0
  0
VERTEX
  5
545
330
52F
100
AcDbEntity
  8
001
370
    50
100
AcDbVertex
100
AcDb2dVertex
 10
423.39378
 20
211.283401
 30
0.0
  0
VERTEX
  5
546
330
52F
100
AcDbEntity
  8
001
370
    50
100
AcDbVertex
100
AcDb2dVertex
 10
423.477007
 20
210.615074
 30
0.0
  0
VERTEX
  5
547
330
52F
100
AcDbEntity
  8
001
370
    50
100
AcDbVertex
100
AcDb2dVertex
 10
423.526032
 20
209.943648
 30
0.0
  0
VERTEX
  5
548
330
52F
100
AcDbEntity
  8
001
370
    50
100
AcDbVertex
100
AcDb2dVertex
 10
423.538171
 20
209.581464
 30
0.0
  0
VERTEX
  5
549
330
52F
100
AcDbEntity
  8
001
370
    50
100
AcDbVertex
100
AcDb2dVertex
 10
423.544909
 20
209.219078
 30
0.0
  0
SEQEND
  5
530
330
52F
100
AcDbEntity
  8
001
370
    50
  0
ARC
  5
54A
330
1F
100
AcDbEntity
  8
001
370
    50
100
AcDbCircle
 10
418.544909
 20
215.766462
 30
0.0
 40
5.000000000000001
100
AcDbArc
 50
0.0
 51
90.0
  0
POLYLINE
  5
54B
330
1F
100
AcDbEntity
  8
001
370
    50
100
AcDb2dPolyline
 66
     1
 10
0.0
 20
0.0
 30
0.0
  0
VERTEX
  5
54D
330
54B
100
AcDbEntity
  8
001
370
    50
100
AcDbVertex
100
AcDb2dVertex
 10
413.259809
 20
220.766462
 30
0.0
  0
VERTEX
  5
54E
330
54B
100
AcDbEntity
  8
001
370
    50
100
AcDbVertex
100
AcDb2dVertex
 10
413.188016
 20
220.765994
 30
0.0
  0
VERTEX
  5
54F
330
54B
100
AcDbEntity
  8
001
370
    50
100
AcDbVertex
100
AcDb2dVertex
 10
413.083114
 20
220.76396
 30
0.0
  0
VERTEX
  5
550
330
54B
100
AcDbEntity
  8
001
370
    50
100
AcDbVertex
100
AcDb2dVertex
 10
412.978521
 20
220.760054
 30
0.0
  0
VERTEX
  5
551
330
54B
100
AcDbEntity
  8
001
370
    50
100
AcDbVertex
100
AcDb2dVertex
 10
412.906991
 20
220.756457
 30
0.0
  0
SEQEND
  5
54C
330
54B
100
AcDbEntity
  8
001
370
    50
  0
LINE
  5
552
330
1F
100
AcDbEntity
  8
001
370
    50
100
AcDbLine
 10
408.617221
 20
220.766462
 30
0.0
 11
400.744909
 21
220.766462
 31
0.0
  0
LINE
  5
553
330
1F
100
AcDbEntity
  8
001
370
    50
100
AcDbLine
 10
418.544909
 20
220.766462
 30
0.0
 11
413.259809
 21
220.766462
 31
0.0
  0
LINE
  5
554
330
1F
100
AcDbEntity
  8
001
370
    50
100
AcDbLine
 10
400.744909
 20
218.127201
 30
0.0
 11
414.425972
 21
218.127201
 31
0.0
  0
POLYLINE
  5
555
330
1F
100
AcDbEntity
  8
001
370
    50
100
AcDb2dPolyline
 66
     1
 10
0.0
 20
0.0
 30
0.0
  0
VERTEX
  5
557
330
555
100
AcDbEntity
  8
001
370
    50
100
AcDbVertex
100
AcDb2dVertex
 10
412.906991
 20
220.756457
 30
0.0
  0
VERTEX
  5
558
330
555
100
AcDbEntity
  8
001
370
    50
100
AcDbVertex
100
AcDb2dVertex
 10
412.03571
 20
220.760053
 30
0.0
  0
VERTEX
  5
559
330
555
100
AcDbEntity
  8
001
370
    50
100
AcDbVertex
100
AcDb2dVertex
 10
410.762294
 20
220.76396
 30
0.0
  0
VERTEX
  5
55A
330
555
100
AcDbEntity
  8
001
370
    50
100
AcDbVertex
100
AcDb2dVertex
 10
409.488658
 20
220.765993
 30
0.0
  0
VERTEX
  5
55B
330
555
100
AcDbEntity
  8
001
370
    50
100
AcDbVertex
100
AcDb2dVertex
 10
408.617221
 20
220.766462
 30
0.0
  0
SEQEND
  5
556
330
555
100
AcDbEntity
  8
001
370
    50
  0
LINE
  5
55C
330
1F
100
AcDbEntity
  8
001
370
    50
100
AcDbLine
 10
399.253126
 20
216.28982
 30
0.0
 11
399.2451
 21
216.438102
 31
0.0
  0
POLYLINE
  5
55D
330
1F
100
AcDbEntity
  8
001
370
    50
100
AcDb2dPolyline
 66
     1
 10
0.0
 20
0.0
 30
0.0
  0
VERTEX
  5
55F
330
55D
100
AcDbEntity
  8
001
370
    50
100
AcDbVertex
100
AcDb2dVertex
 10
399.2451
 20
216.438102
 30
0.0
  0
VERTEX
  5
560
330
55D
100
AcDbEntity
  8
001
370
    50
100
AcDbVertex
100
AcDb2dVertex
 10
399.257149
 20
216.641433
 30
0.0
  0
VERTEX
  5
561
330
55D
100
AcDbEntity
  8
001
370
    50
100
AcDbVertex
100
AcDb2dVertex
 10
399.283732
 20
216.842405
 30
0.0
  0
VERTEX
  5
562
330
55D
100
AcDbEntity
  8
001
370
    50
100
AcDbVertex
100
AcDb2dVertex
 10
399.321771
 20
216.994335
 30
0.0
  0
VERTEX
  5
563
330
55D
100
AcDbEntity
  8
001
370
    50
100
AcDbVertex
100
AcDb2dVertex
 10
399.374347
 20
217.142331
 30
0.0
  0
VERTEX
  5
564
330
55D
100
AcDbEntity
  8
001
370
    50
100
AcDbVertex
100
AcDb2dVertex
 10
399.439231
 20
217.285134
 30
0.0
  0
VERTEX
  5
565
330
55D
100
AcDbEntity
  8
001
370
    50
100
AcDbVertex
100
AcDb2dVertex
 10
399.516529
 20
217.421359
 30
0.0
  0
VERTEX
  5
566
330
55D
100
AcDbEntity
  8
001
370
    50
100
AcDbVertex
100
AcDb2dVertex
 10
399.60138
 20
217.542786
 30
0.0
  0
VERTEX
  5
567
330
55D
100
AcDbEntity
  8
001
370
    50
100
AcDbVertex
100
AcDb2dVertex
 10
399.69706
 20
217.656029
 30
0.0
  0
VERTEX
  5
568
330
55D
100
AcDbEntity
  8
001
370
    50
100
AcDbVertex
100
AcDb2dVertex
 10
399.802709
 20
217.75995
 30
0.0
  0
VERTEX
  5
569
330
55D
100
AcDbEntity
  8
001
370
    50
100
AcDbVertex
100
AcDb2dVertex
 10
399.917821
 20
217.853037
 30
0.0
  0
VERTEX
  5
56A
330
55D
100
AcDbEntity
  8
001
370
    50
100
AcDbVertex
100
AcDb2dVertex
 10
400.029153
 20
217.92646
 30
0.0
  0
VERTEX
  5
56B
330
55D
100
AcDbEntity
  8
001
370
    50
100
AcDbVertex
100
AcDb2dVertex
 10
400.146761
 20
217.989805
 30
0.0
  0
VERTEX
  5
56C
330
55D
100
AcDbEntity
  8
001
370
    50
100
AcDbVertex
100
AcDb2dVertex
 10
400.269612
 20
218.042594
 30
0.0
  0
VERTEX
  5
56D
330
55D
100
AcDbEntity
  8
001
370
    50
100
AcDbVertex
100
AcDb2dVertex
 10
400.396843
 20
218.08209
 30
0.0
  0
VERTEX
  5
56E
330
55D
100
AcDbEntity
  8
001
370
    50
100
AcDbVertex
100
AcDb2dVertex
 10
400.569367
 20
218.111856
 30
0.0
  0
VERTEX
  5
56F
330
55D
100
AcDbEntity
  8
001
370
    50
100
AcDbVertex
100
AcDb2dVertex
 10
400.744909
 20
218.127201
 30
0.0
  0
SEQEND
  5
55E
330
55D
100
AcDbEntity
  8
001
370
    50
  0
ARC
  5
570
330
1F
100
AcDbEntity
  8
001
370
    50
100
AcDbCircle
 10
400.744909
 20
219.266462
 30
0.0
 40
1.499999999999998
100
AcDbArc
 50
90.0
 51
180.0
  0
ARC
  5
571
330
1F
100
AcDbEntity
  8
001
  6
DASHED
370
    30
100
AcDbCircle
 10
400.744909
 20
219.266462
 30
0.0
 40
1.499999999999998
100
AcDbArc
 50
180.0
 51
186.0
  0
LINE
  5
572
330
1F
100
AcDbEntity
  8
001
370
    50
100
AcDbLine
 10
399.244909
 20
219.266462
 30
0.0
 11
399.244909
 21
216.459653
 31
0.0
  0
POLYLINE
  5
573
330
1F
100
AcDbEntity
  8
001
370
    50
100
AcDb2dPolyline
 66
     1
 10
0.0
 20
0.0
 30
0.0
  0
VERTEX
  5
575
330
573
100
AcDbEntity
  8
001
370
    50
100
AcDbVertex
100
AcDb2dVertex
 10
423.544909
 20
168.569664
 30
0.0
  0
VERTEX
  5
576
330
573
100
AcDbEntity
  8
001
370
    50
100
AcDbVertex
100
AcDb2dVertex
 10
423.526954
 20
168.207891
 30
0.0
  0
VERTEX
  5
577
330
573
100
AcDbEntity
  8
001
370
    50
100
AcDbVertex
100
AcDb2dVertex
 10
423.49255
 20
167.84802
 30
0.0
  0
VERTEX
  5
578
330
573
100
AcDbEntity
  8
001
370
    50
100
AcDbVertex
100
AcDb2dVertex
 10
423.416842
 20
167.440105
 30
0.0
  0
VERTEX
  5
579
330
573
100
AcDbEntity
  8
001
370
    50
100
AcDbVertex
100
AcDb2dVertex
 10
423.304459
 20
167.039899
 30
0.0
  0
VERTEX
  5
57A
330
573
100
AcDbEntity
  8
001
370
    50
100
AcDbVertex
100
AcDb2dVertex
 10
423.160959
 20
166.650712
 30
0.0
  0
VERTEX
  5
57B
330
573
100
AcDbEntity
  8
001
370
    50
100
AcDbVertex
100
AcDb2dVertex
 10
422.986468
 20
166.274842
 30
0.0
  0
VERTEX
  5
57C
330
573
100
AcDbEntity
  8
001
370
    50
100
AcDbVertex
100
AcDb2dVertex
 10
422.78084
 20
165.915501
 30
0.0
  0
VERTEX
  5
57D
330
573
100
AcDbEntity
  8
001
370
    50
100
AcDbVertex
100
AcDb2dVertex
 10
422.545788
 20
165.574438
 30
0.0
  0
VERTEX
  5
57E
330
573
100
AcDbEntity
  8
001
370
    50
100
AcDbVertex
100
AcDb2dVertex
 10
422.284245
 20
165.254563
 30
0.0
  0
VERTEX
  5
57F
330
573
100
AcDbEntity
  8
001
370
    50
100
AcDbVertex
100
AcDb2dVertex
 10
421.997143
 20
164.95759
 30
0.0
  0
VERTEX
  5
580
330
573
100
AcDbEntity
  8
001
370
    50
100
AcDbVertex
100
AcDb2dVertex
 10
421.684085
 20
164.684415
 30
0.0
  0
VERTEX
  5
581
330
573
100
AcDbEntity
  8
001
370
    50
100
AcDbVertex
100
AcDb2dVertex
 10
421.349172
 20
164.438315
 30
0.0
  0
VERTEX
  5
582
330
573
100
AcDbEntity
  8
001
370
    50
100
AcDbVertex
100
AcDb2dVertex
 10
420.99588
 20
164.221168
 30
0.0
  0
VERTEX
  5
583
330
573
100
AcDbEntity
  8
001
370
    50
100
AcDbVertex
100
AcDb2dVertex
 10
420.625756
 20
164.03453
 30
0.0
  0
VERTEX
  5
584
330
573
100
AcDbEntity
  8
001
370
    50
100
AcDbVertex
100
AcDb2dVertex
 10
420.237363
 20
163.878893
 30
0.0
  0
VERTEX
  5
585
330
573
100
AcDbEntity
  8
001
370
    50
100
AcDbVertex
100
AcDb2dVertex
 10
419.83707
 20
163.755936
 30
0.0
  0
VERTEX
  5
586
330
573
100
AcDbEntity
  8
001
370
    50
100
AcDbVertex
100
AcDb2dVertex
 10
419.428391
 20
163.665979
 30
0.0
  0
VERTEX
  5
587
330
573
100
AcDbEntity
  8
001
370
    50
100
AcDbVertex
100
AcDb2dVertex
 10
419.013904
 20
163.613196
 30
0.0
  0
VERTEX
  5
588
330
573
100
AcDbEntity
  8
001
370
    50
100
AcDbVertex
100
AcDb2dVertex
 10
418.779623
 20
163.600586
 30
0.0
  0
VERTEX
  5
589
330
573
100
AcDbEntity
  8
001
370
    50
100
AcDbVertex
100
AcDb2dVertex
 10
418.544909
 20
163.59469
 30
0.0
  0
SEQEND
  5
574
330
573
100
AcDbEntity
  8
001
370
    50
  0
LINE
  5
58A
330
1F
100
AcDbEntity
  8
001
  6
DASHED
370
    50
100
AcDbLine
 10
400.744909
 20
180.166462
 30
0.0
 11
400.74126
 21
180.166462
 31
0.0
  0
ARC
  5
58B
330
1F
100
AcDbEntity
  8
001
370
    50
100
AcDbCircle
 10
418.544909
 20
168.566462
 30
0.0
 40
5.000000000000001
100
AcDbArc
 50
270.0
 51
0.0
  0
LINE
  5
58C
330
1F
100
AcDbEntity
  8
001
370
    50
100
AcDbLine
 10
423.544909
 20
171.17006
 30
0.0
 11
423.544909
 21
168.566462
 31
0.0
  0
LINE
  5
58D
330
1F
100
AcDbEntity
  8
001
  6
DASHED
370
    50
100
AcDbLine
 10
399.244909
 20
193.819989
 30
0.0
 11
399.244909
 21
193.817404
 31
0.0
  0
LINE
  5
58E
330
1F
100
AcDbEntity
  8
001
370
    50
100
AcDbLine
 10
423.544909
 20
175.851797
 30
0.0
 11
423.544909
 21
174.900364
 31
0.0
  0
LINE
  5
58F
330
1F
100
AcDbEntity
  8
001
370
    50
100
AcDbLine
 10
399.244909
 20
180.166462
 30
0.0
 11
414.425972
 21
180.166462
 31
0.0
  0
LINE
  5
590
330
1F
100
AcDbEntity
  8
001
370
    50
100
AcDbLine
 10
400.30124
 20
204.166462
 30
0.0
 11
399.244909
 21
204.166462
 31
0.0
  0
LINE
  5
591
330
1F
100
AcDbEntity
  8
001
370
    50
100
AcDbLine
 10
423.544909
 20
215.766462
 30
0.0
 11
423.544909
 21
204.119782
 31
0.0
  0
LINE
  5
592
330
1F
100
AcDbEntity
  8
001
370
    50
100
AcDbLine
 10
399.244909
 20
193.991462
 30
0.0
 11
399.244909
 21
180.166462
 31
0.0
  0
LINE
  5
593
330
1F
100
AcDbEntity
  8
001
370
    50
100
AcDbLine
 10
431.544909
 20
176.166462
 30
0.0
 11
431.544909
 21
208.166462
 31
0.0
  0
LINE
  5
594
330
1F
100
AcDbEntity
  8
001
370
    50
100
AcDbLine
 10
431.544909
 20
207.666462
 30
0.0
 11
428.544909
 21
207.666462
 31
0.0
  0
LINE
  5
595
330
1F
100
AcDbEntity
  8
001
370
    50
100
AcDbLine
 10
428.544909
 20
176.666462
 30
0.0
 11
431.544909
 21
176.666462
 31
0.0
  0
LINE
  5
596
330
1F
100
AcDbEntity
  8
001
370
    50
100
AcDbLine
 10
398.634041
 20
163.844354
 30
0.0
 11
399.240175
 21
171.377898
 31
0.0
  0
CIRCLE
  5
597
330
1F
100
AcDbEntity
  8
001
370
    50
100
AcDbCircle
 10
406.85379
 20
167.033583
 30
0.0
 40
3.0
  0
LINE
  5
598
330
1F
100
AcDbEntity
  8
001
370
    50
100
AcDbLine
 10
414.846118
 20
170.221223
 30
0.0
 11
414.239983
 21
162.687679
 31
0.0
  0
LINE
  5
599
330
1F
100
AcDbEntity
  8
001
370
    50
100
AcDbLine
 10
413.340478
 20
171.841485
 30
0.0
 11
399.636094
 21
171.745809
 31
0.0
  0
CIRCLE
  5
59A
330
1F
100
AcDbEntity
  8
001
370
    50
100
AcDbCircle
 10
406.858778
 20
167.046848
 30
0.0
 40
2.5
  0
LINE
  5
59B
330
1F
100
AcDbEntity
  8
001
370
    50
100
AcDbLine
 10
407.438347
 20
168.045564
 30
0.0
 11
407.122027
 21
168.596268
 31
0.0
  0
LINE
  5
59C
330
1F
100
AcDbEntity
  8
001
370
    50
100
AcDbLine
 10
406.28365
 20
168.048128
 30
0.0
 11
406.602413
 21
168.597421
 31
0.0
  0
ARC
  5
59D
330
1F
100
AcDbEntity
  8
001
370
    50
100
AcDbCircle
 10
406.861887
 20
168.446845
 30
0.0
 40
0.3
100
AcDbArc
 50
29.872778
 51
149.872778
  0
LINE
  5
59E
330
1F
100
AcDbEntity
  8
001
370
    50
100
AcDbLine
 10
406.28365
 20
168.048128
 30
0.0
 11
405.648566
 21
168.049538
 31
0.0
  0
LINE
  5
59F
330
1F
100
AcDbEntity
  8
001
370
    50
100
AcDbLine
 10
405.70408
 20
167.049412
 30
0.0
 11
405.38776
 21
167.600116
 31
0.0
  0
ARC
  5
5A0
330
1F
100
AcDbEntity
  8
001
370
    50
100
AcDbCircle
 10
405.6479
 20
167.749539
 30
0.0
 40
0.3
100
AcDbArc
 50
89.872778
 51
209.872778
  0
LINE
  5
5A1
330
1F
100
AcDbEntity
  8
001
370
    50
100
AcDbLine
 10
405.70408
 20
167.049412
 30
0.0
 11
405.385317
 21
166.500119
 31
0.0
  0
LINE
  5
5A2
330
1F
100
AcDbEntity
  8
001
370
    50
100
AcDbLine
 10
406.279209
 20
166.048133
 30
0.0
 11
405.644125
 21
166.049543
 31
0.0
  0
ARC
  5
5A3
330
1F
100
AcDbEntity
  8
001
370
    50
100
AcDbCircle
 10
405.644791
 20
166.349542
 30
0.0
 40
0.3
100
AcDbArc
 50
149.872778
 51
269.872778
  0
LINE
  5
5A4
330
1F
100
AcDbEntity
  8
001
370
    50
100
AcDbLine
 10
406.279209
 20
166.048133
 30
0.0
 11
406.595529
 21
165.497429
 31
0.0
  0
LINE
  5
5A5
330
1F
100
AcDbEntity
  8
001
370
    50
100
AcDbLine
 10
407.433907
 20
166.045569
 30
0.0
 11
407.115143
 21
165.496275
 31
0.0
  0
ARC
  5
5A6
330
1F
100
AcDbEntity
  8
001
370
    50
100
AcDbCircle
 10
406.85567
 20
165.646852
 30
0.0
 40
0.3
100
AcDbArc
 50
209.872778
 51
329.872778
  0
LINE
  5
5A7
330
1F
100
AcDbEntity
  8
001
370
    50
100
AcDbLine
 10
407.433907
 20
166.045569
 30
0.0
 11
408.06899
 21
166.044159
 31
0.0
  0
LINE
  5
5A8
330
1F
100
AcDbEntity
  8
001
370
    50
100
AcDbLine
 10
408.013476
 20
167.044284
 30
0.0
 11
408.329796
 21
166.493581
 31
0.0
  0
ARC
  5
5A9
330
1F
100
AcDbEntity
  8
001
370
    50
100
AcDbCircle
 10
408.069656
 20
166.344158
 30
0.0
 40
0.3
100
AcDbArc
 50
269.872778
 51
29.872778
  0
LINE
  5
5AA
330
1F
100
AcDbEntity
  8
001
370
    50
100
AcDbLine
 10
408.013476
 20
167.044284
 30
0.0
 11
408.332239
 21
167.593578
 31
0.0
  0
LINE
  5
5AB
330
1F
100
AcDbEntity
  8
001
370
    50
100
AcDbLine
 10
407.438347
 20
168.045564
 30
0.0
 11
408.073431
 21
168.044154
 31
0.0
  0
ARC
  5
5AC
330
1F
100
AcDbEntity
  8
001
370
    50
100
AcDbCircle
 10
408.072765
 20
167.744154
 30
0.0
 40
0.3
100
AcDbArc
 50
329.872778
 51
89.872778
  0
LINE
  5
5AD
330
1F
100
AcDbEntity
  8
001
370
    50
100
AcDbLine
 10
400.139681
 20
162.224093
 30
0.0
 11
413.844064
 21
162.319769
 31
0.0
  0
ARC
  5
5AE
330
1F
100
AcDbEntity
  8
001
370
    50
100
AcDbCircle
 10
413.199032
 20
170.095515
 30
0.0
 40
3.0
100
AcDbArc
 50
298.349498
 51
144.83356
  0
ARC
  5
5AF
330
1F
100
AcDbEntity
  8
001
370
    50
100
AcDbCircle
 10
399.638887
 20
171.345819
 30
0.0
 40
0.4
100
AcDbArc
 50
90.4
 51
175.4
  0
ARC
  5
5B0
330
1F
100
AcDbEntity
  8
001
370
    50
100
AcDbCircle
 10
413.841272
 20
162.719759
 30
0.0
 40
0.4
100
AcDbArc
 50
270.4
 51
355.4
  0
POLYLINE
  5
5B1
330
1F
100
AcDbEntity
  8
001
370
    50
100
AcDb2dPolyline
 66
     1
 10
0.0
 20
0.0
 30
0.0
  0
VERTEX
  5
5B3
330
5B1
100
AcDbEntity
  8
001
370
    50
100
AcDbVertex
100
AcDb2dVertex
 10
414.316412
 20
163.637605
 30
0.0
  0
VERTEX
  5
5B4
330
5B1
100
AcDbEntity
  8
001
370
    50
100
AcDbVertex
100
AcDb2dVertex
 10
415.191249
 20
163.627178
 30
0.0
  0
VERTEX
  5
5B5
330
5B1
100
AcDbEntity
  8
001
370
    50
100
AcDbVertex
100
AcDb2dVertex
 10
416.381074
 20
163.614208
 30
0.0
  0
VERTEX
  5
5B6
330
5B1
100
AcDbEntity
  8
001
370
    50
100
AcDbVertex
100
AcDb2dVertex
 10
417.665845
 20
163.60206
 30
0.0
  0
VERTEX
  5
5B7
330
5B1
100
AcDbEntity
  8
001
370
    50
100
AcDbVertex
100
AcDb2dVertex
 10
418.544909
 20
163.59469
 30
0.0
  0
SEQEND
  5
5B2
330
5B1
100
AcDbEntity
  8
001
370
    50
  0
LINE
  5
5B8
330
1F
100
AcDbEntity
  8
001
370
    50
100
AcDbLine
 10
414.310688
 20
163.566462
 30
0.0
 11
418.544909
 21
163.566462
 31
0.0
  0
POLYLINE
  5
5B9
330
1F
100
AcDbEntity
  8
001
370
    50
100
AcDb2dPolyline
 66
     1
 10
0.0
 20
0.0
 30
0.0
  0
VERTEX
  5
5BB
330
5B9
100
AcDbEntity
  8
001
370
    50
100
AcDbVertex
100
AcDb2dVertex
 10
400.301278
 20
180.166262
 30
0.0
  0
VERTEX
  5
5BC
330
5B9
100
AcDbEntity
  8
001
370
    50
100
AcDbVertex
100
AcDb2dVertex
 10
400.07261
 20
177.300103
 30
0.0
  0
VERTEX
  5
5BD
330
5B9
100
AcDbEntity
  8
001
370
    50
100
AcDbVertex
100
AcDb2dVertex
 10
399.834625
 20
174.434735
 30
0.0
  0
VERTEX
  5
5BE
330
5B9
100
AcDbEntity
  8
001
370
    50
100
AcDbVertex
100
AcDb2dVertex
 10
399.732895
 20
173.266101
 30
0.0
  0
VERTEX
  5
5BF
330
5B9
100
AcDbEntity
  8
001
370
    50
100
AcDbVertex
100
AcDb2dVertex
 10
399.628556
 20
172.09769
 30
0.0
  0
VERTEX
  5
5C0
330
5B9
100
AcDbEntity
  8
001
370
    50
100
AcDbVertex
100
AcDb2dVertex
 10
399.612659
 20
171.921612
 30
0.0
  0
VERTEX
  5
5C1
330
5B9
100
AcDbEntity
  8
001
370
    50
100
AcDbVertex
100
AcDb2dVertex
 10
399.596762
 20
171.745534
 30
0.0
  0
SEQEND
  5
5BA
330
5B9
100
AcDbEntity
  8
001
370
    50
  0
LINE
  5
5C2
330
1F
100
AcDbEntity
  8
001
370
    50
100
AcDbLine
 10
399.886457
 20
171.747557
 30
0.0
 11
400.74126
 21
180.166462
 31
0.0
  0
LINE
  5
5C3
330
1F
100
AcDbEntity
  8
001
  6
DASHED
370
    30
100
AcDbLine
 10
399.938896
 20
171.747923
 30
0.0
 11
401.033929
 21
182.166462
 31
0.0
  0
LINE
  5
5C4
330
1F
100
AcDbEntity
  8
001
370
    50
100
AcDbLine
 10
398.634041
 20
220.488569
 30
0.0
 11
399.240175
 21
212.955025
 31
0.0
  0
LINE
  5
5C5
330
1F
100
AcDbEntity
  8
001
370
    50
100
AcDbLine
 10
400.139681
 20
222.108831
 30
0.0
 11
413.844064
 21
222.013155
 31
0.0
  0
ARC
  5
5C6
330
1F
100
AcDbEntity
  8
001
370
    50
100
AcDbCircle
 10
413.841272
 20
221.613164
 30
0.0
 40
0.4
100
AcDbArc
 50
4.6
 51
89.6
  0
LINE
  5
5C7
330
1F
100
AcDbEntity
  8
001
370
    50
100
AcDbLine
 10
414.239983
 20
221.645244
 30
0.0
 11
414.310688
 21
220.766462
 31
0.0
  0
ARC
  5
5C8
330
1F
100
AcDbEntity
  8
001
370
    50
100
AcDbCircle
 10
399.638887
 20
212.987105
 30
0.0
 40
0.4
100
AcDbArc
 50
184.6
 51
263.661054
  0
LINE
  5
5C9
330
1F
100
AcDbEntity
  8
001
370
     9
100
AcDbLine
 10
399.044909
 20
162.216462
 30
0.0
 11
394.275924
 21
162.216462
 31
0.0
  0
LINE
  5
5CA
330
1F
100
AcDbEntity
  8
001
370
    50
100
AcDbLine
 10
446.172727
 20
208.166462
 30
0.0
 11
431.544909
 21
208.166462
 31
0.0
  0
LINE
  5
5CB
330
1F
100
AcDbEntity
  8
001
370
    50
100
AcDbLine
 10
446.172727
 20
176.166462
 30
0.0
 11
431.544909
 21
176.166462
 31
0.0
  0
LINE
  5
5CC
330
1F
100
AcDbEntity
  8
001
  6
CENTER
370
     9
100
AcDbLine
 10
454.376307
 20
192.166462
 30
0.0
 11
395.515233
 21
192.166462
 31
0.0
  0
ARC
  5
5CD
330
1F
100
AcDbEntity
  8
001
370
    50
100
AcDbCircle
 10
400.129209
 20
163.724056
 30
0.0
 40
1.5
100
AcDbArc
 50
175.4
 51
270.4
  0
ARC
  5
5CE
330
1F
100
AcDbEntity
  8
001
370
    50
100
AcDbCircle
 10
413.350949
 20
170.341522
 30
0.0
 40
1.5
100
AcDbArc
 50
355.4
 51
90.4
  0
ARC
  5
5CF
330
1F
100
AcDbEntity
  8
001
370
    50
100
AcDbCircle
 10
400.129209
 20
220.608867
 30
0.0
 40
1.5
100
AcDbArc
 50
89.6
 51
184.6
  0
POLYLINE
  5
5D0
330
1F
100
AcDbEntity
  8
001
370
    50
100
AcDb2dPolyline
 66
     1
 10
0.0
 20
0.0
 30
0.0
  0
VERTEX
  5
5D2
330
5D0
100
AcDbEntity
  8
001
370
    50
100
AcDbVertex
100
AcDb2dVertex
 10
414.425972
 20
269.177197
 30
0.0
  0
VERTEX
  5
5D3
330
5D0
100
AcDbEntity
  8
001
370
    50
100
AcDbVertex
100
AcDb2dVertex
 10
414.941153
 20
269.165525
 30
0.0
  0
VERTEX
  5
5D4
330
5D0
100
AcDbEntity
  8
001
370
    50
100
AcDbVertex
100
AcDb2dVertex
 10
415.455706
 20
269.14269
 30
0.0
  0
VERTEX
  5
5D5
330
5D0
100
AcDbEntity
  8
001
370
    50
100
AcDbVertex
100
AcDb2dVertex
 10
415.971402
 20
269.099744
 30
0.0
  0
VERTEX
  5
5D6
330
5D0
100
AcDbEntity
  8
001
370
    50
100
AcDbVertex
100
AcDb2dVertex
 10
416.48544
 20
269.037906
 30
0.0
  0
VERTEX
  5
5D7
330
5D0
100
AcDbEntity
  8
001
370
    50
100
AcDbVertex
100
AcDb2dVertex
 10
417.005315
 20
268.958193
 30
0.0
  0
VERTEX
  5
5D8
330
5D0
100
AcDbEntity
  8
001
370
    50
100
AcDbVertex
100
AcDb2dVertex
 10
417.521488
 20
268.858739
 30
0.0
  0
VERTEX
  5
5D9
330
5D0
100
AcDbEntity
  8
001
370
    50
100
AcDbVertex
100
AcDb2dVertex
 10
418.034528
 20
268.737816
 30
0.0
  0
VERTEX
  5
5DA
330
5D0
100
AcDbEntity
  8
001
370
    50
100
AcDbVertex
100
AcDb2dVertex
 10
418.544909
 20
268.604954
 30
0.0
  0
SEQEND
  5
5D1
330
5D0
100
AcDbEntity
  8
001
370
    50
  0
POLYLINE
  5
5DB
330
1F
100
AcDbEntity
  8
001
370
    50
100
AcDb2dPolyline
 66
     1
 10
0.0
 20
0.0
 30
0.0
  0
VERTEX
  5
5DD
330
5DB
100
AcDbEntity
  8
001
370
    50
100
AcDbVertex
100
AcDb2dVertex
 10
418.544909
 20
268.604954
 30
0.0
  0
VERTEX
  5
5DE
330
5DB
100
AcDbEntity
  8
001
370
    50
100
AcDbVertex
100
AcDb2dVertex
 10
418.920794
 20
268.487953
 30
0.0
  0
VERTEX
  5
5DF
330
5DB
100
AcDbEntity
  8
001
370
    50
100
AcDbVertex
100
AcDb2dVertex
 10
419.294027
 20
268.363185
 30
0.0
  0
VERTEX
  5
5E0
330
5DB
100
AcDbEntity
  8
001
370
    50
100
AcDbVertex
100
AcDb2dVertex
 10
419.643015
 20
268.232135
 30
0.0
  0
VERTEX
  5
5E1
330
5DB
100
AcDbEntity
  8
001
370
    50
100
AcDbVertex
100
AcDb2dVertex
 10
419.987078
 20
268.088441
 30
0.0
  0
VERTEX
  5
5E2
330
5DB
100
AcDbEntity
  8
001
370
    50
100
AcDbVertex
100
AcDb2dVertex
 10
420.245665
 20
267.971168
 30
0.0
  0
VERTEX
  5
5E3
330
5DB
100
AcDbEntity
  8
001
370
    50
100
AcDbVertex
100
AcDb2dVertex
 10
420.500965
 20
267.846976
 30
0.0
  0
VERTEX
  5
5E4
330
5DB
100
AcDbEntity
  8
001
370
    50
100
AcDbVertex
100
AcDb2dVertex
 10
420.736491
 20
267.724289
 30
0.0
  0
VERTEX
  5
5E5
330
5DB
100
AcDbEntity
  8
001
370
    50
100
AcDbVertex
100
AcDb2dVertex
 10
420.968574
 20
267.595197
 30
0.0
  0
VERTEX
  5
5E6
330
5DB
100
AcDbEntity
  8
001
370
    50
100
AcDbVertex
100
AcDb2dVertex
 10
421.179935
 20
267.470013
 30
0.0
  0
VERTEX
  5
5E7
330
5DB
100
AcDbEntity
  8
001
370
    50
100
AcDbVertex
100
AcDb2dVertex
 10
421.387826
 20
267.339142
 30
0.0
  0
VERTEX
  5
5E8
330
5DB
100
AcDbEntity
  8
001
370
    50
100
AcDbVertex
100
AcDb2dVertex
 10
421.66022
 20
267.15476
 30
0.0
  0
VERTEX
  5
5E9
330
5DB
100
AcDbEntity
  8
001
370
    50
100
AcDbVertex
100
AcDb2dVertex
 10
421.925058
 20
266.959638
 30
0.0
  0
VERTEX
  5
5EA
330
5DB
100
AcDbEntity
  8
001
370
    50
100
AcDbVertex
100
AcDb2dVertex
 10
422.153078
 20
266.777201
 30
0.0
  0
VERTEX
  5
5EB
330
5DB
100
AcDbEntity
  8
001
370
    50
100
AcDbVertex
100
AcDb2dVertex
 10
422.3735
 20
266.585761
 30
0.0
  0
VERTEX
  5
5EC
330
5DB
100
AcDbEntity
  8
001
370
    50
100
AcDbVertex
100
AcDb2dVertex
 10
422.559901
 20
266.410109
 30
0.0
  0
VERTEX
  5
5ED
330
5DB
100
AcDbEntity
  8
001
370
    50
100
AcDbVertex
100
AcDb2dVertex
 10
422.739256
 20
266.22706
 30
0.0
  0
VERTEX
  5
5EE
330
5DB
100
AcDbEntity
  8
001
370
    50
100
AcDbVertex
100
AcDb2dVertex
 10
422.94396
 20
265.99718
 30
0.0
  0
VERTEX
  5
5EF
330
5DB
100
AcDbEntity
  8
001
370
    50
100
AcDbVertex
100
AcDb2dVertex
 10
423.133346
 20
265.755164
 30
0.0
  0
VERTEX
  5
5F0
330
5DB
100
AcDbEntity
  8
001
370
    50
100
AcDbVertex
100
AcDb2dVertex
 10
423.270477
 20
265.552614
 30
0.0
  0
VERTEX
  5
5F1
330
5DB
100
AcDbEntity
  8
001
370
    50
100
AcDbVertex
100
AcDb2dVertex
 10
423.39378
 20
265.340033
 30
0.0
  0
VERTEX
  5
5F2
330
5DB
100
AcDbEntity
  8
001
370
    50
100
AcDbVertex
100
AcDb2dVertex
 10
423.472541
 20
265.175421
 30
0.0
  0
VERTEX
  5
5F3
330
5DB
100
AcDbEntity
  8
001
370
    50
100
AcDbVertex
100
AcDb2dVertex
 10
423.526032
 20
265.002908
 30
0.0
  0
VERTEX
  5
5F4
330
5DB
100
AcDbEntity
  8
001
370
    50
100
AcDbVertex
100
AcDb2dVertex
 10
423.537089
 20
264.933083
 30
0.0
  0
VERTEX
  5
5F5
330
5DB
100
AcDbEntity
  8
001
370
    50
100
AcDbVertex
100
AcDb2dVertex
 10
423.544909
 20
264.862533
 30
0.0
  0
SEQEND
  5
5DC
330
5DB
100
AcDbEntity
  8
001
370
    50
  0
LINE
  5
5F6
330
1F
100
AcDbEntity
  8
001
  6
DASHED
370
    30
100
AcDbLine
 10
401.033929
 20
291.177197
 30
0.0
 11
401.033929
 21
271.177197
 31
0.0
  0
LINE
  5
5F7
330
1F
100
AcDbEntity
  8
001
  6
DASHED
370
    30
100
AcDbLine
 10
401.033929
 20
291.177197
 30
0.0
 11
399.253126
 21
308.120404
 31
0.0
  0
LINE
  5
5F8
330
1F
100
AcDbEntity
  8
001
  6
DASHED
370
    50
100
AcDbLine
 10
399.253126
 20
282.82834
 30
0.0
 11
399.253126
 21
282.829776
 31
0.0
  0
POLYLINE
  5
5F9
330
1F
100
AcDbEntity
  8
001
370
    50
100
AcDb2dPolyline
 66
     1
 10
0.0
 20
0.0
 30
0.0
  0
VERTEX
  5
5FB
330
5F9
100
AcDbEntity
  8
001
370
    50
100
AcDbVertex
100
AcDb2dVertex
 10
423.544909
 20
263.911099
 30
0.0
  0
VERTEX
  5
5FC
330
5F9
100
AcDbEntity
  8
001
370
    50
100
AcDbVertex
100
AcDb2dVertex
 10
423.544954
 20
263.902446
 30
0.0
  0
VERTEX
  5
5FD
330
5F9
100
AcDbEntity
  8
001
370
    50
100
AcDbVertex
100
AcDb2dVertex
 10
423.545021
 20
263.893794
 30
0.0
  0
VERTEX
  5
5FE
330
5F9
100
AcDbEntity
  8
001
370
    50
100
AcDbVertex
100
AcDb2dVertex
 10
423.553776
 20
263.725025
 30
0.0
  0
VERTEX
  5
5FF
330
5F9
100
AcDbEntity
  8
001
370
    50
100
AcDbVertex
100
AcDb2dVertex
 10
423.572033
 20
263.556796
 30
0.0
  0
VERTEX
  5
600
330
5F9
100
AcDbEntity
  8
001
370
    50
100
AcDbVertex
100
AcDb2dVertex
 10
423.596944
 20
263.364161
 30
0.0
  0
VERTEX
  5
601
330
5F9
100
AcDbEntity
  8
001
370
    50
100
AcDbVertex
100
AcDb2dVertex
 10
423.622312
 20
263.171688
 30
0.0
  0
VERTEX
  5
602
330
5F9
100
AcDbEntity
  8
001
370
    50
100
AcDbVertex
100
AcDb2dVertex
 10
423.667471
 20
262.766378
 30
0.0
  0
VERTEX
  5
603
330
5F9
100
AcDbEntity
  8
001
370
    50
100
AcDbVertex
100
AcDb2dVertex
 10
423.693811
 20
262.359464
 30
0.0
  0
VERTEX
  5
604
330
5F9
100
AcDbEntity
  8
001
370
    50
100
AcDbVertex
100
AcDb2dVertex
 10
423.695177
 20
261.965875
 30
0.0
  0
VERTEX
  5
605
330
5F9
100
AcDbEntity
  8
001
370
    50
100
AcDbVertex
100
AcDb2dVertex
 10
423.673653
 20
261.572839
 30
0.0
  0
VERTEX
  5
606
330
5F9
100
AcDbEntity
  8
001
370
    50
100
AcDbVertex
100
AcDb2dVertex
 10
423.63342
 20
261.184878
 30
0.0
  0
VERTEX
  5
607
330
5F9
100
AcDbEntity
  8
001
370
    50
100
AcDbVertex
100
AcDb2dVertex
 10
423.583149
 20
260.797984
 30
0.0
  0
SEQEND
  5
5FA
330
5F9
100
AcDbEntity
  8
001
370
    50
  0
POLYLINE
  5
608
330
1F
100
AcDbEntity
  8
001
370
    50
100
AcDb2dPolyline
 66
     1
 10
0.0
 20
0.0
 30
0.0
  0
VERTEX
  5
60A
330
608
100
AcDbEntity
  8
001
370
    50
100
AcDbVertex
100
AcDb2dVertex
 10
423.583149
 20
260.797984
 30
0.0
  0
VERTEX
  5
60B
330
608
100
AcDbEntity
  8
001
370
    50
100
AcDbVertex
100
AcDb2dVertex
 10
423.018404
 20
261.818105
 30
0.0
  0
VERTEX
  5
60C
330
608
100
AcDbEntity
  8
001
370
    50
100
AcDbVertex
100
AcDb2dVertex
 10
422.152206
 20
263.168199
 30
0.0
  0
VERTEX
  5
60D
330
608
100
AcDbEntity
  8
001
370
    50
100
AcDbVertex
100
AcDb2dVertex
 10
421.25468
 20
264.29426
 30
0.0
  0
VERTEX
  5
60E
330
608
100
AcDbEntity
  8
001
370
    50
100
AcDbVertex
100
AcDb2dVertex
 10
420.315074
 20
265.229555
 30
0.0
  0
VERTEX
  5
60F
330
608
100
AcDbEntity
  8
001
370
    50
100
AcDbVertex
100
AcDb2dVertex
 10
419.275184
 20
266.10709
 30
0.0
  0
VERTEX
  5
610
330
608
100
AcDbEntity
  8
001
370
    50
100
AcDbVertex
100
AcDb2dVertex
 10
418.134863
 20
266.911242
 30
0.0
  0
VERTEX
  5
611
330
608
100
AcDbEntity
  8
001
370
    50
100
AcDbVertex
100
AcDb2dVertex
 10
416.922273
 20
267.594446
 30
0.0
  0
VERTEX
  5
612
330
608
100
AcDbEntity
  8
001
370
    50
100
AcDbVertex
100
AcDb2dVertex
 10
415.686467
 20
268.15549
 30
0.0
  0
VERTEX
  5
613
330
608
100
AcDbEntity
  8
001
370
    50
100
AcDbVertex
100
AcDb2dVertex
 10
414.447084
 20
268.598406
 30
0.0
  0
VERTEX
  5
614
330
608
100
AcDbEntity
  8
001
370
    50
100
AcDbVertex
100
AcDb2dVertex
 10
413.053993
 20
268.919558
 30
0.0
  0
VERTEX
  5
615
330
608
100
AcDbEntity
  8
001
370
    50
100
AcDbVertex
100
AcDb2dVertex
 10
411.479241
 20
269.112775
 30
0.0
  0
VERTEX
  5
616
330
608
100
AcDbEntity
  8
001
370
    50
100
AcDbVertex
100
AcDb2dVertex
 10
410.327872
 20
269.177197
 30
0.0
  0
SEQEND
  5
609
330
608
100
AcDbEntity
  8
001
370
    50
  0
LINE
  5
617
330
1F
100
AcDbEntity
  8
001
370
    50
100
AcDbLine
 10
428.544909
 20
297.177197
 30
0.0
 11
428.544909
 21
265.177197
 31
0.0
  0
ARC
  5
618
330
1F
100
AcDbEntity
  8
001
370
    50
100
AcDbCircle
 10
428.544909
 20
302.177197
 30
0.0
 40
5.000000000000001
100
AcDbArc
 50
180.0
 51
270.0
  0
ARC
  5
619
330
1F
100
AcDbEntity
  8
001
370
    50
100
AcDbCircle
 10
428.544909
 20
260.177197
 30
0.0
 40
5.000000000000001
100
AcDbArc
 50
90.0
 51
180.0
  0
POLYLINE
  5
61A
330
1F
100
AcDbEntity
  8
001
370
    50
100
AcDb2dPolyline
 66
     1
 10
0.0
 20
0.0
 30
0.0
  0
VERTEX
  5
61C
330
61A
100
AcDbEntity
  8
001
370
    50
100
AcDbVertex
100
AcDb2dVertex
 10
414.425972
 20
307.137936
 30
0.0
  0
VERTEX
  5
61D
330
61A
100
AcDbEntity
  8
001
370
    50
100
AcDbVertex
100
AcDb2dVertex
 10
414.940908
 20
307.132564
 30
0.0
  0
VERTEX
  5
61E
330
61A
100
AcDbEntity
  8
001
370
    50
100
AcDbVertex
100
AcDb2dVertex
 10
415.455706
 20
307.121958
 30
0.0
  0
VERTEX
  5
61F
330
61A
100
AcDbEntity
  8
001
370
    50
100
AcDbVertex
100
AcDb2dVertex
 10
415.970753
 20
307.101992
 30
0.0
  0
VERTEX
  5
620
330
61A
100
AcDbEntity
  8
001
370
    50
100
AcDbVertex
100
AcDb2dVertex
 10
416.48544
 20
307.073097
 30
0.0
  0
VERTEX
  5
621
330
61A
100
AcDbEntity
  8
001
370
    50
100
AcDbVertex
100
AcDb2dVertex
 10
417.003918
 20
307.035794
 30
0.0
  0
VERTEX
  5
622
330
61A
100
AcDbEntity
  8
001
370
    50
100
AcDbVertex
100
AcDb2dVertex
 10
417.521488
 20
306.988349
 30
0.0
  0
VERTEX
  5
623
330
61A
100
AcDbEntity
  8
001
370
    50
100
AcDbVertex
100
AcDb2dVertex
 10
418.033534
 20
306.930163
 30
0.0
  0
VERTEX
  5
624
330
61A
100
AcDbEntity
  8
001
370
    50
100
AcDbVertex
100
AcDb2dVertex
 10
418.544909
 20
306.865691
 30
0.0
  0
SEQEND
  5
61B
330
61A
100
AcDbEntity
  8
001
370
    50
  0
POLYLINE
  5
625
330
1F
100
AcDbEntity
  8
001
370
    50
100
AcDb2dPolyline
 66
     1
 10
0.0
 20
0.0
 30
0.0
  0
VERTEX
  5
627
330
625
100
AcDbEntity
  8
001
370
    50
100
AcDbVertex
100
AcDb2dVertex
 10
418.544909
 20
306.865691
 30
0.0
  0
VERTEX
  5
628
330
625
100
AcDbEntity
  8
001
370
    50
100
AcDbVertex
100
AcDb2dVertex
 10
418.922883
 20
306.785161
 30
0.0
  0
VERTEX
  5
629
330
625
100
AcDbEntity
  8
001
370
    50
100
AcDbVertex
100
AcDb2dVertex
 10
419.294027
 20
306.682257
 30
0.0
  0
VERTEX
  5
62A
330
625
100
AcDbEntity
  8
001
370
    50
100
AcDbVertex
100
AcDb2dVertex
 10
419.647889
 20
306.54198
 30
0.0
  0
VERTEX
  5
62B
330
625
100
AcDbEntity
  8
001
370
    50
100
AcDbVertex
100
AcDb2dVertex
 10
419.987078
 20
306.367166
 30
0.0
  0
VERTEX
  5
62C
330
625
100
AcDbEntity
  8
001
370
    50
100
AcDbVertex
100
AcDb2dVertex
 10
420.249499
 20
306.206209
 30
0.0
  0
VERTEX
  5
62D
330
625
100
AcDbEntity
  8
001
370
    50
100
AcDbVertex
100
AcDb2dVertex
 10
420.500965
 20
306.029192
 30
0.0
  0
VERTEX
  5
62E
330
625
100
AcDbEntity
  8
001
370
    50
100
AcDbVertex
100
AcDb2dVertex
 10
420.740524
 20
305.83732
 30
0.0
  0
VERTEX
  5
62F
330
625
100
AcDbEntity
  8
001
370
    50
100
AcDbVertex
100
AcDb2dVertex
 10
420.968574
 20
305.631753
 30
0.0
  0
VERTEX
  5
630
330
625
100
AcDbEntity
  8
001
370
    50
100
AcDbVertex
100
AcDb2dVertex
 10
421.183897
 20
305.415326
 30
0.0
  0
VERTEX
  5
631
330
625
100
AcDbEntity
  8
001
370
    50
100
AcDbVertex
100
AcDb2dVertex
 10
421.387826
 20
305.188146
 30
0.0
  0
VERTEX
  5
632
330
625
100
AcDbEntity
  8
001
370
    50
100
AcDbVertex
100
AcDb2dVertex
 10
421.668343
 20
304.83538
 30
0.0
  0
VERTEX
  5
633
330
625
100
AcDbEntity
  8
001
370
    50
100
AcDbVertex
100
AcDb2dVertex
 10
421.925058
 20
304.46478
 30
0.0
  0
VERTEX
  5
634
330
625
100
AcDbEntity
  8
001
370
    50
100
AcDbVertex
100
AcDb2dVertex
 10
422.160392
 20
304.076642
 30
0.0
  0
VERTEX
  5
635
330
625
100
AcDbEntity
  8
001
370
    50
100
AcDbVertex
100
AcDb2dVertex
 10
422.3735
 20
303.675924
 30
0.0
  0
VERTEX
  5
636
330
625
100
AcDbEntity
  8
001
370
    50
100
AcDbVertex
100
AcDb2dVertex
 10
422.566343
 20
303.262893
 30
0.0
  0
VERTEX
  5
637
330
625
100
AcDbEntity
  8
001
370
    50
100
AcDbVertex
100
AcDb2dVertex
 10
422.739256
 20
302.84107
 30
0.0
  0
VERTEX
  5
638
330
625
100
AcDbEntity
  8
001
370
    50
100
AcDbVertex
100
AcDb2dVertex
 10
422.954459
 20
302.224902
 30
0.0
  0
VERTEX
  5
639
330
625
100
AcDbEntity
  8
001
370
    50
100
AcDbVertex
100
AcDb2dVertex
 10
423.133346
 20
301.597187
 30
0.0
  0
VERTEX
  5
63A
330
625
100
AcDbEntity
  8
001
370
    50
100
AcDbVertex
100
AcDb2dVertex
 10
423.280123
 20
300.949031
 30
0.0
  0
VERTEX
  5
63B
330
625
100
AcDbEntity
  8
001
370
    50
100
AcDbVertex
100
AcDb2dVertex
 10
423.39378
 20
300.294137
 30
0.0
  0
VERTEX
  5
63C
330
625
100
AcDbEntity
  8
001
370
    50
100
AcDbVertex
100
AcDb2dVertex
 10
423.477007
 20
299.625809
 30
0.0
  0
VERTEX
  5
63D
330
625
100
AcDbEntity
  8
001
370
    50
100
AcDbVertex
100
AcDb2dVertex
 10
423.526032
 20
298.954384
 30
0.0
  0
VERTEX
  5
63E
330
625
100
AcDbEntity
  8
001
370
    50
100
AcDbVertex
100
AcDb2dVertex
 10
423.538171
 20
298.592199
 30
0.0
  0
VERTEX
  5
63F
330
625
100
AcDbEntity
  8
001
370
    50
100
AcDbVertex
100
AcDb2dVertex
 10
423.544909
 20
298.229813
 30
0.0
  0
SEQEND
  5
626
330
625
100
AcDbEntity
  8
001
370
    50
  0
ARC
  5
640
330
1F
100
AcDbEntity
  8
001
370
    50
100
AcDbCircle
 10
418.544909
 20
304.777197
 30
0.0
 40
5.000000000000001
100
AcDbArc
 50
0.0
 51
90.0
  0
POLYLINE
  5
641
330
1F
100
AcDbEntity
  8
001
370
    50
100
AcDb2dPolyline
 66
     1
 10
0.0
 20
0.0
 30
0.0
  0
VERTEX
  5
643
330
641
100
AcDbEntity
  8
001
370
    50
100
AcDbVertex
100
AcDb2dVertex
 10
413.259809
 20
309.777197
 30
0.0
  0
VERTEX
  5
644
330
641
100
AcDbEntity
  8
001
370
    50
100
AcDbVertex
100
AcDb2dVertex
 10
413.188016
 20
309.776729
 30
0.0
  0
VERTEX
  5
645
330
641
100
AcDbEntity
  8
001
370
    50
100
AcDbVertex
100
AcDb2dVertex
 10
413.083114
 20
309.774696
 30
0.0
  0
VERTEX
  5
646
330
641
100
AcDbEntity
  8
001
370
    50
100
AcDbVertex
100
AcDb2dVertex
 10
412.978521
 20
309.770789
 30
0.0
  0
VERTEX
  5
647
330
641
100
AcDbEntity
  8
001
370
    50
100
AcDbVertex
100
AcDb2dVertex
 10
412.906991
 20
309.767193
 30
0.0
  0
SEQEND
  5
642
330
641
100
AcDbEntity
  8
001
370
    50
  0
LINE
  5
648
330
1F
100
AcDbEntity
  8
001
370
    50
100
AcDbLine
 10
408.617221
 20
309.777197
 30
0.0
 11
400.744909
 21
309.777197
 31
0.0
  0
LINE
  5
649
330
1F
100
AcDbEntity
  8
001
370
    50
100
AcDbLine
 10
418.544909
 20
309.777197
 30
0.0
 11
413.259809
 21
309.777197
 31
0.0
  0
LINE
  5
64A
330
1F
100
AcDbEntity
  8
001
370
    50
100
AcDbLine
 10
400.744909
 20
307.137936
 30
0.0
 11
414.425972
 21
307.137936
 31
0.0
  0
POLYLINE
  5
64B
330
1F
100
AcDbEntity
  8
001
370
    50
100
AcDb2dPolyline
 66
     1
 10
0.0
 20
0.0
 30
0.0
  0
VERTEX
  5
64D
330
64B
100
AcDbEntity
  8
001
370
    50
100
AcDbVertex
100
AcDb2dVertex
 10
412.906991
 20
309.767193
 30
0.0
  0
VERTEX
  5
64E
330
64B
100
AcDbEntity
  8
001
370
    50
100
AcDbVertex
100
AcDb2dVertex
 10
412.03571
 20
309.770788
 30
0.0
  0
VERTEX
  5
64F
330
64B
100
AcDbEntity
  8
001
370
    50
100
AcDbVertex
100
AcDb2dVertex
 10
410.762294
 20
309.774696
 30
0.0
  0
VERTEX
  5
650
330
64B
100
AcDbEntity
  8
001
370
    50
100
AcDbVertex
100
AcDb2dVertex
 10
409.488658
 20
309.776728
 30
0.0
  0
VERTEX
  5
651
330
64B
100
AcDbEntity
  8
001
370
    50
100
AcDbVertex
100
AcDb2dVertex
 10
408.617221
 20
309.777197
 30
0.0
  0
SEQEND
  5
64C
330
64B
100
AcDbEntity
  8
001
370
    50
  0
LINE
  5
652
330
1F
100
AcDbEntity
  8
001
370
    50
100
AcDbLine
 10
399.253126
 20
305.300555
 30
0.0
 11
399.2451
 21
305.448837
 31
0.0
  0
POLYLINE
  5
653
330
1F
100
AcDbEntity
  8
001
370
    50
100
AcDb2dPolyline
 66
     1
 10
0.0
 20
0.0
 30
0.0
  0
VERTEX
  5
655
330
653
100
AcDbEntity
  8
001
370
    50
100
AcDbVertex
100
AcDb2dVertex
 10
399.2451
 20
305.448837
 30
0.0
  0
VERTEX
  5
656
330
653
100
AcDbEntity
  8
001
370
    50
100
AcDbVertex
100
AcDb2dVertex
 10
399.257149
 20
305.652168
 30
0.0
  0
VERTEX
  5
657
330
653
100
AcDbEntity
  8
001
370
    50
100
AcDbVertex
100
AcDb2dVertex
 10
399.283732
 20
305.85314
 30
0.0
  0
VERTEX
  5
658
330
653
100
AcDbEntity
  8
001
370
    50
100
AcDbVertex
100
AcDb2dVertex
 10
399.321771
 20
306.00507
 30
0.0
  0
VERTEX
  5
659
330
653
100
AcDbEntity
  8
001
370
    50
100
AcDbVertex
100
AcDb2dVertex
 10
399.374347
 20
306.153066
 30
0.0
  0
VERTEX
  5
65A
330
653
100
AcDbEntity
  8
001
370
    50
100
AcDbVertex
100
AcDb2dVertex
 10
399.439231
 20
306.295869
 30
0.0
  0
VERTEX
  5
65B
330
653
100
AcDbEntity
  8
001
370
    50
100
AcDbVertex
100
AcDb2dVertex
 10
399.516529
 20
306.432094
 30
0.0
  0
VERTEX
  5
65C
330
653
100
AcDbEntity
  8
001
370
    50
100
AcDbVertex
100
AcDb2dVertex
 10
399.60138
 20
306.553521
 30
0.0
  0
VERTEX
  5
65D
330
653
100
AcDbEntity
  8
001
370
    50
100
AcDbVertex
100
AcDb2dVertex
 10
399.69706
 20
306.666764
 30
0.0
  0
VERTEX
  5
65E
330
653
100
AcDbEntity
  8
001
370
    50
100
AcDbVertex
100
AcDb2dVertex
 10
399.802709
 20
306.770685
 30
0.0
  0
VERTEX
  5
65F
330
653
100
AcDbEntity
  8
001
370
    50
100
AcDbVertex
100
AcDb2dVertex
 10
399.917821
 20
306.863772
 30
0.0
  0
VERTEX
  5
660
330
653
100
AcDbEntity
  8
001
370
    50
100
AcDbVertex
100
AcDb2dVertex
 10
400.029153
 20
306.937195
 30
0.0
  0
VERTEX
  5
661
330
653
100
AcDbEntity
  8
001
370
    50
100
AcDbVertex
100
AcDb2dVertex
 10
400.146761
 20
307.00054
 30
0.0
  0
VERTEX
  5
662
330
653
100
AcDbEntity
  8
001
370
    50
100
AcDbVertex
100
AcDb2dVertex
 10
400.269612
 20
307.053329
 30
0.0
  0
VERTEX
  5
663
330
653
100
AcDbEntity
  8
001
370
    50
100
AcDbVertex
100
AcDb2dVertex
 10
400.396843
 20
307.092825
 30
0.0
  0
VERTEX
  5
664
330
653
100
AcDbEntity
  8
001
370
    50
100
AcDbVertex
100
AcDb2dVertex
 10
400.569367
 20
307.122591
 30
0.0
  0
VERTEX
  5
665
330
653
100
AcDbEntity
  8
001
370
    50
100
AcDbVertex
100
AcDb2dVertex
 10
400.744909
 20
307.137936
 30
0.0
  0
SEQEND
  5
654
330
653
100
AcDbEntity
  8
001
370
    50
  0
ARC
  5
666
330
1F
100
AcDbEntity
  8
001
370
    50
100
AcDbCircle
 10
400.744909
 20
308.277197
 30
0.0
 40
1.499999999999998
100
AcDbArc
 50
90.0
 51
180.0
  0
ARC
  5
667
330
1F
100
AcDbEntity
  8
001
  6
DASHED
370
    30
100
AcDbCircle
 10
400.744909
 20
308.277197
 30
0.0
 40
1.499999999999998
100
AcDbArc
 50
180.0
 51
186.0
  0
LINE
  5
668
330
1F
100
AcDbEntity
  8
001
370
    50
100
AcDbLine
 10
399.244909
 20
308.277197
 30
0.0
 11
399.244909
 21
305.470388
 31
0.0
  0
POLYLINE
  5
669
330
1F
100
AcDbEntity
  8
001
370
    50
100
AcDb2dPolyline
 66
     1
 10
0.0
 20
0.0
 30
0.0
  0
VERTEX
  5
66B
330
669
100
AcDbEntity
  8
001
370
    50
100
AcDbVertex
100
AcDb2dVertex
 10
423.544909
 20
257.580399
 30
0.0
  0
VERTEX
  5
66C
330
669
100
AcDbEntity
  8
001
370
    50
100
AcDbVertex
100
AcDb2dVertex
 10
423.526954
 20
257.218627
 30
0.0
  0
VERTEX
  5
66D
330
669
100
AcDbEntity
  8
001
370
    50
100
AcDbVertex
100
AcDb2dVertex
 10
423.49255
 20
256.858755
 30
0.0
  0
VERTEX
  5
66E
330
669
100
AcDbEntity
  8
001
370
    50
100
AcDbVertex
100
AcDb2dVertex
 10
423.416842
 20
256.45084
 30
0.0
  0
VERTEX
  5
66F
330
669
100
AcDbEntity
  8
001
370
    50
100
AcDbVertex
100
AcDb2dVertex
 10
423.304459
 20
256.050634
 30
0.0
  0
VERTEX
  5
670
330
669
100
AcDbEntity
  8
001
370
    50
100
AcDbVertex
100
AcDb2dVertex
 10
423.160959
 20
255.661448
 30
0.0
  0
VERTEX
  5
671
330
669
100
AcDbEntity
  8
001
370
    50
100
AcDbVertex
100
AcDb2dVertex
 10
422.986468
 20
255.285578
 30
0.0
  0
VERTEX
  5
672
330
669
100
AcDbEntity
  8
001
370
    50
100
AcDbVertex
100
AcDb2dVertex
 10
422.78084
 20
254.926236
 30
0.0
  0
VERTEX
  5
673
330
669
100
AcDbEntity
  8
001
370
    50
100
AcDbVertex
100
AcDb2dVertex
 10
422.545788
 20
254.585173
 30
0.0
  0
VERTEX
  5
674
330
669
100
AcDbEntity
  8
001
370
    50
100
AcDbVertex
100
AcDb2dVertex
 10
422.284245
 20
254.265298
 30
0.0
  0
VERTEX
  5
675
330
669
100
AcDbEntity
  8
001
370
    50
100
AcDbVertex
100
AcDb2dVertex
 10
421.997143
 20
253.968325
 30
0.0
  0
VERTEX
  5
676
330
669
100
AcDbEntity
  8
001
370
    50
100
AcDbVertex
100
AcDb2dVertex
 10
421.684085
 20
253.69515
 30
0.0
  0
VERTEX
  5
677
330
669
100
AcDbEntity
  8
001
370
    50
100
AcDbVertex
100
AcDb2dVertex
 10
421.349172
 20
253.44905
 30
0.0
  0
VERTEX
  5
678
330
669
100
AcDbEntity
  8
001
370
    50
100
AcDbVertex
100
AcDb2dVertex
 10
420.99588
 20
253.231903
 30
0.0
  0
VERTEX
  5
679
330
669
100
AcDbEntity
  8
001
370
    50
100
AcDbVertex
100
AcDb2dVertex
 10
420.625756
 20
253.045266
 30
0.0
  0
VERTEX
  5
67A
330
669
100
AcDbEntity
  8
001
370
    50
100
AcDbVertex
100
AcDb2dVertex
 10
420.237363
 20
252.889628
 30
0.0
  0
VERTEX
  5
67B
330
669
100
AcDbEntity
  8
001
370
    50
100
AcDbVertex
100
AcDb2dVertex
 10
419.83707
 20
252.766672
 30
0.0
  0
VERTEX
  5
67C
330
669
100
AcDbEntity
  8
001
370
    50
100
AcDbVertex
100
AcDb2dVertex
 10
419.428391
 20
252.676714
 30
0.0
  0
VERTEX
  5
67D
330
669
100
AcDbEntity
  8
001
370
    50
100
AcDbVertex
100
AcDb2dVertex
 10
419.013904
 20
252.623931
 30
0.0
  0
VERTEX
  5
67E
330
669
100
AcDbEntity
  8
001
370
    50
100
AcDbVertex
100
AcDb2dVertex
 10
418.779623
 20
252.611321
 30
0.0
  0
VERTEX
  5
67F
330
669
100
AcDbEntity
  8
001
370
    50
100
AcDbVertex
100
AcDb2dVertex
 10
418.544909
 20
252.605425
 30
0.0
  0
SEQEND
  5
66A
330
669
100
AcDbEntity
  8
001
370
    50
  0
LINE
  5
680
330
1F
100
AcDbEntity
  8
001
  6
DASHED
370
    50
100
AcDbLine
 10
400.744909
 20
269.177197
 30
0.0
 11
400.74126
 21
269.177197
 31
0.0
  0
ARC
  5
681
330
1F
100
AcDbEntity
  8
001
370
    50
100
AcDbCircle
 10
418.544909
 20
257.577197
 30
0.0
 40
5.000000000000001
100
AcDbArc
 50
270.0
 51
0.0
  0
LINE
  5
682
330
1F
100
AcDbEntity
  8
001
370
    50
100
AcDbLine
 10
423.544909
 20
260.180795
 30
0.0
 11
423.544909
 21
257.577197
 31
0.0
  0
LINE
  5
683
330
1F
100
AcDbEntity
  8
001
  6
DASHED
370
    50
100
AcDbLine
 10
399.244909
 20
282.830724
 30
0.0
 11
399.244909
 21
282.828139
 31
0.0
  0
LINE
  5
684
330
1F
100
AcDbEntity
  8
001
370
    50
100
AcDbLine
 10
423.544909
 20
264.862533
 30
0.0
 11
423.544909
 21
263.911099
 31
0.0
  0
LINE
  5
685
330
1F
100
AcDbEntity
  8
001
370
    50
100
AcDbLine
 10
399.244909
 20
269.177197
 30
0.0
 11
414.425972
 21
269.177197
 31
0.0
  0
LINE
  5
686
330
1F
100
AcDbEntity
  8
001
370
    50
100
AcDbLine
 10
400.30124
 20
293.177197
 30
0.0
 11
399.244909
 21
293.177197
 31
0.0
  0
LINE
  5
687
330
1F
100
AcDbEntity
  8
001
370
    50
100
AcDbLine
 10
423.544909
 20
304.777197
 30
0.0
 11
423.544909
 21
293.130517
 31
0.0
  0
LINE
  5
688
330
1F
100
AcDbEntity
  8
001
370
    50
100
AcDbLine
 10
431.544909
 20
265.177197
 30
0.0
 11
431.544909
 21
297.177197
 31
0.0
  0
LINE
  5
689
330
1F
100
AcDbEntity
  8
001
370
    50
100
AcDbLine
 10
431.544909
 20
296.677197
 30
0.0
 11
428.544909
 21
296.677197
 31
0.0
  0
LINE
  5
68A
330
1F
100
AcDbEntity
  8
001
370
    50
100
AcDbLine
 10
428.544909
 20
265.677197
 30
0.0
 11
431.544909
 21
265.677197
 31
0.0
  0
LINE
  5
68B
330
1F
100
AcDbEntity
  8
001
370
    50
100
AcDbLine
 10
398.677802
 20
253.398986
 30
0.0
 11
399.240175
 21
260.388633
 31
0.0
  0
CIRCLE
  5
68C
330
1F
100
AcDbEntity
  8
001
370
    50
100
AcDbCircle
 10
406.85379
 20
256.044318
 30
0.0
 40
3.0
  0
LINE
  5
68D
330
1F
100
AcDbEntity
  8
001
370
    50
100
AcDbLine
 10
414.802357
 20
258.688062
 30
0.0
 11
414.239983
 21
251.698415
 31
0.0
  0
LINE
  5
68E
330
1F
100
AcDbEntity
  8
001
370
    50
100
AcDbLine
 10
412.794837
 20
260.848411
 30
0.0
 11
399.636094
 21
260.756544
 31
0.0
  0
CIRCLE
  5
68F
330
1F
100
AcDbEntity
  8
001
370
    50
100
AcDbCircle
 10
406.858778
 20
256.057584
 30
0.0
 40
2.5
  0
LINE
  5
690
330
1F
100
AcDbEntity
  8
001
370
    50
100
AcDbLine
 10
407.438347
 20
257.056299
 30
0.0
 11
407.122027
 21
257.607003
 31
0.0
  0
LINE
  5
691
330
1F
100
AcDbEntity
  8
001
370
    50
100
AcDbLine
 10
406.28365
 20
257.058863
 30
0.0
 11
406.602413
 21
257.608157
 31
0.0
  0
ARC
  5
692
330
1F
100
AcDbEntity
  8
001
370
    50
100
AcDbCircle
 10
406.861887
 20
257.45758
 30
0.0
 40
0.3
100
AcDbArc
 50
29.872778
 51
149.872778
  0
LINE
  5
693
330
1F
100
AcDbEntity
  8
001
370
    50
100
AcDbLine
 10
406.28365
 20
257.058863
 30
0.0
 11
405.648566
 21
257.060273
 31
0.0
  0
LINE
  5
694
330
1F
100
AcDbEntity
  8
001
370
    50
100
AcDbLine
 10
405.70408
 20
256.060147
 30
0.0
 11
405.38776
 21
256.610851
 31
0.0
  0
ARC
  5
695
330
1F
100
AcDbEntity
  8
001
370
    50
100
AcDbCircle
 10
405.6479
 20
256.760274
 30
0.0
 40
0.3
100
AcDbArc
 50
89.872778
 51
209.872778
  0
LINE
  5
696
330
1F
100
AcDbEntity
  8
001
370
    50
100
AcDbLine
 10
405.70408
 20
256.060147
 30
0.0
 11
405.385317
 21
255.510854
 31
0.0
  0
LINE
  5
697
330
1F
100
AcDbEntity
  8
001
370
    50
100
AcDbLine
 10
406.279209
 20
255.058868
 30
0.0
 11
405.644125
 21
255.060278
 31
0.0
  0
ARC
  5
698
330
1F
100
AcDbEntity
  8
001
370
    50
100
AcDbCircle
 10
405.644791
 20
255.360277
 30
0.0
 40
0.3
100
AcDbArc
 50
149.872778
 51
269.872778
  0
LINE
  5
699
330
1F
100
AcDbEntity
  8
001
370
    50
100
AcDbLine
 10
406.279209
 20
255.058868
 30
0.0
 11
406.595529
 21
254.508164
 31
0.0
  0
LINE
  5
69A
330
1F
100
AcDbEntity
  8
001
370
    50
100
AcDbLine
 10
407.433907
 20
255.056304
 30
0.0
 11
407.115143
 21
254.50701
 31
0.0
  0
ARC
  5
69B
330
1F
100
AcDbEntity
  8
001
370
    50
100
AcDbCircle
 10
406.85567
 20
254.657587
 30
0.0
 40
0.3
100
AcDbArc
 50
209.872778
 51
329.872778
  0
LINE
  5
69C
330
1F
100
AcDbEntity
  8
001
370
    50
100
AcDbLine
 10
407.433907
 20
255.056304
 30
0.0
 11
408.06899
 21
255.054894
 31
0.0
  0
LINE
  5
69D
330
1F
100
AcDbEntity
  8
001
370
    50
100
AcDbLine
 10
408.013476
 20
256.05502
 30
0.0
 11
408.329796
 21
255.504316
 31
0.0
  0
ARC
  5
69E
330
1F
100
AcDbEntity
  8
001
370
    50
100
AcDbCircle
 10
408.069656
 20
255.354893
 30
0.0
 40
0.3
100
AcDbArc
 50
269.872778
 51
29.872778
  0
LINE
  5
69F
330
1F
100
AcDbEntity
  8
001
370
    50
100
AcDbLine
 10
408.013476
 20
256.05502
 30
0.0
 11
408.332239
 21
256.604313
 31
0.0
  0
LINE
  5
6A0
330
1F
100
AcDbEntity
  8
001
370
    50
100
AcDbLine
 10
407.438347
 20
257.056299
 30
0.0
 11
408.073431
 21
257.054889
 31
0.0
  0
ARC
  5
6A1
330
1F
100
AcDbEntity
  8
001
370
    50
100
AcDbCircle
 10
408.072765
 20
256.75489
 30
0.0
 40
0.3
100
AcDbArc
 50
329.872778
 51
89.872778
  0
LINE
  5
6A2
330
1F
100
AcDbEntity
  8
001
370
    50
100
AcDbLine
 10
400.685322
 20
251.238637
 30
0.0
 11
413.844064
 21
251.330504
 31
0.0
  0
ARC
  5
6A3
330
1F
100
AcDbEntity
  8
001
370
    50
100
AcDbCircle
 10
413.199032
 20
259.106251
 30
0.0
 40
3.0
100
AcDbArc
 50
298.349498
 51
144.83356
  0
ARC
  5
6A4
330
1F
100
AcDbEntity
  8
001
370
    50
100
AcDbCircle
 10
399.638887
 20
260.356554
 30
0.0
 40
0.4
100
AcDbArc
 50
90.4
 51
175.4
  0
ARC
  5
6A5
330
1F
100
AcDbEntity
  8
001
370
    50
100
AcDbCircle
 10
413.841272
 20
251.730494
 30
0.0
 40
0.4
100
AcDbArc
 50
270.4
 51
355.4
  0
POLYLINE
  5
6A6
330
1F
100
AcDbEntity
  8
001
370
    50
100
AcDb2dPolyline
 66
     1
 10
0.0
 20
0.0
 30
0.0
  0
VERTEX
  5
6A8
330
6A6
100
AcDbEntity
  8
001
370
    50
100
AcDbVertex
100
AcDb2dVertex
 10
414.316412
 20
252.648341
 30
0.0
  0
VERTEX
  5
6A9
330
6A6
100
AcDbEntity
  8
001
370
    50
100
AcDbVertex
100
AcDb2dVertex
 10
415.191249
 20
252.637914
 30
0.0
  0
VERTEX
  5
6AA
330
6A6
100
AcDbEntity
  8
001
370
    50
100
AcDbVertex
100
AcDb2dVertex
 10
416.381074
 20
252.624944
 30
0.0
  0
VERTEX
  5
6AB
330
6A6
100
AcDbEntity
  8
001
370
    50
100
AcDbVertex
100
AcDb2dVertex
 10
417.665845
 20
252.612795
 30
0.0
  0
VERTEX
  5
6AC
330
6A6
100
AcDbEntity
  8
001
370
    50
100
AcDbVertex
100
AcDb2dVertex
 10
418.544909
 20
252.605425
 30
0.0
  0
SEQEND
  5
6A7
330
6A6
100
AcDbEntity
  8
001
370
    50
  0
LINE
  5
6AD
330
1F
100
AcDbEntity
  8
001
370
    50
100
AcDbLine
 10
414.310688
 20
252.577197
 30
0.0
 11
418.544909
 21
252.577197
 31
0.0
  0
POLYLINE
  5
6AE
330
1F
100
AcDbEntity
  8
001
370
    50
100
AcDb2dPolyline
 66
     1
 10
0.0
 20
0.0
 30
0.0
  0
VERTEX
  5
6B0
330
6AE
100
AcDbEntity
  8
001
370
    50
100
AcDbVertex
100
AcDb2dVertex
 10
400.301278
 20
269.176997
 30
0.0
  0
VERTEX
  5
6B1
330
6AE
100
AcDbEntity
  8
001
370
    50
100
AcDbVertex
100
AcDb2dVertex
 10
400.07261
 20
266.310838
 30
0.0
  0
VERTEX
  5
6B2
330
6AE
100
AcDbEntity
  8
001
370
    50
100
AcDbVertex
100
AcDb2dVertex
 10
399.834625
 20
263.445471
 30
0.0
  0
VERTEX
  5
6B3
330
6AE
100
AcDbEntity
  8
001
370
    50
100
AcDbVertex
100
AcDb2dVertex
 10
399.732895
 20
262.276836
 30
0.0
  0
VERTEX
  5
6B4
330
6AE
100
AcDbEntity
  8
001
370
    50
100
AcDbVertex
100
AcDb2dVertex
 10
399.628556
 20
261.108425
 30
0.0
  0
VERTEX
  5
6B5
330
6AE
100
AcDbEntity
  8
001
370
    50
100
AcDbVertex
100
AcDb2dVertex
 10
399.612659
 20
260.932347
 30
0.0
  0
VERTEX
  5
6B6
330
6AE
100
AcDbEntity
  8
001
370
    50
100
AcDbVertex
100
AcDb2dVertex
 10
399.596762
 20
260.75627
 30
0.0
  0
SEQEND
  5
6AF
330
6AE
100
AcDbEntity
  8
001
370
    50
  0
LINE
  5
6B7
330
1F
100
AcDbEntity
  8
001
370
    50
100
AcDbLine
 10
399.886457
 20
260.758292
 30
0.0
 11
400.74126
 21
269.177197
 31
0.0
  0
LINE
  5
6B8
330
1F
100
AcDbEntity
  8
001
  6
DASHED
370
    30
100
AcDbLine
 10
399.938896
 20
260.758658
 30
0.0
 11
401.033929
 21
271.177197
 31
0.0
  0
LINE
  5
6B9
330
1F
100
AcDbEntity
  8
001
370
    50
100
AcDbLine
 10
398.677802
 20
308.955408
 30
0.0
 11
399.240175
 21
301.96576
 31
0.0
  0
LINE
  5
6BA
330
1F
100
AcDbEntity
  8
001
370
    50
100
AcDbLine
 10
400.685322
 20
311.115757
 30
0.0
 11
413.844064
 21
311.02389
 31
0.0
  0
ARC
  5
6BB
330
1F
100
AcDbEntity
  8
001
370
    50
100
AcDbCircle
 10
413.841272
 20
310.6239
 30
0.0
 40
0.4
100
AcDbArc
 50
4.6
 51
89.6
  0
LINE
  5
6BC
330
1F
100
AcDbEntity
  8
001
370
    50
100
AcDbLine
 10
414.239983
 20
310.655979
 30
0.0
 11
414.310688
 21
309.777197
 31
0.0
  0
ARC
  5
6BD
330
1F
100
AcDbEntity
  8
001
370
    50
100
AcDbCircle
 10
399.638887
 20
301.99784
 30
0.0
 40
0.4
100
AcDbArc
 50
184.6
 51
263.661054
  0
LINE
  5
6BE
330
1F
100
AcDbEntity
  8
001
370
     9
100
AcDbLine
 10
399.044909
 20
251.227197
 30
0.0
 11
394.275924
 21
251.227197
 31
0.0
  0
LINE
  5
6BF
330
1F
100
AcDbEntity
  8
001
370
    50
100
AcDbLine
 10
446.172727
 20
297.177197
 30
0.0
 11
431.544909
 21
297.177197
 31
0.0
  0
LINE
  5
6C0
330
1F
100
AcDbEntity
  8
001
370
    50
100
AcDbLine
 10
446.172727
 20
265.177197
 30
0.0
 11
431.544909
 21
265.177197
 31
0.0
  0
LINE
  5
6C1
330
1F
100
AcDbEntity
  8
001
  6
CENTER
370
     9
100
AcDbLine
 10
454.376307
 20
281.177197
 30
0.0
 11
395.515233
 21
281.177197
 31
0.0
  0
ARC
  5
6C2
330
1F
100
AcDbEntity
  8
001
370
    50
100
AcDbCircle
 10
400.67136
 20
253.238588
 30
0.0
 40
2.0
100
AcDbArc
 50
175.4
 51
270.4
  0
ARC
  5
6C3
330
1F
100
AcDbEntity
  8
001
370
    50
100
AcDbCircle
 10
412.808799
 20
258.84846
 30
0.0
 40
2.0
100
AcDbArc
 50
355.4
 51
90.4
  0
ARC
  5
6C4
330
1F
100
AcDbEntity
  8
001
370
    50
100
AcDbCircle
 10
400.67136
 20
309.115805
 30
0.0
 40
2.0
100
AcDbArc
 50
89.6
 51
184.6
  0
POLYLINE
  5
6C5
330
1F
100
AcDbEntity
  8
001
370
    50
100
AcDb2dPolyline
 66
     1
 10
0.0
 20
0.0
 30
0.0
  0
VERTEX
  5
6C7
330
6C5
100
AcDbEntity
  8
001
370
    50
100
AcDbVertex
100
AcDb2dVertex
 10
414.425972
 20
354.1564
 30
0.0
  0
VERTEX
  5
6C8
330
6C5
100
AcDbEntity
  8
001
370
    50
100
AcDbVertex
100
AcDb2dVertex
 10
414.941153
 20
354.144729
 30
0.0
  0
VERTEX
  5
6C9
330
6C5
100
AcDbEntity
  8
001
370
    50
100
AcDbVertex
100
AcDb2dVertex
 10
415.455706
 20
354.121893
 30
0.0
  0
VERTEX
  5
6CA
330
6C5
100
AcDbEntity
  8
001
370
    50
100
AcDbVertex
100
AcDb2dVertex
 10
415.971402
 20
354.078947
 30
0.0
  0
VERTEX
  5
6CB
330
6C5
100
AcDbEntity
  8
001
370
    50
100
AcDbVertex
100
AcDb2dVertex
 10
416.48544
 20
354.01711
 30
0.0
  0
VERTEX
  5
6CC
330
6C5
100
AcDbEntity
  8
001
370
    50
100
AcDbVertex
100
AcDb2dVertex
 10
417.005315
 20
353.937396
 30
0.0
  0
VERTEX
  5
6CD
330
6C5
100
AcDbEntity
  8
001
370
    50
100
AcDbVertex
100
AcDb2dVertex
 10
417.521488
 20
353.837942
 30
0.0
  0
VERTEX
  5
6CE
330
6C5
100
AcDbEntity
  8
001
370
    50
100
AcDbVertex
100
AcDb2dVertex
 10
418.034528
 20
353.717019
 30
0.0
  0
VERTEX
  5
6CF
330
6C5
100
AcDbEntity
  8
001
370
    50
100
AcDbVertex
100
AcDb2dVertex
 10
418.544909
 20
353.584157
 30
0.0
  0
SEQEND
  5
6C6
330
6C5
100
AcDbEntity
  8
001
370
    50
  0
POLYLINE
  5
6D0
330
1F
100
AcDbEntity
  8
001
370
    50
100
AcDb2dPolyline
 66
     1
 10
0.0
 20
0.0
 30
0.0
  0
VERTEX
  5
6D2
330
6D0
100
AcDbEntity
  8
001
370
    50
100
AcDbVertex
100
AcDb2dVertex
 10
418.544909
 20
353.584157
 30
0.0
  0
VERTEX
  5
6D3
330
6D0
100
AcDbEntity
  8
001
370
    50
100
AcDbVertex
100
AcDb2dVertex
 10
418.920794
 20
353.467157
 30
0.0
  0
VERTEX
  5
6D4
330
6D0
100
AcDbEntity
  8
001
370
    50
100
AcDbVertex
100
AcDb2dVertex
 10
419.294027
 20
353.342389
 30
0.0
  0
VERTEX
  5
6D5
330
6D0
100
AcDbEntity
  8
001
370
    50
100
AcDbVertex
100
AcDb2dVertex
 10
419.643015
 20
353.211338
 30
0.0
  0
VERTEX
  5
6D6
330
6D0
100
AcDbEntity
  8
001
370
    50
100
AcDbVertex
100
AcDb2dVertex
 10
419.987078
 20
353.067644
 30
0.0
  0
VERTEX
  5
6D7
330
6D0
100
AcDbEntity
  8
001
370
    50
100
AcDbVertex
100
AcDb2dVertex
 10
420.245665
 20
352.950371
 30
0.0
  0
VERTEX
  5
6D8
330
6D0
100
AcDbEntity
  8
001
370
    50
100
AcDbVertex
100
AcDb2dVertex
 10
420.500965
 20
352.826179
 30
0.0
  0
VERTEX
  5
6D9
330
6D0
100
AcDbEntity
  8
001
370
    50
100
AcDbVertex
100
AcDb2dVertex
 10
420.736491
 20
352.703492
 30
0.0
  0
VERTEX
  5
6DA
330
6D0
100
AcDbEntity
  8
001
370
    50
100
AcDbVertex
100
AcDb2dVertex
 10
420.968574
 20
352.5744
 30
0.0
  0
VERTEX
  5
6DB
330
6D0
100
AcDbEntity
  8
001
370
    50
100
AcDbVertex
100
AcDb2dVertex
 10
421.179935
 20
352.449216
 30
0.0
  0
VERTEX
  5
6DC
330
6D0
100
AcDbEntity
  8
001
370
    50
100
AcDbVertex
100
AcDb2dVertex
 10
421.387826
 20
352.318345
 30
0.0
  0
VERTEX
  5
6DD
330
6D0
100
AcDbEntity
  8
001
370
    50
100
AcDbVertex
100
AcDb2dVertex
 10
421.66022
 20
352.133963
 30
0.0
  0
VERTEX
  5
6DE
330
6D0
100
AcDbEntity
  8
001
370
    50
100
AcDbVertex
100
AcDb2dVertex
 10
421.925058
 20
351.938841
 30
0.0
  0
VERTEX
  5
6DF
330
6D0
100
AcDbEntity
  8
001
370
    50
100
AcDbVertex
100
AcDb2dVertex
 10
422.153078
 20
351.756405
 30
0.0
  0
VERTEX
  5
6E0
330
6D0
100
AcDbEntity
  8
001
370
    50
100
AcDbVertex
100
AcDb2dVertex
 10
422.3735
 20
351.564964
 30
0.0
  0
VERTEX
  5
6E1
330
6D0
100
AcDbEntity
  8
001
370
    50
100
AcDbVertex
100
AcDb2dVertex
 10
422.559901
 20
351.389313
 30
0.0
  0
VERTEX
  5
6E2
330
6D0
100
AcDbEntity
  8
001
370
    50
100
AcDbVertex
100
AcDb2dVertex
 10
422.739256
 20
351.206263
 30
0.0
  0
VERTEX
  5
6E3
330
6D0
100
AcDbEntity
  8
001
370
    50
100
AcDbVertex
100
AcDb2dVertex
 10
422.94396
 20
350.976383
 30
0.0
  0
VERTEX
  5
6E4
330
6D0
100
AcDbEntity
  8
001
370
    50
100
AcDbVertex
100
AcDb2dVertex
 10
423.133346
 20
350.734367
 30
0.0
  0
VERTEX
  5
6E5
330
6D0
100
AcDbEntity
  8
001
370
    50
100
AcDbVertex
100
AcDb2dVertex
 10
423.270477
 20
350.531817
 30
0.0
  0
VERTEX
  5
6E6
330
6D0
100
AcDbEntity
  8
001
370
    50
100
AcDbVertex
100
AcDb2dVertex
 10
423.39378
 20
350.319237
 30
0.0
  0
VERTEX
  5
6E7
330
6D0
100
AcDbEntity
  8
001
370
    50
100
AcDbVertex
100
AcDb2dVertex
 10
423.472541
 20
350.154625
 30
0.0
  0
VERTEX
  5
6E8
330
6D0
100
AcDbEntity
  8
001
370
    50
100
AcDbVertex
100
AcDb2dVertex
 10
423.526032
 20
349.982112
 30
0.0
  0
VERTEX
  5
6E9
330
6D0
100
AcDbEntity
  8
001
370
    50
100
AcDbVertex
100
AcDb2dVertex
 10
423.537089
 20
349.912286
 30
0.0
  0
VERTEX
  5
6EA
330
6D0
100
AcDbEntity
  8
001
370
    50
100
AcDbVertex
100
AcDb2dVertex
 10
423.544909
 20
349.841736
 30
0.0
  0
SEQEND
  5
6D1
330
6D0
100
AcDbEntity
  8
001
370
    50
  0
LINE
  5
6EB
330
1F
100
AcDbEntity
  8
001
  6
DASHED
370
    30
100
AcDbLine
 10
401.033929
 20
376.1564
 30
0.0
 11
401.033929
 21
356.1564
 31
0.0
  0
LINE
  5
6EC
330
1F
100
AcDbEntity
  8
001
  6
DASHED
370
    30
100
AcDbLine
 10
401.033929
 20
376.1564
 30
0.0
 11
399.253126
 21
393.099607
 31
0.0
  0
POLYLINE
  5
6ED
330
1F
100
AcDbEntity
  8
001
370
    50
100
AcDb2dPolyline
 66
     1
 10
0.0
 20
0.0
 30
0.0
  0
VERTEX
  5
6EF
330
6ED
100
AcDbEntity
  8
001
370
    50
100
AcDbVertex
100
AcDb2dVertex
 10
423.544909
 20
348.890303
 30
0.0
  0
VERTEX
  5
6F0
330
6ED
100
AcDbEntity
  8
001
370
    50
100
AcDbVertex
100
AcDb2dVertex
 10
423.544954
 20
348.881649
 30
0.0
  0
VERTEX
  5
6F1
330
6ED
100
AcDbEntity
  8
001
370
    50
100
AcDbVertex
100
AcDb2dVertex
 10
423.545021
 20
348.872997
 30
0.0
  0
VERTEX
  5
6F2
330
6ED
100
AcDbEntity
  8
001
370
    50
100
AcDbVertex
100
AcDb2dVertex
 10
423.553776
 20
348.704228
 30
0.0
  0
VERTEX
  5
6F3
330
6ED
100
AcDbEntity
  8
001
370
    50
100
AcDbVertex
100
AcDb2dVertex
 10
423.572033
 20
348.535999
 30
0.0
  0
VERTEX
  5
6F4
330
6ED
100
AcDbEntity
  8
001
370
    50
100
AcDbVertex
100
AcDb2dVertex
 10
423.596944
 20
348.343365
 30
0.0
  0
VERTEX
  5
6F5
330
6ED
100
AcDbEntity
  8
001
370
    50
100
AcDbVertex
100
AcDb2dVertex
 10
423.622312
 20
348.150891
 30
0.0
  0
VERTEX
  5
6F6
330
6ED
100
AcDbEntity
  8
001
370
    50
100
AcDbVertex
100
AcDb2dVertex
 10
423.667471
 20
347.745581
 30
0.0
  0
VERTEX
  5
6F7
330
6ED
100
AcDbEntity
  8
001
370
    50
100
AcDbVertex
100
AcDb2dVertex
 10
423.693811
 20
347.338667
 30
0.0
  0
VERTEX
  5
6F8
330
6ED
100
AcDbEntity
  8
001
370
    50
100
AcDbVertex
100
AcDb2dVertex
 10
423.695177
 20
346.945078
 30
0.0
  0
VERTEX
  5
6F9
330
6ED
100
AcDbEntity
  8
001
370
    50
100
AcDbVertex
100
AcDb2dVertex
 10
423.673653
 20
346.552042
 30
0.0
  0
VERTEX
  5
6FA
330
6ED
100
AcDbEntity
  8
001
370
    50
100
AcDbVertex
100
AcDb2dVertex
 10
423.63342
 20
346.164081
 30
0.0
  0
VERTEX
  5
6FB
330
6ED
100
AcDbEntity
  8
001
370
    50
100
AcDbVertex
100
AcDb2dVertex
 10
423.583149
 20
345.777187
 30
0.0
  0
SEQEND
  5
6EE
330
6ED
100
AcDbEntity
  8
001
370
    50
  0
POLYLINE
  5
6FC
330
1F
100
AcDbEntity
  8
001
370
    50
100
AcDb2dPolyline
 66
     1
 10
0.0
 20
0.0
 30
0.0
  0
VERTEX
  5
6FE
330
6FC
100
AcDbEntity
  8
001
370
    50
100
AcDbVertex
100
AcDb2dVertex
 10
423.583149
 20
345.777187
 30
0.0
  0
VERTEX
  5
6FF
330
6FC
100
AcDbEntity
  8
001
370
    50
100
AcDbVertex
100
AcDb2dVertex
 10
423.018404
 20
346.797308
 30
0.0
  0
VERTEX
  5
700
330
6FC
100
AcDbEntity
  8
001
370
    50
100
AcDbVertex
100
AcDb2dVertex
 10
422.152206
 20
348.147402
 30
0.0
  0
VERTEX
  5
701
330
6FC
100
AcDbEntity
  8
001
370
    50
100
AcDbVertex
100
AcDb2dVertex
 10
421.25468
 20
349.273464
 30
0.0
  0
VERTEX
  5
702
330
6FC
100
AcDbEntity
  8
001
370
    50
100
AcDbVertex
100
AcDb2dVertex
 10
420.315074
 20
350.208758
 30
0.0
  0
VERTEX
  5
703
330
6FC
100
AcDbEntity
  8
001
370
    50
100
AcDbVertex
100
AcDb2dVertex
 10
419.275184
 20
351.086294
 30
0.0
  0
VERTEX
  5
704
330
6FC
100
AcDbEntity
  8
001
370
    50
100
AcDbVertex
100
AcDb2dVertex
 10
418.134863
 20
351.890445
 30
0.0
  0
VERTEX
  5
705
330
6FC
100
AcDbEntity
  8
001
370
    50
100
AcDbVertex
100
AcDb2dVertex
 10
416.922273
 20
352.57365
 30
0.0
  0
VERTEX
  5
706
330
6FC
100
AcDbEntity
  8
001
370
    50
100
AcDbVertex
100
AcDb2dVertex
 10
415.686467
 20
353.134694
 30
0.0
  0
VERTEX
  5
707
330
6FC
100
AcDbEntity
  8
001
370
    50
100
AcDbVertex
100
AcDb2dVertex
 10
414.447084
 20
353.577609
 30
0.0
  0
VERTEX
  5
708
330
6FC
100
AcDbEntity
  8
001
370
    50
100
AcDbVertex
100
AcDb2dVertex
 10
413.053993
 20
353.898761
 30
0.0
  0
VERTEX
  5
709
330
6FC
100
AcDbEntity
  8
001
370
    50
100
AcDbVertex
100
AcDb2dVertex
 10
411.479241
 20
354.091979
 30
0.0
  0
VERTEX
  5
70A
330
6FC
100
AcDbEntity
  8
001
370
    50
100
AcDbVertex
100
AcDb2dVertex
 10
410.327872
 20
354.1564
 30
0.0
  0
SEQEND
  5
6FD
330
6FC
100
AcDbEntity
  8
001
370
    50
  0
LINE
  5
70B
330
1F
100
AcDbEntity
  8
001
370
    50
100
AcDbLine
 10
428.544909
 20
382.1564
 30
0.0
 11
428.544909
 21
350.1564
 31
0.0
  0
ARC
  5
70C
330
1F
100
AcDbEntity
  8
001
370
    50
100
AcDbCircle
 10
428.544909
 20
387.1564
 30
0.0
 40
5.000000000000001
100
AcDbArc
 50
180.0
 51
270.0
  0
ARC
  5
70D
330
1F
100
AcDbEntity
  8
001
370
    50
100
AcDbCircle
 10
428.544909
 20
345.1564
 30
0.0
 40
5.000000000000001
100
AcDbArc
 50
90.0
 51
180.0
  0
POLYLINE
  5
70E
330
1F
100
AcDbEntity
  8
001
370
    50
100
AcDb2dPolyline
 66
     1
 10
0.0
 20
0.0
 30
0.0
  0
VERTEX
  5
710
330
70E
100
AcDbEntity
  8
001
370
    50
100
AcDbVertex
100
AcDb2dVertex
 10
414.425972
 20
392.11714
 30
0.0
  0
VERTEX
  5
711
330
70E
100
AcDbEntity
  8
001
370
    50
100
AcDbVertex
100
AcDb2dVertex
 10
414.940908
 20
392.111767
 30
0.0
  0
VERTEX
  5
712
330
70E
100
AcDbEntity
  8
001
370
    50
100
AcDbVertex
100
AcDb2dVertex
 10
415.455706
 20
392.101162
 30
0.0
  0
VERTEX
  5
713
330
70E
100
AcDbEntity
  8
001
370
    50
100
AcDbVertex
100
AcDb2dVertex
 10
415.970753
 20
392.081195
 30
0.0
  0
VERTEX
  5
714
330
70E
100
AcDbEntity
  8
001
370
    50
100
AcDbVertex
100
AcDb2dVertex
 10
416.48544
 20
392.0523
 30
0.0
  0
VERTEX
  5
715
330
70E
100
AcDbEntity
  8
001
370
    50
100
AcDbVertex
100
AcDb2dVertex
 10
417.003918
 20
392.014997
 30
0.0
  0
VERTEX
  5
716
330
70E
100
AcDbEntity
  8
001
370
    50
100
AcDbVertex
100
AcDb2dVertex
 10
417.521488
 20
391.967553
 30
0.0
  0
VERTEX
  5
717
330
70E
100
AcDbEntity
  8
001
370
    50
100
AcDbVertex
100
AcDb2dVertex
 10
418.033534
 20
391.909367
 30
0.0
  0
VERTEX
  5
718
330
70E
100
AcDbEntity
  8
001
370
    50
100
AcDbVertex
100
AcDb2dVertex
 10
418.544909
 20
391.844894
 30
0.0
  0
SEQEND
  5
70F
330
70E
100
AcDbEntity
  8
001
370
    50
  0
POLYLINE
  5
719
330
1F
100
AcDbEntity
  8
001
370
    50
100
AcDb2dPolyline
 66
     1
 10
0.0
 20
0.0
 30
0.0
  0
VERTEX
  5
71B
330
719
100
AcDbEntity
  8
001
370
    50
100
AcDbVertex
100
AcDb2dVertex
 10
418.544909
 20
391.844894
 30
0.0
  0
VERTEX
  5
71C
330
719
100
AcDbEntity
  8
001
370
    50
100
AcDbVertex
100
AcDb2dVertex
 10
418.922883
 20
391.764365
 30
0.0
  0
VERTEX
  5
71D
330
719
100
AcDbEntity
  8
001
370
    50
100
AcDbVertex
100
AcDb2dVertex
 10
419.294027
 20
391.66146
 30
0.0
  0
VERTEX
  5
71E
330
719
100
AcDbEntity
  8
001
370
    50
100
AcDbVertex
100
AcDb2dVertex
 10
419.647889
 20
391.521183
 30
0.0
  0
VERTEX
  5
71F
330
719
100
AcDbEntity
  8
001
370
    50
100
AcDbVertex
100
AcDb2dVertex
 10
419.987078
 20
391.34637
 30
0.0
  0
VERTEX
  5
720
330
719
100
AcDbEntity
  8
001
370
    50
100
AcDbVertex
100
AcDb2dVertex
 10
420.249499
 20
391.185412
 30
0.0
  0
VERTEX
  5
721
330
719
100
AcDbEntity
  8
001
370
    50
100
AcDbVertex
100
AcDb2dVertex
 10
420.500965
 20
391.008395
 30
0.0
  0
VERTEX
  5
722
330
719
100
AcDbEntity
  8
001
370
    50
100
AcDbVertex
100
AcDb2dVertex
 10
420.740524
 20
390.816523
 30
0.0
  0
VERTEX
  5
723
330
719
100
AcDbEntity
  8
001
370
    50
100
AcDbVertex
100
AcDb2dVertex
 10
420.968574
 20
390.610957
 30
0.0
  0
VERTEX
  5
724
330
719
100
AcDbEntity
  8
001
370
    50
100
AcDbVertex
100
AcDb2dVertex
 10
421.183897
 20
390.394529
 30
0.0
  0
VERTEX
  5
725
330
719
100
AcDbEntity
  8
001
370
    50
100
AcDbVertex
100
AcDb2dVertex
 10
421.387826
 20
390.167349
 30
0.0
  0
VERTEX
  5
726
330
719
100
AcDbEntity
  8
001
370
    50
100
AcDbVertex
100
AcDb2dVertex
 10
421.668343
 20
389.814583
 30
0.0
  0
VERTEX
  5
727
330
719
100
AcDbEntity
  8
001
370
    50
100
AcDbVertex
100
AcDb2dVertex
 10
421.925058
 20
389.443984
 30
0.0
  0
VERTEX
  5
728
330
719
100
AcDbEntity
  8
001
370
    50
100
AcDbVertex
100
AcDb2dVertex
 10
422.160392
 20
389.055845
 30
0.0
  0
VERTEX
  5
729
330
719
100
AcDbEntity
  8
001
370
    50
100
AcDbVertex
100
AcDb2dVertex
 10
422.3735
 20
388.655127
 30
0.0
  0
VERTEX
  5
72A
330
719
100
AcDbEntity
  8
001
370
    50
100
AcDbVertex
100
AcDb2dVertex
 10
422.566343
 20
388.242096
 30
0.0
  0
VERTEX
  5
72B
330
719
100
AcDbEntity
  8
001
370
    50
100
AcDbVertex
100
AcDb2dVertex
 10
422.739256
 20
387.820273
 30
0.0
  0
VERTEX
  5
72C
330
719
100
AcDbEntity
  8
001
370
    50
100
AcDbVertex
100
AcDb2dVertex
 10
422.954459
 20
387.204106
 30
0.0
  0
VERTEX
  5
72D
330
719
100
AcDbEntity
  8
001
370
    50
100
AcDbVertex
100
AcDb2dVertex
 10
423.133346
 20
386.57639
 30
0.0
  0
VERTEX
  5
72E
330
719
100
AcDbEntity
  8
001
370
    50
100
AcDbVertex
100
AcDb2dVertex
 10
423.280123
 20
385.928234
 30
0.0
  0
VERTEX
  5
72F
330
719
100
AcDbEntity
  8
001
370
    50
100
AcDbVertex
100
AcDb2dVertex
 10
423.39378
 20
385.27334
 30
0.0
  0
VERTEX
  5
730
330
719
100
AcDbEntity
  8
001
370
    50
100
AcDbVertex
100
AcDb2dVertex
 10
423.477007
 20
384.605012
 30
0.0
  0
VERTEX
  5
731
330
719
100
AcDbEntity
  8
001
370
    50
100
AcDbVertex
100
AcDb2dVertex
 10
423.526032
 20
383.933587
 30
0.0
  0
VERTEX
  5
732
330
719
100
AcDbEntity
  8
001
370
    50
100
AcDbVertex
100
AcDb2dVertex
 10
423.538171
 20
383.571402
 30
0.0
  0
VERTEX
  5
733
330
719
100
AcDbEntity
  8
001
370
    50
100
AcDbVertex
100
AcDb2dVertex
 10
423.544909
 20
383.209017
 30
0.0
  0
SEQEND
  5
71A
330
719
100
AcDbEntity
  8
001
370
    50
  0
ARC
  5
734
330
1F
100
AcDbEntity
  8
001
370
    50
100
AcDbCircle
 10
418.544909
 20
389.7564
 30
0.0
 40
5.000000000000001
100
AcDbArc
 50
0.0
 51
90.0
  0
POLYLINE
  5
735
330
1F
100
AcDbEntity
  8
001
370
    50
100
AcDb2dPolyline
 66
     1
 10
0.0
 20
0.0
 30
0.0
  0
VERTEX
  5
737
330
735
100
AcDbEntity
  8
001
370
    50
100
AcDbVertex
100
AcDb2dVertex
 10
413.259809
 20
394.7564
 30
0.0
  0
VERTEX
  5
738
330
735
100
AcDbEntity
  8
001
370
    50
100
AcDbVertex
100
AcDb2dVertex
 10
413.188016
 20
394.755933
 30
0.0
  0
VERTEX
  5
739
330
735
100
AcDbEntity
  8
001
370
    50
100
AcDbVertex
100
AcDb2dVertex
 10
413.083114
 20
394.753899
 30
0.0
  0
VERTEX
  5
73A
330
735
100
AcDbEntity
  8
001
370
    50
100
AcDbVertex
100
AcDb2dVertex
 10
412.978521
 20
394.749992
 30
0.0
  0
VERTEX
  5
73B
330
735
100
AcDbEntity
  8
001
370
    50
100
AcDbVertex
100
AcDb2dVertex
 10
412.906991
 20
394.746396
 30
0.0
  0
SEQEND
  5
736
330
735
100
AcDbEntity
  8
001
370
    50
  0
LINE
  5
73C
330
1F
100
AcDbEntity
  8
001
370
    50
100
AcDbLine
 10
408.617221
 20
394.7564
 30
0.0
 11
400.744909
 21
394.7564
 31
0.0
  0
LINE
  5
73D
330
1F
100
AcDbEntity
  8
001
370
    50
100
AcDbLine
 10
418.544909
 20
394.7564
 30
0.0
 11
413.259809
 21
394.7564
 31
0.0
  0
LINE
  5
73E
330
1F
100
AcDbEntity
  8
001
370
    50
100
AcDbLine
 10
400.744909
 20
392.11714
 30
0.0
 11
414.425972
 21
392.11714
 31
0.0
  0
POLYLINE
  5
73F
330
1F
100
AcDbEntity
  8
001
370
    50
100
AcDb2dPolyline
 66
     1
 10
0.0
 20
0.0
 30
0.0
  0
VERTEX
  5
741
330
73F
100
AcDbEntity
  8
001
370
    50
100
AcDbVertex
100
AcDb2dVertex
 10
412.906991
 20
394.746396
 30
0.0
  0
VERTEX
  5
742
330
73F
100
AcDbEntity
  8
001
370
    50
100
AcDbVertex
100
AcDb2dVertex
 10
412.03571
 20
394.749991
 30
0.0
  0
VERTEX
  5
743
330
73F
100
AcDbEntity
  8
001
370
    50
100
AcDbVertex
100
AcDb2dVertex
 10
410.762294
 20
394.753899
 30
0.0
  0
VERTEX
  5
744
330
73F
100
AcDbEntity
  8
001
370
    50
100
AcDbVertex
100
AcDb2dVertex
 10
409.488658
 20
394.755931
 30
0.0
  0
VERTEX
  5
745
330
73F
100
AcDbEntity
  8
001
370
    50
100
AcDbVertex
100
AcDb2dVertex
 10
408.617221
 20
394.7564
 30
0.0
  0
SEQEND
  5
740
330
73F
100
AcDbEntity
  8
001
370
    50
  0
LINE
  5
746
330
1F
100
AcDbEntity
  8
001
370
    50
100
AcDbLine
 10
399.253126
 20
390.279759
 30
0.0
 11
399.2451
 21
390.42804
 31
0.0
  0
POLYLINE
  5
747
330
1F
100
AcDbEntity
  8
001
370
    50
100
AcDb2dPolyline
 66
     1
 10
0.0
 20
0.0
 30
0.0
  0
VERTEX
  5
749
330
747
100
AcDbEntity
  8
001
370
    50
100
AcDbVertex
100
AcDb2dVertex
 10
399.2451
 20
390.42804
 30
0.0
  0
VERTEX
  5
74A
330
747
100
AcDbEntity
  8
001
370
    50
100
AcDbVertex
100
AcDb2dVertex
 10
399.257149
 20
390.631371
 30
0.0
  0
VERTEX
  5
74B
330
747
100
AcDbEntity
  8
001
370
    50
100
AcDbVertex
100
AcDb2dVertex
 10
399.283732
 20
390.832343
 30
0.0
  0
VERTEX
  5
74C
330
747
100
AcDbEntity
  8
001
370
    50
100
AcDbVertex
100
AcDb2dVertex
 10
399.321771
 20
390.984273
 30
0.0
  0
VERTEX
  5
74D
330
747
100
AcDbEntity
  8
001
370
    50
100
AcDbVertex
100
AcDb2dVertex
 10
399.374347
 20
391.13227
 30
0.0
  0
VERTEX
  5
74E
330
747
100
AcDbEntity
  8
001
370
    50
100
AcDbVertex
100
AcDb2dVertex
 10
399.439231
 20
391.275072
 30
0.0
  0
VERTEX
  5
74F
330
747
100
AcDbEntity
  8
001
370
    50
100
AcDbVertex
100
AcDb2dVertex
 10
399.516529
 20
391.411298
 30
0.0
  0
VERTEX
  5
750
330
747
100
AcDbEntity
  8
001
370
    50
100
AcDbVertex
100
AcDb2dVertex
 10
399.60138
 20
391.532724
 30
0.0
  0
VERTEX
  5
751
330
747
100
AcDbEntity
  8
001
370
    50
100
AcDbVertex
100
AcDb2dVertex
 10
399.69706
 20
391.645967
 30
0.0
  0
VERTEX
  5
752
330
747
100
AcDbEntity
  8
001
370
    50
100
AcDbVertex
100
AcDb2dVertex
 10
399.802709
 20
391.749889
 30
0.0
  0
VERTEX
  5
753
330
747
100
AcDbEntity
  8
001
370
    50
100
AcDbVertex
100
AcDb2dVertex
 10
399.917821
 20
391.842976
 30
0.0
  0
VERTEX
  5
754
330
747
100
AcDbEntity
  8
001
370
    50
100
AcDbVertex
100
AcDb2dVertex
 10
400.029153
 20
391.916398
 30
0.0
  0
VERTEX
  5
755
330
747
100
AcDbEntity
  8
001
370
    50
100
AcDbVertex
100
AcDb2dVertex
 10
400.146761
 20
391.979743
 30
0.0
  0
VERTEX
  5
756
330
747
100
AcDbEntity
  8
001
370
    50
100
AcDbVertex
100
AcDb2dVertex
 10
400.269612
 20
392.032533
 30
0.0
  0
VERTEX
  5
757
330
747
100
AcDbEntity
  8
001
370
    50
100
AcDbVertex
100
AcDb2dVertex
 10
400.396843
 20
392.072029
 30
0.0
  0
VERTEX
  5
758
330
747
100
AcDbEntity
  8
001
370
    50
100
AcDbVertex
100
AcDb2dVertex
 10
400.569367
 20
392.101795
 30
0.0
  0
VERTEX
  5
759
330
747
100
AcDbEntity
  8
001
370
    50
100
AcDbVertex
100
AcDb2dVertex
 10
400.744909
 20
392.11714
 30
0.0
  0
SEQEND
  5
748
330
747
100
AcDbEntity
  8
001
370
    50
  0
ARC
  5
75A
330
1F
100
AcDbEntity
  8
001
370
    50
100
AcDbCircle
 10
400.744909
 20
393.2564
 30
0.0
 40
1.499999999999998
100
AcDbArc
 50
90.0
 51
180.0
  0
ARC
  5
75B
330
1F
100
AcDbEntity
  8
001
  6
DASHED
370
    30
100
AcDbCircle
 10
400.744909
 20
393.2564
 30
0.0
 40
1.499999999999998
100
AcDbArc
 50
180.0
 51
186.0
  0
LINE
  5
75C
330
1F
100
AcDbEntity
  8
001
370
    50
100
AcDbLine
 10
399.244909
 20
393.2564
 30
0.0
 11
399.244909
 21
390.449592
 31
0.0
  0
POLYLINE
  5
75D
330
1F
100
AcDbEntity
  8
001
370
    50
100
AcDb2dPolyline
 66
     1
 10
0.0
 20
0.0
 30
0.0
  0
VERTEX
  5
75F
330
75D
100
AcDbEntity
  8
001
370
    50
100
AcDbVertex
100
AcDb2dVertex
 10
423.544909
 20
342.559602
 30
0.0
  0
VERTEX
  5
760
330
75D
100
AcDbEntity
  8
001
370
    50
100
AcDbVertex
100
AcDb2dVertex
 10
423.526954
 20
342.19783
 30
0.0
  0
VERTEX
  5
761
330
75D
100
AcDbEntity
  8
001
370
    50
100
AcDbVertex
100
AcDb2dVertex
 10
423.49255
 20
341.837958
 30
0.0
  0
VERTEX
  5
762
330
75D
100
AcDbEntity
  8
001
370
    50
100
AcDbVertex
100
AcDb2dVertex
 10
423.416842
 20
341.430043
 30
0.0
  0
VERTEX
  5
763
330
75D
100
AcDbEntity
  8
001
370
    50
100
AcDbVertex
100
AcDb2dVertex
 10
423.304459
 20
341.029838
 30
0.0
  0
VERTEX
  5
764
330
75D
100
AcDbEntity
  8
001
370
    50
100
AcDbVertex
100
AcDb2dVertex
 10
423.160959
 20
340.640651
 30
0.0
  0
VERTEX
  5
765
330
75D
100
AcDbEntity
  8
001
370
    50
100
AcDbVertex
100
AcDb2dVertex
 10
422.986468
 20
340.264781
 30
0.0
  0
VERTEX
  5
766
330
75D
100
AcDbEntity
  8
001
370
    50
100
AcDbVertex
100
AcDb2dVertex
 10
422.78084
 20
339.90544
 30
0.0
  0
VERTEX
  5
767
330
75D
100
AcDbEntity
  8
001
370
    50
100
AcDbVertex
100
AcDb2dVertex
 10
422.545788
 20
339.564377
 30
0.0
  0
VERTEX
  5
768
330
75D
100
AcDbEntity
  8
001
370
    50
100
AcDbVertex
100
AcDb2dVertex
 10
422.284245
 20
339.244501
 30
0.0
  0
VERTEX
  5
769
330
75D
100
AcDbEntity
  8
001
370
    50
100
AcDbVertex
100
AcDb2dVertex
 10
421.997143
 20
338.947528
 30
0.0
  0
VERTEX
  5
76A
330
75D
100
AcDbEntity
  8
001
370
    50
100
AcDbVertex
100
AcDb2dVertex
 10
421.684085
 20
338.674353
 30
0.0
  0
VERTEX
  5
76B
330
75D
100
AcDbEntity
  8
001
370
    50
100
AcDbVertex
100
AcDb2dVertex
 10
421.349172
 20
338.428254
 30
0.0
  0
VERTEX
  5
76C
330
75D
100
AcDbEntity
  8
001
370
    50
100
AcDbVertex
100
AcDb2dVertex
 10
420.99588
 20
338.211106
 30
0.0
  0
VERTEX
  5
76D
330
75D
100
AcDbEntity
  8
001
370
    50
100
AcDbVertex
100
AcDb2dVertex
 10
420.625756
 20
338.024469
 30
0.0
  0
VERTEX
  5
76E
330
75D
100
AcDbEntity
  8
001
370
    50
100
AcDbVertex
100
AcDb2dVertex
 10
420.237363
 20
337.868831
 30
0.0
  0
VERTEX
  5
76F
330
75D
100
AcDbEntity
  8
001
370
    50
100
AcDbVertex
100
AcDb2dVertex
 10
419.83707
 20
337.745875
 30
0.0
  0
VERTEX
  5
770
330
75D
100
AcDbEntity
  8
001
370
    50
100
AcDbVertex
100
AcDb2dVertex
 10
419.428391
 20
337.655917
 30
0.0
  0
VERTEX
  5
771
330
75D
100
AcDbEntity
  8
001
370
    50
100
AcDbVertex
100
AcDb2dVertex
 10
419.013904
 20
337.603135
 30
0.0
  0
VERTEX
  5
772
330
75D
100
AcDbEntity
  8
001
370
    50
100
AcDbVertex
100
AcDb2dVertex
 10
418.779623
 20
337.590524
 30
0.0
  0
VERTEX
  5
773
330
75D
100
AcDbEntity
  8
001
370
    50
100
AcDbVertex
100
AcDb2dVertex
 10
418.544909
 20
337.584628
 30
0.0
  0
SEQEND
  5
75E
330
75D
100
AcDbEntity
  8
001
370
    50
  0
LINE
  5
774
330
1F
100
AcDbEntity
  8
001
  6
DASHED
370
    50
100
AcDbLine
 10
400.744909
 20
354.1564
 30
0.0
 11
400.74126
 21
354.1564
 31
0.0
  0
ARC
  5
775
330
1F
100
AcDbEntity
  8
001
370
    50
100
AcDbCircle
 10
418.544909
 20
342.5564
 30
0.0
 40
5.000000000000001
100
AcDbArc
 50
270.0
 51
0.0
  0
LINE
  5
776
330
1F
100
AcDbEntity
  8
001
370
    50
100
AcDbLine
 10
423.544909
 20
345.159999
 30
0.0
 11
423.544909
 21
342.5564
 31
0.0
  0
LINE
  5
777
330
1F
100
AcDbEntity
  8
001
  6
DASHED
370
    50
100
AcDbLine
 10
399.244909
 20
367.809927
 30
0.0
 11
399.244909
 21
367.807342
 31
0.0
  0
LINE
  5
778
330
1F
100
AcDbEntity
  8
001
370
    50
100
AcDbLine
 10
423.544909
 20
349.841736
 30
0.0
 11
423.544909
 21
348.890303
 31
0.0
  0
LINE
  5
779
330
1F
100
AcDbEntity
  8
001
370
    50
100
AcDbLine
 10
399.244909
 20
354.1564
 30
0.0
 11
414.425972
 21
354.1564
 31
0.0
  0
LINE
  5
77A
330
1F
100
AcDbEntity
  8
001
370
    50
100
AcDbLine
 10
400.30124
 20
378.1564
 30
0.0
 11
399.244909
 21
378.1564
 31
0.0
  0
LINE
  5
77B
330
1F
100
AcDbEntity
  8
001
370
    50
100
AcDbLine
 10
423.544909
 20
389.7564
 30
0.0
 11
423.544909
 21
378.109721
 31
0.0
  0
LINE
  5
77C
330
1F
100
AcDbEntity
  8
001
370
    50
100
AcDbLine
 10
431.544909
 20
350.1564
 30
0.0
 11
431.544909
 21
382.1564
 31
0.0
  0
LINE
  5
77D
330
1F
100
AcDbEntity
  8
001
370
    50
100
AcDbLine
 10
431.544909
 20
381.6564
 30
0.0
 11
428.544909
 21
381.6564
 31
0.0
  0
LINE
  5
77E
330
1F
100
AcDbEntity
  8
001
370
    50
100
AcDbLine
 10
428.544909
 20
350.6564
 30
0.0
 11
431.544909
 21
350.6564
 31
0.0
  0
LINE
  5
77F
330
1F
100
AcDbEntity
  8
001
370
    50
100
AcDbLine
 10
398.721563
 20
338.922086
 30
0.0
 11
399.240175
 21
345.367837
 31
0.0
  0
CIRCLE
  5
780
330
1F
100
AcDbEntity
  8
001
370
    50
100
AcDbCircle
 10
406.85379
 20
341.023521
 30
0.0
 40
3.0
  0
LINE
  5
781
330
1F
100
AcDbEntity
  8
001
370
    50
100
AcDbLine
 10
414.758596
 20
343.123369
 30
0.0
 11
414.239983
 21
336.677618
 31
0.0
  0
LINE
  5
782
330
1F
100
AcDbEntity
  8
001
370
    50
100
AcDbLine
 10
412.249196
 20
345.823805
 30
0.0
 11
399.636094
 21
345.735747
 31
0.0
  0
CIRCLE
  5
783
330
1F
100
AcDbEntity
  8
001
370
    50
100
AcDbCircle
 10
406.858778
 20
341.036787
 30
0.0
 40
2.5
  0
LINE
  5
784
330
1F
100
AcDbEntity
  8
001
370
    50
100
AcDbLine
 10
407.438347
 20
342.035502
 30
0.0
 11
407.122027
 21
342.586206
 31
0.0
  0
LINE
  5
785
330
1F
100
AcDbEntity
  8
001
370
    50
100
AcDbLine
 10
406.28365
 20
342.038066
 30
0.0
 11
406.602413
 21
342.58736
 31
0.0
  0
ARC
  5
786
330
1F
100
AcDbEntity
  8
001
370
    50
100
AcDbCircle
 10
406.861887
 20
342.436783
 30
0.0
 40
0.3
100
AcDbArc
 50
29.872778
 51
149.872778
  0
LINE
  5
787
330
1F
100
AcDbEntity
  8
001
370
    50
100
AcDbLine
 10
406.28365
 20
342.038066
 30
0.0
 11
405.648566
 21
342.039477
 31
0.0
  0
LINE
  5
788
330
1F
100
AcDbEntity
  8
001
370
    50
100
AcDbLine
 10
405.70408
 20
341.039351
 30
0.0
 11
405.38776
 21
341.590055
 31
0.0
  0
ARC
  5
789
330
1F
100
AcDbEntity
  8
001
370
    50
100
AcDbCircle
 10
405.6479
 20
341.739477
 30
0.0
 40
0.3
100
AcDbArc
 50
89.872778
 51
209.872778
  0
LINE
  5
78A
330
1F
100
AcDbEntity
  8
001
370
    50
100
AcDbLine
 10
405.70408
 20
341.039351
 30
0.0
 11
405.385317
 21
340.490057
 31
0.0
  0
LINE
  5
78B
330
1F
100
AcDbEntity
  8
001
370
    50
100
AcDbLine
 10
406.279209
 20
340.038071
 30
0.0
 11
405.644125
 21
340.039481
 31
0.0
  0
ARC
  5
78C
330
1F
100
AcDbEntity
  8
001
370
    50
100
AcDbCircle
 10
405.644791
 20
340.339481
 30
0.0
 40
0.3
100
AcDbArc
 50
149.872778
 51
269.872778
  0
LINE
  5
78D
330
1F
100
AcDbEntity
  8
001
370
    50
100
AcDbLine
 10
406.279209
 20
340.038071
 30
0.0
 11
406.595529
 21
339.487368
 31
0.0
  0
LINE
  5
78E
330
1F
100
AcDbEntity
  8
001
370
    50
100
AcDbLine
 10
407.433907
 20
340.035507
 30
0.0
 11
407.115143
 21
339.486214
 31
0.0
  0
ARC
  5
78F
330
1F
100
AcDbEntity
  8
001
370
    50
100
AcDbCircle
 10
406.85567
 20
339.63679
 30
0.0
 40
0.3
100
AcDbArc
 50
209.872778
 51
329.872778
  0
LINE
  5
790
330
1F
100
AcDbEntity
  8
001
370
    50
100
AcDbLine
 10
407.433907
 20
340.035507
 30
0.0
 11
408.06899
 21
340.034097
 31
0.0
  0
LINE
  5
791
330
1F
100
AcDbEntity
  8
001
370
    50
100
AcDbLine
 10
408.013476
 20
341.034223
 30
0.0
 11
408.329796
 21
340.483519
 31
0.0
  0
ARC
  5
792
330
1F
100
AcDbEntity
  8
001
370
    50
100
AcDbCircle
 10
408.069656
 20
340.334096
 30
0.0
 40
0.3
100
AcDbArc
 50
269.872778
 51
29.872778
  0
LINE
  5
793
330
1F
100
AcDbEntity
  8
001
370
    50
100
AcDbLine
 10
408.013476
 20
341.034223
 30
0.0
 11
408.332239
 21
341.583516
 31
0.0
  0
LINE
  5
794
330
1F
100
AcDbEntity
  8
001
370
    50
100
AcDbLine
 10
407.438347
 20
342.035502
 30
0.0
 11
408.073431
 21
342.034092
 31
0.0
  0
ARC
  5
795
330
1F
100
AcDbEntity
  8
001
370
    50
100
AcDbCircle
 10
408.072765
 20
341.734093
 30
0.0
 40
0.3
100
AcDbArc
 50
329.872778
 51
89.872778
  0
LINE
  5
796
330
1F
100
AcDbEntity
  8
001
370
    50
100
AcDbLine
 10
401.230963
 20
336.22165
 30
0.0
 11
413.844064
 21
336.309707
 31
0.0
  0
ARC
  5
797
330
1F
100
AcDbEntity
  8
001
370
    50
100
AcDbCircle
 10
413.199032
 20
344.085454
 30
0.0
 40
3.0
100
AcDbArc
 50
298.349498
 51
144.83356
  0
ARC
  5
798
330
1F
100
AcDbEntity
  8
001
370
    50
100
AcDbCircle
 10
399.638887
 20
345.335757
 30
0.0
 40
0.4
100
AcDbArc
 50
90.4
 51
175.4
  0
ARC
  5
799
330
1F
100
AcDbEntity
  8
001
370
    50
100
AcDbCircle
 10
413.841272
 20
336.709698
 30
0.0
 40
0.4
100
AcDbArc
 50
270.4
 51
355.4
  0
POLYLINE
  5
79A
330
1F
100
AcDbEntity
  8
001
370
    50
100
AcDb2dPolyline
 66
     1
 10
0.0
 20
0.0
 30
0.0
  0
VERTEX
  5
79C
330
79A
100
AcDbEntity
  8
001
370
    50
100
AcDbVertex
100
AcDb2dVertex
 10
414.316412
 20
337.627544
 30
0.0
  0
VERTEX
  5
79D
330
79A
100
AcDbEntity
  8
001
370
    50
100
AcDbVertex
100
AcDb2dVertex
 10
415.191249
 20
337.617117
 30
0.0
  0
VERTEX
  5
79E
330
79A
100
AcDbEntity
  8
001
370
    50
100
AcDbVertex
100
AcDb2dVertex
 10
416.381074
 20
337.604147
 30
0.0
  0
VERTEX
  5
79F
330
79A
100
AcDbEntity
  8
001
370
    50
100
AcDbVertex
100
AcDb2dVertex
 10
417.665845
 20
337.591999
 30
0.0
  0
VERTEX
  5
7A0
330
79A
100
AcDbEntity
  8
001
370
    50
100
AcDbVertex
100
AcDb2dVertex
 10
418.544909
 20
337.584628
 30
0.0
  0
SEQEND
  5
79B
330
79A
100
AcDbEntity
  8
001
370
    50
  0
LINE
  5
7A1
330
1F
100
AcDbEntity
  8
001
370
    50
100
AcDbLine
 10
414.310688
 20
337.5564
 30
0.0
 11
418.544909
 21
337.5564
 31
0.0
  0
POLYLINE
  5
7A2
330
1F
100
AcDbEntity
  8
001
370
    50
100
AcDb2dPolyline
 66
     1
 10
0.0
 20
0.0
 30
0.0
  0
VERTEX
  5
7A4
330
7A2
100
AcDbEntity
  8
001
370
    50
100
AcDbVertex
100
AcDb2dVertex
 10
400.301278
 20
354.1562
 30
0.0
  0
VERTEX
  5
7A5
330
7A2
100
AcDbEntity
  8
001
370
    50
100
AcDbVertex
100
AcDb2dVertex
 10
400.07261
 20
351.290041
 30
0.0
  0
VERTEX
  5
7A6
330
7A2
100
AcDbEntity
  8
001
370
    50
100
AcDbVertex
100
AcDb2dVertex
 10
399.834625
 20
348.424674
 30
0.0
  0
VERTEX
  5
7A7
330
7A2
100
AcDbEntity
  8
001
370
    50
100
AcDbVertex
100
AcDb2dVertex
 10
399.732895
 20
347.256039
 30
0.0
  0
VERTEX
  5
7A8
330
7A2
100
AcDbEntity
  8
001
370
    50
100
AcDbVertex
100
AcDb2dVertex
 10
399.628556
 20
346.087629
 30
0.0
  0
VERTEX
  5
7A9
330
7A2
100
AcDbEntity
  8
001
370
    50
100
AcDbVertex
100
AcDb2dVertex
 10
399.612659
 20
345.911551
 30
0.0
  0
VERTEX
  5
7AA
330
7A2
100
AcDbEntity
  8
001
370
    50
100
AcDbVertex
100
AcDb2dVertex
 10
399.596762
 20
345.735473
 30
0.0
  0
SEQEND
  5
7A3
330
7A2
100
AcDbEntity
  8
001
370
    50
  0
LINE
  5
7AB
330
1F
100
AcDbEntity
  8
001
370
    50
100
AcDbLine
 10
399.886457
 20
345.737495
 30
0.0
 11
400.74126
 21
354.1564
 31
0.0
  0
LINE
  5
7AC
330
1F
100
AcDbEntity
  8
001
  6
DASHED
370
    30
100
AcDbLine
 10
399.938896
 20
345.737861
 30
0.0
 11
401.033929
 21
356.1564
 31
0.0
  0
LINE
  5
7AD
330
1F
100
AcDbEntity
  8
001
370
    50
100
AcDbLine
 10
398.721563
 20
393.390714
 30
0.0
 11
399.240175
 21
386.944964
 31
0.0
  0
LINE
  5
7AE
330
1F
100
AcDbEntity
  8
001
370
    50
100
AcDbLine
 10
401.230963
 20
396.091151
 30
0.0
 11
413.844064
 21
396.003093
 31
0.0
  0
ARC
  5
7AF
330
1F
100
AcDbEntity
  8
001
370
    50
100
AcDbCircle
 10
413.841272
 20
395.603103
 30
0.0
 40
0.4
100
AcDbArc
 50
4.6
 51
89.6
  0
LINE
  5
7B0
330
1F
100
AcDbEntity
  8
001
370
    50
100
AcDbLine
 10
414.239983
 20
395.635182
 30
0.0
 11
414.310688
 21
394.7564
 31
0.0
  0
ARC
  5
7B1
330
1F
100
AcDbEntity
  8
001
370
    50
100
AcDbCircle
 10
399.638887
 20
386.977043
 30
0.0
 40
0.4
100
AcDbArc
 50
184.6
 51
263.661054
  0
LINE
  5
7B2
330
1F
100
AcDbEntity
  8
001
370
     9
100
AcDbLine
 10
399.044909
 20
336.2064
 30
0.0
 11
394.275924
 21
336.2064
 31
0.0
  0
LINE
  5
7B3
330
1F
100
AcDbEntity
  8
001
370
    50
100
AcDbLine
 10
446.172727
 20
382.1564
 30
0.0
 11
431.544909
 21
382.1564
 31
0.0
  0
LINE
  5
7B4
330
1F
100
AcDbEntity
  8
001
370
    50
100
AcDbLine
 10
446.172727
 20
350.1564
 30
0.0
 11
431.544909
 21
350.1564
 31
0.0
  0
LINE
  5
7B5
330
1F
100
AcDbEntity
  8
001
  6
CENTER
370
     9
100
AcDbLine
 10
454.376307
 20
366.1564
 30
0.0
 11
395.515233
 21
366.1564
 31
0.0
  0
ARC
  5
7B6
330
1F
100
AcDbEntity
  8
001
370
    50
100
AcDbCircle
 10
401.21351
 20
393.591212
 30
0.0
 40
2.5
100
AcDbArc
 50
89.6
 51
184.6
  0
ARC
  5
7B7
330
1F
100
AcDbEntity
  8
001
370
    50
100
AcDbCircle
 10
412.266649
 20
343.323866
 30
0.0
 40
2.5
100
AcDbArc
 50
355.4
 51
90.4
  0
ARC
  5
7B8
330
1F
100
AcDbEntity
  8
001
370
    50
100
AcDbCircle
 10
401.21351
 20
338.721589
 30
0.0
 40
2.5
100
AcDbArc
 50
175.4
 51
270.4
  0
LINE
  5
7B9
330
1F
100
AcDbEntity
  8
001
370
    50
100
AcDbLine
 10
99.711223
 20
320.90291
 30
0.0
 11
116.503018
 21
320.90291
 31
0.0
  0
POLYLINE
  5
7BA
330
1F
100
AcDbEntity
  8
001
370
    50
100
AcDb2dPolyline
 66
     1
 10
0.0
 20
0.0
 30
0.0
  0
VERTEX
  5
7BC
330
7BA
100
AcDbEntity
  8
001
370
    50
100
AcDbVertex
100
AcDb2dVertex
 10
115.66357
 20
320.70291
 30
0.0
  0
VERTEX
  5
7BD
330
7BA
100
AcDbEntity
  8
001
370
    50
100
AcDbVertex
100
AcDb2dVertex
 10
115.496881
 20
320.099028
 30
0.0
  0
VERTEX
  5
7BE
330
7BA
100
AcDbEntity
  8
001
370
    50
100
AcDbVertex
100
AcDb2dVertex
 10
115.254542
 20
319.216078
 30
0.0
  0
VERTEX
  5
7BF
330
7BA
100
AcDbEntity
  8
001
370
    50
100
AcDbVertex
100
AcDb2dVertex
 10
115.013987
 20
318.33262
 30
0.0
  0
VERTEX
  5
7C0
330
7BA
100
AcDbEntity
  8
001
370
    50
100
AcDbVertex
100
AcDb2dVertex
 10
114.850276
 20
317.72791
 30
0.0
  0
SEQEND
  5
7BB
330
7BA
100
AcDbEntity
  8
001
370
    50
  0
LINE
  5
7C1
330
1F
100
AcDbEntity
  8
001
370
    50
100
AcDbLine
 10
116.503018
 20
320.90291
 30
0.0
 11
116.449428
 21
320.70291
 31
0.0
  0
LINE
  5
7C2
330
1F
100
AcDbEntity
  8
001
370
    50
100
AcDbLine
 10
100.411223
 20
317.72791
 30
0.0
 11
114.850276
 21
317.72791
 31
0.0
  0
LINE
  5
7C3
330
1F
100
AcDbEntity
  8
001
370
    50
100
AcDbLine
 10
99.711223
 20
320.90291
 30
0.0
 11
100.411223
 21
317.72791
 31
0.0
  0
LINE
  5
7C4
330
1F
100
AcDbEntity
  8
001
370
    50
100
AcDbLine
 10
124.8625
 20
320.70291
 30
0.0
 11
115.66357
 21
320.70291
 31
0.0
  0
LINE
  5
7C5
330
1F
100
AcDbEntity
  8
001
370
    50
100
AcDbLine
 10
99.711223
 20
310.90291
 30
0.0
 11
100.411223
 21
314.07791
 31
0.0
  0
LINE
  5
7C6
330
1F
100
AcDbEntity
  8
001
370
    50
100
AcDbLine
 10
99.711223
 20
310.90291
 30
0.0
 11
100.411223
 21
310.90291
 31
0.0
  0
POLYLINE
  5
7C7
330
1F
100
AcDbEntity
  8
001
370
    50
100
AcDb2dPolyline
 66
     1
 10
0.0
 20
0.0
 30
0.0
  0
VERTEX
  5
7C9
330
7C7
100
AcDbEntity
  8
001
370
    50
100
AcDbVertex
100
AcDb2dVertex
 10
124.711223
 20
327.85623
 30
0.0
  0
VERTEX
  5
7CA
330
7C7
100
AcDbEntity
  8
001
370
    50
100
AcDbVertex
100
AcDb2dVertex
 10
124.711266
 20
327.814115
 30
0.0
  0
VERTEX
  5
7CB
330
7C7
100
AcDbEntity
  8
001
370
    50
100
AcDbVertex
100
AcDb2dVertex
 10
124.711336
 20
327.772001
 30
0.0
  0
VERTEX
  5
7CC
330
7C7
100
AcDbEntity
  8
001
370
    50
100
AcDbVertex
100
AcDb2dVertex
 10
124.719646
 20
327.048313
 30
0.0
  0
VERTEX
  5
7CD
330
7C7
100
AcDbEntity
  8
001
370
    50
100
AcDbVertex
100
AcDb2dVertex
 10
124.738347
 20
326.324781
 30
0.0
  0
VERTEX
  5
7CE
330
7C7
100
AcDbEntity
  8
001
370
    50
100
AcDbVertex
100
AcDb2dVertex
 10
124.762652
 20
325.607188
 30
0.0
  0
VERTEX
  5
7CF
330
7C7
100
AcDbEntity
  8
001
370
    50
100
AcDbVertex
100
AcDb2dVertex
 10
124.788626
 20
324.889659
 30
0.0
  0
VERTEX
  5
7D0
330
7C7
100
AcDbEntity
  8
001
370
    50
100
AcDbVertex
100
AcDb2dVertex
 10
124.833443
 20
323.458027
 30
0.0
  0
VERTEX
  5
7D1
330
7C7
100
AcDbEntity
  8
001
370
    50
100
AcDbVertex
100
AcDb2dVertex
 10
124.860125
 20
322.025984
 30
0.0
  0
VERTEX
  5
7D2
330
7C7
100
AcDbEntity
  8
001
370
    50
100
AcDbVertex
100
AcDb2dVertex
 10
124.864024
 20
321.36446
 30
0.0
  0
VERTEX
  5
7D3
330
7C7
100
AcDbEntity
  8
001
370
    50
100
AcDbVertex
100
AcDb2dVertex
 10
124.8625
 20
320.70291
 30
0.0
  0
SEQEND
  5
7C8
330
7C7
100
AcDbEntity
  8
001
370
    50
  0
POLYLINE
  5
7D4
330
1F
100
AcDbEntity
  8
001
370
    50
100
AcDb2dPolyline
 66
     1
 10
0.0
 20
0.0
 30
0.0
  0
VERTEX
  5
7D6
330
7D4
100
AcDbEntity
  8
001
370
    50
100
AcDbVertex
100
AcDb2dVertex
 10
101.884182
 20
320.90291
 30
0.0
  0
VERTEX
  5
7D7
330
7D4
100
AcDbEntity
  8
001
370
    50
100
AcDbVertex
100
AcDb2dVertex
 10
101.86835
 20
321.288855
 30
0.0
  0
VERTEX
  5
7D8
330
7D4
100
AcDbEntity
  8
001
370
    50
100
AcDbVertex
100
AcDb2dVertex
 10
101.851723
 20
321.674765
 30
0.0
  0
VERTEX
  5
7D9
330
7D4
100
AcDbEntity
  8
001
370
    50
100
AcDbVertex
100
AcDb2dVertex
 10
101.768091
 20
323.341997
 30
0.0
  0
VERTEX
  5
7DA
330
7D4
100
AcDbEntity
  8
001
370
    50
100
AcDbVertex
100
AcDb2dVertex
 10
101.66828
 20
325.008374
 30
0.0
  0
VERTEX
  5
7DB
330
7D4
100
AcDbEntity
  8
001
370
    50
100
AcDbVertex
100
AcDb2dVertex
 10
101.55641
 20
326.67401
 30
0.0
  0
VERTEX
  5
7DC
330
7D4
100
AcDbEntity
  8
001
370
    50
100
AcDbVertex
100
AcDb2dVertex
 10
101.434911
 20
328.338958
 30
0.0
  0
VERTEX
  5
7DD
330
7D4
100
AcDbEntity
  8
001
370
    50
100
AcDbVertex
100
AcDb2dVertex
 10
101.260879
 20
330.559133
 30
0.0
  0
VERTEX
  5
7DE
330
7D4
100
AcDbEntity
  8
001
370
    50
100
AcDbVertex
100
AcDb2dVertex
 10
101.0755
 20
332.778407
 30
0.0
  0
VERTEX
  5
7DF
330
7D4
100
AcDbEntity
  8
001
370
    50
100
AcDbVertex
100
AcDb2dVertex
 10
100.881003
 20
334.996906
 30
0.0
  0
VERTEX
  5
7E0
330
7D4
100
AcDbEntity
  8
001
370
    50
100
AcDbVertex
100
AcDb2dVertex
 10
100.652436
 20
337.511795
 30
0.0
  0
VERTEX
  5
7E1
330
7D4
100
AcDbEntity
  8
001
370
    50
100
AcDbVertex
100
AcDb2dVertex
 10
100.41944
 20
340.026268
 30
0.0
  0
SEQEND
  5
7D5
330
7D4
100
AcDbEntity
  8
001
370
    50
  0
LINE
  5
7E2
330
1F
100
AcDbEntity
  8
001
370
    50
100
AcDbLine
 10
100.411223
 20
317.72791
 30
0.0
 11
100.411223
 21
303.90291
 31
0.0
  0
LINE
  5
7E3
330
1F
100
AcDbEntity
  8
001
370
    50
100
AcDbLine
 10
100.411223
 20
327.90291
 30
0.0
 11
100.411223
 21
320.90291
 31
0.0
  0
LINE
  5
7E4
330
1F
100
AcDbEntity
  8
001
370
    50
100
AcDbLine
 10
99.711223
 20
129.484562
 30
0.0
 11
116.503018
 21
129.484562
 31
0.0
  0
POLYLINE
  5
7E5
330
1F
100
AcDbEntity
  8
001
370
    50
100
AcDb2dPolyline
 66
     1
 10
0.0
 20
0.0
 30
0.0
  0
VERTEX
  5
7E7
330
7E5
100
AcDbEntity
  8
001
370
    50
100
AcDbVertex
100
AcDb2dVertex
 10
115.66357
 20
129.284562
 30
0.0
  0
VERTEX
  5
7E8
330
7E5
100
AcDbEntity
  8
001
370
    50
100
AcDbVertex
100
AcDb2dVertex
 10
115.496881
 20
128.68068
 30
0.0
  0
VERTEX
  5
7E9
330
7E5
100
AcDbEntity
  8
001
370
    50
100
AcDbVertex
100
AcDb2dVertex
 10
115.254542
 20
127.79773
 30
0.0
  0
VERTEX
  5
7EA
330
7E5
100
AcDbEntity
  8
001
370
    50
100
AcDbVertex
100
AcDb2dVertex
 10
115.013987
 20
126.914272
 30
0.0
  0
VERTEX
  5
7EB
330
7E5
100
AcDbEntity
  8
001
370
    50
100
AcDbVertex
100
AcDb2dVertex
 10
114.850276
 20
126.309562
 30
0.0
  0
SEQEND
  5
7E6
330
7E5
100
AcDbEntity
  8
001
370
    50
  0
LINE
  5
7EC
330
1F
100
AcDbEntity
  8
001
370
    50
100
AcDbLine
 10
116.503018
 20
129.484562
 30
0.0
 11
116.449428
 21
129.284562
 31
0.0
  0
LINE
  5
7ED
330
1F
100
AcDbEntity
  8
001
370
    50
100
AcDbLine
 10
100.411223
 20
126.309562
 30
0.0
 11
114.850276
 21
126.309562
 31
0.0
  0
LINE
  5
7EE
330
1F
100
AcDbEntity
  8
001
370
    50
100
AcDbLine
 10
99.711223
 20
129.484562
 30
0.0
 11
100.411223
 21
126.309562
 31
0.0
  0
LINE
  5
7EF
330
1F
100
AcDbEntity
  8
001
370
    50
100
AcDbLine
 10
124.8625
 20
129.284562
 30
0.0
 11
115.66357
 21
129.284562
 31
0.0
  0
LINE
  5
7F0
330
1F
100
AcDbEntity
  8
001
370
    50
100
AcDbLine
 10
99.711223
 20
119.484562
 30
0.0
 11
100.411223
 21
122.659562
 31
0.0
  0
LINE
  5
7F1
330
1F
100
AcDbEntity
  8
001
370
    50
100
AcDbLine
 10
99.711223
 20
119.484562
 30
0.0
 11
100.411223
 21
119.484562
 31
0.0
  0
LINE
  5
7F2
330
1F
100
AcDbEntity
  8
001
370
    50
100
AcDbLine
 10
100.411223
 20
136.484562
 30
0.0
 11
100.411223
 21
129.484562
 31
0.0
  0
POLYLINE
  5
7F3
330
1F
100
AcDbEntity
  8
001
370
    50
100
AcDb2dPolyline
 66
     1
 10
0.0
 20
0.0
 30
0.0
  0
VERTEX
  5
7F5
330
7F3
100
AcDbEntity
  8
001
370
    50
100
AcDbVertex
100
AcDb2dVertex
 10
101.884182
 20
129.484562
 30
0.0
  0
VERTEX
  5
7F6
330
7F3
100
AcDbEntity
  8
001
370
    50
100
AcDbVertex
100
AcDb2dVertex
 10
101.86835
 20
129.870507
 30
0.0
  0
VERTEX
  5
7F7
330
7F3
100
AcDbEntity
  8
001
370
    50
100
AcDbVertex
100
AcDb2dVertex
 10
101.851723
 20
130.256417
 30
0.0
  0
VERTEX
  5
7F8
330
7F3
100
AcDbEntity
  8
001
370
    50
100
AcDbVertex
100
AcDb2dVertex
 10
101.768091
 20
131.923648
 30
0.0
  0
VERTEX
  5
7F9
330
7F3
100
AcDbEntity
  8
001
370
    50
100
AcDbVertex
100
AcDb2dVertex
 10
101.66828
 20
133.590026
 30
0.0
  0
VERTEX
  5
7FA
330
7F3
100
AcDbEntity
  8
001
370
    50
100
AcDbVertex
100
AcDb2dVertex
 10
101.55641
 20
135.255662
 30
0.0
  0
VERTEX
  5
7FB
330
7F3
100
AcDbEntity
  8
001
370
    50
100
AcDbVertex
100
AcDb2dVertex
 10
101.434911
 20
136.92061
 30
0.0
  0
VERTEX
  5
7FC
330
7F3
100
AcDbEntity
  8
001
370
    50
100
AcDbVertex
100
AcDb2dVertex
 10
101.260879
 20
139.140785
 30
0.0
  0
VERTEX
  5
7FD
330
7F3
100
AcDbEntity
  8
001
370
    50
100
AcDbVertex
100
AcDb2dVertex
 10
101.0755
 20
141.360059
 30
0.0
  0
VERTEX
  5
7FE
330
7F3
100
AcDbEntity
  8
001
370
    50
100
AcDbVertex
100
AcDb2dVertex
 10
100.881003
 20
143.578558
 30
0.0
  0
VERTEX
  5
7FF
330
7F3
100
AcDbEntity
  8
001
370
    50
100
AcDbVertex
100
AcDb2dVertex
 10
100.652436
 20
146.093447
 30
0.0
  0
VERTEX
  5
800
330
7F3
100
AcDbEntity
  8
001
370
    50
100
AcDbVertex
100
AcDb2dVertex
 10
100.41944
 20
148.60792
 30
0.0
  0
SEQEND
  5
7F4
330
7F3
100
AcDbEntity
  8
001
370
    50
  0
POLYLINE
  5
801
330
1F
100
AcDbEntity
  8
001
370
    50
100
AcDb2dPolyline
 66
     1
 10
0.0
 20
0.0
 30
0.0
  0
VERTEX
  5
803
330
801
100
AcDbEntity
  8
001
370
    50
100
AcDbVertex
100
AcDb2dVertex
 10
124.711223
 20
136.437882
 30
0.0
  0
VERTEX
  5
804
330
801
100
AcDbEntity
  8
001
370
    50
100
AcDbVertex
100
AcDb2dVertex
 10
124.711266
 20
136.395767
 30
0.0
  0
VERTEX
  5
805
330
801
100
AcDbEntity
  8
001
370
    50
100
AcDbVertex
100
AcDb2dVertex
 10
124.711336
 20
136.353653
 30
0.0
  0
VERTEX
  5
806
330
801
100
AcDbEntity
  8
001
370
    50
100
AcDbVertex
100
AcDb2dVertex
 10
124.719646
 20
135.629965
 30
0.0
  0
VERTEX
  5
807
330
801
100
AcDbEntity
  8
001
370
    50
100
AcDbVertex
100
AcDb2dVertex
 10
124.738347
 20
134.906433
 30
0.0
  0
VERTEX
  5
808
330
801
100
AcDbEntity
  8
001
370
    50
100
AcDbVertex
100
AcDb2dVertex
 10
124.762652
 20
134.18884
 30
0.0
  0
VERTEX
  5
809
330
801
100
AcDbEntity
  8
001
370
    50
100
AcDbVertex
100
AcDb2dVertex
 10
124.788626
 20
133.471311
 30
0.0
  0
VERTEX
  5
80A
330
801
100
AcDbEntity
  8
001
370
    50
100
AcDbVertex
100
AcDb2dVertex
 10
124.833443
 20
132.039679
 30
0.0
  0
VERTEX
  5
80B
330
801
100
AcDbEntity
  8
001
370
    50
100
AcDbVertex
100
AcDb2dVertex
 10
124.860125
 20
130.607636
 30
0.0
  0
VERTEX
  5
80C
330
801
100
AcDbEntity
  8
001
370
    50
100
AcDbVertex
100
AcDb2dVertex
 10
124.864024
 20
129.946112
 30
0.0
  0
VERTEX
  5
80D
330
801
100
AcDbEntity
  8
001
370
    50
100
AcDbVertex
100
AcDb2dVertex
 10
124.8625
 20
129.284562
 30
0.0
  0
SEQEND
  5
802
330
801
100
AcDbEntity
  8
001
370
    50
  0
LINE
  5
80E
330
1F
100
AcDbEntity
  8
001
370
    50
100
AcDbLine
 10
398.544909
 20
107.230925
 30
0.0
 11
415.336704
 21
107.230925
 31
0.0
  0
POLYLINE
  5
80F
330
1F
100
AcDbEntity
  8
001
370
    50
100
AcDb2dPolyline
 66
     1
 10
0.0
 20
0.0
 30
0.0
  0
VERTEX
  5
811
330
80F
100
AcDbEntity
  8
001
370
    50
100
AcDbVertex
100
AcDb2dVertex
 10
414.497256
 20
107.030925
 30
0.0
  0
VERTEX
  5
812
330
80F
100
AcDbEntity
  8
001
370
    50
100
AcDbVertex
100
AcDb2dVertex
 10
414.330566
 20
106.427043
 30
0.0
  0
VERTEX
  5
813
330
80F
100
AcDbEntity
  8
001
370
    50
100
AcDbVertex
100
AcDb2dVertex
 10
414.088228
 20
105.544094
 30
0.0
  0
VERTEX
  5
814
330
80F
100
AcDbEntity
  8
001
370
    50
100
AcDbVertex
100
AcDb2dVertex
 10
413.847673
 20
104.660636
 30
0.0
  0
VERTEX
  5
815
330
80F
100
AcDbEntity
  8
001
370
    50
100
AcDbVertex
100
AcDb2dVertex
 10
413.683962
 20
104.055925
 30
0.0
  0
SEQEND
  5
810
330
80F
100
AcDbEntity
  8
001
370
    50
  0
LINE
  5
816
330
1F
100
AcDbEntity
  8
001
370
    50
100
AcDbLine
 10
415.336704
 20
107.230925
 30
0.0
 11
415.283114
 21
107.030925
 31
0.0
  0
LINE
  5
817
330
1F
100
AcDbEntity
  8
001
370
    50
100
AcDbLine
 10
399.244909
 20
104.055925
 30
0.0
 11
413.683962
 21
104.055925
 31
0.0
  0
LINE
  5
818
330
1F
100
AcDbEntity
  8
001
370
    50
100
AcDbLine
 10
398.544909
 20
107.230925
 30
0.0
 11
399.244909
 21
104.055925
 31
0.0
  0
LINE
  5
819
330
1F
100
AcDbEntity
  8
001
370
    50
100
AcDbLine
 10
423.696186
 20
107.030925
 30
0.0
 11
414.497256
 21
107.030925
 31
0.0
  0
LINE
  5
81A
330
1F
100
AcDbEntity
  8
001
370
    50
100
AcDbLine
 10
398.544909
 20
97.230925
 30
0.0
 11
399.244909
 21
100.405925
 31
0.0
  0
LINE
  5
81B
330
1F
100
AcDbEntity
  8
001
370
    50
100
AcDbLine
 10
398.544909
 20
97.230925
 30
0.0
 11
399.244909
 21
97.230925
 31
0.0
  0
LINE
  5
81C
330
1F
100
AcDbEntity
  8
001
370
    50
100
AcDbLine
 10
399.244909
 20
104.055925
 30
0.0
 11
399.244909
 21
90.230925
 31
0.0
  0
LINE
  5
81D
330
1F
100
AcDbEntity
  8
001
370
    50
100
AcDbLine
 10
399.244909
 20
114.230925
 30
0.0
 11
399.244909
 21
107.230925
 31
0.0
  0
POLYLINE
  5
81E
330
1F
100
AcDbEntity
  8
001
370
    50
100
AcDb2dPolyline
 66
     1
 10
0.0
 20
0.0
 30
0.0
  0
VERTEX
  5
820
330
81E
100
AcDbEntity
  8
001
370
    50
100
AcDbVertex
100
AcDb2dVertex
 10
400.717867
 20
107.230925
 30
0.0
  0
VERTEX
  5
821
330
81E
100
AcDbEntity
  8
001
370
    50
100
AcDbVertex
100
AcDb2dVertex
 10
400.702036
 20
107.61687
 30
0.0
  0
VERTEX
  5
822
330
81E
100
AcDbEntity
  8
001
370
    50
100
AcDbVertex
100
AcDb2dVertex
 10
400.685409
 20
108.002781
 30
0.0
  0
VERTEX
  5
823
330
81E
100
AcDbEntity
  8
001
370
    50
100
AcDbVertex
100
AcDb2dVertex
 10
400.601777
 20
109.670012
 30
0.0
  0
VERTEX
  5
824
330
81E
100
AcDbEntity
  8
001
370
    50
100
AcDbVertex
100
AcDb2dVertex
 10
400.501966
 20
111.336389
 30
0.0
  0
VERTEX
  5
825
330
81E
100
AcDbEntity
  8
001
370
    50
100
AcDbVertex
100
AcDb2dVertex
 10
400.390096
 20
113.002026
 30
0.0
  0
VERTEX
  5
826
330
81E
100
AcDbEntity
  8
001
370
    50
100
AcDbVertex
100
AcDb2dVertex
 10
400.268597
 20
114.666974
 30
0.0
  0
VERTEX
  5
827
330
81E
100
AcDbEntity
  8
001
370
    50
100
AcDbVertex
100
AcDb2dVertex
 10
400.094565
 20
116.887149
 30
0.0
  0
VERTEX
  5
828
330
81E
100
AcDbEntity
  8
001
370
    50
100
AcDbVertex
100
AcDb2dVertex
 10
399.909186
 20
119.106422
 30
0.0
  0
VERTEX
  5
829
330
81E
100
AcDbEntity
  8
001
370
    50
100
AcDbVertex
100
AcDb2dVertex
 10
399.714688
 20
121.324921
 30
0.0
  0
VERTEX
  5
82A
330
81E
100
AcDbEntity
  8
001
370
    50
100
AcDbVertex
100
AcDb2dVertex
 10
399.486122
 20
123.839811
 30
0.0
  0
VERTEX
  5
82B
330
81E
100
AcDbEntity
  8
001
370
    50
100
AcDbVertex
100
AcDb2dVertex
 10
399.253126
 20
126.354284
 30
0.0
  0
SEQEND
  5
81F
330
81E
100
AcDbEntity
  8
001
370
    50
  0
POLYLINE
  5
82C
330
1F
100
AcDbEntity
  8
001
370
    50
100
AcDb2dPolyline
 66
     1
 10
0.0
 20
0.0
 30
0.0
  0
VERTEX
  5
82E
330
82C
100
AcDbEntity
  8
001
370
    50
100
AcDbVertex
100
AcDb2dVertex
 10
423.544909
 20
114.184246
 30
0.0
  0
VERTEX
  5
82F
330
82C
100
AcDbEntity
  8
001
370
    50
100
AcDbVertex
100
AcDb2dVertex
 10
423.544952
 20
114.142131
 30
0.0
  0
VERTEX
  5
830
330
82C
100
AcDbEntity
  8
001
370
    50
100
AcDbVertex
100
AcDb2dVertex
 10
423.545021
 20
114.100016
 30
0.0
  0
VERTEX
  5
831
330
82C
100
AcDbEntity
  8
001
370
    50
100
AcDbVertex
100
AcDb2dVertex
 10
423.553332
 20
113.376328
 30
0.0
  0
VERTEX
  5
832
330
82C
100
AcDbEntity
  8
001
370
    50
100
AcDbVertex
100
AcDb2dVertex
 10
423.572033
 20
112.652797
 30
0.0
  0
VERTEX
  5
833
330
82C
100
AcDbEntity
  8
001
370
    50
100
AcDbVertex
100
AcDb2dVertex
 10
423.596338
 20
111.935204
 30
0.0
  0
VERTEX
  5
834
330
82C
100
AcDbEntity
  8
001
370
    50
100
AcDbVertex
100
AcDb2dVertex
 10
423.622312
 20
111.217675
 30
0.0
  0
VERTEX
  5
835
330
82C
100
AcDbEntity
  8
001
370
    50
100
AcDbVertex
100
AcDb2dVertex
 10
423.667129
 20
109.786043
 30
0.0
  0
VERTEX
  5
836
330
82C
100
AcDbEntity
  8
001
370
    50
100
AcDbVertex
100
AcDb2dVertex
 10
423.693811
 20
108.354
 30
0.0
  0
VERTEX
  5
837
330
82C
100
AcDbEntity
  8
001
370
    50
100
AcDbVertex
100
AcDb2dVertex
 10
423.697709
 20
107.692475
 30
0.0
  0
VERTEX
  5
838
330
82C
100
AcDbEntity
  8
001
370
    50
100
AcDbVertex
100
AcDb2dVertex
 10
423.696186
 20
107.030925
 30
0.0
  0
SEQEND
  5
82D
330
82C
100
AcDbEntity
  8
001
370
    50
  0
LINE
  5
839
330
1F
100
AcDbEntity
  8
001
370
    50
100
AcDbLine
 10
398.544909
 20
197.166462
 30
0.0
 11
415.336704
 21
197.166462
 31
0.0
  0
POLYLINE
  5
83A
330
1F
100
AcDbEntity
  8
001
370
    50
100
AcDb2dPolyline
 66
     1
 10
0.0
 20
0.0
 30
0.0
  0
VERTEX
  5
83C
330
83A
100
AcDbEntity
  8
001
370
    50
100
AcDbVertex
100
AcDb2dVertex
 10
414.497256
 20
196.966462
 30
0.0
  0
VERTEX
  5
83D
330
83A
100
AcDbEntity
  8
001
370
    50
100
AcDbVertex
100
AcDb2dVertex
 10
414.330566
 20
196.36258
 30
0.0
  0
VERTEX
  5
83E
330
83A
100
AcDbEntity
  8
001
370
    50
100
AcDbVertex
100
AcDb2dVertex
 10
414.088228
 20
195.47963
 30
0.0
  0
VERTEX
  5
83F
330
83A
100
AcDbEntity
  8
001
370
    50
100
AcDbVertex
100
AcDb2dVertex
 10
413.847673
 20
194.596172
 30
0.0
  0
VERTEX
  5
840
330
83A
100
AcDbEntity
  8
001
370
    50
100
AcDbVertex
100
AcDb2dVertex
 10
413.683962
 20
193.991462
 30
0.0
  0
SEQEND
  5
83B
330
83A
100
AcDbEntity
  8
001
370
    50
  0
LINE
  5
841
330
1F
100
AcDbEntity
  8
001
370
    50
100
AcDbLine
 10
415.336704
 20
197.166462
 30
0.0
 11
415.283114
 21
196.966462
 31
0.0
  0
LINE
  5
842
330
1F
100
AcDbEntity
  8
001
370
    50
100
AcDbLine
 10
399.244909
 20
193.991462
 30
0.0
 11
413.683962
 21
193.991462
 31
0.0
  0
LINE
  5
843
330
1F
100
AcDbEntity
  8
001
370
    50
100
AcDbLine
 10
398.544909
 20
197.166462
 30
0.0
 11
399.244909
 21
193.991462
 31
0.0
  0
LINE
  5
844
330
1F
100
AcDbEntity
  8
001
370
    50
100
AcDbLine
 10
423.696186
 20
196.966462
 30
0.0
 11
414.497256
 21
196.966462
 31
0.0
  0
LINE
  5
845
330
1F
100
AcDbEntity
  8
001
370
    50
100
AcDbLine
 10
398.544909
 20
187.166462
 30
0.0
 11
399.244909
 21
190.341462
 31
0.0
  0
LINE
  5
846
330
1F
100
AcDbEntity
  8
001
370
    50
100
AcDbLine
 10
398.544909
 20
187.166462
 30
0.0
 11
399.244909
 21
187.166462
 31
0.0
  0
POLYLINE
  5
847
330
1F
100
AcDbEntity
  8
001
370
    50
100
AcDb2dPolyline
 66
     1
 10
0.0
 20
0.0
 30
0.0
  0
VERTEX
  5
849
330
847
100
AcDbEntity
  8
001
370
    50
100
AcDbVertex
100
AcDb2dVertex
 10
423.544909
 20
204.119782
 30
0.0
  0
VERTEX
  5
84A
330
847
100
AcDbEntity
  8
001
370
    50
100
AcDbVertex
100
AcDb2dVertex
 10
423.544952
 20
204.077667
 30
0.0
  0
VERTEX
  5
84B
330
847
100
AcDbEntity
  8
001
370
    50
100
AcDbVertex
100
AcDb2dVertex
 10
423.545021
 20
204.035553
 30
0.0
  0
VERTEX
  5
84C
330
847
100
AcDbEntity
  8
001
370
    50
100
AcDbVertex
100
AcDb2dVertex
 10
423.553332
 20
203.311865
 30
0.0
  0
VERTEX
  5
84D
330
847
100
AcDbEntity
  8
001
370
    50
100
AcDbVertex
100
AcDb2dVertex
 10
423.572033
 20
202.588333
 30
0.0
  0
VERTEX
  5
84E
330
847
100
AcDbEntity
  8
001
370
    50
100
AcDbVertex
100
AcDb2dVertex
 10
423.596338
 20
201.87074
 30
0.0
  0
VERTEX
  5
84F
330
847
100
AcDbEntity
  8
001
370
    50
100
AcDbVertex
100
AcDb2dVertex
 10
423.622312
 20
201.153211
 30
0.0
  0
VERTEX
  5
850
330
847
100
AcDbEntity
  8
001
370
    50
100
AcDbVertex
100
AcDb2dVertex
 10
423.667129
 20
199.721579
 30
0.0
  0
VERTEX
  5
851
330
847
100
AcDbEntity
  8
001
370
    50
100
AcDbVertex
100
AcDb2dVertex
 10
423.693811
 20
198.289536
 30
0.0
  0
VERTEX
  5
852
330
847
100
AcDbEntity
  8
001
370
    50
100
AcDbVertex
100
AcDb2dVertex
 10
423.697709
 20
197.628012
 30
0.0
  0
VERTEX
  5
853
330
847
100
AcDbEntity
  8
001
370
    50
100
AcDbVertex
100
AcDb2dVertex
 10
423.696186
 20
196.966462
 30
0.0
  0
SEQEND
  5
848
330
847
100
AcDbEntity
  8
001
370
    50
  0
LINE
  5
854
330
1F
100
AcDbEntity
  8
001
370
    50
100
AcDbLine
 10
399.244909
 20
204.166462
 30
0.0
 11
399.244909
 21
197.166462
 31
0.0
  0
POLYLINE
  5
855
330
1F
100
AcDbEntity
  8
001
370
    50
100
AcDb2dPolyline
 66
     1
 10
0.0
 20
0.0
 30
0.0
  0
VERTEX
  5
857
330
855
100
AcDbEntity
  8
001
370
    50
100
AcDbVertex
100
AcDb2dVertex
 10
400.717867
 20
197.166462
 30
0.0
  0
VERTEX
  5
858
330
855
100
AcDbEntity
  8
001
370
    50
100
AcDbVertex
100
AcDb2dVertex
 10
400.702036
 20
197.552407
 30
0.0
  0
VERTEX
  5
859
330
855
100
AcDbEntity
  8
001
370
    50
100
AcDbVertex
100
AcDb2dVertex
 10
400.685409
 20
197.938317
 30
0.0
  0
VERTEX
  5
85A
330
855
100
AcDbEntity
  8
001
370
    50
100
AcDbVertex
100
AcDb2dVertex
 10
400.601777
 20
199.605548
 30
0.0
  0
VERTEX
  5
85B
330
855
100
AcDbEntity
  8
001
370
    50
100
AcDbVertex
100
AcDb2dVertex
 10
400.501966
 20
201.271926
 30
0.0
  0
VERTEX
  5
85C
330
855
100
AcDbEntity
  8
001
370
    50
100
AcDbVertex
100
AcDb2dVertex
 10
400.390096
 20
202.937562
 30
0.0
  0
VERTEX
  5
85D
330
855
100
AcDbEntity
  8
001
370
    50
100
AcDbVertex
100
AcDb2dVertex
 10
400.268597
 20
204.60251
 30
0.0
  0
VERTEX
  5
85E
330
855
100
AcDbEntity
  8
001
370
    50
100
AcDbVertex
100
AcDb2dVertex
 10
400.094565
 20
206.822685
 30
0.0
  0
VERTEX
  5
85F
330
855
100
AcDbEntity
  8
001
370
    50
100
AcDbVertex
100
AcDb2dVertex
 10
399.909186
 20
209.041959
 30
0.0
  0
VERTEX
  5
860
330
855
100
AcDbEntity
  8
001
370
    50
100
AcDbVertex
100
AcDb2dVertex
 10
399.714688
 20
211.260458
 30
0.0
  0
VERTEX
  5
861
330
855
100
AcDbEntity
  8
001
370
    50
100
AcDbVertex
100
AcDb2dVertex
 10
399.486122
 20
213.775347
 30
0.0
  0
VERTEX
  5
862
330
855
100
AcDbEntity
  8
001
370
    50
100
AcDbVertex
100
AcDb2dVertex
 10
399.253126
 20
216.28982
 30
0.0
  0
SEQEND
  5
856
330
855
100
AcDbEntity
  8
001
370
    50
  0
LINE
  5
863
330
1F
100
AcDbEntity
  8
001
370
    50
100
AcDbLine
 10
398.544909
 20
286.177197
 30
0.0
 11
415.336704
 21
286.177197
 31
0.0
  0
POLYLINE
  5
864
330
1F
100
AcDbEntity
  8
001
370
    50
100
AcDb2dPolyline
 66
     1
 10
0.0
 20
0.0
 30
0.0
  0
VERTEX
  5
866
330
864
100
AcDbEntity
  8
001
370
    50
100
AcDbVertex
100
AcDb2dVertex
 10
414.497256
 20
285.977197
 30
0.0
  0
VERTEX
  5
867
330
864
100
AcDbEntity
  8
001
370
    50
100
AcDbVertex
100
AcDb2dVertex
 10
414.330566
 20
285.373315
 30
0.0
  0
VERTEX
  5
868
330
864
100
AcDbEntity
  8
001
370
    50
100
AcDbVertex
100
AcDb2dVertex
 10
414.088228
 20
284.490366
 30
0.0
  0
VERTEX
  5
869
330
864
100
AcDbEntity
  8
001
370
    50
100
AcDbVertex
100
AcDb2dVertex
 10
413.847673
 20
283.606908
 30
0.0
  0
VERTEX
  5
86A
330
864
100
AcDbEntity
  8
001
370
    50
100
AcDbVertex
100
AcDb2dVertex
 10
413.683962
 20
283.002197
 30
0.0
  0
SEQEND
  5
865
330
864
100
AcDbEntity
  8
001
370
    50
  0
LINE
  5
86B
330
1F
100
AcDbEntity
  8
001
370
    50
100
AcDbLine
 10
415.336704
 20
286.177197
 30
0.0
 11
415.283114
 21
285.977197
 31
0.0
  0
LINE
  5
86C
330
1F
100
AcDbEntity
  8
001
370
    50
100
AcDbLine
 10
399.244909
 20
283.002197
 30
0.0
 11
413.683962
 21
283.002197
 31
0.0
  0
LINE
  5
86D
330
1F
100
AcDbEntity
  8
001
370
    50
100
AcDbLine
 10
398.544909
 20
286.177197
 30
0.0
 11
399.244909
 21
283.002197
 31
0.0
  0
LINE
  5
86E
330
1F
100
AcDbEntity
  8
001
370
    50
100
AcDbLine
 10
423.696186
 20
285.977197
 30
0.0
 11
414.497256
 21
285.977197
 31
0.0
  0
LINE
  5
86F
330
1F
100
AcDbEntity
  8
001
370
    50
100
AcDbLine
 10
398.544909
 20
276.177197
 30
0.0
 11
399.244909
 21
279.352197
 31
0.0
  0
LINE
  5
870
330
1F
100
AcDbEntity
  8
001
370
    50
100
AcDbLine
 10
398.544909
 20
276.177197
 30
0.0
 11
399.244909
 21
276.177197
 31
0.0
  0
LINE
  5
871
330
1F
100
AcDbEntity
  8
001
370
    50
100
AcDbLine
 10
399.244909
 20
293.177197
 30
0.0
 11
399.244909
 21
286.177197
 31
0.0
  0
POLYLINE
  5
872
330
1F
100
AcDbEntity
  8
001
370
    50
100
AcDb2dPolyline
 66
     1
 10
0.0
 20
0.0
 30
0.0
  0
VERTEX
  5
874
330
872
100
AcDbEntity
  8
001
370
    50
100
AcDbVertex
100
AcDb2dVertex
 10
400.717867
 20
286.177197
 30
0.0
  0
VERTEX
  5
875
330
872
100
AcDbEntity
  8
001
370
    50
100
AcDbVertex
100
AcDb2dVertex
 10
400.702036
 20
286.563142
 30
0.0
  0
VERTEX
  5
876
330
872
100
AcDbEntity
  8
001
370
    50
100
AcDbVertex
100
AcDb2dVertex
 10
400.685409
 20
286.949052
 30
0.0
  0
VERTEX
  5
877
330
872
100
AcDbEntity
  8
001
370
    50
100
AcDbVertex
100
AcDb2dVertex
 10
400.601777
 20
288.616284
 30
0.0
  0
VERTEX
  5
878
330
872
100
AcDbEntity
  8
001
370
    50
100
AcDbVertex
100
AcDb2dVertex
 10
400.501966
 20
290.282661
 30
0.0
  0
VERTEX
  5
879
330
872
100
AcDbEntity
  8
001
370
    50
100
AcDbVertex
100
AcDb2dVertex
 10
400.390096
 20
291.948297
 30
0.0
  0
VERTEX
  5
87A
330
872
100
AcDbEntity
  8
001
370
    50
100
AcDbVertex
100
AcDb2dVertex
 10
400.268597
 20
293.613245
 30
0.0
  0
VERTEX
  5
87B
330
872
100
AcDbEntity
  8
001
370
    50
100
AcDbVertex
100
AcDb2dVertex
 10
400.094565
 20
295.83342
 30
0.0
  0
VERTEX
  5
87C
330
872
100
AcDbEntity
  8
001
370
    50
100
AcDbVertex
100
AcDb2dVertex
 10
399.909186
 20
298.052694
 30
0.0
  0
VERTEX
  5
87D
330
872
100
AcDbEntity
  8
001
370
    50
100
AcDbVertex
100
AcDb2dVertex
 10
399.714688
 20
300.271193
 30
0.0
  0
VERTEX
  5
87E
330
872
100
AcDbEntity
  8
001
370
    50
100
AcDbVertex
100
AcDb2dVertex
 10
399.486122
 20
302.786082
 30
0.0
  0
VERTEX
  5
87F
330
872
100
AcDbEntity
  8
001
370
    50
100
AcDbVertex
100
AcDb2dVertex
 10
399.253126
 20
305.300555
 30
0.0
  0
SEQEND
  5
873
330
872
100
AcDbEntity
  8
001
370
    50
  0
LINE
  5
880
330
1F
100
AcDbEntity
  8
001
370
    50
100
AcDbLine
 10
399.244909
 20
283.002197
 30
0.0
 11
399.244909
 21
269.177197
 31
0.0
  0
POLYLINE
  5
881
330
1F
100
AcDbEntity
  8
001
370
    50
100
AcDb2dPolyline
 66
     1
 10
0.0
 20
0.0
 30
0.0
  0
VERTEX
  5
883
330
881
100
AcDbEntity
  8
001
370
    50
100
AcDbVertex
100
AcDb2dVertex
 10
423.544909
 20
293.130517
 30
0.0
  0
VERTEX
  5
884
330
881
100
AcDbEntity
  8
001
370
    50
100
AcDbVertex
100
AcDb2dVertex
 10
423.544952
 20
293.088403
 30
0.0
  0
VERTEX
  5
885
330
881
100
AcDbEntity
  8
001
370
    50
100
AcDbVertex
100
AcDb2dVertex
 10
423.545021
 20
293.046288
 30
0.0
  0
VERTEX
  5
886
330
881
100
AcDbEntity
  8
001
370
    50
100
AcDbVertex
100
AcDb2dVertex
 10
423.553332
 20
292.3226
 30
0.0
  0
VERTEX
  5
887
330
881
100
AcDbEntity
  8
001
370
    50
100
AcDbVertex
100
AcDb2dVertex
 10
423.572033
 20
291.599068
 30
0.0
  0
VERTEX
  5
888
330
881
100
AcDbEntity
  8
001
370
    50
100
AcDbVertex
100
AcDb2dVertex
 10
423.596338
 20
290.881475
 30
0.0
  0
VERTEX
  5
889
330
881
100
AcDbEntity
  8
001
370
    50
100
AcDbVertex
100
AcDb2dVertex
 10
423.622312
 20
290.163947
 30
0.0
  0
VERTEX
  5
88A
330
881
100
AcDbEntity
  8
001
370
    50
100
AcDbVertex
100
AcDb2dVertex
 10
423.667129
 20
288.732314
 30
0.0
  0
VERTEX
  5
88B
330
881
100
AcDbEntity
  8
001
370
    50
100
AcDbVertex
100
AcDb2dVertex
 10
423.693811
 20
287.300271
 30
0.0
  0
VERTEX
  5
88C
330
881
100
AcDbEntity
  8
001
370
    50
100
AcDbVertex
100
AcDb2dVertex
 10
423.697709
 20
286.638747
 30
0.0
  0
VERTEX
  5
88D
330
881
100
AcDbEntity
  8
001
370
    50
100
AcDbVertex
100
AcDb2dVertex
 10
423.696186
 20
285.977197
 30
0.0
  0
SEQEND
  5
882
330
881
100
AcDbEntity
  8
001
370
    50
  0
LINE
  5
88E
330
1F
100
AcDbEntity
  8
001
370
    50
100
AcDbLine
 10
398.544909
 20
371.1564
 30
0.0
 11
415.336704
 21
371.1564
 31
0.0
  0
POLYLINE
  5
88F
330
1F
100
AcDbEntity
  8
001
370
    50
100
AcDb2dPolyline
 66
     1
 10
0.0
 20
0.0
 30
0.0
  0
VERTEX
  5
891
330
88F
100
AcDbEntity
  8
001
370
    50
100
AcDbVertex
100
AcDb2dVertex
 10
414.497256
 20
370.9564
 30
0.0
  0
VERTEX
  5
892
330
88F
100
AcDbEntity
  8
001
370
    50
100
AcDbVertex
100
AcDb2dVertex
 10
414.330566
 20
370.352518
 30
0.0
  0
VERTEX
  5
893
330
88F
100
AcDbEntity
  8
001
370
    50
100
AcDbVertex
100
AcDb2dVertex
 10
414.088228
 20
369.469569
 30
0.0
  0
VERTEX
  5
894
330
88F
100
AcDbEntity
  8
001
370
    50
100
AcDbVertex
100
AcDb2dVertex
 10
413.847673
 20
368.586111
 30
0.0
  0
VERTEX
  5
895
330
88F
100
AcDbEntity
  8
001
370
    50
100
AcDbVertex
100
AcDb2dVertex
 10
413.683962
 20
367.9814
 30
0.0
  0
SEQEND
  5
890
330
88F
100
AcDbEntity
  8
001
370
    50
  0
LINE
  5
896
330
1F
100
AcDbEntity
  8
001
370
    50
100
AcDbLine
 10
415.336704
 20
371.1564
 30
0.0
 11
415.283114
 21
370.9564
 31
0.0
  0
LINE
  5
897
330
1F
100
AcDbEntity
  8
001
370
    50
100
AcDbLine
 10
399.244909
 20
367.9814
 30
0.0
 11
413.683962
 21
367.9814
 31
0.0
  0
LINE
  5
898
330
1F
100
AcDbEntity
  8
001
370
    50
100
AcDbLine
 10
398.544909
 20
371.1564
 30
0.0
 11
399.244909
 21
367.9814
 31
0.0
  0
LINE
  5
899
330
1F
100
AcDbEntity
  8
001
370
    50
100
AcDbLine
 10
423.696186
 20
370.9564
 30
0.0
 11
414.497256
 21
370.9564
 31
0.0
  0
LINE
  5
89A
330
1F
100
AcDbEntity
  8
001
370
    50
100
AcDbLine
 10
398.544909
 20
361.1564
 30
0.0
 11
399.244909
 21
364.3314
 31
0.0
  0
LINE
  5
89B
330
1F
100
AcDbEntity
  8
001
370
    50
100
AcDbLine
 10
398.544909
 20
361.1564
 30
0.0
 11
399.244909
 21
361.1564
 31
0.0
  0
LINE
  5
89C
330
1F
100
AcDbEntity
  8
001
370
    50
100
AcDbLine
 10
399.244909
 20
378.1564
 30
0.0
 11
399.244909
 21
371.1564
 31
0.0
  0
LINE
  5
89D
330
1F
100
AcDbEntity
  8
001
370
    50
100
AcDbLine
 10
399.244909
 20
367.9814
 30
0.0
 11
399.244909
 21
354.1564
 31
0.0
  0
POLYLINE
  5
89E
330
1F
100
AcDbEntity
  8
001
370
    50
100
AcDb2dPolyline
 66
     1
 10
0.0
 20
0.0
 30
0.0
  0
VERTEX
  5
8A0
330
89E
100
AcDbEntity
  8
001
370
    50
100
AcDbVertex
100
AcDb2dVertex
 10
400.717867
 20
371.1564
 30
0.0
  0
VERTEX
  5
8A1
330
89E
100
AcDbEntity
  8
001
370
    50
100
AcDbVertex
100
AcDb2dVertex
 10
400.702036
 20
371.542345
 30
0.0
  0
VERTEX
  5
8A2
330
89E
100
AcDbEntity
  8
001
370
    50
100
AcDbVertex
100
AcDb2dVertex
 10
400.685409
 20
371.928255
 30
0.0
  0
VERTEX
  5
8A3
330
89E
100
AcDbEntity
  8
001
370
    50
100
AcDbVertex
100
AcDb2dVertex
 10
400.601777
 20
373.595487
 30
0.0
  0
VERTEX
  5
8A4
330
89E
100
AcDbEntity
  8
001
370
    50
100
AcDbVertex
100
AcDb2dVertex
 10
400.501966
 20
375.261864
 30
0.0
  0
VERTEX
  5
8A5
330
89E
100
AcDbEntity
  8
001
370
    50
100
AcDbVertex
100
AcDb2dVertex
 10
400.390096
 20
376.927501
 30
0.0
  0
VERTEX
  5
8A6
330
89E
100
AcDbEntity
  8
001
370
    50
100
AcDbVertex
100
AcDb2dVertex
 10
400.268597
 20
378.592449
 30
0.0
  0
VERTEX
  5
8A7
330
89E
100
AcDbEntity
  8
001
370
    50
100
AcDbVertex
100
AcDb2dVertex
 10
400.094565
 20
380.812623
 30
0.0
  0
VERTEX
  5
8A8
330
89E
100
AcDbEntity
  8
001
370
    50
100
AcDbVertex
100
AcDb2dVertex
 10
399.909186
 20
383.031897
 30
0.0
  0
VERTEX
  5
8A9
330
89E
100
AcDbEntity
  8
001
370
    50
100
AcDbVertex
100
AcDb2dVertex
 10
399.714688
 20
385.250396
 30
0.0
  0
VERTEX
  5
8AA
330
89E
100
AcDbEntity
  8
001
370
    50
100
AcDbVertex
100
AcDb2dVertex
 10
399.486122
 20
387.765286
 30
0.0
  0
VERTEX
  5
8AB
330
89E
100
AcDbEntity
  8
001
370
    50
100
AcDbVertex
100
AcDb2dVertex
 10
399.253126
 20
390.279759
 30
0.0
  0
SEQEND
  5
89F
330
89E
100
AcDbEntity
  8
001
370
    50
  0
POLYLINE
  5
8AC
330
1F
100
AcDbEntity
  8
001
370
    50
100
AcDb2dPolyline
 66
     1
 10
0.0
 20
0.0
 30
0.0
  0
VERTEX
  5
8AE
330
8AC
100
AcDbEntity
  8
001
370
    50
100
AcDbVertex
100
AcDb2dVertex
 10
423.544909
 20
378.109721
 30
0.0
  0
VERTEX
  5
8AF
330
8AC
100
AcDbEntity
  8
001
370
    50
100
AcDbVertex
100
AcDb2dVertex
 10
423.544952
 20
378.067606
 30
0.0
  0
VERTEX
  5
8B0
330
8AC
100
AcDbEntity
  8
001
370
    50
100
AcDbVertex
100
AcDb2dVertex
 10
423.545021
 20
378.025491
 30
0.0
  0
VERTEX
  5
8B1
330
8AC
100
AcDbEntity
  8
001
370
    50
100
AcDbVertex
100
AcDb2dVertex
 10
423.553332
 20
377.301803
 30
0.0
  0
VERTEX
  5
8B2
330
8AC
100
AcDbEntity
  8
001
370
    50
100
AcDbVertex
100
AcDb2dVertex
 10
423.572033
 20
376.578272
 30
0.0
  0
VERTEX
  5
8B3
330
8AC
100
AcDbEntity
  8
001
370
    50
100
AcDbVertex
100
AcDb2dVertex
 10
423.596338
 20
375.860678
 30
0.0
  0
VERTEX
  5
8B4
330
8AC
100
AcDbEntity
  8
001
370
    50
100
AcDbVertex
100
AcDb2dVertex
 10
423.622312
 20
375.14315
 30
0.0
  0
VERTEX
  5
8B5
330
8AC
100
AcDbEntity
  8
001
370
    50
100
AcDbVertex
100
AcDb2dVertex
 10
423.667129
 20
373.711517
 30
0.0
  0
VERTEX
  5
8B6
330
8AC
100
AcDbEntity
  8
001
370
    50
100
AcDbVertex
100
AcDb2dVertex
 10
423.693811
 20
372.279475
 30
0.0
  0
VERTEX
  5
8B7
330
8AC
100
AcDbEntity
  8
001
370
    50
100
AcDbVertex
100
AcDb2dVertex
 10
423.697709
 20
371.61795
 30
0.0
  0
VERTEX
  5
8B8
330
8AC
100
AcDbEntity
  8
001
370
    50
100
AcDbVertex
100
AcDb2dVertex
 10
423.696186
 20
370.9564
 30
0.0
  0
SEQEND
  5
8AD
330
8AC
100
AcDbEntity
  8
001
370
    50
  0
ENDSEC
  0
SECTION
  2
OBJECTS
  0
DICTIONARY
  5
C
330
0
100
AcDbDictionary
281
     1
  3
ACAD_GROUP
350
D
  3
ACAD_LAYOUT
350
1A
  3
ACAD_MLEADERSTYLE
350
8BC
  3
ACAD_MLINESTYLE
350
17
  3
ACAD_PLOTSETTINGS
350
19
  3
ACAD_PLOTSTYLENAME
350
E
  3
ACAD_SCALELIST
350
3B
  3
ACAD_TABLESTYLE
350
8BB
  3
ACAD_VISUALSTYLE
350
2A
  3
AcDbVariableDictionary
350
8B9
  0
DICTIONARY
  5
D
102
{ACAD_REACTORS
330
C
102
}
330
C
100
AcDbDictionary
281
     1
  0
DICTIONARY
  5
1A
102
{ACAD_REACTORS
330
C
102
}
330
C
100
AcDbDictionary
281
     1
  3
Layout1
350
1E
  3
Layout2
350
26
  3
Model
350
22
  0
DICTIONARY
  5
8BC
102
{ACAD_REACTORS
330
C
102
}
330
C
100
AcDbDictionary
281
     1
  0
DICTIONARY
  5
17
102
{ACAD_REACTORS
330
C
102
}
330
C
100
AcDbDictionary
281
     1
  3
Standard
350
18
  0
DICTIONARY
  5
19
102
{ACAD_REACTORS
330
C
102
}
330
C
100
AcDbDictionary
281
     1
  0
ACDBDICTIONARYWDFLT
  5
E
102
{ACAD_REACTORS
330
C
102
}
330
C
100
AcDbDictionary
281
     1
  3
Normal
350
F
100
AcDbDictionaryWithDefault
340
F
  0
DICTIONARY
  5
3B
102
{ACAD_REACTORS
330
C
102
}
330
C
100
AcDbDictionary
281
     1
  3
A0
350
3C
  3
A1
350
3D
  3
A2
350
3E
  3
A3
350
3F
  3
A4
350
40
  3
A5
350
41
  3
A6
350
42
  3
A7
350
43
  3
A8
350
44
  3
A9
350
45
  3
B0
350
46
  3
B1
350
47
  3
B2
350
48
  3
B3
350
49
  3
B4
350
4A
  3
B5
350
4B
  3
B6
350
4C
  3
B7
350
4D
  3
B8
350
4E
  3
B9
350
4F
  3
C0
350
50
  3
C1
350
51
  3
C2
350
52
  3
C3
350
53
  3
C4
350
54
  3
C5
350
55
  3
C6
350
56
  3
C7
350
57
  3
C8
350
58
  3
C9
350
59
  3
D0
350
5A
  3
D1
350
5B
  3
D2
350
5C
  0
DICTIONARY
  5
8BB
102
{ACAD_REACTORS
330
C
102
}
330
C
100
AcDbDictionary
281
     1
  0
DICTIONARY
  5
2A
102
{ACAD_REACTORS
330
C
102
}
330
C
100
AcDbDictionary
281
     1
  3
2dWireframe
350
2F
  3
3D Hidden
350
31
  3
3dWireframe
350
30
  3
Basic
350
32
  3
Brighten
350
36
  3
ColorChange
350
3A
  3
Conceptual
350
34
  3
Dim
350
35
  3
Facepattern
350
39
  3
Flat
350
2B
  3
FlatWithEdges
350
2C
  3
Gouraud
350
2D
  3
GouraudWithEdges
350
2E
  3
Linepattern
350
38
  3
Realistic
350
33
  3
Thicken
350
37
  0
DICTIONARY
  5
8B9
102
{ACAD_REACTORS
330
C
102
}
330
C
100
AcDbDictionary
281
     1
  3
CANNOSCALE
350
8BA
  3
PSOLHEIGHT
350
8BE
  3
PSOLWIDTH
350
8BD
  0
LAYOUT
  5
1E
102
{ACAD_REACTORS
330
1A
102
}
330
1A
100
AcDbPlotSettings
  1

  2
none_device
  4

  6

 40
0.0
 41
0.0
 42
0.0
 43
0.0
 44
0.0
 45
0.0
 46
0.0
 47
0.0
 48
0.0
 49
0.0
140
0.0
141
0.0
142
1.0
143
1.0
 70
   688
 72
     0
 73
     0
 74
     5
  7

 75
    16
147
1.0
148
0.0
149
0.0
100
AcDbLayout
  1
Layout1
 70
     1
 71
     1
 10
0.0
 20
0.0
 11
12.0
 21
9.0
 12
0.0
 22
0.0
 32
0.0
 14
1.000000E+20
 24
1.000000E+20
 34
0.0
 15
-1.000000E+20
 25
-1.000000E+20
 35
0.0
146
0.0
 13
0.0
 23
0.0
 33
0.0
 16
1.0
 26
0.0
 36
0.0
 17
0.0
 27
1.0
 37
0.0
 76
     0
330
1B
  0
LAYOUT
  5
26
102
{ACAD_REACTORS
330
1A
102
}
330
1A
100
AcDbPlotSettings
  1

  2
none_device
  4

  6

 40
0.0
 41
0.0
 42
0.0
 43
0.0
 44
0.0
 45
0.0
 46
0.0
 47
0.0
 48
0.0
 49
0.0
140
0.0
141
0.0
142
1.0
143
1.0
 70
   688
 72
     0
 73
     0
 74
     5
  7

 75
    16
147
1.0
148
0.0
149
0.0
100
AcDbLayout
  1
Layout2
 70
     1
 71
     2
 10
0.0
 20
0.0
 11
0.0
 21
0.0
 12
0.0
 22
0.0
 32
0.0
 14
0.0
 24
0.0
 34
0.0
 15
0.0
 25
0.0
 35
0.0
146
0.0
 13
0.0
 23
0.0
 33
0.0
 16
1.0
 26
0.0
 36
0.0
 17
0.0
 27
1.0
 37
0.0
 76
     0
330
23
  0
LAYOUT
  5
22
102
{ACAD_REACTORS
330
1A
102
}
330
1A
100
AcDbPlotSettings
  1

  2
none_device
  4

  6

 40
0.0
 41
0.0
 42
0.0
 43
0.0
 44
0.0
 45
0.0
 46
0.0
 47
0.0
 48
0.0
 49
0.0
140
0.0
141
0.0
142
1.0
143
1.0
 70
  1712
 72
     0
 73
     0
 74
     0
  7

 75
     0
147
1.0
148
0.0
149
0.0
100
AcDbLayout
  1
Model
 70
     1
 71
     0
 10
0.0
 20
0.0
 11
12.0
 21
9.0
 12
0.0
 22
0.0
 32
0.0
 14
47.738983
 24
59.202911
 34
0.0
 15
454.376312
 25
396.20639
 35
0.0
146
0.0
 13
0.0
 23
0.0
 33
0.0
 16
1.0
 26
0.0
 36
0.0
 17
0.0
 27
1.0
 37
0.0
 76
     0
330
1F
331
29
  0
MLINESTYLE
  5
18
102
{ACAD_REACTORS
330
17
102
}
330
17
100
AcDbMlineStyle
  2
Standard
 70
     0
  3

 62
   256
 51
90.0
 52
90.0
 71
     2
 49
0.5
 62
   256
  6
BYLAYER
 49
-0.5
 62
   256
  6
BYLAYER
  0
ACDBPLACEHOLDER
  5
F
102
{ACAD_REACTORS
330
E
102
}
330
E
  0
SCALE
  5
3C
102
{ACAD_REACTORS
330
3B
102
}
330
3B
100
AcDbScale
 70
     0
300
1:1
140
1.0
141
1.0
290
     1
  0
SCALE
  5
3D
102
{ACAD_REACTORS
330
3B
102
}
330
3B
100
AcDbScale
 70
     0
300
1:2
140
1.0
141
2.0
290
     0
  0
SCALE
  5
3E
102
{ACAD_REACTORS
330
3B
102
}
330
3B
100
AcDbScale
 70
     0
300
1:4
140
1.0
141
4.0
290
     0
  0
SCALE
  5
3F
102
{ACAD_REACTORS
330
3B
102
}
330
3B
100
AcDbScale
 70
     0
300
1:5
140
1.0
141
5.0
290
     0
  0
SCALE
  5
40
102
{ACAD_REACTORS
330
3B
102
}
330
3B
100
AcDbScale
 70
     0
300
1:8
140
1.0
141
8.0
290
     0
  0
SCALE
  5
41
102
{ACAD_REACTORS
330
3B
102
}
330
3B
100
AcDbScale
 70
     0
300
1:10
140
1.0
141
10.0
290
     0
  0
SCALE
  5
42
102
{ACAD_REACTORS
330
3B
102
}
330
3B
100
AcDbScale
 70
     0
300
1:16
140
1.0
141
16.0
290
     0
  0
SCALE
  5
43
102
{ACAD_REACTORS
330
3B
102
}
330
3B
100
AcDbScale
 70
     0
300
1:20
140
1.0
141
20.0
290
     0
  0
SCALE
  5
44
102
{ACAD_REACTORS
330
3B
102
}
330
3B
100
AcDbScale
 70
     0
300
1:30
140
1.0
141
30.0
290
     0
  0
SCALE
  5
45
102
{ACAD_REACTORS
330
3B
102
}
330
3B
100
AcDbScale
 70
     0
300
1:40
140
1.0
141
40.0
290
     0
  0
SCALE
  5
46
102
{ACAD_REACTORS
330
3B
102
}
330
3B
100
AcDbScale
 70
     0
300
1:50
140
1.0
141
50.0
290
     0
  0
SCALE
  5
47
102
{ACAD_REACTORS
330
3B
102
}
330
3B
100
AcDbScale
 70
     0
300
1:100
140
1.0
141
100.0
290
     0
  0
SCALE
  5
48
102
{ACAD_REACTORS
330
3B
102
}
330
3B
100
AcDbScale
 70
     0
300
2:1
140
2.0
141
1.0
290
     0
  0
SCALE
  5
49
102
{ACAD_REACTORS
330
3B
102
}
330
3B
100
AcDbScale
 70
     0
300
4:1
140
4.0
141
1.0
290
     0
  0
SCALE
  5
4A
102
{ACAD_REACTORS
330
3B
102
}
330
3B
100
AcDbScale
 70
     0
300
8:1
140
8.0
141
1.0
290
     0
  0
SCALE
  5
4B
102
{ACAD_REACTORS
330
3B
102
}
330
3B
100
AcDbScale
 70
     0
300
10:1
140
10.0
141
1.0
290
     0
  0
SCALE
  5
4C
102
{ACAD_REACTORS
330
3B
102
}
330
3B
100
AcDbScale
 70
     0
300
100:1
140
100.0
141
1.0
290
     0
  0
SCALE
  5
4D
102
{ACAD_REACTORS
330
3B
102
}
330
3B
100
AcDbScale
 70
     0
300
1/128" = 1'-0"
140
0.007812
141
12.0
290
     0
  0
SCALE
  5
4E
102
{ACAD_REACTORS
330
3B
102
}
330
3B
100
AcDbScale
 70
     0
300
1/64" = 1'-0"
140
0.015625
141
12.0
290
     0
  0
SCALE
  5
4F
102
{ACAD_REACTORS
330
3B
102
}
330
3B
100
AcDbScale
 70
     0
300
1/32" = 1'-0"
140
0.03125
141
12.0
290
     0
  0
SCALE
  5
50
102
{ACAD_REACTORS
330
3B
102
}
330
3B
100
AcDbScale
 70
     0
300
1/16" = 1'-0"
140
0.0625
141
12.0
290
     0
  0
SCALE
  5
51
102
{ACAD_REACTORS
330
3B
102
}
330
3B
100
AcDbScale
 70
     0
300
3/32" = 1'-0"
140
0.09375
141
12.0
290
     0
  0
SCALE
  5
52
102
{ACAD_REACTORS
330
3B
102
}
330
3B
100
AcDbScale
 70
     0
300
1/8" = 1'-0"
140
0.125
141
12.0
290
     0
  0
SCALE
  5
53
102
{ACAD_REACTORS
330
3B
102
}
330
3B
100
AcDbScale
 70
     0
300
3/16" = 1'-0"
140
0.1875
141
12.0
290
     0
  0
SCALE
  5
54
102
{ACAD_REACTORS
330
3B
102
}
330
3B
100
AcDbScale
 70
     0
300
1/4" = 1'-0"
140
0.25
141
12.0
290
     0
  0
SCALE
  5
55
102
{ACAD_REACTORS
330
3B
102
}
330
3B
100
AcDbScale
 70
     0
300
3/8" = 1'-0"
140
0.375
141
12.0
290
     0
  0
SCALE
  5
56
102
{ACAD_REACTORS
330
3B
102
}
330
3B
100
AcDbScale
 70
     0
300
1/2" = 1'-0"
140
0.5
141
12.0
290
     0
  0
SCALE
  5
57
102
{ACAD_REACTORS
330
3B
102
}
330
3B
100
AcDbScale
 70
     0
300
3/4" = 1'-0"
140
0.75
141
12.0
290
     0
  0
SCALE
  5
58
102
{ACAD_REACTORS
330
3B
102
}
330
3B
100
AcDbScale
 70
     0
300
1" = 1'-0"
140
1.0
141
12.0
290
     0
  0
SCALE
  5
59
102
{ACAD_REACTORS
330
3B
102
}
330
3B
100
AcDbScale
 70
     0
300
1-1/2" = 1'-0"
140
1.5
141
12.0
290
     0
  0
SCALE
  5
5A
102
{ACAD_REACTORS
330
3B
102
}
330
3B
100
AcDbScale
 70
     0
300
3" = 1'-0"
140
3.0
141
12.0
290
     0
  0
SCALE
  5
5B
102
{ACAD_REACTORS
330
3B
102
}
330
3B
100
AcDbScale
 70
     0
300
6" = 1'-0"
140
6.0
141
12.0
290
     0
  0
SCALE
  5
5C
102
{ACAD_REACTORS
330
3B
102
}
330
3B
100
AcDbScale
 70
     0
300
1'-0" = 1'-0"
140
12.0
141
12.0
290
     0
  0
VISUALSTYLE
  5
2F
102
{ACAD_REACTORS
330
2A
102
}
330
2A
100
AcDbVisualStyle
  2
2dWireframe
 70
     4
 71
     0
 72
     2
 73
     0
 90
        0
 40
-0.6
 41
-30.0
 62
     5
 63
     7
 74
     1
 91
        4
 64
     7
 65
   257
 75
     1
175
     1
 42
1.0
 92
        0
 66
   257
 43
1.0
 76
     1
 77
     6
 78
     2
 67
     7
 79
     5
170
     0
171
     0
290
     0
174
     0
 93
        1
 44
0.0
173
     0
291
     0
 45
0.0
1001
ACAD
1000
AcDbSavedByObjectVersion
1070
     0
  0
VISUALSTYLE
  5
31
102
{ACAD_REACTORS
330
2A
102
}
330
2A
100
AcDbVisualStyle
  2
3D Hidden
 70
     6
 71
     1
 72
     2
 73
     2
 90
        0
 40
-0.6
 41
-30.0
 62
     5
 63
     7
 74
     2
 91
        2
 64
     7
 65
   257
 75
     2
175
     1
 42
40.0
 92
        0
 66
   257
 43
1.0
 76
     1
 77
     6
 78
     2
 67
     7
 79
     3
170
     0
171
     0
290
     0
174
     0
 93
        1
 44
0.0
173
     0
291
     0
 45
0.0
1001
ACAD
1000
AcDbSavedByObjectVersion
1070
     0
  0
VISUALSTYLE
  5
30
102
{ACAD_REACTORS
330
2A
102
}
330
2A
100
AcDbVisualStyle
  2
3dWireframe
 70
     5
 71
     0
 72
     2
 73
     0
 90
        0
 40
-0.6
 41
-30.0
 62
     5
 63
     7
 74
     1
 91
        4
 64
     7
 65
   257
 75
     1
175
     1
 42
1.0
 92
        0
 66
   257
 43
1.0
 76
     1
 77
     6
 78
     2
 67
     7
 79
     5
170
     0
171
     0
290
     0
174
     0
 93
        1
 44
0.0
173
     0
291
     0
 45
0.0
1001
ACAD
1000
AcDbSavedByObjectVersion
1070
     0
  0
VISUALSTYLE
  5
32
102
{ACAD_REACTORS
330
2A
102
}
330
2A
100
AcDbVisualStyle
  2
Basic
 70
     7
 71
     1
 72
     0
 73
     1
 90
        0
 40
-0.6
 41
-30.0
 62
     5
 63
     7
 74
     0
 91
        4
 64
     7
 65
   257
 75
     1
175
     1
 42
1.0
 92
        8
 66
     7
 43
1.0
 76
     1
 77
     6
 78
     2
 67
     7
 79
     5
170
     0
171
     0
290
     0
174
     0
 93
        1
 44
0.0
173
     0
291
     1
 45
0.0
1001
ACAD
1000
AcDbSavedByObjectVersion
1070
     0
  0
VISUALSTYLE
  5
36
102
{ACAD_REACTORS
330
2A
102
}
330
2A
100
AcDbVisualStyle
  2
Brighten
 70
    12
 71
     2
 72
     2
 73
     0
 90
        0
 40
-0.6
 41
-30.0
 62
     5
 63
     7
 74
     1
 91
        4
 64
     7
 65
   257
 75
     1
175
     1
 42
1.0
 92
        8
 66
     7
 43
1.0
 76
     1
 77
     6
 78
     2
 67
     7
 79
     5
170
     0
171
     0
290
     0
174
     0
 93
        1
 44
50.0
173
     0
291
     1
 45
0.0
1001
ACAD
1000
AcDbSavedByObjectVersion
1070
     0
  0
VISUALSTYLE
  5
3A
102
{ACAD_REACTORS
330
2A
102
}
330
2A
100
AcDbVisualStyle
  2
ColorChange
 70
    16
 71
     2
 72
     2
 73
     3
 90
        0
 40
-0.6
 41
-30.0
 62
     5
 63
     8
 74
     1
 91
        4
 64
     7
 65
   257
 75
     1
175
     1
 42
1.0
 92
        8
 66
     8
 43
1.0
 76
     1
 77
     6
 78
     2
 67
     7
 79
     5
170
     0
171
     0
290
     0
174
     0
 93
        1
 44
0.0
173
     0
291
     1
 45
0.0
1001
ACAD
1000
AcDbSavedByObjectVersion
1070
     0
  0
VISUALSTYLE
  5
34
102
{ACAD_REACTORS
330
2A
102
}
330
2A
100
AcDbVisualStyle
  2
Conceptual
 70
     9
 71
     3
 72
     2
 73
     0
 90
        0
 40
-0.6
 41
-30.0
 62
     5
 63
     7
 74
     2
 91
        2
 64
     7
 65
   257
 75
     1
175
     1
 42
40.0
 92
        8
 66
     7
 43
1.0
 76
     1
 77
     6
 78
     2
 67
     7
 79
     3
170
     0
171
     0
290
     0
174
     0
 93
        1
 44
0.0
173
     0
291
     0
 45
0.0
1001
ACAD
1000
AcDbSavedByObjectVersion
1070
     0
  0
VISUALSTYLE
  5
35
102
{ACAD_REACTORS
330
2A
102
}
330
2A
100
AcDbVisualStyle
  2
Dim
 70
    11
 71
     2
 72
     2
 73
     0
 90
        0
 40
-0.6
 41
-30.0
 62
     5
 63
     7
 74
     1
 91
        4
 64
     7
 65
   257
 75
     1
175
     1
 42
1.0
 92
        8
 66
     7
 43
1.0
 76
     1
 77
     6
 78
     2
 67
     7
 79
     5
170
     0
171
     0
290
     0
174
     0
 93
        1
 44
-50.0
173
     0
291
     1
 45
0.0
1001
ACAD
1000
AcDbSavedByObjectVersion
1070
     0
  0
VISUALSTYLE
  5
39
102
{ACAD_REACTORS
330
2A
102
}
330
2A
100
AcDbVisualStyle
  2
Facepattern
 70
    15
 71
     2
 72
     2
 73
     0
 90
        0
 40
-0.6
 41
-30.0
 62
     5
 63
     7
 74
     1
 91
        4
 64
     7
 65
   257
 75
     1
175
     1
 42
1.0
 92
        8
 66
     7
 43
1.0
 76
     1
 77
     6
 78
     2
 67
     7
 79
     5
170
     0
171
     0
290
     0
174
     0
 93
        1
 44
0.0
173
     0
291
     1
 45
0.0
1001
ACAD
1000
AcDbSavedByObjectVersion
1070
     0
  0
VISUALSTYLE
  5
2B
102
{ACAD_REACTORS
330
2A
102
}
330
2A
100
AcDbVisualStyle
  2
Flat
 70
     0
 71
     2
 72
     1
 73
     1
 90
        2
 40
-0.6
 41
30.0
 62
     5
 63
     7
 74
     0
 91
        4
 64
     7
 65
   257
 75
     1
175
     1
 42
1.0
 92
        8
 66
     7
 43
1.0
 76
     1
 77
     6
 78
     2
 67
     7
 79
     5
170
     0
171
     0
290
     0
174
     0
 93
       13
 44
0.0
173
     0
291
     1
 45
0.0
1001
ACAD
1000
AcDbSavedByObjectVersion
1070
     0
  0
VISUALSTYLE
  5
2C
102
{ACAD_REACTORS
330
2A
102
}
330
2A
100
AcDbVisualStyle
  2
FlatWithEdges
 70
     1
 71
     2
 72
     1
 73
     1
 90
        2
 40
-0.6
 41
30.0
 62
     5
 63
     7
 74
     1
 91
        4
 64
     7
 65
   257
 75
     1
175
     1
 42
1.0
 92
        0
 66
   257
 43
1.0
 76
     1
 77
     6
 78
     2
 67
     7
 79
     5
170
     0
171
     0
290
     0
174
     0
 93
       13
 44
0.0
173
     0
291
     1
 45
0.0
1001
ACAD
1000
AcDbSavedByObjectVersion
1070
     0
  0
VISUALSTYLE
  5
2D
102
{ACAD_REACTORS
330
2A
102
}
330
2A
100
AcDbVisualStyle
  2
Gouraud
 70
     2
 71
     2
 72
     2
 73
     1
 90
        2
 40
-0.6
 41
30.0
 62
     5
 63
     7
 74
     0
 91
        4
 64
     7
 65
   257
 75
     1
175
     1
 42
1.0
 92
        0
 66
     7
 43
1.0
 76
     1
 77
     6
 78
     2
 67
     7
 79
     5
170
     0
171
     0
290
     0
174
     0
 93
       13
 44
0.0
173
     0
291
     1
 45
0.0
1001
ACAD
1000
AcDbSavedByObjectVersion
1070
     0
  0
VISUALSTYLE
  5
2E
102
{ACAD_REACTORS
330
2A
102
}
330
2A
100
AcDbVisualStyle
  2
GouraudWithEdges
 70
     3
 71
     2
 72
     2
 73
     1
 90
        2
 40
-0.6
 41
30.0
 62
     5
 63
     7
 74
     1
 91
        4
 64
     7
 65
   257
 75
     1
175
     1
 42
1.0
 92
        0
 66
   257
 43
1.0
 76
     1
 77
     6
 78
     2
 67
     7
 79
     5
170
     0
171
     0
290
     0
174
     0
 93
       13
 44
0.0
173
     0
291
     1
 45
0.0
1001
ACAD
1000
AcDbSavedByObjectVersion
1070
     0
  0
VISUALSTYLE
  5
38
102
{ACAD_REACTORS
330
2A
102
}
330
2A
100
AcDbVisualStyle
  2
Linepattern
 70
    14
 71
     2
 72
     2
 73
     0
 90
        0
 40
-0.6
 41
-30.0
 62
     5
 63
     7
 74
     1
 91
        4
 64
     7
 65
   257
 75
     7
175
     7
 42
1.0
 92
        8
 66
     7
 43
1.0
 76
     1
 77
     6
 78
     2
 67
     7
 79
     5
170
     0
171
     0
290
     0
174
     0
 93
        1
 44
0.0
173
     0
291
     1
 45
0.0
1001
ACAD
1000
AcDbSavedByObjectVersion
1070
     0
  0
VISUALSTYLE
  5
33
102
{ACAD_REACTORS
330
2A
102
}
330
2A
100
AcDbVisualStyle
  2
Realistic
 70
     8
 71
     2
 72
     2
 73
     0
 90
        0
 40
-0.6
 41
-30.0
 62
     5
 63
     7
 74
     1
 91
        0
 64
     7
 65
   257
 75
     1
175
     1
 42
1.0
 92
        8
 66
     8
 43
1.0
 76
     1
 77
     6
 78
     2
 67
     7
 79
     5
170
     0
171
     0
290
     0
174
     0
 93
       13
 44
0.0
173
     0
291
     0
 45
0.0
1001
ACAD
1000
AcDbSavedByObjectVersion
1070
     0
  0
VISUALSTYLE
  5
37
102
{ACAD_REACTORS
330
2A
102
}
330
2A
100
AcDbVisualStyle
  2
Thicken
 70
    13
 71
     2
 72
     2
 73
     0
 90
        0
 40
-0.6
 41
-30.0
 62
     5
 63
     7
 74
     1
 91
        4
 64
     7
 65
   257
 75
     1
175
     1
 42
1.0
 92
       12
 66
     7
 43
1.0
 76
     1
 77
     6
 78
     2
 67
     7
 79
     5
170
     0
171
     0
290
     0
174
     0
 93
        1
 44
0.0
173
     0
291
     1
 45
0.0
1001
ACAD
1000
AcDbSavedByObjectVersion
1070
     0
  0
DICTIONARYVAR
  5
8BA
102
{ACAD_REACTORS
330
8B9
102
}
330
8B9
100
DictionaryVariables
280
     0
  1
1:1
  0
DICTIONARYVAR
  5
8BE
102
{ACAD_REACTORS
330
8B9
102
}
330
8B9
100
DictionaryVariables
280
     0
  1
80.000000
  0
DICTIONARYVAR
  5
8BD
102
{ACAD_REACTORS
330
8B9
102
}
330
8B9
100
DictionaryVariables
280
     0
  1
5.000000
  0
ENDSEC
  0
EOF
