  0
SECTION
  2
HEADER
  9
$ACADVER
  1
AC1015
  9
$ACADMAINTVER
 70
     6
  9
$DWGCODEPAGE
  3
ANSI_932
  9
$INSBASE
 10
0.0
 20
0.0
 30
0.0
  9
$EXTMIN
 10
4.067856
 20
3.628357
 30
0.0
  9
$EXTMAX
 10
204.067856
 20
143.883972
 30
0.0
  9
$LIMMIN
 10
0.0
 20
0.0
  9
$LIMMAX
 10
12.0
 20
9.0
  9
$ORTHOMODE
 70
     0
  9
$REGENMODE
 70
     1
  9
$FILLMODE
 70
     1
  9
$QTEXTMODE
 70
     0
  9
$MIRRTEXT
 70
     1
  9
$LTSCALE
 40
2.442778
  9
$ATTMODE
 70
     1
  9
$TEXTSIZE
 40
3.2
  9
$TRACEWID
 40
1.0
  9
$TEXTSTYLE
  7
Standard
  9
$CLAYER
  8
0
  9
$CELTYPE
  6
ByLayer
  9
$CECOLOR
 62
   256
  9
$CELTSCALE
 40
1.0
  9
$DISPSILH
 70
     0
  9
$DIMSCALE
 40
1.0
  9
$DIMASZ
 40
2.5
  9
$DIMEXO
 40
0.625
  9
$DIMDLI
 40
3.75
  9
$DIMRND
 40
0.0
  9
$DIMDLE
 40
0.0
  9
$DIMEXE
 40
1.25
  9
$DIMTP
 40
0.0
  9
$DIMTM
 40
0.0
  9
$DIMTXT
 40
2.5
  9
$DIMCEN
 40
0.09
  9
$DIMTSZ
 40
0.0
  9
$DIMTOL
 70
     0
  9
$DIMLIM
 70
     0
  9
$DIMTIH
 70
     0
  9
$DIMTOH
 70
     0
  9
$DIMSE1
 70
     0
  9
$DIMSE2
 70
     0
  9
$DIMTAD
 70
     0
  9
$DIMZIN
 70
     8
  9
$DIMBLK
  1

  9
$DIMASO
 70
     1
  9
$DIMSHO
 70
     0
  9
$DIMPOST
  1

  9
$DIMAPOST
  1

  9
$DIMALT
 70
     0
  9
$DIMALTD
 70
     3
  9
$DIMALTF
 40
0.03937
  9
$DIMLFAC
 40
1.0
  9
$DIMTOFL
 70
     1
  9
$DIMTVP
 40
0.0
  9
$DIMTIX
 70
     0
  9
$DIMSOXD
 70
     0
  9
$DIMSAH
 70
     0
  9
$DIMBLK1
  1

  9
$DIMBLK2
  1

  9
$DIMSTYLE
  2
ISO-25
  9
$DIMCLRD
 70
     0
  9
$DIMCLRE
 70
     0
  9
$DIMCLRT
 70
     0
  9
$DIMTFAC
 40
1.0
  9
$DIMGAP
 40
0.625
  9
$DIMJUST
 70
     0
  9
$DIMSD1
 70
     0
  9
$DIMSD2
 70
     0
  9
$DIMTOLJ
 70
     0
  9
$DIMTZIN
 70
     8
  9
$DIMALTZ
 70
     0
  9
$DIMALTTZ
 70
     0
  9
$DIMUPT
 70
     0
  9
$DIMDEC
 70
     2
  9
$DIMTDEC
 70
     2
  9
$DIMALTU
 70
     2
  9
$DIMALTTD
 70
     3
  9
$DIMTXSTY
  7
Standard
  9
$DIMAUNIT
 70
     0
  9
$DIMADEC
 70
     0
  9
$DIMALTRND
 40
0.0
  9
$DIMAZIN
 70
     0
  9
$DIMDSEP
 70
    44
  9
$DIMATFIT
 70
     3
  9
$DIMFRAC
 70
     0
  9
$DIMLDRBLK
  1

  9
$DIMLUNIT
 70
     2
  9
$DIMLWD
 70
    -2
  9
$DIMLWE
 70
    -2
  9
$DIMTMOVE
 70
     0
  9
$LUNITS
 70
     2
  9
$LUPREC
 70
     4
  9
$SKETCHINC
 40
1.0
  9
$FILLETRAD
 40
0.0
  9
$AUNITS
 70
     0
  9
$AUPREC
 70
     0
  9
$MENU
  1
.
  9
$ELEVATION
 40
0.0
  9
$PELEVATION
 40
0.0
  9
$THICKNESS
 40
0.0
  9
$LIMCHECK
 70
     0
  9
$CHAMFERA
 40
10.0
  9
$CHAMFERB
 40
10.0
  9
$CHAMFERC
 40
20.0
  9
$CHAMFERD
 40
0.0
  9
$SKPOLY
 70
     0
  9
$TDCREATE
 40
2456275.605732419
  9
$TDUCREATE
 40
2456275.230732419
  9
$TDUPDATE
 40
2456275.605732431
  9
$TDUUPDATE
 40
2456275.230732431
  9
$TDINDWG
 40
0.0000000116
  9
$TDUSRTIMER
 40
0.0000000116
  9
$USRTIMER
 70
     1
  9
$ANGBASE
 50
0.0
  9
$ANGDIR
 70
     0
  9
$PDMODE
 70
     0
  9
$PDSIZE
 40
0.0
  9
$PLINEWID
 40
0.0
  9
$SPLFRAME
 70
     0
  9
$SPLINETYPE
 70
     6
  9
$SPLINESEGS
 70
     8
  9
$HANDSEED
  5
5B9
  9
$SURFTAB1
 70
     6
  9
$SURFTAB2
 70
     6
  9
$SURFTYPE
 70
     6
  9
$SURFU
 70
     6
  9
$SURFV
 70
     6
  9
$UCSBASE
  2

  9
$UCSNAME
  2

  9
$UCSORG
 10
0.0
 20
0.0
 30
0.0
  9
$UCSXDIR
 10
1.0
 20
0.0
 30
0.0
  9
$UCSYDIR
 10
0.0
 20
1.0
 30
0.0
  9
$UCSORTHOREF
  2

  9
$UCSORTHOVIEW
 70
     0
  9
$UCSORGTOP
 10
0.0
 20
0.0
 30
0.0
  9
$UCSORGBOTTOM
 10
0.0
 20
0.0
 30
0.0
  9
$UCSORGLEFT
 10
0.0
 20
0.0
 30
0.0
  9
$UCSORGRIGHT
 10
0.0
 20
0.0
 30
0.0
  9
$UCSORGFRONT
 10
0.0
 20
0.0
 30
0.0
  9
$UCSORGBACK
 10
0.0
 20
0.0
 30
0.0
  9
$PUCSBASE
  2

  9
$PUCSNAME
  2

  9
$PUCSORG
 10
0.0
 20
0.0
 30
0.0
  9
$PUCSXDIR
 10
1.0
 20
0.0
 30
0.0
  9
$PUCSYDIR
 10
0.0
 20
1.0
 30
0.0
  9
$PUCSORTHOREF
  2

  9
$PUCSORTHOVIEW
 70
     0
  9
$PUCSORGTOP
 10
0.0
 20
0.0
 30
0.0
  9
$PUCSORGBOTTOM
 10
0.0
 20
0.0
 30
0.0
  9
$PUCSORGLEFT
 10
0.0
 20
0.0
 30
0.0
  9
$PUCSORGRIGHT
 10
0.0
 20
0.0
 30
0.0
  9
$PUCSORGFRONT
 10
0.0
 20
0.0
 30
0.0
  9
$PUCSORGBACK
 10
0.0
 20
0.0
 30
0.0
  9
$USERI1
 70
     0
  9
$USERI2
 70
     0
  9
$USERI3
 70
     0
  9
$USERI4
 70
     0
  9
$USERI5
 70
     0
  9
$USERR1
 40
0.0
  9
$USERR2
 40
0.0
  9
$USERR3
 40
0.0
  9
$USERR4
 40
0.0
  9
$USERR5
 40
0.0
  9
$WORLDVIEW
 70
     1
  9
$SHADEDGE
 70
     3
  9
$SHADEDIF
 70
    70
  9
$TILEMODE
 70
     1
  9
$MAXACTVP
 70
    64
  9
$PINSBASE
 10
0.0
 20
0.0
 30
0.0
  9
$PLIMCHECK
 70
     0
  9
$PEXTMIN
 10
1.000000E+20
 20
1.000000E+20
 30
0.0
  9
$PEXTMAX
 10
-1.000000E+20
 20
-1.000000E+20
 30
0.0
  9
$PLIMMIN
 10
0.0
 20
0.0
  9
$PLIMMAX
 10
12.0
 20
9.0
  9
$UNITMODE
 70
     0
  9
$VISRETAIN
 70
     1
  9
$PLINEGEN
 70
     0
  9
$PSLTSCALE
 70
     1
  9
$TREEDEPTH
 70
  3020
  9
$CMLSTYLE
  2
Standard
  9
$CMLJUST
 70
     0
  9
$CMLSCALE
 40
20.0
  9
$PROXYGRAPHICS
 70
     1
  9
$MEASUREMENT
 70
     1
  9
$CELWEIGHT
370
    -1
  9
$ENDCAPS
280
     0
  9
$JOINSTYLE
280
     0
  9
$LWDISPLAY
290
     0
  9
$INSUNITS
 70
     4
  9
$HYPERLINKBASE
  1

  9
$STYLESHEET
  1

  9
$XEDIT
290
     1
  9
$CEPSNTYPE
380
     0
  9
$PSTYLEMODE
290
     1
  9
$FINGERPRINTGUID
  2
{79171548-7CAE-4446-82CC-D5755AE3D29B}
  9
$VERSIONGUID
  2
{FAEB1C32-E019-11D5-929B-00C0DF256EC4}
  9
$EXTNAMES
290
     1
  9
$PSVPSCALE
 40
0.0
  9
$OLESTARTUP
290
     0
  0
ENDSEC
  0
SECTION
  2
CLASSES
  0
CLASS
  1
ACDBDICTIONARYWDFLT
  2
AcDbDictionaryWithDefault
  3
ObjectDBX Classes
 90
        0
280
     0
281
     0
  0
CLASS
  1
VISUALSTYLE
  2
AcDbVisualStyle
  3
ObjectDBX Classes
 90
     4095
280
     0
281
     0
  0
CLASS
  1
SCALE
  2
AcDbScale
  3
ObjectDBX Classes
 90
     1153
280
     0
281
     0
  0
CLASS
  1
DICTIONARYVAR
  2
AcDbDictionaryVar
  3
ObjectDBX Classes
 90
        0
280
     0
281
     0
  0
CLASS
  1
ACDBPLACEHOLDER
  2
AcDbPlaceHolder
  3
ObjectDBX Classes
 90
        0
280
     0
281
     0
  0
CLASS
  1
LAYOUT
  2
AcDbLayout
  3
ObjectDBX Classes
 90
        0
280
     0
281
     0
  0
ENDSEC
  0
SECTION
  2
TABLES
  0
TABLE
  2
VPORT
  5
8
330
0
100
AcDbSymbolTable
 70
     1
  0
VPORT
  5
29
330
8
100
AcDbSymbolTableRecord
100
AcDbViewportTableRecord
  2
*Active
 70
     0
 10
0.0
 20
0.0
 11
1.0
 21
1.0
 12
104.067856
 22
73.756165
 13
0.0
 23
0.0
 14
1.0
 24
1.0
 15
0.0
 25
0.0
 16
0.0
 26
0.0
 36
1.0
 17
0.0
 27
0.0
 37
0.0
 40
141.658171
 41
1.691288
 42
50.0
 43
0.0
 44
0.0
 50
0.0
 51
0.0
 71
     0
 72
   100
 73
     1
 74
     3
 75
     0
 76
     0
 77
     0
 78
     0
281
     0
 65
     1
110
0.0
120
0.0
130
0.0
111
1.0
121
0.0
131
0.0
112
0.0
122
1.0
132
0.0
 79
     0
146
0.0
  0
ENDTAB
  0
TABLE
  2
LTYPE
  5
5
330
0
100
AcDbSymbolTable
 70
     5
  0
LTYPE
  5
14
330
5
100
AcDbSymbolTableRecord
100
AcDbLinetypeTableRecord
  2
ByBlock
 70
     0
  3

 72
    65
 73
     0
 40
0.0
  0
LTYPE
  5
15
330
5
100
AcDbSymbolTableRecord
100
AcDbLinetypeTableRecord
  2
ByLayer
 70
     0
  3

 72
    65
 73
     0
 40
0.0
  0
LTYPE
  5
16
330
5
100
AcDbSymbolTableRecord
100
AcDbLinetypeTableRecord
  2
Continuous
 70
     0
  3
Solid line
 72
    65
 73
     0
 40
0.0
  0
LTYPE
  5
5D
330
5
100
AcDbSymbolTableRecord
100
AcDbLinetypeTableRecord
  2
DASHED
 70
     0
  3
DASHED
 72
    83
 73
     2
 40
0.75
 49
0.5
 74
     0
 49
-0.25
 74
     0
  0
LTYPE
  5
5E
330
5
100
AcDbSymbolTableRecord
100
AcDbLinetypeTableRecord
  2
HIDDEN
 70
     0
  3
HIDDEN
 72
    83
 73
     2
 40
0.375
 49
0.25
 74
     0
 49
-0.125
 74
     0
  0
LTYPE
  5
5F
330
5
100
AcDbSymbolTableRecord
100
AcDbLinetypeTableRecord
  2
CENTER
 70
     0
  3
CENTER
 72
    83
 73
     4
 40
2.0
 49
1.25
 74
     0
 49
-0.25
 74
     0
 49
0.25
 74
     0
 49
-0.25
 74
     0
  0
LTYPE
  5
60
330
5
100
AcDbSymbolTableRecord
100
AcDbLinetypeTableRecord
  2
PHANTOM
 70
     0
  3
PHANTOM
 72
    83
 73
     6
 40
2.5
 49
1.25
 74
     0
 49
-0.25
 74
     0
 49
0.25
 74
     0
 49
-0.25
 74
     0
 49
0.25
 74
     0
 49
-0.25
 74
     0
  0
ENDTAB
  0
TABLE
  2
LAYER
  5
2
330
0
100
AcDbSymbolTable
 70
     2
  0
LAYER
  5
10
330
2
100
AcDbSymbolTableRecord
100
AcDbLayerTableRecord
  2
0
 70
     0
 62
     7
  6
Continuous
370
    -3
390
F
  0
LAYER
  5
61
330
2
100
AcDbSymbolTableRecord
100
AcDbLayerTableRecord
  2
001
 70
     0
 62
     7
  6
Continuous
370
    -3
390
F
  0
ENDTAB
  0
TABLE
  2
STYLE
  5
3
330
0
100
AcDbSymbolTable
 70
     2
  0
STYLE
  5
11
330
3
100
AcDbSymbolTableRecord
100
AcDbTextStyleTableRecord
  2
Standard
 70
     0
 40
0.0
 41
1.0
 50
0.0
 71
     0
 42
0.2
  3
TXT
  4
BIGFONT
  0
STYLE
  5
62
330
3
100
AcDbSymbolTableRecord
100
AcDbTextStyleTableRecord
  2
TATEGAKI
 70
     4
 40
1.0
 41
1.0
 50
0.0
 71
     0
 42
0.2
  3
TXT
  4
BIGFONT
  0
ENDTAB
  0
TABLE
  2
VIEW
  5
6
330
0
100
AcDbSymbolTable
 70
     0
  0
ENDTAB
  0
TABLE
  2
UCS
  5
7
330
0
100
AcDbSymbolTable
 70
     0
  0
ENDTAB
  0
TABLE
  2
APPID
  5
9
330
0
100
AcDbSymbolTable
 70
     1
  0
APPID
  5
12
330
9
100
AcDbSymbolTableRecord
100
AcDbRegAppTableRecord
  2
ACAD
 70
     0
  0
ENDTAB
  0
TABLE
  2
DIMSTYLE
  5
A
330
0
100
AcDbSymbolTable
 70
     2
100
AcDbDimStyleTable
  0
DIMSTYLE
105
27
330
A
100
AcDbSymbolTableRecord
100
AcDbDimStyleTableRecord
  2
ISO-25
 70
     0
 41
2.5
 42
0.625
 43
3.75
 44
1.25
 73
     0
 74
     0
 77
     1
 78
     8
140
2.5
141
2.5
143
0.03937
147
0.625
171
     3
172
     1
271
     2
272
     2
274
     3
278
    44
283
     0
284
     8
340
11
  0
DIMSTYLE
105
63
102
{ACAD_REACTORS
330
B4
330
B5
330
B6
330
B7
102
}
330
A
100
AcDbSymbolTableRecord
100
AcDbDimStyleTableRecord
  2
Standard
 70
     0
 41
1.5
 42
0.0
 44
0.5
 73
     0
 74
     0
 77
     1
 78
     8
 79
     2
140
4.0
146
0.8
147
1.0
172
     1
179
     1
271
     1
340
11
  0
ENDTAB
  0
TABLE
  2
BLOCK_RECORD
  5
1
330
0
100
AcDbSymbolTable
 70
     5
  0
BLOCK_RECORD
  5
1F
330
1
100
AcDbSymbolTableRecord
100
AcDbBlockTableRecord
  2
*Model_Space
340
22
  0
BLOCK_RECORD
  5
1B
330
1
100
AcDbSymbolTableRecord
100
AcDbBlockTableRecord
  2
*Paper_Space
340
1E
  0
BLOCK_RECORD
  5
23
330
1
100
AcDbSymbolTableRecord
100
AcDbBlockTableRecord
  2
*Paper_Space0
340
26
  0
BLOCK_RECORD
  5
64
330
1
100
AcDbSymbolTableRecord
100
AcDbBlockTableRecord
  2
*D1
340
0
  0
BLOCK_RECORD
  5
78
330
1
100
AcDbSymbolTableRecord
100
AcDbBlockTableRecord
  2
*D2
340
0
  0
BLOCK_RECORD
  5
8C
330
1
100
AcDbSymbolTableRecord
100
AcDbBlockTableRecord
  2
*D3
340
0
  0
BLOCK_RECORD
  5
A0
330
1
100
AcDbSymbolTableRecord
100
AcDbBlockTableRecord
  2
*D4
340
0
  0
ENDTAB
  0
ENDSEC
  0
SECTION
  2
BLOCKS
  0
BLOCK
  5
20
330
1F
100
AcDbEntity
  8
0
100
AcDbBlockBegin
  2
*Model_Space
 70
     0
 10
0.0
 20
0.0
 30
0.0
  3
*Model_Space
  1

  0
ENDBLK
  5
21
330
1F
100
AcDbEntity
  8
0
100
AcDbBlockEnd
  0
BLOCK
  5
1C
330
1B
100
AcDbEntity
 67
     1
  8
0
100
AcDbBlockBegin
  2
*Paper_Space
 70
     0
 10
0.0
 20
0.0
 30
0.0
  3
*Paper_Space
  1

  0
ENDBLK
  5
1D
330
1B
100
AcDbEntity
 67
     1
  8
0
100
AcDbBlockEnd
  0
BLOCK
  5
24
330
23
100
AcDbEntity
  8
0
100
AcDbBlockBegin
  2
*Paper_Space0
 70
     0
 10
0.0
 20
0.0
 30
0.0
  3
*Paper_Space0
  1

  0
ENDBLK
  5
25
330
23
100
AcDbEntity
  8
0
100
AcDbBlockEnd
  0
BLOCK
  5
65
330
64
100
AcDbEntity
  8
0
100
AcDbBlockBegin
  2
*D1
 70
     1
 10
0.0
 20
0.0
 30
0.0
  3
*D1
  1

  0
LINE
  5
67
330
64
100
AcDbEntity
  8
001
370
    50
100
AcDbLine
 10
180.9821
 20
72.23552
 30
0.0
 11
180.9821
 21
3.628358
 31
0.0
  0
LINE
  5
68
330
64
100
AcDbEntity
  8
001
370
    50
100
AcDbLine
 10
60.9821
 20
40.223691
 30
0.0
 11
60.9821
 21
3.628358
 31
0.0
  0
LINE
  5
69
330
64
100
AcDbEntity
  8
001
370
    50
100
AcDbLine
 10
180.9821
 20
4.128358
 30
0.0
 11
60.9821
 21
4.128358
 31
0.0
  0
POLYLINE
  5
6A
330
64
100
AcDbEntity
  8
001
370
    50
100
AcDb2dPolyline
 66
     1
 10
0.0
 20
0.0
 30
0.0
  0
VERTEX
  5
6C
330
6A
100
AcDbEntity
  8
001
370
    50
100
AcDbVertex
100
AcDb2dVertex
 10
179.4821
 20
4.530282
 30
0.0
  0
VERTEX
  5
6D
330
6A
100
AcDbEntity
  8
001
370
    50
100
AcDbVertex
100
AcDb2dVertex
 10
180.9821
 20
4.128358
 30
0.0
  0
VERTEX
  5
6E
330
6A
100
AcDbEntity
  8
001
370
    50
100
AcDbVertex
100
AcDb2dVertex
 10
179.4821
 20
3.726434
 30
0.0
  0
SEQEND
  5
6B
330
6A
100
AcDbEntity
  8
001
370
    50
  0
POLYLINE
  5
6F
330
64
100
AcDbEntity
  8
001
370
    50
100
AcDb2dPolyline
 66
     1
 10
0.0
 20
0.0
 30
0.0
  0
VERTEX
  5
71
330
6F
100
AcDbEntity
  8
001
370
    50
100
AcDbVertex
100
AcDb2dVertex
 10
62.4821
 20
3.726434
 30
0.0
  0
VERTEX
  5
72
330
6F
100
AcDbEntity
  8
001
370
    50
100
AcDbVertex
100
AcDb2dVertex
 10
60.9821
 20
4.128358
 30
0.0
  0
VERTEX
  5
73
330
6F
100
AcDbEntity
  8
001
370
    50
100
AcDbVertex
100
AcDb2dVertex
 10
62.4821
 20
4.530282
 30
0.0
  0
SEQEND
  5
70
330
6F
100
AcDbEntity
  8
001
370
    50
  0
TEXT
  5
74
330
64
100
AcDbEntity
  8
001
370
    30
100
AcDbText
 10
114.9821
 20
5.128358
 30
0.0
 40
4.0
  1
１２０
 41
0.833333
100
AcDbText
  0
POINT
  5
75
330
64
100
AcDbEntity
  8
001
370
    50
100
AcDbPoint
 10
180.9821
 20
72.23552
 30
0.0
  0
POINT
  5
76
330
64
100
AcDbEntity
  8
001
370
    50
100
AcDbPoint
 10
60.9821
 20
40.223691
 30
0.0
  0
POINT
  5
77
330
64
100
AcDbEntity
  8
001
370
    50
100
AcDbPoint
 10
60.9821
 20
4.128358
 30
0.0
  0
ENDBLK
  5
66
330
64
100
AcDbEntity
  8
0
100
AcDbBlockEnd
  0
BLOCK
  5
79
330
78
100
AcDbEntity
  8
0
100
AcDbBlockBegin
  2
*D2
 70
     1
 10
0.0
 20
0.0
 30
0.0
  3
*D2
  1

  0
LINE
  5
7B
330
78
100
AcDbEntity
  8
001
370
    50
100
AcDbLine
 10
100.9821
 20
56.23552
 30
0.0
 11
100.9821
 21
14.540622
 31
0.0
  0
LINE
  5
7C
330
78
100
AcDbEntity
  8
001
370
    50
100
AcDbLine
 10
60.9821
 20
33.96105
 30
0.0
 11
60.9821
 21
14.540622
 31
0.0
  0
LINE
  5
7D
330
78
100
AcDbEntity
  8
001
370
    50
100
AcDbLine
 10
100.9821
 20
15.040622
 30
0.0
 11
60.9821
 21
15.040622
 31
0.0
  0
POLYLINE
  5
7E
330
78
100
AcDbEntity
  8
001
370
    50
100
AcDb2dPolyline
 66
     1
 10
0.0
 20
0.0
 30
0.0
  0
VERTEX
  5
80
330
7E
100
AcDbEntity
  8
001
370
    50
100
AcDbVertex
100
AcDb2dVertex
 10
99.4821
 20
15.442545
 30
0.0
  0
VERTEX
  5
81
330
7E
100
AcDbEntity
  8
001
370
    50
100
AcDbVertex
100
AcDb2dVertex
 10
100.9821
 20
15.040622
 30
0.0
  0
VERTEX
  5
82
330
7E
100
AcDbEntity
  8
001
370
    50
100
AcDbVertex
100
AcDb2dVertex
 10
99.4821
 20
14.638698
 30
0.0
  0
SEQEND
  5
7F
330
7E
100
AcDbEntity
  8
001
370
    50
  0
POLYLINE
  5
83
330
78
100
AcDbEntity
  8
001
370
    50
100
AcDb2dPolyline
 66
     1
 10
0.0
 20
0.0
 30
0.0
  0
VERTEX
  5
85
330
83
100
AcDbEntity
  8
001
370
    50
100
AcDbVertex
100
AcDb2dVertex
 10
62.4821
 20
14.638698
 30
0.0
  0
VERTEX
  5
86
330
83
100
AcDbEntity
  8
001
370
    50
100
AcDbVertex
100
AcDb2dVertex
 10
60.9821
 20
15.040622
 30
0.0
  0
VERTEX
  5
87
330
83
100
AcDbEntity
  8
001
370
    50
100
AcDbVertex
100
AcDb2dVertex
 10
62.4821
 20
15.442545
 30
0.0
  0
SEQEND
  5
84
330
83
100
AcDbEntity
  8
001
370
    50
  0
TEXT
  5
88
330
78
100
AcDbEntity
  8
001
370
    30
100
AcDbText
 10
76.9821
 20
16.040622
 30
0.0
 40
4.0
  1
４０
 41
0.833333
100
AcDbText
  0
POINT
  5
89
330
78
100
AcDbEntity
  8
001
370
    50
100
AcDbPoint
 10
100.9821
 20
56.23552
 30
0.0
  0
POINT
  5
8A
330
78
100
AcDbEntity
  8
001
370
    50
100
AcDbPoint
 10
60.9821
 20
33.96105
 30
0.0
  0
POINT
  5
8B
330
78
100
AcDbEntity
  8
001
370
    50
100
AcDbPoint
 10
60.9821
 20
15.040622
 30
0.0
  0
ENDBLK
  5
7A
330
78
100
AcDbEntity
  8
0
100
AcDbBlockEnd
  0
BLOCK
  5
8D
330
8C
100
AcDbEntity
  8
0
100
AcDbBlockBegin
  2
*D3
 70
     1
 10
0.0
 20
0.0
 30
0.0
  3
*D3
  1

  0
LINE
  5
8F
330
8C
100
AcDbEntity
  8
001
370
    50
100
AcDbLine
 10
180.9821
 20
72.23552
 30
0.0
 11
180.9821
 21
14.540622
 31
0.0
  0
LINE
  5
90
330
8C
100
AcDbEntity
  8
001
370
    50
100
AcDbLine
 10
100.9821
 20
56.23552
 30
0.0
 11
100.9821
 21
14.540622
 31
0.0
  0
LINE
  5
91
330
8C
100
AcDbEntity
  8
001
370
    50
100
AcDbLine
 10
180.9821
 20
15.040622
 30
0.0
 11
100.9821
 21
15.040622
 31
0.0
  0
POLYLINE
  5
92
330
8C
100
AcDbEntity
  8
001
370
    50
100
AcDb2dPolyline
 66
     1
 10
0.0
 20
0.0
 30
0.0
  0
VERTEX
  5
94
330
92
100
AcDbEntity
  8
001
370
    50
100
AcDbVertex
100
AcDb2dVertex
 10
179.4821
 20
15.442545
 30
0.0
  0
VERTEX
  5
95
330
92
100
AcDbEntity
  8
001
370
    50
100
AcDbVertex
100
AcDb2dVertex
 10
180.9821
 20
15.040622
 30
0.0
  0
VERTEX
  5
96
330
92
100
AcDbEntity
  8
001
370
    50
100
AcDbVertex
100
AcDb2dVertex
 10
179.4821
 20
14.638698
 30
0.0
  0
SEQEND
  5
93
330
92
100
AcDbEntity
  8
001
370
    50
  0
POLYLINE
  5
97
330
8C
100
AcDbEntity
  8
001
370
    50
100
AcDb2dPolyline
 66
     1
 10
0.0
 20
0.0
 30
0.0
  0
VERTEX
  5
99
330
97
100
AcDbEntity
  8
001
370
    50
100
AcDbVertex
100
AcDb2dVertex
 10
102.4821
 20
14.638698
 30
0.0
  0
VERTEX
  5
9A
330
97
100
AcDbEntity
  8
001
370
    50
100
AcDbVertex
100
AcDb2dVertex
 10
100.9821
 20
15.040622
 30
0.0
  0
VERTEX
  5
9B
330
97
100
AcDbEntity
  8
001
370
    50
100
AcDbVertex
100
AcDb2dVertex
 10
102.4821
 20
15.442545
 30
0.0
  0
SEQEND
  5
98
330
97
100
AcDbEntity
  8
001
370
    50
  0
TEXT
  5
9C
330
8C
100
AcDbEntity
  8
001
370
    30
100
AcDbText
 10
136.9821
 20
16.040622
 30
0.0
 40
4.0
  1
８０
 41
0.833333
100
AcDbText
  0
POINT
  5
9D
330
8C
100
AcDbEntity
  8
001
370
    50
100
AcDbPoint
 10
180.9821
 20
72.23552
 30
0.0
  0
POINT
  5
9E
330
8C
100
AcDbEntity
  8
001
370
    50
100
AcDbPoint
 10
100.9821
 20
56.23552
 30
0.0
  0
POINT
  5
9F
330
8C
100
AcDbEntity
  8
001
370
    50
100
AcDbPoint
 10
100.9821
 20
15.040622
 30
0.0
  0
ENDBLK
  5
8E
330
8C
100
AcDbEntity
  8
0
100
AcDbBlockEnd
  0
BLOCK
  5
A1
330
A0
100
AcDbEntity
  8
0
100
AcDbBlockBegin
  2
*D4
 70
     1
 10
0.0
 20
0.0
 30
0.0
  3
*D4
  1

  0
LINE
  5
A3
330
A0
100
AcDbEntity
  8
001
370
    50
100
AcDbLine
 10
172.9821
 20
96.23552
 30
0.0
 11
203.907479
 21
96.23552
 31
0.0
  0
LINE
  5
A4
330
A0
100
AcDbEntity
  8
001
370
    50
100
AcDbLine
 10
172.9821
 20
64.23552
 30
0.0
 11
203.907479
 21
64.23552
 31
0.0
  0
LINE
  5
A5
330
A0
100
AcDbEntity
  8
001
370
    50
100
AcDbLine
 10
203.407479
 20
96.23552
 30
0.0
 11
203.407479
 21
64.23552
 31
0.0
  0
POLYLINE
  5
A6
330
A0
100
AcDbEntity
  8
001
370
    50
100
AcDb2dPolyline
 66
     1
 10
0.0
 20
0.0
 30
0.0
  0
VERTEX
  5
A8
330
A6
100
AcDbEntity
  8
001
370
    50
100
AcDbVertex
100
AcDb2dVertex
 10
203.005555
 20
94.73552
 30
0.0
  0
VERTEX
  5
A9
330
A6
100
AcDbEntity
  8
001
370
    50
100
AcDbVertex
100
AcDb2dVertex
 10
203.407479
 20
96.23552
 30
0.0
  0
VERTEX
  5
AA
330
A6
100
AcDbEntity
  8
001
370
    50
100
AcDbVertex
100
AcDb2dVertex
 10
203.809402
 20
94.73552
 30
0.0
  0
SEQEND
  5
A7
330
A6
100
AcDbEntity
  8
001
370
    50
  0
POLYLINE
  5
AB
330
A0
100
AcDbEntity
  8
001
370
    50
100
AcDb2dPolyline
 66
     1
 10
0.0
 20
0.0
 30
0.0
  0
VERTEX
  5
AD
330
AB
100
AcDbEntity
  8
001
370
    50
100
AcDbVertex
100
AcDb2dVertex
 10
203.809402
 20
65.73552
 30
0.0
  0
VERTEX
  5
AE
330
AB
100
AcDbEntity
  8
001
370
    50
100
AcDbVertex
100
AcDb2dVertex
 10
203.407479
 20
64.23552
 30
0.0
  0
VERTEX
  5
AF
330
AB
100
AcDbEntity
  8
001
370
    50
100
AcDbVertex
100
AcDb2dVertex
 10
203.005555
 20
65.73552
 30
0.0
  0
SEQEND
  5
AC
330
AB
100
AcDbEntity
  8
001
370
    50
  0
TEXT
  5
B0
330
A0
100
AcDbEntity
  8
001
370
    30
100
AcDbText
 10
202.407479
 20
74.23552
 30
0.0
 40
4.0
  1
%%c３２
 50
90.000003
 41
0.882353
100
AcDbText
  0
POINT
  5
B1
330
A0
100
AcDbEntity
  8
001
370
    50
100
AcDbPoint
 10
172.9821
 20
96.23552
 30
0.0
  0
POINT
  5
B2
330
A0
100
AcDbEntity
  8
001
370
    50
100
AcDbPoint
 10
172.9821
 20
64.23552
 30
0.0
  0
POINT
  5
B3
330
A0
100
AcDbEntity
  8
001
370
    50
100
AcDbPoint
 10
203.407479
 20
64.23552
 30
0.0
  0
ENDBLK
  5
A2
330
A0
100
AcDbEntity
  8
0
100
AcDbBlockEnd
  0
ENDSEC
  0
SECTION
  2
ENTITIES
  0
DIMENSION
  5
B4
330
1F
100
AcDbEntity
  8
001
370
    50
100
AcDbDimension
  2
*D1
 10
60.9821
 20
4.128358
 30
0.0
 11
120.9821
 21
7.128358
 31
0.0
 70
   160
 71
     5
 42
-1.0
  3
Standard
100
AcDbAlignedDimension
 13
180.9821
 23
72.23552
 33
0.0
 14
60.9821
 24
40.223691
 34
0.0
 50
180.0
100
AcDbRotatedDimension
  0
DIMENSION
  5
B5
330
1F
100
AcDbEntity
  8
001
370
    50
100
AcDbDimension
  2
*D2
 10
60.9821
 20
15.040622
 30
0.0
 11
80.9821
 21
18.040622
 31
0.0
 70
   160
 71
     5
 42
-1.0
  3
Standard
100
AcDbAlignedDimension
 13
100.9821
 23
56.23552
 33
0.0
 14
60.9821
 24
33.96105
 34
0.0
 50
180.0
100
AcDbRotatedDimension
  0
DIMENSION
  5
B6
330
1F
100
AcDbEntity
  8
001
370
    50
100
AcDbDimension
  2
*D3
 10
100.9821
 20
15.040622
 30
0.0
 11
140.9821
 21
18.040622
 31
0.0
 70
   160
 71
     5
 42
-1.0
  3
Standard
100
AcDbAlignedDimension
 13
180.9821
 23
72.23552
 33
0.0
 14
100.9821
 24
56.23552
 34
0.0
 50
180.0
100
AcDbRotatedDimension
  0
DIMENSION
  5
B7
330
1F
100
AcDbEntity
  8
001
370
    50
100
AcDbDimension
  2
*D4
 10
203.407479
 20
64.23552
 30
0.0
 11
200.407478
 21
80.23552
 31
0.0
 70
   160
 71
     5
 42
-1.0
  3
Standard
100
AcDbAlignedDimension
 13
172.9821
 23
96.23552
 33
0.0
 14
172.9821
 24
64.23552
 34
0.0
 50
270.0
100
AcDbRotatedDimension
  0
TEXT
  5
B8
330
1F
100
AcDbEntity
  8
001
370
    30
100
AcDbText
 10
42.85805
 20
74.23552
 30
0.0
 40
4.0
  1
%%c８０
 50
90.000003
 41
0.882353
100
AcDbText
  0
POLYLINE
  5
B9
330
1F
100
AcDbEntity
  8
001
370
    50
100
AcDb2dPolyline
 66
     1
 10
0.0
 20
0.0
 30
0.0
  0
VERTEX
  5
BB
330
B9
100
AcDbEntity
  8
001
370
    50
100
AcDbVertex
100
AcDb2dVertex
 10
44.259974
 20
41.723691
 30
0.0
  0
VERTEX
  5
BC
330
B9
100
AcDbEntity
  8
001
370
    50
100
AcDbVertex
100
AcDb2dVertex
 10
43.85805
 20
40.223691
 30
0.0
  0
VERTEX
  5
BD
330
B9
100
AcDbEntity
  8
001
370
    50
100
AcDbVertex
100
AcDb2dVertex
 10
43.456126
 20
41.723691
 30
0.0
  0
SEQEND
  5
BA
330
B9
100
AcDbEntity
  8
001
370
    50
  0
LINE
  5
BE
330
1F
100
AcDbEntity
  8
001
370
    50
100
AcDbLine
 10
43.85805
 20
120.247348
 30
0.0
 11
43.85805
 21
40.223691
 31
0.0
  0
POLYLINE
  5
BF
330
1F
100
AcDbEntity
  8
001
370
    50
100
AcDb2dPolyline
 66
     1
 10
0.0
 20
0.0
 30
0.0
  0
VERTEX
  5
C1
330
BF
100
AcDbEntity
  8
001
370
    50
100
AcDbVertex
100
AcDb2dVertex
 10
59.503802
 20
40.223691
 30
0.0
  0
VERTEX
  5
C2
330
BF
100
AcDbEntity
  8
001
370
    50
100
AcDbVertex
100
AcDb2dVertex
 10
43.85805
 20
40.223691
 30
0.0
  0
VERTEX
  5
C3
330
BF
100
AcDbEntity
  8
001
370
    50
100
AcDbVertex
100
AcDb2dVertex
 10
43.35805
 20
40.223691
 30
0.0
  0
SEQEND
  5
C0
330
BF
100
AcDbEntity
  8
001
370
    50
  0
TEXT
  5
C4
330
1F
100
AcDbEntity
  8
001
370
    30
100
AcDbText
 10
31.135937
 20
70.23552
 30
0.0
 40
4.0
  1
%%c９２．５
 50
90.000003
 41
0.862069
100
AcDbText
  0
POLYLINE
  5
C5
330
1F
100
AcDbEntity
  8
001
370
    50
100
AcDb2dPolyline
 66
     1
 10
0.0
 20
0.0
 30
0.0
  0
VERTEX
  5
C7
330
C5
100
AcDbEntity
  8
001
370
    50
100
AcDbVertex
100
AcDb2dVertex
 10
32.53786
 20
35.46105
 30
0.0
  0
VERTEX
  5
C8
330
C5
100
AcDbEntity
  8
001
370
    50
100
AcDbVertex
100
AcDb2dVertex
 10
32.135937
 20
33.96105
 30
0.0
  0
VERTEX
  5
C9
330
C5
100
AcDbEntity
  8
001
370
    50
100
AcDbVertex
100
AcDb2dVertex
 10
31.734013
 20
35.46105
 30
0.0
  0
SEQEND
  5
C6
330
C5
100
AcDbEntity
  8
001
370
    50
  0
LINE
  5
CA
330
1F
100
AcDbEntity
  8
001
370
    50
100
AcDbLine
 10
32.135937
 20
126.50999
 30
0.0
 11
32.135937
 21
33.96105
 31
0.0
  0
POLYLINE
  5
CB
330
1F
100
AcDbEntity
  8
001
370
    50
100
AcDb2dPolyline
 66
     1
 10
0.0
 20
0.0
 30
0.0
  0
VERTEX
  5
CD
330
CB
100
AcDbEntity
  8
001
370
    50
100
AcDbVertex
100
AcDb2dVertex
 10
60.9821
 20
33.96105
 30
0.0
  0
VERTEX
  5
CE
330
CB
100
AcDbEntity
  8
001
370
    50
100
AcDbVertex
100
AcDb2dVertex
 10
32.135937
 20
33.96105
 30
0.0
  0
VERTEX
  5
CF
330
CB
100
AcDbEntity
  8
001
370
    50
100
AcDbVertex
100
AcDb2dVertex
 10
31.635937
 20
33.96105
 30
0.0
  0
SEQEND
  5
CC
330
CB
100
AcDbEntity
  8
001
370
    50
  0
TEXT
  5
D0
330
1F
100
AcDbEntity
  8
001
370
    30
100
AcDbText
 10
4.067852
 20
135.883971
 30
0.0
 40
8.0
  1
ＮＥＷ　Ｔｉｋｏかったぁ　ＴＫＮ３２－８０Ｓ－０３
 41
0.833333
100
AcDbText
  0
LINE
  5
D1
330
1F
100
AcDbEntity
  8
001
  6
CENTER
 62
   253
370
     9
100
AcDbLine
 10
56.512933
 20
80.23552
 30
0.0
 11
184.63186
 21
80.23552
 31
0.0
  0
LINE
  5
D2
330
1F
100
AcDbEntity
  8
001
 62
    60
370
    50
100
AcDbLine
 10
61.6821
 20
97.024423
 30
0.0
 11
61.645047
 21
97.036351
 31
0.0
  0
POLYLINE
  5
D3
330
1F
100
AcDbEntity
  8
001
 62
    60
370
    50
100
AcDb2dPolyline
 66
     1
 10
0.0
 20
0.0
 30
0.0
  0
VERTEX
  5
D5
330
D3
100
AcDbEntity
  8
001
 62
    60
370
    50
100
AcDbVertex
100
AcDb2dVertex
 10
61.299122
 20
97.329029
 30
0.0
  0
VERTEX
  5
D6
330
D3
100
AcDbEntity
  8
001
 62
    60
370
    50
100
AcDbVertex
100
AcDb2dVertex
 10
61.307733
 20
97.29365
 30
0.0
  0
VERTEX
  5
D7
330
D3
100
AcDbEntity
  8
001
 62
    60
370
    50
100
AcDbVertex
100
AcDb2dVertex
 10
61.326311
 20
97.246941
 30
0.0
  0
VERTEX
  5
D8
330
D3
100
AcDbEntity
  8
001
 62
    60
370
    50
100
AcDbVertex
100
AcDb2dVertex
 10
61.355028
 20
97.204235
 30
0.0
  0
VERTEX
  5
D9
330
D3
100
AcDbEntity
  8
001
 62
    60
370
    50
100
AcDbVertex
100
AcDb2dVertex
 10
61.388647
 20
97.171287
 30
0.0
  0
VERTEX
  5
DA
330
D3
100
AcDbEntity
  8
001
 62
    60
370
    50
100
AcDbVertex
100
AcDb2dVertex
 10
61.432582
 20
97.136504
 30
0.0
  0
VERTEX
  5
DB
330
D3
100
AcDbEntity
  8
001
 62
    60
370
    50
100
AcDbVertex
100
AcDb2dVertex
 10
61.484236
 20
97.104363
 30
0.0
  0
VERTEX
  5
DC
330
D3
100
AcDbEntity
  8
001
 62
    60
370
    50
100
AcDbVertex
100
AcDb2dVertex
 10
61.575647
 20
97.062083
 30
0.0
  0
VERTEX
  5
DD
330
D3
100
AcDbEntity
  8
001
 62
    60
370
    50
100
AcDbVertex
100
AcDb2dVertex
 10
61.645047
 20
97.036351
 30
0.0
  0
SEQEND
  5
D4
330
D3
100
AcDbEntity
  8
001
370
    50
  0
LINE
  5
DE
330
1F
100
AcDbEntity
  8
001
 62
    60
370
    50
100
AcDbLine
 10
61.645047
 20
97.728431
 30
0.0
 11
66.670937
 21
100.261147
 31
0.0
  0
POLYLINE
  5
DF
330
1F
100
AcDbEntity
  8
001
 62
    60
370
    50
100
AcDb2dPolyline
 66
     1
 10
0.0
 20
0.0
 30
0.0
  0
VERTEX
  5
E1
330
DF
100
AcDbEntity
  8
001
 62
    60
370
    50
100
AcDbVertex
100
AcDb2dVertex
 10
68.346938
 20
100.41366
 30
0.0
  0
VERTEX
  5
E2
330
DF
100
AcDbEntity
  8
001
 62
    60
370
    50
100
AcDbVertex
100
AcDb2dVertex
 10
68.225604
 20
100.443989
 30
0.0
  0
VERTEX
  5
E3
330
DF
100
AcDbEntity
  8
001
 62
    60
370
    50
100
AcDbVertex
100
AcDb2dVertex
 10
68.055004
 20
100.475383
 30
0.0
  0
VERTEX
  5
E4
330
DF
100
AcDbEntity
  8
001
 62
    60
370
    50
100
AcDbVertex
100
AcDb2dVertex
 10
67.850519
 20
100.493404
 30
0.0
  0
VERTEX
  5
E5
330
DF
100
AcDbEntity
  8
001
 62
    60
370
    50
100
AcDbVertex
100
AcDb2dVertex
 10
67.662333
 20
100.49058
 30
0.0
  0
VERTEX
  5
E6
330
DF
100
AcDbEntity
  8
001
 62
    60
370
    50
100
AcDbVertex
100
AcDb2dVertex
 10
67.560135
 20
100.484702
 30
0.0
  0
VERTEX
  5
E7
330
DF
100
AcDbEntity
  8
001
 62
    60
370
    50
100
AcDbVertex
100
AcDb2dVertex
 10
67.455941
 20
100.475426
 30
0.0
  0
VERTEX
  5
E8
330
DF
100
AcDbEntity
  8
001
 62
    60
370
    50
100
AcDbVertex
100
AcDb2dVertex
 10
67.352121
 20
100.461943
 30
0.0
  0
VERTEX
  5
E9
330
DF
100
AcDbEntity
  8
001
 62
    60
370
    50
100
AcDbVertex
100
AcDb2dVertex
 10
67.25116
 20
100.445564
 30
0.0
  0
VERTEX
  5
EA
330
DF
100
AcDbEntity
  8
001
 62
    60
370
    50
100
AcDbVertex
100
AcDb2dVertex
 10
67.067941
 20
100.407617
 30
0.0
  0
VERTEX
  5
EB
330
DF
100
AcDbEntity
  8
001
 62
    60
370
    50
100
AcDbVertex
100
AcDb2dVertex
 10
66.871079
 20
100.345764
 30
0.0
  0
VERTEX
  5
EC
330
DF
100
AcDbEntity
  8
001
 62
    60
370
    50
100
AcDbVertex
100
AcDb2dVertex
 10
66.753457
 20
100.298439
 30
0.0
  0
VERTEX
  5
ED
330
DF
100
AcDbEntity
  8
001
 62
    60
370
    50
100
AcDbVertex
100
AcDb2dVertex
 10
66.670937
 20
100.261147
 30
0.0
  0
SEQEND
  5
E0
330
DF
100
AcDbEntity
  8
001
370
    50
  0
LINE
  5
EE
330
1F
100
AcDbEntity
  8
001
 62
    60
370
    50
100
AcDbLine
 10
68.346938
 20
100.41366
 30
0.0
 11
68.565167
 21
100.343404
 31
0.0
  0
POLYLINE
  5
EF
330
1F
100
AcDbEntity
  8
001
 62
    60
370
    50
100
AcDb2dPolyline
 66
     1
 10
0.0
 20
0.0
 30
0.0
  0
VERTEX
  5
F1
330
EF
100
AcDbEntity
  8
001
 62
    60
370
    50
100
AcDbVertex
100
AcDb2dVertex
 10
68.031101
 20
103.298477
 30
0.0
  0
VERTEX
  5
F2
330
EF
100
AcDbEntity
  8
001
 62
    60
370
    50
100
AcDbVertex
100
AcDb2dVertex
 10
67.909768
 20
103.328807
 30
0.0
  0
VERTEX
  5
F3
330
EF
100
AcDbEntity
  8
001
 62
    60
370
    50
100
AcDbVertex
100
AcDb2dVertex
 10
67.739167
 20
103.360201
 30
0.0
  0
VERTEX
  5
F4
330
EF
100
AcDbEntity
  8
001
 62
    60
370
    50
100
AcDbVertex
100
AcDb2dVertex
 10
67.534683
 20
103.378221
 30
0.0
  0
VERTEX
  5
F5
330
EF
100
AcDbEntity
  8
001
 62
    60
370
    50
100
AcDbVertex
100
AcDb2dVertex
 10
67.346496
 20
103.375398
 30
0.0
  0
VERTEX
  5
F6
330
EF
100
AcDbEntity
  8
001
 62
    60
370
    50
100
AcDbVertex
100
AcDb2dVertex
 10
67.244298
 20
103.36952
 30
0.0
  0
VERTEX
  5
F7
330
EF
100
AcDbEntity
  8
001
 62
    60
370
    50
100
AcDbVertex
100
AcDb2dVertex
 10
67.140104
 20
103.360243
 30
0.0
  0
VERTEX
  5
F8
330
EF
100
AcDbEntity
  8
001
 62
    60
370
    50
100
AcDbVertex
100
AcDb2dVertex
 10
67.036284
 20
103.346761
 30
0.0
  0
VERTEX
  5
F9
330
EF
100
AcDbEntity
  8
001
 62
    60
370
    50
100
AcDbVertex
100
AcDb2dVertex
 10
66.935323
 20
103.330381
 30
0.0
  0
VERTEX
  5
FA
330
EF
100
AcDbEntity
  8
001
 62
    60
370
    50
100
AcDbVertex
100
AcDb2dVertex
 10
66.752104
 20
103.292434
 30
0.0
  0
VERTEX
  5
FB
330
EF
100
AcDbEntity
  8
001
 62
    60
370
    50
100
AcDbVertex
100
AcDb2dVertex
 10
66.555242
 20
103.230582
 30
0.0
  0
VERTEX
  5
FC
330
EF
100
AcDbEntity
  8
001
 62
    60
370
    50
100
AcDbVertex
100
AcDb2dVertex
 10
66.43762
 20
103.183257
 30
0.0
  0
VERTEX
  5
FD
330
EF
100
AcDbEntity
  8
001
 62
    60
370
    50
100
AcDbVertex
100
AcDb2dVertex
 10
66.355101
 20
103.145965
 30
0.0
  0
SEQEND
  5
F0
330
EF
100
AcDbEntity
  8
001
370
    50
  0
LINE
  5
FE
330
1F
100
AcDbEntity
  8
001
 62
    60
370
    50
100
AcDbLine
 10
61.329211
 20
100.613249
 30
0.0
 11
66.355101
 21
103.145965
 31
0.0
  0
LINE
  5
FF
330
1F
100
AcDbEntity
  8
001
 62
    60
370
    50
100
AcDbLine
 10
68.031101
 20
103.298477
 30
0.0
 11
68.897296
 21
103.019617
 31
0.0
  0
POLYLINE
  5
100
330
1F
100
AcDbEntity
  8
001
 62
    60
370
    50
100
AcDb2dPolyline
 66
     1
 10
0.0
 20
0.0
 30
0.0
  0
VERTEX
  5
102
330
100
100
AcDbEntity
  8
001
 62
    60
370
    50
100
AcDbVertex
100
AcDb2dVertex
 10
61.329211
 20
100.613249
 30
0.0
  0
VERTEX
  5
103
330
100
100
AcDbEntity
  8
001
 62
    60
370
    50
100
AcDbVertex
100
AcDb2dVertex
 10
61.234372
 20
100.55901
 30
0.0
  0
VERTEX
  5
104
330
100
100
AcDbEntity
  8
001
 62
    60
370
    50
100
AcDbVertex
100
AcDb2dVertex
 10
61.115403
 20
100.473243
 30
0.0
  0
VERTEX
  5
105
330
100
100
AcDbEntity
  8
001
 62
    60
370
    50
100
AcDbVertex
100
AcDb2dVertex
 10
61.072245
 20
100.43093
 30
0.0
  0
VERTEX
  5
106
330
100
100
AcDbEntity
  8
001
 62
    60
370
    50
100
AcDbVertex
100
AcDb2dVertex
 10
61.036559
 20
100.387223
 30
0.0
  0
VERTEX
  5
107
330
100
100
AcDbEntity
  8
001
 62
    60
370
    50
100
AcDbVertex
100
AcDb2dVertex
 10
61.0108
 20
100.347732
 30
0.0
  0
VERTEX
  5
108
330
100
100
AcDbEntity
  8
001
 62
    60
370
    50
100
AcDbVertex
100
AcDb2dVertex
 10
60.992069
 20
100.299872
 30
0.0
  0
VERTEX
  5
109
330
100
100
AcDbEntity
  8
001
 62
    60
370
    50
100
AcDbVertex
100
AcDb2dVertex
 10
60.984048
 20
100.250259
 30
0.0
  0
VERTEX
  5
10A
330
100
100
AcDbEntity
  8
001
 62
    60
370
    50
100
AcDbVertex
100
AcDb2dVertex
 10
60.983285
 20
100.213847
 30
0.0
  0
SEQEND
  5
101
330
100
100
AcDbEntity
  8
001
370
    50
  0
POLYLINE
  5
10B
330
1F
100
AcDbEntity
  8
001
 62
    60
370
    50
100
AcDb2dPolyline
 66
     1
 10
0.0
 20
0.0
 30
0.0
  0
VERTEX
  5
10D
330
10B
100
AcDbEntity
  8
001
 62
    60
370
    50
100
AcDbVertex
100
AcDb2dVertex
 10
61.645047
 20
97.728431
 30
0.0
  0
VERTEX
  5
10E
330
10B
100
AcDbEntity
  8
001
 62
    60
370
    50
100
AcDbVertex
100
AcDb2dVertex
 10
61.550209
 20
97.674192
 30
0.0
  0
VERTEX
  5
10F
330
10B
100
AcDbEntity
  8
001
 62
    60
370
    50
100
AcDbVertex
100
AcDb2dVertex
 10
61.43124
 20
97.588426
 30
0.0
  0
VERTEX
  5
110
330
10B
100
AcDbEntity
  8
001
 62
    60
370
    50
100
AcDbVertex
100
AcDb2dVertex
 10
61.388082
 20
97.546112
 30
0.0
  0
VERTEX
  5
111
330
10B
100
AcDbEntity
  8
001
 62
    60
370
    50
100
AcDbVertex
100
AcDb2dVertex
 10
61.352396
 20
97.502405
 30
0.0
  0
VERTEX
  5
112
330
10B
100
AcDbEntity
  8
001
 62
    60
370
    50
100
AcDbVertex
100
AcDb2dVertex
 10
61.326637
 20
97.462914
 30
0.0
  0
VERTEX
  5
113
330
10B
100
AcDbEntity
  8
001
 62
    60
370
    50
100
AcDbVertex
100
AcDb2dVertex
 10
61.307906
 20
97.415054
 30
0.0
  0
VERTEX
  5
114
330
10B
100
AcDbEntity
  8
001
 62
    60
370
    50
100
AcDbVertex
100
AcDb2dVertex
 10
61.299884
 20
97.365441
 30
0.0
  0
VERTEX
  5
115
330
10B
100
AcDbEntity
  8
001
 62
    60
370
    50
100
AcDbVertex
100
AcDb2dVertex
 10
61.299122
 20
97.329029
 30
0.0
  0
SEQEND
  5
10C
330
10B
100
AcDbEntity
  8
001
370
    50
  0
LINE
  5
116
330
1F
100
AcDbEntity
  8
001
 62
    60
370
    50
100
AcDbLine
 10
60.983285
 20
100.213847
 30
0.0
 11
61.299122
 21
97.329029
 31
0.0
  0
POLYLINE
  5
117
330
1F
100
AcDbEntity
  8
001
 62
     5
370
    50
100
AcDb2dPolyline
 66
     1
 10
0.0
 20
0.0
 30
0.0
  0
VERTEX
  5
119
330
117
100
AcDbEntity
  8
001
 62
     5
370
    50
100
AcDbVertex
100
AcDb2dVertex
 10
66.963922
 20
87.637201
 30
0.0
  0
VERTEX
  5
11A
330
117
100
AcDbEntity
  8
001
 62
     5
370
    50
100
AcDbVertex
100
AcDb2dVertex
 10
67.0085
 20
87.606221
 30
0.0
  0
VERTEX
  5
11B
330
117
100
AcDbEntity
  8
001
 62
     5
370
    50
100
AcDbVertex
100
AcDb2dVertex
 10
67.074039
 20
87.564913
 30
0.0
  0
VERTEX
  5
11C
330
117
100
AcDbEntity
  8
001
 62
     5
370
    50
100
AcDbVertex
100
AcDb2dVertex
 10
67.408453
 20
87.419503
 30
0.0
  0
VERTEX
  5
11D
330
117
100
AcDbEntity
  8
001
 62
     5
370
    50
100
AcDbVertex
100
AcDb2dVertex
 10
67.758288
 20
87.36884
 30
0.0
  0
VERTEX
  5
11E
330
117
100
AcDbEntity
  8
001
 62
     5
370
    50
100
AcDbVertex
100
AcDb2dVertex
 10
68.042132
 20
87.35018
 30
0.0
  0
VERTEX
  5
11F
330
117
100
AcDbEntity
  8
001
 62
     5
370
    50
100
AcDbVertex
100
AcDb2dVertex
 10
68.25005
 20
87.343333
 30
0.0
  0
SEQEND
  5
118
330
117
100
AcDbEntity
  8
001
370
    50
  0
POLYLINE
  5
120
330
1F
100
AcDbEntity
  8
001
 62
     5
370
    50
100
AcDb2dPolyline
 66
     1
 10
0.0
 20
0.0
 30
0.0
  0
VERTEX
  5
122
330
120
100
AcDbEntity
  8
001
 62
     5
370
    50
100
AcDbVertex
100
AcDb2dVertex
 10
68.25005
 20
87.343333
 30
0.0
  0
VERTEX
  5
123
330
120
100
AcDbEntity
  8
001
 62
     5
370
    50
100
AcDbVertex
100
AcDb2dVertex
 10
68.29208
 20
87.344187
 30
0.0
  0
VERTEX
  5
124
330
120
100
AcDbEntity
  8
001
 62
     5
370
    50
100
AcDbVertex
100
AcDb2dVertex
 10
68.351746
 20
87.345872
 30
0.0
  0
VERTEX
  5
125
330
120
100
AcDbEntity
  8
001
 62
     5
370
    50
100
AcDbVertex
100
AcDb2dVertex
 10
68.517211
 20
87.354469
 30
0.0
  0
VERTEX
  5
126
330
120
100
AcDbEntity
  8
001
 62
     5
370
    50
100
AcDbVertex
100
AcDb2dVertex
 10
68.663673
 20
87.368775
 30
0.0
  0
VERTEX
  5
127
330
120
100
AcDbEntity
  8
001
 62
     5
370
    50
100
AcDbVertex
100
AcDb2dVertex
 10
68.81782
 20
87.389263
 30
0.0
  0
VERTEX
  5
128
330
120
100
AcDbEntity
  8
001
 62
     5
370
    50
100
AcDbVertex
100
AcDb2dVertex
 10
68.973166
 20
87.413907
 30
0.0
  0
VERTEX
  5
129
330
120
100
AcDbEntity
  8
001
 62
     5
370
    50
100
AcDbVertex
100
AcDb2dVertex
 10
69.2478
 20
87.470918
 30
0.0
  0
VERTEX
  5
12A
330
120
100
AcDbEntity
  8
001
 62
     5
370
    50
100
AcDbVertex
100
AcDb2dVertex
 10
69.547596
 20
87.564738
 30
0.0
  0
VERTEX
  5
12B
330
120
100
AcDbEntity
  8
001
 62
     5
370
    50
100
AcDbVertex
100
AcDb2dVertex
 10
69.617691
 20
87.590837
 30
0.0
  0
VERTEX
  5
12C
330
120
100
AcDbEntity
  8
001
 62
     5
370
    50
100
AcDbVertex
100
AcDb2dVertex
 10
69.666446
 20
87.609765
 30
0.0
  0
SEQEND
  5
121
330
120
100
AcDbEntity
  8
001
370
    50
  0
POLYLINE
  5
12D
330
1F
100
AcDbEntity
  8
001
 62
     5
370
    50
100
AcDb2dPolyline
 66
     1
 10
0.0
 20
0.0
 30
0.0
  0
VERTEX
  5
12F
330
12D
100
AcDbEntity
  8
001
 62
     5
370
    50
100
AcDbVertex
100
AcDb2dVertex
 10
68.182947
 20
87.433301
 30
0.0
  0
VERTEX
  5
130
330
12D
100
AcDbEntity
  8
001
 62
     5
370
    50
100
AcDbVertex
100
AcDb2dVertex
 10
68.078477
 20
87.518933
 30
0.0
  0
VERTEX
  5
131
330
12D
100
AcDbEntity
  8
001
 62
     5
370
    50
100
AcDbVertex
100
AcDb2dVertex
 10
67.971429
 20
87.601339
 30
0.0
  0
VERTEX
  5
132
330
12D
100
AcDbEntity
  8
001
 62
     5
370
    50
100
AcDbVertex
100
AcDb2dVertex
 10
67.863438
 20
87.674923
 30
0.0
  0
VERTEX
  5
133
330
12D
100
AcDbEntity
  8
001
 62
     5
370
    50
100
AcDbVertex
100
AcDb2dVertex
 10
67.750198
 20
87.739885
 30
0.0
  0
VERTEX
  5
134
330
12D
100
AcDbEntity
  8
001
 62
     5
370
    50
100
AcDbVertex
100
AcDb2dVertex
 10
67.715133
 20
87.757423
 30
0.0
  0
VERTEX
  5
135
330
12D
100
AcDbEntity
  8
001
 62
     5
370
    50
100
AcDbVertex
100
AcDb2dVertex
 10
67.679811
 20
87.774455
 30
0.0
  0
SEQEND
  5
12E
330
12D
100
AcDbEntity
  8
001
370
    50
  0
POLYLINE
  5
136
330
1F
100
AcDbEntity
  8
001
 62
     5
370
    50
100
AcDb2dPolyline
 66
     1
 10
0.0
 20
0.0
 30
0.0
  0
VERTEX
  5
138
330
136
100
AcDbEntity
  8
001
 62
     5
370
    50
100
AcDbVertex
100
AcDb2dVertex
 10
68.760044
 20
87.755769
 30
0.0
  0
VERTEX
  5
139
330
136
100
AcDbEntity
  8
001
 62
     5
370
    50
100
AcDbVertex
100
AcDb2dVertex
 10
68.661378
 20
87.714453
 30
0.0
  0
VERTEX
  5
13A
330
136
100
AcDbEntity
  8
001
 62
     5
370
    50
100
AcDbVertex
100
AcDb2dVertex
 10
68.564175
 20
87.670039
 30
0.0
  0
VERTEX
  5
13B
330
136
100
AcDbEntity
  8
001
 62
     5
370
    50
100
AcDbVertex
100
AcDb2dVertex
 10
68.465511
 20
87.617811
 30
0.0
  0
VERTEX
  5
13C
330
136
100
AcDbEntity
  8
001
 62
     5
370
    50
100
AcDbVertex
100
AcDb2dVertex
 10
68.369838
 20
87.560155
 30
0.0
  0
VERTEX
  5
13D
330
136
100
AcDbEntity
  8
001
 62
     5
370
    50
100
AcDbVertex
100
AcDb2dVertex
 10
68.275678
 20
87.497777
 30
0.0
  0
VERTEX
  5
13E
330
136
100
AcDbEntity
  8
001
 62
     5
370
    50
100
AcDbVertex
100
AcDb2dVertex
 10
68.182947
 20
87.433301
 30
0.0
  0
SEQEND
  5
137
330
136
100
AcDbEntity
  8
001
370
    50
  0
LINE
  5
13F
330
1F
100
AcDbEntity
  8
001
 62
     5
370
    50
100
AcDbLine
 10
68.143634
 20
87.792382
 30
0.0
 11
68.182947
 21
87.433301
 31
0.0
  0
POLYLINE
  5
140
330
1F
100
AcDbEntity
  8
001
 62
     5
370
    50
100
AcDb2dPolyline
 66
     1
 10
0.0
 20
0.0
 30
0.0
  0
VERTEX
  5
142
330
140
100
AcDbEntity
  8
001
 62
     5
370
    50
100
AcDbVertex
100
AcDb2dVertex
 10
66.891385
 20
111.52128
 30
0.0
  0
VERTEX
  5
143
330
140
100
AcDbEntity
  8
001
 62
     5
370
    50
100
AcDbVertex
100
AcDb2dVertex
 10
66.87166
 20
111.486098
 30
0.0
  0
VERTEX
  5
144
330
140
100
AcDbEntity
  8
001
 62
     5
370
    50
100
AcDbVertex
100
AcDb2dVertex
 10
66.846348
 20
111.4363
 30
0.0
  0
VERTEX
  5
145
330
140
100
AcDbEntity
  8
001
 62
     5
370
    50
100
AcDbVertex
100
AcDb2dVertex
 10
66.812549
 20
111.350077
 30
0.0
  0
VERTEX
  5
146
330
140
100
AcDbEntity
  8
001
 62
     5
370
    50
100
AcDbVertex
100
AcDb2dVertex
 10
66.797034
 20
111.259331
 30
0.0
  0
VERTEX
  5
147
330
140
100
AcDbEntity
  8
001
 62
     5
370
    50
100
AcDbVertex
100
AcDb2dVertex
 10
66.79352
 20
111.197268
 30
0.0
  0
VERTEX
  5
148
330
140
100
AcDbEntity
  8
001
 62
     5
370
    50
100
AcDbVertex
100
AcDb2dVertex
 10
66.793335
 20
111.152147
 30
0.0
  0
SEQEND
  5
141
330
140
100
AcDbEntity
  8
001
370
    50
  0
LINE
  5
149
330
1F
100
AcDbEntity
  8
001
 62
     5
370
    50
100
AcDbLine
 10
67.060348
 20
111.023921
 30
0.0
 11
67.103693
 21
111.122569
 31
0.0
  0
LINE
  5
14A
330
1F
100
AcDbEntity
  8
001
 62
    60
370
    50
100
AcDbLine
 10
62.93468
 20
101.4223
 30
0.0
 11
61.645047
 21
102.283791
 31
0.0
  0
POLYLINE
  5
14B
330
1F
100
AcDbEntity
  8
001
 62
    60
370
    50
100
AcDb2dPolyline
 66
     1
 10
0.0
 20
0.0
 30
0.0
  0
VERTEX
  5
14D
330
14B
100
AcDbEntity
  8
001
 62
    60
370
    50
100
AcDbVertex
100
AcDb2dVertex
 10
61.300952
 20
102.853164
 30
0.0
  0
VERTEX
  5
14E
330
14B
100
AcDbEntity
  8
001
 62
    60
370
    50
100
AcDbVertex
100
AcDb2dVertex
 10
61.299253
 20
102.802026
 30
0.0
  0
VERTEX
  5
14F
330
14B
100
AcDbEntity
  8
001
 62
    60
370
    50
100
AcDbVertex
100
AcDb2dVertex
 10
61.30424
 20
102.731653
 30
0.0
  0
VERTEX
  5
150
330
14B
100
AcDbEntity
  8
001
 62
    60
370
    50
100
AcDbVertex
100
AcDb2dVertex
 10
61.319753
 20
102.666165
 30
0.0
  0
VERTEX
  5
151
330
14B
100
AcDbEntity
  8
001
 62
    60
370
    50
100
AcDbVertex
100
AcDb2dVertex
 10
61.343345
 20
102.609416
 30
0.0
  0
VERTEX
  5
152
330
14B
100
AcDbEntity
  8
001
 62
    60
370
    50
100
AcDbVertex
100
AcDb2dVertex
 10
61.375424
 20
102.54974
 30
0.0
  0
VERTEX
  5
153
330
14B
100
AcDbEntity
  8
001
 62
    60
370
    50
100
AcDbVertex
100
AcDb2dVertex
 10
61.41708
 20
102.490169
 30
0.0
  0
VERTEX
  5
154
330
14B
100
AcDbEntity
  8
001
 62
    60
370
    50
100
AcDbVertex
100
AcDb2dVertex
 10
61.541371
 20
102.364838
 30
0.0
  0
VERTEX
  5
155
330
14B
100
AcDbEntity
  8
001
 62
    60
370
    50
100
AcDbVertex
100
AcDb2dVertex
 10
61.645047
 20
102.283791
 30
0.0
  0
SEQEND
  5
14C
330
14B
100
AcDbEntity
  8
001
370
    50
  0
LINE
  5
156
330
1F
100
AcDbEntity
  8
001
 62
    60
370
    50
100
AcDbLine
 10
61.645047
 20
103.267597
 30
0.0
 11
61.6821
 21
103.286345
 31
0.0
  0
POLYLINE
  5
157
330
1F
100
AcDbEntity
  8
001
 62
    60
370
    50
100
AcDb2dPolyline
 66
     1
 10
0.0
 20
0.0
 30
0.0
  0
VERTEX
  5
159
330
157
100
AcDbEntity
  8
001
 62
    60
370
    50
100
AcDbVertex
100
AcDb2dVertex
 10
61.645047
 20
103.267597
 30
0.0
  0
VERTEX
  5
15A
330
157
100
AcDbEntity
  8
001
 62
    60
370
    50
100
AcDbVertex
100
AcDb2dVertex
 10
61.582877
 20
103.232139
 30
0.0
  0
VERTEX
  5
15B
330
157
100
AcDbEntity
  8
001
 62
    60
370
    50
100
AcDbVertex
100
AcDb2dVertex
 10
61.501565
 20
103.17721
 30
0.0
  0
VERTEX
  5
15C
330
157
100
AcDbEntity
  8
001
 62
    60
370
    50
100
AcDbVertex
100
AcDb2dVertex
 10
61.446119
 20
103.129015
 30
0.0
  0
VERTEX
  5
15D
330
157
100
AcDbEntity
  8
001
 62
    60
370
    50
100
AcDbVertex
100
AcDb2dVertex
 10
61.401137
 20
103.07938
 30
0.0
  0
VERTEX
  5
15E
330
157
100
AcDbEntity
  8
001
 62
    60
370
    50
100
AcDbVertex
100
AcDb2dVertex
 10
61.364637
 20
103.030151
 30
0.0
  0
VERTEX
  5
15F
330
157
100
AcDbEntity
  8
001
 62
    60
370
    50
100
AcDbVertex
100
AcDb2dVertex
 10
61.333581
 20
102.97026
 30
0.0
  0
VERTEX
  5
160
330
157
100
AcDbEntity
  8
001
 62
    60
370
    50
100
AcDbVertex
100
AcDb2dVertex
 10
61.311668
 20
102.90317
 30
0.0
  0
VERTEX
  5
161
330
157
100
AcDbEntity
  8
001
 62
    60
370
    50
100
AcDbVertex
100
AcDb2dVertex
 10
61.300952
 20
102.853165
 30
0.0
  0
SEQEND
  5
158
330
157
100
AcDbEntity
  8
001
370
    50
  0
LINE
  5
162
330
1F
100
AcDbEntity
  8
001
 62
    60
370
    50
100
AcDbLine
 10
61.300952
 20
102.853165
 30
0.0
 11
60.985115
 21
100.284765
 31
0.0
  0
POLYLINE
  5
163
330
1F
100
AcDbEntity
  8
001
 62
    60
370
    50
100
AcDb2dPolyline
 66
     1
 10
0.0
 20
0.0
 30
0.0
  0
VERTEX
  5
165
330
163
100
AcDbEntity
  8
001
 62
    60
370
    50
100
AcDbVertex
100
AcDb2dVertex
 10
60.9821
 20
100.235825
 30
0.0
  0
VERTEX
  5
166
330
163
100
AcDbEntity
  8
001
 62
    60
370
    50
100
AcDbVertex
100
AcDb2dVertex
 10
60.983298
 20
100.206199
 30
0.0
  0
VERTEX
  5
167
330
163
100
AcDbEntity
  8
001
 62
    60
370
    50
100
AcDbVertex
100
AcDb2dVertex
 10
60.988403
 20
100.163253
 30
0.0
  0
VERTEX
  5
168
330
163
100
AcDbEntity
  8
001
 62
    60
370
    50
100
AcDbVertex
100
AcDb2dVertex
 10
60.989027
 20
100.159751
 30
0.0
  0
VERTEX
  5
169
330
163
100
AcDbEntity
  8
001
 62
    60
370
    50
100
AcDbVertex
100
AcDb2dVertex
 10
60.98947
 20
100.157357
 30
0.0
  0
SEQEND
  5
164
330
163
100
AcDbEntity
  8
001
370
    50
  0
POLYLINE
  5
16A
330
1F
100
AcDbEntity
  8
001
 62
    60
370
    50
100
AcDb2dPolyline
 66
     1
 10
0.0
 20
0.0
 30
0.0
  0
VERTEX
  5
16C
330
16A
100
AcDbEntity
  8
001
 62
    60
370
    50
100
AcDbVertex
100
AcDb2dVertex
 10
60.985115
 20
100.284765
 30
0.0
  0
VERTEX
  5
16D
330
16A
100
AcDbEntity
  8
001
 62
    60
370
    50
100
AcDbVertex
100
AcDb2dVertex
 10
60.984039
 20
100.274868
 30
0.0
  0
VERTEX
  5
16E
330
16A
100
AcDbEntity
  8
001
 62
    60
370
    50
100
AcDbVertex
100
AcDb2dVertex
 10
60.982866
 20
100.260371
 30
0.0
  0
VERTEX
  5
16F
330
16A
100
AcDbEntity
  8
001
 62
    60
370
    50
100
AcDbVertex
100
AcDb2dVertex
 10
60.982248
 20
100.245803
 30
0.0
  0
VERTEX
  5
170
330
16A
100
AcDbEntity
  8
001
 62
    60
370
    50
100
AcDbVertex
100
AcDb2dVertex
 10
60.9821
 20
100.235825
 30
0.0
  0
SEQEND
  5
16B
330
16A
100
AcDbEntity
  8
001
370
    50
  0
POLYLINE
  5
171
330
1F
100
AcDbEntity
  8
001
 62
     5
370
    50
100
AcDb2dPolyline
 66
     1
 10
0.0
 20
0.0
 30
0.0
  0
VERTEX
  5
173
330
171
100
AcDbEntity
  8
001
 62
     5
370
    50
100
AcDbVertex
100
AcDb2dVertex
 10
67.565689
 20
38.391425
 30
0.0
  0
VERTEX
  5
174
330
171
100
AcDbEntity
  8
001
 62
     5
370
    50
100
AcDbVertex
100
AcDb2dVertex
 10
67.625679
 20
38.403648
 30
0.0
  0
VERTEX
  5
175
330
171
100
AcDbEntity
  8
001
 62
     5
370
    50
100
AcDbVertex
100
AcDb2dVertex
 10
67.709846
 20
38.423359
 30
0.0
  0
VERTEX
  5
176
330
171
100
AcDbEntity
  8
001
 62
     5
370
    50
100
AcDbVertex
100
AcDb2dVertex
 10
67.872677
 20
38.473748
 30
0.0
  0
VERTEX
  5
177
330
171
100
AcDbEntity
  8
001
 62
     5
370
    50
100
AcDbVertex
100
AcDb2dVertex
 10
68.010722
 20
38.531876
 30
0.0
  0
VERTEX
  5
178
330
171
100
AcDbEntity
  8
001
 62
     5
370
    50
100
AcDbVertex
100
AcDb2dVertex
 10
68.145599
 20
38.60024
 30
0.0
  0
VERTEX
  5
179
330
171
100
AcDbEntity
  8
001
 62
     5
370
    50
100
AcDbVertex
100
AcDb2dVertex
 10
68.287661
 20
38.691182
 30
0.0
  0
VERTEX
  5
17A
330
171
100
AcDbEntity
  8
001
 62
     5
370
    50
100
AcDbVertex
100
AcDb2dVertex
 10
68.432856
 20
38.806451
 30
0.0
  0
VERTEX
  5
17B
330
171
100
AcDbEntity
  8
001
 62
     5
370
    50
100
AcDbVertex
100
AcDb2dVertex
 10
68.532247
 20
38.896434
 30
0.0
  0
SEQEND
  5
172
330
171
100
AcDbEntity
  8
001
370
    50
  0
POLYLINE
  5
17C
330
1F
100
AcDbEntity
  8
001
 62
     5
370
    50
100
AcDb2dPolyline
 66
     1
 10
0.0
 20
0.0
 30
0.0
  0
VERTEX
  5
17E
330
17C
100
AcDbEntity
  8
001
 62
     5
370
    50
100
AcDbVertex
100
AcDb2dVertex
 10
66.096078
 20
41.268534
 30
0.0
  0
VERTEX
  5
17F
330
17C
100
AcDbEntity
  8
001
 62
     5
370
    50
100
AcDbVertex
100
AcDb2dVertex
 10
66.00576
 20
41.169704
 30
0.0
  0
VERTEX
  5
180
330
17C
100
AcDbEntity
  8
001
 62
     5
370
    50
100
AcDbVertex
100
AcDb2dVertex
 10
65.924487
 20
41.063295
 30
0.0
  0
VERTEX
  5
181
330
17C
100
AcDbEntity
  8
001
 62
     5
370
    50
100
AcDbVertex
100
AcDb2dVertex
 10
65.852865
 20
40.95005
 30
0.0
  0
VERTEX
  5
182
330
17C
100
AcDbEntity
  8
001
 62
     5
370
    50
100
AcDbVertex
100
AcDb2dVertex
 10
65.791442
 20
40.83102
 30
0.0
  0
VERTEX
  5
183
330
17C
100
AcDbEntity
  8
001
 62
     5
370
    50
100
AcDbVertex
100
AcDb2dVertex
 10
65.740627
 20
40.707012
 30
0.0
  0
VERTEX
  5
184
330
17C
100
AcDbEntity
  8
001
 62
     5
370
    50
100
AcDbVertex
100
AcDb2dVertex
 10
65.700985
 20
40.578768
 30
0.0
  0
VERTEX
  5
185
330
17C
100
AcDbEntity
  8
001
 62
     5
370
    50
100
AcDbVertex
100
AcDb2dVertex
 10
65.651737
 20
40.179846
 30
0.0
  0
VERTEX
  5
186
330
17C
100
AcDbEntity
  8
001
 62
     5
370
    50
100
AcDbVertex
100
AcDb2dVertex
 10
65.705704
 20
39.780417
 30
0.0
  0
VERTEX
  5
187
330
17C
100
AcDbEntity
  8
001
 62
     5
370
    50
100
AcDbVertex
100
AcDb2dVertex
 10
65.799296
 20
39.526818
 30
0.0
  0
VERTEX
  5
188
330
17C
100
AcDbEntity
  8
001
 62
     5
370
    50
100
AcDbVertex
100
AcDb2dVertex
 10
65.934944
 20
39.294047
 30
0.0
  0
VERTEX
  5
189
330
17C
100
AcDbEntity
  8
001
 62
     5
370
    50
100
AcDbVertex
100
AcDb2dVertex
 10
66.017523
 20
39.186935
 30
0.0
  0
VERTEX
  5
18A
330
17C
100
AcDbEntity
  8
001
 62
     5
370
    50
100
AcDbVertex
100
AcDb2dVertex
 10
66.108969
 20
39.0874
 30
0.0
  0
VERTEX
  5
18B
330
17C
100
AcDbEntity
  8
001
 62
     5
370
    50
100
AcDbVertex
100
AcDb2dVertex
 10
66.208672
 20
38.996137
 30
0.0
  0
VERTEX
  5
18C
330
17C
100
AcDbEntity
  8
001
 62
     5
370
    50
100
AcDbVertex
100
AcDb2dVertex
 10
66.315936
 20
38.913755
 30
0.0
  0
VERTEX
  5
18D
330
17C
100
AcDbEntity
  8
001
 62
     5
370
    50
100
AcDbVertex
100
AcDb2dVertex
 10
66.548956
 20
38.778535
 30
0.0
  0
VERTEX
  5
18E
330
17C
100
AcDbEntity
  8
001
 62
     5
370
    50
100
AcDbVertex
100
AcDb2dVertex
 10
66.802727
 20
38.68541
 30
0.0
  0
VERTEX
  5
18F
330
17C
100
AcDbEntity
  8
001
 62
     5
370
    50
100
AcDbVertex
100
AcDb2dVertex
 10
67.202255
 20
38.632178
 30
0.0
  0
VERTEX
  5
190
330
17C
100
AcDbEntity
  8
001
 62
     5
370
    50
100
AcDbVertex
100
AcDb2dVertex
 10
67.601085
 20
38.68216
 30
0.0
  0
VERTEX
  5
191
330
17C
100
AcDbEntity
  8
001
 62
     5
370
    50
100
AcDbVertex
100
AcDb2dVertex
 10
67.729256
 20
38.722038
 30
0.0
  0
VERTEX
  5
192
330
17C
100
AcDbEntity
  8
001
 62
     5
370
    50
100
AcDbVertex
100
AcDb2dVertex
 10
67.85317
 20
38.77308
 30
0.0
  0
VERTEX
  5
193
330
17C
100
AcDbEntity
  8
001
 62
     5
370
    50
100
AcDbVertex
100
AcDb2dVertex
 10
67.972087
 20
38.834722
 30
0.0
  0
VERTEX
  5
194
330
17C
100
AcDbEntity
  8
001
 62
     5
370
    50
100
AcDbVertex
100
AcDb2dVertex
 10
68.0852
 20
38.906552
 30
0.0
  0
VERTEX
  5
195
330
17C
100
AcDbEntity
  8
001
 62
     5
370
    50
100
AcDbVertex
100
AcDb2dVertex
 10
68.191459
 20
38.988021
 30
0.0
  0
VERTEX
  5
196
330
17C
100
AcDbEntity
  8
001
 62
     5
370
    50
100
AcDbVertex
100
AcDb2dVertex
 10
68.290124
 20
39.07852
 30
0.0
  0
VERTEX
  5
197
330
17C
100
AcDbEntity
  8
001
 62
     5
370
    50
100
AcDbVertex
100
AcDb2dVertex
 10
68.380442
 20
39.177351
 30
0.0
  0
VERTEX
  5
198
330
17C
100
AcDbEntity
  8
001
 62
     5
370
    50
100
AcDbVertex
100
AcDb2dVertex
 10
68.461715
 20
39.28376
 30
0.0
  0
VERTEX
  5
199
330
17C
100
AcDbEntity
  8
001
 62
     5
370
    50
100
AcDbVertex
100
AcDb2dVertex
 10
68.533336
 20
39.397005
 30
0.0
  0
VERTEX
  5
19A
330
17C
100
AcDbEntity
  8
001
 62
     5
370
    50
100
AcDbVertex
100
AcDb2dVertex
 10
68.59476
 20
39.516035
 30
0.0
  0
VERTEX
  5
19B
330
17C
100
AcDbEntity
  8
001
 62
     5
370
    50
100
AcDbVertex
100
AcDb2dVertex
 10
68.645574
 20
39.640043
 30
0.0
  0
VERTEX
  5
19C
330
17C
100
AcDbEntity
  8
001
 62
     5
370
    50
100
AcDbVertex
100
AcDb2dVertex
 10
68.685216
 20
39.768287
 30
0.0
  0
VERTEX
  5
19D
330
17C
100
AcDbEntity
  8
001
 62
     5
370
    50
100
AcDbVertex
100
AcDb2dVertex
 10
68.734465
 20
40.167209
 30
0.0
  0
VERTEX
  5
19E
330
17C
100
AcDbEntity
  8
001
 62
     5
370
    50
100
AcDbVertex
100
AcDb2dVertex
 10
68.680498
 20
40.566638
 30
0.0
  0
VERTEX
  5
19F
330
17C
100
AcDbEntity
  8
001
 62
     5
370
    50
100
AcDbVertex
100
AcDb2dVertex
 10
68.586906
 20
40.820237
 30
0.0
  0
VERTEX
  5
1A0
330
17C
100
AcDbEntity
  8
001
 62
     5
370
    50
100
AcDbVertex
100
AcDb2dVertex
 10
68.451258
 20
41.053008
 30
0.0
  0
VERTEX
  5
1A1
330
17C
100
AcDbEntity
  8
001
 62
     5
370
    50
100
AcDbVertex
100
AcDb2dVertex
 10
68.368678
 20
41.16012
 30
0.0
  0
VERTEX
  5
1A2
330
17C
100
AcDbEntity
  8
001
 62
     5
370
    50
100
AcDbVertex
100
AcDb2dVertex
 10
68.277232
 20
41.259655
 30
0.0
  0
VERTEX
  5
1A3
330
17C
100
AcDbEntity
  8
001
 62
     5
370
    50
100
AcDbVertex
100
AcDb2dVertex
 10
68.177529
 20
41.350918
 30
0.0
  0
VERTEX
  5
1A4
330
17C
100
AcDbEntity
  8
001
 62
     5
370
    50
100
AcDbVertex
100
AcDb2dVertex
 10
68.070266
 20
41.4333
 30
0.0
  0
VERTEX
  5
1A5
330
17C
100
AcDbEntity
  8
001
 62
     5
370
    50
100
AcDbVertex
100
AcDb2dVertex
 10
67.837246
 20
41.56852
 30
0.0
  0
VERTEX
  5
1A6
330
17C
100
AcDbEntity
  8
001
 62
     5
370
    50
100
AcDbVertex
100
AcDb2dVertex
 10
67.583475
 20
41.661645
 30
0.0
  0
VERTEX
  5
1A7
330
17C
100
AcDbEntity
  8
001
 62
     5
370
    50
100
AcDbVertex
100
AcDb2dVertex
 10
67.183947
 20
41.714877
 30
0.0
  0
VERTEX
  5
1A8
330
17C
100
AcDbEntity
  8
001
 62
     5
370
    50
100
AcDbVertex
100
AcDb2dVertex
 10
66.785117
 20
41.664895
 30
0.0
  0
VERTEX
  5
1A9
330
17C
100
AcDbEntity
  8
001
 62
     5
370
    50
100
AcDbVertex
100
AcDb2dVertex
 10
66.656945
 20
41.625017
 30
0.0
  0
VERTEX
  5
1AA
330
17C
100
AcDbEntity
  8
001
 62
     5
370
    50
100
AcDbVertex
100
AcDb2dVertex
 10
66.533031
 20
41.573975
 30
0.0
  0
VERTEX
  5
1AB
330
17C
100
AcDbEntity
  8
001
 62
     5
370
    50
100
AcDbVertex
100
AcDb2dVertex
 10
66.414114
 20
41.512333
 30
0.0
  0
VERTEX
  5
1AC
330
17C
100
AcDbEntity
  8
001
 62
     5
370
    50
100
AcDbVertex
100
AcDb2dVertex
 10
66.301001
 20
41.440503
 30
0.0
  0
VERTEX
  5
1AD
330
17C
100
AcDbEntity
  8
001
 62
     5
370
    50
100
AcDbVertex
100
AcDb2dVertex
 10
66.194742
 20
41.359034
 30
0.0
  0
VERTEX
  5
1AE
330
17C
100
AcDbEntity
  8
001
 62
     5
370
    50
100
AcDbVertex
100
AcDb2dVertex
 10
66.096078
 20
41.268534
 30
0.0
  0
SEQEND
  5
17D
330
17C
100
AcDbEntity
  8
001
370
    50
  0
POLYLINE
  5
1AF
330
1F
100
AcDbEntity
  8
001
 62
     5
370
    50
100
AcDb2dPolyline
 66
     1
 10
0.0
 20
0.0
 30
0.0
  0
VERTEX
  5
1B1
330
1AF
100
AcDbEntity
  8
001
 62
     5
370
    50
100
AcDbVertex
100
AcDb2dVertex
 10
65.913547
 20
41.510322
 30
0.0
  0
VERTEX
  5
1B2
330
1AF
100
AcDbEntity
  8
001
 62
     5
370
    50
100
AcDbVertex
100
AcDb2dVertex
 10
65.823678
 20
41.410325
 30
0.0
  0
VERTEX
  5
1B3
330
1AF
100
AcDbEntity
  8
001
 62
     5
370
    50
100
AcDbVertex
100
AcDb2dVertex
 10
65.708744
 20
41.265359
 30
0.0
  0
VERTEX
  5
1B4
330
1AF
100
AcDbEntity
  8
001
 62
     5
370
    50
100
AcDbVertex
100
AcDb2dVertex
 10
65.618409
 20
41.125336
 30
0.0
  0
VERTEX
  5
1B5
330
1AF
100
AcDbEntity
  8
001
 62
     5
370
    50
100
AcDbVertex
100
AcDb2dVertex
 10
65.549949
 20
40.988127
 30
0.0
  0
VERTEX
  5
1B6
330
1AF
100
AcDbEntity
  8
001
 62
     5
370
    50
100
AcDbVertex
100
AcDb2dVertex
 10
65.490761
 20
40.841579
 30
0.0
  0
VERTEX
  5
1B7
330
1AF
100
AcDbEntity
  8
001
 62
     5
370
    50
100
AcDbVertex
100
AcDb2dVertex
 10
65.441985
 20
40.687052
 30
0.0
  0
VERTEX
  5
1B8
330
1AF
100
AcDbEntity
  8
001
 62
     5
370
    50
100
AcDbVertex
100
AcDb2dVertex
 10
65.381658
 20
40.20944
 30
0.0
  0
VERTEX
  5
1B9
330
1AF
100
AcDbEntity
  8
001
 62
     5
370
    50
100
AcDbVertex
100
AcDb2dVertex
 10
65.447616
 20
39.734182
 30
0.0
  0
VERTEX
  5
1BA
330
1AF
100
AcDbEntity
  8
001
 62
     5
370
    50
100
AcDbVertex
100
AcDb2dVertex
 10
65.559739
 20
39.431741
 30
0.0
  0
VERTEX
  5
1BB
330
1AF
100
AcDbEntity
  8
001
 62
     5
370
    50
100
AcDbVertex
100
AcDb2dVertex
 10
65.721225
 20
39.153675
 30
0.0
  0
VERTEX
  5
1BC
330
1AF
100
AcDbEntity
  8
001
 62
     5
370
    50
100
AcDbVertex
100
AcDb2dVertex
 10
65.819455
 20
39.025758
 30
0.0
  0
VERTEX
  5
1BD
330
1AF
100
AcDbEntity
  8
001
 62
     5
370
    50
100
AcDbVertex
100
AcDb2dVertex
 10
65.928933
 20
38.907032
 30
0.0
  0
VERTEX
  5
1BE
330
1AF
100
AcDbEntity
  8
001
 62
     5
370
    50
100
AcDbVertex
100
AcDb2dVertex
 10
66.049014
 20
38.798298
 30
0.0
  0
VERTEX
  5
1BF
330
1AF
100
AcDbEntity
  8
001
 62
     5
370
    50
100
AcDbVertex
100
AcDb2dVertex
 10
66.175958
 20
38.699778
 30
0.0
  0
VERTEX
  5
1C0
330
1AF
100
AcDbEntity
  8
001
 62
     5
370
    50
100
AcDbVertex
100
AcDb2dVertex
 10
66.443271
 20
38.536509
 30
0.0
  0
VERTEX
  5
1C1
330
1AF
100
AcDbEntity
  8
001
 62
     5
370
    50
100
AcDbVertex
100
AcDb2dVertex
 10
66.756967
 20
38.427238
 30
0.0
  0
VERTEX
  5
1C2
330
1AF
100
AcDbEntity
  8
001
 62
     5
370
    50
100
AcDbVertex
100
AcDb2dVertex
 10
67.221665
 20
38.375836
 30
0.0
  0
VERTEX
  5
1C3
330
1AF
100
AcDbEntity
  8
001
 62
     5
370
    50
100
AcDbVertex
100
AcDb2dVertex
 10
67.565689
 20
38.391425
 30
0.0
  0
SEQEND
  5
1B0
330
1AF
100
AcDbEntity
  8
001
370
    50
  0
POLYLINE
  5
1C4
330
1F
100
AcDbEntity
  8
001
 62
     5
370
    50
100
AcDb2dPolyline
 66
     1
 10
0.0
 20
0.0
 30
0.0
  0
VERTEX
  5
1C6
330
1C4
100
AcDbEntity
  8
001
 62
     5
370
    50
100
AcDbVertex
100
AcDb2dVertex
 10
68.532247
 20
38.896434
 30
0.0
  0
VERTEX
  5
1C7
330
1C4
100
AcDbEntity
  8
001
 62
     5
370
    50
100
AcDbVertex
100
AcDb2dVertex
 10
68.622116
 20
38.996431
 30
0.0
  0
VERTEX
  5
1C8
330
1C4
100
AcDbEntity
  8
001
 62
     5
370
    50
100
AcDbVertex
100
AcDb2dVertex
 10
68.737049
 20
39.141398
 30
0.0
  0
VERTEX
  5
1C9
330
1C4
100
AcDbEntity
  8
001
 62
     5
370
    50
100
AcDbVertex
100
AcDb2dVertex
 10
68.827383
 20
39.281421
 30
0.0
  0
VERTEX
  5
1CA
330
1C4
100
AcDbEntity
  8
001
 62
     5
370
    50
100
AcDbVertex
100
AcDb2dVertex
 10
68.895845
 20
39.418629
 30
0.0
  0
VERTEX
  5
1CB
330
1C4
100
AcDbEntity
  8
001
 62
     5
370
    50
100
AcDbVertex
100
AcDb2dVertex
 10
68.955037
 20
39.565178
 30
0.0
  0
VERTEX
  5
1CC
330
1C4
100
AcDbEntity
  8
001
 62
     5
370
    50
100
AcDbVertex
100
AcDb2dVertex
 10
69.003809
 20
39.719705
 30
0.0
  0
VERTEX
  5
1CD
330
1C4
100
AcDbEntity
  8
001
 62
     5
370
    50
100
AcDbVertex
100
AcDb2dVertex
 10
69.06405
 20
40.197301
 30
0.0
  0
VERTEX
  5
1CE
330
1C4
100
AcDbEntity
  8
001
 62
     5
370
    50
100
AcDbVertex
100
AcDb2dVertex
 10
68.998177
 20
40.672575
 30
0.0
  0
VERTEX
  5
1CF
330
1C4
100
AcDbEntity
  8
001
 62
     5
370
    50
100
AcDbVertex
100
AcDb2dVertex
 10
68.88627
 20
40.975056
 30
0.0
  0
VERTEX
  5
1D0
330
1C4
100
AcDbEntity
  8
001
 62
     5
370
    50
100
AcDbVertex
100
AcDb2dVertex
 10
68.724568
 20
41.253081
 30
0.0
  0
VERTEX
  5
1D1
330
1C4
100
AcDbEntity
  8
001
 62
     5
370
    50
100
AcDbVertex
100
AcDb2dVertex
 10
68.62602
 20
41.380939
 30
0.0
  0
VERTEX
  5
1D2
330
1C4
100
AcDbEntity
  8
001
 62
     5
370
    50
100
AcDbVertex
100
AcDb2dVertex
 10
68.51686
 20
41.499724
 30
0.0
  0
VERTEX
  5
1D3
330
1C4
100
AcDbEntity
  8
001
 62
     5
370
    50
100
AcDbVertex
100
AcDb2dVertex
 10
68.397874
 20
41.608665
 30
0.0
  0
VERTEX
  5
1D4
330
1C4
100
AcDbEntity
  8
001
 62
     5
370
    50
100
AcDbVertex
100
AcDb2dVertex
 10
68.269836
 20
41.706978
 30
0.0
  0
VERTEX
  5
1D5
330
1C4
100
AcDbEntity
  8
001
 62
     5
370
    50
100
AcDbVertex
100
AcDb2dVertex
 10
67.991514
 20
41.868168
 30
0.0
  0
VERTEX
  5
1D6
330
1C4
100
AcDbEntity
  8
001
 62
     5
370
    50
100
AcDbVertex
100
AcDb2dVertex
 10
67.688827
 20
41.979519
 30
0.0
  0
VERTEX
  5
1D7
330
1C4
100
AcDbEntity
  8
001
 62
     5
370
    50
100
AcDbVertex
100
AcDb2dVertex
 10
67.213432
 20
42.044518
 30
0.0
  0
VERTEX
  5
1D8
330
1C4
100
AcDbEntity
  8
001
 62
     5
370
    50
100
AcDbVertex
100
AcDb2dVertex
 10
66.735948
 20
41.983398
 30
0.0
  0
VERTEX
  5
1D9
330
1C4
100
AcDbEntity
  8
001
 62
     5
370
    50
100
AcDbVertex
100
AcDb2dVertex
 10
66.581512
 20
41.934342
 30
0.0
  0
VERTEX
  5
1DA
330
1C4
100
AcDbEntity
  8
001
 62
     5
370
    50
100
AcDbVertex
100
AcDb2dVertex
 10
66.435072
 20
41.87488
 30
0.0
  0
VERTEX
  5
1DB
330
1C4
100
AcDbEntity
  8
001
 62
     5
370
    50
100
AcDbVertex
100
AcDb2dVertex
 10
66.297989
 20
41.806166
 30
0.0
  0
VERTEX
  5
1DC
330
1C4
100
AcDbEntity
  8
001
 62
     5
370
    50
100
AcDbVertex
100
AcDb2dVertex
 10
66.158133
 20
41.715575
 30
0.0
  0
VERTEX
  5
1DD
330
1C4
100
AcDbEntity
  8
001
 62
     5
370
    50
100
AcDbVertex
100
AcDb2dVertex
 10
66.013378
 20
41.600375
 30
0.0
  0
VERTEX
  5
1DE
330
1C4
100
AcDbEntity
  8
001
 62
     5
370
    50
100
AcDbVertex
100
AcDb2dVertex
 10
65.913547
 20
41.510322
 30
0.0
  0
SEQEND
  5
1C5
330
1C4
100
AcDbEntity
  8
001
370
    50
  0
LINE
  5
1DF
330
1F
100
AcDbEntity
  8
001
 62
     5
370
    50
100
AcDbLine
 10
66.241339
 20
41.838718
 30
0.0
 11
65.913547
 21
41.510322
 31
0.0
  0
LINE
  5
1E0
330
1F
100
AcDbEntity
  8
001
 62
     5
370
    50
100
AcDbLine
 10
68.532247
 20
38.896434
 30
0.0
 11
68.860039
 21
39.22483
 31
0.0
  0
POLYLINE
  5
1E1
330
1F
100
AcDbEntity
  8
001
 62
    60
370
    50
100
AcDb2dPolyline
 66
     1
 10
0.0
 20
0.0
 30
0.0
  0
VERTEX
  5
1E3
330
1E1
100
AcDbEntity
  8
001
 62
    60
370
    50
100
AcDbVertex
100
AcDb2dVertex
 10
68.031101
 20
46.028654
 30
0.0
  0
VERTEX
  5
1E4
330
1E1
100
AcDbEntity
  8
001
 62
    60
370
    50
100
AcDbVertex
100
AcDb2dVertex
 10
68.029081
 20
46.030687
 30
0.0
  0
VERTEX
  5
1E5
330
1E1
100
AcDbEntity
  8
001
 62
    60
370
    50
100
AcDbVertex
100
AcDb2dVertex
 10
68.026133
 20
46.033641
 30
0.0
  0
VERTEX
  5
1E6
330
1E1
100
AcDbEntity
  8
001
 62
    60
370
    50
100
AcDbVertex
100
AcDb2dVertex
 10
67.943554
 20
46.109814
 30
0.0
  0
VERTEX
  5
1E7
330
1E1
100
AcDbEntity
  8
001
 62
    60
370
    50
100
AcDbVertex
100
AcDb2dVertex
 10
67.867103
 20
46.167068
 30
0.0
  0
VERTEX
  5
1E8
330
1E1
100
AcDbEntity
  8
001
 62
    60
370
    50
100
AcDbVertex
100
AcDb2dVertex
 10
67.691961
 20
46.266758
 30
0.0
  0
VERTEX
  5
1E9
330
1E1
100
AcDbEntity
  8
001
 62
    60
370
    50
100
AcDbVertex
100
AcDb2dVertex
 10
67.493059
 20
46.342525
 30
0.0
  0
VERTEX
  5
1EA
330
1E1
100
AcDbEntity
  8
001
 62
    60
370
    50
100
AcDbVertex
100
AcDb2dVertex
 10
67.185421
 20
46.386003
 30
0.0
  0
VERTEX
  5
1EB
330
1E1
100
AcDbEntity
  8
001
 62
    60
370
    50
100
AcDbVertex
100
AcDb2dVertex
 10
66.879611
 20
46.345023
 30
0.0
  0
VERTEX
  5
1EC
330
1E1
100
AcDbEntity
  8
001
 62
    60
370
    50
100
AcDbVertex
100
AcDb2dVertex
 10
66.780251
 20
46.313348
 30
0.0
  0
VERTEX
  5
1ED
330
1E1
100
AcDbEntity
  8
001
 62
    60
370
    50
100
AcDbVertex
100
AcDb2dVertex
 10
66.685912
 20
46.275161
 30
0.0
  0
VERTEX
  5
1EE
330
1E1
100
AcDbEntity
  8
001
 62
    60
370
    50
100
AcDbVertex
100
AcDb2dVertex
 10
66.597705
 20
46.230975
 30
0.0
  0
VERTEX
  5
1EF
330
1E1
100
AcDbEntity
  8
001
 62
    60
370
    50
100
AcDbVertex
100
AcDb2dVertex
 10
66.507623
 20
46.172603
 30
0.0
  0
VERTEX
  5
1F0
330
1E1
100
AcDbEntity
  8
001
 62
    60
370
    50
100
AcDbVertex
100
AcDb2dVertex
 10
66.417396
 20
46.101092
 30
0.0
  0
VERTEX
  5
1F1
330
1E1
100
AcDbEntity
  8
001
 62
    60
370
    50
100
AcDbVertex
100
AcDb2dVertex
 10
66.355101
 20
46.045382
 30
0.0
  0
SEQEND
  5
1E2
330
1E1
100
AcDbEntity
  8
001
370
    50
  0
POLYLINE
  5
1F2
330
1F
100
AcDbEntity
  8
001
 62
    60
370
    50
100
AcDb2dPolyline
 66
     1
 10
0.0
 20
0.0
 30
0.0
  0
VERTEX
  5
1F4
330
1F2
100
AcDbEntity
  8
001
 62
    60
370
    50
100
AcDbVertex
100
AcDb2dVertex
 10
67.408615
 20
46.697271
 30
0.0
  0
VERTEX
  5
1F5
330
1F2
100
AcDbEntity
  8
001
 62
    60
370
    50
100
AcDbVertex
100
AcDb2dVertex
 10
67.318433
 20
46.685702
 30
0.0
  0
VERTEX
  5
1F6
330
1F2
100
AcDbEntity
  8
001
 62
    60
370
    50
100
AcDbVertex
100
AcDb2dVertex
 10
67.195448
 20
46.661441
 30
0.0
  0
VERTEX
  5
1F7
330
1F2
100
AcDbEntity
  8
001
 62
    60
370
    50
100
AcDbVertex
100
AcDb2dVertex
 10
67.091959
 20
46.629614
 30
0.0
  0
VERTEX
  5
1F8
330
1F2
100
AcDbEntity
  8
001
 62
    60
370
    50
100
AcDbVertex
100
AcDb2dVertex
 10
67.001749
 20
46.591579
 30
0.0
  0
VERTEX
  5
1F9
330
1F2
100
AcDbEntity
  8
001
 62
    60
370
    50
100
AcDbVertex
100
AcDb2dVertex
 10
66.914622
 20
46.547433
 30
0.0
  0
VERTEX
  5
1FA
330
1F2
100
AcDbEntity
  8
001
 62
    60
370
    50
100
AcDbVertex
100
AcDb2dVertex
 10
66.82346
 20
46.489021
 30
0.0
  0
VERTEX
  5
1FB
330
1F2
100
AcDbEntity
  8
001
 62
    60
370
    50
100
AcDbVertex
100
AcDb2dVertex
 10
66.733027
 20
46.417503
 30
0.0
  0
VERTEX
  5
1FC
330
1F2
100
AcDbEntity
  8
001
 62
    60
370
    50
100
AcDbVertex
100
AcDb2dVertex
 10
66.670937
 20
46.3618
 30
0.0
  0
SEQEND
  5
1F3
330
1F2
100
AcDbEntity
  8
001
370
    50
  0
POLYLINE
  5
1FD
330
1F
100
AcDbEntity
  8
001
 62
    60
370
    50
100
AcDb2dPolyline
 66
     1
 10
0.0
 20
0.0
 30
0.0
  0
VERTEX
  5
1FF
330
1FD
100
AcDbEntity
  8
001
 62
    60
370
    50
100
AcDbVertex
100
AcDb2dVertex
 10
65.561721
 20
41.801909
 30
0.0
  0
VERTEX
  5
200
330
1FD
100
AcDbEntity
  8
001
 62
    60
370
    50
100
AcDbVertex
100
AcDb2dVertex
 10
65.42741
 20
41.654938
 30
0.0
  0
VERTEX
  5
201
330
1FD
100
AcDbEntity
  8
001
 62
    60
370
    50
100
AcDbVertex
100
AcDb2dVertex
 10
65.306549
 20
41.496698
 30
0.0
  0
VERTEX
  5
202
330
1FD
100
AcDbEntity
  8
001
 62
    60
370
    50
100
AcDbVertex
100
AcDb2dVertex
 10
65.200041
 20
41.328291
 30
0.0
  0
VERTEX
  5
203
330
1FD
100
AcDbEntity
  8
001
 62
    60
370
    50
100
AcDbVertex
100
AcDb2dVertex
 10
65.108698
 20
41.151282
 30
0.0
  0
VERTEX
  5
204
330
1FD
100
AcDbEntity
  8
001
 62
    60
370
    50
100
AcDbVertex
100
AcDb2dVertex
 10
65.033132
 20
40.966871
 30
0.0
  0
VERTEX
  5
205
330
1FD
100
AcDbEntity
  8
001
 62
    60
370
    50
100
AcDbVertex
100
AcDb2dVertex
 10
64.974181
 20
40.776159
 30
0.0
  0
VERTEX
  5
206
330
1FD
100
AcDbEntity
  8
001
 62
    60
370
    50
100
AcDbVertex
100
AcDb2dVertex
 10
64.900944
 20
40.182924
 30
0.0
  0
VERTEX
  5
207
330
1FD
100
AcDbEntity
  8
001
 62
    60
370
    50
100
AcDbVertex
100
AcDb2dVertex
 10
64.981198
 20
39.588934
 30
0.0
  0
VERTEX
  5
208
330
1FD
100
AcDbEntity
  8
001
 62
    60
370
    50
100
AcDbVertex
100
AcDb2dVertex
 10
65.120378
 20
39.211807
 30
0.0
  0
VERTEX
  5
209
330
1FD
100
AcDbEntity
  8
001
 62
    60
370
    50
100
AcDbVertex
100
AcDb2dVertex
 10
65.322099
 20
38.865654
 30
0.0
  0
VERTEX
  5
20A
330
1FD
100
AcDbEntity
  8
001
 62
    60
370
    50
100
AcDbVertex
100
AcDb2dVertex
 10
65.444903
 20
38.706369
 30
0.0
  0
VERTEX
  5
20B
330
1FD
100
AcDbEntity
  8
001
 62
    60
370
    50
100
AcDbVertex
100
AcDb2dVertex
 10
65.580892
 20
38.558351
 30
0.0
  0
VERTEX
  5
20C
330
1FD
100
AcDbEntity
  8
001
 62
    60
370
    50
100
AcDbVertex
100
AcDb2dVertex
 10
65.72916
 20
38.422634
 30
0.0
  0
VERTEX
  5
20D
330
1FD
100
AcDbEntity
  8
001
 62
    60
370
    50
100
AcDbVertex
100
AcDb2dVertex
 10
65.888671
 20
38.300123
 30
0.0
  0
VERTEX
  5
20E
330
1FD
100
AcDbEntity
  8
001
 62
    60
370
    50
100
AcDbVertex
100
AcDb2dVertex
 10
66.235195
 20
38.099039
 30
0.0
  0
VERTEX
  5
20F
330
1FD
100
AcDbEntity
  8
001
 62
    60
370
    50
100
AcDbVertex
100
AcDb2dVertex
 10
66.612577
 20
37.960553
 30
0.0
  0
VERTEX
  5
210
330
1FD
100
AcDbEntity
  8
001
 62
    60
370
    50
100
AcDbVertex
100
AcDb2dVertex
 10
67.206714
 20
37.881391
 30
0.0
  0
VERTEX
  5
211
330
1FD
100
AcDbEntity
  8
001
 62
    60
370
    50
100
AcDbVertex
100
AcDb2dVertex
 10
67.799813
 20
37.955719
 30
0.0
  0
VERTEX
  5
212
330
1FD
100
AcDbEntity
  8
001
 62
    60
370
    50
100
AcDbVertex
100
AcDb2dVertex
 10
67.990416
 20
38.015022
 30
0.0
  0
VERTEX
  5
213
330
1FD
100
AcDbEntity
  8
001
 62
    60
370
    50
100
AcDbVertex
100
AcDb2dVertex
 10
68.174688
 20
38.090926
 30
0.0
  0
VERTEX
  5
214
330
1FD
100
AcDbEntity
  8
001
 62
    60
370
    50
100
AcDbVertex
100
AcDb2dVertex
 10
68.351529
 20
38.182595
 30
0.0
  0
VERTEX
  5
215
330
1FD
100
AcDbEntity
  8
001
 62
    60
370
    50
100
AcDbVertex
100
AcDb2dVertex
 10
68.519739
 20
38.289412
 30
0.0
  0
VERTEX
  5
216
330
1FD
100
AcDbEntity
  8
001
 62
    60
370
    50
100
AcDbVertex
100
AcDb2dVertex
 10
68.677756
 20
38.410564
 30
0.0
  0
VERTEX
  5
217
330
1FD
100
AcDbEntity
  8
001
 62
    60
370
    50
100
AcDbVertex
100
AcDb2dVertex
 10
68.82448
 20
38.545146
 30
0.0
  0
VERTEX
  5
218
330
1FD
100
AcDbEntity
  8
001
 62
    60
370
    50
100
AcDbVertex
100
AcDb2dVertex
 10
68.958792
 20
38.692117
 30
0.0
  0
VERTEX
  5
219
330
1FD
100
AcDbEntity
  8
001
 62
    60
370
    50
100
AcDbVertex
100
AcDb2dVertex
 10
69.079653
 20
38.850357
 30
0.0
  0
VERTEX
  5
21A
330
1FD
100
AcDbEntity
  8
001
 62
    60
370
    50
100
AcDbVertex
100
AcDb2dVertex
 10
69.186161
 20
39.018763
 30
0.0
  0
VERTEX
  5
21B
330
1FD
100
AcDbEntity
  8
001
 62
    60
370
    50
100
AcDbVertex
100
AcDb2dVertex
 10
69.277504
 20
39.195772
 30
0.0
  0
VERTEX
  5
21C
330
1FD
100
AcDbEntity
  8
001
 62
    60
370
    50
100
AcDbVertex
100
AcDb2dVertex
 10
69.35307
 20
39.380184
 30
0.0
  0
VERTEX
  5
21D
330
1FD
100
AcDbEntity
  8
001
 62
    60
370
    50
100
AcDbVertex
100
AcDb2dVertex
 10
69.412021
 20
39.570896
 30
0.0
  0
VERTEX
  5
21E
330
1FD
100
AcDbEntity
  8
001
 62
    60
370
    50
100
AcDbVertex
100
AcDb2dVertex
 10
69.485258
 20
40.164131
 30
0.0
  0
VERTEX
  5
21F
330
1FD
100
AcDbEntity
  8
001
 62
    60
370
    50
100
AcDbVertex
100
AcDb2dVertex
 10
69.405004
 20
40.758121
 30
0.0
  0
VERTEX
  5
220
330
1FD
100
AcDbEntity
  8
001
 62
    60
370
    50
100
AcDbVertex
100
AcDb2dVertex
 10
69.265824
 20
41.135247
 30
0.0
  0
VERTEX
  5
221
330
1FD
100
AcDbEntity
  8
001
 62
    60
370
    50
100
AcDbVertex
100
AcDb2dVertex
 10
69.064102
 20
41.481401
 30
0.0
  0
VERTEX
  5
222
330
1FD
100
AcDbEntity
  8
001
 62
    60
370
    50
100
AcDbVertex
100
AcDb2dVertex
 10
68.941298
 20
41.640686
 30
0.0
  0
VERTEX
  5
223
330
1FD
100
AcDbEntity
  8
001
 62
    60
370
    50
100
AcDbVertex
100
AcDb2dVertex
 10
68.805309
 20
41.788704
 30
0.0
  0
VERTEX
  5
224
330
1FD
100
AcDbEntity
  8
001
 62
    60
370
    50
100
AcDbVertex
100
AcDb2dVertex
 10
68.657041
 20
41.924421
 30
0.0
  0
VERTEX
  5
225
330
1FD
100
AcDbEntity
  8
001
 62
    60
370
    50
100
AcDbVertex
100
AcDb2dVertex
 10
68.49753
 20
42.046932
 30
0.0
  0
VERTEX
  5
226
330
1FD
100
AcDbEntity
  8
001
 62
    60
370
    50
100
AcDbVertex
100
AcDb2dVertex
 10
68.151007
 20
42.248016
 30
0.0
  0
VERTEX
  5
227
330
1FD
100
AcDbEntity
  8
001
 62
    60
370
    50
100
AcDbVertex
100
AcDb2dVertex
 10
67.773625
 20
42.386502
 30
0.0
  0
VERTEX
  5
228
330
1FD
100
AcDbEntity
  8
001
 62
    60
370
    50
100
AcDbVertex
100
AcDb2dVertex
 10
67.179488
 20
42.465663
 30
0.0
  0
VERTEX
  5
229
330
1FD
100
AcDbEntity
  8
001
 62
    60
370
    50
100
AcDbVertex
100
AcDb2dVertex
 10
66.586389
 20
42.391336
 30
0.0
  0
VERTEX
  5
22A
330
1FD
100
AcDbEntity
  8
001
 62
    60
370
    50
100
AcDbVertex
100
AcDb2dVertex
 10
66.395786
 20
42.332033
 30
0.0
  0
VERTEX
  5
22B
330
1FD
100
AcDbEntity
  8
001
 62
    60
370
    50
100
AcDbVertex
100
AcDb2dVertex
 10
66.211513
 20
42.256128
 30
0.0
  0
VERTEX
  5
22C
330
1FD
100
AcDbEntity
  8
001
 62
    60
370
    50
100
AcDbVertex
100
AcDb2dVertex
 10
66.034673
 20
42.16446
 30
0.0
  0
VERTEX
  5
22D
330
1FD
100
AcDbEntity
  8
001
 62
    60
370
    50
100
AcDbVertex
100
AcDb2dVertex
 10
65.866463
 20
42.057643
 30
0.0
  0
VERTEX
  5
22E
330
1FD
100
AcDbEntity
  8
001
 62
    60
370
    50
100
AcDbVertex
100
AcDb2dVertex
 10
65.708445
 20
41.936491
 30
0.0
  0
VERTEX
  5
22F
330
1FD
100
AcDbEntity
  8
001
 62
    60
370
    50
100
AcDbVertex
100
AcDb2dVertex
 10
65.561721
 20
41.801909
 30
0.0
  0
SEQEND
  5
1FE
330
1FD
100
AcDbEntity
  8
001
370
    50
  0
POLYLINE
  5
230
330
1F
100
AcDbEntity
  8
001
 62
    60
370
    50
100
AcDb2dPolyline
 66
     1
 10
0.0
 20
0.0
 30
0.0
  0
VERTEX
  5
232
330
230
100
AcDbEntity
  8
001
 62
    60
370
    50
100
AcDbVertex
100
AcDb2dVertex
 10
66.355101
 20
34.318401
 30
0.0
  0
VERTEX
  5
233
330
230
100
AcDbEntity
  8
001
 62
    60
370
    50
100
AcDbVertex
100
AcDb2dVertex
 10
66.357121
 20
34.316368
 30
0.0
  0
VERTEX
  5
234
330
230
100
AcDbEntity
  8
001
 62
    60
370
    50
100
AcDbVertex
100
AcDb2dVertex
 10
66.360068
 20
34.313414
 30
0.0
  0
VERTEX
  5
235
330
230
100
AcDbEntity
  8
001
 62
    60
370
    50
100
AcDbVertex
100
AcDb2dVertex
 10
66.442647
 20
34.237241
 30
0.0
  0
VERTEX
  5
236
330
230
100
AcDbEntity
  8
001
 62
    60
370
    50
100
AcDbVertex
100
AcDb2dVertex
 10
66.519099
 20
34.179987
 30
0.0
  0
VERTEX
  5
237
330
230
100
AcDbEntity
  8
001
 62
    60
370
    50
100
AcDbVertex
100
AcDb2dVertex
 10
66.69424
 20
34.080297
 30
0.0
  0
VERTEX
  5
238
330
230
100
AcDbEntity
  8
001
 62
    60
370
    50
100
AcDbVertex
100
AcDb2dVertex
 10
66.893143
 20
34.00453
 30
0.0
  0
VERTEX
  5
239
330
230
100
AcDbEntity
  8
001
 62
    60
370
    50
100
AcDbVertex
100
AcDb2dVertex
 10
67.200781
 20
33.961052
 30
0.0
  0
VERTEX
  5
23A
330
230
100
AcDbEntity
  8
001
 62
    60
370
    50
100
AcDbVertex
100
AcDb2dVertex
 10
67.506591
 20
34.002032
 30
0.0
  0
VERTEX
  5
23B
330
230
100
AcDbEntity
  8
001
 62
    60
370
    50
100
AcDbVertex
100
AcDb2dVertex
 10
67.60595
 20
34.033707
 30
0.0
  0
VERTEX
  5
23C
330
230
100
AcDbEntity
  8
001
 62
    60
370
    50
100
AcDbVertex
100
AcDb2dVertex
 10
67.70029
 20
34.071894
 30
0.0
  0
VERTEX
  5
23D
330
230
100
AcDbEntity
  8
001
 62
    60
370
    50
100
AcDbVertex
100
AcDb2dVertex
 10
67.788496
 20
34.11608
 30
0.0
  0
VERTEX
  5
23E
330
230
100
AcDbEntity
  8
001
 62
    60
370
    50
100
AcDbVertex
100
AcDb2dVertex
 10
67.878578
 20
34.174452
 30
0.0
  0
VERTEX
  5
23F
330
230
100
AcDbEntity
  8
001
 62
    60
370
    50
100
AcDbVertex
100
AcDb2dVertex
 10
67.968806
 20
34.245962
 30
0.0
  0
VERTEX
  5
240
330
230
100
AcDbEntity
  8
001
 62
    60
370
    50
100
AcDbVertex
100
AcDb2dVertex
 10
68.031101
 20
34.301673
 30
0.0
  0
SEQEND
  5
231
330
230
100
AcDbEntity
  8
001
370
    50
  0
LINE
  5
241
330
1F
100
AcDbEntity
  8
001
 62
    60
370
    50
100
AcDbLine
 10
61.329211
 20
39.394112
 30
0.0
 11
66.355101
 21
34.318401
 31
0.0
  0
POLYLINE
  5
242
330
1F
100
AcDbEntity
  8
001
 62
    60
370
    50
100
AcDb2dPolyline
 66
     1
 10
0.0
 20
0.0
 30
0.0
  0
VERTEX
  5
244
330
242
100
AcDbEntity
  8
001
 62
    60
370
    50
100
AcDbVertex
100
AcDb2dVertex
 10
61.329211
 20
41.069998
 30
0.0
  0
VERTEX
  5
245
330
242
100
AcDbEntity
  8
001
 62
    60
370
    50
100
AcDbVertex
100
AcDb2dVertex
 10
61.327198
 20
41.067998
 30
0.0
  0
VERTEX
  5
246
330
242
100
AcDbEntity
  8
001
 62
    60
370
    50
100
AcDbVertex
100
AcDb2dVertex
 10
61.324272
 20
41.06508
 30
0.0
  0
VERTEX
  5
247
330
242
100
AcDbEntity
  8
001
 62
    60
370
    50
100
AcDbVertex
100
AcDb2dVertex
 10
61.249265
 20
40.983607
 30
0.0
  0
VERTEX
  5
248
330
242
100
AcDbEntity
  8
001
 62
    60
370
    50
100
AcDbVertex
100
AcDb2dVertex
 10
61.192424
 20
40.907377
 30
0.0
  0
VERTEX
  5
249
330
242
100
AcDbEntity
  8
001
 62
    60
370
    50
100
AcDbVertex
100
AcDb2dVertex
 10
61.138951
 20
40.821814
 30
0.0
  0
VERTEX
  5
24A
330
242
100
AcDbEntity
  8
001
 62
    60
370
    50
100
AcDbVertex
100
AcDb2dVertex
 10
61.090194
 20
40.7289
 30
0.0
  0
VERTEX
  5
24B
330
242
100
AcDbEntity
  8
001
 62
    60
370
    50
100
AcDbVertex
100
AcDb2dVertex
 10
61.050519
 20
40.63334
 30
0.0
  0
VERTEX
  5
24C
330
242
100
AcDbEntity
  8
001
 62
    60
370
    50
100
AcDbVertex
100
AcDb2dVertex
 10
61.020688
 20
40.535072
 30
0.0
  0
VERTEX
  5
24D
330
242
100
AcDbEntity
  8
001
 62
    60
370
    50
100
AcDbVertex
100
AcDb2dVertex
 10
60.986656
 20
40.225612
 30
0.0
  0
VERTEX
  5
24E
330
242
100
AcDbEntity
  8
001
 62
    60
370
    50
100
AcDbVertex
100
AcDb2dVertex
 10
61.024314
 20
39.92163
 30
0.0
  0
VERTEX
  5
24F
330
242
100
AcDbEntity
  8
001
 62
    60
370
    50
100
AcDbVertex
100
AcDb2dVertex
 10
61.087739
 20
39.735217
 30
0.0
  0
VERTEX
  5
250
330
242
100
AcDbEntity
  8
001
 62
    60
370
    50
100
AcDbVertex
100
AcDb2dVertex
 10
61.200459
 20
39.547909
 30
0.0
  0
VERTEX
  5
251
330
242
100
AcDbEntity
  8
001
 62
    60
370
    50
100
AcDbVertex
100
AcDb2dVertex
 10
61.273616
 20
39.456223
 30
0.0
  0
VERTEX
  5
252
330
242
100
AcDbEntity
  8
001
 62
    60
370
    50
100
AcDbVertex
100
AcDb2dVertex
 10
61.329211
 20
39.394112
 30
0.0
  0
SEQEND
  5
243
330
242
100
AcDbEntity
  8
001
370
    50
  0
LINE
  5
253
330
1F
100
AcDbEntity
  8
001
 62
    60
370
    50
100
AcDbLine
 10
66.355101
 20
46.045382
 30
0.0
 11
61.329211
 21
41.069998
 31
0.0
  0
LINE
  5
254
330
1F
100
AcDbEntity
  8
001
 62
    60
370
    50
100
AcDbLine
 10
73.056991
 20
40.952943
 30
0.0
 11
68.031101
 21
46.028654
 31
0.0
  0
POLYLINE
  5
255
330
1F
100
AcDbEntity
  8
001
 62
    60
370
    50
100
AcDb2dPolyline
 66
     1
 10
0.0
 20
0.0
 30
0.0
  0
VERTEX
  5
257
330
255
100
AcDbEntity
  8
001
 62
    60
370
    50
100
AcDbVertex
100
AcDb2dVertex
 10
73.056991
 20
39.277057
 30
0.0
  0
VERTEX
  5
258
330
255
100
AcDbEntity
  8
001
 62
    60
370
    50
100
AcDbVertex
100
AcDb2dVertex
 10
73.059004
 20
39.279057
 30
0.0
  0
VERTEX
  5
259
330
255
100
AcDbEntity
  8
001
 62
    60
370
    50
100
AcDbVertex
100
AcDb2dVertex
 10
73.061929
 20
39.281975
 30
0.0
  0
VERTEX
  5
25A
330
255
100
AcDbEntity
  8
001
 62
    60
370
    50
100
AcDbVertex
100
AcDb2dVertex
 10
73.136937
 20
39.363448
 30
0.0
  0
VERTEX
  5
25B
330
255
100
AcDbEntity
  8
001
 62
    60
370
    50
100
AcDbVertex
100
AcDb2dVertex
 10
73.193778
 20
39.439678
 30
0.0
  0
VERTEX
  5
25C
330
255
100
AcDbEntity
  8
001
 62
    60
370
    50
100
AcDbVertex
100
AcDb2dVertex
 10
73.24725
 20
39.525241
 30
0.0
  0
VERTEX
  5
25D
330
255
100
AcDbEntity
  8
001
 62
    60
370
    50
100
AcDbVertex
100
AcDb2dVertex
 10
73.296008
 20
39.618155
 30
0.0
  0
VERTEX
  5
25E
330
255
100
AcDbEntity
  8
001
 62
    60
370
    50
100
AcDbVertex
100
AcDb2dVertex
 10
73.335683
 20
39.713715
 30
0.0
  0
VERTEX
  5
25F
330
255
100
AcDbEntity
  8
001
 62
    60
370
    50
100
AcDbVertex
100
AcDb2dVertex
 10
73.365513
 20
39.811983
 30
0.0
  0
VERTEX
  5
260
330
255
100
AcDbEntity
  8
001
 62
    60
370
    50
100
AcDbVertex
100
AcDb2dVertex
 10
73.399546
 20
40.121443
 30
0.0
  0
VERTEX
  5
261
330
255
100
AcDbEntity
  8
001
 62
    60
370
    50
100
AcDbVertex
100
AcDb2dVertex
 10
73.361888
 20
40.425425
 30
0.0
  0
VERTEX
  5
262
330
255
100
AcDbEntity
  8
001
 62
    60
370
    50
100
AcDbVertex
100
AcDb2dVertex
 10
73.298462
 20
40.611838
 30
0.0
  0
VERTEX
  5
263
330
255
100
AcDbEntity
  8
001
 62
    60
370
    50
100
AcDbVertex
100
AcDb2dVertex
 10
73.185743
 20
40.799146
 30
0.0
  0
VERTEX
  5
264
330
255
100
AcDbEntity
  8
001
 62
    60
370
    50
100
AcDbVertex
100
AcDb2dVertex
 10
73.112586
 20
40.890832
 30
0.0
  0
VERTEX
  5
265
330
255
100
AcDbEntity
  8
001
 62
    60
370
    50
100
AcDbVertex
100
AcDb2dVertex
 10
73.056991
 20
40.952943
 30
0.0
  0
SEQEND
  5
256
330
255
100
AcDbEntity
  8
001
370
    50
  0
LINE
  5
266
330
1F
100
AcDbEntity
  8
001
 62
    60
370
    50
100
AcDbLine
 10
68.031101
 20
34.301673
 30
0.0
 11
73.056991
 21
39.277057
 31
0.0
  0
LINE
  5
267
330
1F
100
AcDbEntity
  8
001
 62
    60
370
    50
100
AcDbLine
 10
73.372828
 20
41.269361
 30
0.0
 11
71.526816
 21
43.133673
 31
0.0
  0
LINE
  5
268
330
1F
100
AcDbEntity
  8
001
 62
    60
370
    50
100
AcDbLine
 10
73.372828
 20
39.593475
 30
0.0
 11
73.056991
 21
39.277057
 31
0.0
  0
POLYLINE
  5
269
330
1F
100
AcDbEntity
  8
001
 62
    60
370
    50
100
AcDb2dPolyline
 66
     1
 10
0.0
 20
0.0
 30
0.0
  0
VERTEX
  5
26B
330
269
100
AcDbEntity
  8
001
 62
    60
370
    50
100
AcDbVertex
100
AcDb2dVertex
 10
73.372828
 20
39.593475
 30
0.0
  0
VERTEX
  5
26C
330
269
100
AcDbEntity
  8
001
 62
    60
370
    50
100
AcDbVertex
100
AcDb2dVertex
 10
73.374841
 20
39.595475
 30
0.0
  0
VERTEX
  5
26D
330
269
100
AcDbEntity
  8
001
 62
    60
370
    50
100
AcDbVertex
100
AcDb2dVertex
 10
73.377766
 20
39.598393
 30
0.0
  0
VERTEX
  5
26E
330
269
100
AcDbEntity
  8
001
 62
    60
370
    50
100
AcDbVertex
100
AcDb2dVertex
 10
73.452773
 20
39.679866
 30
0.0
  0
VERTEX
  5
26F
330
269
100
AcDbEntity
  8
001
 62
    60
370
    50
100
AcDbVertex
100
AcDb2dVertex
 10
73.509615
 20
39.756096
 30
0.0
  0
VERTEX
  5
270
330
269
100
AcDbEntity
  8
001
 62
    60
370
    50
100
AcDbVertex
100
AcDb2dVertex
 10
73.563087
 20
39.841659
 30
0.0
  0
VERTEX
  5
271
330
269
100
AcDbEntity
  8
001
 62
    60
370
    50
100
AcDbVertex
100
AcDb2dVertex
 10
73.611845
 20
39.934573
 30
0.0
  0
VERTEX
  5
272
330
269
100
AcDbEntity
  8
001
 62
    60
370
    50
100
AcDbVertex
100
AcDb2dVertex
 10
73.651519
 20
40.030134
 30
0.0
  0
VERTEX
  5
273
330
269
100
AcDbEntity
  8
001
 62
    60
370
    50
100
AcDbVertex
100
AcDb2dVertex
 10
73.68135
 20
40.128401
 30
0.0
  0
VERTEX
  5
274
330
269
100
AcDbEntity
  8
001
 62
    60
370
    50
100
AcDbVertex
100
AcDb2dVertex
 10
73.715383
 20
40.437862
 30
0.0
  0
VERTEX
  5
275
330
269
100
AcDbEntity
  8
001
 62
    60
370
    50
100
AcDbVertex
100
AcDb2dVertex
 10
73.677724
 20
40.741843
 30
0.0
  0
VERTEX
  5
276
330
269
100
AcDbEntity
  8
001
 62
    60
370
    50
100
AcDbVertex
100
AcDb2dVertex
 10
73.614299
 20
40.928257
 30
0.0
  0
VERTEX
  5
277
330
269
100
AcDbEntity
  8
001
 62
    60
370
    50
100
AcDbVertex
100
AcDb2dVertex
 10
73.501579
 20
41.115564
 30
0.0
  0
VERTEX
  5
278
330
269
100
AcDbEntity
  8
001
 62
    60
370
    50
100
AcDbVertex
100
AcDb2dVertex
 10
73.428423
 20
41.20725
 30
0.0
  0
VERTEX
  5
279
330
269
100
AcDbEntity
  8
001
 62
    60
370
    50
100
AcDbVertex
100
AcDb2dVertex
 10
73.372828
 20
41.269361
 30
0.0
  0
SEQEND
  5
26A
330
269
100
AcDbEntity
  8
001
370
    50
  0
LINE
  5
27A
330
1F
100
AcDbEntity
  8
001
 62
    60
370
    50
100
AcDbLine
 10
61.645047
 20
41.386416
 30
0.0
 11
61.329211
 21
41.069998
 31
0.0
  0
LINE
  5
27B
330
1F
100
AcDbEntity
  8
001
 62
    60
370
    50
100
AcDbLine
 10
66.670937
 20
46.3618
 30
0.0
 11
61.645047
 21
41.386416
 31
0.0
  0
POLYLINE
  5
27C
330
1F
100
AcDbEntity
  8
001
 62
    60
370
    50
100
AcDb2dPolyline
 66
     1
 10
0.0
 20
0.0
 30
0.0
  0
VERTEX
  5
27E
330
27C
100
AcDbEntity
  8
001
 62
    60
370
    50
100
AcDbVertex
100
AcDb2dVertex
 10
65.892451
 20
41.566994
 30
0.0
  0
VERTEX
  5
27F
330
27C
100
AcDbEntity
  8
001
 62
    60
370
    50
100
AcDbVertex
100
AcDb2dVertex
 10
65.889231
 20
41.563795
 30
0.0
  0
VERTEX
  5
280
330
27C
100
AcDbEntity
  8
001
 62
    60
370
    50
100
AcDbVertex
100
AcDb2dVertex
 10
65.884552
 20
41.559127
 30
0.0
  0
VERTEX
  5
281
330
27C
100
AcDbEntity
  8
001
 62
    60
370
    50
100
AcDbVertex
100
AcDb2dVertex
 10
65.764593
 20
41.428796
 30
0.0
  0
VERTEX
  5
282
330
27C
100
AcDbEntity
  8
001
 62
    60
370
    50
100
AcDbVertex
100
AcDb2dVertex
 10
65.673661
 20
41.306881
 30
0.0
  0
VERTEX
  5
283
330
27C
100
AcDbEntity
  8
001
 62
    60
370
    50
100
AcDbVertex
100
AcDb2dVertex
 10
65.588058
 20
41.170098
 30
0.0
  0
VERTEX
  5
284
330
27C
100
AcDbEntity
  8
001
 62
    60
370
    50
100
AcDbVertex
100
AcDb2dVertex
 10
65.510144
 20
41.021408
 30
0.0
  0
VERTEX
  5
285
330
27C
100
AcDbEntity
  8
001
 62
    60
370
    50
100
AcDbVertex
100
AcDb2dVertex
 10
65.446964
 20
40.868278
 30
0.0
  0
VERTEX
  5
286
330
27C
100
AcDbEntity
  8
001
 62
    60
370
    50
100
AcDbVertex
100
AcDb2dVertex
 10
65.398971
 20
40.711382
 30
0.0
  0
VERTEX
  5
287
330
27C
100
AcDbEntity
  8
001
 62
    60
370
    50
100
AcDbVertex
100
AcDb2dVertex
 10
65.339175
 20
40.221819
 30
0.0
  0
VERTEX
  5
288
330
27C
100
AcDbEntity
  8
001
 62
    60
370
    50
100
AcDbVertex
100
AcDb2dVertex
 10
65.40477
 20
39.730183
 30
0.0
  0
VERTEX
  5
289
330
27C
100
AcDbEntity
  8
001
 62
    60
370
    50
100
AcDbVertex
100
AcDb2dVertex
 10
65.519691
 20
39.418396
 30
0.0
  0
VERTEX
  5
28A
330
27C
100
AcDbEntity
  8
001
 62
    60
370
    50
100
AcDbVertex
100
AcDb2dVertex
 10
65.686513
 20
39.132418
 30
0.0
  0
VERTEX
  5
28B
330
27C
100
AcDbEntity
  8
001
 62
    60
370
    50
100
AcDbVertex
100
AcDb2dVertex
 10
65.788022
 20
39.00079
 30
0.0
  0
VERTEX
  5
28C
330
27C
100
AcDbEntity
  8
001
 62
    60
370
    50
100
AcDbVertex
100
AcDb2dVertex
 10
65.900396
 20
38.878443
 30
0.0
  0
VERTEX
  5
28D
330
27C
100
AcDbEntity
  8
001
 62
    60
370
    50
100
AcDbVertex
100
AcDb2dVertex
 10
66.02291
 20
38.766254
 30
0.0
  0
VERTEX
  5
28E
330
27C
100
AcDbEntity
  8
001
 62
    60
370
    50
100
AcDbVertex
100
AcDb2dVertex
 10
66.154765
 20
38.665027
 30
0.0
  0
VERTEX
  5
28F
330
27C
100
AcDbEntity
  8
001
 62
    60
370
    50
100
AcDbVertex
100
AcDb2dVertex
 10
66.441367
 20
38.499051
 30
0.0
  0
VERTEX
  5
290
330
27C
100
AcDbEntity
  8
001
 62
    60
370
    50
100
AcDbVertex
100
AcDb2dVertex
 10
66.753047
 20
38.384384
 30
0.0
  0
VERTEX
  5
291
330
27C
100
AcDbEntity
  8
001
 62
    60
370
    50
100
AcDbVertex
100
AcDb2dVertex
 10
67.242572
 20
38.31745
 30
0.0
  0
VERTEX
  5
292
330
27C
100
AcDbEntity
  8
001
 62
    60
370
    50
100
AcDbVertex
100
AcDb2dVertex
 10
67.734254
 20
38.38039
 30
0.0
  0
VERTEX
  5
293
330
27C
100
AcDbEntity
  8
001
 62
    60
370
    50
100
AcDbVertex
100
AcDb2dVertex
 10
67.893282
 20
38.430904
 30
0.0
  0
VERTEX
  5
294
330
27C
100
AcDbEntity
  8
001
 62
    60
370
    50
100
AcDbVertex
100
AcDb2dVertex
 10
68.044076
 20
38.492133
 30
0.0
  0
VERTEX
  5
295
330
27C
100
AcDbEntity
  8
001
 62
    60
370
    50
100
AcDbVertex
100
AcDb2dVertex
 10
68.185233
 20
38.56289
 30
0.0
  0
VERTEX
  5
296
330
27C
100
AcDbEntity
  8
001
 62
    60
370
    50
100
AcDbVertex
100
AcDb2dVertex
 10
68.329248
 20
38.656175
 30
0.0
  0
VERTEX
  5
297
330
27C
100
AcDbEntity
  8
001
 62
    60
370
    50
100
AcDbVertex
100
AcDb2dVertex
 10
68.478306
 20
38.774799
 30
0.0
  0
VERTEX
  5
298
330
27C
100
AcDbEntity
  8
001
 62
    60
370
    50
100
AcDbVertex
100
AcDb2dVertex
 10
68.581106
 20
38.86753
 30
0.0
  0
SEQEND
  5
27D
330
27C
100
AcDbEntity
  8
001
370
    50
  0
POLYLINE
  5
299
330
1F
100
AcDbEntity
  8
001
 62
    60
370
    50
100
AcDb2dPolyline
 66
     1
 10
0.0
 20
0.0
 30
0.0
  0
VERTEX
  5
29B
330
299
100
AcDbEntity
  8
001
 62
    60
370
    50
100
AcDbVertex
100
AcDb2dVertex
 10
68.581106
 20
38.86753
 30
0.0
  0
VERTEX
  5
29C
330
299
100
AcDbEntity
  8
001
 62
    60
370
    50
100
AcDbVertex
100
AcDb2dVertex
 10
68.673646
 20
38.970499
 30
0.0
  0
VERTEX
  5
29D
330
299
100
AcDbEntity
  8
001
 62
    60
370
    50
100
AcDbVertex
100
AcDb2dVertex
 10
68.791997
 20
39.119776
 30
0.0
  0
VERTEX
  5
29E
330
299
100
AcDbEntity
  8
001
 62
    60
370
    50
100
AcDbVertex
100
AcDb2dVertex
 10
68.885016
 20
39.263961
 30
0.0
  0
VERTEX
  5
29F
330
299
100
AcDbEntity
  8
001
 62
    60
370
    50
100
AcDbVertex
100
AcDb2dVertex
 10
68.955513
 20
39.405249
 30
0.0
  0
VERTEX
  5
2A0
330
299
100
AcDbEntity
  8
001
 62
    60
370
    50
100
AcDbVertex
100
AcDb2dVertex
 10
69.016465
 20
39.556155
 30
0.0
  0
VERTEX
  5
2A1
330
299
100
AcDbEntity
  8
001
 62
    60
370
    50
100
AcDbVertex
100
AcDb2dVertex
 10
69.066687
 20
39.715275
 30
0.0
  0
VERTEX
  5
2A2
330
299
100
AcDbEntity
  8
001
 62
    60
370
    50
100
AcDbVertex
100
AcDb2dVertex
 10
69.128719
 20
40.20707
 30
0.0
  0
VERTEX
  5
2A3
330
299
100
AcDbEntity
  8
001
 62
    60
370
    50
100
AcDbVertex
100
AcDb2dVertex
 10
69.060888
 20
40.696474
 30
0.0
  0
VERTEX
  5
2A4
330
299
100
AcDbEntity
  8
001
 62
    60
370
    50
100
AcDbVertex
100
AcDb2dVertex
 10
68.945654
 20
41.007949
 30
0.0
  0
VERTEX
  5
2A5
330
299
100
AcDbEntity
  8
001
 62
    60
370
    50
100
AcDbVertex
100
AcDb2dVertex
 10
68.779144
 20
41.294239
 30
0.0
  0
VERTEX
  5
2A6
330
299
100
AcDbEntity
  8
001
 62
    60
370
    50
100
AcDbVertex
100
AcDb2dVertex
 10
68.677666
 20
41.425898
 30
0.0
  0
VERTEX
  5
2A7
330
299
100
AcDbEntity
  8
001
 62
    60
370
    50
100
AcDbVertex
100
AcDb2dVertex
 10
68.565261
 20
41.548214
 30
0.0
  0
VERTEX
  5
2A8
330
299
100
AcDbEntity
  8
001
 62
    60
370
    50
100
AcDbVertex
100
AcDb2dVertex
 10
68.442739
 20
41.660394
 30
0.0
  0
VERTEX
  5
2A9
330
299
100
AcDbEntity
  8
001
 62
    60
370
    50
100
AcDbVertex
100
AcDb2dVertex
 10
68.310893
 20
41.76163
 30
0.0
  0
VERTEX
  5
2AA
330
299
100
AcDbEntity
  8
001
 62
    60
370
    50
100
AcDbVertex
100
AcDb2dVertex
 10
68.024292
 20
41.92761
 30
0.0
  0
VERTEX
  5
2AB
330
299
100
AcDbEntity
  8
001
 62
    60
370
    50
100
AcDbVertex
100
AcDb2dVertex
 10
67.712611
 20
42.042273
 30
0.0
  0
VERTEX
  5
2AC
330
299
100
AcDbEntity
  8
001
 62
    60
370
    50
100
AcDbVertex
100
AcDb2dVertex
 10
67.223115
 20
42.109218
 30
0.0
  0
VERTEX
  5
2AD
330
299
100
AcDbEntity
  8
001
 62
    60
370
    50
100
AcDbVertex
100
AcDb2dVertex
 10
66.731403
 20
42.046267
 30
0.0
  0
VERTEX
  5
2AE
330
299
100
AcDbEntity
  8
001
 62
    60
370
    50
100
AcDbVertex
100
AcDb2dVertex
 10
66.572343
 20
41.995739
 30
0.0
  0
VERTEX
  5
2AF
330
299
100
AcDbEntity
  8
001
 62
    60
370
    50
100
AcDbVertex
100
AcDb2dVertex
 10
66.421582
 20
41.934524
 30
0.0
  0
VERTEX
  5
2B0
330
299
100
AcDbEntity
  8
001
 62
    60
370
    50
100
AcDbVertex
100
AcDb2dVertex
 10
66.280531
 20
41.863814
 30
0.0
  0
VERTEX
  5
2B1
330
299
100
AcDbEntity
  8
001
 62
    60
370
    50
100
AcDbVertex
100
AcDb2dVertex
 10
66.13641
 20
41.770482
 30
0.0
  0
VERTEX
  5
2B2
330
299
100
AcDbEntity
  8
001
 62
    60
370
    50
100
AcDbVertex
100
AcDb2dVertex
 10
65.992085
 20
41.656109
 30
0.0
  0
VERTEX
  5
2B3
330
299
100
AcDbEntity
  8
001
 62
    60
370
    50
100
AcDbVertex
100
AcDb2dVertex
 10
65.892451
 20
41.566994
 30
0.0
  0
SEQEND
  5
29A
330
299
100
AcDbEntity
  8
001
370
    50
  0
POLYLINE
  5
2B4
330
1F
100
AcDbEntity
  8
001
 62
   253
370
    50
100
AcDb2dPolyline
 66
     1
 10
0.0
 20
0.0
 30
0.0
  0
VERTEX
  5
2B6
330
2B4
100
AcDbEntity
  8
001
 62
   253
370
    50
100
AcDbVertex
100
AcDb2dVertex
 10
72.857277
 20
76.300188
 30
0.0
  0
VERTEX
  5
2B7
330
2B4
100
AcDbEntity
  8
001
 62
   253
370
    50
100
AcDbVertex
100
AcDb2dVertex
 10
73.384889
 20
76.550951
 30
0.0
  0
VERTEX
  5
2B8
330
2B4
100
AcDbEntity
  8
001
 62
   253
370
    50
100
AcDbVertex
100
AcDb2dVertex
 10
73.901888
 20
76.821599
 30
0.0
  0
VERTEX
  5
2B9
330
2B4
100
AcDbEntity
  8
001
 62
   253
370
    50
100
AcDbVertex
100
AcDb2dVertex
 10
74.132624
 20
76.957424
 30
0.0
  0
VERTEX
  5
2BA
330
2B4
100
AcDbEntity
  8
001
 62
   253
370
    50
100
AcDbVertex
100
AcDb2dVertex
 10
74.358503
 20
77.101176
 30
0.0
  0
VERTEX
  5
2BB
330
2B4
100
AcDbEntity
  8
001
 62
   253
370
    50
100
AcDbVertex
100
AcDb2dVertex
 10
74.559541
 20
77.238792
 30
0.0
  0
VERTEX
  5
2BC
330
2B4
100
AcDbEntity
  8
001
 62
   253
370
    50
100
AcDbVertex
100
AcDb2dVertex
 10
74.755717
 20
77.383643
 30
0.0
  0
VERTEX
  5
2BD
330
2B4
100
AcDbEntity
  8
001
 62
   253
370
    50
100
AcDbVertex
100
AcDb2dVertex
 10
75.065067
 20
77.641114
 30
0.0
  0
VERTEX
  5
2BE
330
2B4
100
AcDbEntity
  8
001
 62
   253
370
    50
100
AcDbVertex
100
AcDb2dVertex
 10
75.346295
 20
77.927651
 30
0.0
  0
VERTEX
  5
2BF
330
2B4
100
AcDbEntity
  8
001
 62
   253
370
    50
100
AcDbVertex
100
AcDb2dVertex
 10
75.453519
 20
78.059361
 30
0.0
  0
VERTEX
  5
2C0
330
2B4
100
AcDbEntity
  8
001
 62
   253
370
    50
100
AcDbVertex
100
AcDb2dVertex
 10
75.55194
 20
78.198265
 30
0.0
  0
VERTEX
  5
2C1
330
2B4
100
AcDbEntity
  8
001
 62
   253
370
    50
100
AcDbVertex
100
AcDb2dVertex
 10
75.627802
 20
78.324807
 30
0.0
  0
VERTEX
  5
2C2
330
2B4
100
AcDbEntity
  8
001
 62
   253
370
    50
100
AcDbVertex
100
AcDb2dVertex
 10
75.68871
 20
78.458263
 30
0.0
  0
VERTEX
  5
2C3
330
2B4
100
AcDbEntity
  8
001
 62
   253
370
    50
100
AcDbVertex
100
AcDb2dVertex
 10
75.728489
 20
78.590535
 30
0.0
  0
VERTEX
  5
2C4
330
2B4
100
AcDbEntity
  8
001
 62
   253
370
    50
100
AcDbVertex
100
AcDb2dVertex
 10
75.758346
 20
78.7263
 30
0.0
  0
SEQEND
  5
2B5
330
2B4
100
AcDbEntity
  8
001
370
    50
  0
LINE
  5
2C5
330
1F
100
AcDbEntity
  8
001
 62
   253
370
    50
100
AcDbLine
 10
77.337527
 20
79.180924
 30
0.0
 11
75.665119
 21
79.180924
 31
0.0
  0
POLYLINE
  5
2C6
330
1F
100
AcDbEntity
  8
001
 62
   253
370
    50
100
AcDb2dPolyline
 66
     1
 10
0.0
 20
0.0
 30
0.0
  0
VERTEX
  5
2C8
330
2C6
100
AcDbEntity
  8
001
 62
   253
370
    50
100
AcDbVertex
100
AcDb2dVertex
 10
82.687811
 20
41.992054
 30
0.0
  0
VERTEX
  5
2C9
330
2C6
100
AcDbEntity
  8
001
 62
   253
370
    50
100
AcDbVertex
100
AcDb2dVertex
 10
83.184231
 20
42.561908
 30
0.0
  0
VERTEX
  5
2CA
330
2C6
100
AcDbEntity
  8
001
 62
   253
370
    50
100
AcDbVertex
100
AcDb2dVertex
 10
83.670465
 20
43.140205
 30
0.0
  0
VERTEX
  5
2CB
330
2C6
100
AcDbEntity
  8
001
 62
   253
370
    50
100
AcDbVertex
100
AcDb2dVertex
 10
84.326111
 20
43.983497
 30
0.0
  0
VERTEX
  5
2CC
330
2C6
100
AcDbEntity
  8
001
 62
   253
370
    50
100
AcDbVertex
100
AcDb2dVertex
 10
84.945069
 20
44.854561
 30
0.0
  0
VERTEX
  5
2CD
330
2C6
100
AcDbEntity
  8
001
 62
   253
370
    50
100
AcDbVertex
100
AcDb2dVertex
 10
85.530507
 20
45.748324
 30
0.0
  0
VERTEX
  5
2CE
330
2C6
100
AcDbEntity
  8
001
 62
   253
370
    50
100
AcDbVertex
100
AcDb2dVertex
 10
86.082091
 20
46.663167
 30
0.0
  0
VERTEX
  5
2CF
330
2C6
100
AcDbEntity
  8
001
 62
   253
370
    50
100
AcDbVertex
100
AcDb2dVertex
 10
86.595655
 20
47.592315
 30
0.0
  0
VERTEX
  5
2D0
330
2C6
100
AcDbEntity
  8
001
 62
   253
370
    50
100
AcDbVertex
100
AcDb2dVertex
 10
87.074279
 20
48.540004
 30
0.0
  0
VERTEX
  5
2D1
330
2C6
100
AcDbEntity
  8
001
 62
   253
370
    50
100
AcDbVertex
100
AcDb2dVertex
 10
87.511913
 20
49.491859
 30
0.0
  0
VERTEX
  5
2D2
330
2C6
100
AcDbEntity
  8
001
 62
   253
370
    50
100
AcDbVertex
100
AcDb2dVertex
 10
87.914381
 20
50.459054
 30
0.0
  0
VERTEX
  5
2D3
330
2C6
100
AcDbEntity
  8
001
 62
   253
370
    50
100
AcDbVertex
100
AcDb2dVertex
 10
88.260855
 20
51.3828
 30
0.0
  0
VERTEX
  5
2D4
330
2C6
100
AcDbEntity
  8
001
 62
   253
370
    50
100
AcDbVertex
100
AcDb2dVertex
 10
88.576661
 20
52.317494
 30
0.0
  0
VERTEX
  5
2D5
330
2C6
100
AcDbEntity
  8
001
 62
   253
370
    50
100
AcDbVertex
100
AcDb2dVertex
 10
88.859573
 20
53.249766
 30
0.0
  0
VERTEX
  5
2D6
330
2C6
100
AcDbEntity
  8
001
 62
   253
370
    50
100
AcDbVertex
100
AcDb2dVertex
 10
89.114579
 20
54.190048
 30
0.0
  0
VERTEX
  5
2D7
330
2C6
100
AcDbEntity
  8
001
 62
   253
370
    50
100
AcDbVertex
100
AcDb2dVertex
 10
89.338562
 20
55.120236
 30
0.0
  0
VERTEX
  5
2D8
330
2C6
100
AcDbEntity
  8
001
 62
   253
370
    50
100
AcDbVertex
100
AcDb2dVertex
 10
89.536839
 20
56.056232
 30
0.0
  0
VERTEX
  5
2D9
330
2C6
100
AcDbEntity
  8
001
 62
   253
370
    50
100
AcDbVertex
100
AcDb2dVertex
 10
89.705992
 20
56.973923
 30
0.0
  0
VERTEX
  5
2DA
330
2C6
100
AcDbEntity
  8
001
 62
   253
370
    50
100
AcDbVertex
100
AcDb2dVertex
 10
89.852145
 20
57.895565
 30
0.0
  0
VERTEX
  5
2DB
330
2C6
100
AcDbEntity
  8
001
 62
   253
370
    50
100
AcDbVertex
100
AcDb2dVertex
 10
89.984673
 20
58.889832
 30
0.0
  0
VERTEX
  5
2DC
330
2C6
100
AcDbEntity
  8
001
 62
   253
370
    50
100
AcDbVertex
100
AcDb2dVertex
 10
90.092488
 20
59.887088
 30
0.0
  0
VERTEX
  5
2DD
330
2C6
100
AcDbEntity
  8
001
 62
   253
370
    50
100
AcDbVertex
100
AcDb2dVertex
 10
90.173965
 20
60.85734
 30
0.0
  0
VERTEX
  5
2DE
330
2C6
100
AcDbEntity
  8
001
 62
   253
370
    50
100
AcDbVertex
100
AcDb2dVertex
 10
90.232317
 20
61.829245
 30
0.0
  0
VERTEX
  5
2DF
330
2C6
100
AcDbEntity
  8
001
 62
   253
370
    50
100
AcDbVertex
100
AcDb2dVertex
 10
90.266272
 20
62.768022
 30
0.0
  0
VERTEX
  5
2E0
330
2C6
100
AcDbEntity
  8
001
 62
   253
370
    50
100
AcDbVertex
100
AcDb2dVertex
 10
90.277945
 20
63.707341
 30
0.0
  0
VERTEX
  5
2E1
330
2C6
100
AcDbEntity
  8
001
 62
   253
370
    50
100
AcDbVertex
100
AcDb2dVertex
 10
90.267784
 20
64.607266
 30
0.0
  0
VERTEX
  5
2E2
330
2C6
100
AcDbEntity
  8
001
 62
   253
370
    50
100
AcDbVertex
100
AcDb2dVertex
 10
90.235687
 20
65.506681
 30
0.0
  0
VERTEX
  5
2E3
330
2C6
100
AcDbEntity
  8
001
 62
   253
370
    50
100
AcDbVertex
100
AcDb2dVertex
 10
90.185343
 20
66.333381
 30
0.0
  0
VERTEX
  5
2E4
330
2C6
100
AcDbEntity
  8
001
 62
   253
370
    50
100
AcDbVertex
100
AcDb2dVertex
 10
90.112097
 20
67.158347
 30
0.0
  0
VERTEX
  5
2E5
330
2C6
100
AcDbEntity
  8
001
 62
   253
370
    50
100
AcDbVertex
100
AcDb2dVertex
 10
90.017195
 20
67.947167
 30
0.0
  0
VERTEX
  5
2E6
330
2C6
100
AcDbEntity
  8
001
 62
   253
370
    50
100
AcDbVertex
100
AcDb2dVertex
 10
89.894957
 20
68.73222
 30
0.0
  0
VERTEX
  5
2E7
330
2C6
100
AcDbEntity
  8
001
 62
   253
370
    50
100
AcDbVertex
100
AcDb2dVertex
 10
89.749406
 20
69.47789
 30
0.0
  0
VERTEX
  5
2E8
330
2C6
100
AcDbEntity
  8
001
 62
   253
370
    50
100
AcDbVertex
100
AcDb2dVertex
 10
89.572249
 20
70.216665
 30
0.0
  0
VERTEX
  5
2E9
330
2C6
100
AcDbEntity
  8
001
 62
   253
370
    50
100
AcDbVertex
100
AcDb2dVertex
 10
89.369974
 20
70.914035
 30
0.0
  0
VERTEX
  5
2EA
330
2C6
100
AcDbEntity
  8
001
 62
   253
370
    50
100
AcDbVertex
100
AcDb2dVertex
 10
89.131956
 20
71.600047
 30
0.0
  0
VERTEX
  5
2EB
330
2C6
100
AcDbEntity
  8
001
 62
   253
370
    50
100
AcDbVertex
100
AcDb2dVertex
 10
88.866743
 20
72.244294
 30
0.0
  0
VERTEX
  5
2EC
330
2C6
100
AcDbEntity
  8
001
 62
   253
370
    50
100
AcDbVertex
100
AcDb2dVertex
 10
88.562062
 20
72.870731
 30
0.0
  0
VERTEX
  5
2ED
330
2C6
100
AcDbEntity
  8
001
 62
   253
370
    50
100
AcDbVertex
100
AcDb2dVertex
 10
88.24214
 20
73.431452
 30
0.0
  0
VERTEX
  5
2EE
330
2C6
100
AcDbEntity
  8
001
 62
   253
370
    50
100
AcDbVertex
100
AcDb2dVertex
 10
87.886056
 20
73.969948
 30
0.0
  0
VERTEX
  5
2EF
330
2C6
100
AcDbEntity
  8
001
 62
   253
370
    50
100
AcDbVertex
100
AcDb2dVertex
 10
87.495778
 20
74.481976
 30
0.0
  0
VERTEX
  5
2F0
330
2C6
100
AcDbEntity
  8
001
 62
   253
370
    50
100
AcDbVertex
100
AcDb2dVertex
 10
87.072224
 20
74.966849
 30
0.0
  0
VERTEX
  5
2F1
330
2C6
100
AcDbEntity
  8
001
 62
   253
370
    50
100
AcDbVertex
100
AcDb2dVertex
 10
86.612182
 20
75.427732
 30
0.0
  0
VERTEX
  5
2F2
330
2C6
100
AcDbEntity
  8
001
 62
   253
370
    50
100
AcDbVertex
100
AcDb2dVertex
 10
86.122931
 20
75.857496
 30
0.0
  0
VERTEX
  5
2F3
330
2C6
100
AcDbEntity
  8
001
 62
   253
370
    50
100
AcDbVertex
100
AcDb2dVertex
 10
85.593961
 20
76.264689
 30
0.0
  0
VERTEX
  5
2F4
330
2C6
100
AcDbEntity
  8
001
 62
   253
370
    50
100
AcDbVertex
100
AcDb2dVertex
 10
85.040537
 20
76.637953
 30
0.0
  0
VERTEX
  5
2F5
330
2C6
100
AcDbEntity
  8
001
 62
   253
370
    50
100
AcDbVertex
100
AcDb2dVertex
 10
84.441228
 20
76.99161
 30
0.0
  0
VERTEX
  5
2F6
330
2C6
100
AcDbEntity
  8
001
 62
   253
370
    50
100
AcDbVertex
100
AcDb2dVertex
 10
83.823238
 20
77.311666
 30
0.0
  0
VERTEX
  5
2F7
330
2C6
100
AcDbEntity
  8
001
 62
   253
370
    50
100
AcDbVertex
100
AcDb2dVertex
 10
83.156421
 20
77.615781
 30
0.0
  0
VERTEX
  5
2F8
330
2C6
100
AcDbEntity
  8
001
 62
   253
370
    50
100
AcDbVertex
100
AcDb2dVertex
 10
82.476388
 20
77.888985
 30
0.0
  0
VERTEX
  5
2F9
330
2C6
100
AcDbEntity
  8
001
 62
   253
370
    50
100
AcDbVertex
100
AcDb2dVertex
 10
81.749745
 20
78.146167
 30
0.0
  0
VERTEX
  5
2FA
330
2C6
100
AcDbEntity
  8
001
 62
   253
370
    50
100
AcDbVertex
100
AcDb2dVertex
 10
81.013861
 20
78.37585
 30
0.0
  0
VERTEX
  5
2FB
330
2C6
100
AcDbEntity
  8
001
 62
   253
370
    50
100
AcDbVertex
100
AcDb2dVertex
 10
80.235004
 20
78.590215
 30
0.0
  0
VERTEX
  5
2FC
330
2C6
100
AcDbEntity
  8
001
 62
   253
370
    50
100
AcDbVertex
100
AcDb2dVertex
 10
79.449529
 20
78.778204
 30
0.0
  0
VERTEX
  5
2FD
330
2C6
100
AcDbEntity
  8
001
 62
   253
370
    50
100
AcDbVertex
100
AcDb2dVertex
 10
78.395978
 20
78.991291
 30
0.0
  0
VERTEX
  5
2FE
330
2C6
100
AcDbEntity
  8
001
 62
   253
370
    50
100
AcDbVertex
100
AcDb2dVertex
 10
77.337527
 20
79.180924
 30
0.0
  0
SEQEND
  5
2C7
330
2C6
100
AcDbEntity
  8
001
370
    50
  0
POLYLINE
  5
2FF
330
1F
100
AcDbEntity
  8
001
 62
   253
370
    50
100
AcDb2dPolyline
 66
     1
 10
0.0
 20
0.0
 30
0.0
  0
VERTEX
  5
301
330
2FF
100
AcDbEntity
  8
001
 62
   253
370
    50
100
AcDbVertex
100
AcDb2dVertex
 10
68.517617
 20
54.892034
 30
0.0
  0
VERTEX
  5
302
330
2FF
100
AcDbEntity
  8
001
 62
   253
370
    50
100
AcDbVertex
100
AcDb2dVertex
 10
68.708943
 20
54.829475
 30
0.0
  0
VERTEX
  5
303
330
2FF
100
AcDbEntity
  8
001
 62
   253
370
    50
100
AcDbVertex
100
AcDb2dVertex
 10
68.8999
 20
54.765801
 30
0.0
  0
VERTEX
  5
304
330
2FF
100
AcDbEntity
  8
001
 62
   253
370
    50
100
AcDbVertex
100
AcDb2dVertex
 10
69.728674
 20
54.461849
 30
0.0
  0
VERTEX
  5
305
330
2FF
100
AcDbEntity
  8
001
 62
   253
370
    50
100
AcDbVertex
100
AcDb2dVertex
 10
70.542673
 20
54.11962
 30
0.0
  0
VERTEX
  5
306
330
2FF
100
AcDbEntity
  8
001
 62
   253
370
    50
100
AcDbVertex
100
AcDb2dVertex
 10
71.341803
 20
53.742856
 30
0.0
  0
VERTEX
  5
307
330
2FF
100
AcDbEntity
  8
001
 62
   253
370
    50
100
AcDbVertex
100
AcDb2dVertex
 10
72.124581
 20
53.333419
 30
0.0
  0
VERTEX
  5
308
330
2FF
100
AcDbEntity
  8
001
 62
   253
370
    50
100
AcDbVertex
100
AcDb2dVertex
 10
72.889247
 20
52.892955
 30
0.0
  0
VERTEX
  5
309
330
2FF
100
AcDbEntity
  8
001
 62
   253
370
    50
100
AcDbVertex
100
AcDb2dVertex
 10
73.635936
 20
52.422604
 30
0.0
  0
VERTEX
  5
30A
330
2FF
100
AcDbEntity
  8
001
 62
   253
370
    50
100
AcDbVertex
100
AcDb2dVertex
 10
74.361062
 20
51.92603
 30
0.0
  0
VERTEX
  5
30B
330
2FF
100
AcDbEntity
  8
001
 62
   253
370
    50
100
AcDbVertex
100
AcDb2dVertex
 10
75.067052
 20
51.402582
 30
0.0
  0
VERTEX
  5
30C
330
2FF
100
AcDbEntity
  8
001
 62
   253
370
    50
100
AcDbVertex
100
AcDb2dVertex
 10
75.998861
 20
50.646789
 30
0.0
  0
VERTEX
  5
30D
330
2FF
100
AcDbEntity
  8
001
 62
   253
370
    50
100
AcDbVertex
100
AcDb2dVertex
 10
76.892969
 20
49.846532
 30
0.0
  0
VERTEX
  5
30E
330
2FF
100
AcDbEntity
  8
001
 62
   253
370
    50
100
AcDbVertex
100
AcDb2dVertex
 10
77.752224
 20
49.001277
 30
0.0
  0
VERTEX
  5
30F
330
2FF
100
AcDbEntity
  8
001
 62
   253
370
    50
100
AcDbVertex
100
AcDb2dVertex
 10
78.571281
 20
48.117187
 30
0.0
  0
VERTEX
  5
310
330
2FF
100
AcDbEntity
  8
001
 62
   253
370
    50
100
AcDbVertex
100
AcDb2dVertex
 10
79.350182
 20
47.195686
 30
0.0
  0
VERTEX
  5
311
330
2FF
100
AcDbEntity
  8
001
 62
   253
370
    50
100
AcDbVertex
100
AcDb2dVertex
 10
80.088528
 20
46.241041
 30
0.0
  0
VERTEX
  5
312
330
2FF
100
AcDbEntity
  8
001
 62
   253
370
    50
100
AcDbVertex
100
AcDb2dVertex
 10
80.807236
 20
45.224466
 30
0.0
  0
VERTEX
  5
313
330
2FF
100
AcDbEntity
  8
001
 62
   253
370
    50
100
AcDbVertex
100
AcDb2dVertex
 10
81.476398
 20
44.175324
 30
0.0
  0
VERTEX
  5
314
330
2FF
100
AcDbEntity
  8
001
 62
   253
370
    50
100
AcDbVertex
100
AcDb2dVertex
 10
82.096463
 20
43.092097
 30
0.0
  0
VERTEX
  5
315
330
2FF
100
AcDbEntity
  8
001
 62
   253
370
    50
100
AcDbVertex
100
AcDb2dVertex
 10
82.687811
 20
41.992054
 30
0.0
  0
SEQEND
  5
300
330
2FF
100
AcDbEntity
  8
001
370
    50
  0
POLYLINE
  5
316
330
1F
100
AcDbEntity
  8
001
 62
   253
370
    50
100
AcDb2dPolyline
 66
     1
 10
0.0
 20
0.0
 30
0.0
  0
VERTEX
  5
318
330
316
100
AcDbEntity
  8
001
 62
   253
370
    50
100
AcDbVertex
100
AcDb2dVertex
 10
68.517617
 20
54.892034
 30
0.0
  0
VERTEX
  5
319
330
316
100
AcDbEntity
  8
001
 62
   253
370
    50
100
AcDbVertex
100
AcDb2dVertex
 10
68.920963
 20
55.744636
 30
0.0
  0
VERTEX
  5
31A
330
316
100
AcDbEntity
  8
001
 62
   253
370
    50
100
AcDbVertex
100
AcDb2dVertex
 10
69.307505
 20
56.604665
 30
0.0
  0
VERTEX
  5
31B
330
316
100
AcDbEntity
  8
001
 62
   253
370
    50
100
AcDbVertex
100
AcDb2dVertex
 10
69.591959
 20
57.294859
 30
0.0
  0
VERTEX
  5
31C
330
316
100
AcDbEntity
  8
001
 62
   253
370
    50
100
AcDbVertex
100
AcDb2dVertex
 10
69.855816
 20
57.993327
 30
0.0
  0
VERTEX
  5
31D
330
316
100
AcDbEntity
  8
001
 62
   253
370
    50
100
AcDbVertex
100
AcDb2dVertex
 10
70.094079
 20
58.684458
 30
0.0
  0
VERTEX
  5
31E
330
316
100
AcDbEntity
  8
001
 62
   253
370
    50
100
AcDbVertex
100
AcDb2dVertex
 10
70.31
 20
59.382835
 30
0.0
  0
VERTEX
  5
31F
330
316
100
AcDbEntity
  8
001
 62
   253
370
    50
100
AcDbVertex
100
AcDb2dVertex
 10
70.500514
 20
60.088264
 30
0.0
  0
VERTEX
  5
320
330
316
100
AcDbEntity
  8
001
 62
   253
370
    50
100
AcDbVertex
100
AcDb2dVertex
 10
70.663031
 20
60.800667
 30
0.0
  0
VERTEX
  5
321
330
316
100
AcDbEntity
  8
001
 62
   253
370
    50
100
AcDbVertex
100
AcDb2dVertex
 10
70.791839
 20
61.499481
 30
0.0
  0
VERTEX
  5
322
330
316
100
AcDbEntity
  8
001
 62
   253
370
    50
100
AcDbVertex
100
AcDb2dVertex
 10
70.890039
 20
62.203253
 30
0.0
  0
VERTEX
  5
323
330
316
100
AcDbEntity
  8
001
 62
   253
370
    50
100
AcDbVertex
100
AcDb2dVertex
 10
70.930653
 20
62.598353
 30
0.0
  0
VERTEX
  5
324
330
316
100
AcDbEntity
  8
001
 62
   253
370
    50
100
AcDbVertex
100
AcDb2dVertex
 10
70.958928
 20
62.994403
 30
0.0
  0
VERTEX
  5
325
330
316
100
AcDbEntity
  8
001
 62
   253
370
    50
100
AcDbVertex
100
AcDb2dVertex
 10
70.974061
 20
63.385437
 30
0.0
  0
VERTEX
  5
326
330
316
100
AcDbEntity
  8
001
 62
   253
370
    50
100
AcDbVertex
100
AcDb2dVertex
 10
70.9821
 20
63.77681
 30
0.0
  0
SEQEND
  5
317
330
316
100
AcDbEntity
  8
001
370
    50
  0
POLYLINE
  5
327
330
1F
100
AcDbEntity
  8
001
 62
   253
370
    50
100
AcDb2dPolyline
 66
     1
 10
0.0
 20
0.0
 30
0.0
  0
VERTEX
  5
329
330
327
100
AcDbEntity
  8
001
 62
   253
370
    50
100
AcDbVertex
100
AcDb2dVertex
 10
70.9821
 20
63.77681
 30
0.0
  0
VERTEX
  5
32A
330
327
100
AcDbEntity
  8
001
 62
   253
370
    50
100
AcDbVertex
100
AcDb2dVertex
 10
70.970283
 20
64.247472
 30
0.0
  0
VERTEX
  5
32B
330
327
100
AcDbEntity
  8
001
 62
   253
370
    50
100
AcDbVertex
100
AcDb2dVertex
 10
70.947212
 20
64.717478
 30
0.0
  0
VERTEX
  5
32C
330
327
100
AcDbEntity
  8
001
 62
   253
370
    50
100
AcDbVertex
100
AcDb2dVertex
 10
70.905018
 20
65.176833
 30
0.0
  0
VERTEX
  5
32D
330
327
100
AcDbEntity
  8
001
 62
   253
370
    50
100
AcDbVertex
100
AcDb2dVertex
 10
70.843721
 20
65.634215
 30
0.0
  0
VERTEX
  5
32E
330
327
100
AcDbEntity
  8
001
 62
   253
370
    50
100
AcDbVertex
100
AcDb2dVertex
 10
70.765512
 20
66.087932
 30
0.0
  0
VERTEX
  5
32F
330
327
100
AcDbEntity
  8
001
 62
   253
370
    50
100
AcDbVertex
100
AcDb2dVertex
 10
70.670215
 20
66.53828
 30
0.0
  0
VERTEX
  5
330
330
327
100
AcDbEntity
  8
001
 62
   253
370
    50
100
AcDbVertex
100
AcDb2dVertex
 10
70.559456
 20
66.977072
 30
0.0
  0
VERTEX
  5
331
330
327
100
AcDbEntity
  8
001
 62
   253
370
    50
100
AcDbVertex
100
AcDb2dVertex
 10
70.431933
 20
67.411352
 30
0.0
  0
VERTEX
  5
332
330
327
100
AcDbEntity
  8
001
 62
   253
370
    50
100
AcDbVertex
100
AcDb2dVertex
 10
70.184746
 20
68.119499
 30
0.0
  0
VERTEX
  5
333
330
327
100
AcDbEntity
  8
001
 62
   253
370
    50
100
AcDbVertex
100
AcDb2dVertex
 10
69.894881
 20
68.811419
 30
0.0
  0
VERTEX
  5
334
330
327
100
AcDbEntity
  8
001
 62
   253
370
    50
100
AcDbVertex
100
AcDb2dVertex
 10
69.571512
 20
69.472325
 30
0.0
  0
VERTEX
  5
335
330
327
100
AcDbEntity
  8
001
 62
   253
370
    50
100
AcDbVertex
100
AcDb2dVertex
 10
69.211895
 20
70.114131
 30
0.0
  0
VERTEX
  5
336
330
327
100
AcDbEntity
  8
001
 62
   253
370
    50
100
AcDbVertex
100
AcDb2dVertex
 10
68.813929
 20
70.742794
 30
0.0
  0
VERTEX
  5
337
330
327
100
AcDbEntity
  8
001
 62
   253
370
    50
100
AcDbVertex
100
AcDb2dVertex
 10
68.384971
 20
71.350916
 30
0.0
  0
VERTEX
  5
338
330
327
100
AcDbEntity
  8
001
 62
   253
370
    50
100
AcDbVertex
100
AcDb2dVertex
 10
67.93352
 20
71.931508
 30
0.0
  0
VERTEX
  5
339
330
327
100
AcDbEntity
  8
001
 62
   253
370
    50
100
AcDbVertex
100
AcDb2dVertex
 10
67.454911
 20
72.48956
 30
0.0
  0
VERTEX
  5
33A
330
327
100
AcDbEntity
  8
001
 62
   253
370
    50
100
AcDbVertex
100
AcDb2dVertex
 10
67.108352
 20
72.862591
 30
0.0
  0
VERTEX
  5
33B
330
327
100
AcDbEntity
  8
001
 62
   253
370
    50
100
AcDbVertex
100
AcDb2dVertex
 10
66.755172
 20
73.229533
 30
0.0
  0
SEQEND
  5
328
330
327
100
AcDbEntity
  8
001
370
    50
  0
POLYLINE
  5
33C
330
1F
100
AcDbEntity
  8
001
 62
   253
370
    50
100
AcDb2dPolyline
 66
     1
 10
0.0
 20
0.0
 30
0.0
  0
VERTEX
  5
33E
330
33C
100
AcDbEntity
  8
001
 62
   253
370
    50
100
AcDbVertex
100
AcDb2dVertex
 10
72.857277
 20
76.300188
 30
0.0
  0
VERTEX
  5
33F
330
33C
100
AcDbEntity
  8
001
 62
   253
370
    50
100
AcDbVertex
100
AcDb2dVertex
 10
71.918036
 20
75.877633
 30
0.0
  0
VERTEX
  5
340
330
33C
100
AcDbEntity
  8
001
 62
   253
370
    50
100
AcDbVertex
100
AcDb2dVertex
 10
70.556864
 20
75.235615
 30
0.0
  0
VERTEX
  5
341
330
33C
100
AcDbEntity
  8
001
 62
   253
370
    50
100
AcDbVertex
100
AcDb2dVertex
 10
68.285776
 20
74.071387
 30
0.0
  0
VERTEX
  5
342
330
33C
100
AcDbEntity
  8
001
 62
   253
370
    50
100
AcDbVertex
100
AcDb2dVertex
 10
66.755172
 20
73.229533
 30
0.0
  0
SEQEND
  5
33D
330
33C
100
AcDbEntity
  8
001
370
    50
  0
POLYLINE
  5
343
330
1F
100
AcDbEntity
  8
001
 62
   253
370
    50
100
AcDb2dPolyline
 66
     1
 10
0.0
 20
0.0
 30
0.0
  0
VERTEX
  5
345
330
343
100
AcDbEntity
  8
001
 62
   253
370
    50
100
AcDbVertex
100
AcDb2dVertex
 10
90.206538
 20
108.657883
 30
0.0
  0
VERTEX
  5
346
330
343
100
AcDbEntity
  8
001
 62
   253
370
    50
100
AcDbVertex
100
AcDb2dVertex
 10
90.140879
 20
108.854033
 30
0.0
  0
VERTEX
  5
347
330
343
100
AcDbEntity
  8
001
 62
   253
370
    50
100
AcDbVertex
100
AcDb2dVertex
 10
90.070679
 20
109.048441
 30
0.0
  0
VERTEX
  5
348
330
343
100
AcDbEntity
  8
001
 62
   253
370
    50
100
AcDbVertex
100
AcDb2dVertex
 10
89.925851
 20
109.38757
 30
0.0
  0
VERTEX
  5
349
330
343
100
AcDbEntity
  8
001
 62
   253
370
    50
100
AcDbVertex
100
AcDb2dVertex
 10
89.761763
 20
109.718321
 30
0.0
  0
VERTEX
  5
34A
330
343
100
AcDbEntity
  8
001
 62
   253
370
    50
100
AcDbVertex
100
AcDb2dVertex
 10
89.610966
 20
109.998862
 30
0.0
  0
VERTEX
  5
34B
330
343
100
AcDbEntity
  8
001
 62
   253
370
    50
100
AcDbVertex
100
AcDb2dVertex
 10
89.452773
 20
110.275095
 30
0.0
  0
VERTEX
  5
34C
330
343
100
AcDbEntity
  8
001
 62
   253
370
    50
100
AcDbVertex
100
AcDb2dVertex
 10
89.258522
 20
110.59242
 30
0.0
  0
VERTEX
  5
34D
330
343
100
AcDbEntity
  8
001
 62
   253
370
    50
100
AcDbVertex
100
AcDb2dVertex
 10
89.055253
 20
110.904145
 30
0.0
  0
VERTEX
  5
34E
330
343
100
AcDbEntity
  8
001
 62
   253
370
    50
100
AcDbVertex
100
AcDb2dVertex
 10
88.813276
 20
111.254267
 30
0.0
  0
VERTEX
  5
34F
330
343
100
AcDbEntity
  8
001
 62
   253
370
    50
100
AcDbVertex
100
AcDb2dVertex
 10
88.562062
 20
111.597792
 30
0.0
  0
VERTEX
  5
350
330
343
100
AcDbEntity
  8
001
 62
   253
370
    50
100
AcDbVertex
100
AcDb2dVertex
 10
88.23563
 20
112.018912
 30
0.0
  0
VERTEX
  5
351
330
343
100
AcDbEntity
  8
001
 62
   253
370
    50
100
AcDbVertex
100
AcDb2dVertex
 10
87.897226
 20
112.430515
 30
0.0
  0
VERTEX
  5
352
330
343
100
AcDbEntity
  8
001
 62
   253
370
    50
100
AcDbVertex
100
AcDb2dVertex
 10
87.505311
 20
112.881009
 30
0.0
  0
VERTEX
  5
353
330
343
100
AcDbEntity
  8
001
 62
   253
370
    50
100
AcDbVertex
100
AcDb2dVertex
 10
87.101094
 20
113.320495
 30
0.0
  0
VERTEX
  5
354
330
343
100
AcDbEntity
  8
001
 62
   253
370
    50
100
AcDbVertex
100
AcDb2dVertex
 10
86.627761
 20
113.807301
 30
0.0
  0
VERTEX
  5
355
330
343
100
AcDbEntity
  8
001
 62
   253
370
    50
100
AcDbVertex
100
AcDb2dVertex
 10
86.141158
 20
114.280871
 30
0.0
  0
VERTEX
  5
356
330
343
100
AcDbEntity
  8
001
 62
   253
370
    50
100
AcDbVertex
100
AcDb2dVertex
 10
85.59747
 20
114.78222
 30
0.0
  0
VERTEX
  5
357
330
343
100
AcDbEntity
  8
001
 62
   253
370
    50
100
AcDbVertex
100
AcDb2dVertex
 10
85.040537
 20
115.268807
 30
0.0
  0
VERTEX
  5
358
330
343
100
AcDbEntity
  8
001
 62
   253
370
    50
100
AcDbVertex
100
AcDb2dVertex
 10
84.446185
 20
115.761189
 30
0.0
  0
VERTEX
  5
359
330
343
100
AcDbEntity
  8
001
 62
   253
370
    50
100
AcDbVertex
100
AcDb2dVertex
 10
83.839455
 20
116.238265
 30
0.0
  0
VERTEX
  5
35A
330
343
100
AcDbEntity
  8
001
 62
   253
370
    50
100
AcDbVertex
100
AcDb2dVertex
 10
83.183964
 20
116.727601
 30
0.0
  0
VERTEX
  5
35B
330
343
100
AcDbEntity
  8
001
 62
   253
370
    50
100
AcDbVertex
100
AcDb2dVertex
 10
82.516308
 20
117.200159
 30
0.0
  0
VERTEX
  5
35C
330
343
100
AcDbEntity
  8
001
 62
   253
370
    50
100
AcDbVertex
100
AcDb2dVertex
 10
81.783144
 20
117.691232
 30
0.0
  0
VERTEX
  5
35D
330
343
100
AcDbEntity
  8
001
 62
   253
370
    50
100
AcDbVertex
100
AcDb2dVertex
 10
81.037847
 20
118.163865
 30
0.0
  0
VERTEX
  5
35E
330
343
100
AcDbEntity
  8
001
 62
   253
370
    50
100
AcDbVertex
100
AcDb2dVertex
 10
80.250125
 20
118.636733
 30
0.0
  0
VERTEX
  5
35F
330
343
100
AcDbEntity
  8
001
 62
   253
370
    50
100
AcDbVertex
100
AcDb2dVertex
 10
79.449529
 20
119.087038
 30
0.0
  0
VERTEX
  5
360
330
343
100
AcDbEntity
  8
001
 62
   253
370
    50
100
AcDbVertex
100
AcDb2dVertex
 10
78.399363
 20
119.632718
 30
0.0
  0
VERTEX
  5
361
330
343
100
AcDbEntity
  8
001
 62
   253
370
    50
100
AcDbVertex
100
AcDb2dVertex
 10
77.337527
 20
120.156388
 30
0.0
  0
SEQEND
  5
344
330
343
100
AcDbEntity
  8
001
370
    50
  0
ARC
  5
362
330
1F
100
AcDbEntity
  8
001
 62
   253
370
    50
100
AcDbCircle
 10
61.386267
 20
60.14334
 30
0.0
 40
30.0
100
AcDbArc
 50
302.120975
 51
350.584433
  0
ARC
  5
363
330
1F
100
AcDbEntity
  8
001
 62
   253
370
    50
100
AcDbCircle
 10
61.386267
 20
100.3277
 30
0.0
 40
30.0
100
AcDbArc
 50
9.415567
 51
16.158028
  0
LINE
  5
364
330
1F
100
AcDbEntity
  8
001
 62
   253
370
    50
100
AcDbLine
 10
90.9821
 20
105.23552
 30
0.0
 11
90.9821
 21
55.23552
 31
0.0
  0
POLYLINE
  5
365
330
1F
100
AcDbEntity
  8
001
 62
   253
370
    50
100
AcDb2dPolyline
 66
     1
 10
0.0
 20
0.0
 30
0.0
  0
VERTEX
  5
367
330
365
100
AcDbEntity
  8
001
 62
   253
370
    50
100
AcDbVertex
100
AcDb2dVertex
 10
82.687811
 20
112.668473
 30
0.0
  0
VERTEX
  5
368
330
365
100
AcDbEntity
  8
001
 62
   253
370
    50
100
AcDbVertex
100
AcDb2dVertex
 10
83.180127
 20
112.410075
 30
0.0
  0
VERTEX
  5
369
330
365
100
AcDbEntity
  8
001
 62
   253
370
    50
100
AcDbVertex
100
AcDb2dVertex
 10
83.670465
 20
112.148002
 30
0.0
  0
VERTEX
  5
36A
330
365
100
AcDbEntity
  8
001
 62
   253
370
    50
100
AcDbVertex
100
AcDb2dVertex
 10
84.303491
 20
111.79682
 30
0.0
  0
VERTEX
  5
36B
330
365
100
AcDbEntity
  8
001
 62
   253
370
    50
100
AcDbVertex
100
AcDb2dVertex
 10
84.930395
 20
111.434742
 30
0.0
  0
VERTEX
  5
36C
330
365
100
AcDbEntity
  8
001
 62
   253
370
    50
100
AcDbVertex
100
AcDb2dVertex
 10
85.493971
 20
111.09801
 30
0.0
  0
VERTEX
  5
36D
330
365
100
AcDbEntity
  8
001
 62
   253
370
    50
100
AcDbVertex
100
AcDb2dVertex
 10
86.052603
 20
110.753171
 30
0.0
  0
VERTEX
  5
36E
330
365
100
AcDbEntity
  8
001
 62
   253
370
    50
100
AcDbVertex
100
AcDb2dVertex
 10
86.558583
 20
110.430633
 30
0.0
  0
VERTEX
  5
36F
330
365
100
AcDbEntity
  8
001
 62
   253
370
    50
100
AcDbVertex
100
AcDb2dVertex
 10
87.060121
 20
110.101245
 30
0.0
  0
VERTEX
  5
370
330
365
100
AcDbEntity
  8
001
 62
   253
370
    50
100
AcDbVertex
100
AcDb2dVertex
 10
87.488824
 20
109.812099
 30
0.0
  0
VERTEX
  5
371
330
365
100
AcDbEntity
  8
001
 62
   253
370
    50
100
AcDbVertex
100
AcDb2dVertex
 10
87.914381
 20
109.518279
 30
0.0
  0
VERTEX
  5
372
330
365
100
AcDbEntity
  8
001
 62
   253
370
    50
100
AcDbVertex
100
AcDb2dVertex
 10
88.243689
 20
109.286526
 30
0.0
  0
VERTEX
  5
373
330
365
100
AcDbEntity
  8
001
 62
   253
370
    50
100
AcDbVertex
100
AcDb2dVertex
 10
88.571543
 20
109.052903
 30
0.0
  0
VERTEX
  5
374
330
365
100
AcDbEntity
  8
001
 62
   253
370
    50
100
AcDbVertex
100
AcDb2dVertex
 10
88.838348
 20
108.861493
 30
0.0
  0
VERTEX
  5
375
330
365
100
AcDbEntity
  8
001
 62
   253
370
    50
100
AcDbVertex
100
AcDb2dVertex
 10
89.10538
 20
108.669895
 30
0.0
  0
VERTEX
  5
376
330
365
100
AcDbEntity
  8
001
 62
   253
370
    50
100
AcDbVertex
100
AcDb2dVertex
 10
89.318199
 20
108.518667
 30
0.0
  0
VERTEX
  5
377
330
365
100
AcDbEntity
  8
001
 62
   253
370
    50
100
AcDbVertex
100
AcDb2dVertex
 10
89.532987
 20
108.371593
 30
0.0
  0
VERTEX
  5
378
330
365
100
AcDbEntity
  8
001
 62
   253
370
    50
100
AcDbVertex
100
AcDb2dVertex
 10
89.690106
 20
108.270253
 30
0.0
  0
VERTEX
  5
379
330
365
100
AcDbEntity
  8
001
 62
   253
370
    50
100
AcDbVertex
100
AcDb2dVertex
 10
89.852145
 20
108.173528
 30
0.0
  0
VERTEX
  5
37A
330
365
100
AcDbEntity
  8
001
 62
   253
370
    50
100
AcDbVertex
100
AcDb2dVertex
 10
89.967355
 20
108.113853
 30
0.0
  0
VERTEX
  5
37B
330
365
100
AcDbEntity
  8
001
 62
   253
370
    50
100
AcDbVertex
100
AcDb2dVertex
 10
90.089202
 20
108.076965
 30
0.0
  0
VERTEX
  5
37C
330
365
100
AcDbEntity
  8
001
 62
   253
370
    50
100
AcDbVertex
100
AcDb2dVertex
 10
90.113004
 20
108.074096
 30
0.0
  0
VERTEX
  5
37D
330
365
100
AcDbEntity
  8
001
 62
   253
370
    50
100
AcDbVertex
100
AcDb2dVertex
 10
90.136973
 20
108.071987
 30
0.0
  0
SEQEND
  5
366
330
365
100
AcDbEntity
  8
001
370
    50
  0
LINE
  5
37E
330
1F
100
AcDbEntity
  8
001
 62
   253
370
    50
100
AcDbLine
 10
77.337527
 20
34.744165
 30
0.0
 11
77.337527
 21
34.73552
 31
0.0
  0
POLYLINE
  5
37F
330
1F
100
AcDbEntity
  8
001
 62
   253
370
    50
100
AcDb2dPolyline
 66
     1
 10
0.0
 20
0.0
 30
0.0
  0
VERTEX
  5
381
330
37F
100
AcDbEntity
  8
001
 62
   253
370
    50
100
AcDbVertex
100
AcDb2dVertex
 10
77.337527
 20
34.744165
 30
0.0
  0
VERTEX
  5
382
330
37F
100
AcDbEntity
  8
001
 62
   253
370
    50
100
AcDbVertex
100
AcDb2dVertex
 10
78.319482
 20
35.401946
 30
0.0
  0
VERTEX
  5
383
330
37F
100
AcDbEntity
  8
001
 62
   253
370
    50
100
AcDbVertex
100
AcDb2dVertex
 10
79.284167
 20
36.083868
 30
0.0
  0
VERTEX
  5
384
330
37F
100
AcDbEntity
  8
001
 62
   253
370
    50
100
AcDbVertex
100
AcDb2dVertex
 10
79.910721
 20
36.563003
 30
0.0
  0
VERTEX
  5
385
330
37F
100
AcDbEntity
  8
001
 62
   253
370
    50
100
AcDbVertex
100
AcDb2dVertex
 10
80.521453
 20
37.062246
 30
0.0
  0
VERTEX
  5
386
330
37F
100
AcDbEntity
  8
001
 62
   253
370
    50
100
AcDbVertex
100
AcDb2dVertex
 10
81.118932
 20
37.580271
 30
0.0
  0
VERTEX
  5
387
330
37F
100
AcDbEntity
  8
001
 62
   253
370
    50
100
AcDbVertex
100
AcDb2dVertex
 10
81.708241
 20
38.107697
 30
0.0
  0
SEQEND
  5
380
330
37F
100
AcDbEntity
  8
001
370
    50
  0
POLYLINE
  5
388
330
1F
100
AcDbEntity
  8
001
 62
   253
370
    50
100
AcDb2dPolyline
 66
     1
 10
0.0
 20
0.0
 30
0.0
  0
VERTEX
  5
38A
330
388
100
AcDbEntity
  8
001
 62
   253
370
    50
100
AcDbVertex
100
AcDb2dVertex
 10
81.708241
 20
38.107697
 30
0.0
  0
VERTEX
  5
38B
330
388
100
AcDbEntity
  8
001
 62
   253
370
    50
100
AcDbVertex
100
AcDb2dVertex
 10
81.579825
 20
38.056693
 30
0.0
  0
VERTEX
  5
38C
330
388
100
AcDbEntity
  8
001
 62
   253
370
    50
100
AcDbVertex
100
AcDb2dVertex
 10
81.448306
 20
38.022824
 30
0.0
  0
VERTEX
  5
38D
330
388
100
AcDbEntity
  8
001
 62
   253
370
    50
100
AcDbVertex
100
AcDb2dVertex
 10
81.305331
 20
38.019436
 30
0.0
  0
VERTEX
  5
38E
330
388
100
AcDbEntity
  8
001
 62
   253
370
    50
100
AcDbVertex
100
AcDb2dVertex
 10
81.162221
 20
38.043585
 30
0.0
  0
VERTEX
  5
38F
330
388
100
AcDbEntity
  8
001
 62
   253
370
    50
100
AcDbVertex
100
AcDb2dVertex
 10
80.998966
 20
38.096089
 30
0.0
  0
VERTEX
  5
390
330
388
100
AcDbEntity
  8
001
 62
   253
370
    50
100
AcDbVertex
100
AcDb2dVertex
 10
80.844202
 20
38.167826
 30
0.0
  0
VERTEX
  5
391
330
388
100
AcDbEntity
  8
001
 62
   253
370
    50
100
AcDbVertex
100
AcDb2dVertex
 10
80.66384
 20
38.274257
 30
0.0
  0
VERTEX
  5
392
330
388
100
AcDbEntity
  8
001
 62
   253
370
    50
100
AcDbVertex
100
AcDb2dVertex
 10
80.489277
 20
38.391143
 30
0.0
  0
SEQEND
  5
389
330
388
100
AcDbEntity
  8
001
370
    50
  0
POLYLINE
  5
393
330
1F
100
AcDbEntity
  8
001
 62
   253
370
    50
100
AcDb2dPolyline
 66
     1
 10
0.0
 20
0.0
 30
0.0
  0
VERTEX
  5
395
330
393
100
AcDbEntity
  8
001
 62
   253
370
    50
100
AcDbVertex
100
AcDb2dVertex
 10
80.489277
 20
38.391143
 30
0.0
  0
VERTEX
  5
396
330
393
100
AcDbEntity
  8
001
 62
   253
370
    50
100
AcDbVertex
100
AcDb2dVertex
 10
81.097734
 20
39.249365
 30
0.0
  0
VERTEX
  5
397
330
393
100
AcDbEntity
  8
001
 62
   253
370
    50
100
AcDbVertex
100
AcDb2dVertex
 10
81.672872
 20
40.127941
 30
0.0
  0
VERTEX
  5
398
330
393
100
AcDbEntity
  8
001
 62
   253
370
    50
100
AcDbVertex
100
AcDb2dVertex
 10
82.197331
 20
41.049619
 30
0.0
  0
VERTEX
  5
399
330
393
100
AcDbEntity
  8
001
 62
   253
370
    50
100
AcDbVertex
100
AcDb2dVertex
 10
82.687811
 20
41.992054
 30
0.0
  0
SEQEND
  5
394
330
393
100
AcDbEntity
  8
001
370
    50
  0
LINE
  5
39A
330
1F
100
AcDbEntity
  8
001
 62
   253
370
    50
100
AcDbLine
 10
77.337527
 20
103.749309
 30
0.0
 11
77.337527
 21
79.180924
 31
0.0
  0
POLYLINE
  5
39B
330
1F
100
AcDbEntity
  8
001
 62
   253
370
    50
100
AcDb2dPolyline
 66
     1
 10
0.0
 20
0.0
 30
0.0
  0
VERTEX
  5
39D
330
39B
100
AcDbEntity
  8
001
 62
   253
370
    50
100
AcDbVertex
100
AcDb2dVertex
 10
77.337527
 20
103.749309
 30
0.0
  0
VERTEX
  5
39E
330
39B
100
AcDbEntity
  8
001
 62
   253
370
    50
100
AcDbVertex
100
AcDb2dVertex
 10
77.605648
 20
103.701462
 30
0.0
  0
VERTEX
  5
39F
330
39B
100
AcDbEntity
  8
001
 62
   253
370
    50
100
AcDbVertex
100
AcDb2dVertex
 10
77.873638
 20
103.652809
 30
0.0
  0
VERTEX
  5
3A0
330
39B
100
AcDbEntity
  8
001
 62
   253
370
    50
100
AcDbVertex
100
AcDb2dVertex
 10
78.863192
 20
103.458197
 30
0.0
  0
VERTEX
  5
3A1
330
39B
100
AcDbEntity
  8
001
 62
   253
370
    50
100
AcDbVertex
100
AcDb2dVertex
 10
79.846742
 20
103.235794
 30
0.0
  0
VERTEX
  5
3A2
330
39B
100
AcDbEntity
  8
001
 62
   253
370
    50
100
AcDbVertex
100
AcDb2dVertex
 10
80.779413
 20
102.995536
 30
0.0
  0
VERTEX
  5
3A3
330
39B
100
AcDbEntity
  8
001
 62
   253
370
    50
100
AcDbVertex
100
AcDb2dVertex
 10
81.708241
 20
102.740004
 30
0.0
  0
SEQEND
  5
39C
330
39B
100
AcDbEntity
  8
001
370
    50
  0
POLYLINE
  5
3A4
330
1F
100
AcDbEntity
  8
001
 62
   253
370
    50
100
AcDb2dPolyline
 66
     1
 10
0.0
 20
0.0
 30
0.0
  0
VERTEX
  5
3A6
330
3A4
100
AcDbEntity
  8
001
 62
   253
370
    50
100
AcDbVertex
100
AcDb2dVertex
 10
81.708241
 20
102.740004
 30
0.0
  0
VERTEX
  5
3A7
330
3A4
100
AcDbEntity
  8
001
 62
   253
370
    50
100
AcDbVertex
100
AcDb2dVertex
 10
81.580855
 20
103.752214
 30
0.0
  0
VERTEX
  5
3A8
330
3A4
100
AcDbEntity
  8
001
 62
   253
370
    50
100
AcDbVertex
100
AcDb2dVertex
 10
81.448306
 20
104.763731
 30
0.0
  0
VERTEX
  5
3A9
330
3A4
100
AcDbEntity
  8
001
 62
   253
370
    50
100
AcDbVertex
100
AcDb2dVertex
 10
81.309741
 20
105.751354
 30
0.0
  0
VERTEX
  5
3AA
330
3A4
100
AcDbEntity
  8
001
 62
   253
370
    50
100
AcDbVertex
100
AcDb2dVertex
 10
81.162221
 20
106.737719
 30
0.0
  0
VERTEX
  5
3AB
330
3A4
100
AcDbEntity
  8
001
 62
   253
370
    50
100
AcDbVertex
100
AcDb2dVertex
 10
81.009027
 20
107.703202
 30
0.0
  0
VERTEX
  5
3AC
330
3A4
100
AcDbEntity
  8
001
 62
   253
370
    50
100
AcDbVertex
100
AcDb2dVertex
 10
80.844202
 20
108.666708
 30
0.0
  0
VERTEX
  5
3AD
330
3A4
100
AcDbEntity
  8
001
 62
   253
370
    50
100
AcDbVertex
100
AcDb2dVertex
 10
80.670431
 20
109.603643
 30
0.0
  0
VERTEX
  5
3AE
330
3A4
100
AcDbEntity
  8
001
 62
   253
370
    50
100
AcDbVertex
100
AcDb2dVertex
 10
80.489277
 20
110.539244
 30
0.0
  0
SEQEND
  5
3A5
330
3A4
100
AcDbEntity
  8
001
370
    50
  0
POLYLINE
  5
3AF
330
1F
100
AcDbEntity
  8
001
 62
   253
370
    50
100
AcDb2dPolyline
 66
     1
 10
0.0
 20
0.0
 30
0.0
  0
VERTEX
  5
3B1
330
3AF
100
AcDbEntity
  8
001
 62
   253
370
    50
100
AcDbVertex
100
AcDb2dVertex
 10
80.489277
 20
110.539244
 30
0.0
  0
VERTEX
  5
3B2
330
3AF
100
AcDbEntity
  8
001
 62
   253
370
    50
100
AcDbVertex
100
AcDb2dVertex
 10
81.085934
 20
111.082256
 30
0.0
  0
VERTEX
  5
3B3
330
3AF
100
AcDbEntity
  8
001
 62
   253
370
    50
100
AcDbVertex
100
AcDb2dVertex
 10
81.672872
 20
111.635418
 30
0.0
  0
VERTEX
  5
3B4
330
3AF
100
AcDbEntity
  8
001
 62
   253
370
    50
100
AcDbVertex
100
AcDb2dVertex
 10
81.923475
 20
111.881664
 30
0.0
  0
VERTEX
  5
3B5
330
3AF
100
AcDbEntity
  8
001
 62
   253
370
    50
100
AcDbVertex
100
AcDb2dVertex
 10
82.172233
 20
112.129836
 30
0.0
  0
SEQEND
  5
3B0
330
3AF
100
AcDbEntity
  8
001
370
    50
  0
POLYLINE
  5
3B6
330
1F
100
AcDbEntity
  8
001
 62
   253
370
    50
100
AcDb2dPolyline
 66
     1
 10
0.0
 20
0.0
 30
0.0
  0
VERTEX
  5
3B8
330
3B6
100
AcDbEntity
  8
001
 62
   253
370
    50
100
AcDbVertex
100
AcDb2dVertex
 10
68.469113
 20
102.982425
 30
0.0
  0
VERTEX
  5
3B9
330
3B6
100
AcDbEntity
  8
001
 62
   253
370
    50
100
AcDbVertex
100
AcDb2dVertex
 10
68.469288
 20
102.836825
 30
0.0
  0
VERTEX
  5
3BA
330
3B6
100
AcDbEntity
  8
001
 62
   253
370
    50
100
AcDbVertex
100
AcDb2dVertex
 10
68.470549
 20
102.624033
 30
0.0
  0
VERTEX
  5
3BB
330
3B6
100
AcDbEntity
  8
001
 62
   253
370
    50
100
AcDbVertex
100
AcDb2dVertex
 10
68.488531
 20
101.79978
 30
0.0
  0
VERTEX
  5
3BC
330
3B6
100
AcDbEntity
  8
001
 62
   253
370
    50
100
AcDbVertex
100
AcDb2dVertex
 10
68.510946
 20
101.23606
 30
0.0
  0
SEQEND
  5
3B7
330
3B6
100
AcDbEntity
  8
001
370
    50
  0
POLYLINE
  5
3BD
330
1F
100
AcDbEntity
  8
001
 62
   253
370
    50
100
AcDb2dPolyline
 66
     1
 10
0.0
 20
0.0
 30
0.0
  0
VERTEX
  5
3BF
330
3BD
100
AcDbEntity
  8
001
 62
   253
370
    50
100
AcDbVertex
100
AcDb2dVertex
 10
77.337527
 20
103.749309
 30
0.0
  0
VERTEX
  5
3C0
330
3BD
100
AcDbEntity
  8
001
 62
   253
370
    50
100
AcDbVertex
100
AcDb2dVertex
 10
75.537086
 20
103.594181
 30
0.0
  0
VERTEX
  5
3C1
330
3BD
100
AcDbEntity
  8
001
 62
   253
370
    50
100
AcDbVertex
100
AcDb2dVertex
 10
72.905714
 20
103.366975
 30
0.0
  0
VERTEX
  5
3C2
330
3BD
100
AcDbEntity
  8
001
 62
   253
370
    50
100
AcDbVertex
100
AcDb2dVertex
 10
70.271465
 20
103.138844
 30
0.0
  0
VERTEX
  5
3C3
330
3BD
100
AcDbEntity
  8
001
 62
   253
370
    50
100
AcDbVertex
100
AcDb2dVertex
 10
68.469113
 20
102.982425
 30
0.0
  0
SEQEND
  5
3BE
330
3BD
100
AcDbEntity
  8
001
370
    50
  0
POLYLINE
  5
3C4
330
1F
100
AcDbEntity
  8
001
 62
   253
370
    50
100
AcDb2dPolyline
 66
     1
 10
0.0
 20
0.0
 30
0.0
  0
VERTEX
  5
3C6
330
3C4
100
AcDbEntity
  8
001
 62
   253
370
    50
100
AcDbVertex
100
AcDb2dVertex
 10
75.615663
 20
87.849574
 30
0.0
  0
VERTEX
  5
3C7
330
3C4
100
AcDbEntity
  8
001
 62
   253
370
    50
100
AcDbVertex
100
AcDb2dVertex
 10
75.640428
 20
86.779452
 30
0.0
  0
VERTEX
  5
3C8
330
3C4
100
AcDbEntity
  8
001
 62
   253
370
    50
100
AcDbVertex
100
AcDb2dVertex
 10
75.66402
 20
85.70931
 30
0.0
  0
VERTEX
  5
3C9
330
3C4
100
AcDbEntity
  8
001
 62
   253
370
    50
100
AcDbVertex
100
AcDb2dVertex
 10
75.68529
 20
84.630487
 30
0.0
  0
VERTEX
  5
3CA
330
3C4
100
AcDbEntity
  8
001
 62
   253
370
    50
100
AcDbVertex
100
AcDb2dVertex
 10
75.702175
 20
83.551563
 30
0.0
  0
VERTEX
  5
3CB
330
3C4
100
AcDbEntity
  8
001
 62
   253
370
    50
100
AcDbVertex
100
AcDb2dVertex
 10
75.712139
 20
82.460969
 30
0.0
  0
VERTEX
  5
3CC
330
3C4
100
AcDbEntity
  8
001
 62
   253
370
    50
100
AcDbVertex
100
AcDb2dVertex
 10
75.709874
 20
81.370396
 30
0.0
  0
VERTEX
  5
3CD
330
3C4
100
AcDbEntity
  8
001
 62
   253
370
    50
100
AcDbVertex
100
AcDb2dVertex
 10
75.692017
 20
80.275608
 30
0.0
  0
VERTEX
  5
3CE
330
3C4
100
AcDbEntity
  8
001
 62
   253
370
    50
100
AcDbVertex
100
AcDb2dVertex
 10
75.665119
 20
79.180924
 30
0.0
  0
SEQEND
  5
3C5
330
3C4
100
AcDbEntity
  8
001
370
    50
  0
POLYLINE
  5
3CF
330
1F
100
AcDbEntity
  8
001
 62
   253
370
    50
100
AcDb2dPolyline
 66
     1
 10
0.0
 20
0.0
 30
0.0
  0
VERTEX
  5
3D1
330
3CF
100
AcDbEntity
  8
001
 62
   253
370
    50
100
AcDbVertex
100
AcDb2dVertex
 10
75.615663
 20
87.849574
 30
0.0
  0
VERTEX
  5
3D2
330
3CF
100
AcDbEntity
  8
001
 62
   253
370
    50
100
AcDbVertex
100
AcDb2dVertex
 10
73.822346
 20
88.031777
 30
0.0
  0
VERTEX
  5
3D3
330
3CF
100
AcDbEntity
  8
001
 62
   253
370
    50
100
AcDbVertex
100
AcDb2dVertex
 10
71.201292
 20
88.29756
 30
0.0
  0
VERTEX
  5
3D4
330
3CF
100
AcDbEntity
  8
001
 62
   253
370
    50
100
AcDbVertex
100
AcDb2dVertex
 10
68.573713
 20
88.563283
 30
0.0
  0
VERTEX
  5
3D5
330
3CF
100
AcDbEntity
  8
001
 62
   253
370
    50
100
AcDbVertex
100
AcDb2dVertex
 10
66.77586
 20
88.744741
 30
0.0
  0
SEQEND
  5
3D0
330
3CF
100
AcDbEntity
  8
001
370
    50
  0
LINE
  5
3D6
330
1F
100
AcDbEntity
  8
001
 62
   253
370
    50
100
AcDbLine
 10
66.77586
 20
100.182955
 30
0.0
 11
66.77586
 21
88.744741
 31
0.0
  0
POLYLINE
  5
3D7
330
1F
100
AcDbEntity
  8
001
 62
   253
370
    50
100
AcDb2dPolyline
 66
     1
 10
0.0
 20
0.0
 30
0.0
  0
VERTEX
  5
3D9
330
3D7
100
AcDbEntity
  8
001
 62
   253
370
    50
100
AcDbVertex
100
AcDb2dVertex
 10
68.988797
 20
100.381349
 30
0.0
  0
VERTEX
  5
3DA
330
3D7
100
AcDbEntity
  8
001
 62
   253
370
    50
100
AcDbVertex
100
AcDb2dVertex
 10
68.539311
 20
100.341086
 30
0.0
  0
VERTEX
  5
3DB
330
3D7
100
AcDbEntity
  8
001
 62
   253
370
    50
100
AcDbVertex
100
AcDb2dVertex
 10
67.882373
 20
100.282211
 30
0.0
  0
VERTEX
  5
3DC
330
3D7
100
AcDbEntity
  8
001
 62
   253
370
    50
100
AcDbVertex
100
AcDb2dVertex
 10
67.22538
 20
100.22329
 30
0.0
  0
VERTEX
  5
3DD
330
3D7
100
AcDbEntity
  8
001
 62
   253
370
    50
100
AcDbVertex
100
AcDb2dVertex
 10
66.77586
 20
100.182955
 30
0.0
  0
SEQEND
  5
3D8
330
3D7
100
AcDbEntity
  8
001
370
    50
  0
POLYLINE
  5
3DE
330
1F
100
AcDbEntity
  8
001
 62
   253
370
    50
100
AcDb2dPolyline
 66
     1
 10
0.0
 20
0.0
 30
0.0
  0
VERTEX
  5
3E0
330
3DE
100
AcDbEntity
  8
001
 62
   253
370
    50
100
AcDbVertex
100
AcDb2dVertex
 10
68.935509
 20
101.273705
 30
0.0
  0
VERTEX
  5
3E1
330
3DE
100
AcDbEntity
  8
001
 62
   253
370
    50
100
AcDbVertex
100
AcDb2dVertex
 10
68.944618
 20
101.092918
 30
0.0
  0
VERTEX
  5
3E2
330
3DE
100
AcDbEntity
  8
001
 62
   253
370
    50
100
AcDbVertex
100
AcDb2dVertex
 10
68.959378
 20
100.828772
 30
0.0
  0
VERTEX
  5
3E3
330
3DE
100
AcDbEntity
  8
001
 62
   253
370
    50
100
AcDbVertex
100
AcDb2dVertex
 10
68.976257
 20
100.563077
 30
0.0
  0
VERTEX
  5
3E4
330
3DE
100
AcDbEntity
  8
001
 62
   253
370
    50
100
AcDbVertex
100
AcDb2dVertex
 10
68.988797
 20
100.381349
 30
0.0
  0
SEQEND
  5
3DF
330
3DE
100
AcDbEntity
  8
001
370
    50
  0
POLYLINE
  5
3E5
330
1F
100
AcDbEntity
  8
001
 62
   253
370
    50
100
AcDb2dPolyline
 66
     1
 10
0.0
 20
0.0
 30
0.0
  0
VERTEX
  5
3E7
330
3E5
100
AcDbEntity
  8
001
 62
   253
370
    50
100
AcDbVertex
100
AcDb2dVertex
 10
68.935509
 20
101.273705
 30
0.0
  0
VERTEX
  5
3E8
330
3E5
100
AcDbEntity
  8
001
 62
   253
370
    50
100
AcDbVertex
100
AcDb2dVertex
 10
68.849271
 20
101.266059
 30
0.0
  0
VERTEX
  5
3E9
330
3E5
100
AcDbEntity
  8
001
 62
   253
370
    50
100
AcDbVertex
100
AcDb2dVertex
 10
68.72323
 20
101.254885
 30
0.0
  0
VERTEX
  5
3EA
330
3E5
100
AcDbEntity
  8
001
 62
   253
370
    50
100
AcDbVertex
100
AcDb2dVertex
 10
68.597186
 20
101.243708
 30
0.0
  0
VERTEX
  5
3EB
330
3E5
100
AcDbEntity
  8
001
 62
   253
370
    50
100
AcDbVertex
100
AcDb2dVertex
 10
68.510946
 20
101.23606
 30
0.0
  0
SEQEND
  5
3E6
330
3E5
100
AcDbEntity
  8
001
370
    50
  0
POLYLINE
  5
3EC
330
1F
100
AcDbEntity
  8
001
 62
   253
370
    50
100
AcDb2dPolyline
 66
     1
 10
0.0
 20
0.0
 30
0.0
  0
VERTEX
  5
3EE
330
3EC
100
AcDbEntity
  8
001
 62
   253
370
    50
100
AcDbVertex
100
AcDb2dVertex
 10
75.758346
 20
78.7263
 30
0.0
  0
VERTEX
  5
3EF
330
3EC
100
AcDbEntity
  8
001
 62
   253
370
    50
100
AcDbVertex
100
AcDb2dVertex
 10
75.762133
 20
78.78172
 30
0.0
  0
VERTEX
  5
3F0
330
3EC
100
AcDbEntity
  8
001
 62
   253
370
    50
100
AcDbVertex
100
AcDb2dVertex
 10
75.762847
 20
78.836777
 30
0.0
  0
VERTEX
  5
3F1
330
3EC
100
AcDbEntity
  8
001
 62
   253
370
    50
100
AcDbVertex
100
AcDb2dVertex
 10
75.730067
 20
79.010757
 30
0.0
  0
VERTEX
  5
3F2
330
3EC
100
AcDbEntity
  8
001
 62
   253
370
    50
100
AcDbVertex
100
AcDb2dVertex
 10
75.665119
 20
79.180924
 30
0.0
  0
SEQEND
  5
3ED
330
3EC
100
AcDbEntity
  8
001
370
    50
  0
POLYLINE
  5
3F3
330
1F
100
AcDbEntity
  8
001
 62
   253
370
    50
100
AcDb2dPolyline
 66
     1
 10
0.0
 20
0.0
 30
0.0
  0
VERTEX
  5
3F5
330
3F3
100
AcDbEntity
  8
001
 62
   253
370
    50
100
AcDbVertex
100
AcDb2dVertex
 10
73.633288
 20
83.388185
 30
0.0
  0
VERTEX
  5
3F6
330
3F3
100
AcDbEntity
  8
001
 62
   253
370
    50
100
AcDbVertex
100
AcDb2dVertex
 10
74.196884
 20
83.58869
 30
0.0
  0
VERTEX
  5
3F7
330
3F3
100
AcDbEntity
  8
001
 62
   253
370
    50
100
AcDbVertex
100
AcDb2dVertex
 10
74.983509
 20
83.959234
 30
0.0
  0
VERTEX
  5
3F8
330
3F3
100
AcDbEntity
  8
001
 62
   253
370
    50
100
AcDbVertex
100
AcDb2dVertex
 10
75.422694
 20
84.238062
 30
0.0
  0
VERTEX
  5
3F9
330
3F3
100
AcDbEntity
  8
001
 62
   253
370
    50
100
AcDbVertex
100
AcDb2dVertex
 10
75.707784
 20
84.452584
 30
0.0
  0
SEQEND
  5
3F4
330
3F3
100
AcDbEntity
  8
001
370
    50
  0
LINE
  5
3FA
330
1F
100
AcDbEntity
  8
001
 62
   253
370
    50
100
AcDbLine
 10
69.208531
 20
81.96369
 30
0.0
 11
73.633288
 21
83.388185
 31
0.0
  0
POLYLINE
  5
3FB
330
1F
100
AcDbEntity
  8
001
 62
   253
370
    50
100
AcDb2dPolyline
 66
     1
 10
0.0
 20
0.0
 30
0.0
  0
VERTEX
  5
3FD
330
3FB
100
AcDbEntity
  8
001
 62
   253
370
    50
100
AcDbVertex
100
AcDb2dVertex
 10
61.937636
 20
86.461627
 30
0.0
  0
VERTEX
  5
3FE
330
3FB
100
AcDbEntity
  8
001
 62
   253
370
    50
100
AcDbVertex
100
AcDb2dVertex
 10
63.768497
 20
85.342562
 30
0.0
  0
VERTEX
  5
3FF
330
3FB
100
AcDbEntity
  8
001
 62
   253
370
    50
100
AcDbVertex
100
AcDb2dVertex
 10
65.596034
 20
84.218122
 30
0.0
  0
VERTEX
  5
400
330
3FB
100
AcDbEntity
  8
001
 62
   253
370
    50
100
AcDbVertex
100
AcDb2dVertex
 10
67.403919
 20
83.093552
 30
0.0
  0
VERTEX
  5
401
330
3FB
100
AcDbEntity
  8
001
 62
   253
370
    50
100
AcDbVertex
100
AcDb2dVertex
 10
69.208531
 20
81.96369
 30
0.0
  0
SEQEND
  5
3FC
330
3FB
100
AcDbEntity
  8
001
370
    50
  0
LINE
  5
402
330
1F
100
AcDbEntity
  8
001
 62
   253
370
    50
100
AcDbLine
 10
61.6821
 20
86.751007
 30
0.0
 11
61.937636
 21
86.461627
 31
0.0
  0
LINE
  5
403
330
1F
100
AcDbEntity
  8
001
 62
   253
370
    50
100
AcDbLine
 10
61.6821
 20
86.948504
 30
0.0
 11
61.937798
 21
87.186006
 31
0.0
  0
LINE
  5
404
330
1F
100
AcDbEntity
  8
001
 62
   253
370
    50
100
AcDbLine
 10
61.937798
 20
87.186006
 30
0.0
 11
66.77586
 21
88.744741
 31
0.0
  0
POLYLINE
  5
405
330
1F
100
AcDbEntity
  8
001
 62
   253
370
    50
100
AcDb2dPolyline
 66
     1
 10
0.0
 20
0.0
 30
0.0
  0
VERTEX
  5
407
330
405
100
AcDbEntity
  8
001
 62
   253
370
    50
100
AcDbVertex
100
AcDb2dVertex
 10
71.270261
 20
86.508674
 30
0.0
  0
VERTEX
  5
408
330
405
100
AcDbEntity
  8
001
 62
   253
370
    50
100
AcDbVertex
100
AcDb2dVertex
 10
71.270141
 20
86.518036
 30
0.0
  0
VERTEX
  5
409
330
405
100
AcDbEntity
  8
001
 62
   253
370
    50
100
AcDbVertex
100
AcDb2dVertex
 10
71.269626
 20
86.531706
 30
0.0
  0
VERTEX
  5
40A
330
405
100
AcDbEntity
  8
001
 62
   253
370
    50
100
AcDbVertex
100
AcDb2dVertex
 10
71.268633
 20
86.545453
 30
0.0
  0
VERTEX
  5
40B
330
405
100
AcDbEntity
  8
001
 62
   253
370
    50
100
AcDbVertex
100
AcDb2dVertex
 10
71.267722
 20
86.554842
 30
0.0
  0
SEQEND
  5
406
330
405
100
AcDbEntity
  8
001
370
    50
  0
LINE
  5
40C
330
1F
100
AcDbEntity
  8
001
 62
   253
370
    50
100
AcDbLine
 10
66.77586
 20
100.182955
 30
0.0
 11
61.937798
 21
97.759313
 31
0.0
  0
LINE
  5
40D
330
1F
100
AcDbEntity
  8
001
 62
   253
370
    50
100
AcDbLine
 10
61.937798
 20
97.759313
 30
0.0
 11
61.937798
 21
87.186006
 31
0.0
  0
POLYLINE
  5
40E
330
1F
100
AcDbEntity
  8
001
 62
   253
370
    50
100
AcDb2dPolyline
 66
     1
 10
0.0
 20
0.0
 30
0.0
  0
VERTEX
  5
410
330
40E
100
AcDbEntity
  8
001
 62
   253
370
    50
100
AcDbVertex
100
AcDb2dVertex
 10
66.19739
 20
86.92436
 30
0.0
  0
VERTEX
  5
411
330
40E
100
AcDbEntity
  8
001
 62
   253
370
    50
100
AcDbVertex
100
AcDb2dVertex
 10
66.203924
 20
86.886703
 30
0.0
  0
VERTEX
  5
412
330
40E
100
AcDbEntity
  8
001
 62
   253
370
    50
100
AcDbVertex
100
AcDb2dVertex
 10
66.216602
 20
86.834342
 30
0.0
  0
VERTEX
  5
413
330
40E
100
AcDbEntity
  8
001
 62
   253
370
    50
100
AcDbVertex
100
AcDb2dVertex
 10
66.257668
 20
86.732801
 30
0.0
  0
VERTEX
  5
414
330
40E
100
AcDbEntity
  8
001
 62
   253
370
    50
100
AcDbVertex
100
AcDb2dVertex
 10
66.312397
 20
86.650816
 30
0.0
  0
VERTEX
  5
415
330
40E
100
AcDbEntity
  8
001
 62
   253
370
    50
100
AcDbVertex
100
AcDb2dVertex
 10
66.391806
 20
86.558039
 30
0.0
  0
VERTEX
  5
416
330
40E
100
AcDbEntity
  8
001
 62
   253
370
    50
100
AcDbVertex
100
AcDb2dVertex
 10
66.481727
 20
86.469986
 30
0.0
  0
VERTEX
  5
417
330
40E
100
AcDbEntity
  8
001
 62
   253
370
    50
100
AcDbVertex
100
AcDb2dVertex
 10
66.9005
 20
86.188316
 30
0.0
  0
VERTEX
  5
418
330
40E
100
AcDbEntity
  8
001
 62
   253
370
    50
100
AcDbVertex
100
AcDb2dVertex
 10
67.36931
 20
85.997225
 30
0.0
  0
VERTEX
  5
419
330
40E
100
AcDbEntity
  8
001
 62
   253
370
    50
100
AcDbVertex
100
AcDb2dVertex
 10
67.773425
 20
85.876946
 30
0.0
  0
VERTEX
  5
41A
330
40E
100
AcDbEntity
  8
001
 62
   253
370
    50
100
AcDbVertex
100
AcDb2dVertex
 10
68.183599
 20
85.786643
 30
0.0
  0
VERTEX
  5
41B
330
40E
100
AcDbEntity
  8
001
 62
   253
370
    50
100
AcDbVertex
100
AcDb2dVertex
 10
68.402219
 20
85.751061
 30
0.0
  0
VERTEX
  5
41C
330
40E
100
AcDbEntity
  8
001
 62
   253
370
    50
100
AcDbVertex
100
AcDb2dVertex
 10
68.622172
 20
85.723383
 30
0.0
  0
VERTEX
  5
41D
330
40E
100
AcDbEntity
  8
001
 62
   253
370
    50
100
AcDbVertex
100
AcDb2dVertex
 10
68.842961
 20
85.703305
 30
0.0
  0
VERTEX
  5
41E
330
40E
100
AcDbEntity
  8
001
 62
   253
370
    50
100
AcDbVertex
100
AcDb2dVertex
 10
69.0641
 20
85.691001
 30
0.0
  0
VERTEX
  5
41F
330
40E
100
AcDbEntity
  8
001
 62
   253
370
    50
100
AcDbVertex
100
AcDb2dVertex
 10
69.483879
 20
85.690278
 30
0.0
  0
VERTEX
  5
420
330
40E
100
AcDbEntity
  8
001
 62
   253
370
    50
100
AcDbVertex
100
AcDb2dVertex
 10
69.904613
 20
85.721835
 30
0.0
  0
VERTEX
  5
421
330
40E
100
AcDbEntity
  8
001
 62
   253
370
    50
100
AcDbVertex
100
AcDb2dVertex
 10
70.404651
 20
85.81215
 30
0.0
  0
VERTEX
  5
422
330
40E
100
AcDbEntity
  8
001
 62
   253
370
    50
100
AcDbVertex
100
AcDb2dVertex
 10
70.873001
 20
85.992997
 30
0.0
  0
VERTEX
  5
423
330
40E
100
AcDbEntity
  8
001
 62
   253
370
    50
100
AcDbVertex
100
AcDb2dVertex
 10
70.978958
 20
86.056733
 30
0.0
  0
VERTEX
  5
424
330
40E
100
AcDbEntity
  8
001
 62
   253
370
    50
100
AcDbVertex
100
AcDb2dVertex
 10
71.077208
 20
86.133252
 30
0.0
  0
VERTEX
  5
425
330
40E
100
AcDbEntity
  8
001
 62
   253
370
    50
100
AcDbVertex
100
AcDb2dVertex
 10
71.150246
 20
86.209152
 30
0.0
  0
VERTEX
  5
426
330
40E
100
AcDbEntity
  8
001
 62
   253
370
    50
100
AcDbVertex
100
AcDb2dVertex
 10
71.210174
 20
86.29193
 30
0.0
  0
VERTEX
  5
427
330
40E
100
AcDbEntity
  8
001
 62
   253
370
    50
100
AcDbVertex
100
AcDb2dVertex
 10
71.247859
 20
86.369292
 30
0.0
  0
VERTEX
  5
428
330
40E
100
AcDbEntity
  8
001
 62
   253
370
    50
100
AcDbVertex
100
AcDb2dVertex
 10
71.267859
 20
86.464211
 30
0.0
  0
VERTEX
  5
429
330
40E
100
AcDbEntity
  8
001
 62
   253
370
    50
100
AcDbVertex
100
AcDb2dVertex
 10
71.26967
 20
86.49035
 30
0.0
  0
VERTEX
  5
42A
330
40E
100
AcDbEntity
  8
001
 62
   253
370
    50
100
AcDbVertex
100
AcDb2dVertex
 10
71.270261
 20
86.508674
 30
0.0
  0
SEQEND
  5
40F
330
40E
100
AcDbEntity
  8
001
370
    50
  0
POLYLINE
  5
42B
330
1F
100
AcDbEntity
  8
001
 62
   253
370
    50
100
AcDb2dPolyline
 66
     1
 10
0.0
 20
0.0
 30
0.0
  0
VERTEX
  5
42D
330
42B
100
AcDbEntity
  8
001
 62
   253
370
    50
100
AcDbVertex
100
AcDb2dVertex
 10
71.267722
 20
86.554842
 30
0.0
  0
VERTEX
  5
42E
330
42B
100
AcDbEntity
  8
001
 62
   253
370
    50
100
AcDbVertex
100
AcDb2dVertex
 10
71.261188
 20
86.592498
 30
0.0
  0
VERTEX
  5
42F
330
42B
100
AcDbEntity
  8
001
 62
   253
370
    50
100
AcDbVertex
100
AcDb2dVertex
 10
71.24851
 20
86.644859
 30
0.0
  0
VERTEX
  5
430
330
42B
100
AcDbEntity
  8
001
 62
   253
370
    50
100
AcDbVertex
100
AcDb2dVertex
 10
71.207444
 20
86.7464
 30
0.0
  0
VERTEX
  5
431
330
42B
100
AcDbEntity
  8
001
 62
   253
370
    50
100
AcDbVertex
100
AcDb2dVertex
 10
71.152715
 20
86.828386
 30
0.0
  0
VERTEX
  5
432
330
42B
100
AcDbEntity
  8
001
 62
   253
370
    50
100
AcDbVertex
100
AcDb2dVertex
 10
71.073306
 20
86.921162
 30
0.0
  0
VERTEX
  5
433
330
42B
100
AcDbEntity
  8
001
 62
   253
370
    50
100
AcDbVertex
100
AcDb2dVertex
 10
70.983385
 20
87.009215
 30
0.0
  0
VERTEX
  5
434
330
42B
100
AcDbEntity
  8
001
 62
   253
370
    50
100
AcDbVertex
100
AcDb2dVertex
 10
70.564612
 20
87.290885
 30
0.0
  0
VERTEX
  5
435
330
42B
100
AcDbEntity
  8
001
 62
   253
370
    50
100
AcDbVertex
100
AcDb2dVertex
 10
70.095803
 20
87.481976
 30
0.0
  0
VERTEX
  5
436
330
42B
100
AcDbEntity
  8
001
 62
   253
370
    50
100
AcDbVertex
100
AcDb2dVertex
 10
69.691688
 20
87.602256
 30
0.0
  0
VERTEX
  5
437
330
42B
100
AcDbEntity
  8
001
 62
   253
370
    50
100
AcDbVertex
100
AcDb2dVertex
 10
69.281513
 20
87.692559
 30
0.0
  0
VERTEX
  5
438
330
42B
100
AcDbEntity
  8
001
 62
   253
370
    50
100
AcDbVertex
100
AcDb2dVertex
 10
69.062892
 20
87.72814
 30
0.0
  0
VERTEX
  5
439
330
42B
100
AcDbEntity
  8
001
 62
   253
370
    50
100
AcDbVertex
100
AcDb2dVertex
 10
68.84294
 20
87.755819
 30
0.0
  0
VERTEX
  5
43A
330
42B
100
AcDbEntity
  8
001
 62
   253
370
    50
100
AcDbVertex
100
AcDb2dVertex
 10
68.622153
 20
87.7759
 30
0.0
  0
VERTEX
  5
43B
330
42B
100
AcDbEntity
  8
001
 62
   253
370
    50
100
AcDbVertex
100
AcDb2dVertex
 10
68.401012
 20
87.788201
 30
0.0
  0
VERTEX
  5
43C
330
42B
100
AcDbEntity
  8
001
 62
   253
370
    50
100
AcDbVertex
100
AcDb2dVertex
 10
67.981213
 20
87.788891
 30
0.0
  0
VERTEX
  5
43D
330
42B
100
AcDbEntity
  8
001
 62
   253
370
    50
100
AcDbVertex
100
AcDb2dVertex
 10
67.5605
 20
87.757366
 30
0.0
  0
VERTEX
  5
43E
330
42B
100
AcDbEntity
  8
001
 62
   253
370
    50
100
AcDbVertex
100
AcDb2dVertex
 10
67.060563
 20
87.667221
 30
0.0
  0
VERTEX
  5
43F
330
42B
100
AcDbEntity
  8
001
 62
   253
370
    50
100
AcDbVertex
100
AcDb2dVertex
 10
66.592111
 20
87.486204
 30
0.0
  0
VERTEX
  5
440
330
42B
100
AcDbEntity
  8
001
 62
   253
370
    50
100
AcDbVertex
100
AcDb2dVertex
 10
66.486085
 20
87.422353
 30
0.0
  0
VERTEX
  5
441
330
42B
100
AcDbEntity
  8
001
 62
   253
370
    50
100
AcDbVertex
100
AcDb2dVertex
 10
66.387904
 20
87.345949
 30
0.0
  0
VERTEX
  5
442
330
42B
100
AcDbEntity
  8
001
 62
   253
370
    50
100
AcDbVertex
100
AcDb2dVertex
 10
66.315043
 20
87.270346
 30
0.0
  0
VERTEX
  5
443
330
42B
100
AcDbEntity
  8
001
 62
   253
370
    50
100
AcDbVertex
100
AcDb2dVertex
 10
66.254938
 20
87.187271
 30
0.0
  0
VERTEX
  5
444
330
42B
100
AcDbEntity
  8
001
 62
   253
370
    50
100
AcDbVertex
100
AcDb2dVertex
 10
66.216717
 20
87.109012
 30
0.0
  0
VERTEX
  5
445
330
42B
100
AcDbEntity
  8
001
 62
   253
370
    50
100
AcDbVertex
100
AcDb2dVertex
 10
66.197253
 20
87.014991
 30
0.0
  0
VERTEX
  5
446
330
42B
100
AcDbEntity
  8
001
 62
   253
370
    50
100
AcDbVertex
100
AcDb2dVertex
 10
66.195671
 20
86.962037
 30
0.0
  0
VERTEX
  5
447
330
42B
100
AcDbEntity
  8
001
 62
   253
370
    50
100
AcDbVertex
100
AcDb2dVertex
 10
66.19739
 20
86.92436
 30
0.0
  0
SEQEND
  5
42C
330
42B
100
AcDbEntity
  8
001
370
    50
  0
LINE
  5
448
330
1F
100
AcDbEntity
  8
001
 62
   253
370
    50
100
AcDbLine
 10
68.510946
 20
101.23606
 30
0.0
 11
68.944365
 21
101.096526
 31
0.0
  0
LINE
  5
449
330
1F
100
AcDbEntity
  8
001
 62
   253
370
    50
100
AcDbLine
 10
61.6821
 20
97.481138
 30
0.0
 11
61.6821
 21
86.751007
 31
0.0
  0
LINE
  5
44A
330
1F
100
AcDbEntity
  8
001
 62
   253
370
    50
100
AcDbLine
 10
61.937798
 20
97.759313
 30
0.0
 11
61.6821
 21
97.481138
 31
0.0
  0
POLYLINE
  5
44B
330
1F
100
AcDbEntity
  8
001
 62
   253
370
    50
100
AcDb2dPolyline
 66
     1
 10
0.0
 20
0.0
 30
0.0
  0
VERTEX
  5
44D
330
44B
100
AcDbEntity
  8
001
 62
   253
370
    50
100
AcDbVertex
100
AcDb2dVertex
 10
69.208531
 20
81.96369
 30
0.0
  0
VERTEX
  5
44E
330
44B
100
AcDbEntity
  8
001
 62
   253
370
    50
100
AcDbVertex
100
AcDb2dVertex
 10
68.955534
 20
80.876705
 30
0.0
  0
VERTEX
  5
44F
330
44B
100
AcDbEntity
  8
001
 62
   253
370
    50
100
AcDbVertex
100
AcDb2dVertex
 10
68.692673
 20
79.792162
 30
0.0
  0
VERTEX
  5
450
330
44B
100
AcDbEntity
  8
001
 62
   253
370
    50
100
AcDbVertex
100
AcDb2dVertex
 10
68.409215
 20
78.700154
 30
0.0
  0
VERTEX
  5
451
330
44B
100
AcDbEntity
  8
001
 62
   253
370
    50
100
AcDbVertex
100
AcDb2dVertex
 10
68.109644
 20
77.612358
 30
0.0
  0
VERTEX
  5
452
330
44B
100
AcDbEntity
  8
001
 62
   253
370
    50
100
AcDbVertex
100
AcDb2dVertex
 10
67.792938
 20
76.514562
 30
0.0
  0
VERTEX
  5
453
330
44B
100
AcDbEntity
  8
001
 62
   253
370
    50
100
AcDbVertex
100
AcDb2dVertex
 10
67.461669
 20
75.421152
 30
0.0
  0
VERTEX
  5
454
330
44B
100
AcDbEntity
  8
001
 62
   253
370
    50
100
AcDbVertex
100
AcDb2dVertex
 10
67.112675
 20
74.324009
 30
0.0
  0
VERTEX
  5
455
330
44B
100
AcDbEntity
  8
001
 62
   253
370
    50
100
AcDbVertex
100
AcDb2dVertex
 10
66.755172
 20
73.229533
 30
0.0
  0
SEQEND
  5
44C
330
44B
100
AcDbEntity
  8
001
370
    50
  0
POLYLINE
  5
456
330
1F
100
AcDbEntity
  8
001
 62
   253
370
    50
100
AcDb2dPolyline
 66
     1
 10
0.0
 20
0.0
 30
0.0
  0
VERTEX
  5
458
330
456
100
AcDbEntity
  8
001
 62
   253
370
    50
100
AcDbVertex
100
AcDb2dVertex
 10
79.833615
 20
109.753484
 30
0.0
  0
VERTEX
  5
459
330
456
100
AcDbEntity
  8
001
 62
   253
370
    50
100
AcDbVertex
100
AcDb2dVertex
 10
80.094668
 20
110.035677
 30
0.0
  0
VERTEX
  5
45A
330
456
100
AcDbEntity
  8
001
 62
   253
370
    50
100
AcDbVertex
100
AcDb2dVertex
 10
80.443838
 20
110.474273
 30
0.0
  0
VERTEX
  5
45B
330
456
100
AcDbEntity
  8
001
 62
   253
370
    50
100
AcDbVertex
100
AcDb2dVertex
 10
80.470925
 20
110.512772
 30
0.0
  0
VERTEX
  5
45C
330
456
100
AcDbEntity
  8
001
 62
   253
370
    50
100
AcDbVertex
100
AcDb2dVertex
 10
80.489277
 20
110.539244
 30
0.0
  0
SEQEND
  5
457
330
456
100
AcDbEntity
  8
001
370
    50
  0
LINE
  5
45D
330
1F
100
AcDbEntity
  8
001
 62
   253
370
    50
100
AcDbLine
 10
67.593044
 20
103.369526
 30
0.0
 11
67.040212
 21
104.947748
 31
0.0
  0
LINE
  5
45E
330
1F
100
AcDbEntity
  8
001
 62
   253
370
    50
100
AcDbLine
 10
82.172233
 20
112.129836
 30
0.0
 11
82.687811
 21
112.668473
 31
0.0
  0
POLYLINE
  5
45F
330
1F
100
AcDbEntity
  8
001
 62
   253
370
    50
100
AcDb2dPolyline
 66
     1
 10
0.0
 20
0.0
 30
0.0
  0
VERTEX
  5
461
330
45F
100
AcDbEntity
  8
001
 62
   253
370
    50
100
AcDbVertex
100
AcDb2dVertex
 10
67.040212
 20
104.947748
 30
0.0
  0
VERTEX
  5
462
330
45F
100
AcDbEntity
  8
001
 62
   253
370
    50
100
AcDbVertex
100
AcDb2dVertex
 10
68.04224
 20
105.080725
 30
0.0
  0
VERTEX
  5
463
330
45F
100
AcDbEntity
  8
001
 62
   253
370
    50
100
AcDbVertex
100
AcDb2dVertex
 10
69.45046
 20
105.304962
 30
0.0
  0
VERTEX
  5
464
330
45F
100
AcDbEntity
  8
001
 62
   253
370
    50
100
AcDbVertex
100
AcDb2dVertex
 10
72.027922
 20
105.883064
 30
0.0
  0
VERTEX
  5
465
330
45F
100
AcDbEntity
  8
001
 62
   253
370
    50
100
AcDbVertex
100
AcDb2dVertex
 10
74.237377
 20
106.561883
 30
0.0
  0
VERTEX
  5
466
330
45F
100
AcDbEntity
  8
001
 62
   253
370
    50
100
AcDbVertex
100
AcDb2dVertex
 10
76.810638
 20
107.574204
 30
0.0
  0
VERTEX
  5
467
330
45F
100
AcDbEntity
  8
001
 62
   253
370
    50
100
AcDbVertex
100
AcDb2dVertex
 10
79.450839
 20
109.390888
 30
0.0
  0
VERTEX
  5
468
330
45F
100
AcDbEntity
  8
001
 62
   253
370
    50
100
AcDbVertex
100
AcDb2dVertex
 10
79.679174
 20
109.603425
 30
0.0
  0
VERTEX
  5
469
330
45F
100
AcDbEntity
  8
001
 62
   253
370
    50
100
AcDbVertex
100
AcDb2dVertex
 10
79.833615
 20
109.753484
 30
0.0
  0
SEQEND
  5
460
330
45F
100
AcDbEntity
  8
001
370
    50
  0
POLYLINE
  5
46A
330
1F
100
AcDbEntity
  8
001
 62
   253
370
    50
100
AcDb2dPolyline
 66
     1
 10
0.0
 20
0.0
 30
0.0
  0
VERTEX
  5
46C
330
46A
100
AcDbEntity
  8
001
 62
   253
370
    50
100
AcDbVertex
100
AcDb2dVertex
 10
68.517617
 20
108.540558
 30
0.0
  0
VERTEX
  5
46D
330
46A
100
AcDbEntity
  8
001
 62
   253
370
    50
100
AcDbVertex
100
AcDb2dVertex
 10
69.215729
 20
108.581286
 30
0.0
  0
VERTEX
  5
46E
330
46A
100
AcDbEntity
  8
001
 62
   253
370
    50
100
AcDbVertex
100
AcDb2dVertex
 10
69.913536
 20
108.626575
 30
0.0
  0
VERTEX
  5
46F
330
46A
100
AcDbEntity
  8
001
 62
   253
370
    50
100
AcDbVertex
100
AcDb2dVertex
 10
70.589479
 20
108.678415
 30
0.0
  0
VERTEX
  5
470
330
46A
100
AcDbEntity
  8
001
 62
   253
370
    50
100
AcDbVertex
100
AcDb2dVertex
 10
71.264748
 20
108.738603
 30
0.0
  0
VERTEX
  5
471
330
46A
100
AcDbEntity
  8
001
 62
   253
370
    50
100
AcDbVertex
100
AcDb2dVertex
 10
71.930296
 20
108.80619
 30
0.0
  0
VERTEX
  5
472
330
46A
100
AcDbEntity
  8
001
 62
   253
370
    50
100
AcDbVertex
100
AcDb2dVertex
 10
72.594846
 20
108.882846
 30
0.0
  0
VERTEX
  5
473
330
46A
100
AcDbEntity
  8
001
 62
   253
370
    50
100
AcDbVertex
100
AcDb2dVertex
 10
73.233852
 20
108.966337
 30
0.0
  0
VERTEX
  5
474
330
46A
100
AcDbEntity
  8
001
 62
   253
370
    50
100
AcDbVertex
100
AcDb2dVertex
 10
73.871424
 20
109.060279
 30
0.0
  0
VERTEX
  5
475
330
46A
100
AcDbEntity
  8
001
 62
   253
370
    50
100
AcDbVertex
100
AcDb2dVertex
 10
74.711791
 20
109.202302
 30
0.0
  0
VERTEX
  5
476
330
46A
100
AcDbEntity
  8
001
 62
   253
370
    50
100
AcDbVertex
100
AcDb2dVertex
 10
75.547966
 20
109.367141
 30
0.0
  0
VERTEX
  5
477
330
46A
100
AcDbEntity
  8
001
 62
   253
370
    50
100
AcDbVertex
100
AcDb2dVertex
 10
76.333819
 20
109.546732
 30
0.0
  0
VERTEX
  5
478
330
46A
100
AcDbEntity
  8
001
 62
   253
370
    50
100
AcDbVertex
100
AcDb2dVertex
 10
77.113328
 20
109.752334
 30
0.0
  0
VERTEX
  5
479
330
46A
100
AcDbEntity
  8
001
 62
   253
370
    50
100
AcDbVertex
100
AcDb2dVertex
 10
77.863378
 20
109.980199
 30
0.0
  0
VERTEX
  5
47A
330
46A
100
AcDbEntity
  8
001
 62
   253
370
    50
100
AcDbVertex
100
AcDb2dVertex
 10
78.603023
 20
110.239233
 30
0.0
  0
VERTEX
  5
47B
330
46A
100
AcDbEntity
  8
001
 62
   253
370
    50
100
AcDbVertex
100
AcDb2dVertex
 10
79.291311
 20
110.516266
 30
0.0
  0
VERTEX
  5
47C
330
46A
100
AcDbEntity
  8
001
 62
   253
370
    50
100
AcDbVertex
100
AcDb2dVertex
 10
79.966257
 20
110.825704
 30
0.0
  0
VERTEX
  5
47D
330
46A
100
AcDbEntity
  8
001
 62
   253
370
    50
100
AcDbVertex
100
AcDb2dVertex
 10
80.707841
 20
111.216771
 30
0.0
  0
VERTEX
  5
47E
330
46A
100
AcDbEntity
  8
001
 62
   253
370
    50
100
AcDbVertex
100
AcDb2dVertex
 10
81.416299
 20
111.662284
 30
0.0
  0
VERTEX
  5
47F
330
46A
100
AcDbEntity
  8
001
 62
   253
370
    50
100
AcDbVertex
100
AcDb2dVertex
 10
82.063209
 20
112.149849
 30
0.0
  0
VERTEX
  5
480
330
46A
100
AcDbEntity
  8
001
 62
   253
370
    50
100
AcDbVertex
100
AcDb2dVertex
 10
82.687811
 20
112.668473
 30
0.0
  0
SEQEND
  5
46B
330
46A
100
AcDbEntity
  8
001
370
    50
  0
POLYLINE
  5
481
330
1F
100
AcDbEntity
  8
001
 62
   253
370
    50
100
AcDb2dPolyline
 66
     1
 10
0.0
 20
0.0
 30
0.0
  0
VERTEX
  5
483
330
481
100
AcDbEntity
  8
001
 62
   253
370
    50
100
AcDbVertex
100
AcDb2dVertex
 10
67.040212
 20
104.947748
 30
0.0
  0
VERTEX
  5
484
330
481
100
AcDbEntity
  8
001
 62
   253
370
    50
100
AcDbVertex
100
AcDb2dVertex
 10
67.325775
 20
105.390811
 30
0.0
  0
VERTEX
  5
485
330
481
100
AcDbEntity
  8
001
 62
   253
370
    50
100
AcDbVertex
100
AcDb2dVertex
 10
67.595592
 20
105.842863
 30
0.0
  0
VERTEX
  5
486
330
481
100
AcDbEntity
  8
001
 62
   253
370
    50
100
AcDbVertex
100
AcDb2dVertex
 10
67.825773
 20
106.287284
 30
0.0
  0
VERTEX
  5
487
330
481
100
AcDbEntity
  8
001
 62
   253
370
    50
100
AcDbVertex
100
AcDb2dVertex
 10
68.030013
 20
106.744974
 30
0.0
  0
VERTEX
  5
488
330
481
100
AcDbEntity
  8
001
 62
   253
370
    50
100
AcDbVertex
100
AcDb2dVertex
 10
68.200894
 20
107.191763
 30
0.0
  0
VERTEX
  5
489
330
481
100
AcDbEntity
  8
001
 62
   253
370
    50
100
AcDbVertex
100
AcDb2dVertex
 10
68.340091
 20
107.648444
 30
0.0
  0
VERTEX
  5
48A
330
481
100
AcDbEntity
  8
001
 62
   253
370
    50
100
AcDbVertex
100
AcDb2dVertex
 10
68.438385
 20
108.09214
 30
0.0
  0
VERTEX
  5
48B
330
481
100
AcDbEntity
  8
001
 62
   253
370
    50
100
AcDbVertex
100
AcDb2dVertex
 10
68.517617
 20
108.540558
 30
0.0
  0
SEQEND
  5
482
330
481
100
AcDbEntity
  8
001
370
    50
  0
POLYLINE
  5
48C
330
1F
100
AcDbEntity
  8
001
 62
   253
370
    50
100
AcDb2dPolyline
 66
     1
 10
0.0
 20
0.0
 30
0.0
  0
VERTEX
  5
48E
330
48C
100
AcDbEntity
  8
001
 62
   253
370
    50
100
AcDbVertex
100
AcDb2dVertex
 10
90.136973
 20
108.071987
 30
0.0
  0
VERTEX
  5
48F
330
48C
100
AcDbEntity
  8
001
 62
   253
370
    50
100
AcDbVertex
100
AcDb2dVertex
 10
90.18599
 20
108.083953
 30
0.0
  0
VERTEX
  5
490
330
48C
100
AcDbEntity
  8
001
 62
   253
370
    50
100
AcDbVertex
100
AcDb2dVertex
 10
90.227074
 20
108.104478
 30
0.0
  0
VERTEX
  5
491
330
48C
100
AcDbEntity
  8
001
 62
   253
370
    50
100
AcDbVertex
100
AcDb2dVertex
 10
90.265948
 20
108.172483
 30
0.0
  0
VERTEX
  5
492
330
48C
100
AcDbEntity
  8
001
 62
   253
370
    50
100
AcDbVertex
100
AcDb2dVertex
 10
90.27616
 20
108.261751
 30
0.0
  0
VERTEX
  5
493
330
48C
100
AcDbEntity
  8
001
 62
   253
370
    50
100
AcDbVertex
100
AcDb2dVertex
 10
90.26568
 20
108.410168
 30
0.0
  0
VERTEX
  5
494
330
48C
100
AcDbEntity
  8
001
 62
   253
370
    50
100
AcDbVertex
100
AcDb2dVertex
 10
90.235687
 20
108.548657
 30
0.0
  0
VERTEX
  5
495
330
48C
100
AcDbEntity
  8
001
 62
   253
370
    50
100
AcDbVertex
100
AcDb2dVertex
 10
90.221376
 20
108.603069
 30
0.0
  0
VERTEX
  5
496
330
48C
100
AcDbEntity
  8
001
 62
   253
370
    50
100
AcDbVertex
100
AcDb2dVertex
 10
90.206538
 20
108.657883
 30
0.0
  0
SEQEND
  5
48D
330
48C
100
AcDbEntity
  8
001
370
    50
  0
POLYLINE
  5
497
330
1F
100
AcDbEntity
  8
001
 62
   253
370
    50
100
AcDb2dPolyline
 66
     1
 10
0.0
 20
0.0
 30
0.0
  0
VERTEX
  5
499
330
497
100
AcDbEntity
  8
001
 62
   253
370
    50
100
AcDbVertex
100
AcDb2dVertex
 10
66.755172
 20
111.856954
 30
0.0
  0
VERTEX
  5
49A
330
497
100
AcDbEntity
  8
001
 62
   253
370
    50
100
AcDbVertex
100
AcDb2dVertex
 10
68.027768
 20
112.414085
 30
0.0
  0
VERTEX
  5
49B
330
497
100
AcDbEntity
  8
001
 62
   253
370
    50
100
AcDbVertex
100
AcDb2dVertex
 10
69.866734
 20
113.273377
 30
0.0
  0
VERTEX
  5
49C
330
497
100
AcDbEntity
  8
001
 62
   253
370
    50
100
AcDbVertex
100
AcDb2dVertex
 10
71.650859
 20
114.180056
 30
0.0
  0
VERTEX
  5
49D
330
497
100
AcDbEntity
  8
001
 62
   253
370
    50
100
AcDbVertex
100
AcDb2dVertex
 10
72.857277
 20
114.828574
 30
0.0
  0
SEQEND
  5
498
330
497
100
AcDbEntity
  8
001
370
    50
  0
POLYLINE
  5
49E
330
1F
100
AcDbEntity
  8
001
 62
   253
370
    50
100
AcDb2dPolyline
 66
     1
 10
0.0
 20
0.0
 30
0.0
  0
VERTEX
  5
4A0
330
49E
100
AcDbEntity
  8
001
 62
   253
370
    50
100
AcDbVertex
100
AcDb2dVertex
 10
72.857277
 20
114.828574
 30
0.0
  0
VERTEX
  5
4A1
330
49E
100
AcDbEntity
  8
001
 62
   253
370
    50
100
AcDbVertex
100
AcDb2dVertex
 10
73.391101
 20
115.159436
 30
0.0
  0
VERTEX
  5
4A2
330
49E
100
AcDbEntity
  8
001
 62
   253
370
    50
100
AcDbVertex
100
AcDb2dVertex
 10
73.901888
 20
115.521515
 30
0.0
  0
VERTEX
  5
4A3
330
49E
100
AcDbEntity
  8
001
 62
   253
370
    50
100
AcDbVertex
100
AcDb2dVertex
 10
74.135706
 20
115.717495
 30
0.0
  0
VERTEX
  5
4A4
330
49E
100
AcDbEntity
  8
001
 62
   253
370
    50
100
AcDbVertex
100
AcDb2dVertex
 10
74.358503
 20
115.926285
 30
0.0
  0
VERTEX
  5
4A5
330
49E
100
AcDbEntity
  8
001
 62
   253
370
    50
100
AcDbVertex
100
AcDb2dVertex
 10
74.563077
 20
116.138881
 30
0.0
  0
VERTEX
  5
4A6
330
49E
100
AcDbEntity
  8
001
 62
   253
370
    50
100
AcDbVertex
100
AcDb2dVertex
 10
74.755717
 20
116.362407
 30
0.0
  0
VERTEX
  5
4A7
330
49E
100
AcDbEntity
  8
001
 62
   253
370
    50
100
AcDbVertex
100
AcDb2dVertex
 10
75.078874
 20
116.810722
 30
0.0
  0
VERTEX
  5
4A8
330
49E
100
AcDbEntity
  8
001
 62
   253
370
    50
100
AcDbVertex
100
AcDb2dVertex
 10
75.346295
 20
117.294233
 30
0.0
  0
VERTEX
  5
4A9
330
49E
100
AcDbEntity
  8
001
 62
   253
370
    50
100
AcDbVertex
100
AcDb2dVertex
 10
75.457603
 20
117.550085
 30
0.0
  0
VERTEX
  5
4AA
330
49E
100
AcDbEntity
  8
001
 62
   253
370
    50
100
AcDbVertex
100
AcDb2dVertex
 10
75.55194
 20
117.812472
 30
0.0
  0
VERTEX
  5
4AB
330
49E
100
AcDbEntity
  8
001
 62
   253
370
    50
100
AcDbVertex
100
AcDb2dVertex
 10
75.628877
 20
118.080238
 30
0.0
  0
VERTEX
  5
4AC
330
49E
100
AcDbEntity
  8
001
 62
   253
370
    50
100
AcDbVertex
100
AcDb2dVertex
 10
75.68871
 20
118.352577
 30
0.0
  0
VERTEX
  5
4AD
330
49E
100
AcDbEntity
  8
001
 62
   253
370
    50
100
AcDbVertex
100
AcDb2dVertex
 10
75.748524
 20
118.790292
 30
0.0
  0
VERTEX
  5
4AE
330
49E
100
AcDbEntity
  8
001
 62
   253
370
    50
100
AcDbVertex
100
AcDb2dVertex
 10
75.762847
 20
119.231355
 30
0.0
  0
VERTEX
  5
4AF
330
49E
100
AcDbEntity
  8
001
 62
   253
370
    50
100
AcDbVertex
100
AcDb2dVertex
 10
75.748954
 20
119.505252
 30
0.0
  0
VERTEX
  5
4B0
330
49E
100
AcDbEntity
  8
001
 62
   253
370
    50
100
AcDbVertex
100
AcDb2dVertex
 10
75.725565
 20
119.778712
 30
0.0
  0
SEQEND
  5
49F
330
49E
100
AcDbEntity
  8
001
370
    50
  0
LINE
  5
4B1
330
1F
100
AcDbEntity
  8
001
 62
   253
370
    50
100
AcDbLine
 10
77.337527
 20
120.156388
 30
0.0
 11
75.665119
 21
120.156388
 31
0.0
  0
LINE
  5
4B2
330
1F
100
AcDbEntity
  8
001
 62
   253
370
    50
100
AcDbLine
 10
99.9821
 20
55.23552
 30
0.0
 11
100.9821
 21
56.23552
 31
0.0
  0
LINE
  5
4B3
330
1F
100
AcDbEntity
  8
001
 62
   253
370
    50
100
AcDbLine
 10
100.9821
 20
104.23552
 30
0.0
 11
99.9821
 21
105.23552
 31
0.0
  0
LINE
  5
4B4
330
1F
100
AcDbEntity
  8
001
 62
   253
370
    50
100
AcDbLine
 10
100.9821
 20
104.23552
 30
0.0
 11
100.9821
 21
56.23552
 31
0.0
  0
LINE
  5
4B5
330
1F
100
AcDbEntity
  8
001
 62
   253
370
    50
100
AcDbLine
 10
99.9821
 20
105.23552
 30
0.0
 11
99.9821
 21
55.23552
 31
0.0
  0
LINE
  5
4B6
330
1F
100
AcDbEntity
  8
001
 62
   253
370
    50
100
AcDbLine
 10
99.9821
 20
105.23552
 30
0.0
 11
90.9821
 21
105.23552
 31
0.0
  0
LINE
  5
4B7
330
1F
100
AcDbEntity
  8
001
 62
   253
370
    50
100
AcDbLine
 10
90.9821
 20
55.23552
 30
0.0
 11
99.9821
 21
55.23552
 31
0.0
  0
LINE
  5
4B8
330
1F
100
AcDbEntity
  8
001
 62
   253
370
    50
100
AcDbLine
 10
66.863715
 20
47.205058
 30
0.0
 11
63.423443
 21
43.145565
 31
0.0
  0
LINE
  5
4B9
330
1F
100
AcDbEntity
  8
001
 62
   253
370
    50
100
AcDbLine
 10
61.937636
 20
41.676064
 30
0.0
 11
61.937636
 21
43.818402
 31
0.0
  0
POLYLINE
  5
4BA
330
1F
100
AcDbEntity
  8
001
 62
   253
370
    50
100
AcDb2dPolyline
 66
     1
 10
0.0
 20
0.0
 30
0.0
  0
VERTEX
  5
4BC
330
4BA
100
AcDbEntity
  8
001
 62
   253
370
    50
100
AcDbVertex
100
AcDb2dVertex
 10
61.937636
 20
43.818402
 30
0.0
  0
VERTEX
  5
4BD
330
4BA
100
AcDbEntity
  8
001
 62
   253
370
    50
100
AcDbVertex
100
AcDb2dVertex
 10
63.770934
 20
46.146744
 30
0.0
  0
VERTEX
  5
4BE
330
4BA
100
AcDbEntity
  8
001
 62
   253
370
    50
100
AcDbVertex
100
AcDb2dVertex
 10
65.596034
 20
48.481465
 30
0.0
  0
VERTEX
  5
4BF
330
4BA
100
AcDbEntity
  8
001
 62
   253
370
    50
100
AcDbVertex
100
AcDb2dVertex
 10
66.746093
 20
49.967216
 30
0.0
  0
VERTEX
  5
4C0
330
4BA
100
AcDbEntity
  8
001
 62
   253
370
    50
100
AcDbVertex
100
AcDb2dVertex
 10
67.892857
 20
51.455531
 30
0.0
  0
SEQEND
  5
4BB
330
4BA
100
AcDbEntity
  8
001
370
    50
  0
POLYLINE
  5
4C1
330
1F
100
AcDbEntity
  8
001
 62
   253
370
    50
100
AcDb2dPolyline
 66
     1
 10
0.0
 20
0.0
 30
0.0
  0
VERTEX
  5
4C3
330
4C1
100
AcDbEntity
  8
001
 62
   253
370
    50
100
AcDbVertex
100
AcDb2dVertex
 10
68.416804
 20
53.968437
 30
0.0
  0
VERTEX
  5
4C4
330
4C1
100
AcDbEntity
  8
001
 62
   253
370
    50
100
AcDbVertex
100
AcDb2dVertex
 10
68.263227
 20
54.121165
 30
0.0
  0
VERTEX
  5
4C5
330
4C1
100
AcDbEntity
  8
001
 62
   253
370
    50
100
AcDbVertex
100
AcDb2dVertex
 10
68.109644
 20
54.273887
 30
0.0
  0
VERTEX
  5
4C6
330
4C1
100
AcDbEntity
  8
001
 62
   253
370
    50
100
AcDbVertex
100
AcDb2dVertex
 10
67.785677
 20
54.595976
 30
0.0
  0
VERTEX
  5
4C7
330
4C1
100
AcDbEntity
  8
001
 62
   253
370
    50
100
AcDbVertex
100
AcDb2dVertex
 10
67.461669
 20
54.918025
 30
0.0
  0
VERTEX
  5
4C8
330
4C1
100
AcDbEntity
  8
001
 62
   253
370
    50
100
AcDbVertex
100
AcDb2dVertex
 10
67.10843
 20
55.269059
 30
0.0
  0
VERTEX
  5
4C9
330
4C1
100
AcDbEntity
  8
001
 62
   253
370
    50
100
AcDbVertex
100
AcDb2dVertex
 10
66.755172
 20
55.620073
 30
0.0
  0
SEQEND
  5
4C2
330
4C1
100
AcDbEntity
  8
001
370
    50
  0
POLYLINE
  5
4CA
330
1F
100
AcDbEntity
  8
001
 62
   253
370
    50
100
AcDb2dPolyline
 66
     1
 10
0.0
 20
0.0
 30
0.0
  0
VERTEX
  5
4CC
330
4CA
100
AcDbEntity
  8
001
 62
   253
370
    50
100
AcDbVertex
100
AcDb2dVertex
 10
70.777459
 20
66.022844
 30
0.0
  0
VERTEX
  5
4CD
330
4CA
100
AcDbEntity
  8
001
 62
   253
370
    50
100
AcDbVertex
100
AcDb2dVertex
 10
70.725354
 20
65.706459
 30
0.0
  0
VERTEX
  5
4CE
330
4CA
100
AcDbEntity
  8
001
 62
   253
370
    50
100
AcDbVertex
100
AcDb2dVertex
 10
70.670215
 20
65.390619
 30
0.0
  0
VERTEX
  5
4CF
330
4CA
100
AcDbEntity
  8
001
 62
   253
370
    50
100
AcDbVertex
100
AcDb2dVertex
 10
70.559237
 20
64.83485
 30
0.0
  0
VERTEX
  5
4D0
330
4CA
100
AcDbEntity
  8
001
 62
   253
370
    50
100
AcDbVertex
100
AcDb2dVertex
 10
70.431933
 20
64.282474
 30
0.0
  0
VERTEX
  5
4D1
330
4CA
100
AcDbEntity
  8
001
 62
   253
370
    50
100
AcDbVertex
100
AcDb2dVertex
 10
70.181977
 20
63.344852
 30
0.0
  0
VERTEX
  5
4D2
330
4CA
100
AcDbEntity
  8
001
 62
   253
370
    50
100
AcDbVertex
100
AcDb2dVertex
 10
69.894881
 20
62.417909
 30
0.0
  0
VERTEX
  5
4D3
330
4CA
100
AcDbEntity
  8
001
 62
   253
370
    50
100
AcDbVertex
100
AcDb2dVertex
 10
69.569181
 20
61.490149
 30
0.0
  0
VERTEX
  5
4D4
330
4CA
100
AcDbEntity
  8
001
 62
   253
370
    50
100
AcDbVertex
100
AcDb2dVertex
 10
69.211895
 20
60.574095
 30
0.0
  0
VERTEX
  5
4D5
330
4CA
100
AcDbEntity
  8
001
 62
   253
370
    50
100
AcDbVertex
100
AcDb2dVertex
 10
68.811706
 20
59.636276
 30
0.0
  0
VERTEX
  5
4D6
330
4CA
100
AcDbEntity
  8
001
 62
   253
370
    50
100
AcDbVertex
100
AcDb2dVertex
 10
68.384971
 20
58.710185
 30
0.0
  0
VERTEX
  5
4D7
330
4CA
100
AcDbEntity
  8
001
 62
   253
370
    50
100
AcDbVertex
100
AcDb2dVertex
 10
67.931476
 20
57.788802
 30
0.0
  0
VERTEX
  5
4D8
330
4CA
100
AcDbEntity
  8
001
 62
   253
370
    50
100
AcDbVertex
100
AcDb2dVertex
 10
67.454911
 20
56.879239
 30
0.0
  0
VERTEX
  5
4D9
330
4CA
100
AcDbEntity
  8
001
 62
   253
370
    50
100
AcDbVertex
100
AcDb2dVertex
 10
67.107862
 20
56.248111
 30
0.0
  0
VERTEX
  5
4DA
330
4CA
100
AcDbEntity
  8
001
 62
   253
370
    50
100
AcDbVertex
100
AcDb2dVertex
 10
66.755172
 20
55.620073
 30
0.0
  0
SEQEND
  5
4CB
330
4CA
100
AcDbEntity
  8
001
370
    50
  0
POLYLINE
  5
4DB
330
1F
100
AcDbEntity
  8
001
 62
   253
370
    50
100
AcDb2dPolyline
 66
     1
 10
0.0
 20
0.0
 30
0.0
  0
VERTEX
  5
4DD
330
4DB
100
AcDbEntity
  8
001
 62
   253
370
    50
100
AcDbVertex
100
AcDb2dVertex
 10
67.040212
 20
49.101745
 30
0.0
  0
VERTEX
  5
4DE
330
4DB
100
AcDbEntity
  8
001
 62
   253
370
    50
100
AcDbVertex
100
AcDb2dVertex
 10
67.327111
 20
49.800159
 30
0.0
  0
VERTEX
  5
4DF
330
4DB
100
AcDbEntity
  8
001
 62
   253
370
    50
100
AcDbVertex
100
AcDb2dVertex
 10
67.595592
 20
50.5053
 30
0.0
  0
VERTEX
  5
4E0
330
4DB
100
AcDbEntity
  8
001
 62
   253
370
    50
100
AcDbVertex
100
AcDb2dVertex
 10
67.82861
 20
51.21415
 30
0.0
  0
VERTEX
  5
4E1
330
4DB
100
AcDbEntity
  8
001
 62
   253
370
    50
100
AcDbVertex
100
AcDb2dVertex
 10
68.030013
 20
51.933176
 30
0.0
  0
VERTEX
  5
4E2
330
4DB
100
AcDbEntity
  8
001
 62
   253
370
    50
100
AcDbVertex
100
AcDb2dVertex
 10
68.202669
 20
52.662149
 30
0.0
  0
VERTEX
  5
4E3
330
4DB
100
AcDbEntity
  8
001
 62
   253
370
    50
100
AcDbVertex
100
AcDb2dVertex
 10
68.340091
 20
53.397956
 30
0.0
  0
VERTEX
  5
4E4
330
4DB
100
AcDbEntity
  8
001
 62
   253
370
    50
100
AcDbVertex
100
AcDb2dVertex
 10
68.43973
 20
54.143373
 30
0.0
  0
VERTEX
  5
4E5
330
4DB
100
AcDbEntity
  8
001
 62
   253
370
    50
100
AcDbVertex
100
AcDb2dVertex
 10
68.517617
 20
54.892034
 30
0.0
  0
SEQEND
  5
4DC
330
4DB
100
AcDbEntity
  8
001
370
    50
  0
LINE
  5
4E6
330
1F
100
AcDbEntity
  8
001
 62
   253
370
    50
100
AcDbLine
 10
66.900175
 20
47.210752
 30
0.0
 11
68.336283
 21
48.935918
 31
0.0
  0
POLYLINE
  5
4E7
330
1F
100
AcDbEntity
  8
001
 62
   253
370
    50
100
AcDb2dPolyline
 66
     1
 10
0.0
 20
0.0
 30
0.0
  0
VERTEX
  5
4E9
330
4E7
100
AcDbEntity
  8
001
 62
   253
370
    50
100
AcDbVertex
100
AcDb2dVertex
 10
80.489277
 20
38.391143
 30
0.0
  0
VERTEX
  5
4EA
330
4E7
100
AcDbEntity
  8
001
 62
   253
370
    50
100
AcDbVertex
100
AcDb2dVertex
 10
79.710074
 20
40.294123
 30
0.0
  0
VERTEX
  5
4EB
330
4E7
100
AcDbEntity
  8
001
 62
   253
370
    50
100
AcDbVertex
100
AcDb2dVertex
 10
78.379603
 20
42.719828
 30
0.0
  0
VERTEX
  5
4EC
330
4E7
100
AcDbEntity
  8
001
 62
   253
370
    50
100
AcDbVertex
100
AcDb2dVertex
 10
77.572244
 20
43.795191
 30
0.0
  0
VERTEX
  5
4ED
330
4E7
100
AcDbEntity
  8
001
 62
   253
370
    50
100
AcDbVertex
100
AcDb2dVertex
 10
76.695484
 20
44.719635
 30
0.0
  0
VERTEX
  5
4EE
330
4E7
100
AcDbEntity
  8
001
 62
   253
370
    50
100
AcDbVertex
100
AcDb2dVertex
 10
75.721904
 20
45.592475
 30
0.0
  0
VERTEX
  5
4EF
330
4E7
100
AcDbEntity
  8
001
 62
   253
370
    50
100
AcDbVertex
100
AcDb2dVertex
 10
74.692583
 20
46.400073
 30
0.0
  0
VERTEX
  5
4F0
330
4E7
100
AcDbEntity
  8
001
 62
   253
370
    50
100
AcDbVertex
100
AcDb2dVertex
 10
72.55708
 20
47.706167
 30
0.0
  0
VERTEX
  5
4F1
330
4E7
100
AcDbEntity
  8
001
 62
   253
370
    50
100
AcDbVertex
100
AcDb2dVertex
 10
69.981701
 20
48.609861
 30
0.0
  0
VERTEX
  5
4F2
330
4E7
100
AcDbEntity
  8
001
 62
   253
370
    50
100
AcDbVertex
100
AcDb2dVertex
 10
68.274938
 20
48.945214
 30
0.0
  0
VERTEX
  5
4F3
330
4E7
100
AcDbEntity
  8
001
 62
   253
370
    50
100
AcDbVertex
100
AcDb2dVertex
 10
67.040212
 20
49.101745
 30
0.0
  0
SEQEND
  5
4E8
330
4E7
100
AcDbEntity
  8
001
370
    50
  0
ARC
  5
4F4
330
1F
100
AcDbEntity
  8
001
 62
   253
370
    50
100
AcDbCircle
 10
172.9821
 20
88.23552
 30
0.0
 40
8.0
100
AcDbArc
 50
0.0
 51
90.0
  0
ARC
  5
4F5
330
1F
100
AcDbEntity
  8
001
 62
   253
370
    50
100
AcDbCircle
 10
172.9821
 20
72.23552
 30
0.0
 40
8.0
100
AcDbArc
 50
270.0
 51
0.0
  0
LINE
  5
4F6
330
1F
100
AcDbEntity
  8
001
 62
   253
370
    50
100
AcDbLine
 10
180.9821
 20
88.23552
 30
0.0
 11
180.9821
 21
72.23552
 31
0.0
  0
LINE
  5
4F7
330
1F
100
AcDbEntity
  8
001
 62
   253
370
    50
100
AcDbLine
 10
172.9821
 20
96.23552
 30
0.0
 11
103.9821
 21
96.23552
 31
0.0
  0
LINE
  5
4F8
330
1F
100
AcDbEntity
  8
001
 62
   253
370
    50
100
AcDbLine
 10
103.9821
 20
64.23552
 30
0.0
 11
172.9821
 21
64.23552
 31
0.0
  0
LINE
  5
4F9
330
1F
100
AcDbEntity
  8
001
 62
   253
370
    50
100
AcDbLine
 10
103.9821
 20
96.23552
 30
0.0
 11
103.9821
 21
64.23552
 31
0.0
  0
LINE
  5
4FA
330
1F
100
AcDbEntity
  8
001
 62
   253
370
    50
100
AcDbLine
 10
103.9821
 20
95.73552
 30
0.0
 11
100.9821
 21
95.73552
 31
0.0
  0
LINE
  5
4FB
330
1F
100
AcDbEntity
  8
001
 62
   253
370
    50
100
AcDbLine
 10
100.9821
 20
64.73552
 30
0.0
 11
103.9821
 21
64.73552
 31
0.0
  0
POLYLINE
  5
4FC
330
1F
100
AcDbEntity
  8
001
 62
   253
370
    50
100
AcDb2dPolyline
 66
     1
 10
0.0
 20
0.0
 30
0.0
  0
VERTEX
  5
4FE
330
4FC
100
AcDbEntity
  8
001
 62
   253
370
    50
100
AcDbVertex
100
AcDb2dVertex
 10
70.77746
 20
108.657594
 30
0.0
  0
VERTEX
  5
4FF
330
4FC
100
AcDbEntity
  8
001
 62
   253
370
    50
100
AcDbVertex
100
AcDb2dVertex
 10
70.724244
 20
108.718005
 30
0.0
  0
VERTEX
  5
500
330
4FC
100
AcDbEntity
  8
001
 62
   253
370
    50
100
AcDbVertex
100
AcDb2dVertex
 10
70.670215
 20
108.777659
 30
0.0
  0
VERTEX
  5
501
330
4FC
100
AcDbEntity
  8
001
 62
   253
370
    50
100
AcDbVertex
100
AcDb2dVertex
 10
70.553367
 20
108.897446
 30
0.0
  0
VERTEX
  5
502
330
4FC
100
AcDbEntity
  8
001
 62
   253
370
    50
100
AcDbVertex
100
AcDb2dVertex
 10
70.431933
 20
109.012733
 30
0.0
  0
VERTEX
  5
503
330
4FC
100
AcDbEntity
  8
001
 62
   253
370
    50
100
AcDbVertex
100
AcDb2dVertex
 10
70.166822
 20
109.248968
 30
0.0
  0
VERTEX
  5
504
330
4FC
100
AcDbEntity
  8
001
 62
   253
370
    50
100
AcDbVertex
100
AcDb2dVertex
 10
69.894881
 20
109.477231
 30
0.0
  0
VERTEX
  5
505
330
4FC
100
AcDbEntity
  8
001
 62
   253
370
    50
100
AcDbVertex
100
AcDb2dVertex
 10
69.555453
 20
109.750378
 30
0.0
  0
VERTEX
  5
506
330
4FC
100
AcDbEntity
  8
001
 62
   253
370
    50
100
AcDbVertex
100
AcDb2dVertex
 10
69.211895
 20
110.018333
 30
0.0
  0
VERTEX
  5
507
330
4FC
100
AcDbEntity
  8
001
 62
   253
370
    50
100
AcDbVertex
100
AcDb2dVertex
 10
68.79954
 20
110.333363
 30
0.0
  0
VERTEX
  5
508
330
4FC
100
AcDbEntity
  8
001
 62
   253
370
    50
100
AcDbVertex
100
AcDb2dVertex
 10
68.384971
 20
110.645459
 30
0.0
  0
VERTEX
  5
509
330
4FC
100
AcDbEntity
  8
001
 62
   253
370
    50
100
AcDbVertex
100
AcDb2dVertex
 10
67.920326
 20
110.992125
 30
0.0
  0
VERTEX
  5
50A
330
4FC
100
AcDbEntity
  8
001
 62
   253
370
    50
100
AcDbVertex
100
AcDb2dVertex
 10
67.454911
 20
111.33776
 30
0.0
  0
VERTEX
  5
50B
330
4FC
100
AcDbEntity
  8
001
 62
   253
370
    50
100
AcDbVertex
100
AcDb2dVertex
 10
67.105045
 20
111.597361
 30
0.0
  0
VERTEX
  5
50C
330
4FC
100
AcDbEntity
  8
001
 62
   253
370
    50
100
AcDbVertex
100
AcDb2dVertex
 10
66.755172
 20
111.856954
 30
0.0
  0
SEQEND
  5
4FD
330
4FC
100
AcDbEntity
  8
001
370
    50
  0
POLYLINE
  5
50D
330
1F
100
AcDbEntity
  8
001
 62
   253
370
    50
100
AcDb2dPolyline
 66
     1
 10
0.0
 20
0.0
 30
0.0
  0
VERTEX
  5
50F
330
50D
100
AcDbEntity
  8
001
 62
   253
370
    50
100
AcDbVertex
100
AcDb2dVertex
 10
67.9009
 20
82.796958
 30
0.0
  0
VERTEX
  5
510
330
50D
100
AcDbEntity
  8
001
 62
   253
370
    50
100
AcDbVertex
100
AcDb2dVertex
 10
68.058616
 20
81.819642
 30
0.0
  0
VERTEX
  5
511
330
50D
100
AcDbEntity
  8
001
 62
   253
370
    50
100
AcDbVertex
100
AcDb2dVertex
 10
68.202165
 20
80.840303
 30
0.0
  0
VERTEX
  5
512
330
50D
100
AcDbEntity
  8
001
 62
   253
370
    50
100
AcDbVertex
100
AcDb2dVertex
 10
68.310116
 20
79.951872
 30
0.0
  0
VERTEX
  5
513
330
50D
100
AcDbEntity
  8
001
 62
   253
370
    50
100
AcDbVertex
100
AcDb2dVertex
 10
68.397443
 20
79.061131
 30
0.0
  0
VERTEX
  5
514
330
50D
100
AcDbEntity
  8
001
 62
   253
370
    50
100
AcDbVertex
100
AcDb2dVertex
 10
68.410225
 20
78.91235
 30
0.0
  0
VERTEX
  5
515
330
50D
100
AcDbEntity
  8
001
 62
   253
370
    50
100
AcDbVertex
100
AcDb2dVertex
 10
68.422755
 20
78.763552
 30
0.0
  0
SEQEND
  5
50E
330
50D
100
AcDbEntity
  8
001
370
    50
  0
LINE
  5
516
330
1F
100
AcDbEntity
  8
001
 62
   253
370
    50
100
AcDbLine
 10
62.977624
 20
101.443888
 30
0.0
 11
61.937636
 21
102.253805
 31
0.0
  0
LINE
  5
517
330
1F
100
AcDbEntity
  8
001
 62
   253
370
    50
100
AcDbLine
 10
61.937636
 20
102.253805
 30
0.0
 11
61.937636
 21
110.42653
 31
0.0
  0
POLYLINE
  5
518
330
1F
100
AcDbEntity
  8
001
 62
   253
370
    50
100
AcDb2dPolyline
 66
     1
 10
0.0
 20
0.0
 30
0.0
  0
VERTEX
  5
51A
330
518
100
AcDbEntity
  8
001
 62
   253
370
    50
100
AcDbVertex
100
AcDb2dVertex
 10
61.937636
 20
110.42653
 30
0.0
  0
VERTEX
  5
51B
330
518
100
AcDbEntity
  8
001
 62
   253
370
    50
100
AcDbVertex
100
AcDb2dVertex
 10
63.769136
 20
109.220199
 30
0.0
  0
VERTEX
  5
51C
330
518
100
AcDbEntity
  8
001
 62
   253
370
    50
100
AcDbVertex
100
AcDb2dVertex
 10
65.596034
 20
108.006971
 30
0.0
  0
VERTEX
  5
51D
330
518
100
AcDbEntity
  8
001
 62
   253
370
    50
100
AcDbVertex
100
AcDb2dVertex
 10
66.747303
 20
107.233862
 30
0.0
  0
VERTEX
  5
51E
330
518
100
AcDbEntity
  8
001
 62
   253
370
    50
100
AcDbVertex
100
AcDb2dVertex
 10
67.896731
 20
106.457995
 30
0.0
  0
SEQEND
  5
519
330
518
100
AcDbEntity
  8
001
370
    50
  0
POLYLINE
  5
51F
330
1F
100
AcDbEntity
  8
001
 62
   253
370
    50
100
AcDb2dPolyline
 66
     1
 10
0.0
 20
0.0
 30
0.0
  0
VERTEX
  5
521
330
51F
100
AcDbEntity
  8
001
 62
   253
370
    50
100
AcDbVertex
100
AcDb2dVertex
 10
68.417404
 20
108.005297
 30
0.0
  0
VERTEX
  5
522
330
51F
100
AcDbEntity
  8
001
 62
   253
370
    50
100
AcDbVertex
100
AcDb2dVertex
 10
68.273448
 20
108.391278
 30
0.0
  0
VERTEX
  5
523
330
51F
100
AcDbEntity
  8
001
 62
   253
370
    50
100
AcDbVertex
100
AcDb2dVertex
 10
68.126865
 20
108.776251
 30
0.0
  0
VERTEX
  5
524
330
51F
100
AcDbEntity
  8
001
 62
   253
370
    50
100
AcDbVertex
100
AcDb2dVertex
 10
67.817891
 20
109.543712
 30
0.0
  0
VERTEX
  5
525
330
51F
100
AcDbEntity
  8
001
 62
   253
370
    50
100
AcDbVertex
100
AcDb2dVertex
 10
67.490147
 20
110.303449
 30
0.0
  0
VERTEX
  5
526
330
51F
100
AcDbEntity
  8
001
 62
   253
370
    50
100
AcDbVertex
100
AcDb2dVertex
 10
67.151505
 20
111.042996
 30
0.0
  0
VERTEX
  5
527
330
51F
100
AcDbEntity
  8
001
 62
   253
370
    50
100
AcDbVertex
100
AcDb2dVertex
 10
66.796379
 20
111.774689
 30
0.0
  0
VERTEX
  5
528
330
51F
100
AcDbEntity
  8
001
 62
   253
370
    50
100
AcDbVertex
100
AcDb2dVertex
 10
66.775789
 20
111.815828
 30
0.0
  0
VERTEX
  5
529
330
51F
100
AcDbEntity
  8
001
 62
   253
370
    50
100
AcDbVertex
100
AcDb2dVertex
 10
66.755172
 20
111.856954
 30
0.0
  0
SEQEND
  5
520
330
51F
100
AcDbEntity
  8
001
370
    50
  0
POLYLINE
  5
52A
330
1F
100
AcDbEntity
  8
001
 62
   253
370
    50
100
AcDb2dPolyline
 66
     1
 10
0.0
 20
0.0
 30
0.0
  0
VERTEX
  5
52C
330
52A
100
AcDbEntity
  8
001
 62
   253
370
    50
100
AcDbVertex
100
AcDb2dVertex
 10
68.469113
 20
34.73552
 30
0.0
  0
VERTEX
  5
52D
330
52A
100
AcDbEntity
  8
001
 62
   253
370
    50
100
AcDbVertex
100
AcDb2dVertex
 10
68.47635
 20
34.73552
 30
0.0
  0
VERTEX
  5
52E
330
52A
100
AcDbEntity
  8
001
 62
   253
370
    50
100
AcDbVertex
100
AcDb2dVertex
 10
68.486926
 20
34.73552
 30
0.0
  0
VERTEX
  5
52F
330
52A
100
AcDbEntity
  8
001
 62
   253
370
    50
100
AcDbVertex
100
AcDb2dVertex
 10
68.497501
 20
34.73552
 30
0.0
  0
VERTEX
  5
530
330
52A
100
AcDbEntity
  8
001
 62
   253
370
    50
100
AcDbVertex
100
AcDb2dVertex
 10
68.504738
 20
34.73552
 30
0.0
  0
SEQEND
  5
52B
330
52A
100
AcDbEntity
  8
001
370
    50
  0
POLYLINE
  5
531
330
1F
100
AcDbEntity
  8
001
 62
   253
370
    50
100
AcDb2dPolyline
 66
     1
 10
0.0
 20
0.0
 30
0.0
  0
VERTEX
  5
533
330
531
100
AcDbEntity
  8
001
 62
   253
370
    50
100
AcDbVertex
100
AcDb2dVertex
 10
73.550487
 20
38.031997
 30
0.0
  0
VERTEX
  5
534
330
531
100
AcDbEntity
  8
001
 62
   253
370
    50
100
AcDbVertex
100
AcDb2dVertex
 10
73.69622
 20
38.194154
 30
0.0
  0
VERTEX
  5
535
330
531
100
AcDbEntity
  8
001
 62
   253
370
    50
100
AcDbVertex
100
AcDb2dVertex
 10
73.882599
 20
38.429235
 30
0.0
  0
VERTEX
  5
536
330
531
100
AcDbEntity
  8
001
 62
   253
370
    50
100
AcDbVertex
100
AcDb2dVertex
 10
74.029088
 20
38.656299
 30
0.0
  0
VERTEX
  5
537
330
531
100
AcDbEntity
  8
001
 62
   253
370
    50
100
AcDbVertex
100
AcDb2dVertex
 10
74.140105
 20
38.878799
 30
0.0
  0
VERTEX
  5
538
330
531
100
AcDbEntity
  8
001
 62
   253
370
    50
100
AcDbVertex
100
AcDb2dVertex
 10
74.236085
 20
39.116446
 30
0.0
  0
VERTEX
  5
539
330
531
100
AcDbEntity
  8
001
 62
   253
370
    50
100
AcDbVertex
100
AcDb2dVertex
 10
74.315182
 20
39.36703
 30
0.0
  0
VERTEX
  5
53A
330
531
100
AcDbEntity
  8
001
 62
   253
370
    50
100
AcDbVertex
100
AcDb2dVertex
 10
74.413015
 20
40.141532
 30
0.0
  0
VERTEX
  5
53B
330
531
100
AcDbEntity
  8
001
 62
   253
370
    50
100
AcDbVertex
100
AcDb2dVertex
 10
74.306049
 20
40.912225
 30
0.0
  0
VERTEX
  5
53C
330
531
100
AcDbEntity
  8
001
 62
   253
370
    50
100
AcDbVertex
100
AcDb2dVertex
 10
74.124216
 20
41.402679
 30
0.0
  0
VERTEX
  5
53D
330
531
100
AcDbEntity
  8
001
 62
   253
370
    50
100
AcDbVertex
100
AcDb2dVertex
 10
73.862359
 20
41.853586
 30
0.0
  0
VERTEX
  5
53E
330
531
100
AcDbEntity
  8
001
 62
   253
370
    50
100
AcDbVertex
100
AcDb2dVertex
 10
73.703087
 20
42.061006
 30
0.0
  0
VERTEX
  5
53F
330
531
100
AcDbEntity
  8
001
 62
   253
370
    50
100
AcDbVertex
100
AcDb2dVertex
 10
73.525535
 20
42.253548
 30
0.0
  0
VERTEX
  5
540
330
531
100
AcDbEntity
  8
001
 62
   253
370
    50
100
AcDbVertex
100
AcDb2dVertex
 10
73.330742
 20
42.429923
 30
0.0
  0
VERTEX
  5
541
330
531
100
AcDbEntity
  8
001
 62
   253
370
    50
100
AcDbVertex
100
AcDb2dVertex
 10
73.124955
 20
42.589635
 30
0.0
  0
VERTEX
  5
542
330
531
100
AcDbEntity
  8
001
 62
   253
370
    50
100
AcDbVertex
100
AcDb2dVertex
 10
72.692155
 20
42.8539
 30
0.0
  0
VERTEX
  5
543
330
531
100
AcDbEntity
  8
001
 62
   253
370
    50
100
AcDbVertex
100
AcDb2dVertex
 10
72.182779
 20
43.031593
 30
0.0
  0
VERTEX
  5
544
330
531
100
AcDbEntity
  8
001
 62
   253
370
    50
100
AcDbVertex
100
AcDb2dVertex
 10
71.48302
 20
43.11684
 30
0.0
  0
VERTEX
  5
545
330
531
100
AcDbEntity
  8
001
 62
   253
370
    50
100
AcDbVertex
100
AcDb2dVertex
 10
70.965596
 20
43.105031
 30
0.0
  0
SEQEND
  5
532
330
531
100
AcDbEntity
  8
001
370
    50
  0
LINE
  5
546
330
1F
100
AcDbEntity
  8
001
 62
   253
370
    50
100
AcDbLine
 10
70.965596
 20
43.105031
 30
0.0
 11
66.900175
 21
47.210752
 31
0.0
  0
POLYLINE
  5
547
330
1F
100
AcDbEntity
  8
001
 62
   253
370
    50
100
AcDb2dPolyline
 66
     1
 10
0.0
 20
0.0
 30
0.0
  0
VERTEX
  5
549
330
547
100
AcDbEntity
  8
001
 62
   253
370
    50
100
AcDbVertex
100
AcDb2dVertex
 10
70.965596
 20
37.206915
 30
0.0
  0
VERTEX
  5
54A
330
547
100
AcDbEntity
  8
001
 62
   253
370
    50
100
AcDbVertex
100
AcDb2dVertex
 10
71.502448
 20
37.183679
 30
0.0
  0
VERTEX
  5
54B
330
547
100
AcDbEntity
  8
001
 62
   253
370
    50
100
AcDbVertex
100
AcDb2dVertex
 10
72.216863
 20
37.264847
 30
0.0
  0
VERTEX
  5
54C
330
547
100
AcDbEntity
  8
001
 62
   253
370
    50
100
AcDbVertex
100
AcDb2dVertex
 10
72.473783
 20
37.343283
 30
0.0
  0
VERTEX
  5
54D
330
547
100
AcDbEntity
  8
001
 62
   253
370
    50
100
AcDbVertex
100
AcDb2dVertex
 10
72.70477
 20
37.440822
 30
0.0
  0
VERTEX
  5
54E
330
547
100
AcDbEntity
  8
001
 62
   253
370
    50
100
AcDbVertex
100
AcDb2dVertex
 10
72.925363
 20
37.552543
 30
0.0
  0
VERTEX
  5
54F
330
547
100
AcDbEntity
  8
001
 62
   253
370
    50
100
AcDbVertex
100
AcDb2dVertex
 10
73.15386
 20
37.699155
 30
0.0
  0
VERTEX
  5
550
330
547
100
AcDbEntity
  8
001
 62
   253
370
    50
100
AcDbVertex
100
AcDb2dVertex
 10
73.388939
 20
37.885907
 30
0.0
  0
VERTEX
  5
551
330
547
100
AcDbEntity
  8
001
 62
   253
370
    50
100
AcDbVertex
100
AcDb2dVertex
 10
73.550487
 20
38.031997
 30
0.0
  0
SEQEND
  5
548
330
547
100
AcDbEntity
  8
001
370
    50
  0
POLYLINE
  5
552
330
1F
100
AcDbEntity
  8
001
 62
   253
370
    50
100
AcDb2dPolyline
 66
     1
 10
0.0
 20
0.0
 30
0.0
  0
VERTEX
  5
554
330
552
100
AcDbEntity
  8
001
 62
   253
370
    50
100
AcDbVertex
100
AcDb2dVertex
 10
71.648756
 20
37.464591
 30
0.0
  0
VERTEX
  5
555
330
552
100
AcDbEntity
  8
001
 62
   253
370
    50
100
AcDbVertex
100
AcDb2dVertex
 10
72.01751
 20
37.48267
 30
0.0
  0
VERTEX
  5
556
330
552
100
AcDbEntity
  8
001
 62
   253
370
    50
100
AcDbVertex
100
AcDb2dVertex
 10
72.512836
 20
37.561365
 30
0.0
  0
VERTEX
  5
557
330
552
100
AcDbEntity
  8
001
 62
   253
370
    50
100
AcDbVertex
100
AcDb2dVertex
 10
72.771985
 20
37.640838
 30
0.0
  0
VERTEX
  5
558
330
552
100
AcDbEntity
  8
001
 62
   253
370
    50
100
AcDbVertex
100
AcDb2dVertex
 10
73.000743
 20
37.73734
 30
0.0
  0
VERTEX
  5
559
330
552
100
AcDbEntity
  8
001
 62
   253
370
    50
100
AcDbVertex
100
AcDb2dVertex
 10
73.218656
 20
37.84781
 30
0.0
  0
VERTEX
  5
55A
330
552
100
AcDbEntity
  8
001
 62
   253
370
    50
100
AcDbVertex
100
AcDb2dVertex
 10
73.449833
 20
37.995673
 30
0.0
  0
VERTEX
  5
55B
330
552
100
AcDbEntity
  8
001
 62
   253
370
    50
100
AcDbVertex
100
AcDb2dVertex
 10
73.593597
 20
38.104245
 30
0.0
  0
VERTEX
  5
55C
330
552
100
AcDbEntity
  8
001
 62
   253
370
    50
100
AcDbVertex
100
AcDb2dVertex
 10
73.693186
 20
38.185533
 30
0.0
  0
SEQEND
  5
553
330
552
100
AcDbEntity
  8
001
370
    50
  0
POLYLINE
  5
55D
330
1F
100
AcDbEntity
  8
001
 62
   253
370
    50
100
AcDb2dPolyline
 66
     1
 10
0.0
 20
0.0
 30
0.0
  0
VERTEX
  5
55F
330
55D
100
AcDbEntity
  8
001
 62
   253
370
    50
100
AcDbVertex
100
AcDb2dVertex
 10
71.162249
 20
37.40393
 30
0.0
  0
VERTEX
  5
560
330
55D
100
AcDbEntity
  8
001
 62
   253
370
    50
100
AcDbVertex
100
AcDb2dVertex
 10
71.240498
 20
37.392105
 30
0.0
  0
VERTEX
  5
561
330
55D
100
AcDbEntity
  8
001
 62
   253
370
    50
100
AcDbVertex
100
AcDb2dVertex
 10
71.355273
 20
37.378206
 30
0.0
  0
VERTEX
  5
562
330
55D
100
AcDbEntity
  8
001
 62
   253
370
    50
100
AcDbVertex
100
AcDb2dVertex
 10
71.470448
 20
37.369037
 30
0.0
  0
VERTEX
  5
563
330
55D
100
AcDbEntity
  8
001
 62
   253
370
    50
100
AcDbVertex
100
AcDb2dVertex
 10
71.549436
 20
37.365088
 30
0.0
  0
SEQEND
  5
55E
330
55D
100
AcDbEntity
  8
001
370
    50
  0
LINE
  5
564
330
1F
100
AcDbEntity
  8
001
 62
   253
370
    50
100
AcDbLine
 10
71.549436
 20
37.365088
 30
0.0
 11
71.648756
 21
37.464591
 31
0.0
  0
POLYLINE
  5
565
330
1F
100
AcDbEntity
  8
001
 62
   253
370
    50
100
AcDb2dPolyline
 66
     1
 10
0.0
 20
0.0
 30
0.0
  0
VERTEX
  5
567
330
565
100
AcDbEntity
  8
001
 62
   253
370
    50
100
AcDbVertex
100
AcDb2dVertex
 10
68.504738
 20
34.73552
 30
0.0
  0
VERTEX
  5
568
330
565
100
AcDbEntity
  8
001
 62
   253
370
    50
100
AcDbVertex
100
AcDb2dVertex
 10
70.299863
 20
34.735924
 30
0.0
  0
VERTEX
  5
569
330
565
100
AcDbEntity
  8
001
 62
   253
370
    50
100
AcDbVertex
100
AcDb2dVertex
 10
72.923507
 20
34.737681
 30
0.0
  0
VERTEX
  5
56A
330
565
100
AcDbEntity
  8
001
 62
   253
370
    50
100
AcDbVertex
100
AcDb2dVertex
 10
75.544332
 20
34.741058
 30
0.0
  0
VERTEX
  5
56B
330
565
100
AcDbEntity
  8
001
 62
   253
370
    50
100
AcDbVertex
100
AcDb2dVertex
 10
77.337527
 20
34.744165
 30
0.0
  0
SEQEND
  5
566
330
565
100
AcDbEntity
  8
001
370
    50
  0
LINE
  5
56C
330
1F
100
AcDbEntity
  8
001
 62
   253
370
    50
100
AcDbLine
 10
68.504738
 20
34.73552
 30
0.0
 11
77.337527
 21
34.73552
 31
0.0
  0
LINE
  5
56D
330
1F
100
AcDbEntity
  8
001
 62
   253
370
    50
100
AcDbLine
 10
71.548284
 20
37.365129
 30
0.0
 11
71.648756
 21
37.464591
 31
0.0
  0
LINE
  5
56E
330
1F
100
AcDbEntity
  8
001
 62
   253
370
    50
100
AcDbLine
 10
61.6821
 20
41.423096
 30
0.0
 11
61.6821
 21
43.171419
 31
0.0
  0
LINE
  5
56F
330
1F
100
AcDbEntity
  8
001
 62
   253
370
    50
100
AcDbLine
 10
61.6821
 20
43.171419
 30
0.0
 11
61.937636
 21
43.818402
 31
0.0
  0
LINE
  5
570
330
1F
100
AcDbEntity
  8
001
 62
   253
370
    50
100
AcDbLine
 10
75.725565
 20
119.778712
 30
0.0
 11
75.665119
 21
120.156388
 31
0.0
  0
POLYLINE
  5
571
330
1F
100
AcDbEntity
  8
001
 62
   253
370
    50
100
AcDb2dPolyline
 66
     1
 10
0.0
 20
0.0
 30
0.0
  0
VERTEX
  5
573
330
571
100
AcDbEntity
  8
001
 62
   253
370
    50
100
AcDbVertex
100
AcDb2dVertex
 10
75.71175
 20
118.576029
 30
0.0
  0
VERTEX
  5
574
330
571
100
AcDbEntity
  8
001
 62
   253
370
    50
100
AcDbVertex
100
AcDb2dVertex
 10
75.711837
 20
118.818027
 30
0.0
  0
VERTEX
  5
575
330
571
100
AcDbEntity
  8
001
 62
   253
370
    50
100
AcDbVertex
100
AcDb2dVertex
 10
75.709874
 20
119.059978
 30
0.0
  0
VERTEX
  5
576
330
571
100
AcDbEntity
  8
001
 62
   253
370
    50
100
AcDbVertex
100
AcDb2dVertex
 10
75.692766
 20
119.608301
 30
0.0
  0
VERTEX
  5
577
330
571
100
AcDbEntity
  8
001
 62
   253
370
    50
100
AcDbVertex
100
AcDb2dVertex
 10
75.665119
 20
120.156388
 30
0.0
  0
SEQEND
  5
572
330
571
100
AcDbEntity
  8
001
370
    50
  0
POLYLINE
  5
578
330
1F
100
AcDbEntity
  8
001
 62
   253
370
    50
100
AcDb2dPolyline
 66
     1
 10
0.0
 20
0.0
 30
0.0
  0
VERTEX
  5
57A
330
578
100
AcDbEntity
  8
001
 62
   253
370
    50
100
AcDbVertex
100
AcDb2dVertex
 10
73.305883
 20
115.124646
 30
0.0
  0
VERTEX
  5
57B
330
578
100
AcDbEntity
  8
001
 62
   253
370
    50
100
AcDbVertex
100
AcDb2dVertex
 10
71.980673
 20
115.036874
 30
0.0
  0
VERTEX
  5
57C
330
578
100
AcDbEntity
  8
001
 62
   253
370
    50
100
AcDbVertex
100
AcDb2dVertex
 10
70.043854
 20
114.908193
 30
0.0
  0
VERTEX
  5
57D
330
578
100
AcDbEntity
  8
001
 62
   253
370
    50
100
AcDbVertex
100
AcDb2dVertex
 10
68.103472
 20
114.778716
 30
0.0
  0
VERTEX
  5
57E
330
578
100
AcDbEntity
  8
001
 62
   253
370
    50
100
AcDbVertex
100
AcDb2dVertex
 10
66.77586
 20
114.689853
 30
0.0
  0
SEQEND
  5
579
330
578
100
AcDbEntity
  8
001
370
    50
  0
LINE
  5
57F
330
1F
100
AcDbEntity
  8
001
 62
   253
370
    50
100
AcDbLine
 10
61.6821
 20
110.784133
 30
0.0
 11
61.937636
 21
110.42653
 31
0.0
  0
LINE
  5
580
330
1F
100
AcDbEntity
  8
001
 62
   253
370
    50
100
AcDbLine
 10
61.6821
 20
111.064879
 30
0.0
 11
61.937798
 21
111.456284
 31
0.0
  0
LINE
  5
581
330
1F
100
AcDbEntity
  8
001
 62
   253
370
    50
100
AcDbLine
 10
61.937798
 20
111.456284
 30
0.0
 11
66.77586
 21
114.689853
 31
0.0
  0
POLYLINE
  5
582
330
1F
100
AcDbEntity
  8
001
 62
   253
370
    50
100
AcDb2dPolyline
 66
     1
 10
0.0
 20
0.0
 30
0.0
  0
VERTEX
  5
584
330
582
100
AcDbEntity
  8
001
 62
   253
370
    50
100
AcDbVertex
100
AcDb2dVertex
 10
70.345016
 20
113.509345
 30
0.0
  0
VERTEX
  5
585
330
582
100
AcDbEntity
  8
001
 62
   253
370
    50
100
AcDbVertex
100
AcDb2dVertex
 10
70.139577
 20
113.576499
 30
0.0
  0
VERTEX
  5
586
330
582
100
AcDbEntity
  8
001
 62
   253
370
    50
100
AcDbVertex
100
AcDb2dVertex
 10
69.847816
 20
113.653159
 30
0.0
  0
VERTEX
  5
587
330
582
100
AcDbEntity
  8
001
 62
   253
370
    50
100
AcDbVertex
100
AcDb2dVertex
 10
69.407387
 20
113.719583
 30
0.0
  0
VERTEX
  5
588
330
582
100
AcDbEntity
  8
001
 62
   253
370
    50
100
AcDbVertex
100
AcDb2dVertex
 10
69.000921
 20
113.72493
 30
0.0
  0
VERTEX
  5
589
330
582
100
AcDbEntity
  8
001
 62
   253
370
    50
100
AcDbVertex
100
AcDb2dVertex
 10
68.781349
 20
113.714111
 30
0.0
  0
VERTEX
  5
58A
330
582
100
AcDbEntity
  8
001
 62
   253
370
    50
100
AcDbVertex
100
AcDb2dVertex
 10
68.558647
 20
113.693853
 30
0.0
  0
VERTEX
  5
58B
330
582
100
AcDbEntity
  8
001
 62
   253
370
    50
100
AcDbVertex
100
AcDb2dVertex
 10
68.338603
 20
113.662136
 30
0.0
  0
VERTEX
  5
58C
330
582
100
AcDbEntity
  8
001
 62
   253
370
    50
100
AcDbVertex
100
AcDb2dVertex
 10
68.121657
 20
113.618941
 30
0.0
  0
VERTEX
  5
58D
330
582
100
AcDbEntity
  8
001
 62
   253
370
    50
100
AcDbVertex
100
AcDb2dVertex
 10
67.712866
 20
113.504839
 30
0.0
  0
VERTEX
  5
58E
330
582
100
AcDbEntity
  8
001
 62
   253
370
    50
100
AcDbVertex
100
AcDb2dVertex
 10
67.316077
 20
113.347974
 30
0.0
  0
VERTEX
  5
58F
330
582
100
AcDbEntity
  8
001
 62
   253
370
    50
100
AcDbVertex
100
AcDb2dVertex
 10
66.845324
 20
113.080271
 30
0.0
  0
VERTEX
  5
590
330
582
100
AcDbEntity
  8
001
 62
   253
370
    50
100
AcDbVertex
100
AcDb2dVertex
 10
66.453051
 20
112.7082
 30
0.0
  0
VERTEX
  5
591
330
582
100
AcDbEntity
  8
001
 62
   253
370
    50
100
AcDbVertex
100
AcDb2dVertex
 10
66.366233
 20
112.584207
 30
0.0
  0
VERTEX
  5
592
330
582
100
AcDbEntity
  8
001
 62
   253
370
    50
100
AcDbVertex
100
AcDb2dVertex
 10
66.294019
 20
112.457799
 30
0.0
  0
VERTEX
  5
593
330
582
100
AcDbEntity
  8
001
 62
   253
370
    50
100
AcDbVertex
100
AcDb2dVertex
 10
66.244056
 20
112.341461
 30
0.0
  0
VERTEX
  5
594
330
582
100
AcDbEntity
  8
001
 62
   253
370
    50
100
AcDbVertex
100
AcDb2dVertex
 10
66.209081
 20
112.201118
 30
0.0
  0
VERTEX
  5
595
330
582
100
AcDbEntity
  8
001
 62
   253
370
    50
100
AcDbVertex
100
AcDb2dVertex
 10
66.204263
 20
112.171123
 30
0.0
  0
VERTEX
  5
596
330
582
100
AcDbEntity
  8
001
 62
   253
370
    50
100
AcDbVertex
100
AcDb2dVertex
 10
66.201308
 20
112.150166
 30
0.0
  0
SEQEND
  5
583
330
582
100
AcDbEntity
  8
001
370
    50
  0
POLYLINE
  5
597
330
1F
100
AcDbEntity
  8
001
 62
   253
370
    50
100
AcDb2dPolyline
 66
     1
 10
0.0
 20
0.0
 30
0.0
  0
VERTEX
  5
599
330
597
100
AcDbEntity
  8
001
 62
   253
370
    50
100
AcDbVertex
100
AcDb2dVertex
 10
66.201308
 20
112.150166
 30
0.0
  0
VERTEX
  5
59A
330
597
100
AcDbEntity
  8
001
 62
   253
370
    50
100
AcDbVertex
100
AcDb2dVertex
 10
66.196924
 20
112.064558
 30
0.0
  0
VERTEX
  5
59B
330
597
100
AcDbEntity
  8
001
 62
   253
370
    50
100
AcDbVertex
100
AcDb2dVertex
 10
66.200817
 20
111.945957
 30
0.0
  0
VERTEX
  5
59C
330
597
100
AcDbEntity
  8
001
 62
   253
370
    50
100
AcDbVertex
100
AcDb2dVertex
 10
66.224997
 20
111.814567
 30
0.0
  0
VERTEX
  5
59D
330
597
100
AcDbEntity
  8
001
 62
   253
370
    50
100
AcDbVertex
100
AcDb2dVertex
 10
66.269479
 20
111.700069
 30
0.0
  0
VERTEX
  5
59E
330
597
100
AcDbEntity
  8
001
 62
   253
370
    50
100
AcDbVertex
100
AcDb2dVertex
 10
66.334666
 20
111.582109
 30
0.0
  0
VERTEX
  5
59F
330
597
100
AcDbEntity
  8
001
 62
   253
370
    50
100
AcDbVertex
100
AcDb2dVertex
 10
66.41298
 20
111.470925
 30
0.0
  0
VERTEX
  5
5A0
330
597
100
AcDbEntity
  8
001
 62
   253
370
    50
100
AcDbVertex
100
AcDb2dVertex
 10
66.51015
 20
111.363206
 30
0.0
  0
VERTEX
  5
5A1
330
597
100
AcDbEntity
  8
001
 62
   253
370
    50
100
AcDbVertex
100
AcDb2dVertex
 10
66.626961
 20
111.265488
 30
0.0
  0
VERTEX
  5
5A2
330
597
100
AcDbEntity
  8
001
 62
   253
370
    50
100
AcDbVertex
100
AcDb2dVertex
 10
66.917721
 20
111.089421
 30
0.0
  0
VERTEX
  5
5A3
330
597
100
AcDbEntity
  8
001
 62
   253
370
    50
100
AcDbVertex
100
AcDb2dVertex
 10
67.14762
 20
110.982319
 30
0.0
  0
SEQEND
  5
598
330
597
100
AcDbEntity
  8
001
370
    50
  0
LINE
  5
5A4
330
1F
100
AcDbEntity
  8
001
 62
   253
370
    50
100
AcDbLine
 10
61.937636
 20
102.253805
 30
0.0
 11
61.6821
 21
102.636645
 31
0.0
  0
LINE
  5
5A5
330
1F
100
AcDbEntity
  8
001
 62
   253
370
    50
100
AcDbLine
 10
61.6821
 20
102.636645
 30
0.0
 11
61.6821
 21
111.064879
 31
0.0
  0
LINE
  5
5A6
330
1F
100
AcDbEntity
  8
001
  6
DASHED
 62
   253
370
    50
100
AcDbLine
 10
73.9821
 20
60.23552
 30
0.0
 11
73.9821
 21
100.23552
 31
0.0
  0
LINE
  5
5A7
330
1F
100
AcDbEntity
  8
001
  6
DASHED
 62
   253
370
    50
100
AcDbLine
 10
70.9821
 20
57.23552
 30
0.0
 11
73.9821
 21
60.23552
 31
0.0
  0
LINE
  5
5A8
330
1F
100
AcDbEntity
  8
001
  6
DASHED
 62
   253
370
    50
100
AcDbLine
 10
73.9821
 20
100.23552
 30
0.0
 11
70.9821
 21
103.23552
 31
0.0
  0
LINE
  5
5A9
330
1F
100
AcDbEntity
  8
001
  6
DASHED
 62
   253
370
    50
100
AcDbLine
 10
87.2821
 20
60.23552
 30
0.0
 11
87.2821
 21
100.23552
 31
0.0
  0
LINE
  5
5AA
330
1F
100
AcDbEntity
  8
001
  6
DASHED
 62
   253
370
    50
100
AcDbLine
 10
87.2821
 20
100.23552
 30
0.0
 11
73.9821
 21
100.23552
 31
0.0
  0
LINE
  5
5AB
330
1F
100
AcDbEntity
  8
001
  6
DASHED
 62
   253
370
    50
100
AcDbLine
 10
73.9821
 20
60.23552
 30
0.0
 11
87.2821
 21
60.23552
 31
0.0
  0
LINE
  5
5AC
330
1F
100
AcDbEntity
  8
001
  6
DASHED
 62
   253
370
    50
100
AcDbLine
 10
70.9821
 20
52.057325
 30
0.0
 11
70.9821
 21
108.413714
 31
0.0
  0
LINE
  5
5AD
330
1F
100
AcDbEntity
  8
001
370
    50
100
AcDbLine
 10
67.203258
 20
33.96105
 30
0.0
 11
60.9821
 21
33.96105
 31
0.0
  0
LINE
  5
5AE
330
1F
100
AcDbEntity
  8
001
370
    50
100
AcDbLine
 10
60.9821
 20
40.223691
 30
0.0
 11
59.503802
 21
40.223691
 31
0.0
  0
LINE
  5
5AF
330
1F
100
AcDbEntity
  8
001
 62
   253
370
    50
100
AcDbLine
 10
60.983752
 20
80.23552
 30
0.0
 11
58.082566
 21
78.56052
 31
0.0
  0
LINE
  5
5B0
330
1F
100
AcDbEntity
  8
001
 62
   253
370
    50
100
AcDbLine
 10
60.983752
 20
80.23552
 30
0.0
 11
58.082566
 21
81.91052
 31
0.0
  0
LINE
  5
5B1
330
1F
100
AcDbEntity
  8
001
 62
   253
370
    50
100
AcDbLine
 10
180.9821
 20
80.23552
 30
0.0
 11
183.883285
 21
81.91052
 31
0.0
  0
LINE
  5
5B2
330
1F
100
AcDbEntity
  8
001
 62
   253
370
    50
100
AcDbLine
 10
180.9821
 20
80.23552
 30
0.0
 11
183.883285
 21
78.56052
 31
0.0
  0
ENDSEC
  0
SECTION
  2
OBJECTS
  0
DICTIONARY
  5
C
330
0
100
AcDbDictionary
281
     1
  3
ACAD_GROUP
350
D
  3
ACAD_LAYOUT
350
1A
  3
ACAD_MLEADERSTYLE
350
5B6
  3
ACAD_MLINESTYLE
350
17
  3
ACAD_PLOTSETTINGS
350
19
  3
ACAD_PLOTSTYLENAME
350
E
  3
ACAD_SCALELIST
350
3B
  3
ACAD_TABLESTYLE
350
5B5
  3
ACAD_VISUALSTYLE
350
2A
  3
AcDbVariableDictionary
350
5B3
  0
DICTIONARY
  5
D
102
{ACAD_REACTORS
330
C
102
}
330
C
100
AcDbDictionary
281
     1
  0
DICTIONARY
  5
1A
102
{ACAD_REACTORS
330
C
102
}
330
C
100
AcDbDictionary
281
     1
  3
Layout1
350
1E
  3
Layout2
350
26
  3
Model
350
22
  0
DICTIONARY
  5
5B6
102
{ACAD_REACTORS
330
C
102
}
330
C
100
AcDbDictionary
281
     1
  0
DICTIONARY
  5
17
102
{ACAD_REACTORS
330
C
102
}
330
C
100
AcDbDictionary
281
     1
  3
Standard
350
18
  0
DICTIONARY
  5
19
102
{ACAD_REACTORS
330
C
102
}
330
C
100
AcDbDictionary
281
     1
  0
ACDBDICTIONARYWDFLT
  5
E
102
{ACAD_REACTORS
330
C
102
}
330
C
100
AcDbDictionary
281
     1
  3
Normal
350
F
100
AcDbDictionaryWithDefault
340
F
  0
DICTIONARY
  5
3B
102
{ACAD_REACTORS
330
C
102
}
330
C
100
AcDbDictionary
281
     1
  3
A0
350
3C
  3
A1
350
3D
  3
A2
350
3E
  3
A3
350
3F
  3
A4
350
40
  3
A5
350
41
  3
A6
350
42
  3
A7
350
43
  3
A8
350
44
  3
A9
350
45
  3
B0
350
46
  3
B1
350
47
  3
B2
350
48
  3
B3
350
49
  3
B4
350
4A
  3
B5
350
4B
  3
B6
350
4C
  3
B7
350
4D
  3
B8
350
4E
  3
B9
350
4F
  3
C0
350
50
  3
C1
350
51
  3
C2
350
52
  3
C3
350
53
  3
C4
350
54
  3
C5
350
55
  3
C6
350
56
  3
C7
350
57
  3
C8
350
58
  3
C9
350
59
  3
D0
350
5A
  3
D1
350
5B
  3
D2
350
5C
  0
DICTIONARY
  5
5B5
102
{ACAD_REACTORS
330
C
102
}
330
C
100
AcDbDictionary
281
     1
  0
DICTIONARY
  5
2A
102
{ACAD_REACTORS
330
C
102
}
330
C
100
AcDbDictionary
281
     1
  3
2dWireframe
350
2F
  3
3D Hidden
350
31
  3
3dWireframe
350
30
  3
Basic
350
32
  3
Brighten
350
36
  3
ColorChange
350
3A
  3
Conceptual
350
34
  3
Dim
350
35
  3
Facepattern
350
39
  3
Flat
350
2B
  3
FlatWithEdges
350
2C
  3
Gouraud
350
2D
  3
GouraudWithEdges
350
2E
  3
Linepattern
350
38
  3
Realistic
350
33
  3
Thicken
350
37
  0
DICTIONARY
  5
5B3
102
{ACAD_REACTORS
330
C
102
}
330
C
100
AcDbDictionary
281
     1
  3
CANNOSCALE
350
5B4
  3
PSOLHEIGHT
350
5B8
  3
PSOLWIDTH
350
5B7
  0
LAYOUT
  5
1E
102
{ACAD_REACTORS
330
1A
102
}
330
1A
100
AcDbPlotSettings
  1

  2
none_device
  4

  6

 40
0.0
 41
0.0
 42
0.0
 43
0.0
 44
0.0
 45
0.0
 46
0.0
 47
0.0
 48
0.0
 49
0.0
140
0.0
141
0.0
142
1.0
143
1.0
 70
   688
 72
     0
 73
     0
 74
     5
  7

 75
    16
147
1.0
148
0.0
149
0.0
100
AcDbLayout
  1
Layout1
 70
     1
 71
     1
 10
0.0
 20
0.0
 11
12.0
 21
9.0
 12
0.0
 22
0.0
 32
0.0
 14
1.000000E+20
 24
1.000000E+20
 34
0.0
 15
-1.000000E+20
 25
-1.000000E+20
 35
0.0
146
0.0
 13
0.0
 23
0.0
 33
0.0
 16
1.0
 26
0.0
 36
0.0
 17
0.0
 27
1.0
 37
0.0
 76
     0
330
1B
  0
LAYOUT
  5
26
102
{ACAD_REACTORS
330
1A
102
}
330
1A
100
AcDbPlotSettings
  1

  2
none_device
  4

  6

 40
0.0
 41
0.0
 42
0.0
 43
0.0
 44
0.0
 45
0.0
 46
0.0
 47
0.0
 48
0.0
 49
0.0
140
0.0
141
0.0
142
1.0
143
1.0
 70
   688
 72
     0
 73
     0
 74
     5
  7

 75
    16
147
1.0
148
0.0
149
0.0
100
AcDbLayout
  1
Layout2
 70
     1
 71
     2
 10
0.0
 20
0.0
 11
0.0
 21
0.0
 12
0.0
 22
0.0
 32
0.0
 14
0.0
 24
0.0
 34
0.0
 15
0.0
 25
0.0
 35
0.0
146
0.0
 13
0.0
 23
0.0
 33
0.0
 16
1.0
 26
0.0
 36
0.0
 17
0.0
 27
1.0
 37
0.0
 76
     0
330
23
  0
LAYOUT
  5
22
102
{ACAD_REACTORS
330
1A
102
}
330
1A
100
AcDbPlotSettings
  1

  2
none_device
  4

  6

 40
0.0
 41
0.0
 42
0.0
 43
0.0
 44
0.0
 45
0.0
 46
0.0
 47
0.0
 48
0.0
 49
0.0
140
0.0
141
0.0
142
1.0
143
1.0
 70
  1712
 72
     0
 73
     0
 74
     0
  7

 75
     0
147
1.0
148
0.0
149
0.0
100
AcDbLayout
  1
Model
 70
     1
 71
     0
 10
0.0
 20
0.0
 11
12.0
 21
9.0
 12
0.0
 22
0.0
 32
0.0
 14
4.067856
 24
3.628357
 34
0.0
 15
204.067856
 25
143.883972
 35
0.0
146
0.0
 13
0.0
 23
0.0
 33
0.0
 16
1.0
 26
0.0
 36
0.0
 17
0.0
 27
1.0
 37
0.0
 76
     0
330
1F
331
29
  0
MLINESTYLE
  5
18
102
{ACAD_REACTORS
330
17
102
}
330
17
100
AcDbMlineStyle
  2
Standard
 70
     0
  3

 62
   256
 51
90.0
 52
90.0
 71
     2
 49
0.5
 62
   256
  6
BYLAYER
 49
-0.5
 62
   256
  6
BYLAYER
  0
ACDBPLACEHOLDER
  5
F
102
{ACAD_REACTORS
330
E
102
}
330
E
  0
SCALE
  5
3C
102
{ACAD_REACTORS
330
3B
102
}
330
3B
100
AcDbScale
 70
     0
300
1:1
140
1.0
141
1.0
290
     1
  0
SCALE
  5
3D
102
{ACAD_REACTORS
330
3B
102
}
330
3B
100
AcDbScale
 70
     0
300
1:2
140
1.0
141
2.0
290
     0
  0
SCALE
  5
3E
102
{ACAD_REACTORS
330
3B
102
}
330
3B
100
AcDbScale
 70
     0
300
1:4
140
1.0
141
4.0
290
     0
  0
SCALE
  5
3F
102
{ACAD_REACTORS
330
3B
102
}
330
3B
100
AcDbScale
 70
     0
300
1:5
140
1.0
141
5.0
290
     0
  0
SCALE
  5
40
102
{ACAD_REACTORS
330
3B
102
}
330
3B
100
AcDbScale
 70
     0
300
1:8
140
1.0
141
8.0
290
     0
  0
SCALE
  5
41
102
{ACAD_REACTORS
330
3B
102
}
330
3B
100
AcDbScale
 70
     0
300
1:10
140
1.0
141
10.0
290
     0
  0
SCALE
  5
42
102
{ACAD_REACTORS
330
3B
102
}
330
3B
100
AcDbScale
 70
     0
300
1:16
140
1.0
141
16.0
290
     0
  0
SCALE
  5
43
102
{ACAD_REACTORS
330
3B
102
}
330
3B
100
AcDbScale
 70
     0
300
1:20
140
1.0
141
20.0
290
     0
  0
SCALE
  5
44
102
{ACAD_REACTORS
330
3B
102
}
330
3B
100
AcDbScale
 70
     0
300
1:30
140
1.0
141
30.0
290
     0
  0
SCALE
  5
45
102
{ACAD_REACTORS
330
3B
102
}
330
3B
100
AcDbScale
 70
     0
300
1:40
140
1.0
141
40.0
290
     0
  0
SCALE
  5
46
102
{ACAD_REACTORS
330
3B
102
}
330
3B
100
AcDbScale
 70
     0
300
1:50
140
1.0
141
50.0
290
     0
  0
SCALE
  5
47
102
{ACAD_REACTORS
330
3B
102
}
330
3B
100
AcDbScale
 70
     0
300
1:100
140
1.0
141
100.0
290
     0
  0
SCALE
  5
48
102
{ACAD_REACTORS
330
3B
102
}
330
3B
100
AcDbScale
 70
     0
300
2:1
140
2.0
141
1.0
290
     0
  0
SCALE
  5
49
102
{ACAD_REACTORS
330
3B
102
}
330
3B
100
AcDbScale
 70
     0
300
4:1
140
4.0
141
1.0
290
     0
  0
SCALE
  5
4A
102
{ACAD_REACTORS
330
3B
102
}
330
3B
100
AcDbScale
 70
     0
300
8:1
140
8.0
141
1.0
290
     0
  0
SCALE
  5
4B
102
{ACAD_REACTORS
330
3B
102
}
330
3B
100
AcDbScale
 70
     0
300
10:1
140
10.0
141
1.0
290
     0
  0
SCALE
  5
4C
102
{ACAD_REACTORS
330
3B
102
}
330
3B
100
AcDbScale
 70
     0
300
100:1
140
100.0
141
1.0
290
     0
  0
SCALE
  5
4D
102
{ACAD_REACTORS
330
3B
102
}
330
3B
100
AcDbScale
 70
     0
300
1/128" = 1'-0"
140
0.007812
141
12.0
290
     0
  0
SCALE
  5
4E
102
{ACAD_REACTORS
330
3B
102
}
330
3B
100
AcDbScale
 70
     0
300
1/64" = 1'-0"
140
0.015625
141
12.0
290
     0
  0
SCALE
  5
4F
102
{ACAD_REACTORS
330
3B
102
}
330
3B
100
AcDbScale
 70
     0
300
1/32" = 1'-0"
140
0.03125
141
12.0
290
     0
  0
SCALE
  5
50
102
{ACAD_REACTORS
330
3B
102
}
330
3B
100
AcDbScale
 70
     0
300
1/16" = 1'-0"
140
0.0625
141
12.0
290
     0
  0
SCALE
  5
51
102
{ACAD_REACTORS
330
3B
102
}
330
3B
100
AcDbScale
 70
     0
300
3/32" = 1'-0"
140
0.09375
141
12.0
290
     0
  0
SCALE
  5
52
102
{ACAD_REACTORS
330
3B
102
}
330
3B
100
AcDbScale
 70
     0
300
1/8" = 1'-0"
140
0.125
141
12.0
290
     0
  0
SCALE
  5
53
102
{ACAD_REACTORS
330
3B
102
}
330
3B
100
AcDbScale
 70
     0
300
3/16" = 1'-0"
140
0.1875
141
12.0
290
     0
  0
SCALE
  5
54
102
{ACAD_REACTORS
330
3B
102
}
330
3B
100
AcDbScale
 70
     0
300
1/4" = 1'-0"
140
0.25
141
12.0
290
     0
  0
SCALE
  5
55
102
{ACAD_REACTORS
330
3B
102
}
330
3B
100
AcDbScale
 70
     0
300
3/8" = 1'-0"
140
0.375
141
12.0
290
     0
  0
SCALE
  5
56
102
{ACAD_REACTORS
330
3B
102
}
330
3B
100
AcDbScale
 70
     0
300
1/2" = 1'-0"
140
0.5
141
12.0
290
     0
  0
SCALE
  5
57
102
{ACAD_REACTORS
330
3B
102
}
330
3B
100
AcDbScale
 70
     0
300
3/4" = 1'-0"
140
0.75
141
12.0
290
     0
  0
SCALE
  5
58
102
{ACAD_REACTORS
330
3B
102
}
330
3B
100
AcDbScale
 70
     0
300
1" = 1'-0"
140
1.0
141
12.0
290
     0
  0
SCALE
  5
59
102
{ACAD_REACTORS
330
3B
102
}
330
3B
100
AcDbScale
 70
     0
300
1-1/2" = 1'-0"
140
1.5
141
12.0
290
     0
  0
SCALE
  5
5A
102
{ACAD_REACTORS
330
3B
102
}
330
3B
100
AcDbScale
 70
     0
300
3" = 1'-0"
140
3.0
141
12.0
290
     0
  0
SCALE
  5
5B
102
{ACAD_REACTORS
330
3B
102
}
330
3B
100
AcDbScale
 70
     0
300
6" = 1'-0"
140
6.0
141
12.0
290
     0
  0
SCALE
  5
5C
102
{ACAD_REACTORS
330
3B
102
}
330
3B
100
AcDbScale
 70
     0
300
1'-0" = 1'-0"
140
12.0
141
12.0
290
     0
  0
VISUALSTYLE
  5
2F
102
{ACAD_REACTORS
330
2A
102
}
330
2A
100
AcDbVisualStyle
  2
2dWireframe
 70
     4
 71
     0
 72
     2
 73
     0
 90
        0
 40
-0.6
 41
-30.0
 62
     5
 63
     7
 74
     1
 91
        4
 64
     7
 65
   257
 75
     1
175
     1
 42
1.0
 92
        0
 66
   257
 43
1.0
 76
     1
 77
     6
 78
     2
 67
     7
 79
     5
170
     0
171
     0
290
     0
174
     0
 93
        1
 44
0.0
173
     0
291
     0
 45
0.0
1001
ACAD
1000
AcDbSavedByObjectVersion
1070
     0
  0
VISUALSTYLE
  5
31
102
{ACAD_REACTORS
330
2A
102
}
330
2A
100
AcDbVisualStyle
  2
3D Hidden
 70
     6
 71
     1
 72
     2
 73
     2
 90
        0
 40
-0.6
 41
-30.0
 62
     5
 63
     7
 74
     2
 91
        2
 64
     7
 65
   257
 75
     2
175
     1
 42
40.0
 92
        0
 66
   257
 43
1.0
 76
     1
 77
     6
 78
     2
 67
     7
 79
     3
170
     0
171
     0
290
     0
174
     0
 93
        1
 44
0.0
173
     0
291
     0
 45
0.0
1001
ACAD
1000
AcDbSavedByObjectVersion
1070
     0
  0
VISUALSTYLE
  5
30
102
{ACAD_REACTORS
330
2A
102
}
330
2A
100
AcDbVisualStyle
  2
3dWireframe
 70
     5
 71
     0
 72
     2
 73
     0
 90
        0
 40
-0.6
 41
-30.0
 62
     5
 63
     7
 74
     1
 91
        4
 64
     7
 65
   257
 75
     1
175
     1
 42
1.0
 92
        0
 66
   257
 43
1.0
 76
     1
 77
     6
 78
     2
 67
     7
 79
     5
170
     0
171
     0
290
     0
174
     0
 93
        1
 44
0.0
173
     0
291
     0
 45
0.0
1001
ACAD
1000
AcDbSavedByObjectVersion
1070
     0
  0
VISUALSTYLE
  5
32
102
{ACAD_REACTORS
330
2A
102
}
330
2A
100
AcDbVisualStyle
  2
Basic
 70
     7
 71
     1
 72
     0
 73
     1
 90
        0
 40
-0.6
 41
-30.0
 62
     5
 63
     7
 74
     0
 91
        4
 64
     7
 65
   257
 75
     1
175
     1
 42
1.0
 92
        8
 66
     7
 43
1.0
 76
     1
 77
     6
 78
     2
 67
     7
 79
     5
170
     0
171
     0
290
     0
174
     0
 93
        1
 44
0.0
173
     0
291
     1
 45
0.0
1001
ACAD
1000
AcDbSavedByObjectVersion
1070
     0
  0
VISUALSTYLE
  5
36
102
{ACAD_REACTORS
330
2A
102
}
330
2A
100
AcDbVisualStyle
  2
Brighten
 70
    12
 71
     2
 72
     2
 73
     0
 90
        0
 40
-0.6
 41
-30.0
 62
     5
 63
     7
 74
     1
 91
        4
 64
     7
 65
   257
 75
     1
175
     1
 42
1.0
 92
        8
 66
     7
 43
1.0
 76
     1
 77
     6
 78
     2
 67
     7
 79
     5
170
     0
171
     0
290
     0
174
     0
 93
        1
 44
50.0
173
     0
291
     1
 45
0.0
1001
ACAD
1000
AcDbSavedByObjectVersion
1070
     0
  0
VISUALSTYLE
  5
3A
102
{ACAD_REACTORS
330
2A
102
}
330
2A
100
AcDbVisualStyle
  2
ColorChange
 70
    16
 71
     2
 72
     2
 73
     3
 90
        0
 40
-0.6
 41
-30.0
 62
     5
 63
     8
 74
     1
 91
        4
 64
     7
 65
   257
 75
     1
175
     1
 42
1.0
 92
        8
 66
     8
 43
1.0
 76
     1
 77
     6
 78
     2
 67
     7
 79
     5
170
     0
171
     0
290
     0
174
     0
 93
        1
 44
0.0
173
     0
291
     1
 45
0.0
1001
ACAD
1000
AcDbSavedByObjectVersion
1070
     0
  0
VISUALSTYLE
  5
34
102
{ACAD_REACTORS
330
2A
102
}
330
2A
100
AcDbVisualStyle
  2
Conceptual
 70
     9
 71
     3
 72
     2
 73
     0
 90
        0
 40
-0.6
 41
-30.0
 62
     5
 63
     7
 74
     2
 91
        2
 64
     7
 65
   257
 75
     1
175
     1
 42
40.0
 92
        8
 66
     7
 43
1.0
 76
     1
 77
     6
 78
     2
 67
     7
 79
     3
170
     0
171
     0
290
     0
174
     0
 93
        1
 44
0.0
173
     0
291
     0
 45
0.0
1001
ACAD
1000
AcDbSavedByObjectVersion
1070
     0
  0
VISUALSTYLE
  5
35
102
{ACAD_REACTORS
330
2A
102
}
330
2A
100
AcDbVisualStyle
  2
Dim
 70
    11
 71
     2
 72
     2
 73
     0
 90
        0
 40
-0.6
 41
-30.0
 62
     5
 63
     7
 74
     1
 91
        4
 64
     7
 65
   257
 75
     1
175
     1
 42
1.0
 92
        8
 66
     7
 43
1.0
 76
     1
 77
     6
 78
     2
 67
     7
 79
     5
170
     0
171
     0
290
     0
174
     0
 93
        1
 44
-50.0
173
     0
291
     1
 45
0.0
1001
ACAD
1000
AcDbSavedByObjectVersion
1070
     0
  0
VISUALSTYLE
  5
39
102
{ACAD_REACTORS
330
2A
102
}
330
2A
100
AcDbVisualStyle
  2
Facepattern
 70
    15
 71
     2
 72
     2
 73
     0
 90
        0
 40
-0.6
 41
-30.0
 62
     5
 63
     7
 74
     1
 91
        4
 64
     7
 65
   257
 75
     1
175
     1
 42
1.0
 92
        8
 66
     7
 43
1.0
 76
     1
 77
     6
 78
     2
 67
     7
 79
     5
170
     0
171
     0
290
     0
174
     0
 93
        1
 44
0.0
173
     0
291
     1
 45
0.0
1001
ACAD
1000
AcDbSavedByObjectVersion
1070
     0
  0
VISUALSTYLE
  5
2B
102
{ACAD_REACTORS
330
2A
102
}
330
2A
100
AcDbVisualStyle
  2
Flat
 70
     0
 71
     2
 72
     1
 73
     1
 90
        2
 40
-0.6
 41
30.0
 62
     5
 63
     7
 74
     0
 91
        4
 64
     7
 65
   257
 75
     1
175
     1
 42
1.0
 92
        8
 66
     7
 43
1.0
 76
     1
 77
     6
 78
     2
 67
     7
 79
     5
170
     0
171
     0
290
     0
174
     0
 93
       13
 44
0.0
173
     0
291
     1
 45
0.0
1001
ACAD
1000
AcDbSavedByObjectVersion
1070
     0
  0
VISUALSTYLE
  5
2C
102
{ACAD_REACTORS
330
2A
102
}
330
2A
100
AcDbVisualStyle
  2
FlatWithEdges
 70
     1
 71
     2
 72
     1
 73
     1
 90
        2
 40
-0.6
 41
30.0
 62
     5
 63
     7
 74
     1
 91
        4
 64
     7
 65
   257
 75
     1
175
     1
 42
1.0
 92
        0
 66
   257
 43
1.0
 76
     1
 77
     6
 78
     2
 67
     7
 79
     5
170
     0
171
     0
290
     0
174
     0
 93
       13
 44
0.0
173
     0
291
     1
 45
0.0
1001
ACAD
1000
AcDbSavedByObjectVersion
1070
     0
  0
VISUALSTYLE
  5
2D
102
{ACAD_REACTORS
330
2A
102
}
330
2A
100
AcDbVisualStyle
  2
Gouraud
 70
     2
 71
     2
 72
     2
 73
     1
 90
        2
 40
-0.6
 41
30.0
 62
     5
 63
     7
 74
     0
 91
        4
 64
     7
 65
   257
 75
     1
175
     1
 42
1.0
 92
        0
 66
     7
 43
1.0
 76
     1
 77
     6
 78
     2
 67
     7
 79
     5
170
     0
171
     0
290
     0
174
     0
 93
       13
 44
0.0
173
     0
291
     1
 45
0.0
1001
ACAD
1000
AcDbSavedByObjectVersion
1070
     0
  0
VISUALSTYLE
  5
2E
102
{ACAD_REACTORS
330
2A
102
}
330
2A
100
AcDbVisualStyle
  2
GouraudWithEdges
 70
     3
 71
     2
 72
     2
 73
     1
 90
        2
 40
-0.6
 41
30.0
 62
     5
 63
     7
 74
     1
 91
        4
 64
     7
 65
   257
 75
     1
175
     1
 42
1.0
 92
        0
 66
   257
 43
1.0
 76
     1
 77
     6
 78
     2
 67
     7
 79
     5
170
     0
171
     0
290
     0
174
     0
 93
       13
 44
0.0
173
     0
291
     1
 45
0.0
1001
ACAD
1000
AcDbSavedByObjectVersion
1070
     0
  0
VISUALSTYLE
  5
38
102
{ACAD_REACTORS
330
2A
102
}
330
2A
100
AcDbVisualStyle
  2
Linepattern
 70
    14
 71
     2
 72
     2
 73
     0
 90
        0
 40
-0.6
 41
-30.0
 62
     5
 63
     7
 74
     1
 91
        4
 64
     7
 65
   257
 75
     7
175
     7
 42
1.0
 92
        8
 66
     7
 43
1.0
 76
     1
 77
     6
 78
     2
 67
     7
 79
     5
170
     0
171
     0
290
     0
174
     0
 93
        1
 44
0.0
173
     0
291
     1
 45
0.0
1001
ACAD
1000
AcDbSavedByObjectVersion
1070
     0
  0
VISUALSTYLE
  5
33
102
{ACAD_REACTORS
330
2A
102
}
330
2A
100
AcDbVisualStyle
  2
Realistic
 70
     8
 71
     2
 72
     2
 73
     0
 90
        0
 40
-0.6
 41
-30.0
 62
     5
 63
     7
 74
     1
 91
        0
 64
     7
 65
   257
 75
     1
175
     1
 42
1.0
 92
        8
 66
     8
 43
1.0
 76
     1
 77
     6
 78
     2
 67
     7
 79
     5
170
     0
171
     0
290
     0
174
     0
 93
       13
 44
0.0
173
     0
291
     0
 45
0.0
1001
ACAD
1000
AcDbSavedByObjectVersion
1070
     0
  0
VISUALSTYLE
  5
37
102
{ACAD_REACTORS
330
2A
102
}
330
2A
100
AcDbVisualStyle
  2
Thicken
 70
    13
 71
     2
 72
     2
 73
     0
 90
        0
 40
-0.6
 41
-30.0
 62
     5
 63
     7
 74
     1
 91
        4
 64
     7
 65
   257
 75
     1
175
     1
 42
1.0
 92
       12
 66
     7
 43
1.0
 76
     1
 77
     6
 78
     2
 67
     7
 79
     5
170
     0
171
     0
290
     0
174
     0
 93
        1
 44
0.0
173
     0
291
     1
 45
0.0
1001
ACAD
1000
AcDbSavedByObjectVersion
1070
     0
  0
DICTIONARYVAR
  5
5B4
102
{ACAD_REACTORS
330
5B3
102
}
330
5B3
100
DictionaryVariables
280
     0
  1
1:1
  0
DICTIONARYVAR
  5
5B8
102
{ACAD_REACTORS
330
5B3
102
}
330
5B3
100
DictionaryVariables
280
     0
  1
80.000000
  0
DICTIONARYVAR
  5
5B7
102
{ACAD_REACTORS
330
5B3
102
}
330
5B3
100
DictionaryVariables
280
     0
  1
5.000000
  0
ENDSEC
  0
EOF
