  0
SECTION
  2
HEADER
  9
$ACADVER
  1
AC1015
  9
$ACADMAINTVER
 70
     6
  9
$DWGCODEPAGE
  3
ANSI_932
  9
$INSBASE
 10
0.0
 20
0.0
 30
0.0
  9
$EXTMIN
 10
32.879654
 20
17.315048
 30
0.0
  9
$EXTMAX
 10
222.047653
 20
196.693771
 30
0.0
  9
$LIMMIN
 10
0.0
 20
0.0
  9
$LIMMAX
 10
12.0
 20
9.0
  9
$ORTHOMODE
 70
     0
  9
$REGENMODE
 70
     1
  9
$FILLMODE
 70
     1
  9
$QTEXTMODE
 70
     0
  9
$MIRRTEXT
 70
     1
  9
$LTSCALE
 40
2.606938
  9
$ATTMODE
 70
     1
  9
$TEXTSIZE
 40
3.2
  9
$TRACEWID
 40
1.0
  9
$TEXTSTYLE
  7
Standard
  9
$CLAYER
  8
0
  9
$CELTYPE
  6
ByLayer
  9
$CECOLOR
 62
   256
  9
$CELTSCALE
 40
1.0
  9
$DISPSILH
 70
     0
  9
$DIMSCALE
 40
1.0
  9
$DIMASZ
 40
2.5
  9
$DIMEXO
 40
0.625
  9
$DIMDLI
 40
3.75
  9
$DIMRND
 40
0.0
  9
$DIMDLE
 40
0.0
  9
$DIMEXE
 40
1.25
  9
$DIMTP
 40
0.0
  9
$DIMTM
 40
0.0
  9
$DIMTXT
 40
2.5
  9
$DIMCEN
 40
0.09
  9
$DIMTSZ
 40
0.0
  9
$DIMTOL
 70
     0
  9
$DIMLIM
 70
     0
  9
$DIMTIH
 70
     0
  9
$DIMTOH
 70
     0
  9
$DIMSE1
 70
     0
  9
$DIMSE2
 70
     0
  9
$DIMTAD
 70
     0
  9
$DIMZIN
 70
     8
  9
$DIMBLK
  1

  9
$DIMASO
 70
     1
  9
$DIMSHO
 70
     0
  9
$DIMPOST
  1

  9
$DIMAPOST
  1

  9
$DIMALT
 70
     0
  9
$DIMALTD
 70
     3
  9
$DIMALTF
 40
0.03937
  9
$DIMLFAC
 40
1.0
  9
$DIMTOFL
 70
     1
  9
$DIMTVP
 40
0.0
  9
$DIMTIX
 70
     0
  9
$DIMSOXD
 70
     0
  9
$DIMSAH
 70
     0
  9
$DIMBLK1
  1

  9
$DIMBLK2
  1

  9
$DIMSTYLE
  2
ISO-25
  9
$DIMCLRD
 70
     0
  9
$DIMCLRE
 70
     0
  9
$DIMCLRT
 70
     0
  9
$DIMTFAC
 40
1.0
  9
$DIMGAP
 40
0.625
  9
$DIMJUST
 70
     0
  9
$DIMSD1
 70
     0
  9
$DIMSD2
 70
     0
  9
$DIMTOLJ
 70
     0
  9
$DIMTZIN
 70
     8
  9
$DIMALTZ
 70
     0
  9
$DIMALTTZ
 70
     0
  9
$DIMUPT
 70
     0
  9
$DIMDEC
 70
     2
  9
$DIMTDEC
 70
     2
  9
$DIMALTU
 70
     2
  9
$DIMALTTD
 70
     3
  9
$DIMTXSTY
  7
Standard
  9
$DIMAUNIT
 70
     0
  9
$DIMADEC
 70
     0
  9
$DIMALTRND
 40
0.0
  9
$DIMAZIN
 70
     0
  9
$DIMDSEP
 70
    44
  9
$DIMATFIT
 70
     3
  9
$DIMFRAC
 70
     0
  9
$DIMLDRBLK
  1

  9
$DIMLUNIT
 70
     2
  9
$DIMLWD
 70
    -2
  9
$DIMLWE
 70
    -2
  9
$DIMTMOVE
 70
     0
  9
$LUNITS
 70
     2
  9
$LUPREC
 70
     4
  9
$SKETCHINC
 40
1.0
  9
$FILLETRAD
 40
0.0
  9
$AUNITS
 70
     0
  9
$AUPREC
 70
     0
  9
$MENU
  1
.
  9
$ELEVATION
 40
0.0
  9
$PELEVATION
 40
0.0
  9
$THICKNESS
 40
0.0
  9
$LIMCHECK
 70
     0
  9
$CHAMFERA
 40
10.0
  9
$CHAMFERB
 40
10.0
  9
$CHAMFERC
 40
20.0
  9
$CHAMFERD
 40
0.0
  9
$SKPOLY
 70
     0
  9
$TDCREATE
 40
2455356.588085752
  9
$TDUCREATE
 40
2455356.213085752
  9
$TDUPDATE
 40
2455356.588085764
  9
$TDUUPDATE
 40
2455356.213085764
  9
$TDINDWG
 40
0.0000000116
  9
$TDUSRTIMER
 40
0.0000000116
  9
$USRTIMER
 70
     1
  9
$ANGBASE
 50
0.0
  9
$ANGDIR
 70
     0
  9
$PDMODE
 70
     0
  9
$PDSIZE
 40
0.0
  9
$PLINEWID
 40
0.0
  9
$SPLFRAME
 70
     0
  9
$SPLINETYPE
 70
     6
  9
$SPLINESEGS
 70
     8
  9
$HANDSEED
  5
35C
  9
$SURFTAB1
 70
     6
  9
$SURFTAB2
 70
     6
  9
$SURFTYPE
 70
     6
  9
$SURFU
 70
     6
  9
$SURFV
 70
     6
  9
$UCSBASE
  2

  9
$UCSNAME
  2

  9
$UCSORG
 10
0.0
 20
0.0
 30
0.0
  9
$UCSXDIR
 10
1.0
 20
0.0
 30
0.0
  9
$UCSYDIR
 10
0.0
 20
1.0
 30
0.0
  9
$UCSORTHOREF
  2

  9
$UCSORTHOVIEW
 70
     0
  9
$UCSORGTOP
 10
0.0
 20
0.0
 30
0.0
  9
$UCSORGBOTTOM
 10
0.0
 20
0.0
 30
0.0
  9
$UCSORGLEFT
 10
0.0
 20
0.0
 30
0.0
  9
$UCSORGRIGHT
 10
0.0
 20
0.0
 30
0.0
  9
$UCSORGFRONT
 10
0.0
 20
0.0
 30
0.0
  9
$UCSORGBACK
 10
0.0
 20
0.0
 30
0.0
  9
$PUCSBASE
  2

  9
$PUCSNAME
  2

  9
$PUCSORG
 10
0.0
 20
0.0
 30
0.0
  9
$PUCSXDIR
 10
1.0
 20
0.0
 30
0.0
  9
$PUCSYDIR
 10
0.0
 20
1.0
 30
0.0
  9
$PUCSORTHOREF
  2

  9
$PUCSORTHOVIEW
 70
     0
  9
$PUCSORGTOP
 10
0.0
 20
0.0
 30
0.0
  9
$PUCSORGBOTTOM
 10
0.0
 20
0.0
 30
0.0
  9
$PUCSORGLEFT
 10
0.0
 20
0.0
 30
0.0
  9
$PUCSORGRIGHT
 10
0.0
 20
0.0
 30
0.0
  9
$PUCSORGFRONT
 10
0.0
 20
0.0
 30
0.0
  9
$PUCSORGBACK
 10
0.0
 20
0.0
 30
0.0
  9
$USERI1
 70
     0
  9
$USERI2
 70
     0
  9
$USERI3
 70
     0
  9
$USERI4
 70
     0
  9
$USERI5
 70
     0
  9
$USERR1
 40
0.0
  9
$USERR2
 40
0.0
  9
$USERR3
 40
0.0
  9
$USERR4
 40
0.0
  9
$USERR5
 40
0.0
  9
$WORLDVIEW
 70
     1
  9
$SHADEDGE
 70
     3
  9
$SHADEDIF
 70
    70
  9
$TILEMODE
 70
     1
  9
$MAXACTVP
 70
    64
  9
$PINSBASE
 10
0.0
 20
0.0
 30
0.0
  9
$PLIMCHECK
 70
     0
  9
$PEXTMIN
 10
1.000000E+20
 20
1.000000E+20
 30
0.0
  9
$PEXTMAX
 10
-1.000000E+20
 20
-1.000000E+20
 30
0.0
  9
$PLIMMIN
 10
0.0
 20
0.0
  9
$PLIMMAX
 10
12.0
 20
9.0
  9
$UNITMODE
 70
     0
  9
$VISRETAIN
 70
     1
  9
$PLINEGEN
 70
     0
  9
$PSLTSCALE
 70
     1
  9
$TREEDEPTH
 70
  3020
  9
$CMLSTYLE
  2
Standard
  9
$CMLJUST
 70
     0
  9
$CMLSCALE
 40
20.0
  9
$PROXYGRAPHICS
 70
     1
  9
$MEASUREMENT
 70
     1
  9
$CELWEIGHT
370
    -1
  9
$ENDCAPS
280
     0
  9
$JOINSTYLE
280
     0
  9
$LWDISPLAY
290
     0
  9
$INSUNITS
 70
     4
  9
$HYPERLINKBASE
  1

  9
$STYLESHEET
  1

  9
$XEDIT
290
     1
  9
$CEPSNTYPE
380
     0
  9
$PSTYLEMODE
290
     1
  9
$FINGERPRINTGUID
  2
{D5FF9D6E-DD53-4769-953E-3F07D1C061F1}
  9
$VERSIONGUID
  2
{FAEB1C32-E019-11D5-929B-00C0DF256EC4}
  9
$EXTNAMES
290
     1
  9
$PSVPSCALE
 40
0.0
  9
$OLESTARTUP
290
     0
  0
ENDSEC
  0
SECTION
  2
CLASSES
  0
CLASS
  1
ACDBDICTIONARYWDFLT
  2
AcDbDictionaryWithDefault
  3
ObjectDBX Classes
 90
        0
280
     0
281
     0
  0
CLASS
  1
VISUALSTYLE
  2
AcDbVisualStyle
  3
ObjectDBX Classes
 90
     4095
280
     0
281
     0
  0
CLASS
  1
SCALE
  2
AcDbScale
  3
ObjectDBX Classes
 90
     1153
280
     0
281
     0
  0
CLASS
  1
DICTIONARYVAR
  2
AcDbDictionaryVar
  3
ObjectDBX Classes
 90
        0
280
     0
281
     0
  0
CLASS
  1
ACDBPLACEHOLDER
  2
AcDbPlaceHolder
  3
ObjectDBX Classes
 90
        0
280
     0
281
     0
  0
CLASS
  1
LAYOUT
  2
AcDbLayout
  3
ObjectDBX Classes
 90
        0
280
     0
281
     0
  0
ENDSEC
  0
SECTION
  2
TABLES
  0
TABLE
  2
VPORT
  5
8
330
0
100
AcDbSymbolTable
 70
     1
  0
VPORT
  5
29
330
8
100
AcDbSymbolTableRecord
100
AcDbViewportTableRecord
  2
*Active
 70
     0
 10
0.0
 20
0.0
 11
1.0
 21
1.0
 12
127.463654
 22
107.00441
 13
0.0
 23
0.0
 14
1.0
 24
1.0
 15
0.0
 25
0.0
 16
0.0
 26
0.0
 36
1.0
 17
0.0
 27
0.0
 37
0.0
 40
181.17251
 41
1.691288
 42
50.0
 43
0.0
 44
0.0
 50
0.0
 51
0.0
 71
     0
 72
   100
 73
     1
 74
     3
 75
     0
 76
     0
 77
     0
 78
     0
281
     0
 65
     1
110
0.0
120
0.0
130
0.0
111
1.0
121
0.0
131
0.0
112
0.0
122
1.0
132
0.0
 79
     0
146
0.0
  0
ENDTAB
  0
TABLE
  2
LTYPE
  5
5
330
0
100
AcDbSymbolTable
 70
     5
  0
LTYPE
  5
14
330
5
100
AcDbSymbolTableRecord
100
AcDbLinetypeTableRecord
  2
ByBlock
 70
     0
  3

 72
    65
 73
     0
 40
0.0
  0
LTYPE
  5
15
330
5
100
AcDbSymbolTableRecord
100
AcDbLinetypeTableRecord
  2
ByLayer
 70
     0
  3

 72
    65
 73
     0
 40
0.0
  0
LTYPE
  5
16
330
5
100
AcDbSymbolTableRecord
100
AcDbLinetypeTableRecord
  2
Continuous
 70
     0
  3
Solid line
 72
    65
 73
     0
 40
0.0
  0
LTYPE
  5
5D
330
5
100
AcDbSymbolTableRecord
100
AcDbLinetypeTableRecord
  2
DASHED
 70
     0
  3
DASHED
 72
    83
 73
     2
 40
0.75
 49
0.5
 74
     0
 49
-0.25
 74
     0
  0
LTYPE
  5
5E
330
5
100
AcDbSymbolTableRecord
100
AcDbLinetypeTableRecord
  2
HIDDEN
 70
     0
  3
HIDDEN
 72
    83
 73
     2
 40
0.375
 49
0.25
 74
     0
 49
-0.125
 74
     0
  0
LTYPE
  5
5F
330
5
100
AcDbSymbolTableRecord
100
AcDbLinetypeTableRecord
  2
CENTER
 70
     0
  3
CENTER
 72
    83
 73
     4
 40
2.0
 49
1.25
 74
     0
 49
-0.25
 74
     0
 49
0.25
 74
     0
 49
-0.25
 74
     0
  0
LTYPE
  5
60
330
5
100
AcDbSymbolTableRecord
100
AcDbLinetypeTableRecord
  2
PHANTOM
 70
     0
  3
PHANTOM
 72
    83
 73
     6
 40
2.5
 49
1.25
 74
     0
 49
-0.25
 74
     0
 49
0.25
 74
     0
 49
-0.25
 74
     0
 49
0.25
 74
     0
 49
-0.25
 74
     0
  0
ENDTAB
  0
TABLE
  2
LAYER
  5
2
330
0
100
AcDbSymbolTable
 70
     2
  0
LAYER
  5
10
330
2
100
AcDbSymbolTableRecord
100
AcDbLayerTableRecord
  2
0
 70
     0
 62
     7
  6
Continuous
370
    -3
390
F
  0
LAYER
  5
61
330
2
100
AcDbSymbolTableRecord
100
AcDbLayerTableRecord
  2
001
 70
     0
 62
     7
  6
Continuous
370
    -3
390
F
  0
ENDTAB
  0
TABLE
  2
STYLE
  5
3
330
0
100
AcDbSymbolTable
 70
     2
  0
STYLE
  5
11
330
3
100
AcDbSymbolTableRecord
100
AcDbTextStyleTableRecord
  2
Standard
 70
     0
 40
0.0
 41
1.0
 50
0.0
 71
     0
 42
0.2
  3
TXT
  4
BIGFONT
  0
STYLE
  5
62
330
3
100
AcDbSymbolTableRecord
100
AcDbTextStyleTableRecord
  2
TATEGAKI
 70
     4
 40
1.0
 41
1.0
 50
0.0
 71
     0
 42
0.2
  3
TXT
  4
BIGFONT
  0
ENDTAB
  0
TABLE
  2
VIEW
  5
6
330
0
100
AcDbSymbolTable
 70
     0
  0
ENDTAB
  0
TABLE
  2
UCS
  5
7
330
0
100
AcDbSymbolTable
 70
     0
  0
ENDTAB
  0
TABLE
  2
APPID
  5
9
330
0
100
AcDbSymbolTable
 70
     1
  0
APPID
  5
12
330
9
100
AcDbSymbolTableRecord
100
AcDbRegAppTableRecord
  2
ACAD
 70
     0
  0
ENDTAB
  0
TABLE
  2
DIMSTYLE
  5
A
330
0
100
AcDbSymbolTable
 70
     2
100
AcDbDimStyleTable
  0
DIMSTYLE
105
27
330
A
100
AcDbSymbolTableRecord
100
AcDbDimStyleTableRecord
  2
ISO-25
 70
     0
 41
2.5
 42
0.625
 43
3.75
 44
1.25
 73
     0
 74
     0
 77
     1
 78
     8
140
2.5
141
2.5
143
0.03937
147
0.625
171
     3
172
     1
271
     2
272
     2
274
     3
278
    44
283
     0
284
     8
340
11
  0
DIMSTYLE
105
63
102
{ACAD_REACTORS
330
C0
330
C1
330
C2
330
C3
102
}
330
A
100
AcDbSymbolTableRecord
100
AcDbDimStyleTableRecord
  2
Standard
 70
     0
 41
1.5
 42
0.0
 44
2.75
 73
     0
 74
     0
 77
     1
 78
     8
 79
     2
140
4.0
146
0.8
147
1.0
172
     1
179
     1
271
     1
340
11
  0
ENDTAB
  0
TABLE
  2
BLOCK_RECORD
  5
1
330
0
100
AcDbSymbolTable
 70
     5
  0
BLOCK_RECORD
  5
1F
330
1
100
AcDbSymbolTableRecord
100
AcDbBlockTableRecord
  2
*Model_Space
340
22
  0
BLOCK_RECORD
  5
1B
330
1
100
AcDbSymbolTableRecord
100
AcDbBlockTableRecord
  2
*Paper_Space
340
1E
  0
BLOCK_RECORD
  5
23
330
1
100
AcDbSymbolTableRecord
100
AcDbBlockTableRecord
  2
*Paper_Space0
340
26
  0
BLOCK_RECORD
  5
64
330
1
100
AcDbSymbolTableRecord
100
AcDbBlockTableRecord
  2
*D1
340
0
  0
BLOCK_RECORD
  5
78
330
1
100
AcDbSymbolTableRecord
100
AcDbBlockTableRecord
  2
*D2
340
0
  0
BLOCK_RECORD
  5
8C
330
1
100
AcDbSymbolTableRecord
100
AcDbBlockTableRecord
  2
*D3
340
0
  0
BLOCK_RECORD
  5
A0
330
1
100
AcDbSymbolTableRecord
100
AcDbBlockTableRecord
  2
*D4
340
0
  0
ENDTAB
  0
ENDSEC
  0
SECTION
  2
BLOCKS
  0
BLOCK
  5
20
330
1F
100
AcDbEntity
  8
0
100
AcDbBlockBegin
  2
*Model_Space
 70
     0
 10
0.0
 20
0.0
 30
0.0
  3
*Model_Space
  1

  0
ENDBLK
  5
21
330
1F
100
AcDbEntity
  8
0
100
AcDbBlockEnd
  0
BLOCK
  5
1C
330
1B
100
AcDbEntity
 67
     1
  8
0
100
AcDbBlockBegin
  2
*Paper_Space
 70
     0
 10
0.0
 20
0.0
 30
0.0
  3
*Paper_Space
  1

  0
ENDBLK
  5
1D
330
1B
100
AcDbEntity
 67
     1
  8
0
100
AcDbBlockEnd
  0
BLOCK
  5
24
330
23
100
AcDbEntity
  8
0
100
AcDbBlockBegin
  2
*Paper_Space0
 70
     0
 10
0.0
 20
0.0
 30
0.0
  3
*Paper_Space0
  1

  0
ENDBLK
  5
25
330
23
100
AcDbEntity
  8
0
100
AcDbBlockEnd
  0
BLOCK
  5
65
330
64
100
AcDbEntity
  8
0
100
AcDbBlockBegin
  2
*D1
 70
     1
 10
0.0
 20
0.0
 30
0.0
  3
*D1
  1

  0
LINE
  5
67
330
64
100
AcDbEntity
  8
001
370
     9
100
AcDbLine
 10
108.295825
 20
78.159952
 30
0.0
 11
108.295825
 21
31.025364
 31
0.0
  0
LINE
  5
68
330
64
100
AcDbEntity
  8
001
370
     9
100
AcDbLine
 10
64.795825
 20
56.7605
 30
0.0
 11
64.795825
 21
31.025364
 31
0.0
  0
LINE
  5
69
330
64
100
AcDbEntity
  8
001
370
     9
100
AcDbLine
 10
108.295825
 20
33.775364
 30
0.0
 11
64.795825
 21
33.775364
 31
0.0
  0
POLYLINE
  5
6A
330
64
100
AcDbEntity
  8
001
370
     9
100
AcDb2dPolyline
 66
     1
 10
0.0
 20
0.0
 30
0.0
  0
VERTEX
  5
6C
330
6A
100
AcDbEntity
  8
001
370
     9
100
AcDbVertex
100
AcDb2dVertex
 10
106.795825
 20
34.177288
 30
0.0
  0
VERTEX
  5
6D
330
6A
100
AcDbEntity
  8
001
370
     9
100
AcDbVertex
100
AcDb2dVertex
 10
108.295825
 20
33.775364
 30
0.0
  0
VERTEX
  5
6E
330
6A
100
AcDbEntity
  8
001
370
     9
100
AcDbVertex
100
AcDb2dVertex
 10
106.795825
 20
33.373441
 30
0.0
  0
SEQEND
  5
6B
330
6A
100
AcDbEntity
  8
001
370
     9
  0
POLYLINE
  5
6F
330
64
100
AcDbEntity
  8
001
370
     9
100
AcDb2dPolyline
 66
     1
 10
0.0
 20
0.0
 30
0.0
  0
VERTEX
  5
71
330
6F
100
AcDbEntity
  8
001
370
     9
100
AcDbVertex
100
AcDb2dVertex
 10
66.295825
 20
33.373441
 30
0.0
  0
VERTEX
  5
72
330
6F
100
AcDbEntity
  8
001
370
     9
100
AcDbVertex
100
AcDb2dVertex
 10
64.795825
 20
33.775364
 30
0.0
  0
VERTEX
  5
73
330
6F
100
AcDbEntity
  8
001
370
     9
100
AcDbVertex
100
AcDb2dVertex
 10
66.295825
 20
34.177288
 30
0.0
  0
SEQEND
  5
70
330
6F
100
AcDbEntity
  8
001
370
     9
  0
TEXT
  5
74
330
64
100
AcDbEntity
  8
001
370
    30
100
AcDbText
 10
78.545825
 20
34.775364
 30
0.0
 40
4.0
  1
４３．５
 41
0.833333
100
AcDbText
  0
POINT
  5
75
330
64
100
AcDbEntity
  8
001
370
     9
100
AcDbPoint
 10
108.295825
 20
78.159952
 30
0.0
  0
POINT
  5
76
330
64
100
AcDbEntity
  8
001
370
     9
100
AcDbPoint
 10
64.795825
 20
56.7605
 30
0.0
  0
POINT
  5
77
330
64
100
AcDbEntity
  8
001
370
     9
100
AcDbPoint
 10
64.795825
 20
33.775364
 30
0.0
  0
ENDBLK
  5
66
330
64
100
AcDbEntity
  8
0
100
AcDbBlockEnd
  0
BLOCK
  5
79
330
78
100
AcDbEntity
  8
0
100
AcDbBlockBegin
  2
*D2
 70
     1
 10
0.0
 20
0.0
 30
0.0
  3
*D2
  1

  0
LINE
  5
7B
330
78
100
AcDbEntity
  8
001
370
     9
100
AcDbLine
 10
108.295825
 20
78.159952
 30
0.0
 11
108.295825
 21
31.025364
 31
0.0
  0
LINE
  5
7C
330
78
100
AcDbEntity
  8
001
370
     9
100
AcDbLine
 10
188.295825
 20
112.159952
 30
0.0
 11
188.295825
 21
31.025364
 31
0.0
  0
LINE
  5
7D
330
78
100
AcDbEntity
  8
001
370
     9
100
AcDbLine
 10
108.295825
 20
33.775364
 30
0.0
 11
188.295825
 21
33.775364
 31
0.0
  0
POLYLINE
  5
7E
330
78
100
AcDbEntity
  8
001
370
     9
100
AcDb2dPolyline
 66
     1
 10
0.0
 20
0.0
 30
0.0
  0
VERTEX
  5
80
330
7E
100
AcDbEntity
  8
001
370
     9
100
AcDbVertex
100
AcDb2dVertex
 10
109.795825
 20
33.373441
 30
0.0
  0
VERTEX
  5
81
330
7E
100
AcDbEntity
  8
001
370
     9
100
AcDbVertex
100
AcDb2dVertex
 10
108.295825
 20
33.775364
 30
0.0
  0
VERTEX
  5
82
330
7E
100
AcDbEntity
  8
001
370
     9
100
AcDbVertex
100
AcDb2dVertex
 10
109.795825
 20
34.177288
 30
0.0
  0
SEQEND
  5
7F
330
7E
100
AcDbEntity
  8
001
370
     9
  0
POLYLINE
  5
83
330
78
100
AcDbEntity
  8
001
370
     9
100
AcDb2dPolyline
 66
     1
 10
0.0
 20
0.0
 30
0.0
  0
VERTEX
  5
85
330
83
100
AcDbEntity
  8
001
370
     9
100
AcDbVertex
100
AcDb2dVertex
 10
186.795825
 20
34.177288
 30
0.0
  0
VERTEX
  5
86
330
83
100
AcDbEntity
  8
001
370
     9
100
AcDbVertex
100
AcDb2dVertex
 10
188.295825
 20
33.775364
 30
0.0
  0
VERTEX
  5
87
330
83
100
AcDbEntity
  8
001
370
     9
100
AcDbVertex
100
AcDb2dVertex
 10
186.795825
 20
33.373441
 30
0.0
  0
SEQEND
  5
84
330
83
100
AcDbEntity
  8
001
370
     9
  0
TEXT
  5
88
330
78
100
AcDbEntity
  8
001
370
    30
100
AcDbText
 10
144.295825
 20
34.775364
 30
0.0
 40
4.0
  1
８０
 41
0.833333
100
AcDbText
  0
POINT
  5
89
330
78
100
AcDbEntity
  8
001
370
     9
100
AcDbPoint
 10
108.295825
 20
78.159952
 30
0.0
  0
POINT
  5
8A
330
78
100
AcDbEntity
  8
001
370
     9
100
AcDbPoint
 10
188.295825
 20
112.159952
 30
0.0
  0
POINT
  5
8B
330
78
100
AcDbEntity
  8
001
370
     9
100
AcDbPoint
 10
188.295825
 20
33.775364
 30
0.0
  0
ENDBLK
  5
7A
330
78
100
AcDbEntity
  8
0
100
AcDbBlockEnd
  0
BLOCK
  5
8D
330
8C
100
AcDbEntity
  8
0
100
AcDbBlockBegin
  2
*D3
 70
     1
 10
0.0
 20
0.0
 30
0.0
  3
*D3
  1

  0
LINE
  5
8F
330
8C
100
AcDbEntity
  8
001
370
     9
100
AcDbLine
 10
180.295825
 20
138.159952
 30
0.0
 11
222.047654
 21
138.159952
 31
0.0
  0
LINE
  5
90
330
8C
100
AcDbEntity
  8
001
370
     9
100
AcDbLine
 10
180.295825
 20
106.159952
 30
0.0
 11
222.047654
 21
106.159952
 31
0.0
  0
LINE
  5
91
330
8C
100
AcDbEntity
  8
001
370
     9
100
AcDbLine
 10
219.297654
 20
138.159952
 30
0.0
 11
219.297654
 21
106.159952
 31
0.0
  0
POLYLINE
  5
92
330
8C
100
AcDbEntity
  8
001
370
     9
100
AcDb2dPolyline
 66
     1
 10
0.0
 20
0.0
 30
0.0
  0
VERTEX
  5
94
330
92
100
AcDbEntity
  8
001
370
     9
100
AcDbVertex
100
AcDb2dVertex
 10
218.89573
 20
136.659952
 30
0.0
  0
VERTEX
  5
95
330
92
100
AcDbEntity
  8
001
370
     9
100
AcDbVertex
100
AcDb2dVertex
 10
219.297654
 20
138.159952
 30
0.0
  0
VERTEX
  5
96
330
92
100
AcDbEntity
  8
001
370
     9
100
AcDbVertex
100
AcDb2dVertex
 10
219.699578
 20
136.659952
 30
0.0
  0
SEQEND
  5
93
330
92
100
AcDbEntity
  8
001
370
     9
  0
POLYLINE
  5
97
330
8C
100
AcDbEntity
  8
001
370
     9
100
AcDb2dPolyline
 66
     1
 10
0.0
 20
0.0
 30
0.0
  0
VERTEX
  5
99
330
97
100
AcDbEntity
  8
001
370
     9
100
AcDbVertex
100
AcDb2dVertex
 10
219.699578
 20
107.659952
 30
0.0
  0
VERTEX
  5
9A
330
97
100
AcDbEntity
  8
001
370
     9
100
AcDbVertex
100
AcDb2dVertex
 10
219.297654
 20
106.159952
 30
0.0
  0
VERTEX
  5
9B
330
97
100
AcDbEntity
  8
001
370
     9
100
AcDbVertex
100
AcDb2dVertex
 10
218.89573
 20
107.659952
 30
0.0
  0
SEQEND
  5
98
330
97
100
AcDbEntity
  8
001
370
     9
  0
TEXT
  5
9C
330
8C
100
AcDbEntity
  8
001
370
    30
100
AcDbText
 10
218.297654
 20
116.159952
 30
0.0
 40
4.0
  1
%%c３２
 50
90.000003
 41
0.882353
100
AcDbText
  0
POINT
  5
9D
330
8C
100
AcDbEntity
  8
001
370
     9
100
AcDbPoint
 10
180.295825
 20
138.159952
 30
0.0
  0
POINT
  5
9E
330
8C
100
AcDbEntity
  8
001
370
     9
100
AcDbPoint
 10
180.295825
 20
106.159952
 30
0.0
  0
POINT
  5
9F
330
8C
100
AcDbEntity
  8
001
370
     9
100
AcDbPoint
 10
219.297654
 20
106.159952
 30
0.0
  0
ENDBLK
  5
8E
330
8C
100
AcDbEntity
  8
0
100
AcDbBlockEnd
  0
BLOCK
  5
A1
330
A0
100
AcDbEntity
  8
0
100
AcDbBlockBegin
  2
*D4
 70
     1
 10
0.0
 20
0.0
 30
0.0
  3
*D4
  1

  0
LINE
  5
A3
330
A0
100
AcDbEntity
  8
001
370
     9
100
AcDbLine
 10
64.795825
 20
56.7605
 30
0.0
 11
64.795825
 21
17.315048
 31
0.0
  0
LINE
  5
A4
330
A0
100
AcDbEntity
  8
001
370
     9
100
AcDbLine
 10
188.295825
 20
114.159952
 30
0.0
 11
188.295825
 21
17.315048
 31
0.0
  0
LINE
  5
A5
330
A0
100
AcDbEntity
  8
001
370
     9
100
AcDbLine
 10
64.795825
 20
20.065048
 30
0.0
 11
188.295825
 21
20.065048
 31
0.0
  0
POLYLINE
  5
A6
330
A0
100
AcDbEntity
  8
001
370
     9
100
AcDb2dPolyline
 66
     1
 10
0.0
 20
0.0
 30
0.0
  0
VERTEX
  5
A8
330
A6
100
AcDbEntity
  8
001
370
     9
100
AcDbVertex
100
AcDb2dVertex
 10
66.295825
 20
19.663124
 30
0.0
  0
VERTEX
  5
A9
330
A6
100
AcDbEntity
  8
001
370
     9
100
AcDbVertex
100
AcDb2dVertex
 10
64.795825
 20
20.065048
 30
0.0
  0
VERTEX
  5
AA
330
A6
100
AcDbEntity
  8
001
370
     9
100
AcDbVertex
100
AcDb2dVertex
 10
66.295825
 20
20.466972
 30
0.0
  0
SEQEND
  5
A7
330
A6
100
AcDbEntity
  8
001
370
     9
  0
POLYLINE
  5
AB
330
A0
100
AcDbEntity
  8
001
370
     9
100
AcDb2dPolyline
 66
     1
 10
0.0
 20
0.0
 30
0.0
  0
VERTEX
  5
AD
330
AB
100
AcDbEntity
  8
001
370
     9
100
AcDbVertex
100
AcDb2dVertex
 10
186.795825
 20
20.466972
 30
0.0
  0
VERTEX
  5
AE
330
AB
100
AcDbEntity
  8
001
370
     9
100
AcDbVertex
100
AcDb2dVertex
 10
188.295825
 20
20.065048
 30
0.0
  0
VERTEX
  5
AF
330
AB
100
AcDbEntity
  8
001
370
     9
100
AcDbVertex
100
AcDb2dVertex
 10
186.795825
 20
19.663124
 30
0.0
  0
SEQEND
  5
AC
330
AB
100
AcDbEntity
  8
001
370
     9
  0
TEXT
  5
B0
330
A0
100
AcDbEntity
  8
001
370
    30
100
AcDbText
 10
116.545825
 20
21.065048
 30
0.0
 40
4.0
  1
１２３．５
 41
0.833333
100
AcDbText
  0
POINT
  5
B1
330
A0
100
AcDbEntity
  8
001
370
     9
100
AcDbPoint
 10
64.795825
 20
56.7605
 30
0.0
  0
POINT
  5
B2
330
A0
100
AcDbEntity
  8
001
370
     9
100
AcDbPoint
 10
188.295825
 20
114.159952
 30
0.0
  0
POINT
  5
B3
330
A0
100
AcDbEntity
  8
001
370
     9
100
AcDbPoint
 10
188.295825
 20
20.065048
 30
0.0
  0
ENDBLK
  5
A2
330
A0
100
AcDbEntity
  8
0
100
AcDbBlockEnd
  0
ENDSEC
  0
SECTION
  2
ENTITIES
  0
TEXT
  5
B4
330
1F
100
AcDbEntity
  8
001
370
    30
100
AcDbText
 10
36.879655
 20
114.159952
 30
0.0
 40
4.0
  1
%%c１３０
 50
90.000003
 41
0.869565
100
AcDbText
  0
POLYLINE
  5
B5
330
1F
100
AcDbEntity
  8
001
370
     9
100
AcDb2dPolyline
 66
     1
 10
0.0
 20
0.0
 30
0.0
  0
VERTEX
  5
B7
330
B5
100
AcDbEntity
  8
001
370
     9
100
AcDbVertex
100
AcDb2dVertex
 10
38.281579
 20
58.659952
 30
0.0
  0
VERTEX
  5
B8
330
B5
100
AcDbEntity
  8
001
370
     9
100
AcDbVertex
100
AcDb2dVertex
 10
37.879655
 20
57.159952
 30
0.0
  0
VERTEX
  5
B9
330
B5
100
AcDbEntity
  8
001
370
     9
100
AcDbVertex
100
AcDb2dVertex
 10
37.477731
 20
58.659952
 30
0.0
  0
SEQEND
  5
B6
330
B5
100
AcDbEntity
  8
001
370
     9
  0
LINE
  5
BA
330
1F
100
AcDbEntity
  8
001
370
     9
100
AcDbLine
 10
37.879655
 20
187.159952
 30
0.0
 11
37.879655
 21
57.159952
 31
0.0
  0
POLYLINE
  5
BB
330
1F
100
AcDbEntity
  8
001
370
     9
100
AcDb2dPolyline
 66
     1
 10
0.0
 20
0.0
 30
0.0
  0
VERTEX
  5
BD
330
BB
100
AcDbEntity
  8
001
370
     9
100
AcDbVertex
100
AcDb2dVertex
 10
64.795825
 20
57.159952
 30
0.0
  0
VERTEX
  5
BE
330
BB
100
AcDbEntity
  8
001
370
     9
100
AcDbVertex
100
AcDb2dVertex
 10
37.879655
 20
57.159952
 30
0.0
  0
VERTEX
  5
BF
330
BB
100
AcDbEntity
  8
001
370
     9
100
AcDbVertex
100
AcDb2dVertex
 10
35.129655
 20
57.159952
 30
0.0
  0
SEQEND
  5
BC
330
BB
100
AcDbEntity
  8
001
370
     9
  0
DIMENSION
  5
C0
330
1F
100
AcDbEntity
  8
001
370
     9
100
AcDbDimension
  2
*D1
 10
64.795825
 20
33.775364
 30
0.0
 11
86.545825
 21
36.775364
 31
0.0
 70
   160
 71
     5
 42
-1.0
  3
Standard
100
AcDbAlignedDimension
 13
108.295825
 23
78.159952
 33
0.0
 14
64.795825
 24
56.7605
 34
0.0
 50
180.0
100
AcDbRotatedDimension
  0
DIMENSION
  5
C1
330
1F
100
AcDbEntity
  8
001
370
     9
100
AcDbDimension
  2
*D2
 10
188.295825
 20
33.775364
 30
0.0
 11
148.295825
 21
36.775364
 31
0.0
 70
   160
 71
     5
 42
-1.0
  3
Standard
100
AcDbAlignedDimension
 13
108.295825
 23
78.159952
 33
0.0
 14
188.295825
 24
112.159952
 34
0.0
100
AcDbRotatedDimension
  0
DIMENSION
  5
C2
330
1F
100
AcDbEntity
  8
001
370
     9
100
AcDbDimension
  2
*D3
 10
219.297654
 20
106.159952
 30
0.0
 11
216.297653
 21
122.159952
 31
0.0
 70
   160
 71
     5
 42
-1.0
  3
Standard
100
AcDbAlignedDimension
 13
180.295825
 23
138.159952
 33
0.0
 14
180.295825
 24
106.159952
 34
0.0
 50
270.0
100
AcDbRotatedDimension
  0
DIMENSION
  5
C3
330
1F
100
AcDbEntity
  8
001
370
     9
100
AcDbDimension
  2
*D4
 10
188.295825
 20
20.065048
 30
0.0
 11
126.545825
 21
23.065048
 31
0.0
 70
   160
 71
     5
 42
-1.0
  3
Standard
100
AcDbAlignedDimension
 13
64.795825
 23
56.7605
 33
0.0
 14
188.295825
 24
114.159952
 34
0.0
100
AcDbRotatedDimension
  0
LINE
  5
C4
330
1F
100
AcDbEntity
  8
001
  6
CENTER
370
     9
100
AcDbLine
 10
55.331074
 20
122.159952
 30
0.0
 11
196.651694
 21
122.159952
 31
0.0
  0
LINE
  5
C5
330
1F
100
AcDbEntity
  8
001
370
    50
100
AcDbLine
 10
188.295825
 20
122.159952
 30
0.0
 11
193.963286
 21
125.432062
 31
0.0
  0
LINE
  5
C6
330
1F
100
AcDbEntity
  8
001
370
    50
100
AcDbLine
 10
188.295825
 20
122.159952
 30
0.0
 11
193.963286
 21
118.887842
 31
0.0
  0
LINE
  5
C7
330
1F
100
AcDbEntity
  8
001
370
    50
100
AcDbLine
 10
68.295825
 20
122.159952
 30
0.0
 11
62.628363
 21
125.432062
 31
0.0
  0
LINE
  5
C8
330
1F
100
AcDbEntity
  8
001
370
    50
100
AcDbLine
 10
68.295825
 20
122.159952
 30
0.0
 11
62.628363
 21
118.887842
 31
0.0
  0
POLYLINE
  5
C9
330
1F
100
AcDbEntity
  8
001
 62
   200
370
    50
100
AcDb2dPolyline
 66
     1
 10
0.0
 20
0.0
 30
0.0
  0
VERTEX
  5
CB
330
C9
100
AcDbEntity
  8
001
 62
   200
370
    50
100
AcDbVertex
100
AcDb2dVertex
 10
72.01326
 20
155.088911
 30
0.0
  0
VERTEX
  5
CC
330
C9
100
AcDbEntity
  8
001
 62
   200
370
    50
100
AcDbVertex
100
AcDb2dVertex
 10
72.401
 20
152.932058
 30
0.0
  0
VERTEX
  5
CD
330
C9
100
AcDbEntity
  8
001
 62
   200
370
    50
100
AcDbVertex
100
AcDb2dVertex
 10
73.162891
 20
149.826369
 30
0.0
  0
VERTEX
  5
CE
330
C9
100
AcDbEntity
  8
001
 62
   200
370
    50
100
AcDbVertex
100
AcDb2dVertex
 10
74.274812
 20
146.526103
 30
0.0
  0
VERTEX
  5
CF
330
C9
100
AcDbEntity
  8
001
 62
   200
370
    50
100
AcDbVertex
100
AcDb2dVertex
 10
75.169048
 20
144.312591
 30
0.0
  0
SEQEND
  5
CA
330
C9
100
AcDbEntity
  8
001
370
    50
  0
LINE
  5
D0
330
1F
100
AcDbEntity
  8
001
 62
   200
370
    50
100
AcDbLine
 10
75.169048
 20
144.312591
 30
0.0
 11
70.440248
 21
144.312591
 31
0.0
  0
POLYLINE
  5
D1
330
1F
100
AcDbEntity
  8
001
 62
   200
370
    50
100
AcDb2dPolyline
 66
     1
 10
0.0
 20
0.0
 30
0.0
  0
VERTEX
  5
D3
330
D1
100
AcDbEntity
  8
001
 62
   200
370
    50
100
AcDbVertex
100
AcDb2dVertex
 10
70.435164
 20
150.340604
 30
0.0
  0
VERTEX
  5
D4
330
D1
100
AcDbEntity
  8
001
 62
   200
370
    50
100
AcDbVertex
100
AcDb2dVertex
 10
70.435864
 20
148.853484
 30
0.0
  0
VERTEX
  5
D5
330
D1
100
AcDbEntity
  8
001
 62
   200
370
    50
100
AcDbVertex
100
AcDb2dVertex
 10
70.43686
 20
147.366364
 30
0.0
  0
VERTEX
  5
D6
330
D1
100
AcDbEntity
  8
001
 62
   200
370
    50
100
AcDbVertex
100
AcDb2dVertex
 10
70.438398
 20
145.839477
 30
0.0
  0
VERTEX
  5
D7
330
D1
100
AcDbEntity
  8
001
 62
   200
370
    50
100
AcDbVertex
100
AcDb2dVertex
 10
70.440248
 20
144.312591
 30
0.0
  0
SEQEND
  5
D2
330
D1
100
AcDbEntity
  8
001
370
    50
  0
POLYLINE
  5
D8
330
1F
100
AcDbEntity
  8
001
 62
   200
370
    50
100
AcDb2dPolyline
 66
     1
 10
0.0
 20
0.0
 30
0.0
  0
VERTEX
  5
DA
330
D8
100
AcDbEntity
  8
001
 62
   200
370
    50
100
AcDbVertex
100
AcDb2dVertex
 10
70.435164
 20
150.340604
 30
0.0
  0
VERTEX
  5
DB
330
D8
100
AcDbEntity
  8
001
 62
   200
370
    50
100
AcDbVertex
100
AcDb2dVertex
 10
70.510489
 20
152.138102
 30
0.0
  0
VERTEX
  5
DC
330
D8
100
AcDbEntity
  8
001
 62
   200
370
    50
100
AcDbVertex
100
AcDb2dVertex
 10
70.448864
 20
154.762746
 30
0.0
  0
VERTEX
  5
DD
330
D8
100
AcDbEntity
  8
001
 62
   200
370
    50
100
AcDbVertex
100
AcDb2dVertex
 10
70.441306
 20
154.86749
 30
0.0
  0
VERTEX
  5
DE
330
D8
100
AcDbEntity
  8
001
 62
   200
370
    50
100
AcDbVertex
100
AcDb2dVertex
 10
70.435938
 20
154.939144
 30
0.0
  0
SEQEND
  5
D9
330
D8
100
AcDbEntity
  8
001
370
    50
  0
LINE
  5
DF
330
1F
100
AcDbEntity
  8
001
 62
   200
370
    50
100
AcDbLine
 10
70.435943
 20
154.946623
 30
0.0
 11
70.435938
 21
154.939144
 31
0.0
  0
POLYLINE
  5
E0
330
1F
100
AcDbEntity
  8
001
 62
   200
370
    50
100
AcDb2dPolyline
 66
     1
 10
0.0
 20
0.0
 30
0.0
  0
VERTEX
  5
E2
330
E0
100
AcDbEntity
  8
001
 62
   200
370
    50
100
AcDbVertex
100
AcDb2dVertex
 10
72.01326
 20
155.088911
 30
0.0
  0
VERTEX
  5
E3
330
E0
100
AcDbEntity
  8
001
 62
   200
370
    50
100
AcDbVertex
100
AcDb2dVertex
 10
71.692857
 20
155.060032
 30
0.0
  0
VERTEX
  5
E4
330
E0
100
AcDbEntity
  8
001
 62
   200
370
    50
100
AcDbVertex
100
AcDb2dVertex
 10
71.224578
 20
155.017804
 30
0.0
  0
VERTEX
  5
E5
330
E0
100
AcDbEntity
  8
001
 62
   200
370
    50
100
AcDbVertex
100
AcDb2dVertex
 10
70.756325
 20
154.975549
 30
0.0
  0
VERTEX
  5
E6
330
E0
100
AcDbEntity
  8
001
 62
   200
370
    50
100
AcDbVertex
100
AcDb2dVertex
 10
70.435943
 20
154.946623
 30
0.0
  0
SEQEND
  5
E1
330
E0
100
AcDbEntity
  8
001
370
    50
  0
LINE
  5
E7
330
1F
100
AcDbEntity
  8
001
 62
   200
370
    50
100
AcDbLine
 10
83.295825
 20
138.363841
 30
0.0
 11
75.169048
 21
144.312591
 31
0.0
  0
LINE
  5
E8
330
1F
100
AcDbEntity
  8
001
 62
   200
370
    50
100
AcDbLine
 10
83.295825
 20
132.323927
 30
0.0
 11
68.295825
 21
132.323927
 31
0.0
  0
LINE
  5
E9
330
1F
100
AcDbEntity
  8
001
 62
   200
370
    50
100
AcDbLine
 10
65.795825
 20
137.542023
 30
0.0
 11
68.295825
 21
135.671201
 31
0.0
  0
POLYLINE
  5
EA
330
1F
100
AcDbEntity
  8
001
 62
   200
370
    50
100
AcDb2dPolyline
 66
     1
 10
0.0
 20
0.0
 30
0.0
  0
VERTEX
  5
EC
330
EA
100
AcDbEntity
  8
001
 62
   200
370
    50
100
AcDbVertex
100
AcDb2dVertex
 10
70.440248
 20
144.312591
 30
0.0
  0
VERTEX
  5
ED
330
EA
100
AcDbEntity
  8
001
 62
   200
370
    50
100
AcDbVertex
100
AcDb2dVertex
 10
69.401211
 20
143.34436
 30
0.0
  0
VERTEX
  5
EE
330
EA
100
AcDbEntity
  8
001
 62
   200
370
    50
100
AcDbVertex
100
AcDb2dVertex
 10
68.368873
 20
142.369029
 30
0.0
  0
VERTEX
  5
EF
330
EA
100
AcDbEntity
  8
001
 62
   200
370
    50
100
AcDbVertex
100
AcDb2dVertex
 10
67.356289
 20
141.387592
 30
0.0
  0
VERTEX
  5
F0
330
EA
100
AcDbEntity
  8
001
 62
   200
370
    50
100
AcDbVertex
100
AcDb2dVertex
 10
66.358499
 20
140.391142
 30
0.0
  0
VERTEX
  5
F1
330
EA
100
AcDbEntity
  8
001
 62
   200
370
    50
100
AcDbVertex
100
AcDb2dVertex
 10
66.076829
 20
140.10426
 30
0.0
  0
VERTEX
  5
F2
330
EA
100
AcDbEntity
  8
001
 62
   200
370
    50
100
AcDbVertex
100
AcDb2dVertex
 10
65.795825
 20
139.816726
 30
0.0
  0
SEQEND
  5
EB
330
EA
100
AcDbEntity
  8
001
370
    50
  0
POLYLINE
  5
F3
330
1F
100
AcDbEntity
  8
001
 62
   200
370
    50
100
AcDb2dPolyline
 66
     1
 10
0.0
 20
0.0
 30
0.0
  0
VERTEX
  5
F5
330
F3
100
AcDbEntity
  8
001
 62
   200
370
    50
100
AcDbVertex
100
AcDb2dVertex
 10
71.374503
 20
143.64437
 30
0.0
  0
VERTEX
  5
F6
330
F3
100
AcDbEntity
  8
001
 62
   200
370
    50
100
AcDbVertex
100
AcDb2dVertex
 10
71.18563
 20
143.595
 30
0.0
  0
VERTEX
  5
F7
330
F3
100
AcDbEntity
  8
001
 62
   200
370
    50
100
AcDbVertex
100
AcDb2dVertex
 10
70.921091
 20
143.512525
 30
0.0
  0
VERTEX
  5
F8
330
F3
100
AcDbEntity
  8
001
 62
   200
370
    50
100
AcDbVertex
100
AcDb2dVertex
 10
70.258566
 20
143.191737
 30
0.0
  0
VERTEX
  5
F9
330
F3
100
AcDbEntity
  8
001
 62
   200
370
    50
100
AcDbVertex
100
AcDb2dVertex
 10
69.767874
 20
142.746236
 30
0.0
  0
VERTEX
  5
FA
330
F3
100
AcDbEntity
  8
001
 62
   200
370
    50
100
AcDbVertex
100
AcDb2dVertex
 10
69.638658
 20
142.58057
 30
0.0
  0
VERTEX
  5
FB
330
F3
100
AcDbEntity
  8
001
 62
   200
370
    50
100
AcDbVertex
100
AcDb2dVertex
 10
69.524216
 20
142.400189
 30
0.0
  0
VERTEX
  5
FC
330
F3
100
AcDbEntity
  8
001
 62
   200
370
    50
100
AcDbVertex
100
AcDb2dVertex
 10
69.434308
 20
142.214357
 30
0.0
  0
VERTEX
  5
FD
330
F3
100
AcDbEntity
  8
001
 62
   200
370
    50
100
AcDbVertex
100
AcDb2dVertex
 10
69.365176
 20
142.025313
 30
0.0
  0
VERTEX
  5
FE
330
F3
100
AcDbEntity
  8
001
 62
   200
370
    50
100
AcDbVertex
100
AcDb2dVertex
 10
69.318163
 20
141.840723
 30
0.0
  0
VERTEX
  5
FF
330
F3
100
AcDbEntity
  8
001
 62
   200
370
    50
100
AcDbVertex
100
AcDb2dVertex
 10
69.295587
 20
141.633
 30
0.0
  0
VERTEX
  5
100
330
F3
100
AcDbEntity
  8
001
 62
   200
370
    50
100
AcDbVertex
100
AcDb2dVertex
 10
69.295749
 20
141.46023
 30
0.0
  0
VERTEX
  5
101
330
F3
100
AcDbEntity
  8
001
 62
   200
370
    50
100
AcDbVertex
100
AcDb2dVertex
 10
69.303297
 20
141.336056
 30
0.0
  0
SEQEND
  5
F4
330
F3
100
AcDbEntity
  8
001
370
    50
  0
LINE
  5
102
330
1F
100
AcDbEntity
  8
001
 62
   200
370
    50
100
AcDbLine
 10
77.787688
 20
152.967894
 30
0.0
 11
72.01326
 21
155.088911
 31
0.0
  0
LINE
  5
103
330
1F
100
AcDbEntity
  8
001
 62
   200
370
    50
100
AcDbLine
 10
77.501935
 20
155.518727
 30
0.0
 11
77.787688
 21
152.967894
 31
0.0
  0
LINE
  5
104
330
1F
100
AcDbEntity
  8
001
 62
   200
370
    50
100
AcDbLine
 10
77.501935
 20
155.518727
 30
0.0
 11
83.295825
 21
152.225393
 31
0.0
  0
LINE
  5
105
330
1F
100
AcDbEntity
  8
001
 62
   200
370
    50
100
AcDbLine
 10
65.795825
 20
149.515804
 30
0.0
 11
70.435164
 21
150.340604
 31
0.0
  0
POLYLINE
  5
106
330
1F
100
AcDbEntity
  8
001
 62
   200
370
    50
100
AcDb2dPolyline
 66
     1
 10
0.0
 20
0.0
 30
0.0
  0
VERTEX
  5
108
330
106
100
AcDbEntity
  8
001
 62
   200
370
    50
100
AcDbVertex
100
AcDb2dVertex
 10
75.314983
 20
141.566763
 30
0.0
  0
VERTEX
  5
109
330
106
100
AcDbEntity
  8
001
 62
   200
370
    50
100
AcDbVertex
100
AcDb2dVertex
 10
75.309581
 20
141.60837
 30
0.0
  0
VERTEX
  5
10A
330
106
100
AcDbEntity
  8
001
 62
   200
370
    50
100
AcDbVertex
100
AcDb2dVertex
 10
75.300716
 20
141.66765
 30
0.0
  0
VERTEX
  5
10B
330
106
100
AcDbEntity
  8
001
 62
   200
370
    50
100
AcDbVertex
100
AcDb2dVertex
 10
75.253523
 20
141.879616
 30
0.0
  0
VERTEX
  5
10C
330
106
100
AcDbEntity
  8
001
 62
   200
370
    50
100
AcDbVertex
100
AcDb2dVertex
 10
75.187842
 20
142.05891
 30
0.0
  0
VERTEX
  5
10D
330
106
100
AcDbEntity
  8
001
 62
   200
370
    50
100
AcDbVertex
100
AcDb2dVertex
 10
75.097718
 20
142.246168
 30
0.0
  0
VERTEX
  5
10E
330
106
100
AcDbEntity
  8
001
 62
   200
370
    50
100
AcDbVertex
100
AcDb2dVertex
 10
74.987501
 20
142.431712
 30
0.0
  0
VERTEX
  5
10F
330
106
100
AcDbEntity
  8
001
 62
   200
370
    50
100
AcDbVertex
100
AcDb2dVertex
 10
74.518617
 20
142.95006
 30
0.0
  0
VERTEX
  5
110
330
106
100
AcDbEntity
  8
001
 62
   200
370
    50
100
AcDbVertex
100
AcDb2dVertex
 10
73.934644
 20
143.330935
 30
0.0
  0
VERTEX
  5
111
330
106
100
AcDbEntity
  8
001
 62
   200
370
    50
100
AcDbVertex
100
AcDb2dVertex
 10
73.463694
 20
143.529843
 30
0.0
  0
VERTEX
  5
112
330
106
100
AcDbEntity
  8
001
 62
   200
370
    50
100
AcDbVertex
100
AcDb2dVertex
 10
72.96745
 20
143.660443
 30
0.0
  0
VERTEX
  5
113
330
106
100
AcDbEntity
  8
001
 62
   200
370
    50
100
AcDbVertex
100
AcDb2dVertex
 10
72.704816
 20
143.701444
 30
0.0
  0
VERTEX
  5
114
330
106
100
AcDbEntity
  8
001
 62
   200
370
    50
100
AcDbVertex
100
AcDb2dVertex
 10
72.446235
 20
143.72654
 30
0.0
  0
VERTEX
  5
115
330
106
100
AcDbEntity
  8
001
 62
   200
370
    50
100
AcDbVertex
100
AcDb2dVertex
 10
72.194232
 20
143.736078
 30
0.0
  0
VERTEX
  5
116
330
106
100
AcDbEntity
  8
001
 62
   200
370
    50
100
AcDbVertex
100
AcDb2dVertex
 10
71.920854
 20
143.723508
 30
0.0
  0
VERTEX
  5
117
330
106
100
AcDbEntity
  8
001
 62
   200
370
    50
100
AcDbVertex
100
AcDb2dVertex
 10
71.603637
 20
143.68444
 30
0.0
  0
VERTEX
  5
118
330
106
100
AcDbEntity
  8
001
 62
   200
370
    50
100
AcDbVertex
100
AcDb2dVertex
 10
71.374503
 20
143.64437
 30
0.0
  0
SEQEND
  5
107
330
106
100
AcDbEntity
  8
001
370
    50
  0
POLYLINE
  5
119
330
1F
100
AcDbEntity
  8
001
 62
   200
370
    50
100
AcDb2dPolyline
 66
     1
 10
0.0
 20
0.0
 30
0.0
  0
VERTEX
  5
11B
330
119
100
AcDbEntity
  8
001
 62
   200
370
    50
100
AcDbVertex
100
AcDb2dVertex
 10
69.303297
 20
141.336056
 30
0.0
  0
VERTEX
  5
11C
330
119
100
AcDbEntity
  8
001
 62
   200
370
    50
100
AcDbVertex
100
AcDb2dVertex
 10
69.308699
 20
141.294448
 30
0.0
  0
VERTEX
  5
11D
330
119
100
AcDbEntity
  8
001
 62
   200
370
    50
100
AcDbVertex
100
AcDb2dVertex
 10
69.317564
 20
141.235169
 30
0.0
  0
VERTEX
  5
11E
330
119
100
AcDbEntity
  8
001
 62
   200
370
    50
100
AcDbVertex
100
AcDb2dVertex
 10
69.36475
 20
141.023201
 30
0.0
  0
VERTEX
  5
11F
330
119
100
AcDbEntity
  8
001
 62
   200
370
    50
100
AcDbVertex
100
AcDb2dVertex
 10
69.430438
 20
140.843908
 30
0.0
  0
VERTEX
  5
120
330
119
100
AcDbEntity
  8
001
 62
   200
370
    50
100
AcDbVertex
100
AcDb2dVertex
 10
69.520593
 20
140.656657
 30
0.0
  0
VERTEX
  5
121
330
119
100
AcDbEntity
  8
001
 62
   200
370
    50
100
AcDbVertex
100
AcDb2dVertex
 10
69.630779
 20
140.471106
 30
0.0
  0
VERTEX
  5
122
330
119
100
AcDbEntity
  8
001
 62
   200
370
    50
100
AcDbVertex
100
AcDb2dVertex
 10
70.098956
 20
139.952597
 30
0.0
  0
VERTEX
  5
123
330
119
100
AcDbEntity
  8
001
 62
   200
370
    50
100
AcDbVertex
100
AcDb2dVertex
 10
70.683636
 20
139.571884
 30
0.0
  0
VERTEX
  5
124
330
119
100
AcDbEntity
  8
001
 62
   200
370
    50
100
AcDbVertex
100
AcDb2dVertex
 10
71.156609
 20
139.373436
 30
0.0
  0
VERTEX
  5
125
330
119
100
AcDbEntity
  8
001
 62
   200
370
    50
100
AcDbVertex
100
AcDb2dVertex
 10
71.65083
 20
139.242376
 30
0.0
  0
VERTEX
  5
126
330
119
100
AcDbEntity
  8
001
 62
   200
370
    50
100
AcDbVertex
100
AcDb2dVertex
 10
71.910354
 20
139.200666
 30
0.0
  0
VERTEX
  5
127
330
119
100
AcDbEntity
  8
001
 62
   200
370
    50
100
AcDbVertex
100
AcDb2dVertex
 10
72.172045
 20
139.176279
 30
0.0
  0
VERTEX
  5
128
330
119
100
AcDbEntity
  8
001
 62
   200
370
    50
100
AcDbVertex
100
AcDb2dVertex
 10
72.434787
 20
139.169186
 30
0.0
  0
VERTEX
  5
129
330
119
100
AcDbEntity
  8
001
 62
   200
370
    50
100
AcDbVertex
100
AcDb2dVertex
 10
72.697426
 20
139.17931
 30
0.0
  0
VERTEX
  5
12A
330
119
100
AcDbEntity
  8
001
 62
   200
370
    50
100
AcDbVertex
100
AcDb2dVertex
 10
73.20365
 20
139.249154
 30
0.0
  0
VERTEX
  5
12B
330
119
100
AcDbEntity
  8
001
 62
   200
370
    50
100
AcDbVertex
100
AcDb2dVertex
 10
73.697189
 20
139.390293
 30
0.0
  0
VERTEX
  5
12C
330
119
100
AcDbEntity
  8
001
 62
   200
370
    50
100
AcDbVertex
100
AcDb2dVertex
 10
74.324352
 20
139.703682
 30
0.0
  0
VERTEX
  5
12D
330
119
100
AcDbEntity
  8
001
 62
   200
370
    50
100
AcDbVertex
100
AcDb2dVertex
 10
74.850406
 20
140.156582
 30
0.0
  0
VERTEX
  5
12E
330
119
100
AcDbEntity
  8
001
 62
   200
370
    50
100
AcDbVertex
100
AcDb2dVertex
 10
74.981194
 20
140.322577
 30
0.0
  0
VERTEX
  5
12F
330
119
100
AcDbEntity
  8
001
 62
   200
370
    50
100
AcDbVertex
100
AcDb2dVertex
 10
75.094064
 20
140.502629
 30
0.0
  0
VERTEX
  5
130
330
119
100
AcDbEntity
  8
001
 62
   200
370
    50
100
AcDbVertex
100
AcDb2dVertex
 10
75.183575
 20
140.688379
 30
0.0
  0
VERTEX
  5
131
330
119
100
AcDbEntity
  8
001
 62
   200
370
    50
100
AcDbVertex
100
AcDb2dVertex
 10
75.253104
 20
140.877505
 30
0.0
  0
VERTEX
  5
132
330
119
100
AcDbEntity
  8
001
 62
   200
370
    50
100
AcDbVertex
100
AcDb2dVertex
 10
75.300214
 20
141.062115
 30
0.0
  0
VERTEX
  5
133
330
119
100
AcDbEntity
  8
001
 62
   200
370
    50
100
AcDbVertex
100
AcDb2dVertex
 10
75.322693
 20
141.269819
 30
0.0
  0
VERTEX
  5
134
330
119
100
AcDbEntity
  8
001
 62
   200
370
    50
100
AcDbVertex
100
AcDb2dVertex
 10
75.322518
 20
141.442585
 30
0.0
  0
VERTEX
  5
135
330
119
100
AcDbEntity
  8
001
 62
   200
370
    50
100
AcDbVertex
100
AcDb2dVertex
 10
75.314983
 20
141.566763
 30
0.0
  0
SEQEND
  5
11A
330
119
100
AcDbEntity
  8
001
370
    50
  0
LINE
  5
136
330
1F
100
AcDbEntity
  8
001
 62
   200
370
    50
100
AcDbLine
 10
70.003851
 20
154.711315
 30
0.0
 11
65.795825
 21
152.417181
 31
0.0
  0
LINE
  5
137
330
1F
100
AcDbEntity
  8
001
 62
   200
370
    50
100
AcDbLine
 10
70.435938
 20
154.939144
 30
0.0
 11
70.003851
 21
154.711315
 31
0.0
  0
LINE
  5
138
330
1F
100
AcDbEntity
  8
001
 62
   200
370
    50
100
AcDbLine
 10
65.795825
 20
137.542023
 30
0.0
 11
65.795825
 21
152.417181
 31
0.0
  0
LINE
  5
139
330
1F
100
AcDbEntity
  8
001
 62
   200
370
    50
100
AcDbLine
 10
70.003851
 20
154.711315
 30
0.0
 11
70.435943
 21
154.946623
 31
0.0
  0
LINE
  5
13A
330
1F
100
AcDbEntity
  8
001
 62
   200
370
    50
100
AcDbLine
 10
76.832158
 20
155.127237
 30
0.0
 11
77.501935
 21
155.518727
 31
0.0
  0
LINE
  5
13B
330
1F
100
AcDbEntity
  8
001
 62
   200
370
    50
100
AcDbLine
 10
68.295825
 20
135.671201
 30
0.0
 11
68.295825
 21
131.950199
 31
0.0
  0
LINE
  5
13C
330
1F
100
AcDbEntity
  8
001
 62
   200
370
    50
100
AcDbLine
 10
83.295825
 20
132.123858
 30
0.0
 11
83.295825
 21
152.225393
 31
0.0
  0
POLYLINE
  5
13D
330
1F
100
AcDbEntity
  8
001
 62
    40
370
    50
100
AcDb2dPolyline
 66
     1
 10
0.0
 20
0.0
 30
0.0
  0
VERTEX
  5
13F
330
13D
100
AcDbEntity
  8
001
 62
    40
370
    50
100
AcDbVertex
100
AcDb2dVertex
 10
70.687775
 20
155.062146
 30
0.0
  0
VERTEX
  5
140
330
13D
100
AcDbEntity
  8
001
 62
    40
370
    50
100
AcDbVertex
100
AcDb2dVertex
 10
70.671193
 20
155.060562
 30
0.0
  0
VERTEX
  5
141
330
13D
100
AcDbEntity
  8
001
 62
    40
370
    50
100
AcDbVertex
100
AcDb2dVertex
 10
70.647542
 20
155.058104
 30
0.0
  0
VERTEX
  5
142
330
13D
100
AcDbEntity
  8
001
 62
    40
370
    50
100
AcDbVertex
100
AcDb2dVertex
 10
70.573457
 20
155.048313
 30
0.0
  0
VERTEX
  5
143
330
13D
100
AcDbEntity
  8
001
 62
    40
370
    50
100
AcDbVertex
100
AcDb2dVertex
 10
70.510098
 20
155.037182
 30
0.0
  0
VERTEX
  5
144
330
13D
100
AcDbEntity
  8
001
 62
    40
370
    50
100
AcDbVertex
100
AcDb2dVertex
 10
70.38953
 20
155.010284
 30
0.0
  0
VERTEX
  5
145
330
13D
100
AcDbEntity
  8
001
 62
    40
370
    50
100
AcDbVertex
100
AcDb2dVertex
 10
70.255418
 20
154.965456
 30
0.0
  0
VERTEX
  5
146
330
13D
100
AcDbEntity
  8
001
 62
    40
370
    50
100
AcDbVertex
100
AcDb2dVertex
 10
70.178409
 20
154.931975
 30
0.0
  0
VERTEX
  5
147
330
13D
100
AcDbEntity
  8
001
 62
    40
370
    50
100
AcDbVertex
100
AcDb2dVertex
 10
70.124886
 20
154.905709
 30
0.0
  0
SEQEND
  5
13E
330
13D
100
AcDbEntity
  8
001
370
    50
  0
POLYLINE
  5
148
330
1F
100
AcDbEntity
  8
001
 62
    40
370
    50
100
AcDb2dPolyline
 66
     1
 10
0.0
 20
0.0
 30
0.0
  0
VERTEX
  5
14A
330
148
100
AcDbEntity
  8
001
 62
    40
370
    50
100
AcDbVertex
100
AcDb2dVertex
 10
70.371938
 20
157.881537
 30
0.0
  0
VERTEX
  5
14B
330
148
100
AcDbEntity
  8
001
 62
    40
370
    50
100
AcDbVertex
100
AcDb2dVertex
 10
70.355356
 20
157.879953
 30
0.0
  0
VERTEX
  5
14C
330
148
100
AcDbEntity
  8
001
 62
    40
370
    50
100
AcDbVertex
100
AcDb2dVertex
 10
70.331705
 20
157.877495
 30
0.0
  0
VERTEX
  5
14D
330
148
100
AcDbEntity
  8
001
 62
    40
370
    50
100
AcDbVertex
100
AcDb2dVertex
 10
70.25762
 20
157.867704
 30
0.0
  0
VERTEX
  5
14E
330
148
100
AcDbEntity
  8
001
 62
    40
370
    50
100
AcDbVertex
100
AcDb2dVertex
 10
70.194261
 20
157.856573
 30
0.0
  0
VERTEX
  5
14F
330
148
100
AcDbEntity
  8
001
 62
    40
370
    50
100
AcDbVertex
100
AcDb2dVertex
 10
70.073693
 20
157.829675
 30
0.0
  0
VERTEX
  5
150
330
148
100
AcDbEntity
  8
001
 62
    40
370
    50
100
AcDbVertex
100
AcDb2dVertex
 10
69.939582
 20
157.784847
 30
0.0
  0
VERTEX
  5
151
330
148
100
AcDbEntity
  8
001
 62
    40
370
    50
100
AcDbVertex
100
AcDb2dVertex
 10
69.862572
 20
157.751366
 30
0.0
  0
VERTEX
  5
152
330
148
100
AcDbEntity
  8
001
 62
    40
370
    50
100
AcDbVertex
100
AcDb2dVertex
 10
69.80905
 20
157.725101
 30
0.0
  0
SEQEND
  5
149
330
148
100
AcDbEntity
  8
001
370
    50
  0
LINE
  5
153
330
1F
100
AcDbEntity
  8
001
 62
    40
370
    50
100
AcDbLine
 10
65.795825
 20
151.257224
 30
0.0
 11
65.344817
 21
151.422884
 31
0.0
  0
POLYLINE
  5
154
330
1F
100
AcDbEntity
  8
001
 62
    40
370
    50
100
AcDb2dPolyline
 66
     1
 10
0.0
 20
0.0
 30
0.0
  0
VERTEX
  5
156
330
154
100
AcDbEntity
  8
001
 62
    40
370
    50
100
AcDbVertex
100
AcDb2dVertex
 10
65.112679
 20
151.640699
 30
0.0
  0
VERTEX
  5
157
330
154
100
AcDbEntity
  8
001
 62
    40
370
    50
100
AcDbVertex
100
AcDb2dVertex
 10
65.118759
 20
151.614484
 30
0.0
  0
VERTEX
  5
158
330
154
100
AcDbEntity
  8
001
 62
    40
370
    50
100
AcDbVertex
100
AcDb2dVertex
 10
65.131743
 20
151.579686
 30
0.0
  0
VERTEX
  5
159
330
154
100
AcDbEntity
  8
001
 62
    40
370
    50
100
AcDbVertex
100
AcDb2dVertex
 10
65.151345
 20
151.548121
 30
0.0
  0
VERTEX
  5
15A
330
154
100
AcDbEntity
  8
001
 62
    40
370
    50
100
AcDbVertex
100
AcDb2dVertex
 10
65.174385
 20
151.523233
 30
0.0
  0
VERTEX
  5
15B
330
154
100
AcDbEntity
  8
001
 62
    40
370
    50
100
AcDbVertex
100
AcDb2dVertex
 10
65.204008
 20
151.497322
 30
0.0
  0
VERTEX
  5
15C
330
154
100
AcDbEntity
  8
001
 62
    40
370
    50
100
AcDbVertex
100
AcDb2dVertex
 10
65.239309
 20
151.473056
 30
0.0
  0
VERTEX
  5
15D
330
154
100
AcDbEntity
  8
001
 62
    40
370
    50
100
AcDbVertex
100
AcDb2dVertex
 10
65.299213
 20
151.442072
 30
0.0
  0
VERTEX
  5
15E
330
154
100
AcDbEntity
  8
001
 62
    40
370
    50
100
AcDbVertex
100
AcDb2dVertex
 10
65.344817
 20
151.422884
 30
0.0
  0
SEQEND
  5
155
330
154
100
AcDbEntity
  8
001
370
    50
  0
LINE
  5
15F
330
1F
100
AcDbEntity
  8
001
 62
    40
370
    50
100
AcDbLine
 10
65.111661
 20
151.658964
 30
0.0
 11
65.111661
 21
152.022157
 31
0.0
  0
POLYLINE
  5
160
330
1F
100
AcDbEntity
  8
001
 62
    40
370
    50
100
AcDb2dPolyline
 66
     1
 10
0.0
 20
0.0
 30
0.0
  0
VERTEX
  5
162
330
160
100
AcDbEntity
  8
001
 62
    40
370
    50
100
AcDbVertex
100
AcDb2dVertex
 10
65.344817
 20
152.299708
 30
0.0
  0
VERTEX
  5
163
330
160
100
AcDbEntity
  8
001
 62
    40
370
    50
100
AcDbVertex
100
AcDb2dVertex
 10
65.279822
 20
152.259203
 30
0.0
  0
VERTEX
  5
164
330
160
100
AcDbEntity
  8
001
 62
    40
370
    50
100
AcDbVertex
100
AcDb2dVertex
 10
65.199076
 20
152.195398
 30
0.0
  0
VERTEX
  5
165
330
160
100
AcDbEntity
  8
001
 62
    40
370
    50
100
AcDbVertex
100
AcDb2dVertex
 10
65.170194
 20
152.164064
 30
0.0
  0
VERTEX
  5
166
330
160
100
AcDbEntity
  8
001
 62
    40
370
    50
100
AcDbVertex
100
AcDb2dVertex
 10
65.146864
 20
152.132099
 30
0.0
  0
VERTEX
  5
167
330
160
100
AcDbEntity
  8
001
 62
    40
370
    50
100
AcDbVertex
100
AcDb2dVertex
 10
65.130033
 20
152.102884
 30
0.0
  0
VERTEX
  5
168
330
160
100
AcDbEntity
  8
001
 62
    40
370
    50
100
AcDbVertex
100
AcDb2dVertex
 10
65.117771
 20
152.06761
 30
0.0
  0
VERTEX
  5
169
330
160
100
AcDbEntity
  8
001
 62
    40
370
    50
100
AcDbVertex
100
AcDb2dVertex
 10
65.113216
 20
152.041256
 30
0.0
  0
VERTEX
  5
16A
330
160
100
AcDbEntity
  8
001
 62
    40
370
    50
100
AcDbVertex
100
AcDb2dVertex
 10
65.111661
 20
152.022157
 30
0.0
  0
SEQEND
  5
161
330
160
100
AcDbEntity
  8
001
370
    50
  0
LINE
  5
16B
330
1F
100
AcDbEntity
  8
001
 62
    40
370
    50
100
AcDbLine
 10
65.344817
 20
152.299708
 30
0.0
 11
70.124886
 21
154.905709
 31
0.0
  0
LINE
  5
16C
330
1F
100
AcDbEntity
  8
001
 62
    40
370
    50
100
AcDbLine
 10
70.687775
 20
155.062146
 30
0.0
 11
71.483819
 21
155.132942
 31
0.0
  0
POLYLINE
  5
16D
330
1F
100
AcDbEntity
  8
001
 62
    40
370
    50
100
AcDb2dPolyline
 66
     1
 10
0.0
 20
0.0
 30
0.0
  0
VERTEX
  5
16F
330
16D
100
AcDbEntity
  8
001
 62
    40
370
    50
100
AcDbVertex
100
AcDb2dVertex
 10
72.011149
 20
155.088721
 30
0.0
  0
VERTEX
  5
170
330
16D
100
AcDbEntity
  8
001
 62
    40
370
    50
100
AcDbVertex
100
AcDb2dVertex
 10
71.942057
 20
155.106096
 30
0.0
  0
VERTEX
  5
171
330
16D
100
AcDbEntity
  8
001
 62
    40
370
    50
100
AcDbVertex
100
AcDb2dVertex
 10
71.84649
 20
155.125313
 30
0.0
  0
VERTEX
  5
172
330
16D
100
AcDbEntity
  8
001
 62
    40
370
    50
100
AcDbVertex
100
AcDb2dVertex
 10
71.716398
 20
155.140348
 30
0.0
  0
VERTEX
  5
173
330
16D
100
AcDbEntity
  8
001
 62
    40
370
    50
100
AcDbVertex
100
AcDb2dVertex
 10
71.582253
 20
155.138908
 30
0.0
  0
VERTEX
  5
174
330
16D
100
AcDbEntity
  8
001
 62
    40
370
    50
100
AcDbVertex
100
AcDb2dVertex
 10
71.524801
 20
155.135789
 30
0.0
  0
VERTEX
  5
175
330
16D
100
AcDbEntity
  8
001
 62
    40
370
    50
100
AcDbVertex
100
AcDb2dVertex
 10
71.483819
 20
155.132942
 30
0.0
  0
SEQEND
  5
16E
330
16D
100
AcDbEntity
  8
001
370
    50
  0
POLYLINE
  5
176
330
1F
100
AcDbEntity
  8
001
 62
    40
370
    50
100
AcDb2dPolyline
 66
     1
 10
0.0
 20
0.0
 30
0.0
  0
VERTEX
  5
178
330
176
100
AcDbEntity
  8
001
 62
    40
370
    50
100
AcDbVertex
100
AcDb2dVertex
 10
72.046708
 20
155.076625
 30
0.0
  0
VERTEX
  5
179
330
176
100
AcDbEntity
  8
001
 62
    40
370
    50
100
AcDbVertex
100
AcDb2dVertex
 10
72.039605
 20
155.079187
 30
0.0
  0
VERTEX
  5
17A
330
176
100
AcDbEntity
  8
001
 62
    40
370
    50
100
AcDbVertex
100
AcDb2dVertex
 10
72.029185
 20
155.08282
 30
0.0
  0
VERTEX
  5
17B
330
176
100
AcDbEntity
  8
001
 62
    40
370
    50
100
AcDbVertex
100
AcDb2dVertex
 10
72.018491
 20
155.08637
 30
0.0
  0
VERTEX
  5
17C
330
176
100
AcDbEntity
  8
001
 62
    40
370
    50
100
AcDbVertex
100
AcDb2dVertex
 10
72.011149
 20
155.088721
 30
0.0
  0
SEQEND
  5
177
330
176
100
AcDbEntity
  8
001
370
    50
  0
LINE
  5
17D
330
1F
100
AcDbEntity
  8
001
 62
    40
370
    50
100
AcDbLine
 10
70.371938
 20
157.881537
 30
0.0
 11
71.167983
 21
157.952333
 31
0.0
  0
POLYLINE
  5
17E
330
1F
100
AcDbEntity
  8
001
 62
    40
370
    50
100
AcDb2dPolyline
 66
     1
 10
0.0
 20
0.0
 30
0.0
  0
VERTEX
  5
180
330
17E
100
AcDbEntity
  8
001
 62
    40
370
    50
100
AcDbVertex
100
AcDb2dVertex
 10
71.730871
 20
157.896016
 30
0.0
  0
VERTEX
  5
181
330
17E
100
AcDbEntity
  8
001
 62
    40
370
    50
100
AcDbVertex
100
AcDb2dVertex
 10
71.646685
 20
157.919733
 30
0.0
  0
VERTEX
  5
182
330
17E
100
AcDbEntity
  8
001
 62
    40
370
    50
100
AcDbVertex
100
AcDb2dVertex
 10
71.530653
 20
157.944704
 30
0.0
  0
VERTEX
  5
183
330
17E
100
AcDbEntity
  8
001
 62
    40
370
    50
100
AcDbVertex
100
AcDb2dVertex
 10
71.401209
 20
157.959854
 30
0.0
  0
VERTEX
  5
184
330
17E
100
AcDbEntity
  8
001
 62
    40
370
    50
100
AcDbVertex
100
AcDb2dVertex
 10
71.266416
 20
157.9583
 30
0.0
  0
VERTEX
  5
185
330
17E
100
AcDbEntity
  8
001
 62
    40
370
    50
100
AcDbVertex
100
AcDb2dVertex
 10
71.208936
 20
157.955175
 30
0.0
  0
VERTEX
  5
186
330
17E
100
AcDbEntity
  8
001
 62
    40
370
    50
100
AcDbVertex
100
AcDb2dVertex
 10
71.167983
 20
157.952333
 30
0.0
  0
SEQEND
  5
17F
330
17E
100
AcDbEntity
  8
001
370
    50
  0
LINE
  5
187
330
1F
100
AcDbEntity
  8
001
 62
    40
370
    50
100
AcDbLine
 10
65.028981
 20
155.119099
 30
0.0
 11
69.80905
 21
157.725101
 31
0.0
  0
LINE
  5
188
330
1F
100
AcDbEntity
  8
001
 62
    40
370
    50
100
AcDbLine
 10
71.730871
 20
157.896016
 30
0.0
 11
76.51094
 21
156.140239
 31
0.0
  0
POLYLINE
  5
189
330
1F
100
AcDbEntity
  8
001
 62
    40
370
    50
100
AcDb2dPolyline
 66
     1
 10
0.0
 20
0.0
 30
0.0
  0
VERTEX
  5
18B
330
189
100
AcDbEntity
  8
001
 62
    40
370
    50
100
AcDbVertex
100
AcDb2dVertex
 10
65.028981
 20
155.119099
 30
0.0
  0
VERTEX
  5
18C
330
189
100
AcDbEntity
  8
001
 62
    40
370
    50
100
AcDbVertex
100
AcDb2dVertex
 10
64.963985
 20
155.078594
 30
0.0
  0
VERTEX
  5
18D
330
189
100
AcDbEntity
  8
001
 62
    40
370
    50
100
AcDbVertex
100
AcDb2dVertex
 10
64.883239
 20
155.014789
 30
0.0
  0
VERTEX
  5
18E
330
189
100
AcDbEntity
  8
001
 62
    40
370
    50
100
AcDbVertex
100
AcDb2dVertex
 10
64.854358
 20
154.983455
 30
0.0
  0
VERTEX
  5
18F
330
189
100
AcDbEntity
  8
001
 62
    40
370
    50
100
AcDbVertex
100
AcDb2dVertex
 10
64.831027
 20
154.95149
 30
0.0
  0
VERTEX
  5
190
330
189
100
AcDbEntity
  8
001
 62
    40
370
    50
100
AcDbVertex
100
AcDb2dVertex
 10
64.814196
 20
154.922275
 30
0.0
  0
VERTEX
  5
191
330
189
100
AcDbEntity
  8
001
 62
    40
370
    50
100
AcDbVertex
100
AcDb2dVertex
 10
64.801934
 20
154.887001
 30
0.0
  0
VERTEX
  5
192
330
189
100
AcDbEntity
  8
001
 62
    40
370
    50
100
AcDbVertex
100
AcDb2dVertex
 10
64.79738
 20
154.860648
 30
0.0
  0
VERTEX
  5
193
330
189
100
AcDbEntity
  8
001
 62
    40
370
    50
100
AcDbVertex
100
AcDb2dVertex
 10
64.795825
 20
154.841548
 30
0.0
  0
SEQEND
  5
18A
330
189
100
AcDbEntity
  8
001
370
    50
  0
LINE
  5
194
330
1F
100
AcDbEntity
  8
001
 62
    40
370
    50
100
AcDbLine
 10
77.04343
 20
153.241269
 30
0.0
 11
76.743079
 21
155.922425
 31
0.0
  0
POLYLINE
  5
195
330
1F
100
AcDbEntity
  8
001
 62
    40
370
    50
100
AcDb2dPolyline
 66
     1
 10
0.0
 20
0.0
 30
0.0
  0
VERTEX
  5
197
330
195
100
AcDbEntity
  8
001
 62
    40
370
    50
100
AcDbVertex
100
AcDb2dVertex
 10
76.743079
 20
155.922424
 30
0.0
  0
VERTEX
  5
198
330
195
100
AcDbEntity
  8
001
 62
    40
370
    50
100
AcDbVertex
100
AcDb2dVertex
 10
76.736998
 20
155.948639
 30
0.0
  0
VERTEX
  5
199
330
195
100
AcDbEntity
  8
001
 62
    40
370
    50
100
AcDbVertex
100
AcDb2dVertex
 10
76.724014
 20
155.983437
 30
0.0
  0
VERTEX
  5
19A
330
195
100
AcDbEntity
  8
001
 62
    40
370
    50
100
AcDbVertex
100
AcDb2dVertex
 10
76.704412
 20
156.015002
 30
0.0
  0
VERTEX
  5
19B
330
195
100
AcDbEntity
  8
001
 62
    40
370
    50
100
AcDbVertex
100
AcDb2dVertex
 10
76.681372
 20
156.03989
 30
0.0
  0
VERTEX
  5
19C
330
195
100
AcDbEntity
  8
001
 62
    40
370
    50
100
AcDbVertex
100
AcDb2dVertex
 10
76.65175
 20
156.065801
 30
0.0
  0
VERTEX
  5
19D
330
195
100
AcDbEntity
  8
001
 62
    40
370
    50
100
AcDbVertex
100
AcDb2dVertex
 10
76.616449
 20
156.090068
 30
0.0
  0
VERTEX
  5
19E
330
195
100
AcDbEntity
  8
001
 62
    40
370
    50
100
AcDbVertex
100
AcDb2dVertex
 10
76.556545
 20
156.121051
 30
0.0
  0
VERTEX
  5
19F
330
195
100
AcDbEntity
  8
001
 62
    40
370
    50
100
AcDbVertex
100
AcDb2dVertex
 10
76.51094
 20
156.140239
 30
0.0
  0
SEQEND
  5
196
330
195
100
AcDbEntity
  8
001
370
    50
  0
POLYLINE
  5
1A0
330
1F
100
AcDbEntity
  8
001
 62
    40
370
    50
100
AcDb2dPolyline
 66
     1
 10
0.0
 20
0.0
 30
0.0
  0
VERTEX
  5
1A2
330
1A0
100
AcDbEntity
  8
001
 62
    40
370
    50
100
AcDbVertex
100
AcDb2dVertex
 10
65.111661
 20
151.658964
 30
0.0
  0
VERTEX
  5
1A3
330
1A0
100
AcDbEntity
  8
001
 62
    40
370
    50
100
AcDbVertex
100
AcDb2dVertex
 10
65.111709
 20
151.655242
 30
0.0
  0
VERTEX
  5
1A4
330
1A0
100
AcDbEntity
  8
001
 62
    40
370
    50
100
AcDbVertex
100
AcDb2dVertex
 10
65.111916
 20
151.649806
 30
0.0
  0
VERTEX
  5
1A5
330
1A0
100
AcDbEntity
  8
001
 62
    40
370
    50
100
AcDbVertex
100
AcDb2dVertex
 10
65.112313
 20
151.644394
 30
0.0
  0
VERTEX
  5
1A6
330
1A0
100
AcDbEntity
  8
001
 62
    40
370
    50
100
AcDbVertex
100
AcDb2dVertex
 10
65.112679
 20
151.640699
 30
0.0
  0
SEQEND
  5
1A1
330
1A0
100
AcDbEntity
  8
001
370
    50
  0
POLYLINE
  5
1A7
330
1F
100
AcDbEntity
  8
001
 62
    40
370
    50
100
AcDb2dPolyline
 66
     1
 10
0.0
 20
0.0
 30
0.0
  0
VERTEX
  5
1A9
330
1A7
100
AcDbEntity
  8
001
 62
    40
370
    50
100
AcDbVertex
100
AcDb2dVertex
 10
64.795825
 20
154.478356
 30
0.0
  0
VERTEX
  5
1AA
330
1A7
100
AcDbEntity
  8
001
 62
    40
370
    50
100
AcDbVertex
100
AcDb2dVertex
 10
64.795872
 20
154.474633
 30
0.0
  0
VERTEX
  5
1AB
330
1A7
100
AcDbEntity
  8
001
 62
    40
370
    50
100
AcDbVertex
100
AcDb2dVertex
 10
64.796079
 20
154.469197
 30
0.0
  0
VERTEX
  5
1AC
330
1A7
100
AcDbEntity
  8
001
 62
    40
370
    50
100
AcDbVertex
100
AcDb2dVertex
 10
64.796476
 20
154.463786
 30
0.0
  0
VERTEX
  5
1AD
330
1A7
100
AcDbEntity
  8
001
 62
    40
370
    50
100
AcDbVertex
100
AcDb2dVertex
 10
64.796842
 20
154.46009
 30
0.0
  0
SEQEND
  5
1A8
330
1A7
100
AcDbEntity
  8
001
370
    50
  0
LINE
  5
1AE
330
1F
100
AcDbEntity
  8
001
 62
    40
370
    50
100
AcDbLine
 10
64.796842
 20
154.46009
 30
0.0
 11
65.112679
 21
151.640699
 31
0.0
  0
LINE
  5
1AF
330
1F
100
AcDbEntity
  8
001
 62
   200
370
    50
100
AcDbLine
 10
65.795825
 20
165.777881
 30
0.0
 11
68.295825
 21
165.148703
 31
0.0
  0
POLYLINE
  5
1B0
330
1F
100
AcDbEntity
  8
001
 62
   200
370
    50
100
AcDb2dPolyline
 66
     1
 10
0.0
 20
0.0
 30
0.0
  0
VERTEX
  5
1B2
330
1B0
100
AcDbEntity
  8
001
 62
   200
370
    50
100
AcDbVertex
100
AcDb2dVertex
 10
68.294651
 20
167.377299
 30
0.0
  0
VERTEX
  5
1B3
330
1B0
100
AcDbEntity
  8
001
 62
   200
370
    50
100
AcDbVertex
100
AcDb2dVertex
 10
67.325544
 20
167.059743
 30
0.0
  0
VERTEX
  5
1B4
330
1B0
100
AcDbEntity
  8
001
 62
   200
370
    50
100
AcDbVertex
100
AcDb2dVertex
 10
66.358499
 20
166.736071
 30
0.0
  0
VERTEX
  5
1B5
330
1B0
100
AcDbEntity
  8
001
 62
   200
370
    50
100
AcDbVertex
100
AcDb2dVertex
 10
66.077074
 20
166.63974
 30
0.0
  0
VERTEX
  5
1B6
330
1B0
100
AcDbEntity
  8
001
 62
   200
370
    50
100
AcDbVertex
100
AcDb2dVertex
 10
65.795825
 20
166.542889
 30
0.0
  0
SEQEND
  5
1B1
330
1B0
100
AcDbEntity
  8
001
370
    50
  0
LINE
  5
1B7
330
1F
100
AcDbEntity
  8
001
 62
   200
370
    50
100
AcDbLine
 10
65.795825
 20
155.537168
 30
0.0
 11
65.795825
 21
166.542889
 31
0.0
  0
LINE
  5
1B8
330
1F
100
AcDbEntity
  8
001
 62
    40
370
    50
100
AcDbLine
 10
65.795825
 20
156.483659
 30
0.0
 11
65.344817
 21
156.76827
 31
0.0
  0
POLYLINE
  5
1B9
330
1F
100
AcDbEntity
  8
001
 62
    40
370
    50
100
AcDb2dPolyline
 66
     1
 10
0.0
 20
0.0
 30
0.0
  0
VERTEX
  5
1BB
330
1B9
100
AcDbEntity
  8
001
 62
    40
370
    50
100
AcDbVertex
100
AcDb2dVertex
 10
65.111661
 20
157.095882
 30
0.0
  0
VERTEX
  5
1BC
330
1B9
100
AcDbEntity
  8
001
 62
    40
370
    50
100
AcDbVertex
100
AcDb2dVertex
 10
65.112867
 20
157.075685
 30
0.0
  0
VERTEX
  5
1BD
330
1B9
100
AcDbEntity
  8
001
 62
    40
370
    50
100
AcDbVertex
100
AcDb2dVertex
 10
65.116483
 20
157.047593
 30
0.0
  0
VERTEX
  5
1BE
330
1B9
100
AcDbEntity
  8
001
 62
    40
370
    50
100
AcDbVertex
100
AcDb2dVertex
 10
65.127651
 20
157.005995
 30
0.0
  0
VERTEX
  5
1BF
330
1B9
100
AcDbEntity
  8
001
 62
    40
370
    50
100
AcDbVertex
100
AcDb2dVertex
 10
65.143696
 20
156.970841
 30
0.0
  0
VERTEX
  5
1C0
330
1B9
100
AcDbEntity
  8
001
 62
    40
370
    50
100
AcDbVertex
100
AcDb2dVertex
 10
65.16576
 20
156.933306
 30
0.0
  0
VERTEX
  5
1C1
330
1B9
100
AcDbEntity
  8
001
 62
    40
370
    50
100
AcDbVertex
100
AcDb2dVertex
 10
65.194122
 20
156.895863
 30
0.0
  0
VERTEX
  5
1C2
330
1B9
100
AcDbEntity
  8
001
 62
    40
370
    50
100
AcDbVertex
100
AcDb2dVertex
 10
65.27673
 20
156.818162
 30
0.0
  0
VERTEX
  5
1C3
330
1B9
100
AcDbEntity
  8
001
 62
    40
370
    50
100
AcDbVertex
100
AcDb2dVertex
 10
65.344817
 20
156.76827
 30
0.0
  0
SEQEND
  5
1BA
330
1B9
100
AcDbEntity
  8
001
370
    50
  0
LINE
  5
1C4
330
1F
100
AcDbEntity
  8
001
 62
    40
370
    50
100
AcDbLine
 10
65.111661
 20
157.095882
 30
0.0
 11
65.111661
 21
157.531593
 31
0.0
  0
POLYLINE
  5
1C5
330
1F
100
AcDbEntity
  8
001
 62
    40
370
    50
100
AcDb2dPolyline
 66
     1
 10
0.0
 20
0.0
 30
0.0
  0
VERTEX
  5
1C7
330
1C5
100
AcDbEntity
  8
001
 62
    40
370
    50
100
AcDbVertex
100
AcDb2dVertex
 10
65.113312
 20
157.5595
 30
0.0
  0
VERTEX
  5
1C8
330
1C5
100
AcDbEntity
  8
001
 62
    40
370
    50
100
AcDbVertex
100
AcDb2dVertex
 10
65.112719
 20
157.553855
 30
0.0
  0
VERTEX
  5
1C9
330
1C5
100
AcDbEntity
  8
001
 62
    40
370
    50
100
AcDbVertex
100
AcDb2dVertex
 10
65.112074
 20
157.545588
 30
0.0
  0
VERTEX
  5
1CA
330
1C5
100
AcDbEntity
  8
001
 62
    40
370
    50
100
AcDbVertex
100
AcDb2dVertex
 10
65.111739
 20
157.537282
 30
0.0
  0
VERTEX
  5
1CB
330
1C5
100
AcDbEntity
  8
001
 62
    40
370
    50
100
AcDbVertex
100
AcDb2dVertex
 10
65.111661
 20
157.531593
 30
0.0
  0
SEQEND
  5
1C6
330
1C5
100
AcDbEntity
  8
001
370
    50
  0
LINE
  5
1CC
330
1F
100
AcDbEntity
  8
001
 62
    40
370
    50
100
AcDbLine
 10
65.344817
 20
157.82017
 30
0.0
 11
65.795825
 21
158.029273
 31
0.0
  0
POLYLINE
  5
1CD
330
1F
100
AcDbEntity
  8
001
 62
    40
370
    50
100
AcDb2dPolyline
 66
     1
 10
0.0
 20
0.0
 30
0.0
  0
VERTEX
  5
1CF
330
1CD
100
AcDbEntity
  8
001
 62
    40
370
    50
100
AcDbVertex
100
AcDb2dVertex
 10
64.795825
 20
154.442096
 30
0.0
  0
VERTEX
  5
1D0
330
1CD
100
AcDbEntity
  8
001
 62
    40
370
    50
100
AcDbVertex
100
AcDb2dVertex
 10
64.796769
 20
154.422351
 30
0.0
  0
VERTEX
  5
1D1
330
1CD
100
AcDbEntity
  8
001
 62
    40
370
    50
100
AcDbVertex
100
AcDb2dVertex
 10
64.800647
 20
154.393808
 30
0.0
  0
VERTEX
  5
1D2
330
1CD
100
AcDbEntity
  8
001
 62
    40
370
    50
100
AcDbVertex
100
AcDb2dVertex
 10
64.804235
 20
154.378312
 30
0.0
  0
VERTEX
  5
1D3
330
1CD
100
AcDbEntity
  8
001
 62
    40
370
    50
100
AcDbVertex
100
AcDb2dVertex
 10
64.807178
 20
154.367819
 30
0.0
  0
SEQEND
  5
1CE
330
1CD
100
AcDbEntity
  8
001
370
    50
  0
LINE
  5
1D4
330
1F
100
AcDbEntity
  8
001
 62
    40
370
    50
100
AcDbLine
 10
64.795825
 20
154.442096
 30
0.0
 11
64.795825
 21
154.877807
 31
0.0
  0
POLYLINE
  5
1D5
330
1F
100
AcDbEntity
  8
001
 62
    40
370
    50
100
AcDb2dPolyline
 66
     1
 10
0.0
 20
0.0
 30
0.0
  0
VERTEX
  5
1D7
330
1D5
100
AcDbEntity
  8
001
 62
    40
370
    50
100
AcDbVertex
100
AcDb2dVertex
 10
65.344817
 20
157.82017
 30
0.0
  0
VERTEX
  5
1D8
330
1D5
100
AcDbEntity
  8
001
 62
    40
370
    50
100
AcDbVertex
100
AcDb2dVertex
 10
65.301736
 20
157.797541
 30
0.0
  0
VERTEX
  5
1D9
330
1D5
100
AcDbEntity
  8
001
 62
    40
370
    50
100
AcDbVertex
100
AcDb2dVertex
 10
65.245359
 20
157.762092
 30
0.0
  0
VERTEX
  5
1DA
330
1D5
100
AcDbEntity
  8
001
 62
    40
370
    50
100
AcDbVertex
100
AcDb2dVertex
 10
65.208732
 20
157.732174
 30
0.0
  0
VERTEX
  5
1DB
330
1D5
100
AcDbEntity
  8
001
 62
    40
370
    50
100
AcDbVertex
100
AcDb2dVertex
 10
65.178744
 20
157.701044
 30
0.0
  0
VERTEX
  5
1DC
330
1D5
100
AcDbEntity
  8
001
 62
    40
370
    50
100
AcDbVertex
100
AcDb2dVertex
 10
65.1547
 20
157.670431
 30
0.0
  0
VERTEX
  5
1DD
330
1D5
100
AcDbEntity
  8
001
 62
    40
370
    50
100
AcDbVertex
100
AcDb2dVertex
 10
65.134278
 20
157.632822
 30
0.0
  0
VERTEX
  5
1DE
330
1D5
100
AcDbEntity
  8
001
 62
    40
370
    50
100
AcDbVertex
100
AcDb2dVertex
 10
65.12013
 20
157.590858
 30
0.0
  0
VERTEX
  5
1DF
330
1D5
100
AcDbEntity
  8
001
 62
    40
370
    50
100
AcDbVertex
100
AcDb2dVertex
 10
65.113312
 20
157.5595
 30
0.0
  0
SEQEND
  5
1D6
330
1D5
100
AcDbEntity
  8
001
370
    50
  0
LINE
  5
1E0
330
1F
100
AcDbEntity
  8
001
 62
    40
370
    50
100
AcDbLine
 10
65.113312
 20
157.5595
 30
0.0
 11
64.797475
 21
154.905714
 31
0.0
  0
POLYLINE
  5
1E1
330
1F
100
AcDbEntity
  8
001
 62
    40
370
    50
100
AcDb2dPolyline
 66
     1
 10
0.0
 20
0.0
 30
0.0
  0
VERTEX
  5
1E3
330
1E1
100
AcDbEntity
  8
001
 62
    40
370
    50
100
AcDbVertex
100
AcDb2dVertex
 10
64.797475
 20
154.905714
 30
0.0
  0
VERTEX
  5
1E4
330
1E1
100
AcDbEntity
  8
001
 62
    40
370
    50
100
AcDbVertex
100
AcDb2dVertex
 10
64.796882
 20
154.900069
 30
0.0
  0
VERTEX
  5
1E5
330
1E1
100
AcDbEntity
  8
001
 62
    40
370
    50
100
AcDbVertex
100
AcDb2dVertex
 10
64.796237
 20
154.891802
 30
0.0
  0
VERTEX
  5
1E6
330
1E1
100
AcDbEntity
  8
001
 62
    40
370
    50
100
AcDbVertex
100
AcDb2dVertex
 10
64.795902
 20
154.883496
 30
0.0
  0
VERTEX
  5
1E7
330
1E1
100
AcDbEntity
  8
001
 62
    40
370
    50
100
AcDbVertex
100
AcDb2dVertex
 10
64.795825
 20
154.877807
 30
0.0
  0
SEQEND
  5
1E2
330
1E1
100
AcDbEntity
  8
001
370
    50
  0
LINE
  5
1E8
330
1F
100
AcDbEntity
  8
001
 62
   200
370
    50
100
AcDbLine
 10
83.295825
 20
62.061747
 30
0.0
 11
75.169048
 21
54.112367
 31
0.0
  0
POLYLINE
  5
1E9
330
1F
100
AcDbEntity
  8
001
 62
   200
370
    50
100
AcDb2dPolyline
 66
     1
 10
0.0
 20
0.0
 30
0.0
  0
VERTEX
  5
1EB
330
1E9
100
AcDbEntity
  8
001
 62
   200
370
    50
100
AcDbVertex
100
AcDb2dVertex
 10
72.01326
 20
51.494337
 30
0.0
  0
VERTEX
  5
1EC
330
1E9
100
AcDbEntity
  8
001
 62
   200
370
    50
100
AcDbVertex
100
AcDb2dVertex
 10
72.190549
 20
51.615313
 30
0.0
  0
VERTEX
  5
1ED
330
1E9
100
AcDbEntity
  8
001
 62
   200
370
    50
100
AcDbVertex
100
AcDb2dVertex
 10
72.437553
 20
51.793619
 30
0.0
  0
VERTEX
  5
1EE
330
1E9
100
AcDbEntity
  8
001
 62
   200
370
    50
100
AcDbVertex
100
AcDb2dVertex
 10
73.362066
 20
52.521814
 30
0.0
  0
VERTEX
  5
1EF
330
1E9
100
AcDbEntity
  8
001
 62
   200
370
    50
100
AcDbVertex
100
AcDb2dVertex
 10
74.218678
 20
53.274595
 30
0.0
  0
VERTEX
  5
1F0
330
1E9
100
AcDbEntity
  8
001
 62
   200
370
    50
100
AcDbVertex
100
AcDb2dVertex
 10
74.768469
 20
53.759281
 30
0.0
  0
VERTEX
  5
1F1
330
1E9
100
AcDbEntity
  8
001
 62
   200
370
    50
100
AcDbVertex
100
AcDb2dVertex
 10
75.169048
 20
54.112367
 30
0.0
  0
SEQEND
  5
1EA
330
1E9
100
AcDbEntity
  8
001
370
    50
  0
LINE
  5
1F2
330
1F
100
AcDbEntity
  8
001
 62
   200
370
    50
100
AcDbLine
 10
77.787688
 20
57.25934
 30
0.0
 11
72.01326
 21
51.494337
 31
0.0
  0
LINE
  5
1F3
330
1F
100
AcDbEntity
  8
001
 62
   200
370
    50
100
AcDbLine
 10
77.501935
 20
57.109509
 30
0.0
 11
77.787688
 21
57.25934
 31
0.0
  0
LINE
  5
1F4
330
1F
100
AcDbEntity
  8
001
 62
   200
370
    50
100
AcDbLine
 10
77.501935
 20
57.109509
 30
0.0
 11
83.295825
 21
62.829414
 31
0.0
  0
LINE
  5
1F5
330
1F
100
AcDbEntity
  8
001
 62
   200
370
    50
100
AcDbLine
 10
66.713215
 20
64.077342
 30
0.0
 11
68.667103
 21
62.68137
 31
0.0
  0
LINE
  5
1F6
330
1F
100
AcDbEntity
  8
001
 62
   200
370
    50
100
AcDbLine
 10
68.295825
 20
69.159952
 30
0.0
 11
68.295825
 21
65.659952
 31
0.0
  0
LINE
  5
1F7
330
1F
100
AcDbEntity
  8
001
 62
   200
370
    50
100
AcDbLine
 10
83.295825
 20
62.061747
 30
0.0
 11
83.295825
 21
68.159952
 31
0.0
  0
POLYLINE
  5
1F8
330
1F
100
AcDbEntity
  8
001
 62
   200
370
    50
100
AcDb2dPolyline
 66
     1
 10
0.0
 20
0.0
 30
0.0
  0
VERTEX
  5
1FA
330
1F8
100
AcDbEntity
  8
001
 62
   200
370
    50
100
AcDbVertex
100
AcDb2dVertex
 10
73.305109
 20
61.370048
 30
0.0
  0
VERTEX
  5
1FB
330
1F8
100
AcDbEntity
  8
001
 62
   200
370
    50
100
AcDbVertex
100
AcDb2dVertex
 10
73.281026
 20
61.690442
 30
0.0
  0
VERTEX
  5
1FC
330
1F8
100
AcDbEntity
  8
001
 62
   200
370
    50
100
AcDbVertex
100
AcDb2dVertex
 10
73.202241
 20
62.116713
 30
0.0
  0
VERTEX
  5
1FD
330
1F8
100
AcDbEntity
  8
001
 62
   200
370
    50
100
AcDbVertex
100
AcDb2dVertex
 10
73.131112
 20
62.33013
 30
0.0
  0
VERTEX
  5
1FE
330
1F8
100
AcDbEntity
  8
001
 62
   200
370
    50
100
AcDbVertex
100
AcDb2dVertex
 10
73.041923
 20
62.522398
 30
0.0
  0
VERTEX
  5
1FF
330
1F8
100
AcDbEntity
  8
001
 62
   200
370
    50
100
AcDbVertex
100
AcDb2dVertex
 10
72.935745
 20
62.710895
 30
0.0
  0
VERTEX
  5
200
330
1F8
100
AcDbEntity
  8
001
 62
   200
370
    50
100
AcDbVertex
100
AcDb2dVertex
 10
72.813264
 20
62.893068
 30
0.0
  0
VERTEX
  5
201
330
1F8
100
AcDbEntity
  8
001
 62
   200
370
    50
100
AcDbVertex
100
AcDb2dVertex
 10
72.675445
 20
63.062199
 30
0.0
  0
VERTEX
  5
202
330
1F8
100
AcDbEntity
  8
001
 62
   200
370
    50
100
AcDbVertex
100
AcDb2dVertex
 10
72.52321
 20
63.217463
 30
0.0
  0
VERTEX
  5
203
330
1F8
100
AcDbEntity
  8
001
 62
   200
370
    50
100
AcDbVertex
100
AcDb2dVertex
 10
72.357728
 20
63.358983
 30
0.0
  0
VERTEX
  5
204
330
1F8
100
AcDbEntity
  8
001
 62
   200
370
    50
100
AcDbVertex
100
AcDb2dVertex
 10
72.180576
 20
63.485725
 30
0.0
  0
VERTEX
  5
205
330
1F8
100
AcDbEntity
  8
001
 62
   200
370
    50
100
AcDbVertex
100
AcDb2dVertex
 10
71.993039
 20
63.596446
 30
0.0
  0
VERTEX
  5
206
330
1F8
100
AcDbEntity
  8
001
 62
   200
370
    50
100
AcDbVertex
100
AcDb2dVertex
 10
71.795771
 20
63.689703
 30
0.0
  0
VERTEX
  5
207
330
1F8
100
AcDbEntity
  8
001
 62
   200
370
    50
100
AcDbVertex
100
AcDb2dVertex
 10
71.589715
 20
63.764836
 30
0.0
  0
VERTEX
  5
208
330
1F8
100
AcDbEntity
  8
001
 62
   200
370
    50
100
AcDbVertex
100
AcDb2dVertex
 10
71.380488
 20
63.823199
 30
0.0
  0
VERTEX
  5
209
330
1F8
100
AcDbEntity
  8
001
 62
   200
370
    50
100
AcDbVertex
100
AcDb2dVertex
 10
70.75803
 20
63.89746
 30
0.0
  0
VERTEX
  5
20A
330
1F8
100
AcDbEntity
  8
001
 62
   200
370
    50
100
AcDbVertex
100
AcDb2dVertex
 10
70.080264
 20
63.771616
 30
0.0
  0
VERTEX
  5
20B
330
1F8
100
AcDbEntity
  8
001
 62
   200
370
    50
100
AcDbVertex
100
AcDb2dVertex
 10
69.826034
 20
63.674241
 30
0.0
  0
VERTEX
  5
20C
330
1F8
100
AcDbEntity
  8
001
 62
   200
370
    50
100
AcDbVertex
100
AcDb2dVertex
 10
69.6512
 20
63.594344
 30
0.0
  0
SEQEND
  5
1F9
330
1F8
100
AcDbEntity
  8
001
370
    50
  0
LINE
  5
20D
330
1F
100
AcDbEntity
  8
001
 62
   200
370
    50
100
AcDbLine
 10
73.305109
 20
61.370048
 30
0.0
 11
77.501935
 21
57.109509
 31
0.0
  0
POLYLINE
  5
20E
330
1F
100
AcDbEntity
  8
001
 62
   200
370
    50
100
AcDb2dPolyline
 66
     1
 10
0.0
 20
0.0
 30
0.0
  0
VERTEX
  5
210
330
20E
100
AcDbEntity
  8
001
 62
   200
370
    50
100
AcDbVertex
100
AcDb2dVertex
 10
69.791402
 20
63.662485
 30
0.0
  0
VERTEX
  5
211
330
20E
100
AcDbEntity
  8
001
 62
   200
370
    50
100
AcDbVertex
100
AcDb2dVertex
 10
69.693491
 20
63.598607
 30
0.0
  0
VERTEX
  5
212
330
20E
100
AcDbEntity
  8
001
 62
   200
370
    50
100
AcDbVertex
100
AcDb2dVertex
 10
69.560449
 20
63.503874
 30
0.0
  0
VERTEX
  5
213
330
20E
100
AcDbEntity
  8
001
 62
   200
370
    50
100
AcDbVertex
100
AcDb2dVertex
 10
69.385422
 20
63.356754
 30
0.0
  0
VERTEX
  5
214
330
20E
100
AcDbEntity
  8
001
 62
   200
370
    50
100
AcDbVertex
100
AcDb2dVertex
 10
69.242385
 20
63.209749
 30
0.0
  0
VERTEX
  5
215
330
20E
100
AcDbEntity
  8
001
 62
   200
370
    50
100
AcDbVertex
100
AcDb2dVertex
 10
69.10692
 20
63.049727
 30
0.0
  0
VERTEX
  5
216
330
20E
100
AcDbEntity
  8
001
 62
   200
370
    50
100
AcDbVertex
100
AcDb2dVertex
 10
68.980331
 20
62.864395
 30
0.0
  0
VERTEX
  5
217
330
20E
100
AcDbEntity
  8
001
 62
   200
370
    50
100
AcDbVertex
100
AcDb2dVertex
 10
68.711365
 20
62.211074
 30
0.0
  0
VERTEX
  5
218
330
20E
100
AcDbEntity
  8
001
 62
   200
370
    50
100
AcDbVertex
100
AcDb2dVertex
 10
68.602926
 20
61.691208
 30
0.0
  0
SEQEND
  5
20F
330
20E
100
AcDbEntity
  8
001
370
    50
  0
POLYLINE
  5
219
330
1F
100
AcDbEntity
  8
001
 62
   200
370
    50
100
AcDb2dPolyline
 66
     1
 10
0.0
 20
0.0
 30
0.0
  0
VERTEX
  5
21B
330
219
100
AcDbEntity
  8
001
 62
   200
370
    50
100
AcDbVertex
100
AcDb2dVertex
 10
69.6512
 20
63.594344
 30
0.0
  0
VERTEX
  5
21C
330
219
100
AcDbEntity
  8
001
 62
   200
370
    50
100
AcDbVertex
100
AcDb2dVertex
 10
69.500469
 20
63.506133
 30
0.0
  0
VERTEX
  5
21D
330
219
100
AcDbEntity
  8
001
 62
   200
370
    50
100
AcDbVertex
100
AcDb2dVertex
 10
69.299112
 20
63.371409
 30
0.0
  0
VERTEX
  5
21E
330
219
100
AcDbEntity
  8
001
 62
   200
370
    50
100
AcDbVertex
100
AcDb2dVertex
 10
69.118114
 20
63.223168
 30
0.0
  0
VERTEX
  5
21F
330
219
100
AcDbEntity
  8
001
 62
   200
370
    50
100
AcDbVertex
100
AcDb2dVertex
 10
68.970934
 20
63.076534
 30
0.0
  0
VERTEX
  5
220
330
219
100
AcDbEntity
  8
001
 62
   200
370
    50
100
AcDbVertex
100
AcDb2dVertex
 10
68.837124
 20
62.923225
 30
0.0
  0
VERTEX
  5
221
330
219
100
AcDbEntity
  8
001
 62
   200
370
    50
100
AcDbVertex
100
AcDb2dVertex
 10
68.698108
 20
62.729808
 30
0.0
  0
VERTEX
  5
222
330
219
100
AcDbEntity
  8
001
 62
   200
370
    50
100
AcDbVertex
100
AcDb2dVertex
 10
68.679697
 20
62.70125
 30
0.0
  0
VERTEX
  5
223
330
219
100
AcDbEntity
  8
001
 62
   200
370
    50
100
AcDbVertex
100
AcDb2dVertex
 10
68.667103
 20
62.68137
 30
0.0
  0
SEQEND
  5
21A
330
219
100
AcDbEntity
  8
001
370
    50
  0
POLYLINE
  5
224
330
1F
100
AcDbEntity
  8
001
 62
   200
370
    50
100
AcDb2dPolyline
 66
     1
 10
0.0
 20
0.0
 30
0.0
  0
VERTEX
  5
226
330
224
100
AcDbEntity
  8
001
 62
   200
370
    50
100
AcDbVertex
100
AcDb2dVertex
 10
68.667103
 20
62.68137
 30
0.0
  0
VERTEX
  5
227
330
224
100
AcDbEntity
  8
001
 62
   200
370
    50
100
AcDbVertex
100
AcDb2dVertex
 10
68.452051
 20
62.208115
 30
0.0
  0
VERTEX
  5
228
330
224
100
AcDbEntity
  8
001
 62
   200
370
    50
100
AcDbVertex
100
AcDb2dVertex
 10
68.303987
 20
61.476537
 30
0.0
  0
VERTEX
  5
229
330
224
100
AcDbEntity
  8
001
 62
   200
370
    50
100
AcDbVertex
100
AcDb2dVertex
 10
68.30252
 20
61.420158
 30
0.0
  0
VERTEX
  5
22A
330
224
100
AcDbEntity
  8
001
 62
   200
370
    50
100
AcDbVertex
100
AcDb2dVertex
 10
68.302185
 20
61.381542
 30
0.0
  0
SEQEND
  5
225
330
224
100
AcDbEntity
  8
001
370
    50
  0
LINE
  5
22B
330
1F
100
AcDbEntity
  8
001
 62
   200
370
    50
100
AcDbLine
 10
65.795825
 20
63.159952
 30
0.0
 11
68.295825
 21
65.659952
 31
0.0
  0
LINE
  5
22C
330
1F
100
AcDbEntity
  8
001
 62
   200
370
    50
100
AcDbLine
 10
65.795825
 20
58.888688
 30
0.0
 11
65.795825
 21
63.159952
 31
0.0
  0
POLYLINE
  5
22D
330
1F
100
AcDbEntity
  8
001
 62
   200
370
    50
100
AcDb2dPolyline
 66
     1
 10
0.0
 20
0.0
 30
0.0
  0
VERTEX
  5
22F
330
22D
100
AcDbEntity
  8
001
 62
   200
370
    50
100
AcDbVertex
100
AcDb2dVertex
 10
69.293861
 20
57.924148
 30
0.0
  0
VERTEX
  5
230
330
22D
100
AcDbEntity
  8
001
 62
   200
370
    50
100
AcDbVertex
100
AcDb2dVertex
 10
69.345017
 20
57.371673
 30
0.0
  0
VERTEX
  5
231
330
22D
100
AcDbEntity
  8
001
 62
   200
370
    50
100
AcDbVertex
100
AcDb2dVertex
 10
69.530522
 20
56.652961
 30
0.0
  0
VERTEX
  5
232
330
22D
100
AcDbEntity
  8
001
 62
   200
370
    50
100
AcDbVertex
100
AcDb2dVertex
 10
69.646063
 20
56.407735
 30
0.0
  0
VERTEX
  5
233
330
22D
100
AcDbEntity
  8
001
 62
   200
370
    50
100
AcDbVertex
100
AcDb2dVertex
 10
69.776694
 20
56.191958
 30
0.0
  0
VERTEX
  5
234
330
22D
100
AcDbEntity
  8
001
 62
   200
370
    50
100
AcDbVertex
100
AcDb2dVertex
 10
69.919085
 20
55.9906
 30
0.0
  0
VERTEX
  5
235
330
22D
100
AcDbEntity
  8
001
 62
   200
370
    50
100
AcDbVertex
100
AcDb2dVertex
 10
70.099813
 20
55.783941
 30
0.0
  0
VERTEX
  5
236
330
22D
100
AcDbEntity
  8
001
 62
   200
370
    50
100
AcDbVertex
100
AcDb2dVertex
 10
70.250513
 20
55.638643
 30
0.0
  0
VERTEX
  5
237
330
22D
100
AcDbEntity
  8
001
 62
   200
370
    50
100
AcDbVertex
100
AcDb2dVertex
 10
70.363138
 20
55.539406
 30
0.0
  0
SEQEND
  5
22E
330
22D
100
AcDbEntity
  8
001
370
    50
  0
POLYLINE
  5
238
330
1F
100
AcDbEntity
  8
001
 62
    40
370
    50
100
AcDb2dPolyline
 66
     1
 10
0.0
 20
0.0
 30
0.0
  0
VERTEX
  5
23A
330
238
100
AcDbEntity
  8
001
 62
    40
370
    50
100
AcDbVertex
100
AcDb2dVertex
 10
76.744096
 20
57.496988
 30
0.0
  0
VERTEX
  5
23B
330
238
100
AcDbEntity
  8
001
 62
    40
370
    50
100
AcDbVertex
100
AcDb2dVertex
 10
76.734733
 20
57.601884
 30
0.0
  0
VERTEX
  5
23C
330
238
100
AcDbEntity
  8
001
 62
    40
370
    50
100
AcDbVertex
100
AcDb2dVertex
 10
76.705908
 20
57.741663
 30
0.0
  0
VERTEX
  5
23D
330
238
100
AcDbEntity
  8
001
 62
    40
370
    50
100
AcDbVertex
100
AcDb2dVertex
 10
76.681111
 20
57.810042
 30
0.0
  0
VERTEX
  5
23E
330
238
100
AcDbEntity
  8
001
 62
    40
370
    50
100
AcDbVertex
100
AcDb2dVertex
 10
76.652093
 20
57.870303
 30
0.0
  0
VERTEX
  5
23F
330
238
100
AcDbEntity
  8
001
 62
    40
370
    50
100
AcDbVertex
100
AcDb2dVertex
 10
76.619441
 20
57.927662
 30
0.0
  0
VERTEX
  5
240
330
238
100
AcDbEntity
  8
001
 62
    40
370
    50
100
AcDbVertex
100
AcDb2dVertex
 10
76.576887
 20
57.987726
 30
0.0
  0
VERTEX
  5
241
330
238
100
AcDbEntity
  8
001
 62
    40
370
    50
100
AcDbVertex
100
AcDb2dVertex
 10
76.539312
 20
58.032345
 30
0.0
  0
VERTEX
  5
242
330
238
100
AcDbEntity
  8
001
 62
    40
370
    50
100
AcDbVertex
100
AcDb2dVertex
 10
76.51094
 20
58.063116
 30
0.0
  0
SEQEND
  5
239
330
238
100
AcDbEntity
  8
001
370
    50
  0
LINE
  5
243
330
1F
100
AcDbEntity
  8
001
 62
    40
370
    50
100
AcDbLine
 10
76.744096
 20
56.698084
 30
0.0
 11
76.744096
 21
57.496988
 31
0.0
  0
POLYLINE
  5
244
330
1F
100
AcDbEntity
  8
001
 62
    40
370
    50
100
AcDb2dPolyline
 66
     1
 10
0.0
 20
0.0
 30
0.0
  0
VERTEX
  5
246
330
244
100
AcDbEntity
  8
001
 62
    40
370
    50
100
AcDbVertex
100
AcDb2dVertex
 10
76.51094
 20
56.134392
 30
0.0
  0
VERTEX
  5
247
330
244
100
AcDbEntity
  8
001
 62
    40
370
    50
100
AcDbVertex
100
AcDb2dVertex
 10
76.522181
 20
56.145942
 30
0.0
  0
VERTEX
  5
248
330
244
100
AcDbEntity
  8
001
 62
    40
370
    50
100
AcDbVertex
100
AcDb2dVertex
 10
76.537944
 20
56.162719
 30
0.0
  0
VERTEX
  5
249
330
244
100
AcDbEntity
  8
001
 62
    40
370
    50
100
AcDbVertex
100
AcDb2dVertex
 10
76.585709
 20
56.220061
 30
0.0
  0
VERTEX
  5
24A
330
244
100
AcDbEntity
  8
001
 62
    40
370
    50
100
AcDbVertex
100
AcDb2dVertex
 10
76.621801
 20
56.273232
 30
0.0
  0
VERTEX
  5
24B
330
244
100
AcDbEntity
  8
001
 62
    40
370
    50
100
AcDbVertex
100
AcDb2dVertex
 10
76.705315
 20
56.446273
 30
0.0
  0
VERTEX
  5
24C
330
244
100
AcDbEntity
  8
001
 62
    40
370
    50
100
AcDbVertex
100
AcDb2dVertex
 10
76.74352
 20
56.667686
 30
0.0
  0
VERTEX
  5
24D
330
244
100
AcDbEntity
  8
001
 62
    40
370
    50
100
AcDbVertex
100
AcDb2dVertex
 10
76.743961
 20
56.685682
 30
0.0
  0
VERTEX
  5
24E
330
244
100
AcDbEntity
  8
001
 62
    40
370
    50
100
AcDbVertex
100
AcDb2dVertex
 10
76.744096
 20
56.698084
 30
0.0
  0
SEQEND
  5
245
330
244
100
AcDbEntity
  8
001
370
    50
  0
LINE
  5
24F
330
1F
100
AcDbEntity
  8
001
 62
    40
370
    50
100
AcDbLine
 10
71.730871
 20
51.362125
 30
0.0
 11
76.51094
 21
56.134392
 31
0.0
  0
POLYLINE
  5
250
330
1F
100
AcDbEntity
  8
001
 62
    40
370
    50
100
AcDb2dPolyline
 66
     1
 10
0.0
 20
0.0
 30
0.0
  0
VERTEX
  5
252
330
250
100
AcDbEntity
  8
001
 62
    40
370
    50
100
AcDbVertex
100
AcDb2dVertex
 10
71.167983
 20
51.131072
 30
0.0
  0
VERTEX
  5
253
330
250
100
AcDbEntity
  8
001
 62
    40
370
    50
100
AcDbVertex
100
AcDb2dVertex
 10
71.213788
 20
51.132876
 30
0.0
  0
VERTEX
  5
254
330
250
100
AcDbEntity
  8
001
 62
    40
370
    50
100
AcDbVertex
100
AcDb2dVertex
 10
71.276282
 20
51.137934
 30
0.0
  0
VERTEX
  5
255
330
250
100
AcDbEntity
  8
001
 62
    40
370
    50
100
AcDbVertex
100
AcDb2dVertex
 10
71.345325
 20
51.148743
 30
0.0
  0
VERTEX
  5
256
330
250
100
AcDbEntity
  8
001
 62
    40
370
    50
100
AcDbVertex
100
AcDb2dVertex
 10
71.411583
 20
51.168125
 30
0.0
  0
VERTEX
  5
257
330
250
100
AcDbEntity
  8
001
 62
    40
370
    50
100
AcDbVertex
100
AcDb2dVertex
 10
71.485786
 20
51.197089
 30
0.0
  0
VERTEX
  5
258
330
250
100
AcDbEntity
  8
001
 62
    40
370
    50
100
AcDbVertex
100
AcDb2dVertex
 10
71.539482
 20
51.221464
 30
0.0
  0
SEQEND
  5
251
330
250
100
AcDbEntity
  8
001
370
    50
  0
LINE
  5
259
330
1F
100
AcDbEntity
  8
001
 62
    40
370
    50
100
AcDbLine
 10
70.371938
 20
51.13523
 30
0.0
 11
71.167983
 21
51.131072
 31
0.0
  0
POLYLINE
  5
25A
330
1F
100
AcDbEntity
  8
001
 62
    40
370
    50
100
AcDb2dPolyline
 66
     1
 10
0.0
 20
0.0
 30
0.0
  0
VERTEX
  5
25C
330
25A
100
AcDbEntity
  8
001
 62
    40
370
    50
100
AcDbVertex
100
AcDb2dVertex
 10
69.80905
 20
51.372164
 30
0.0
  0
VERTEX
  5
25D
330
25A
100
AcDbEntity
  8
001
 62
    40
370
    50
100
AcDbVertex
100
AcDb2dVertex
 10
69.865425
 20
51.323047
 30
0.0
  0
VERTEX
  5
25E
330
25A
100
AcDbEntity
  8
001
 62
    40
370
    50
100
AcDbVertex
100
AcDb2dVertex
 10
69.94797
 20
51.260179
 30
0.0
  0
VERTEX
  5
25F
330
25A
100
AcDbEntity
  8
001
 62
    40
370
    50
100
AcDbVertex
100
AcDb2dVertex
 10
70.129781
 20
51.165957
 30
0.0
  0
VERTEX
  5
260
330
25A
100
AcDbEntity
  8
001
 62
    40
370
    50
100
AcDbVertex
100
AcDb2dVertex
 10
70.341645
 20
51.135967
 30
0.0
  0
VERTEX
  5
261
330
25A
100
AcDbEntity
  8
001
 62
    40
370
    50
100
AcDbVertex
100
AcDb2dVertex
 10
70.359556
 20
51.135453
 30
0.0
  0
VERTEX
  5
262
330
25A
100
AcDbEntity
  8
001
 62
    40
370
    50
100
AcDbVertex
100
AcDb2dVertex
 10
70.371938
 20
51.13523
 30
0.0
  0
SEQEND
  5
25B
330
25A
100
AcDbEntity
  8
001
370
    50
  0
LINE
  5
263
330
1F
100
AcDbEntity
  8
001
 62
    40
370
    50
100
AcDbLine
 10
65.028981
 20
56.194372
 30
0.0
 11
69.80905
 21
51.372164
 31
0.0
  0
POLYLINE
  5
264
330
1F
100
AcDbEntity
  8
001
 62
    40
370
    50
100
AcDb2dPolyline
 66
     1
 10
0.0
 20
0.0
 30
0.0
  0
VERTEX
  5
266
330
264
100
AcDbEntity
  8
001
 62
    40
370
    50
100
AcDbVertex
100
AcDb2dVertex
 10
64.795825
 20
56.7605
 30
0.0
  0
VERTEX
  5
267
330
264
100
AcDbEntity
  8
001
 62
    40
370
    50
100
AcDbVertex
100
AcDb2dVertex
 10
64.805187
 20
56.655604
 30
0.0
  0
VERTEX
  5
268
330
264
100
AcDbEntity
  8
001
 62
    40
370
    50
100
AcDbVertex
100
AcDb2dVertex
 10
64.834013
 20
56.515825
 30
0.0
  0
VERTEX
  5
269
330
264
100
AcDbEntity
  8
001
 62
    40
370
    50
100
AcDbVertex
100
AcDb2dVertex
 10
64.858809
 20
56.447446
 30
0.0
  0
VERTEX
  5
26A
330
264
100
AcDbEntity
  8
001
 62
    40
370
    50
100
AcDbVertex
100
AcDb2dVertex
 10
64.887827
 20
56.387185
 30
0.0
  0
VERTEX
  5
26B
330
264
100
AcDbEntity
  8
001
 62
    40
370
    50
100
AcDbVertex
100
AcDb2dVertex
 10
64.92048
 20
56.329826
 30
0.0
  0
VERTEX
  5
26C
330
264
100
AcDbEntity
  8
001
 62
    40
370
    50
100
AcDbVertex
100
AcDb2dVertex
 10
64.963034
 20
56.269762
 30
0.0
  0
VERTEX
  5
26D
330
264
100
AcDbEntity
  8
001
 62
    40
370
    50
100
AcDbVertex
100
AcDb2dVertex
 10
65.000608
 20
56.225142
 30
0.0
  0
VERTEX
  5
26E
330
264
100
AcDbEntity
  8
001
 62
    40
370
    50
100
AcDbVertex
100
AcDb2dVertex
 10
65.028981
 20
56.194372
 30
0.0
  0
SEQEND
  5
265
330
264
100
AcDbEntity
  8
001
370
    50
  0
LINE
  5
26F
330
1F
100
AcDbEntity
  8
001
 62
    40
370
    50
100
AcDbLine
 10
64.795825
 20
57.559404
 30
0.0
 11
64.795825
 21
56.7605
 31
0.0
  0
POLYLINE
  5
270
330
1F
100
AcDbEntity
  8
001
 62
    40
370
    50
100
AcDb2dPolyline
 66
     1
 10
0.0
 20
0.0
 30
0.0
  0
VERTEX
  5
272
330
270
100
AcDbEntity
  8
001
 62
    40
370
    50
100
AcDbVertex
100
AcDb2dVertex
 10
65.028981
 20
58.123096
 30
0.0
  0
VERTEX
  5
273
330
270
100
AcDbEntity
  8
001
 62
    40
370
    50
100
AcDbVertex
100
AcDb2dVertex
 10
65.01774
 20
58.111546
 30
0.0
  0
VERTEX
  5
274
330
270
100
AcDbEntity
  8
001
 62
    40
370
    50
100
AcDbVertex
100
AcDb2dVertex
 10
65.001977
 20
58.094769
 30
0.0
  0
VERTEX
  5
275
330
270
100
AcDbEntity
  8
001
 62
    40
370
    50
100
AcDbVertex
100
AcDb2dVertex
 10
64.954211
 20
58.037427
 30
0.0
  0
VERTEX
  5
276
330
270
100
AcDbEntity
  8
001
 62
    40
370
    50
100
AcDbVertex
100
AcDb2dVertex
 10
64.91812
 20
57.984256
 30
0.0
  0
VERTEX
  5
277
330
270
100
AcDbEntity
  8
001
 62
    40
370
    50
100
AcDbVertex
100
AcDb2dVertex
 10
64.834606
 20
57.811215
 30
0.0
  0
VERTEX
  5
278
330
270
100
AcDbEntity
  8
001
 62
    40
370
    50
100
AcDbVertex
100
AcDb2dVertex
 10
64.796401
 20
57.589802
 30
0.0
  0
VERTEX
  5
279
330
270
100
AcDbEntity
  8
001
 62
    40
370
    50
100
AcDbVertex
100
AcDb2dVertex
 10
64.795959
 20
57.571806
 30
0.0
  0
VERTEX
  5
27A
330
270
100
AcDbEntity
  8
001
 62
    40
370
    50
100
AcDbVertex
100
AcDb2dVertex
 10
64.795825
 20
57.559404
 30
0.0
  0
SEQEND
  5
271
330
270
100
AcDbEntity
  8
001
370
    50
  0
LINE
  5
27B
330
1F
100
AcDbEntity
  8
001
 62
    40
370
    50
100
AcDbLine
 10
69.80905
 20
62.895363
 30
0.0
 11
65.028981
 21
58.123096
 31
0.0
  0
POLYLINE
  5
27C
330
1F
100
AcDbEntity
  8
001
 62
    40
370
    50
100
AcDb2dPolyline
 66
     1
 10
0.0
 20
0.0
 30
0.0
  0
VERTEX
  5
27E
330
27C
100
AcDbEntity
  8
001
 62
    40
370
    50
100
AcDbVertex
100
AcDb2dVertex
 10
70.371938
 20
63.126416
 30
0.0
  0
VERTEX
  5
27F
330
27C
100
AcDbEntity
  8
001
 62
    40
370
    50
100
AcDbVertex
100
AcDb2dVertex
 10
70.326132
 20
63.124612
 30
0.0
  0
VERTEX
  5
280
330
27C
100
AcDbEntity
  8
001
 62
    40
370
    50
100
AcDbVertex
100
AcDb2dVertex
 10
70.263639
 20
63.119554
 30
0.0
  0
VERTEX
  5
281
330
27C
100
AcDbEntity
  8
001
 62
    40
370
    50
100
AcDbVertex
100
AcDb2dVertex
 10
70.194596
 20
63.108745
 30
0.0
  0
VERTEX
  5
282
330
27C
100
AcDbEntity
  8
001
 62
    40
370
    50
100
AcDbVertex
100
AcDb2dVertex
 10
70.128338
 20
63.089363
 30
0.0
  0
VERTEX
  5
283
330
27C
100
AcDbEntity
  8
001
 62
    40
370
    50
100
AcDbVertex
100
AcDb2dVertex
 10
70.054135
 20
63.060399
 30
0.0
  0
VERTEX
  5
284
330
27C
100
AcDbEntity
  8
001
 62
    40
370
    50
100
AcDbVertex
100
AcDb2dVertex
 10
70.000438
 20
63.036024
 30
0.0
  0
SEQEND
  5
27D
330
27C
100
AcDbEntity
  8
001
370
    50
  0
LINE
  5
285
330
1F
100
AcDbEntity
  8
001
 62
    40
370
    50
100
AcDbLine
 10
71.167983
 20
63.122258
 30
0.0
 11
70.371938
 21
63.126416
 31
0.0
  0
POLYLINE
  5
286
330
1F
100
AcDbEntity
  8
001
 62
    40
370
    50
100
AcDb2dPolyline
 66
     1
 10
0.0
 20
0.0
 30
0.0
  0
VERTEX
  5
288
330
286
100
AcDbEntity
  8
001
 62
    40
370
    50
100
AcDbVertex
100
AcDb2dVertex
 10
71.730871
 20
62.885324
 30
0.0
  0
VERTEX
  5
289
330
286
100
AcDbEntity
  8
001
 62
    40
370
    50
100
AcDbVertex
100
AcDb2dVertex
 10
71.674495
 20
62.934441
 30
0.0
  0
VERTEX
  5
28A
330
286
100
AcDbEntity
  8
001
 62
    40
370
    50
100
AcDbVertex
100
AcDb2dVertex
 10
71.591951
 20
62.997309
 30
0.0
  0
VERTEX
  5
28B
330
286
100
AcDbEntity
  8
001
 62
    40
370
    50
100
AcDbVertex
100
AcDb2dVertex
 10
71.41014
 20
63.091531
 30
0.0
  0
VERTEX
  5
28C
330
286
100
AcDbEntity
  8
001
 62
    40
370
    50
100
AcDbVertex
100
AcDb2dVertex
 10
71.198275
 20
63.121521
 30
0.0
  0
VERTEX
  5
28D
330
286
100
AcDbEntity
  8
001
 62
    40
370
    50
100
AcDbVertex
100
AcDb2dVertex
 10
71.180364
 20
63.122035
 30
0.0
  0
VERTEX
  5
28E
330
286
100
AcDbEntity
  8
001
 62
    40
370
    50
100
AcDbVertex
100
AcDb2dVertex
 10
71.167983
 20
63.122258
 30
0.0
  0
SEQEND
  5
287
330
286
100
AcDbEntity
  8
001
370
    50
  0
LINE
  5
28F
330
1F
100
AcDbEntity
  8
001
 62
    40
370
    50
100
AcDbLine
 10
76.51094
 20
58.063116
 30
0.0
 11
71.730871
 21
62.885324
 31
0.0
  0
POLYLINE
  5
290
330
1F
100
AcDbEntity
  8
001
 62
    40
370
    50
100
AcDb2dPolyline
 66
     1
 10
0.0
 20
0.0
 30
0.0
  0
VERTEX
  5
292
330
290
100
AcDbEntity
  8
001
 62
    40
370
    50
100
AcDbVertex
100
AcDb2dVertex
 10
72.665541
 20
57.118842
 30
0.0
  0
VERTEX
  5
293
330
290
100
AcDbEntity
  8
001
 62
    40
370
    50
100
AcDbVertex
100
AcDb2dVertex
 10
72.642556
 20
57.369297
 30
0.0
  0
VERTEX
  5
294
330
290
100
AcDbEntity
  8
001
 62
    40
370
    50
100
AcDbVertex
100
AcDb2dVertex
 10
72.574605
 20
57.701473
 30
0.0
  0
VERTEX
  5
295
330
290
100
AcDbEntity
  8
001
 62
    40
370
    50
100
AcDbVertex
100
AcDb2dVertex
 10
72.517161
 20
57.862741
 30
0.0
  0
VERTEX
  5
296
330
290
100
AcDbEntity
  8
001
 62
    40
370
    50
100
AcDbVertex
100
AcDb2dVertex
 10
72.44646
 20
58.007797
 30
0.0
  0
VERTEX
  5
297
330
290
100
AcDbEntity
  8
001
 62
    40
370
    50
100
AcDbVertex
100
AcDb2dVertex
 10
72.363023
 20
58.149918
 30
0.0
  0
VERTEX
  5
298
330
290
100
AcDbEntity
  8
001
 62
    40
370
    50
100
AcDbVertex
100
AcDb2dVertex
 10
72.267375
 20
58.287412
 30
0.0
  0
VERTEX
  5
299
330
290
100
AcDbEntity
  8
001
 62
    40
370
    50
100
AcDbVertex
100
AcDb2dVertex
 10
72.043126
 20
58.532369
 30
0.0
  0
VERTEX
  5
29A
330
290
100
AcDbEntity
  8
001
 62
    40
370
    50
100
AcDbVertex
100
AcDb2dVertex
 10
71.779534
 20
58.733597
 30
0.0
  0
VERTEX
  5
29B
330
290
100
AcDbEntity
  8
001
 62
    40
370
    50
100
AcDbVertex
100
AcDb2dVertex
 10
71.331188
 20
58.942865
 30
0.0
  0
VERTEX
  5
29C
330
290
100
AcDbEntity
  8
001
 62
    40
370
    50
100
AcDbVertex
100
AcDb2dVertex
 10
70.842095
 20
59.029378
 30
0.0
  0
VERTEX
  5
29D
330
290
100
AcDbEntity
  8
001
 62
    40
370
    50
100
AcDbVertex
100
AcDb2dVertex
 10
70.674738
 20
59.028452
 30
0.0
  0
VERTEX
  5
29E
330
290
100
AcDbEntity
  8
001
 62
    40
370
    50
100
AcDbVertex
100
AcDb2dVertex
 10
70.512073
 20
59.014793
 30
0.0
  0
VERTEX
  5
29F
330
290
100
AcDbEntity
  8
001
 62
    40
370
    50
100
AcDbVertex
100
AcDb2dVertex
 10
70.355722
 20
58.989175
 30
0.0
  0
VERTEX
  5
2A0
330
290
100
AcDbEntity
  8
001
 62
    40
370
    50
100
AcDbVertex
100
AcDb2dVertex
 10
70.189887
 20
58.9429
 30
0.0
  0
VERTEX
  5
2A1
330
290
100
AcDbEntity
  8
001
 62
    40
370
    50
100
AcDbVertex
100
AcDb2dVertex
 10
70.01158
 20
58.873904
 30
0.0
  0
VERTEX
  5
2A2
330
290
100
AcDbEntity
  8
001
 62
    40
370
    50
100
AcDbVertex
100
AcDb2dVertex
 10
69.885327
 20
58.815886
 30
0.0
  0
SEQEND
  5
291
330
290
100
AcDbEntity
  8
001
370
    50
  0
LINE
  5
2A3
330
1F
100
AcDbEntity
  8
001
 62
    40
370
    50
100
AcDbLine
 10
73.271649
 20
61.81519
 30
0.0
 11
72.046708
 21
63.050929
 31
0.0
  0
LINE
  5
2A4
330
1F
100
AcDbEntity
  8
001
 62
    40
370
    50
100
AcDbLine
 10
77.059933
 20
56.86369
 30
0.0
 11
77.059933
 21
57.558222
 31
0.0
  0
POLYLINE
  5
2A5
330
1F
100
AcDbEntity
  8
001
 62
    40
370
    50
100
AcDb2dPolyline
 66
     1
 10
0.0
 20
0.0
 30
0.0
  0
VERTEX
  5
2A7
330
2A5
100
AcDbEntity
  8
001
 62
    40
370
    50
100
AcDbVertex
100
AcDb2dVertex
 10
76.826777
 20
56.299998
 30
0.0
  0
VERTEX
  5
2A8
330
2A5
100
AcDbEntity
  8
001
 62
    40
370
    50
100
AcDbVertex
100
AcDb2dVertex
 10
76.838018
 20
56.311547
 30
0.0
  0
VERTEX
  5
2A9
330
2A5
100
AcDbEntity
  8
001
 62
    40
370
    50
100
AcDbVertex
100
AcDb2dVertex
 10
76.85378
 20
56.328324
 30
0.0
  0
VERTEX
  5
2AA
330
2A5
100
AcDbEntity
  8
001
 62
    40
370
    50
100
AcDbVertex
100
AcDb2dVertex
 10
76.901546
 20
56.385667
 30
0.0
  0
VERTEX
  5
2AB
330
2A5
100
AcDbEntity
  8
001
 62
    40
370
    50
100
AcDbVertex
100
AcDb2dVertex
 10
76.937638
 20
56.438838
 30
0.0
  0
VERTEX
  5
2AC
330
2A5
100
AcDbEntity
  8
001
 62
    40
370
    50
100
AcDbVertex
100
AcDb2dVertex
 10
77.021152
 20
56.611878
 30
0.0
  0
VERTEX
  5
2AD
330
2A5
100
AcDbEntity
  8
001
 62
    40
370
    50
100
AcDbVertex
100
AcDb2dVertex
 10
77.059356
 20
56.833291
 30
0.0
  0
VERTEX
  5
2AE
330
2A5
100
AcDbEntity
  8
001
 62
    40
370
    50
100
AcDbVertex
100
AcDb2dVertex
 10
77.059798
 20
56.851288
 30
0.0
  0
VERTEX
  5
2AF
330
2A5
100
AcDbEntity
  8
001
 62
    40
370
    50
100
AcDbVertex
100
AcDb2dVertex
 10
77.059933
 20
56.86369
 30
0.0
  0
SEQEND
  5
2A6
330
2A5
100
AcDbEntity
  8
001
370
    50
  0
POLYLINE
  5
2B0
330
1F
100
AcDbEntity
  8
001
 62
    40
370
    50
100
AcDb2dPolyline
 66
     1
 10
0.0
 20
0.0
 30
0.0
  0
VERTEX
  5
2B2
330
2B0
100
AcDbEntity
  8
001
 62
    40
370
    50
100
AcDbVertex
100
AcDb2dVertex
 10
72.046708
 20
63.050929
 30
0.0
  0
VERTEX
  5
2B3
330
2B0
100
AcDbEntity
  8
001
 62
    40
370
    50
100
AcDbVertex
100
AcDb2dVertex
 10
71.990332
 20
63.100047
 30
0.0
  0
VERTEX
  5
2B4
330
2B0
100
AcDbEntity
  8
001
 62
    40
370
    50
100
AcDbVertex
100
AcDb2dVertex
 10
71.907787
 20
63.162914
 30
0.0
  0
VERTEX
  5
2B5
330
2B0
100
AcDbEntity
  8
001
 62
    40
370
    50
100
AcDbVertex
100
AcDb2dVertex
 10
71.725977
 20
63.257136
 30
0.0
  0
VERTEX
  5
2B6
330
2B0
100
AcDbEntity
  8
001
 62
    40
370
    50
100
AcDbVertex
100
AcDb2dVertex
 10
71.514112
 20
63.287126
 30
0.0
  0
VERTEX
  5
2B7
330
2B0
100
AcDbEntity
  8
001
 62
    40
370
    50
100
AcDbVertex
100
AcDb2dVertex
 10
71.496201
 20
63.28764
 30
0.0
  0
VERTEX
  5
2B8
330
2B0
100
AcDbEntity
  8
001
 62
    40
370
    50
100
AcDbVertex
100
AcDb2dVertex
 10
71.483819
 20
63.287863
 30
0.0
  0
SEQEND
  5
2B1
330
2B0
100
AcDbEntity
  8
001
370
    50
  0
LINE
  5
2B9
330
1F
100
AcDbEntity
  8
001
 62
    40
370
    50
100
AcDbLine
 10
71.483819
 20
63.287863
 30
0.0
 11
70.687775
 21
63.292022
 31
0.0
  0
POLYLINE
  5
2BA
330
1F
100
AcDbEntity
  8
001
 62
    40
370
    50
100
AcDb2dPolyline
 66
     1
 10
0.0
 20
0.0
 30
0.0
  0
VERTEX
  5
2BC
330
2BA
100
AcDbEntity
  8
001
 62
    40
370
    50
100
AcDbVertex
100
AcDb2dVertex
 10
70.000438
 20
63.036024
 30
0.0
  0
VERTEX
  5
2BD
330
2BA
100
AcDbEntity
  8
001
 62
    40
370
    50
100
AcDbVertex
100
AcDb2dVertex
 10
69.951568
 20
63.007803
 30
0.0
  0
VERTEX
  5
2BE
330
2BA
100
AcDbEntity
  8
001
 62
    40
370
    50
100
AcDbVertex
100
AcDb2dVertex
 10
69.883827
 20
62.961157
 30
0.0
  0
VERTEX
  5
2BF
330
2BA
100
AcDbEntity
  8
001
 62
    40
370
    50
100
AcDbVertex
100
AcDb2dVertex
 10
69.838549
 20
62.923145
 30
0.0
  0
VERTEX
  5
2C0
330
2BA
100
AcDbEntity
  8
001
 62
    40
370
    50
100
AcDbVertex
100
AcDb2dVertex
 10
69.80905
 20
62.895363
 30
0.0
  0
SEQEND
  5
2BB
330
2BA
100
AcDbEntity
  8
001
370
    50
  0
LINE
  5
2C1
330
1F
100
AcDbEntity
  8
001
 62
    40
370
    50
100
AcDbLine
 10
70.316275
 20
63.201629
 30
0.0
 11
70.000438
 21
63.036024
 31
0.0
  0
POLYLINE
  5
2C2
330
1F
100
AcDbEntity
  8
001
 62
    40
370
    50
100
AcDb2dPolyline
 66
     1
 10
0.0
 20
0.0
 30
0.0
  0
VERTEX
  5
2C4
330
2C2
100
AcDbEntity
  8
001
 62
    40
370
    50
100
AcDbVertex
100
AcDb2dVertex
 10
70.687775
 20
63.292022
 30
0.0
  0
VERTEX
  5
2C5
330
2C2
100
AcDbEntity
  8
001
 62
    40
370
    50
100
AcDbVertex
100
AcDb2dVertex
 10
70.641969
 20
63.290217
 30
0.0
  0
VERTEX
  5
2C6
330
2C2
100
AcDbEntity
  8
001
 62
    40
370
    50
100
AcDbVertex
100
AcDb2dVertex
 10
70.579476
 20
63.28516
 30
0.0
  0
VERTEX
  5
2C7
330
2C2
100
AcDbEntity
  8
001
 62
    40
370
    50
100
AcDbVertex
100
AcDb2dVertex
 10
70.510433
 20
63.27435
 30
0.0
  0
VERTEX
  5
2C8
330
2C2
100
AcDbEntity
  8
001
 62
    40
370
    50
100
AcDbVertex
100
AcDb2dVertex
 10
70.444175
 20
63.254969
 30
0.0
  0
VERTEX
  5
2C9
330
2C2
100
AcDbEntity
  8
001
 62
    40
370
    50
100
AcDbVertex
100
AcDb2dVertex
 10
70.369971
 20
63.226004
 30
0.0
  0
VERTEX
  5
2CA
330
2C2
100
AcDbEntity
  8
001
 62
    40
370
    50
100
AcDbVertex
100
AcDb2dVertex
 10
70.316275
 20
63.201629
 30
0.0
  0
SEQEND
  5
2C3
330
2C2
100
AcDbEntity
  8
001
370
    50
  0
POLYLINE
  5
2CB
330
1F
100
AcDbEntity
  8
001
 62
    40
370
    50
100
AcDb2dPolyline
 66
     1
 10
0.0
 20
0.0
 30
0.0
  0
VERTEX
  5
2CD
330
2CB
100
AcDbEntity
  8
001
 62
    40
370
    50
100
AcDbVertex
100
AcDb2dVertex
 10
70.047178
 20
58.891187
 30
0.0
  0
VERTEX
  5
2CE
330
2CB
100
AcDbEntity
  8
001
 62
    40
370
    50
100
AcDbVertex
100
AcDb2dVertex
 10
69.995244
 20
58.855496
 30
0.0
  0
VERTEX
  5
2CF
330
2CB
100
AcDbEntity
  8
001
 62
    40
370
    50
100
AcDbVertex
100
AcDb2dVertex
 10
69.923482
 20
58.803214
 30
0.0
  0
VERTEX
  5
2D0
330
2CB
100
AcDbEntity
  8
001
 62
    40
370
    50
100
AcDbVertex
100
AcDb2dVertex
 10
69.789511
 20
58.691293
 30
0.0
  0
VERTEX
  5
2D1
330
2CB
100
AcDbEntity
  8
001
 62
    40
370
    50
100
AcDbVertex
100
AcDb2dVertex
 10
69.681117
 20
58.57909
 30
0.0
  0
VERTEX
  5
2D2
330
2CB
100
AcDbEntity
  8
001
 62
    40
370
    50
100
AcDbVertex
100
AcDb2dVertex
 10
69.577867
 20
58.453599
 30
0.0
  0
VERTEX
  5
2D3
330
2CB
100
AcDbEntity
  8
001
 62
    40
370
    50
100
AcDbVertex
100
AcDb2dVertex
 10
69.481432
 20
58.31593
 30
0.0
  0
VERTEX
  5
2D4
330
2CB
100
AcDbEntity
  8
001
 62
    40
370
    50
100
AcDbVertex
100
AcDb2dVertex
 10
69.273622
 20
57.864115
 30
0.0
  0
VERTEX
  5
2D5
330
2CB
100
AcDbEntity
  8
001
 62
    40
370
    50
100
AcDbVertex
100
AcDb2dVertex
 10
69.191589
 20
57.376638
 30
0.0
  0
VERTEX
  5
2D6
330
2CB
100
AcDbEntity
  8
001
 62
    40
370
    50
100
AcDbVertex
100
AcDb2dVertex
 10
69.208115
 20
57.04487
 30
0.0
  0
VERTEX
  5
2D7
330
2CB
100
AcDbEntity
  8
001
 62
    40
370
    50
100
AcDbVertex
100
AcDb2dVertex
 10
69.281153
 20
56.72162
 30
0.0
  0
VERTEX
  5
2D8
330
2CB
100
AcDbEntity
  8
001
 62
    40
370
    50
100
AcDbVertex
100
AcDb2dVertex
 10
69.338587
 20
56.565617
 30
0.0
  0
VERTEX
  5
2D9
330
2CB
100
AcDbEntity
  8
001
 62
    40
370
    50
100
AcDbVertex
100
AcDb2dVertex
 10
69.409298
 20
56.415296
 30
0.0
  0
VERTEX
  5
2DA
330
2CB
100
AcDbEntity
  8
001
 62
    40
370
    50
100
AcDbVertex
100
AcDb2dVertex
 10
69.492728
 20
56.271645
 30
0.0
  0
VERTEX
  5
2DB
330
2CB
100
AcDbEntity
  8
001
 62
    40
370
    50
100
AcDbVertex
100
AcDb2dVertex
 10
69.588383
 20
56.135682
 30
0.0
  0
VERTEX
  5
2DC
330
2CB
100
AcDbEntity
  8
001
 62
    40
370
    50
100
AcDbVertex
100
AcDb2dVertex
 10
69.81273
 20
55.89177
 30
0.0
  0
VERTEX
  5
2DD
330
2CB
100
AcDbEntity
  8
001
 62
    40
370
    50
100
AcDbVertex
100
AcDb2dVertex
 10
70.076223
 20
55.689496
 30
0.0
  0
VERTEX
  5
2DE
330
2CB
100
AcDbEntity
  8
001
 62
    40
370
    50
100
AcDbVertex
100
AcDb2dVertex
 10
70.523844
 20
55.479736
 30
0.0
  0
VERTEX
  5
2DF
330
2CB
100
AcDbEntity
  8
001
 62
    40
370
    50
100
AcDbVertex
100
AcDb2dVertex
 10
71.013663
 20
55.393715
 30
0.0
  0
VERTEX
  5
2E0
330
2CB
100
AcDbEntity
  8
001
 62
    40
370
    50
100
AcDbVertex
100
AcDb2dVertex
 10
71.181744
 20
55.394742
 30
0.0
  0
VERTEX
  5
2E1
330
2CB
100
AcDbEntity
  8
001
 62
    40
370
    50
100
AcDbVertex
100
AcDb2dVertex
 10
71.343684
 20
55.408301
 30
0.0
  0
VERTEX
  5
2E2
330
2CB
100
AcDbEntity
  8
001
 62
    40
370
    50
100
AcDbVertex
100
AcDb2dVertex
 10
71.49762
 20
55.433648
 30
0.0
  0
VERTEX
  5
2E3
330
2CB
100
AcDbEntity
  8
001
 62
    40
370
    50
100
AcDbVertex
100
AcDb2dVertex
 10
71.66587
 20
55.480193
 30
0.0
  0
VERTEX
  5
2E4
330
2CB
100
AcDbEntity
  8
001
 62
    40
370
    50
100
AcDbVertex
100
AcDb2dVertex
 10
71.749687
 20
55.509486
 30
0.0
  0
VERTEX
  5
2E5
330
2CB
100
AcDbEntity
  8
001
 62
    40
370
    50
100
AcDbVertex
100
AcDb2dVertex
 10
71.808579
 20
55.531906
 30
0.0
  0
SEQEND
  5
2CC
330
2CB
100
AcDbEntity
  8
001
370
    50
  0
POLYLINE
  5
2E6
330
1F
100
AcDbEntity
  8
001
 62
    40
370
    50
100
AcDb2dPolyline
 66
     1
 10
0.0
 20
0.0
 30
0.0
  0
VERTEX
  5
2E8
330
2E6
100
AcDbEntity
  8
001
 62
    40
370
    50
100
AcDbVertex
100
AcDb2dVertex
 10
71.654594
 20
55.441602
 30
0.0
  0
VERTEX
  5
2E9
330
2E6
100
AcDbEntity
  8
001
 62
    40
370
    50
100
AcDbVertex
100
AcDb2dVertex
 10
71.774118
 20
55.512542
 30
0.0
  0
VERTEX
  5
2EA
330
2E6
100
AcDbEntity
  8
001
 62
    40
370
    50
100
AcDbVertex
100
AcDb2dVertex
 10
71.932276
 20
55.619879
 30
0.0
  0
VERTEX
  5
2EB
330
2E6
100
AcDbEntity
  8
001
 62
    40
370
    50
100
AcDbVertex
100
AcDb2dVertex
 10
72.064654
 20
55.729529
 30
0.0
  0
VERTEX
  5
2EC
330
2E6
100
AcDbEntity
  8
001
 62
    40
370
    50
100
AcDbVertex
100
AcDb2dVertex
 10
72.174641
 20
55.844003
 30
0.0
  0
VERTEX
  5
2ED
330
2E6
100
AcDbEntity
  8
001
 62
    40
370
    50
100
AcDbVertex
100
AcDb2dVertex
 10
72.27837
 20
55.971703
 30
0.0
  0
VERTEX
  5
2EE
330
2E6
100
AcDbEntity
  8
001
 62
    40
370
    50
100
AcDbVertex
100
AcDb2dVertex
 10
72.374325
 20
56.107163
 30
0.0
  0
VERTEX
  5
2EF
330
2E6
100
AcDbEntity
  8
001
 62
    40
370
    50
100
AcDbVertex
100
AcDb2dVertex
 10
72.581611
 20
56.526654
 30
0.0
  0
VERTEX
  5
2F0
330
2E6
100
AcDbEntity
  8
001
 62
    40
370
    50
100
AcDbVertex
100
AcDb2dVertex
 10
72.664168
 20
57.046456
 30
0.0
  0
VERTEX
  5
2F1
330
2E6
100
AcDbEntity
  8
001
 62
    40
370
    50
100
AcDbVertex
100
AcDb2dVertex
 10
72.6652
 20
57.089291
 30
0.0
  0
VERTEX
  5
2F2
330
2E6
100
AcDbEntity
  8
001
 62
    40
370
    50
100
AcDbVertex
100
AcDb2dVertex
 10
72.665541
 20
57.118842
 30
0.0
  0
SEQEND
  5
2E7
330
2E6
100
AcDbEntity
  8
001
370
    50
  0
POLYLINE
  5
2F3
330
1F
100
AcDbEntity
  8
001
 62
    40
370
    50
100
AcDb2dPolyline
 66
     1
 10
0.0
 20
0.0
 30
0.0
  0
VERTEX
  5
2F5
330
2F3
100
AcDbEntity
  8
001
 62
    40
370
    50
100
AcDbVertex
100
AcDb2dVertex
 10
69.885327
 20
58.815886
 30
0.0
  0
VERTEX
  5
2F6
330
2F3
100
AcDbEntity
  8
001
 62
    40
370
    50
100
AcDbVertex
100
AcDb2dVertex
 10
69.765803
 20
58.745033
 30
0.0
  0
VERTEX
  5
2F7
330
2F3
100
AcDbEntity
  8
001
 62
    40
370
    50
100
AcDbVertex
100
AcDb2dVertex
 10
69.607645
 20
58.637608
 30
0.0
  0
VERTEX
  5
2F8
330
2F3
100
AcDbEntity
  8
001
 62
    40
370
    50
100
AcDbVertex
100
AcDb2dVertex
 10
69.475266
 20
58.527523
 30
0.0
  0
VERTEX
  5
2F9
330
2F3
100
AcDbEntity
  8
001
 62
    40
370
    50
100
AcDbVertex
100
AcDb2dVertex
 10
69.36528
 20
58.413485
 30
0.0
  0
VERTEX
  5
2FA
330
2F3
100
AcDbEntity
  8
001
 62
    40
370
    50
100
AcDbVertex
100
AcDb2dVertex
 10
69.261553
 20
58.287443
 30
0.0
  0
VERTEX
  5
2FB
330
2F3
100
AcDbEntity
  8
001
 62
    40
370
    50
100
AcDbVertex
100
AcDb2dVertex
 10
69.165595
 20
58.150325
 30
0.0
  0
VERTEX
  5
2FC
330
2F3
100
AcDbEntity
  8
001
 62
    40
370
    50
100
AcDbVertex
100
AcDb2dVertex
 10
68.958263
 20
57.699062
 30
0.0
  0
VERTEX
  5
2FD
330
2F3
100
AcDbEntity
  8
001
 62
    40
370
    50
100
AcDbVertex
100
AcDb2dVertex
 10
68.875752
 20
57.211032
 30
0.0
  0
VERTEX
  5
2FE
330
2F3
100
AcDbEntity
  8
001
 62
    40
370
    50
100
AcDbVertex
100
AcDb2dVertex
 10
68.892214
 20
56.879187
 30
0.0
  0
VERTEX
  5
2FF
330
2F3
100
AcDbEntity
  8
001
 62
    40
370
    50
100
AcDbVertex
100
AcDb2dVertex
 10
68.965316
 20
56.556014
 30
0.0
  0
VERTEX
  5
300
330
2F3
100
AcDbEntity
  8
001
 62
    40
370
    50
100
AcDbVertex
100
AcDb2dVertex
 10
69.022754
 20
56.400018
 30
0.0
  0
VERTEX
  5
301
330
2F3
100
AcDbEntity
  8
001
 62
    40
370
    50
100
AcDbVertex
100
AcDb2dVertex
 10
69.093461
 20
56.249691
 30
0.0
  0
VERTEX
  5
302
330
2F3
100
AcDbEntity
  8
001
 62
    40
370
    50
100
AcDbVertex
100
AcDb2dVertex
 10
69.176899
 20
56.106038
 30
0.0
  0
VERTEX
  5
303
330
2F3
100
AcDbEntity
  8
001
 62
    40
370
    50
100
AcDbVertex
100
AcDb2dVertex
 10
69.272546
 20
55.970076
 30
0.0
  0
VERTEX
  5
304
330
2F3
100
AcDbEntity
  8
001
 62
    40
370
    50
100
AcDbVertex
100
AcDb2dVertex
 10
69.496793
 20
55.726155
 30
0.0
  0
VERTEX
  5
305
330
2F3
100
AcDbEntity
  8
001
 62
    40
370
    50
100
AcDbVertex
100
AcDb2dVertex
 10
69.760386
 20
55.52389
 30
0.0
  0
VERTEX
  5
306
330
2F3
100
AcDbEntity
  8
001
 62
    40
370
    50
100
AcDbVertex
100
AcDb2dVertex
 10
70.208733
 20
55.31421
 30
0.0
  0
VERTEX
  5
307
330
2F3
100
AcDbEntity
  8
001
 62
    40
370
    50
100
AcDbVertex
100
AcDb2dVertex
 10
70.697826
 20
55.228109
 30
0.0
  0
VERTEX
  5
308
330
2F3
100
AcDbEntity
  8
001
 62
    40
370
    50
100
AcDbVertex
100
AcDb2dVertex
 10
70.865182
 20
55.229057
 30
0.0
  0
VERTEX
  5
309
330
2F3
100
AcDbEntity
  8
001
 62
    40
370
    50
100
AcDbVertex
100
AcDb2dVertex
 10
71.027848
 20
55.242695
 30
0.0
  0
VERTEX
  5
30A
330
2F3
100
AcDbEntity
  8
001
 62
    40
370
    50
100
AcDbVertex
100
AcDb2dVertex
 10
71.184198
 20
55.268307
 30
0.0
  0
VERTEX
  5
30B
330
2F3
100
AcDbEntity
  8
001
 62
    40
370
    50
100
AcDbVertex
100
AcDb2dVertex
 10
71.350033
 20
55.314587
 30
0.0
  0
VERTEX
  5
30C
330
2F3
100
AcDbEntity
  8
001
 62
    40
370
    50
100
AcDbVertex
100
AcDb2dVertex
 10
71.528341
 20
55.383584
 30
0.0
  0
VERTEX
  5
30D
330
2F3
100
AcDbEntity
  8
001
 62
    40
370
    50
100
AcDbVertex
100
AcDb2dVertex
 10
71.654594
 20
55.441602
 30
0.0
  0
SEQEND
  5
2F4
330
2F3
100
AcDbEntity
  8
001
370
    50
  0
POLYLINE
  5
30E
330
1F
100
AcDbEntity
  8
001
 62
    40
370
    50
100
AcDb2dPolyline
 66
     1
 10
0.0
 20
0.0
 30
0.0
  0
VERTEX
  5
310
330
30E
100
AcDbEntity
  8
001
 62
    40
370
    50
100
AcDbVertex
100
AcDb2dVertex
 10
71.855319
 20
51.38707
 30
0.0
  0
VERTEX
  5
311
330
30E
100
AcDbEntity
  8
001
 62
    40
370
    50
100
AcDbVertex
100
AcDb2dVertex
 10
71.90418
 20
51.415283
 30
0.0
  0
VERTEX
  5
312
330
30E
100
AcDbEntity
  8
001
 62
    40
370
    50
100
AcDbVertex
100
AcDb2dVertex
 10
71.971931
 20
51.461937
 30
0.0
  0
VERTEX
  5
313
330
30E
100
AcDbEntity
  8
001
 62
    40
370
    50
100
AcDbVertex
100
AcDb2dVertex
 10
71.99544
 20
51.480904
 30
0.0
  0
VERTEX
  5
314
330
30E
100
AcDbEntity
  8
001
 62
    40
370
    50
100
AcDbVertex
100
AcDb2dVertex
 10
72.011149
 20
51.494353
 30
0.0
  0
SEQEND
  5
30F
330
30E
100
AcDbEntity
  8
001
370
    50
  0
POLYLINE
  5
315
330
1F
100
AcDbEntity
  8
001
 62
    40
370
    50
100
AcDb2dPolyline
 66
     1
 10
0.0
 20
0.0
 30
0.0
  0
VERTEX
  5
317
330
315
100
AcDbEntity
  8
001
 62
    40
370
    50
100
AcDbVertex
100
AcDb2dVertex
 10
72.011149
 20
51.494353
 30
0.0
  0
VERTEX
  5
318
330
315
100
AcDbEntity
  8
001
 62
    40
370
    50
100
AcDbVertex
100
AcDb2dVertex
 10
72.018532
 20
51.500961
 30
0.0
  0
VERTEX
  5
319
330
315
100
AcDbEntity
  8
001
 62
    40
370
    50
100
AcDbVertex
100
AcDb2dVertex
 10
72.029185
 20
51.510767
 30
0.0
  0
VERTEX
  5
31A
330
315
100
AcDbEntity
  8
001
 62
    40
370
    50
100
AcDbVertex
100
AcDb2dVertex
 10
72.039646
 20
51.520779
 30
0.0
  0
VERTEX
  5
31B
330
315
100
AcDbEntity
  8
001
 62
    40
370
    50
100
AcDbVertex
100
AcDb2dVertex
 10
72.046708
 20
51.52773
 30
0.0
  0
SEQEND
  5
316
330
315
100
AcDbEntity
  8
001
370
    50
  0
POLYLINE
  5
31C
330
1F
100
AcDbEntity
  8
001
 62
    40
370
    50
100
AcDb2dPolyline
 66
     1
 10
0.0
 20
0.0
 30
0.0
  0
VERTEX
  5
31E
330
31C
100
AcDbEntity
  8
001
 62
    40
370
    50
100
AcDbVertex
100
AcDb2dVertex
 10
71.539482
 20
51.221464
 30
0.0
  0
VERTEX
  5
31F
330
31C
100
AcDbEntity
  8
001
 62
    40
370
    50
100
AcDbVertex
100
AcDb2dVertex
 10
71.588353
 20
51.249684
 30
0.0
  0
VERTEX
  5
320
330
31C
100
AcDbEntity
  8
001
 62
    40
370
    50
100
AcDbVertex
100
AcDb2dVertex
 10
71.656094
 20
51.296331
 30
0.0
  0
VERTEX
  5
321
330
31C
100
AcDbEntity
  8
001
 62
    40
370
    50
100
AcDbVertex
100
AcDb2dVertex
 10
71.701372
 20
51.334342
 30
0.0
  0
VERTEX
  5
322
330
31C
100
AcDbEntity
  8
001
 62
    40
370
    50
100
AcDbVertex
100
AcDb2dVertex
 10
71.730871
 20
51.362125
 30
0.0
  0
SEQEND
  5
31D
330
31C
100
AcDbEntity
  8
001
370
    50
  0
LINE
  5
323
330
1F
100
AcDbEntity
  8
001
 62
    40
370
    50
100
AcDbLine
 10
71.539482
 20
51.221464
 30
0.0
 11
71.855319
 21
51.38707
 31
0.0
  0
ARC
  5
324
330
1F
100
AcDbEntity
  8
001
 62
   253
370
    50
100
AcDbCircle
 10
92.295825
 20
175.159952
 30
0.0
 40
0.9999999999999929
100
AcDbArc
 50
0.0
 51
90.0
  0
ARC
  5
325
330
1F
100
AcDbEntity
  8
001
 62
   253
370
    50
100
AcDbCircle
 10
92.295825
 20
69.159952
 30
0.0
 40
0.9999999999999929
100
AcDbArc
 50
270.0
 51
0.0
  0
LINE
  5
326
330
1F
100
AcDbEntity
  8
001
 62
   253
370
    50
100
AcDbLine
 10
93.295825
 20
69.159952
 30
0.0
 11
93.295825
 21
175.159952
 31
0.0
  0
LINE
  5
327
330
1F
100
AcDbEntity
  8
001
 62
   253
370
    50
100
AcDbLine
 10
68.295825
 20
69.159952
 30
0.0
 11
68.295825
 21
131.950199
 31
0.0
  0
ARC
  5
328
330
1F
100
AcDbEntity
  8
001
 62
   253
370
    50
100
AcDbCircle
 10
69.295825
 20
69.159952
 30
0.0
 40
1.0
100
AcDbArc
 50
180.0
 51
229.689594
  0
POLYLINE
  5
329
330
1F
100
AcDbEntity
  8
001
 62
   253
370
    50
100
AcDb2dPolyline
 66
     1
 10
0.0
 20
0.0
 30
0.0
  0
VERTEX
  5
32B
330
329
100
AcDbEntity
  8
001
 62
   253
370
    50
100
AcDbVertex
100
AcDb2dVertex
 10
69.295825
 20
68.159952
 30
0.0
  0
VERTEX
  5
32C
330
329
100
AcDbEntity
  8
001
 62
   253
370
    50
100
AcDbVertex
100
AcDb2dVertex
 10
69.128651
 20
68.179211
 30
0.0
  0
VERTEX
  5
32D
330
329
100
AcDbEntity
  8
001
 62
   253
370
    50
100
AcDbVertex
100
AcDb2dVertex
 10
68.965959
 20
68.215925
 30
0.0
  0
VERTEX
  5
32E
330
329
100
AcDbEntity
  8
001
 62
   253
370
    50
100
AcDbVertex
100
AcDb2dVertex
 10
68.812401
 20
68.283282
 30
0.0
  0
VERTEX
  5
32F
330
329
100
AcDbEntity
  8
001
 62
   253
370
    50
100
AcDbVertex
100
AcDb2dVertex
 10
68.673089
 20
68.377525
 30
0.0
  0
VERTEX
  5
330
330
329
100
AcDbEntity
  8
001
 62
   253
370
    50
100
AcDbVertex
100
AcDb2dVertex
 10
68.660884
 20
68.387479
 30
0.0
  0
VERTEX
  5
331
330
329
100
AcDbEntity
  8
001
 62
   253
370
    50
100
AcDbVertex
100
AcDb2dVertex
 10
68.648766
 20
68.397517
 30
0.0
  0
SEQEND
  5
32A
330
329
100
AcDbEntity
  8
001
370
    50
  0
POLYLINE
  5
332
330
1F
100
AcDbEntity
  8
001
 62
   253
370
    50
100
AcDb2dPolyline
 66
     1
 10
0.0
 20
0.0
 30
0.0
  0
VERTEX
  5
334
330
332
100
AcDbEntity
  8
001
 62
   253
370
    50
100
AcDbVertex
100
AcDb2dVertex
 10
68.295825
 20
131.950199
 30
0.0
  0
VERTEX
  5
335
330
332
100
AcDbEntity
  8
001
 62
   253
370
    50
100
AcDbVertex
100
AcDb2dVertex
 10
68.298809
 20
131.960503
 30
0.0
  0
VERTEX
  5
336
330
332
100
AcDbEntity
  8
001
 62
   253
370
    50
100
AcDbVertex
100
AcDb2dVertex
 10
68.302522
 20
131.970264
 30
0.0
  0
VERTEX
  5
337
330
332
100
AcDbEntity
  8
001
 62
   253
370
    50
100
AcDbVertex
100
AcDb2dVertex
 10
68.34088
 20
132.006133
 30
0.0
  0
VERTEX
  5
338
330
332
100
AcDbEntity
  8
001
 62
   253
370
    50
100
AcDbVertex
100
AcDb2dVertex
 10
68.39677
 20
132.026233
 30
0.0
  0
VERTEX
  5
339
330
332
100
AcDbEntity
  8
001
 62
   253
370
    50
100
AcDbVertex
100
AcDb2dVertex
 10
68.496907
 20
132.053171
 30
0.0
  0
VERTEX
  5
33A
330
332
100
AcDbEntity
  8
001
 62
   253
370
    50
100
AcDbVertex
100
AcDb2dVertex
 10
68.592393
 20
132.073629
 30
0.0
  0
VERTEX
  5
33B
330
332
100
AcDbEntity
  8
001
 62
   253
370
    50
100
AcDbVertex
100
AcDb2dVertex
 10
68.728141
 20
132.093674
 30
0.0
  0
VERTEX
  5
33C
330
332
100
AcDbEntity
  8
001
 62
   253
370
    50
100
AcDbVertex
100
AcDb2dVertex
 10
68.867326
 20
132.107107
 30
0.0
  0
VERTEX
  5
33D
330
332
100
AcDbEntity
  8
001
 62
   253
370
    50
100
AcDbVertex
100
AcDb2dVertex
 10
69.02922
 20
132.117586
 30
0.0
  0
VERTEX
  5
33E
330
332
100
AcDbEntity
  8
001
 62
   253
370
    50
100
AcDbVertex
100
AcDb2dVertex
 10
69.190557
 20
132.122893
 30
0.0
  0
VERTEX
  5
33F
330
332
100
AcDbEntity
  8
001
 62
   253
370
    50
100
AcDbVertex
100
AcDb2dVertex
 10
69.243164
 20
132.123518
 30
0.0
  0
VERTEX
  5
340
330
332
100
AcDbEntity
  8
001
 62
   253
370
    50
100
AcDbVertex
100
AcDb2dVertex
 10
69.295825
 20
132.123858
 30
0.0
  0
SEQEND
  5
333
330
332
100
AcDbEntity
  8
001
370
    50
  0
LINE
  5
341
330
1F
100
AcDbEntity
  8
001
 62
   253
370
    50
100
AcDbLine
 10
92.295825
 20
176.159952
 30
0.0
 11
69.295825
 21
176.159952
 31
0.0
  0
LINE
  5
342
330
1F
100
AcDbEntity
  8
001
 62
   253
370
    50
100
AcDbLine
 10
69.295825
 20
68.159952
 30
0.0
 11
92.295825
 21
68.159952
 31
0.0
  0
LINE
  5
343
330
1F
100
AcDbEntity
  8
001
 62
   253
370
    50
100
AcDbLine
 10
69.295825
 20
132.123858
 30
0.0
 11
83.295825
 21
132.123858
 31
0.0
  0
ARC
  5
344
330
1F
100
AcDbEntity
  8
001
 62
   253
370
    50
100
AcDbCircle
 10
101.295825
 20
175.159952
 30
0.0
 40
8.000000000000007
100
AcDbArc
 50
180.0
 51
270.0
  0
ARC
  5
345
330
1F
100
AcDbEntity
  8
001
 62
   253
370
    50
100
AcDbCircle
 10
101.295825
 20
69.159952
 30
0.0
 40
8.000000000000007
100
AcDbArc
 50
90.0
 51
180.0
  0
ARC
  5
346
330
1F
100
AcDbEntity
  8
001
 62
   253
370
    50
100
AcDbCircle
 10
69.295825
 20
175.159952
 30
0.0
 40
1.0
100
AcDbArc
 50
90.0
 51
180.0
  0
LINE
  5
347
330
1F
100
AcDbEntity
  8
001
 62
   253
370
    50
100
AcDbLine
 10
68.295825
 20
156.900119
 30
0.0
 11
68.295825
 21
175.159952
 31
0.0
  0
LINE
  5
348
330
1F
100
AcDbEntity
  8
001
 62
   253
370
    50
100
AcDbLine
 10
107.295825
 20
167.159952
 30
0.0
 11
101.295825
 21
167.159952
 31
0.0
  0
LINE
  5
349
330
1F
100
AcDbEntity
  8
001
 62
   253
370
    50
100
AcDbLine
 10
101.295825
 20
77.159952
 30
0.0
 11
107.295825
 21
77.159952
 31
0.0
  0
ARC
  5
34A
330
1F
100
AcDbEntity
  8
001
 62
   253
370
    50
100
AcDbCircle
 10
107.295825
 20
166.159952
 30
0.0
 40
1.0
100
AcDbArc
 50
0.0
 51
90.0
  0
ARC
  5
34B
330
1F
100
AcDbEntity
  8
001
 62
   253
370
    50
100
AcDbCircle
 10
107.295825
 20
78.159952
 30
0.0
 40
1.0
100
AcDbArc
 50
270.0
 51
0.0
  0
LINE
  5
34C
330
1F
100
AcDbEntity
  8
001
 62
   253
370
    50
100
AcDbLine
 10
108.295825
 20
166.159952
 30
0.0
 11
108.295825
 21
78.159952
 31
0.0
  0
LINE
  5
34D
330
1F
100
AcDbEntity
  8
001
 62
   253
370
    50
100
AcDbLine
 10
180.295825
 20
138.159952
 30
0.0
 11
111.295825
 21
138.159952
 31
0.0
  0
LINE
  5
34E
330
1F
100
AcDbEntity
  8
001
 62
   253
370
    50
100
AcDbLine
 10
180.295825
 20
106.159952
 30
0.0
 11
111.295825
 21
106.159952
 31
0.0
  0
LINE
  5
34F
330
1F
100
AcDbEntity
  8
001
 62
   253
370
    50
100
AcDbLine
 10
111.295825
 20
138.159952
 30
0.0
 11
111.295825
 21
106.159952
 31
0.0
  0
LINE
  5
350
330
1F
100
AcDbEntity
  8
001
 62
   253
370
    50
100
AcDbLine
 10
188.295825
 20
114.159952
 30
0.0
 11
188.295825
 21
130.159952
 31
0.0
  0
LINE
  5
351
330
1F
100
AcDbEntity
  8
001
 62
   253
370
    50
100
AcDbLine
 10
111.295825
 20
137.659952
 30
0.0
 11
108.295825
 21
137.659952
 31
0.0
  0
LINE
  5
352
330
1F
100
AcDbEntity
  8
001
 62
   253
370
    50
100
AcDbLine
 10
108.295825
 20
106.659952
 30
0.0
 11
111.295825
 21
106.659952
 31
0.0
  0
TEXT
  5
353
330
1F
100
AcDbEntity
  8
001
370
    30
100
AcDbText
 10
71.207683
 20
188.693777
 30
0.0
 40
8.0
  1
ＮＫＮ３２－１３０Ｓ－０３
 41
0.833333
100
AcDbText
  0
ARC
  5
354
330
1F
100
AcDbEntity
  8
001
 62
   253
370
    50
100
AcDbCircle
 10
180.295825
 20
130.159952
 30
0.0
 40
8.0
100
AcDbArc
 50
0.0
 51
90.0
  0
ARC
  5
355
330
1F
100
AcDbEntity
  8
001
 62
   253
370
    50
100
AcDbCircle
 10
180.295825
 20
114.159952
 30
0.0
 40
8.0
100
AcDbArc
 50
270.0
 51
0.0
  0
ENDSEC
  0
SECTION
  2
OBJECTS
  0
DICTIONARY
  5
C
330
0
100
AcDbDictionary
281
     1
  3
ACAD_GROUP
350
D
  3
ACAD_LAYOUT
350
1A
  3
ACAD_MLEADERSTYLE
350
359
  3
ACAD_MLINESTYLE
350
17
  3
ACAD_PLOTSETTINGS
350
19
  3
ACAD_PLOTSTYLENAME
350
E
  3
ACAD_SCALELIST
350
3B
  3
ACAD_TABLESTYLE
350
358
  3
ACAD_VISUALSTYLE
350
2A
  3
AcDbVariableDictionary
350
356
  0
DICTIONARY
  5
D
102
{ACAD_REACTORS
330
C
102
}
330
C
100
AcDbDictionary
281
     1
  0
DICTIONARY
  5
1A
102
{ACAD_REACTORS
330
C
102
}
330
C
100
AcDbDictionary
281
     1
  3
Layout1
350
1E
  3
Layout2
350
26
  3
Model
350
22
  0
DICTIONARY
  5
359
102
{ACAD_REACTORS
330
C
102
}
330
C
100
AcDbDictionary
281
     1
  0
DICTIONARY
  5
17
102
{ACAD_REACTORS
330
C
102
}
330
C
100
AcDbDictionary
281
     1
  3
Standard
350
18
  0
DICTIONARY
  5
19
102
{ACAD_REACTORS
330
C
102
}
330
C
100
AcDbDictionary
281
     1
  0
ACDBDICTIONARYWDFLT
  5
E
102
{ACAD_REACTORS
330
C
102
}
330
C
100
AcDbDictionary
281
     1
  3
Normal
350
F
100
AcDbDictionaryWithDefault
340
F
  0
DICTIONARY
  5
3B
102
{ACAD_REACTORS
330
C
102
}
330
C
100
AcDbDictionary
281
     1
  3
A0
350
3C
  3
A1
350
3D
  3
A2
350
3E
  3
A3
350
3F
  3
A4
350
40
  3
A5
350
41
  3
A6
350
42
  3
A7
350
43
  3
A8
350
44
  3
A9
350
45
  3
B0
350
46
  3
B1
350
47
  3
B2
350
48
  3
B3
350
49
  3
B4
350
4A
  3
B5
350
4B
  3
B6
350
4C
  3
B7
350
4D
  3
B8
350
4E
  3
B9
350
4F
  3
C0
350
50
  3
C1
350
51
  3
C2
350
52
  3
C3
350
53
  3
C4
350
54
  3
C5
350
55
  3
C6
350
56
  3
C7
350
57
  3
C8
350
58
  3
C9
350
59
  3
D0
350
5A
  3
D1
350
5B
  3
D2
350
5C
  0
DICTIONARY
  5
358
102
{ACAD_REACTORS
330
C
102
}
330
C
100
AcDbDictionary
281
     1
  0
DICTIONARY
  5
2A
102
{ACAD_REACTORS
330
C
102
}
330
C
100
AcDbDictionary
281
     1
  3
2dWireframe
350
2F
  3
3D Hidden
350
31
  3
3dWireframe
350
30
  3
Basic
350
32
  3
Brighten
350
36
  3
ColorChange
350
3A
  3
Conceptual
350
34
  3
Dim
350
35
  3
Facepattern
350
39
  3
Flat
350
2B
  3
FlatWithEdges
350
2C
  3
Gouraud
350
2D
  3
GouraudWithEdges
350
2E
  3
Linepattern
350
38
  3
Realistic
350
33
  3
Thicken
350
37
  0
DICTIONARY
  5
356
102
{ACAD_REACTORS
330
C
102
}
330
C
100
AcDbDictionary
281
     1
  3
CANNOSCALE
350
357
  3
PSOLHEIGHT
350
35B
  3
PSOLWIDTH
350
35A
  0
LAYOUT
  5
1E
102
{ACAD_REACTORS
330
1A
102
}
330
1A
100
AcDbPlotSettings
  1

  2
none_device
  4

  6

 40
0.0
 41
0.0
 42
0.0
 43
0.0
 44
0.0
 45
0.0
 46
0.0
 47
0.0
 48
0.0
 49
0.0
140
0.0
141
0.0
142
1.0
143
1.0
 70
   688
 72
     0
 73
     0
 74
     5
  7

 75
    16
147
1.0
148
0.0
149
0.0
100
AcDbLayout
  1
Layout1
 70
     1
 71
     1
 10
0.0
 20
0.0
 11
12.0
 21
9.0
 12
0.0
 22
0.0
 32
0.0
 14
1.000000E+20
 24
1.000000E+20
 34
0.0
 15
-1.000000E+20
 25
-1.000000E+20
 35
0.0
146
0.0
 13
0.0
 23
0.0
 33
0.0
 16
1.0
 26
0.0
 36
0.0
 17
0.0
 27
1.0
 37
0.0
 76
     0
330
1B
  0
LAYOUT
  5
26
102
{ACAD_REACTORS
330
1A
102
}
330
1A
100
AcDbPlotSettings
  1

  2
none_device
  4

  6

 40
0.0
 41
0.0
 42
0.0
 43
0.0
 44
0.0
 45
0.0
 46
0.0
 47
0.0
 48
0.0
 49
0.0
140
0.0
141
0.0
142
1.0
143
1.0
 70
   688
 72
     0
 73
     0
 74
     5
  7

 75
    16
147
1.0
148
0.0
149
0.0
100
AcDbLayout
  1
Layout2
 70
     1
 71
     2
 10
0.0
 20
0.0
 11
0.0
 21
0.0
 12
0.0
 22
0.0
 32
0.0
 14
0.0
 24
0.0
 34
0.0
 15
0.0
 25
0.0
 35
0.0
146
0.0
 13
0.0
 23
0.0
 33
0.0
 16
1.0
 26
0.0
 36
0.0
 17
0.0
 27
1.0
 37
0.0
 76
     0
330
23
  0
LAYOUT
  5
22
102
{ACAD_REACTORS
330
1A
102
}
330
1A
100
AcDbPlotSettings
  1

  2
none_device
  4

  6

 40
0.0
 41
0.0
 42
0.0
 43
0.0
 44
0.0
 45
0.0
 46
0.0
 47
0.0
 48
0.0
 49
0.0
140
0.0
141
0.0
142
1.0
143
1.0
 70
  1712
 72
     0
 73
     0
 74
     0
  7

 75
     0
147
1.0
148
0.0
149
0.0
100
AcDbLayout
  1
Model
 70
     1
 71
     0
 10
0.0
 20
0.0
 11
12.0
 21
9.0
 12
0.0
 22
0.0
 32
0.0
 14
32.879654
 24
17.315048
 34
0.0
 15
222.047653
 25
196.693771
 35
0.0
146
0.0
 13
0.0
 23
0.0
 33
0.0
 16
1.0
 26
0.0
 36
0.0
 17
0.0
 27
1.0
 37
0.0
 76
     0
330
1F
331
29
  0
MLINESTYLE
  5
18
102
{ACAD_REACTORS
330
17
102
}
330
17
100
AcDbMlineStyle
  2
Standard
 70
     0
  3

 62
   256
 51
90.0
 52
90.0
 71
     2
 49
0.5
 62
   256
  6
BYLAYER
 49
-0.5
 62
   256
  6
BYLAYER
  0
ACDBPLACEHOLDER
  5
F
102
{ACAD_REACTORS
330
E
102
}
330
E
  0
SCALE
  5
3C
102
{ACAD_REACTORS
330
3B
102
}
330
3B
100
AcDbScale
 70
     0
300
1:1
140
1.0
141
1.0
290
     1
  0
SCALE
  5
3D
102
{ACAD_REACTORS
330
3B
102
}
330
3B
100
AcDbScale
 70
     0
300
1:2
140
1.0
141
2.0
290
     0
  0
SCALE
  5
3E
102
{ACAD_REACTORS
330
3B
102
}
330
3B
100
AcDbScale
 70
     0
300
1:4
140
1.0
141
4.0
290
     0
  0
SCALE
  5
3F
102
{ACAD_REACTORS
330
3B
102
}
330
3B
100
AcDbScale
 70
     0
300
1:5
140
1.0
141
5.0
290
     0
  0
SCALE
  5
40
102
{ACAD_REACTORS
330
3B
102
}
330
3B
100
AcDbScale
 70
     0
300
1:8
140
1.0
141
8.0
290
     0
  0
SCALE
  5
41
102
{ACAD_REACTORS
330
3B
102
}
330
3B
100
AcDbScale
 70
     0
300
1:10
140
1.0
141
10.0
290
     0
  0
SCALE
  5
42
102
{ACAD_REACTORS
330
3B
102
}
330
3B
100
AcDbScale
 70
     0
300
1:16
140
1.0
141
16.0
290
     0
  0
SCALE
  5
43
102
{ACAD_REACTORS
330
3B
102
}
330
3B
100
AcDbScale
 70
     0
300
1:20
140
1.0
141
20.0
290
     0
  0
SCALE
  5
44
102
{ACAD_REACTORS
330
3B
102
}
330
3B
100
AcDbScale
 70
     0
300
1:30
140
1.0
141
30.0
290
     0
  0
SCALE
  5
45
102
{ACAD_REACTORS
330
3B
102
}
330
3B
100
AcDbScale
 70
     0
300
1:40
140
1.0
141
40.0
290
     0
  0
SCALE
  5
46
102
{ACAD_REACTORS
330
3B
102
}
330
3B
100
AcDbScale
 70
     0
300
1:50
140
1.0
141
50.0
290
     0
  0
SCALE
  5
47
102
{ACAD_REACTORS
330
3B
102
}
330
3B
100
AcDbScale
 70
     0
300
1:100
140
1.0
141
100.0
290
     0
  0
SCALE
  5
48
102
{ACAD_REACTORS
330
3B
102
}
330
3B
100
AcDbScale
 70
     0
300
2:1
140
2.0
141
1.0
290
     0
  0
SCALE
  5
49
102
{ACAD_REACTORS
330
3B
102
}
330
3B
100
AcDbScale
 70
     0
300
4:1
140
4.0
141
1.0
290
     0
  0
SCALE
  5
4A
102
{ACAD_REACTORS
330
3B
102
}
330
3B
100
AcDbScale
 70
     0
300
8:1
140
8.0
141
1.0
290
     0
  0
SCALE
  5
4B
102
{ACAD_REACTORS
330
3B
102
}
330
3B
100
AcDbScale
 70
     0
300
10:1
140
10.0
141
1.0
290
     0
  0
SCALE
  5
4C
102
{ACAD_REACTORS
330
3B
102
}
330
3B
100
AcDbScale
 70
     0
300
100:1
140
100.0
141
1.0
290
     0
  0
SCALE
  5
4D
102
{ACAD_REACTORS
330
3B
102
}
330
3B
100
AcDbScale
 70
     0
300
1/128" = 1'-0"
140
0.007812
141
12.0
290
     0
  0
SCALE
  5
4E
102
{ACAD_REACTORS
330
3B
102
}
330
3B
100
AcDbScale
 70
     0
300
1/64" = 1'-0"
140
0.015625
141
12.0
290
     0
  0
SCALE
  5
4F
102
{ACAD_REACTORS
330
3B
102
}
330
3B
100
AcDbScale
 70
     0
300
1/32" = 1'-0"
140
0.03125
141
12.0
290
     0
  0
SCALE
  5
50
102
{ACAD_REACTORS
330
3B
102
}
330
3B
100
AcDbScale
 70
     0
300
1/16" = 1'-0"
140
0.0625
141
12.0
290
     0
  0
SCALE
  5
51
102
{ACAD_REACTORS
330
3B
102
}
330
3B
100
AcDbScale
 70
     0
300
3/32" = 1'-0"
140
0.09375
141
12.0
290
     0
  0
SCALE
  5
52
102
{ACAD_REACTORS
330
3B
102
}
330
3B
100
AcDbScale
 70
     0
300
1/8" = 1'-0"
140
0.125
141
12.0
290
     0
  0
SCALE
  5
53
102
{ACAD_REACTORS
330
3B
102
}
330
3B
100
AcDbScale
 70
     0
300
3/16" = 1'-0"
140
0.1875
141
12.0
290
     0
  0
SCALE
  5
54
102
{ACAD_REACTORS
330
3B
102
}
330
3B
100
AcDbScale
 70
     0
300
1/4" = 1'-0"
140
0.25
141
12.0
290
     0
  0
SCALE
  5
55
102
{ACAD_REACTORS
330
3B
102
}
330
3B
100
AcDbScale
 70
     0
300
3/8" = 1'-0"
140
0.375
141
12.0
290
     0
  0
SCALE
  5
56
102
{ACAD_REACTORS
330
3B
102
}
330
3B
100
AcDbScale
 70
     0
300
1/2" = 1'-0"
140
0.5
141
12.0
290
     0
  0
SCALE
  5
57
102
{ACAD_REACTORS
330
3B
102
}
330
3B
100
AcDbScale
 70
     0
300
3/4" = 1'-0"
140
0.75
141
12.0
290
     0
  0
SCALE
  5
58
102
{ACAD_REACTORS
330
3B
102
}
330
3B
100
AcDbScale
 70
     0
300
1" = 1'-0"
140
1.0
141
12.0
290
     0
  0
SCALE
  5
59
102
{ACAD_REACTORS
330
3B
102
}
330
3B
100
AcDbScale
 70
     0
300
1-1/2" = 1'-0"
140
1.5
141
12.0
290
     0
  0
SCALE
  5
5A
102
{ACAD_REACTORS
330
3B
102
}
330
3B
100
AcDbScale
 70
     0
300
3" = 1'-0"
140
3.0
141
12.0
290
     0
  0
SCALE
  5
5B
102
{ACAD_REACTORS
330
3B
102
}
330
3B
100
AcDbScale
 70
     0
300
6" = 1'-0"
140
6.0
141
12.0
290
     0
  0
SCALE
  5
5C
102
{ACAD_REACTORS
330
3B
102
}
330
3B
100
AcDbScale
 70
     0
300
1'-0" = 1'-0"
140
12.0
141
12.0
290
     0
  0
VISUALSTYLE
  5
2F
102
{ACAD_REACTORS
330
2A
102
}
330
2A
100
AcDbVisualStyle
  2
2dWireframe
 70
     4
 71
     0
 72
     2
 73
     0
 90
        0
 40
-0.6
 41
-30.0
 62
     5
 63
     7
 74
     1
 91
        4
 64
     7
 65
   257
 75
     1
175
     1
 42
1.0
 92
        0
 66
   257
 43
1.0
 76
     1
 77
     6
 78
     2
 67
     7
 79
     5
170
     0
171
     0
290
     0
174
     0
 93
        1
 44
0.0
173
     0
291
     0
 45
0.0
1001
ACAD
1000
AcDbSavedByObjectVersion
1070
     0
  0
VISUALSTYLE
  5
31
102
{ACAD_REACTORS
330
2A
102
}
330
2A
100
AcDbVisualStyle
  2
3D Hidden
 70
     6
 71
     1
 72
     2
 73
     2
 90
        0
 40
-0.6
 41
-30.0
 62
     5
 63
     7
 74
     2
 91
        2
 64
     7
 65
   257
 75
     2
175
     1
 42
40.0
 92
        0
 66
   257
 43
1.0
 76
     1
 77
     6
 78
     2
 67
     7
 79
     3
170
     0
171
     0
290
     0
174
     0
 93
        1
 44
0.0
173
     0
291
     0
 45
0.0
1001
ACAD
1000
AcDbSavedByObjectVersion
1070
     0
  0
VISUALSTYLE
  5
30
102
{ACAD_REACTORS
330
2A
102
}
330
2A
100
AcDbVisualStyle
  2
3dWireframe
 70
     5
 71
     0
 72
     2
 73
     0
 90
        0
 40
-0.6
 41
-30.0
 62
     5
 63
     7
 74
     1
 91
        4
 64
     7
 65
   257
 75
     1
175
     1
 42
1.0
 92
        0
 66
   257
 43
1.0
 76
     1
 77
     6
 78
     2
 67
     7
 79
     5
170
     0
171
     0
290
     0
174
     0
 93
        1
 44
0.0
173
     0
291
     0
 45
0.0
1001
ACAD
1000
AcDbSavedByObjectVersion
1070
     0
  0
VISUALSTYLE
  5
32
102
{ACAD_REACTORS
330
2A
102
}
330
2A
100
AcDbVisualStyle
  2
Basic
 70
     7
 71
     1
 72
     0
 73
     1
 90
        0
 40
-0.6
 41
-30.0
 62
     5
 63
     7
 74
     0
 91
        4
 64
     7
 65
   257
 75
     1
175
     1
 42
1.0
 92
        8
 66
     7
 43
1.0
 76
     1
 77
     6
 78
     2
 67
     7
 79
     5
170
     0
171
     0
290
     0
174
     0
 93
        1
 44
0.0
173
     0
291
     1
 45
0.0
1001
ACAD
1000
AcDbSavedByObjectVersion
1070
     0
  0
VISUALSTYLE
  5
36
102
{ACAD_REACTORS
330
2A
102
}
330
2A
100
AcDbVisualStyle
  2
Brighten
 70
    12
 71
     2
 72
     2
 73
     0
 90
        0
 40
-0.6
 41
-30.0
 62
     5
 63
     7
 74
     1
 91
        4
 64
     7
 65
   257
 75
     1
175
     1
 42
1.0
 92
        8
 66
     7
 43
1.0
 76
     1
 77
     6
 78
     2
 67
     7
 79
     5
170
     0
171
     0
290
     0
174
     0
 93
        1
 44
50.0
173
     0
291
     1
 45
0.0
1001
ACAD
1000
AcDbSavedByObjectVersion
1070
     0
  0
VISUALSTYLE
  5
3A
102
{ACAD_REACTORS
330
2A
102
}
330
2A
100
AcDbVisualStyle
  2
ColorChange
 70
    16
 71
     2
 72
     2
 73
     3
 90
        0
 40
-0.6
 41
-30.0
 62
     5
 63
     8
 74
     1
 91
        4
 64
     7
 65
   257
 75
     1
175
     1
 42
1.0
 92
        8
 66
     8
 43
1.0
 76
     1
 77
     6
 78
     2
 67
     7
 79
     5
170
     0
171
     0
290
     0
174
     0
 93
        1
 44
0.0
173
     0
291
     1
 45
0.0
1001
ACAD
1000
AcDbSavedByObjectVersion
1070
     0
  0
VISUALSTYLE
  5
34
102
{ACAD_REACTORS
330
2A
102
}
330
2A
100
AcDbVisualStyle
  2
Conceptual
 70
     9
 71
     3
 72
     2
 73
     0
 90
        0
 40
-0.6
 41
-30.0
 62
     5
 63
     7
 74
     2
 91
        2
 64
     7
 65
   257
 75
     1
175
     1
 42
40.0
 92
        8
 66
     7
 43
1.0
 76
     1
 77
     6
 78
     2
 67
     7
 79
     3
170
     0
171
     0
290
     0
174
     0
 93
        1
 44
0.0
173
     0
291
     0
 45
0.0
1001
ACAD
1000
AcDbSavedByObjectVersion
1070
     0
  0
VISUALSTYLE
  5
35
102
{ACAD_REACTORS
330
2A
102
}
330
2A
100
AcDbVisualStyle
  2
Dim
 70
    11
 71
     2
 72
     2
 73
     0
 90
        0
 40
-0.6
 41
-30.0
 62
     5
 63
     7
 74
     1
 91
        4
 64
     7
 65
   257
 75
     1
175
     1
 42
1.0
 92
        8
 66
     7
 43
1.0
 76
     1
 77
     6
 78
     2
 67
     7
 79
     5
170
     0
171
     0
290
     0
174
     0
 93
        1
 44
-50.0
173
     0
291
     1
 45
0.0
1001
ACAD
1000
AcDbSavedByObjectVersion
1070
     0
  0
VISUALSTYLE
  5
39
102
{ACAD_REACTORS
330
2A
102
}
330
2A
100
AcDbVisualStyle
  2
Facepattern
 70
    15
 71
     2
 72
     2
 73
     0
 90
        0
 40
-0.6
 41
-30.0
 62
     5
 63
     7
 74
     1
 91
        4
 64
     7
 65
   257
 75
     1
175
     1
 42
1.0
 92
        8
 66
     7
 43
1.0
 76
     1
 77
     6
 78
     2
 67
     7
 79
     5
170
     0
171
     0
290
     0
174
     0
 93
        1
 44
0.0
173
     0
291
     1
 45
0.0
1001
ACAD
1000
AcDbSavedByObjectVersion
1070
     0
  0
VISUALSTYLE
  5
2B
102
{ACAD_REACTORS
330
2A
102
}
330
2A
100
AcDbVisualStyle
  2
Flat
 70
     0
 71
     2
 72
     1
 73
     1
 90
        2
 40
-0.6
 41
30.0
 62
     5
 63
     7
 74
     0
 91
        4
 64
     7
 65
   257
 75
     1
175
     1
 42
1.0
 92
        8
 66
     7
 43
1.0
 76
     1
 77
     6
 78
     2
 67
     7
 79
     5
170
     0
171
     0
290
     0
174
     0
 93
       13
 44
0.0
173
     0
291
     1
 45
0.0
1001
ACAD
1000
AcDbSavedByObjectVersion
1070
     0
  0
VISUALSTYLE
  5
2C
102
{ACAD_REACTORS
330
2A
102
}
330
2A
100
AcDbVisualStyle
  2
FlatWithEdges
 70
     1
 71
     2
 72
     1
 73
     1
 90
        2
 40
-0.6
 41
30.0
 62
     5
 63
     7
 74
     1
 91
        4
 64
     7
 65
   257
 75
     1
175
     1
 42
1.0
 92
        0
 66
   257
 43
1.0
 76
     1
 77
     6
 78
     2
 67
     7
 79
     5
170
     0
171
     0
290
     0
174
     0
 93
       13
 44
0.0
173
     0
291
     1
 45
0.0
1001
ACAD
1000
AcDbSavedByObjectVersion
1070
     0
  0
VISUALSTYLE
  5
2D
102
{ACAD_REACTORS
330
2A
102
}
330
2A
100
AcDbVisualStyle
  2
Gouraud
 70
     2
 71
     2
 72
     2
 73
     1
 90
        2
 40
-0.6
 41
30.0
 62
     5
 63
     7
 74
     0
 91
        4
 64
     7
 65
   257
 75
     1
175
     1
 42
1.0
 92
        0
 66
     7
 43
1.0
 76
     1
 77
     6
 78
     2
 67
     7
 79
     5
170
     0
171
     0
290
     0
174
     0
 93
       13
 44
0.0
173
     0
291
     1
 45
0.0
1001
ACAD
1000
AcDbSavedByObjectVersion
1070
     0
  0
VISUALSTYLE
  5
2E
102
{ACAD_REACTORS
330
2A
102
}
330
2A
100
AcDbVisualStyle
  2
GouraudWithEdges
 70
     3
 71
     2
 72
     2
 73
     1
 90
        2
 40
-0.6
 41
30.0
 62
     5
 63
     7
 74
     1
 91
        4
 64
     7
 65
   257
 75
     1
175
     1
 42
1.0
 92
        0
 66
   257
 43
1.0
 76
     1
 77
     6
 78
     2
 67
     7
 79
     5
170
     0
171
     0
290
     0
174
     0
 93
       13
 44
0.0
173
     0
291
     1
 45
0.0
1001
ACAD
1000
AcDbSavedByObjectVersion
1070
     0
  0
VISUALSTYLE
  5
38
102
{ACAD_REACTORS
330
2A
102
}
330
2A
100
AcDbVisualStyle
  2
Linepattern
 70
    14
 71
     2
 72
     2
 73
     0
 90
        0
 40
-0.6
 41
-30.0
 62
     5
 63
     7
 74
     1
 91
        4
 64
     7
 65
   257
 75
     7
175
     7
 42
1.0
 92
        8
 66
     7
 43
1.0
 76
     1
 77
     6
 78
     2
 67
     7
 79
     5
170
     0
171
     0
290
     0
174
     0
 93
        1
 44
0.0
173
     0
291
     1
 45
0.0
1001
ACAD
1000
AcDbSavedByObjectVersion
1070
     0
  0
VISUALSTYLE
  5
33
102
{ACAD_REACTORS
330
2A
102
}
330
2A
100
AcDbVisualStyle
  2
Realistic
 70
     8
 71
     2
 72
     2
 73
     0
 90
        0
 40
-0.6
 41
-30.0
 62
     5
 63
     7
 74
     1
 91
        0
 64
     7
 65
   257
 75
     1
175
     1
 42
1.0
 92
        8
 66
     8
 43
1.0
 76
     1
 77
     6
 78
     2
 67
     7
 79
     5
170
     0
171
     0
290
     0
174
     0
 93
       13
 44
0.0
173
     0
291
     0
 45
0.0
1001
ACAD
1000
AcDbSavedByObjectVersion
1070
     0
  0
VISUALSTYLE
  5
37
102
{ACAD_REACTORS
330
2A
102
}
330
2A
100
AcDbVisualStyle
  2
Thicken
 70
    13
 71
     2
 72
     2
 73
     0
 90
        0
 40
-0.6
 41
-30.0
 62
     5
 63
     7
 74
     1
 91
        4
 64
     7
 65
   257
 75
     1
175
     1
 42
1.0
 92
       12
 66
     7
 43
1.0
 76
     1
 77
     6
 78
     2
 67
     7
 79
     5
170
     0
171
     0
290
     0
174
     0
 93
        1
 44
0.0
173
     0
291
     1
 45
0.0
1001
ACAD
1000
AcDbSavedByObjectVersion
1070
     0
  0
DICTIONARYVAR
  5
357
102
{ACAD_REACTORS
330
356
102
}
330
356
100
DictionaryVariables
280
     0
  1
1:1
  0
DICTIONARYVAR
  5
35B
102
{ACAD_REACTORS
330
356
102
}
330
356
100
DictionaryVariables
280
     0
  1
80.000000
  0
DICTIONARYVAR
  5
35A
102
{ACAD_REACTORS
330
356
102
}
330
356
100
DictionaryVariables
280
     0
  1
5.000000
  0
ENDSEC
  0
EOF
