  0
SECTION
  2
HEADER
  9
$ACADVER
  1
AC1015
  9
$ACADMAINTVER
 70
     6
  9
$DWGCODEPAGE
  3
ANSI_932
  9
$INSBASE
 10
0.0
 20
0.0
 30
0.0
  9
$EXTMIN
 10
17.184479
 20
9.092392
 30
0.0
  9
$EXTMAX
 10
198.725784
 20
162.658203
 30
0.0
  9
$LIMMIN
 10
0.0
 20
0.0
  9
$LIMMAX
 10
12.0
 20
9.0
  9
$ORTHOMODE
 70
     0
  9
$REGENMODE
 70
     1
  9
$FILLMODE
 70
     1
  9
$QTEXTMODE
 70
     0
  9
$MIRRTEXT
 70
     1
  9
$LTSCALE
 40
2.377808
  9
$ATTMODE
 70
     1
  9
$TEXTSIZE
 40
3.2
  9
$TRACEWID
 40
1.0
  9
$TEXTSTYLE
  7
Standard
  9
$CLAYER
  8
0
  9
$CELTYPE
  6
ByLayer
  9
$CECOLOR
 62
   256
  9
$CELTSCALE
 40
1.0
  9
$DISPSILH
 70
     0
  9
$DIMSCALE
 40
1.0
  9
$DIMASZ
 40
2.5
  9
$DIMEXO
 40
0.625
  9
$DIMDLI
 40
3.75
  9
$DIMRND
 40
0.0
  9
$DIMDLE
 40
0.0
  9
$DIMEXE
 40
1.25
  9
$DIMTP
 40
0.0
  9
$DIMTM
 40
0.0
  9
$DIMTXT
 40
2.5
  9
$DIMCEN
 40
0.09
  9
$DIMTSZ
 40
0.0
  9
$DIMTOL
 70
     0
  9
$DIMLIM
 70
     0
  9
$DIMTIH
 70
     0
  9
$DIMTOH
 70
     0
  9
$DIMSE1
 70
     0
  9
$DIMSE2
 70
     0
  9
$DIMTAD
 70
     0
  9
$DIMZIN
 70
     8
  9
$DIMBLK
  1

  9
$DIMASO
 70
     1
  9
$DIMSHO
 70
     0
  9
$DIMPOST
  1

  9
$DIMAPOST
  1

  9
$DIMALT
 70
     0
  9
$DIMALTD
 70
     3
  9
$DIMALTF
 40
0.03937
  9
$DIMLFAC
 40
1.0
  9
$DIMTOFL
 70
     1
  9
$DIMTVP
 40
0.0
  9
$DIMTIX
 70
     0
  9
$DIMSOXD
 70
     0
  9
$DIMSAH
 70
     0
  9
$DIMBLK1
  1

  9
$DIMBLK2
  1

  9
$DIMSTYLE
  2
ISO-25
  9
$DIMCLRD
 70
     0
  9
$DIMCLRE
 70
     0
  9
$DIMCLRT
 70
     0
  9
$DIMTFAC
 40
1.0
  9
$DIMGAP
 40
0.625
  9
$DIMJUST
 70
     0
  9
$DIMSD1
 70
     0
  9
$DIMSD2
 70
     0
  9
$DIMTOLJ
 70
     0
  9
$DIMTZIN
 70
     8
  9
$DIMALTZ
 70
     0
  9
$DIMALTTZ
 70
     0
  9
$DIMUPT
 70
     0
  9
$DIMDEC
 70
     2
  9
$DIMTDEC
 70
     2
  9
$DIMALTU
 70
     2
  9
$DIMALTTD
 70
     3
  9
$DIMTXSTY
  7
Standard
  9
$DIMAUNIT
 70
     0
  9
$DIMADEC
 70
     0
  9
$DIMALTRND
 40
0.0
  9
$DIMAZIN
 70
     0
  9
$DIMDSEP
 70
    44
  9
$DIMATFIT
 70
     3
  9
$DIMFRAC
 70
     0
  9
$DIMLDRBLK
  1

  9
$DIMLUNIT
 70
     2
  9
$DIMLWD
 70
    -2
  9
$DIMLWE
 70
    -2
  9
$DIMTMOVE
 70
     0
  9
$LUNITS
 70
     2
  9
$LUPREC
 70
     4
  9
$SKETCHINC
 40
1.0
  9
$FILLETRAD
 40
0.0
  9
$AUNITS
 70
     0
  9
$AUPREC
 70
     0
  9
$MENU
  1
.
  9
$ELEVATION
 40
0.0
  9
$PELEVATION
 40
0.0
  9
$THICKNESS
 40
0.0
  9
$LIMCHECK
 70
     0
  9
$CHAMFERA
 40
10.0
  9
$CHAMFERB
 40
10.0
  9
$CHAMFERC
 40
20.0
  9
$CHAMFERD
 40
0.0
  9
$SKPOLY
 70
     0
  9
$TDCREATE
 40
2455356.490613426
  9
$TDUCREATE
 40
2455356.115613426
  9
$TDUPDATE
 40
2455356.490613438
  9
$TDUUPDATE
 40
2455356.115613438
  9
$TDINDWG
 40
0.0000000116
  9
$TDUSRTIMER
 40
0.0000000116
  9
$USRTIMER
 70
     1
  9
$ANGBASE
 50
0.0
  9
$ANGDIR
 70
     0
  9
$PDMODE
 70
     0
  9
$PDSIZE
 40
0.0
  9
$PLINEWID
 40
0.0
  9
$SPLFRAME
 70
     0
  9
$SPLINETYPE
 70
     6
  9
$SPLINESEGS
 70
     8
  9
$HANDSEED
  5
2D0
  9
$SURFTAB1
 70
     6
  9
$SURFTAB2
 70
     6
  9
$SURFTYPE
 70
     6
  9
$SURFU
 70
     6
  9
$SURFV
 70
     6
  9
$UCSBASE
  2

  9
$UCSNAME
  2

  9
$UCSORG
 10
0.0
 20
0.0
 30
0.0
  9
$UCSXDIR
 10
1.0
 20
0.0
 30
0.0
  9
$UCSYDIR
 10
0.0
 20
1.0
 30
0.0
  9
$UCSORTHOREF
  2

  9
$UCSORTHOVIEW
 70
     0
  9
$UCSORGTOP
 10
0.0
 20
0.0
 30
0.0
  9
$UCSORGBOTTOM
 10
0.0
 20
0.0
 30
0.0
  9
$UCSORGLEFT
 10
0.0
 20
0.0
 30
0.0
  9
$UCSORGRIGHT
 10
0.0
 20
0.0
 30
0.0
  9
$UCSORGFRONT
 10
0.0
 20
0.0
 30
0.0
  9
$UCSORGBACK
 10
0.0
 20
0.0
 30
0.0
  9
$PUCSBASE
  2

  9
$PUCSNAME
  2

  9
$PUCSORG
 10
0.0
 20
0.0
 30
0.0
  9
$PUCSXDIR
 10
1.0
 20
0.0
 30
0.0
  9
$PUCSYDIR
 10
0.0
 20
1.0
 30
0.0
  9
$PUCSORTHOREF
  2

  9
$PUCSORTHOVIEW
 70
     0
  9
$PUCSORGTOP
 10
0.0
 20
0.0
 30
0.0
  9
$PUCSORGBOTTOM
 10
0.0
 20
0.0
 30
0.0
  9
$PUCSORGLEFT
 10
0.0
 20
0.0
 30
0.0
  9
$PUCSORGRIGHT
 10
0.0
 20
0.0
 30
0.0
  9
$PUCSORGFRONT
 10
0.0
 20
0.0
 30
0.0
  9
$PUCSORGBACK
 10
0.0
 20
0.0
 30
0.0
  9
$USERI1
 70
     0
  9
$USERI2
 70
     0
  9
$USERI3
 70
     0
  9
$USERI4
 70
     0
  9
$USERI5
 70
     0
  9
$USERR1
 40
0.0
  9
$USERR2
 40
0.0
  9
$USERR3
 40
0.0
  9
$USERR4
 40
0.0
  9
$USERR5
 40
0.0
  9
$WORLDVIEW
 70
     1
  9
$SHADEDGE
 70
     3
  9
$SHADEDIF
 70
    70
  9
$TILEMODE
 70
     1
  9
$MAXACTVP
 70
    64
  9
$PINSBASE
 10
0.0
 20
0.0
 30
0.0
  9
$PLIMCHECK
 70
     0
  9
$PEXTMIN
 10
1.000000E+20
 20
1.000000E+20
 30
0.0
  9
$PEXTMAX
 10
-1.000000E+20
 20
-1.000000E+20
 30
0.0
  9
$PLIMMIN
 10
0.0
 20
0.0
  9
$PLIMMAX
 10
12.0
 20
9.0
  9
$UNITMODE
 70
     0
  9
$VISRETAIN
 70
     1
  9
$PLINEGEN
 70
     0
  9
$PSLTSCALE
 70
     1
  9
$TREEDEPTH
 70
  3020
  9
$CMLSTYLE
  2
Standard
  9
$CMLJUST
 70
     0
  9
$CMLSCALE
 40
20.0
  9
$PROXYGRAPHICS
 70
     1
  9
$MEASUREMENT
 70
     1
  9
$CELWEIGHT
370
    -1
  9
$ENDCAPS
280
     0
  9
$JOINSTYLE
280
     0
  9
$LWDISPLAY
290
     0
  9
$INSUNITS
 70
     4
  9
$HYPERLINKBASE
  1

  9
$STYLESHEET
  1

  9
$XEDIT
290
     1
  9
$CEPSNTYPE
380
     0
  9
$PSTYLEMODE
290
     1
  9
$FINGERPRINTGUID
  2
{B9F09727-2867-404D-8B6E-EE27628883E9}
  9
$VERSIONGUID
  2
{FAEB1C32-E019-11D5-929B-00C0DF256EC4}
  9
$EXTNAMES
290
     1
  9
$PSVPSCALE
 40
0.0
  9
$OLESTARTUP
290
     0
  0
ENDSEC
  0
SECTION
  2
CLASSES
  0
CLASS
  1
ACDBDICTIONARYWDFLT
  2
AcDbDictionaryWithDefault
  3
ObjectDBX Classes
 90
        0
280
     0
281
     0
  0
CLASS
  1
VISUALSTYLE
  2
AcDbVisualStyle
  3
ObjectDBX Classes
 90
     4095
280
     0
281
     0
  0
CLASS
  1
SCALE
  2
AcDbScale
  3
ObjectDBX Classes
 90
     1153
280
     0
281
     0
  0
CLASS
  1
DICTIONARYVAR
  2
AcDbDictionaryVar
  3
ObjectDBX Classes
 90
        0
280
     0
281
     0
  0
CLASS
  1
ACDBPLACEHOLDER
  2
AcDbPlaceHolder
  3
ObjectDBX Classes
 90
        0
280
     0
281
     0
  0
CLASS
  1
LAYOUT
  2
AcDbLayout
  3
ObjectDBX Classes
 90
        0
280
     0
281
     0
  0
ENDSEC
  0
SECTION
  2
TABLES
  0
TABLE
  2
VPORT
  5
8
330
0
100
AcDbSymbolTable
 70
     1
  0
VPORT
  5
29
330
8
100
AcDbSymbolTableRecord
100
AcDbViewportTableRecord
  2
*Active
 70
     0
 10
0.0
 20
0.0
 11
1.0
 21
1.0
 12
107.955132
 22
85.875298
 13
0.0
 23
0.0
 14
1.0
 24
1.0
 15
0.0
 25
0.0
 16
0.0
 26
0.0
 36
1.0
 17
0.0
 27
0.0
 37
0.0
 40
155.101469
 41
1.691288
 42
50.0
 43
0.0
 44
0.0
 50
0.0
 51
0.0
 71
     0
 72
   100
 73
     1
 74
     3
 75
     0
 76
     0
 77
     0
 78
     0
281
     0
 65
     1
110
0.0
120
0.0
130
0.0
111
1.0
121
0.0
131
0.0
112
0.0
122
1.0
132
0.0
 79
     0
146
0.0
  0
ENDTAB
  0
TABLE
  2
LTYPE
  5
5
330
0
100
AcDbSymbolTable
 70
     5
  0
LTYPE
  5
14
330
5
100
AcDbSymbolTableRecord
100
AcDbLinetypeTableRecord
  2
ByBlock
 70
     0
  3

 72
    65
 73
     0
 40
0.0
  0
LTYPE
  5
15
330
5
100
AcDbSymbolTableRecord
100
AcDbLinetypeTableRecord
  2
ByLayer
 70
     0
  3

 72
    65
 73
     0
 40
0.0
  0
LTYPE
  5
16
330
5
100
AcDbSymbolTableRecord
100
AcDbLinetypeTableRecord
  2
Continuous
 70
     0
  3
Solid line
 72
    65
 73
     0
 40
0.0
  0
LTYPE
  5
5D
330
5
100
AcDbSymbolTableRecord
100
AcDbLinetypeTableRecord
  2
DASHED
 70
     0
  3
DASHED
 72
    83
 73
     2
 40
0.75
 49
0.5
 74
     0
 49
-0.25
 74
     0
  0
LTYPE
  5
5E
330
5
100
AcDbSymbolTableRecord
100
AcDbLinetypeTableRecord
  2
HIDDEN
 70
     0
  3
HIDDEN
 72
    83
 73
     2
 40
0.375
 49
0.25
 74
     0
 49
-0.125
 74
     0
  0
LTYPE
  5
5F
330
5
100
AcDbSymbolTableRecord
100
AcDbLinetypeTableRecord
  2
CENTER
 70
     0
  3
CENTER
 72
    83
 73
     4
 40
2.0
 49
1.25
 74
     0
 49
-0.25
 74
     0
 49
0.25
 74
     0
 49
-0.25
 74
     0
  0
LTYPE
  5
60
330
5
100
AcDbSymbolTableRecord
100
AcDbLinetypeTableRecord
  2
PHANTOM
 70
     0
  3
PHANTOM
 72
    83
 73
     6
 40
2.5
 49
1.25
 74
     0
 49
-0.25
 74
     0
 49
0.25
 74
     0
 49
-0.25
 74
     0
 49
0.25
 74
     0
 49
-0.25
 74
     0
  0
ENDTAB
  0
TABLE
  2
LAYER
  5
2
330
0
100
AcDbSymbolTable
 70
     2
  0
LAYER
  5
10
330
2
100
AcDbSymbolTableRecord
100
AcDbLayerTableRecord
  2
0
 70
     0
 62
     7
  6
Continuous
370
    -3
390
F
  0
LAYER
  5
61
330
2
100
AcDbSymbolTableRecord
100
AcDbLayerTableRecord
  2
001
 70
     0
 62
     7
  6
Continuous
370
    -3
390
F
  0
ENDTAB
  0
TABLE
  2
STYLE
  5
3
330
0
100
AcDbSymbolTable
 70
     2
  0
STYLE
  5
11
330
3
100
AcDbSymbolTableRecord
100
AcDbTextStyleTableRecord
  2
Standard
 70
     0
 40
0.0
 41
1.0
 50
0.0
 71
     0
 42
0.2
  3
TXT
  4
BIGFONT
  0
STYLE
  5
62
330
3
100
AcDbSymbolTableRecord
100
AcDbTextStyleTableRecord
  2
TATEGAKI
 70
     4
 40
1.0
 41
1.0
 50
0.0
 71
     0
 42
0.2
  3
TXT
  4
BIGFONT
  0
ENDTAB
  0
TABLE
  2
VIEW
  5
6
330
0
100
AcDbSymbolTable
 70
     0
  0
ENDTAB
  0
TABLE
  2
UCS
  5
7
330
0
100
AcDbSymbolTable
 70
     0
  0
ENDTAB
  0
TABLE
  2
APPID
  5
9
330
0
100
AcDbSymbolTable
 70
     1
  0
APPID
  5
12
330
9
100
AcDbSymbolTableRecord
100
AcDbRegAppTableRecord
  2
ACAD
 70
     0
  0
ENDTAB
  0
TABLE
  2
DIMSTYLE
  5
A
330
0
100
AcDbSymbolTable
 70
     2
100
AcDbDimStyleTable
  0
DIMSTYLE
105
27
330
A
100
AcDbSymbolTableRecord
100
AcDbDimStyleTableRecord
  2
ISO-25
 70
     0
 41
2.5
 42
0.625
 43
3.75
 44
1.25
 73
     0
 74
     0
 77
     1
 78
     8
140
2.5
141
2.5
143
0.03937
147
0.625
171
     3
172
     1
271
     2
272
     2
274
     3
278
    44
283
     0
284
     8
340
11
  0
DIMSTYLE
105
63
102
{ACAD_REACTORS
330
B4
330
B5
330
B6
330
C3
102
}
330
A
100
AcDbSymbolTableRecord
100
AcDbDimStyleTableRecord
  2
Standard
 70
     0
 41
1.5
 42
0.0
 44
2.75
 73
     0
 74
     0
 77
     1
 78
     8
 79
     2
140
4.0
146
0.8
147
1.0
172
     1
179
     1
271
     1
340
11
  0
ENDTAB
  0
TABLE
  2
BLOCK_RECORD
  5
1
330
0
100
AcDbSymbolTable
 70
     5
  0
BLOCK_RECORD
  5
1F
330
1
100
AcDbSymbolTableRecord
100
AcDbBlockTableRecord
  2
*Model_Space
340
22
  0
BLOCK_RECORD
  5
1B
330
1
100
AcDbSymbolTableRecord
100
AcDbBlockTableRecord
  2
*Paper_Space
340
1E
  0
BLOCK_RECORD
  5
23
330
1
100
AcDbSymbolTableRecord
100
AcDbBlockTableRecord
  2
*Paper_Space0
340
26
  0
BLOCK_RECORD
  5
64
330
1
100
AcDbSymbolTableRecord
100
AcDbBlockTableRecord
  2
*D1
340
0
  0
BLOCK_RECORD
  5
78
330
1
100
AcDbSymbolTableRecord
100
AcDbBlockTableRecord
  2
*D2
340
0
  0
BLOCK_RECORD
  5
8C
330
1
100
AcDbSymbolTableRecord
100
AcDbBlockTableRecord
  2
*D3
340
0
  0
BLOCK_RECORD
  5
A0
330
1
100
AcDbSymbolTableRecord
100
AcDbBlockTableRecord
  2
*D4
340
0
  0
ENDTAB
  0
ENDSEC
  0
SECTION
  2
BLOCKS
  0
BLOCK
  5
20
330
1F
100
AcDbEntity
  8
0
100
AcDbBlockBegin
  2
*Model_Space
 70
     0
 10
0.0
 20
0.0
 30
0.0
  3
*Model_Space
  1

  0
ENDBLK
  5
21
330
1F
100
AcDbEntity
  8
0
100
AcDbBlockEnd
  0
BLOCK
  5
1C
330
1B
100
AcDbEntity
 67
     1
  8
0
100
AcDbBlockBegin
  2
*Paper_Space
 70
     0
 10
0.0
 20
0.0
 30
0.0
  3
*Paper_Space
  1

  0
ENDBLK
  5
1D
330
1B
100
AcDbEntity
 67
     1
  8
0
100
AcDbBlockEnd
  0
BLOCK
  5
24
330
23
100
AcDbEntity
  8
0
100
AcDbBlockBegin
  2
*Paper_Space0
 70
     0
 10
0.0
 20
0.0
 30
0.0
  3
*Paper_Space0
  1

  0
ENDBLK
  5
25
330
23
100
AcDbEntity
  8
0
100
AcDbBlockEnd
  0
BLOCK
  5
65
330
64
100
AcDbEntity
  8
0
100
AcDbBlockBegin
  2
*D1
 70
     1
 10
0.0
 20
0.0
 30
0.0
  3
*D1
  1

  0
LINE
  5
67
330
64
100
AcDbEntity
  8
001
370
     9
100
AcDbLine
 10
46.04674
 20
44.453904
 30
0.0
 11
46.04674
 21
21.381811
 31
0.0
  0
LINE
  5
68
330
64
100
AcDbEntity
  8
001
370
     9
100
AcDbLine
 10
89.546422
 20
69.670145
 30
0.0
 11
89.546422
 21
21.381811
 31
0.0
  0
LINE
  5
69
330
64
100
AcDbEntity
  8
001
370
     9
100
AcDbLine
 10
46.04674
 20
24.131811
 30
0.0
 11
89.546422
 21
24.131811
 31
0.0
  0
POLYLINE
  5
6A
330
64
100
AcDbEntity
  8
001
370
     9
100
AcDb2dPolyline
 66
     1
 10
0.0
 20
0.0
 30
0.0
  0
VERTEX
  5
6C
330
6A
100
AcDbEntity
  8
001
370
     9
100
AcDbVertex
100
AcDb2dVertex
 10
47.54674
 20
23.729888
 30
0.0
  0
VERTEX
  5
6D
330
6A
100
AcDbEntity
  8
001
370
     9
100
AcDbVertex
100
AcDb2dVertex
 10
46.04674
 20
24.131811
 30
0.0
  0
VERTEX
  5
6E
330
6A
100
AcDbEntity
  8
001
370
     9
100
AcDbVertex
100
AcDb2dVertex
 10
47.54674
 20
24.533735
 30
0.0
  0
SEQEND
  5
6B
330
6A
100
AcDbEntity
  8
001
370
     9
  0
POLYLINE
  5
6F
330
64
100
AcDbEntity
  8
001
370
     9
100
AcDb2dPolyline
 66
     1
 10
0.0
 20
0.0
 30
0.0
  0
VERTEX
  5
71
330
6F
100
AcDbEntity
  8
001
370
     9
100
AcDbVertex
100
AcDb2dVertex
 10
88.046422
 20
24.533735
 30
0.0
  0
VERTEX
  5
72
330
6F
100
AcDbEntity
  8
001
370
     9
100
AcDbVertex
100
AcDb2dVertex
 10
89.546422
 20
24.131811
 30
0.0
  0
VERTEX
  5
73
330
6F
100
AcDbEntity
  8
001
370
     9
100
AcDbVertex
100
AcDb2dVertex
 10
88.046422
 20
23.729888
 30
0.0
  0
SEQEND
  5
70
330
6F
100
AcDbEntity
  8
001
370
     9
  0
TEXT
  5
74
330
64
100
AcDbEntity
  8
001
370
    30
100
AcDbText
 10
59.796581
 20
25.131811
 30
0.0
 40
4.0
  1
４３．５
 41
0.833333
100
AcDbText
  0
POINT
  5
75
330
64
100
AcDbEntity
  8
001
370
     9
100
AcDbPoint
 10
46.04674
 20
44.453904
 30
0.0
  0
POINT
  5
76
330
64
100
AcDbEntity
  8
001
370
     9
100
AcDbPoint
 10
89.546422
 20
69.670145
 30
0.0
  0
POINT
  5
77
330
64
100
AcDbEntity
  8
001
370
     9
100
AcDbPoint
 10
89.546422
 20
24.131811
 30
0.0
  0
ENDBLK
  5
66
330
64
100
AcDbEntity
  8
0
100
AcDbBlockEnd
  0
BLOCK
  5
79
330
78
100
AcDbEntity
  8
0
100
AcDbBlockBegin
  2
*D2
 70
     1
 10
0.0
 20
0.0
 30
0.0
  3
*D2
  1

  0
LINE
  5
7B
330
78
100
AcDbEntity
  8
001
370
     9
100
AcDbLine
 10
89.546422
 20
69.670145
 30
0.0
 11
89.546422
 21
21.381811
 31
0.0
  0
LINE
  5
7C
330
78
100
AcDbEntity
  8
001
370
     9
100
AcDbLine
 10
169.546422
 20
90.670145
 30
0.0
 11
169.546422
 21
21.381811
 31
0.0
  0
LINE
  5
7D
330
78
100
AcDbEntity
  8
001
370
     9
100
AcDbLine
 10
89.546422
 20
24.131811
 30
0.0
 11
169.546422
 21
24.131811
 31
0.0
  0
POLYLINE
  5
7E
330
78
100
AcDbEntity
  8
001
370
     9
100
AcDb2dPolyline
 66
     1
 10
0.0
 20
0.0
 30
0.0
  0
VERTEX
  5
80
330
7E
100
AcDbEntity
  8
001
370
     9
100
AcDbVertex
100
AcDb2dVertex
 10
91.046422
 20
23.729888
 30
0.0
  0
VERTEX
  5
81
330
7E
100
AcDbEntity
  8
001
370
     9
100
AcDbVertex
100
AcDb2dVertex
 10
89.546422
 20
24.131811
 30
0.0
  0
VERTEX
  5
82
330
7E
100
AcDbEntity
  8
001
370
     9
100
AcDbVertex
100
AcDb2dVertex
 10
91.046422
 20
24.533735
 30
0.0
  0
SEQEND
  5
7F
330
7E
100
AcDbEntity
  8
001
370
     9
  0
POLYLINE
  5
83
330
78
100
AcDbEntity
  8
001
370
     9
100
AcDb2dPolyline
 66
     1
 10
0.0
 20
0.0
 30
0.0
  0
VERTEX
  5
85
330
83
100
AcDbEntity
  8
001
370
     9
100
AcDbVertex
100
AcDb2dVertex
 10
168.046422
 20
24.533735
 30
0.0
  0
VERTEX
  5
86
330
83
100
AcDbEntity
  8
001
370
     9
100
AcDbVertex
100
AcDb2dVertex
 10
169.546422
 20
24.131811
 30
0.0
  0
VERTEX
  5
87
330
83
100
AcDbEntity
  8
001
370
     9
100
AcDbVertex
100
AcDb2dVertex
 10
168.046422
 20
23.729888
 30
0.0
  0
SEQEND
  5
84
330
83
100
AcDbEntity
  8
001
370
     9
  0
TEXT
  5
88
330
78
100
AcDbEntity
  8
001
370
    30
100
AcDbText
 10
125.546422
 20
25.131811
 30
0.0
 40
4.0
  1
８０
 41
0.833333
100
AcDbText
  0
POINT
  5
89
330
78
100
AcDbEntity
  8
001
370
     9
100
AcDbPoint
 10
89.546422
 20
69.670145
 30
0.0
  0
POINT
  5
8A
330
78
100
AcDbEntity
  8
001
370
     9
100
AcDbPoint
 10
169.546422
 20
90.670145
 30
0.0
  0
POINT
  5
8B
330
78
100
AcDbEntity
  8
001
370
     9
100
AcDbPoint
 10
169.546422
 20
24.131811
 30
0.0
  0
ENDBLK
  5
7A
330
78
100
AcDbEntity
  8
0
100
AcDbBlockEnd
  0
BLOCK
  5
8D
330
8C
100
AcDbEntity
  8
0
100
AcDbBlockBegin
  2
*D3
 70
     1
 10
0.0
 20
0.0
 30
0.0
  3
*D3
  1

  0
LINE
  5
8F
330
8C
100
AcDbEntity
  8
001
370
     9
100
AcDbLine
 10
46.04674
 20
44.45366
 30
0.0
 11
46.04674
 21
9.092398
 31
0.0
  0
LINE
  5
90
330
8C
100
AcDbEntity
  8
001
370
     9
100
AcDbLine
 10
169.546422
 20
90.670145
 30
0.0
 11
169.546422
 21
9.092398
 31
0.0
  0
LINE
  5
91
330
8C
100
AcDbEntity
  8
001
370
     9
100
AcDbLine
 10
46.04674
 20
11.842398
 30
0.0
 11
169.546422
 21
11.842398
 31
0.0
  0
POLYLINE
  5
92
330
8C
100
AcDbEntity
  8
001
370
     9
100
AcDb2dPolyline
 66
     1
 10
0.0
 20
0.0
 30
0.0
  0
VERTEX
  5
94
330
92
100
AcDbEntity
  8
001
370
     9
100
AcDbVertex
100
AcDb2dVertex
 10
47.54674
 20
11.440475
 30
0.0
  0
VERTEX
  5
95
330
92
100
AcDbEntity
  8
001
370
     9
100
AcDbVertex
100
AcDb2dVertex
 10
46.04674
 20
11.842398
 30
0.0
  0
VERTEX
  5
96
330
92
100
AcDbEntity
  8
001
370
     9
100
AcDbVertex
100
AcDb2dVertex
 10
47.54674
 20
12.244322
 30
0.0
  0
SEQEND
  5
93
330
92
100
AcDbEntity
  8
001
370
     9
  0
POLYLINE
  5
97
330
8C
100
AcDbEntity
  8
001
370
     9
100
AcDb2dPolyline
 66
     1
 10
0.0
 20
0.0
 30
0.0
  0
VERTEX
  5
99
330
97
100
AcDbEntity
  8
001
370
     9
100
AcDbVertex
100
AcDb2dVertex
 10
168.046422
 20
12.244322
 30
0.0
  0
VERTEX
  5
9A
330
97
100
AcDbEntity
  8
001
370
     9
100
AcDbVertex
100
AcDb2dVertex
 10
169.546422
 20
11.842398
 30
0.0
  0
VERTEX
  5
9B
330
97
100
AcDbEntity
  8
001
370
     9
100
AcDbVertex
100
AcDb2dVertex
 10
168.046422
 20
11.440475
 30
0.0
  0
SEQEND
  5
98
330
97
100
AcDbEntity
  8
001
370
     9
  0
TEXT
  5
9C
330
8C
100
AcDbEntity
  8
001
370
    30
100
AcDbText
 10
97.796581
 20
12.842398
 30
0.0
 40
4.0
  1
１２３．５
 41
0.833333
100
AcDbText
  0
POINT
  5
9D
330
8C
100
AcDbEntity
  8
001
370
     9
100
AcDbPoint
 10
46.04674
 20
44.45366
 30
0.0
  0
POINT
  5
9E
330
8C
100
AcDbEntity
  8
001
370
     9
100
AcDbPoint
 10
169.546422
 20
90.670145
 30
0.0
  0
POINT
  5
9F
330
8C
100
AcDbEntity
  8
001
370
     9
100
AcDbPoint
 10
169.546422
 20
11.842398
 30
0.0
  0
ENDBLK
  5
8E
330
8C
100
AcDbEntity
  8
0
100
AcDbBlockEnd
  0
BLOCK
  5
A1
330
A0
100
AcDbEntity
  8
0
100
AcDbBlockBegin
  2
*D4
 70
     1
 10
0.0
 20
0.0
 30
0.0
  3
*D4
  1

  0
LINE
  5
A3
330
A0
100
AcDbEntity
  8
001
370
     9
100
AcDbLine
 10
161.546422
 20
114.670145
 30
0.0
 11
198.725783
 21
114.670145
 31
0.0
  0
LINE
  5
A4
330
A0
100
AcDbEntity
  8
001
370
     9
100
AcDbLine
 10
161.546422
 20
82.670145
 30
0.0
 11
198.725783
 21
82.670145
 31
0.0
  0
LINE
  5
A5
330
A0
100
AcDbEntity
  8
001
370
     9
100
AcDbLine
 10
195.975783
 20
114.670145
 30
0.0
 11
195.975783
 21
82.670145
 31
0.0
  0
POLYLINE
  5
A6
330
A0
100
AcDbEntity
  8
001
370
     9
100
AcDb2dPolyline
 66
     1
 10
0.0
 20
0.0
 30
0.0
  0
VERTEX
  5
A8
330
A6
100
AcDbEntity
  8
001
370
     9
100
AcDbVertex
100
AcDb2dVertex
 10
195.573859
 20
113.170145
 30
0.0
  0
VERTEX
  5
A9
330
A6
100
AcDbEntity
  8
001
370
     9
100
AcDbVertex
100
AcDb2dVertex
 10
195.975783
 20
114.670145
 30
0.0
  0
VERTEX
  5
AA
330
A6
100
AcDbEntity
  8
001
370
     9
100
AcDbVertex
100
AcDb2dVertex
 10
196.377707
 20
113.170145
 30
0.0
  0
SEQEND
  5
A7
330
A6
100
AcDbEntity
  8
001
370
     9
  0
POLYLINE
  5
AB
330
A0
100
AcDbEntity
  8
001
370
     9
100
AcDb2dPolyline
 66
     1
 10
0.0
 20
0.0
 30
0.0
  0
VERTEX
  5
AD
330
AB
100
AcDbEntity
  8
001
370
     9
100
AcDbVertex
100
AcDb2dVertex
 10
196.377707
 20
84.170145
 30
0.0
  0
VERTEX
  5
AE
330
AB
100
AcDbEntity
  8
001
370
     9
100
AcDbVertex
100
AcDb2dVertex
 10
195.975783
 20
82.670145
 30
0.0
  0
VERTEX
  5
AF
330
AB
100
AcDbEntity
  8
001
370
     9
100
AcDbVertex
100
AcDb2dVertex
 10
195.573859
 20
84.170145
 30
0.0
  0
SEQEND
  5
AC
330
AB
100
AcDbEntity
  8
001
370
     9
  0
TEXT
  5
B0
330
A0
100
AcDbEntity
  8
001
370
    30
100
AcDbText
 10
194.975783
 20
92.670145
 30
0.0
 40
4.0
  1
%%c３２
 50
90.000003
 41
0.882353
100
AcDbText
  0
POINT
  5
B1
330
A0
100
AcDbEntity
  8
001
370
     9
100
AcDbPoint
 10
161.546422
 20
114.670145
 30
0.0
  0
POINT
  5
B2
330
A0
100
AcDbEntity
  8
001
370
     9
100
AcDbPoint
 10
161.546422
 20
82.670145
 30
0.0
  0
POINT
  5
B3
330
A0
100
AcDbEntity
  8
001
370
     9
100
AcDbPoint
 10
195.975783
 20
82.670145
 30
0.0
  0
ENDBLK
  5
A2
330
A0
100
AcDbEntity
  8
0
100
AcDbBlockEnd
  0
ENDSEC
  0
SECTION
  2
ENTITIES
  0
DIMENSION
  5
B4
330
1F
100
AcDbEntity
  8
001
370
     9
100
AcDbDimension
  2
*D1
 10
89.546422
 20
24.131811
 30
0.0
 11
67.796581
 21
27.131811
 31
0.0
 70
   160
 71
     5
 42
-1.0
  3
Standard
100
AcDbAlignedDimension
 13
46.04674
 23
44.453904
 33
0.0
 14
89.546422
 24
69.670145
 34
0.0
100
AcDbRotatedDimension
  0
DIMENSION
  5
B5
330
1F
100
AcDbEntity
  8
001
370
     9
100
AcDbDimension
  2
*D2
 10
169.546422
 20
24.131811
 30
0.0
 11
129.546422
 21
27.131811
 31
0.0
 70
   160
 71
     5
 42
-1.0
  3
Standard
100
AcDbAlignedDimension
 13
89.546422
 23
69.670145
 33
0.0
 14
169.546422
 24
90.670145
 34
0.0
100
AcDbRotatedDimension
  0
DIMENSION
  5
B6
330
1F
100
AcDbEntity
  8
001
370
     9
100
AcDbDimension
  2
*D3
 10
169.546422
 20
11.842398
 30
0.0
 11
107.796581
 21
14.842398
 31
0.0
 70
   160
 71
     5
 42
-1.0
  3
Standard
100
AcDbAlignedDimension
 13
46.04674
 23
44.45366
 33
0.0
 14
169.546422
 24
90.670145
 34
0.0
100
AcDbRotatedDimension
  0
TEXT
  5
B7
330
1F
100
AcDbEntity
  8
001
370
    30
100
AcDbText
 10
21.184484
 20
90.670145
 30
0.0
 40
4.0
  1
%%c１１０
 50
90.000003
 41
0.869565
100
AcDbText
  0
POLYLINE
  5
B8
330
1F
100
AcDbEntity
  8
001
370
     9
100
AcDb2dPolyline
 66
     1
 10
0.0
 20
0.0
 30
0.0
  0
VERTEX
  5
BA
330
B8
100
AcDbEntity
  8
001
370
     9
100
AcDbVertex
100
AcDb2dVertex
 10
22.586408
 20
45.170145
 30
0.0
  0
VERTEX
  5
BB
330
B8
100
AcDbEntity
  8
001
370
     9
100
AcDbVertex
100
AcDb2dVertex
 10
22.184484
 20
43.670145
 30
0.0
  0
VERTEX
  5
BC
330
B8
100
AcDbEntity
  8
001
370
     9
100
AcDbVertex
100
AcDb2dVertex
 10
21.782561
 20
45.170145
 30
0.0
  0
SEQEND
  5
B9
330
B8
100
AcDbEntity
  8
001
370
     9
  0
LINE
  5
BD
330
1F
100
AcDbEntity
  8
001
370
     9
100
AcDbLine
 10
22.184484
 20
43.670145
 30
0.0
 11
22.184484
 21
153.670145
 31
0.0
  0
POLYLINE
  5
BE
330
1F
100
AcDbEntity
  8
001
370
     9
100
AcDb2dPolyline
 66
     1
 10
0.0
 20
0.0
 30
0.0
  0
VERTEX
  5
C0
330
BE
100
AcDbEntity
  8
001
370
     9
100
AcDbVertex
100
AcDb2dVertex
 10
46.04674
 20
43.670145
 30
0.0
  0
VERTEX
  5
C1
330
BE
100
AcDbEntity
  8
001
370
     9
100
AcDbVertex
100
AcDb2dVertex
 10
22.184484
 20
43.670145
 30
0.0
  0
VERTEX
  5
C2
330
BE
100
AcDbEntity
  8
001
370
     9
100
AcDbVertex
100
AcDb2dVertex
 10
19.434484
 20
43.670145
 30
0.0
  0
SEQEND
  5
BF
330
BE
100
AcDbEntity
  8
001
370
     9
  0
DIMENSION
  5
C3
330
1F
100
AcDbEntity
  8
001
370
     9
100
AcDbDimension
  2
*D4
 10
195.975783
 20
82.670145
 30
0.0
 11
192.975783
 21
98.670145
 31
0.0
 70
   160
 71
     5
 42
-1.0
  3
Standard
100
AcDbAlignedDimension
 13
161.546422
 23
114.670145
 33
0.0
 14
161.546422
 24
82.670145
 34
0.0
 50
270.0
100
AcDbRotatedDimension
  0
LINE
  5
C4
330
1F
100
AcDbEntity
  8
001
  6
CENTER
370
     9
100
AcDbLine
 10
39.610927
 20
98.670145
 30
0.0
 11
179.746356
 21
98.670145
 31
0.0
  0
LINE
  5
C5
330
1F
100
AcDbEntity
  8
001
 62
   140
370
    50
100
AcDbLine
 10
64.546422
 20
59.621191
 30
0.0
 11
49.546422
 21
59.621191
 31
0.0
  0
POLYLINE
  5
C6
330
1F
100
AcDbEntity
  8
001
 62
   140
370
    50
100
AcDb2dPolyline
 66
     1
 10
0.0
 20
0.0
 30
0.0
  0
VERTEX
  5
C8
330
C6
100
AcDbEntity
  8
001
 62
   140
370
    50
100
AcDbVertex
100
AcDb2dVertex
 10
56.144034
 20
53.81288
 30
0.0
  0
VERTEX
  5
C9
330
C6
100
AcDbEntity
  8
001
 62
   140
370
    50
100
AcDbVertex
100
AcDb2dVertex
 10
56.187693
 20
53.876953
 30
0.0
  0
VERTEX
  5
CA
330
C6
100
AcDbEntity
  8
001
 62
   140
370
    50
100
AcDbVertex
100
AcDb2dVertex
 10
56.248761
 20
53.972323
 30
0.0
  0
VERTEX
  5
CB
330
C6
100
AcDbEntity
  8
001
 62
   140
370
    50
100
AcDbVertex
100
AcDb2dVertex
 10
56.396786
 20
54.246731
 30
0.0
  0
VERTEX
  5
CC
330
C6
100
AcDbEntity
  8
001
 62
   140
370
    50
100
AcDbVertex
100
AcDb2dVertex
 10
56.483222
 20
54.442322
 30
0.0
  0
SEQEND
  5
C7
330
C6
100
AcDbEntity
  8
001
370
    50
  0
LINE
  5
CD
330
1F
100
AcDbEntity
  8
001
 62
   140
370
    50
100
AcDbLine
 10
56.144034
 20
53.81288
 30
0.0
 11
61.587959
 21
44.417619
 31
0.0
  0
LINE
  5
CE
330
1F
100
AcDbEntity
  8
001
 62
   140
370
    50
100
AcDbLine
 10
46.546422
 20
45.560131
 30
0.0
 11
51.248877
 21
53.787249
 31
0.0
  0
LINE
  5
CF
330
1F
100
AcDbEntity
  8
001
 62
   140
370
    50
100
AcDbLine
 10
46.546422
 20
45.560131
 30
0.0
 11
46.546422
 21
53.627397
 31
0.0
  0
LINE
  5
D0
330
1F
100
AcDbEntity
  8
001
 62
   140
370
    50
100
AcDbLine
 10
49.546422
 20
58.82355
 30
0.0
 11
46.546422
 21
53.627397
 31
0.0
  0
LINE
  5
D1
330
1F
100
AcDbEntity
  8
001
 62
   140
370
    50
100
AcDbLine
 10
64.546422
 20
47.376082
 30
0.0
 11
64.546422
 21
59.670145
 31
0.0
  0
LINE
  5
D2
330
1F
100
AcDbEntity
  8
001
 62
   140
370
    50
100
AcDbLine
 10
49.546422
 20
60.670145
 30
0.0
 11
49.546422
 21
58.82355
 31
0.0
  0
POLYLINE
  5
D3
330
1F
100
AcDbEntity
  8
001
 62
   140
370
    50
100
AcDb2dPolyline
 66
     1
 10
0.0
 20
0.0
 30
0.0
  0
VERTEX
  5
D5
330
D3
100
AcDbEntity
  8
001
 62
   140
370
    50
100
AcDbVertex
100
AcDb2dVertex
 10
50.965806
 20
56.794368
 30
0.0
  0
VERTEX
  5
D6
330
D3
100
AcDbEntity
  8
001
 62
   140
370
    50
100
AcDbVertex
100
AcDb2dVertex
 10
50.923344
 20
56.650219
 30
0.0
  0
VERTEX
  5
D7
330
D3
100
AcDbEntity
  8
001
 62
   140
370
    50
100
AcDbVertex
100
AcDb2dVertex
 10
50.872929
 20
56.446746
 30
0.0
  0
VERTEX
  5
D8
330
D3
100
AcDbEntity
  8
001
 62
   140
370
    50
100
AcDbVertex
100
AcDb2dVertex
 10
50.829084
 20
56.175346
 30
0.0
  0
VERTEX
  5
D9
330
D3
100
AcDbEntity
  8
001
 62
   140
370
    50
100
AcDbVertex
100
AcDb2dVertex
 10
50.814236
 20
55.929282
 30
0.0
  0
VERTEX
  5
DA
330
D3
100
AcDbEntity
  8
001
 62
   140
370
    50
100
AcDbVertex
100
AcDb2dVertex
 10
50.816516
 20
55.678702
 30
0.0
  0
VERTEX
  5
DB
330
D3
100
AcDbEntity
  8
001
 62
   140
370
    50
100
AcDbVertex
100
AcDb2dVertex
 10
50.846613
 20
55.409249
 30
0.0
  0
VERTEX
  5
DC
330
D3
100
AcDbEntity
  8
001
 62
   140
370
    50
100
AcDbVertex
100
AcDb2dVertex
 10
51.013193
 20
54.814981
 30
0.0
  0
VERTEX
  5
DD
330
D3
100
AcDbEntity
  8
001
 62
   140
370
    50
100
AcDbVertex
100
AcDb2dVertex
 10
51.194378
 20
54.394459
 30
0.0
  0
SEQEND
  5
D4
330
D3
100
AcDbEntity
  8
001
370
    50
  0
POLYLINE
  5
DE
330
1F
100
AcDbEntity
  8
001
 62
   140
370
    50
100
AcDb2dPolyline
 66
     1
 10
0.0
 20
0.0
 30
0.0
  0
VERTEX
  5
E0
330
DE
100
AcDbEntity
  8
001
 62
   140
370
    50
100
AcDbVertex
100
AcDb2dVertex
 10
50.902044
 20
56.644695
 30
0.0
  0
VERTEX
  5
E1
330
DE
100
AcDbEntity
  8
001
 62
   140
370
    50
100
AcDbVertex
100
AcDb2dVertex
 10
50.833299
 20
56.436574
 30
0.0
  0
VERTEX
  5
E2
330
DE
100
AcDbEntity
  8
001
 62
   140
370
    50
100
AcDbVertex
100
AcDb2dVertex
 10
50.752373
 20
56.141237
 30
0.0
  0
VERTEX
  5
E3
330
DE
100
AcDbEntity
  8
001
 62
   140
370
    50
100
AcDbVertex
100
AcDb2dVertex
 10
50.671231
 20
55.607131
 30
0.0
  0
VERTEX
  5
E4
330
DE
100
AcDbEntity
  8
001
 62
   140
370
    50
100
AcDbVertex
100
AcDb2dVertex
 10
50.722879
 20
55.095685
 30
0.0
  0
VERTEX
  5
E5
330
DE
100
AcDbEntity
  8
001
 62
   140
370
    50
100
AcDbVertex
100
AcDb2dVertex
 10
50.97554
 20
54.32945
 30
0.0
  0
VERTEX
  5
E6
330
DE
100
AcDbEntity
  8
001
 62
   140
370
    50
100
AcDbVertex
100
AcDb2dVertex
 10
51.248877
 20
53.787249
 30
0.0
  0
SEQEND
  5
DF
330
DE
100
AcDbEntity
  8
001
370
    50
  0
POLYLINE
  5
E7
330
1F
100
AcDbEntity
  8
001
 62
   140
370
    50
100
AcDb2dPolyline
 66
     1
 10
0.0
 20
0.0
 30
0.0
  0
VERTEX
  5
E9
330
E7
100
AcDbEntity
  8
001
 62
   140
370
    50
100
AcDbVertex
100
AcDb2dVertex
 10
56.483222
 20
54.442322
 30
0.0
  0
VERTEX
  5
EA
330
E7
100
AcDbEntity
  8
001
 62
   140
370
    50
100
AcDbVertex
100
AcDb2dVertex
 10
56.552657
 20
54.649404
 30
0.0
  0
VERTEX
  5
EB
330
E7
100
AcDbEntity
  8
001
 62
   140
370
    50
100
AcDbVertex
100
AcDb2dVertex
 10
56.632893
 20
54.94578
 30
0.0
  0
VERTEX
  5
EC
330
E7
100
AcDbEntity
  8
001
 62
   140
370
    50
100
AcDbVertex
100
AcDb2dVertex
 10
56.704446
 20
55.49433
 30
0.0
  0
VERTEX
  5
ED
330
E7
100
AcDbEntity
  8
001
 62
   140
370
    50
100
AcDbVertex
100
AcDb2dVertex
 10
56.662387
 20
55.991331
 30
0.0
  0
VERTEX
  5
EE
330
E7
100
AcDbEntity
  8
001
 62
   140
370
    50
100
AcDbVertex
100
AcDb2dVertex
 10
56.441666
 20
56.735498
 30
0.0
  0
VERTEX
  5
EF
330
E7
100
AcDbEntity
  8
001
 62
   140
370
    50
100
AcDbVertex
100
AcDb2dVertex
 10
56.045809
 20
57.420347
 30
0.0
  0
VERTEX
  5
F0
330
E7
100
AcDbEntity
  8
001
 62
   140
370
    50
100
AcDbVertex
100
AcDb2dVertex
 10
55.874654
 20
57.619295
 30
0.0
  0
VERTEX
  5
F1
330
E7
100
AcDbEntity
  8
001
 62
   140
370
    50
100
AcDbVertex
100
AcDb2dVertex
 10
55.686433
 20
57.800798
 30
0.0
  0
VERTEX
  5
F2
330
E7
100
AcDbEntity
  8
001
 62
   140
370
    50
100
AcDbVertex
100
AcDb2dVertex
 10
55.48323
 20
57.965701
 30
0.0
  0
VERTEX
  5
F3
330
E7
100
AcDbEntity
  8
001
 62
   140
370
    50
100
AcDbVertex
100
AcDb2dVertex
 10
55.266476
 20
58.112663
 30
0.0
  0
VERTEX
  5
F4
330
E7
100
AcDbEntity
  8
001
 62
   140
370
    50
100
AcDbVertex
100
AcDb2dVertex
 10
55.037717
 20
58.23986
 30
0.0
  0
VERTEX
  5
F5
330
E7
100
AcDbEntity
  8
001
 62
   140
370
    50
100
AcDbVertex
100
AcDb2dVertex
 10
54.798699
 20
58.346465
 30
0.0
  0
VERTEX
  5
F6
330
E7
100
AcDbEntity
  8
001
 62
   140
370
    50
100
AcDbVertex
100
AcDb2dVertex
 10
54.551291
 20
58.431808
 30
0.0
  0
VERTEX
  5
F7
330
E7
100
AcDbEntity
  8
001
 62
   140
370
    50
100
AcDbVertex
100
AcDb2dVertex
 10
54.297315
 20
58.495101
 30
0.0
  0
VERTEX
  5
F8
330
E7
100
AcDbEntity
  8
001
 62
   140
370
    50
100
AcDbVertex
100
AcDb2dVertex
 10
54.038612
 20
58.535757
 30
0.0
  0
VERTEX
  5
F9
330
E7
100
AcDbEntity
  8
001
 62
   140
370
    50
100
AcDbVertex
100
AcDb2dVertex
 10
53.777557
 20
58.554054
 30
0.0
  0
VERTEX
  5
FA
330
E7
100
AcDbEntity
  8
001
 62
   140
370
    50
100
AcDbVertex
100
AcDb2dVertex
 10
53.516111
 20
58.549993
 30
0.0
  0
VERTEX
  5
FB
330
E7
100
AcDbEntity
  8
001
 62
   140
370
    50
100
AcDbVertex
100
AcDb2dVertex
 10
53.25522
 20
58.521533
 30
0.0
  0
VERTEX
  5
FC
330
E7
100
AcDbEntity
  8
001
 62
   140
370
    50
100
AcDbVertex
100
AcDb2dVertex
 10
52.498364
 20
58.291553
 30
0.0
  0
VERTEX
  5
FD
330
E7
100
AcDbEntity
  8
001
 62
   140
370
    50
100
AcDbVertex
100
AcDb2dVertex
 10
51.828945
 20
57.898642
 30
0.0
  0
VERTEX
  5
FE
330
E7
100
AcDbEntity
  8
001
 62
   140
370
    50
100
AcDbVertex
100
AcDb2dVertex
 10
51.458828
 20
57.564288
 30
0.0
  0
VERTEX
  5
FF
330
E7
100
AcDbEntity
  8
001
 62
   140
370
    50
100
AcDbVertex
100
AcDb2dVertex
 10
51.136505
 20
57.114693
 30
0.0
  0
VERTEX
  5
100
330
E7
100
AcDbEntity
  8
001
 62
   140
370
    50
100
AcDbVertex
100
AcDb2dVertex
 10
50.992731
 20
56.843389
 30
0.0
  0
VERTEX
  5
101
330
E7
100
AcDbEntity
  8
001
 62
   140
370
    50
100
AcDbVertex
100
AcDb2dVertex
 10
50.902044
 20
56.644695
 30
0.0
  0
SEQEND
  5
E8
330
E7
100
AcDbEntity
  8
001
370
    50
  0
POLYLINE
  5
102
330
1F
100
AcDbEntity
  8
001
 62
   140
370
    50
100
AcDb2dPolyline
 66
     1
 10
0.0
 20
0.0
 30
0.0
  0
VERTEX
  5
104
330
102
100
AcDbEntity
  8
001
 62
   140
370
    50
100
AcDbVertex
100
AcDb2dVertex
 10
56.443575
 20
54.405656
 30
0.0
  0
VERTEX
  5
105
330
102
100
AcDbEntity
  8
001
 62
   140
370
    50
100
AcDbVertex
100
AcDb2dVertex
 10
56.463982
 20
54.443623
 30
0.0
  0
VERTEX
  5
106
330
102
100
AcDbEntity
  8
001
 62
   140
370
    50
100
AcDbVertex
100
AcDb2dVertex
 10
56.492904
 20
54.499582
 30
0.0
  0
VERTEX
  5
107
330
102
100
AcDbEntity
  8
001
 62
   140
370
    50
100
AcDbVertex
100
AcDb2dVertex
 10
56.520557
 20
54.556177
 30
0.0
  0
VERTEX
  5
108
330
102
100
AcDbEntity
  8
001
 62
   140
370
    50
100
AcDbVertex
100
AcDb2dVertex
 10
56.53885
 20
54.595205
 30
0.0
  0
SEQEND
  5
103
330
102
100
AcDbEntity
  8
001
370
    50
  0
LINE
  5
109
330
1F
100
AcDbEntity
  8
001
 62
   140
370
    50
100
AcDbLine
 10
51.194378
 20
54.394459
 30
0.0
 11
51.125837
 21
54.220764
 31
0.0
  0
POLYLINE
  5
10A
330
1F
100
AcDbEntity
  8
001
 62
   140
370
    50
100
AcDb2dPolyline
 66
     1
 10
0.0
 20
0.0
 30
0.0
  0
VERTEX
  5
10C
330
10A
100
AcDbEntity
  8
001
 62
   140
370
    50
100
AcDbVertex
100
AcDb2dVertex
 10
51.125837
 20
54.220764
 30
0.0
  0
VERTEX
  5
10D
330
10A
100
AcDbEntity
  8
001
 62
   140
370
    50
100
AcDbVertex
100
AcDb2dVertex
 10
51.160184
 20
54.161244
 30
0.0
  0
VERTEX
  5
10E
330
10A
100
AcDbEntity
  8
001
 62
   140
370
    50
100
AcDbVertex
100
AcDb2dVertex
 10
51.212575
 20
54.075591
 30
0.0
  0
VERTEX
  5
10F
330
10A
100
AcDbEntity
  8
001
 62
   140
370
    50
100
AcDbVertex
100
AcDb2dVertex
 10
51.267996
 20
53.991839
 30
0.0
  0
VERTEX
  5
110
330
10A
100
AcDbEntity
  8
001
 62
   140
370
    50
100
AcDbVertex
100
AcDb2dVertex
 10
51.30738
 20
53.935505
 30
0.0
  0
SEQEND
  5
10B
330
10A
100
AcDbEntity
  8
001
370
    50
  0
POLYLINE
  5
111
330
1F
100
AcDbEntity
  8
001
 62
   140
370
    50
100
AcDb2dPolyline
 66
     1
 10
0.0
 20
0.0
 30
0.0
  0
VERTEX
  5
113
330
111
100
AcDbEntity
  8
001
 62
   140
370
    50
100
AcDbVertex
100
AcDb2dVertex
 10
56.196652
 20
53.946225
 30
0.0
  0
VERTEX
  5
114
330
111
100
AcDbEntity
  8
001
 62
   140
370
    50
100
AcDbVertex
100
AcDb2dVertex
 10
56.240058
 20
54.009665
 30
0.0
  0
VERTEX
  5
115
330
111
100
AcDbEntity
  8
001
 62
   140
370
    50
100
AcDbVertex
100
AcDb2dVertex
 10
56.300776
 20
54.104138
 30
0.0
  0
VERTEX
  5
116
330
111
100
AcDbEntity
  8
001
 62
   140
370
    50
100
AcDbVertex
100
AcDb2dVertex
 10
56.345557
 20
54.179623
 30
0.0
  0
VERTEX
  5
117
330
111
100
AcDbEntity
  8
001
 62
   140
370
    50
100
AcDbVertex
100
AcDb2dVertex
 10
56.375033
 20
54.231961
 30
0.0
  0
SEQEND
  5
112
330
111
100
AcDbEntity
  8
001
370
    50
  0
LINE
  5
118
330
1F
100
AcDbEntity
  8
001
 62
   140
370
    50
100
AcDbLine
 10
56.375033
 20
54.231961
 30
0.0
 11
56.443575
 21
54.405656
 31
0.0
  0
LINE
  5
119
330
1F
100
AcDbEntity
  8
001
 62
   140
370
    50
100
AcDbLine
 10
56.144034
 20
53.81288
 30
0.0
 11
56.196652
 21
53.946225
 31
0.0
  0
LINE
  5
11A
330
1F
100
AcDbEntity
  8
001
 62
   140
370
    50
100
AcDbLine
 10
51.30738
 20
53.935505
 30
0.0
 11
51.248877
 21
53.787249
 31
0.0
  0
LINE
  5
11B
330
1F
100
AcDbEntity
  8
001
 62
   140
370
    50
100
AcDbLine
 10
61.488524
 20
44.318184
 30
0.0
 11
61.352606
 21
44.317886
 31
0.0
  0
LINE
  5
11C
330
1F
100
AcDbEntity
  8
001
 62
   140
370
    50
100
AcDbLine
 10
64.546422
 20
47.376082
 30
0.0
 11
61.488524
 21
44.318184
 31
0.0
  0
LINE
  5
11D
330
1F
100
AcDbEntity
  8
001
 62
   200
370
    50
100
AcDbLine
 10
52.948369
 20
56.722777
 30
0.0
 11
46.151289
 21
44.865637
 31
0.0
  0
POLYLINE
  5
11E
330
1F
100
AcDbEntity
  8
001
 62
   200
370
    50
100
AcDb2dPolyline
 66
     1
 10
0.0
 20
0.0
 30
0.0
  0
VERTEX
  5
120
330
11E
100
AcDbEntity
  8
001
 62
   200
370
    50
100
AcDbVertex
100
AcDb2dVertex
 10
54.333169
 20
56.725813
 30
0.0
  0
VERTEX
  5
121
330
11E
100
AcDbEntity
  8
001
 62
   200
370
    50
100
AcDbVertex
100
AcDb2dVertex
 10
54.307324
 20
56.765902
 30
0.0
  0
VERTEX
  5
122
330
11E
100
AcDbEntity
  8
001
 62
   200
370
    50
100
AcDbVertex
100
AcDb2dVertex
 10
54.26812
 20
56.820613
 30
0.0
  0
VERTEX
  5
123
330
11E
100
AcDbEntity
  8
001
 62
   200
370
    50
100
AcDbVertex
100
AcDb2dVertex
 10
54.168247
 20
56.927964
 30
0.0
  0
VERTEX
  5
124
330
11E
100
AcDbEntity
  8
001
 62
   200
370
    50
100
AcDbVertex
100
AcDb2dVertex
 10
54.059989
 20
57.004449
 30
0.0
  0
VERTEX
  5
125
330
11E
100
AcDbEntity
  8
001
 62
   200
370
    50
100
AcDbVertex
100
AcDb2dVertex
 10
53.999294
 20
57.037674
 30
0.0
  0
VERTEX
  5
126
330
11E
100
AcDbEntity
  8
001
 62
   200
370
    50
100
AcDbVertex
100
AcDb2dVertex
 10
53.935209
 20
57.066696
 30
0.0
  0
VERTEX
  5
127
330
11E
100
AcDbEntity
  8
001
 62
   200
370
    50
100
AcDbVertex
100
AcDb2dVertex
 10
53.869165
 20
57.089654
 30
0.0
  0
VERTEX
  5
128
330
11E
100
AcDbEntity
  8
001
 62
   200
370
    50
100
AcDbVertex
100
AcDb2dVertex
 10
53.801546
 20
57.106433
 30
0.0
  0
VERTEX
  5
129
330
11E
100
AcDbEntity
  8
001
 62
   200
370
    50
100
AcDbVertex
100
AcDb2dVertex
 10
53.663304
 20
57.122206
 30
0.0
  0
VERTEX
  5
12A
330
11E
100
AcDbEntity
  8
001
 62
   200
370
    50
100
AcDbVertex
100
AcDb2dVertex
 10
53.523963
 20
57.114263
 30
0.0
  0
VERTEX
  5
12B
330
11E
100
AcDbEntity
  8
001
 62
   200
370
    50
100
AcDbVertex
100
AcDb2dVertex
 10
53.324119
 20
57.058129
 30
0.0
  0
VERTEX
  5
12C
330
11E
100
AcDbEntity
  8
001
 62
   200
370
    50
100
AcDbVertex
100
AcDb2dVertex
 10
53.144573
 20
56.950568
 30
0.0
  0
VERTEX
  5
12D
330
11E
100
AcDbEntity
  8
001
 62
   200
370
    50
100
AcDbVertex
100
AcDb2dVertex
 10
53.091196
 20
56.903817
 30
0.0
  0
VERTEX
  5
12E
330
11E
100
AcDbEntity
  8
001
 62
   200
370
    50
100
AcDbVertex
100
AcDb2dVertex
 10
53.043567
 20
56.855157
 30
0.0
  0
VERTEX
  5
12F
330
11E
100
AcDbEntity
  8
001
 62
   200
370
    50
100
AcDbVertex
100
AcDb2dVertex
 10
53.002125
 20
56.805381
 30
0.0
  0
VERTEX
  5
130
330
11E
100
AcDbEntity
  8
001
 62
   200
370
    50
100
AcDbVertex
100
AcDb2dVertex
 10
52.96077
 20
56.743662
 30
0.0
  0
VERTEX
  5
131
330
11E
100
AcDbEntity
  8
001
 62
   200
370
    50
100
AcDbVertex
100
AcDb2dVertex
 10
52.953406
 20
56.731377
 30
0.0
  0
VERTEX
  5
132
330
11E
100
AcDbEntity
  8
001
 62
   200
370
    50
100
AcDbVertex
100
AcDb2dVertex
 10
52.948369
 20
56.722777
 30
0.0
  0
SEQEND
  5
11F
330
11E
100
AcDbEntity
  8
001
370
    50
  0
LINE
  5
133
330
1F
100
AcDbEntity
  8
001
 62
   200
370
    50
100
AcDbLine
 10
61.25426
 20
44.898749
 30
0.0
 11
54.333169
 21
56.725813
 31
0.0
  0
POLYLINE
  5
134
330
1F
100
AcDbEntity
  8
001
 62
   200
370
    50
100
AcDb2dPolyline
 66
     1
 10
0.0
 20
0.0
 30
0.0
  0
VERTEX
  5
136
330
134
100
AcDbEntity
  8
001
 62
   200
370
    50
100
AcDbVertex
100
AcDb2dVertex
 10
60.568119
 20
43.701814
 30
0.0
  0
VERTEX
  5
137
330
134
100
AcDbEntity
  8
001
 62
   200
370
    50
100
AcDbVertex
100
AcDb2dVertex
 10
60.615543
 20
43.703974
 30
0.0
  0
VERTEX
  5
138
330
134
100
AcDbEntity
  8
001
 62
   200
370
    50
100
AcDbVertex
100
AcDb2dVertex
 10
60.682839
 20
43.710318
 30
0.0
  0
VERTEX
  5
139
330
134
100
AcDbEntity
  8
001
 62
   200
370
    50
100
AcDbVertex
100
AcDb2dVertex
 10
60.894451
 20
43.766951
 30
0.0
  0
VERTEX
  5
13A
330
134
100
AcDbEntity
  8
001
 62
   200
370
    50
100
AcDbVertex
100
AcDb2dVertex
 10
61.062229
 20
43.874014
 30
0.0
  0
VERTEX
  5
13B
330
134
100
AcDbEntity
  8
001
 62
   200
370
    50
100
AcDbVertex
100
AcDb2dVertex
 10
61.114625
 20
43.920346
 30
0.0
  0
VERTEX
  5
13C
330
134
100
AcDbEntity
  8
001
 62
   200
370
    50
100
AcDbVertex
100
AcDb2dVertex
 10
61.163235
 20
43.969424
 30
0.0
  0
VERTEX
  5
13D
330
134
100
AcDbEntity
  8
001
 62
   200
370
    50
100
AcDbVertex
100
AcDb2dVertex
 10
61.206117
 20
44.020582
 30
0.0
  0
VERTEX
  5
13E
330
134
100
AcDbEntity
  8
001
 62
   200
370
    50
100
AcDbVertex
100
AcDb2dVertex
 10
61.246032
 20
44.080919
 30
0.0
  0
VERTEX
  5
13F
330
134
100
AcDbEntity
  8
001
 62
   200
370
    50
100
AcDbVertex
100
AcDb2dVertex
 10
61.283812
 20
44.15192
 30
0.0
  0
VERTEX
  5
140
330
134
100
AcDbEntity
  8
001
 62
   200
370
    50
100
AcDbVertex
100
AcDb2dVertex
 10
61.308104
 20
44.205109
 30
0.0
  0
SEQEND
  5
135
330
134
100
AcDbEntity
  8
001
370
    50
  0
LINE
  5
141
330
1F
100
AcDbEntity
  8
001
 62
   200
370
    50
100
AcDbLine
 10
46.849948
 20
43.671737
 30
0.0
 11
60.568119
 21
43.701814
 31
0.0
  0
POLYLINE
  5
142
330
1F
100
AcDbEntity
  8
001
 62
   200
370
    50
100
AcDb2dPolyline
 66
     1
 10
0.0
 20
0.0
 30
0.0
  0
VERTEX
  5
144
330
142
100
AcDbEntity
  8
001
 62
   200
370
    50
100
AcDbVertex
100
AcDb2dVertex
 10
53.684192
 20
50.323828
 30
0.0
  0
VERTEX
  5
145
330
142
100
AcDbEntity
  8
001
 62
   200
370
    50
100
AcDbVertex
100
AcDb2dVertex
 10
53.567413
 20
50.318936
 30
0.0
  0
VERTEX
  5
146
330
142
100
AcDbEntity
  8
001
 62
   200
370
    50
100
AcDbVertex
100
AcDb2dVertex
 10
53.401822
 20
50.303634
 30
0.0
  0
VERTEX
  5
147
330
142
100
AcDbEntity
  8
001
 62
   200
370
    50
100
AcDbVertex
100
AcDb2dVertex
 10
52.899432
 20
50.169273
 30
0.0
  0
VERTEX
  5
148
330
142
100
AcDbEntity
  8
001
 62
   200
370
    50
100
AcDbVertex
100
AcDb2dVertex
 10
52.500772
 20
49.914857
 30
0.0
  0
VERTEX
  5
149
330
142
100
AcDbEntity
  8
001
 62
   200
370
    50
100
AcDbVertex
100
AcDb2dVertex
 10
52.37632
 20
49.804811
 30
0.0
  0
VERTEX
  5
14A
330
142
100
AcDbEntity
  8
001
 62
   200
370
    50
100
AcDbVertex
100
AcDb2dVertex
 10
52.260883
 20
49.688256
 30
0.0
  0
VERTEX
  5
14B
330
142
100
AcDbEntity
  8
001
 62
   200
370
    50
100
AcDbVertex
100
AcDb2dVertex
 10
52.15904
 20
49.56676
 30
0.0
  0
VERTEX
  5
14C
330
142
100
AcDbEntity
  8
001
 62
   200
370
    50
100
AcDbVertex
100
AcDb2dVertex
 10
52.06424
 20
49.423457
 30
0.0
  0
VERTEX
  5
14D
330
142
100
AcDbEntity
  8
001
 62
   200
370
    50
100
AcDbVertex
100
AcDb2dVertex
 10
51.97451
 20
49.254829
 30
0.0
  0
VERTEX
  5
14E
330
142
100
AcDbEntity
  8
001
 62
   200
370
    50
100
AcDbVertex
100
AcDb2dVertex
 10
51.916819
 20
49.128506
 30
0.0
  0
SEQEND
  5
143
330
142
100
AcDbEntity
  8
001
370
    50
  0
POLYLINE
  5
14F
330
1F
100
AcDbEntity
  8
001
 62
   200
370
    50
100
AcDb2dPolyline
 66
     1
 10
0.0
 20
0.0
 30
0.0
  0
VERTEX
  5
151
330
14F
100
AcDbEntity
  8
001
 62
   200
370
    50
100
AcDbVertex
100
AcDb2dVertex
 10
54.497117
 20
57.141286
 30
0.0
  0
VERTEX
  5
152
330
14F
100
AcDbEntity
  8
001
 62
   200
370
    50
100
AcDbVertex
100
AcDb2dVertex
 10
54.471273
 20
57.181375
 30
0.0
  0
VERTEX
  5
153
330
14F
100
AcDbEntity
  8
001
 62
   200
370
    50
100
AcDbVertex
100
AcDb2dVertex
 10
54.432068
 20
57.236086
 30
0.0
  0
VERTEX
  5
154
330
14F
100
AcDbEntity
  8
001
 62
   200
370
    50
100
AcDbVertex
100
AcDb2dVertex
 10
54.332195
 20
57.343437
 30
0.0
  0
VERTEX
  5
155
330
14F
100
AcDbEntity
  8
001
 62
   200
370
    50
100
AcDbVertex
100
AcDb2dVertex
 10
54.223938
 20
57.419922
 30
0.0
  0
VERTEX
  5
156
330
14F
100
AcDbEntity
  8
001
 62
   200
370
    50
100
AcDbVertex
100
AcDb2dVertex
 10
54.163243
 20
57.453147
 30
0.0
  0
VERTEX
  5
157
330
14F
100
AcDbEntity
  8
001
 62
   200
370
    50
100
AcDbVertex
100
AcDb2dVertex
 10
54.099158
 20
57.482169
 30
0.0
  0
VERTEX
  5
158
330
14F
100
AcDbEntity
  8
001
 62
   200
370
    50
100
AcDbVertex
100
AcDb2dVertex
 10
54.033113
 20
57.505127
 30
0.0
  0
VERTEX
  5
159
330
14F
100
AcDbEntity
  8
001
 62
   200
370
    50
100
AcDbVertex
100
AcDb2dVertex
 10
53.965495
 20
57.521905
 30
0.0
  0
VERTEX
  5
15A
330
14F
100
AcDbEntity
  8
001
 62
   200
370
    50
100
AcDbVertex
100
AcDb2dVertex
 10
53.827253
 20
57.537679
 30
0.0
  0
VERTEX
  5
15B
330
14F
100
AcDbEntity
  8
001
 62
   200
370
    50
100
AcDbVertex
100
AcDb2dVertex
 10
53.687911
 20
57.529736
 30
0.0
  0
VERTEX
  5
15C
330
14F
100
AcDbEntity
  8
001
 62
   200
370
    50
100
AcDbVertex
100
AcDb2dVertex
 10
53.488068
 20
57.473602
 30
0.0
  0
VERTEX
  5
15D
330
14F
100
AcDbEntity
  8
001
 62
   200
370
    50
100
AcDbVertex
100
AcDb2dVertex
 10
53.308522
 20
57.36604
 30
0.0
  0
VERTEX
  5
15E
330
14F
100
AcDbEntity
  8
001
 62
   200
370
    50
100
AcDbVertex
100
AcDb2dVertex
 10
53.255145
 20
57.319289
 30
0.0
  0
VERTEX
  5
15F
330
14F
100
AcDbEntity
  8
001
 62
   200
370
    50
100
AcDbVertex
100
AcDb2dVertex
 10
53.207516
 20
57.270629
 30
0.0
  0
VERTEX
  5
160
330
14F
100
AcDbEntity
  8
001
 62
   200
370
    50
100
AcDbVertex
100
AcDb2dVertex
 10
53.166074
 20
57.220854
 30
0.0
  0
VERTEX
  5
161
330
14F
100
AcDbEntity
  8
001
 62
   200
370
    50
100
AcDbVertex
100
AcDb2dVertex
 10
53.124719
 20
57.159135
 30
0.0
  0
VERTEX
  5
162
330
14F
100
AcDbEntity
  8
001
 62
   200
370
    50
100
AcDbVertex
100
AcDb2dVertex
 10
53.117354
 20
57.14685
 30
0.0
  0
VERTEX
  5
163
330
14F
100
AcDbEntity
  8
001
 62
   200
370
    50
100
AcDbVertex
100
AcDb2dVertex
 10
53.112317
 20
57.13825
 30
0.0
  0
SEQEND
  5
150
330
14F
100
AcDbEntity
  8
001
370
    50
  0
LINE
  5
164
330
1F
100
AcDbEntity
  8
001
 62
   200
370
    50
100
AcDbLine
 10
56.287215
 20
54.082288
 30
0.0
 11
54.497117
 21
57.141286
 31
0.0
  0
LINE
  5
165
330
1F
100
AcDbEntity
  8
001
 62
   200
370
    50
100
AcDbLine
 10
46.546422
 20
45.684398
 30
0.0
 11
46.315237
 21
45.281109
 31
0.0
  0
LINE
  5
166
330
1F
100
AcDbEntity
  8
001
 62
   200
370
    50
100
AcDbLine
 10
53.112317
 20
57.13825
 30
0.0
 11
51.290199
 21
53.959663
 31
0.0
  0
POLYLINE
  5
167
330
1F
100
AcDbEntity
  8
001
 62
   200
370
    50
100
AcDb2dPolyline
 66
     1
 10
0.0
 20
0.0
 30
0.0
  0
VERTEX
  5
169
330
167
100
AcDbEntity
  8
001
 62
   200
370
    50
100
AcDbVertex
100
AcDb2dVertex
 10
55.451566
 20
47.73367
 30
0.0
  0
VERTEX
  5
16A
330
167
100
AcDbEntity
  8
001
 62
   200
370
    50
100
AcDbVertex
100
AcDb2dVertex
 10
55.495739
 20
47.865299
 30
0.0
  0
VERTEX
  5
16B
330
167
100
AcDbEntity
  8
001
 62
   200
370
    50
100
AcDbVertex
100
AcDb2dVertex
 10
55.545286
 20
48.049812
 30
0.0
  0
VERTEX
  5
16C
330
167
100
AcDbEntity
  8
001
 62
   200
370
    50
100
AcDbVertex
100
AcDb2dVertex
 10
55.573612
 20
48.219488
 30
0.0
  0
VERTEX
  5
16D
330
167
100
AcDbEntity
  8
001
 62
   200
370
    50
100
AcDbVertex
100
AcDb2dVertex
 10
55.582458
 20
48.37754
 30
0.0
  0
VERTEX
  5
16E
330
167
100
AcDbEntity
  8
001
 62
   200
370
    50
100
AcDbVertex
100
AcDb2dVertex
 10
55.578777
 20
48.540558
 30
0.0
  0
VERTEX
  5
16F
330
167
100
AcDbEntity
  8
001
 62
   200
370
    50
100
AcDbVertex
100
AcDb2dVertex
 10
55.561953
 20
48.706894
 30
0.0
  0
VERTEX
  5
170
330
167
100
AcDbEntity
  8
001
 62
   200
370
    50
100
AcDbVertex
100
AcDb2dVertex
 10
55.424235
 20
49.183327
 30
0.0
  0
VERTEX
  5
171
330
167
100
AcDbEntity
  8
001
 62
   200
370
    50
100
AcDbVertex
100
AcDb2dVertex
 10
55.169196
 20
49.606216
 30
0.0
  0
VERTEX
  5
172
330
167
100
AcDbEntity
  8
001
 62
   200
370
    50
100
AcDbVertex
100
AcDb2dVertex
 10
54.941943
 20
49.846266
 30
0.0
  0
VERTEX
  5
173
330
167
100
AcDbEntity
  8
001
 62
   200
370
    50
100
AcDbVertex
100
AcDb2dVertex
 10
54.674886
 20
50.042826
 30
0.0
  0
VERTEX
  5
174
330
167
100
AcDbEntity
  8
001
 62
   200
370
    50
100
AcDbVertex
100
AcDb2dVertex
 10
54.527956
 20
50.123228
 30
0.0
  0
VERTEX
  5
175
330
167
100
AcDbEntity
  8
001
 62
   200
370
    50
100
AcDbVertex
100
AcDb2dVertex
 10
54.378533
 20
50.190663
 30
0.0
  0
VERTEX
  5
176
330
167
100
AcDbEntity
  8
001
 62
   200
370
    50
100
AcDbVertex
100
AcDb2dVertex
 10
54.228533
 20
50.244715
 30
0.0
  0
VERTEX
  5
177
330
167
100
AcDbEntity
  8
001
 62
   200
370
    50
100
AcDbVertex
100
AcDb2dVertex
 10
54.061083
 20
50.285037
 30
0.0
  0
VERTEX
  5
178
330
167
100
AcDbEntity
  8
001
 62
   200
370
    50
100
AcDbVertex
100
AcDb2dVertex
 10
53.843874
 20
50.313899
 30
0.0
  0
VERTEX
  5
179
330
167
100
AcDbEntity
  8
001
 62
   200
370
    50
100
AcDbVertex
100
AcDb2dVertex
 10
53.684192
 20
50.323828
 30
0.0
  0
SEQEND
  5
168
330
167
100
AcDbEntity
  8
001
370
    50
  0
POLYLINE
  5
17A
330
1F
100
AcDbEntity
  8
001
 62
   200
370
    50
100
AcDb2dPolyline
 66
     1
 10
0.0
 20
0.0
 30
0.0
  0
VERTEX
  5
17C
330
17A
100
AcDbEntity
  8
001
 62
   200
370
    50
100
AcDbVertex
100
AcDb2dVertex
 10
51.916819
 20
49.128506
 30
0.0
  0
VERTEX
  5
17D
330
17A
100
AcDbEntity
  8
001
 62
   200
370
    50
100
AcDbVertex
100
AcDb2dVertex
 10
51.872646
 20
48.996876
 30
0.0
  0
VERTEX
  5
17E
330
17A
100
AcDbEntity
  8
001
 62
   200
370
    50
100
AcDbVertex
100
AcDb2dVertex
 10
51.823098
 20
48.812363
 30
0.0
  0
VERTEX
  5
17F
330
17A
100
AcDbEntity
  8
001
 62
   200
370
    50
100
AcDbVertex
100
AcDb2dVertex
 10
51.794765
 20
48.642688
 30
0.0
  0
VERTEX
  5
180
330
17A
100
AcDbEntity
  8
001
 62
   200
370
    50
100
AcDbVertex
100
AcDb2dVertex
 10
51.785926
 20
48.484636
 30
0.0
  0
VERTEX
  5
181
330
17A
100
AcDbEntity
  8
001
 62
   200
370
    50
100
AcDbVertex
100
AcDb2dVertex
 10
51.789635
 20
48.321617
 30
0.0
  0
VERTEX
  5
182
330
17A
100
AcDbEntity
  8
001
 62
   200
370
    50
100
AcDbVertex
100
AcDb2dVertex
 10
51.806432
 20
48.155282
 30
0.0
  0
VERTEX
  5
183
330
17A
100
AcDbEntity
  8
001
 62
   200
370
    50
100
AcDbVertex
100
AcDb2dVertex
 10
51.94363
 20
47.678851
 30
0.0
  0
VERTEX
  5
184
330
17A
100
AcDbEntity
  8
001
 62
   200
370
    50
100
AcDbVertex
100
AcDb2dVertex
 10
52.199189
 20
47.25596
 30
0.0
  0
VERTEX
  5
185
330
17A
100
AcDbEntity
  8
001
 62
   200
370
    50
100
AcDbVertex
100
AcDb2dVertex
 10
52.427742
 20
47.015903
 30
0.0
  0
VERTEX
  5
186
330
17A
100
AcDbEntity
  8
001
 62
   200
370
    50
100
AcDbVertex
100
AcDb2dVertex
 10
52.693499
 20
46.81935
 30
0.0
  0
VERTEX
  5
187
330
17A
100
AcDbEntity
  8
001
 62
   200
370
    50
100
AcDbVertex
100
AcDb2dVertex
 10
52.838506
 20
46.738956
 30
0.0
  0
VERTEX
  5
188
330
17A
100
AcDbEntity
  8
001
 62
   200
370
    50
100
AcDbVertex
100
AcDb2dVertex
 10
52.989852
 20
46.671512
 30
0.0
  0
VERTEX
  5
189
330
17A
100
AcDbEntity
  8
001
 62
   200
370
    50
100
AcDbVertex
100
AcDb2dVertex
 10
53.14647
 20
46.617431
 30
0.0
  0
VERTEX
  5
18A
330
17A
100
AcDbEntity
  8
001
 62
   200
370
    50
100
AcDbVertex
100
AcDb2dVertex
 10
53.307301
 20
46.577139
 30
0.0
  0
VERTEX
  5
18B
330
17A
100
AcDbEntity
  8
001
 62
   200
370
    50
100
AcDbVertex
100
AcDb2dVertex
 10
53.635667
 20
46.539248
 30
0.0
  0
VERTEX
  5
18C
330
17A
100
AcDbEntity
  8
001
 62
   200
370
    50
100
AcDbVertex
100
AcDb2dVertex
 10
53.966562
 20
46.558542
 30
0.0
  0
VERTEX
  5
18D
330
17A
100
AcDbEntity
  8
001
 62
   200
370
    50
100
AcDbVertex
100
AcDb2dVertex
 10
54.442039
 20
46.692961
 30
0.0
  0
VERTEX
  5
18E
330
17A
100
AcDbEntity
  8
001
 62
   200
370
    50
100
AcDbVertex
100
AcDb2dVertex
 10
54.867612
 20
46.947319
 30
0.0
  0
VERTEX
  5
18F
330
17A
100
AcDbEntity
  8
001
 62
   200
370
    50
100
AcDbVertex
100
AcDb2dVertex
 10
54.99347
 20
47.057362
 30
0.0
  0
VERTEX
  5
190
330
17A
100
AcDbEntity
  8
001
 62
   200
370
    50
100
AcDbVertex
100
AcDb2dVertex
 10
55.107501
 20
47.173919
 30
0.0
  0
VERTEX
  5
191
330
17A
100
AcDbEntity
  8
001
 62
   200
370
    50
100
AcDbVertex
100
AcDb2dVertex
 10
55.208974
 20
47.295417
 30
0.0
  0
VERTEX
  5
192
330
17A
100
AcDbEntity
  8
001
 62
   200
370
    50
100
AcDbVertex
100
AcDb2dVertex
 10
55.304144
 20
47.438718
 30
0.0
  0
VERTEX
  5
193
330
17A
100
AcDbEntity
  8
001
 62
   200
370
    50
100
AcDbVertex
100
AcDb2dVertex
 10
55.393948
 20
47.607346
 30
0.0
  0
VERTEX
  5
194
330
17A
100
AcDbEntity
  8
001
 62
   200
370
    50
100
AcDbVertex
100
AcDb2dVertex
 10
55.451566
 20
47.73367
 30
0.0
  0
SEQEND
  5
17B
330
17A
100
AcDbEntity
  8
001
370
    50
  0
POLYLINE
  5
195
330
1F
100
AcDbEntity
  8
001
 62
   200
370
    50
100
AcDb2dPolyline
 66
     1
 10
0.0
 20
0.0
 30
0.0
  0
VERTEX
  5
197
330
195
100
AcDbEntity
  8
001
 62
   200
370
    50
100
AcDbVertex
100
AcDb2dVertex
 10
61.308104
 20
44.205109
 30
0.0
  0
VERTEX
  5
198
330
195
100
AcDbEntity
  8
001
 62
   200
370
    50
100
AcDbVertex
100
AcDb2dVertex
 10
61.326753
 20
44.260447
 30
0.0
  0
VERTEX
  5
199
330
195
100
AcDbEntity
  8
001
 62
   200
370
    50
100
AcDbVertex
100
AcDb2dVertex
 10
61.347565
 20
44.338222
 30
0.0
  0
VERTEX
  5
19A
330
195
100
AcDbEntity
  8
001
 62
   200
370
    50
100
AcDbVertex
100
AcDb2dVertex
 10
61.359243
 20
44.410088
 30
0.0
  0
VERTEX
  5
19B
330
195
100
AcDbEntity
  8
001
 62
   200
370
    50
100
AcDbVertex
100
AcDb2dVertex
 10
61.363216
 20
44.476212
 30
0.0
  0
VERTEX
  5
19C
330
195
100
AcDbEntity
  8
001
 62
   200
370
    50
100
AcDbVertex
100
AcDb2dVertex
 10
61.362614
 20
44.543239
 30
0.0
  0
VERTEX
  5
19D
330
195
100
AcDbEntity
  8
001
 62
   200
370
    50
100
AcDbVertex
100
AcDb2dVertex
 10
61.354583
 20
44.614888
 30
0.0
  0
VERTEX
  5
19E
330
195
100
AcDbEntity
  8
001
 62
   200
370
    50
100
AcDbVertex
100
AcDb2dVertex
 10
61.306777
 20
44.78119
 30
0.0
  0
VERTEX
  5
19F
330
195
100
AcDbEntity
  8
001
 62
   200
370
    50
100
AcDbVertex
100
AcDb2dVertex
 10
61.25426
 20
44.898749
 30
0.0
  0
SEQEND
  5
196
330
195
100
AcDbEntity
  8
001
370
    50
  0
LINE
  5
1A0
330
1F
100
AcDbEntity
  8
001
 62
   200
370
    50
100
AcDbLine
 10
61.308104
 20
44.205109
 30
0.0
 11
61.471365
 21
44.618841
 31
0.0
  0
POLYLINE
  5
1A1
330
1F
100
AcDbEntity
  8
001
 62
   200
370
    50
100
AcDb2dPolyline
 66
     1
 10
0.0
 20
0.0
 30
0.0
  0
VERTEX
  5
1A3
330
1A1
100
AcDbEntity
  8
001
 62
   200
370
    50
100
AcDbVertex
100
AcDb2dVertex
 10
46.101618
 20
44.762332
 30
0.0
  0
VERTEX
  5
1A4
330
1A1
100
AcDbEntity
  8
001
 62
   200
370
    50
100
AcDbVertex
100
AcDb2dVertex
 10
46.083018
 20
44.706909
 30
0.0
  0
VERTEX
  5
1A5
330
1A1
100
AcDbEntity
  8
001
 62
   200
370
    50
100
AcDbVertex
100
AcDb2dVertex
 10
46.062157
 20
44.629219
 30
0.0
  0
VERTEX
  5
1A6
330
1A1
100
AcDbEntity
  8
001
 62
   200
370
    50
100
AcDbVertex
100
AcDb2dVertex
 10
46.05023
 20
44.557777
 30
0.0
  0
VERTEX
  5
1A7
330
1A1
100
AcDbEntity
  8
001
 62
   200
370
    50
100
AcDbVertex
100
AcDb2dVertex
 10
46.046505
 20
44.491229
 30
0.0
  0
VERTEX
  5
1A8
330
1A1
100
AcDbEntity
  8
001
 62
   200
370
    50
100
AcDbVertex
100
AcDb2dVertex
 10
46.048055
 20
44.422589
 30
0.0
  0
VERTEX
  5
1A9
330
1A1
100
AcDbEntity
  8
001
 62
   200
370
    50
100
AcDbVertex
100
AcDb2dVertex
 10
46.055139
 20
44.352553
 30
0.0
  0
VERTEX
  5
1AA
330
1A1
100
AcDbEntity
  8
001
 62
   200
370
    50
100
AcDbVertex
100
AcDb2dVertex
 10
46.113123
 20
44.151951
 30
0.0
  0
VERTEX
  5
1AB
330
1A1
100
AcDbEntity
  8
001
 62
   200
370
    50
100
AcDbVertex
100
AcDb2dVertex
 10
46.220511
 20
43.973891
 30
0.0
  0
VERTEX
  5
1AC
330
1A1
100
AcDbEntity
  8
001
 62
   200
370
    50
100
AcDbVertex
100
AcDb2dVertex
 10
46.316203
 20
43.872815
 30
0.0
  0
VERTEX
  5
1AD
330
1A1
100
AcDbEntity
  8
001
 62
   200
370
    50
100
AcDbVertex
100
AcDb2dVertex
 10
46.428641
 20
43.790056
 30
0.0
  0
VERTEX
  5
1AE
330
1A1
100
AcDbEntity
  8
001
 62
   200
370
    50
100
AcDbVertex
100
AcDb2dVertex
 10
46.490496
 20
43.756206
 30
0.0
  0
VERTEX
  5
1AF
330
1A1
100
AcDbEntity
  8
001
 62
   200
370
    50
100
AcDbVertex
100
AcDb2dVertex
 10
46.553421
 20
43.727808
 30
0.0
  0
VERTEX
  5
1B0
330
1A1
100
AcDbEntity
  8
001
 62
   200
370
    50
100
AcDbVertex
100
AcDb2dVertex
 10
46.616613
 20
43.705035
 30
0.0
  0
VERTEX
  5
1B1
330
1A1
100
AcDbEntity
  8
001
 62
   200
370
    50
100
AcDbVertex
100
AcDb2dVertex
 10
46.687084
 20
43.688072
 30
0.0
  0
VERTEX
  5
1B2
330
1A1
100
AcDbEntity
  8
001
 62
   200
370
    50
100
AcDbVertex
100
AcDb2dVertex
 10
46.780911
 20
43.675775
 30
0.0
  0
VERTEX
  5
1B3
330
1A1
100
AcDbEntity
  8
001
 62
   200
370
    50
100
AcDbVertex
100
AcDb2dVertex
 10
46.849948
 20
43.671737
 30
0.0
  0
SEQEND
  5
1A2
330
1A1
100
AcDbEntity
  8
001
370
    50
  0
LINE
  5
1B4
330
1F
100
AcDbEntity
  8
001
 62
   200
370
    50
100
AcDbLine
 10
46.265566
 20
45.177805
 30
0.0
 11
46.101618
 21
44.762332
 31
0.0
  0
POLYLINE
  5
1B5
330
1F
100
AcDbEntity
  8
001
 62
   200
370
    50
100
AcDb2dPolyline
 66
     1
 10
0.0
 20
0.0
 30
0.0
  0
VERTEX
  5
1B7
330
1B5
100
AcDbEntity
  8
001
 62
   200
370
    50
100
AcDbVertex
100
AcDb2dVertex
 10
46.315237
 20
45.281109
 30
0.0
  0
VERTEX
  5
1B8
330
1B5
100
AcDbEntity
  8
001
 62
   200
370
    50
100
AcDbVertex
100
AcDb2dVertex
 10
46.303984
 20
45.260696
 30
0.0
  0
VERTEX
  5
1B9
330
1B5
100
AcDbEntity
  8
001
 62
   200
370
    50
100
AcDbVertex
100
AcDb2dVertex
 10
46.288532
 20
45.230354
 30
0.0
  0
VERTEX
  5
1BA
330
1B5
100
AcDbEntity
  8
001
 62
   200
370
    50
100
AcDbVertex
100
AcDb2dVertex
 10
46.274483
 20
45.19934
 30
0.0
  0
VERTEX
  5
1BB
330
1B5
100
AcDbEntity
  8
001
 62
   200
370
    50
100
AcDbVertex
100
AcDb2dVertex
 10
46.265566
 20
45.177805
 30
0.0
  0
SEQEND
  5
1B6
330
1B5
100
AcDbEntity
  8
001
370
    50
  0
POLYLINE
  5
1BC
330
1F
100
AcDbEntity
  8
001
 62
   140
370
    50
100
AcDb2dPolyline
 66
     1
 10
0.0
 20
0.0
 30
0.0
  0
VERTEX
  5
1BE
330
1BC
100
AcDbEntity
  8
001
 62
   140
370
    50
100
AcDbVertex
100
AcDb2dVertex
 10
57.214284
 20
110.50364
 30
0.0
  0
VERTEX
  5
1BF
330
1BC
100
AcDbEntity
  8
001
 62
   140
370
    50
100
AcDbVertex
100
AcDb2dVertex
 10
57.203683
 20
110.625449
 30
0.0
  0
VERTEX
  5
1C0
330
1BC
100
AcDbEntity
  8
001
 62
   140
370
    50
100
AcDbVertex
100
AcDb2dVertex
 10
57.179449
 20
110.793824
 30
0.0
  0
VERTEX
  5
1C1
330
1BC
100
AcDbEntity
  8
001
 62
   140
370
    50
100
AcDbVertex
100
AcDb2dVertex
 10
57.126703
 20
111.003657
 30
0.0
  0
VERTEX
  5
1C2
330
1BC
100
AcDbEntity
  8
001
 62
   140
370
    50
100
AcDbVertex
100
AcDb2dVertex
 10
57.053766
 20
111.186232
 30
0.0
  0
VERTEX
  5
1C3
330
1BC
100
AcDbEntity
  8
001
 62
   140
370
    50
100
AcDbVertex
100
AcDb2dVertex
 10
56.957801
 20
111.373553
 30
0.0
  0
VERTEX
  5
1C4
330
1BC
100
AcDbEntity
  8
001
 62
   140
370
    50
100
AcDbVertex
100
AcDb2dVertex
 10
56.841783
 20
111.556773
 30
0.0
  0
VERTEX
  5
1C5
330
1BC
100
AcDbEntity
  8
001
 62
   140
370
    50
100
AcDbVertex
100
AcDb2dVertex
 10
56.349358
 20
112.063656
 30
0.0
  0
VERTEX
  5
1C6
330
1BC
100
AcDbEntity
  8
001
 62
   140
370
    50
100
AcDbVertex
100
AcDb2dVertex
 10
55.764313
 20
112.429948
 30
0.0
  0
VERTEX
  5
1C7
330
1BC
100
AcDbEntity
  8
001
 62
   140
370
    50
100
AcDbVertex
100
AcDb2dVertex
 10
55.318461
 20
112.61231
 30
0.0
  0
VERTEX
  5
1C8
330
1BC
100
AcDbEntity
  8
001
 62
   140
370
    50
100
AcDbVertex
100
AcDb2dVertex
 10
54.791635
 20
112.728891
 30
0.0
  0
VERTEX
  5
1C9
330
1BC
100
AcDbEntity
  8
001
 62
   140
370
    50
100
AcDbVertex
100
AcDb2dVertex
 10
54.558507
 20
112.757585
 30
0.0
  0
VERTEX
  5
1CA
330
1BC
100
AcDbEntity
  8
001
 62
   140
370
    50
100
AcDbVertex
100
AcDb2dVertex
 10
54.393098
 20
112.772076
 30
0.0
  0
SEQEND
  5
1BD
330
1BC
100
AcDbEntity
  8
001
370
    50
  0
POLYLINE
  5
1CB
330
1F
100
AcDbEntity
  8
001
 62
   140
370
    50
100
AcDb2dPolyline
 66
     1
 10
0.0
 20
0.0
 30
0.0
  0
VERTEX
  5
1CD
330
1CB
100
AcDbEntity
  8
001
 62
   140
370
    50
100
AcDbVertex
100
AcDb2dVertex
 10
51.21277
 20
110.429428
 30
0.0
  0
VERTEX
  5
1CE
330
1CB
100
AcDbEntity
  8
001
 62
   140
370
    50
100
AcDbVertex
100
AcDb2dVertex
 10
51.223386
 20
110.307618
 30
0.0
  0
VERTEX
  5
1CF
330
1CB
100
AcDbEntity
  8
001
 62
   140
370
    50
100
AcDbVertex
100
AcDb2dVertex
 10
51.247605
 20
110.139245
 30
0.0
  0
VERTEX
  5
1D0
330
1CB
100
AcDbEntity
  8
001
 62
   140
370
    50
100
AcDbVertex
100
AcDb2dVertex
 10
51.300235
 20
109.929418
 30
0.0
  0
VERTEX
  5
1D1
330
1CB
100
AcDbEntity
  8
001
 62
   140
370
    50
100
AcDbVertex
100
AcDb2dVertex
 10
51.373289
 20
109.746836
 30
0.0
  0
VERTEX
  5
1D2
330
1CB
100
AcDbEntity
  8
001
 62
   140
370
    50
100
AcDbVertex
100
AcDb2dVertex
 10
51.46974
 20
109.559488
 30
0.0
  0
VERTEX
  5
1D3
330
1CB
100
AcDbEntity
  8
001
 62
   140
370
    50
100
AcDbVertex
100
AcDb2dVertex
 10
51.585271
 20
109.376295
 30
0.0
  0
VERTEX
  5
1D4
330
1CB
100
AcDbEntity
  8
001
 62
   140
370
    50
100
AcDbVertex
100
AcDb2dVertex
 10
52.066837
 20
108.870017
 30
0.0
  0
VERTEX
  5
1D5
330
1CB
100
AcDbEntity
  8
001
 62
   140
370
    50
100
AcDbVertex
100
AcDb2dVertex
 10
52.662742
 20
108.50312
 30
0.0
  0
VERTEX
  5
1D6
330
1CB
100
AcDbEntity
  8
001
 62
   140
370
    50
100
AcDbVertex
100
AcDb2dVertex
 10
53.139403
 20
108.319041
 30
0.0
  0
VERTEX
  5
1D7
330
1CB
100
AcDbEntity
  8
001
 62
   140
370
    50
100
AcDbVertex
100
AcDb2dVertex
 10
53.635419
 20
108.204177
 30
0.0
  0
VERTEX
  5
1D8
330
1CB
100
AcDbEntity
  8
001
 62
   140
370
    50
100
AcDbVertex
100
AcDb2dVertex
 10
53.894779
 20
108.171312
 30
0.0
  0
VERTEX
  5
1D9
330
1CB
100
AcDbEntity
  8
001
 62
   140
370
    50
100
AcDbVertex
100
AcDb2dVertex
 10
54.155744
 20
108.156041
 30
0.0
  0
VERTEX
  5
1DA
330
1CB
100
AcDbEntity
  8
001
 62
   140
370
    50
100
AcDbVertex
100
AcDb2dVertex
 10
54.417152
 20
108.158352
 30
0.0
  0
VERTEX
  5
1DB
330
1CB
100
AcDbEntity
  8
001
 62
   140
370
    50
100
AcDbVertex
100
AcDb2dVertex
 10
54.677825
 20
108.178108
 30
0.0
  0
VERTEX
  5
1DC
330
1CB
100
AcDbEntity
  8
001
 62
   140
370
    50
100
AcDbVertex
100
AcDb2dVertex
 10
55.17892
 20
108.26724
 30
0.0
  0
VERTEX
  5
1DD
330
1CB
100
AcDbEntity
  8
001
 62
   140
370
    50
100
AcDbVertex
100
AcDb2dVertex
 10
55.66423
 20
108.428056
 30
0.0
  0
VERTEX
  5
1DE
330
1CB
100
AcDbEntity
  8
001
 62
   140
370
    50
100
AcDbVertex
100
AcDb2dVertex
 10
56.278003
 20
108.769607
 30
0.0
  0
VERTEX
  5
1DF
330
1CB
100
AcDbEntity
  8
001
 62
   140
370
    50
100
AcDbVertex
100
AcDb2dVertex
 10
56.784
 20
109.24628
 30
0.0
  0
VERTEX
  5
1E0
330
1CB
100
AcDbEntity
  8
001
 62
   140
370
    50
100
AcDbVertex
100
AcDb2dVertex
 10
56.908301
 20
109.419103
 30
0.0
  0
VERTEX
  5
1E1
330
1CB
100
AcDbEntity
  8
001
 62
   140
370
    50
100
AcDbVertex
100
AcDb2dVertex
 10
57.01424
 20
109.605762
 30
0.0
  0
VERTEX
  5
1E2
330
1CB
100
AcDbEntity
  8
001
 62
   140
370
    50
100
AcDbVertex
100
AcDb2dVertex
 10
57.097098
 20
109.798239
 30
0.0
  0
VERTEX
  5
1E3
330
1CB
100
AcDbEntity
  8
001
 62
   140
370
    50
100
AcDbVertex
100
AcDb2dVertex
 10
57.159382
 20
109.991398
 30
0.0
  0
VERTEX
  5
1E4
330
1CB
100
AcDbEntity
  8
001
 62
   140
370
    50
100
AcDbVertex
100
AcDb2dVertex
 10
57.198943
 20
110.177034
 30
0.0
  0
VERTEX
  5
1E5
330
1CB
100
AcDbEntity
  8
001
 62
   140
370
    50
100
AcDbVertex
100
AcDb2dVertex
 10
57.215015
 20
110.39147
 30
0.0
  0
VERTEX
  5
1E6
330
1CB
100
AcDbEntity
  8
001
 62
   140
370
    50
100
AcDbVertex
100
AcDb2dVertex
 10
57.215161
 20
110.4574
 30
0.0
  0
VERTEX
  5
1E7
330
1CB
100
AcDbEntity
  8
001
 62
   140
370
    50
100
AcDbVertex
100
AcDb2dVertex
 10
57.214284
 20
110.50364
 30
0.0
  0
SEQEND
  5
1CC
330
1CB
100
AcDbEntity
  8
001
370
    50
  0
POLYLINE
  5
1E8
330
1F
100
AcDbEntity
  8
001
 62
   140
370
    50
100
AcDb2dPolyline
 66
     1
 10
0.0
 20
0.0
 30
0.0
  0
VERTEX
  5
1EA
330
1E8
100
AcDbEntity
  8
001
 62
   140
370
    50
100
AcDbVertex
100
AcDb2dVertex
 10
54.393098
 20
112.772076
 30
0.0
  0
VERTEX
  5
1EB
330
1E8
100
AcDbEntity
  8
001
 62
   140
370
    50
100
AcDbVertex
100
AcDb2dVertex
 10
54.37206
 20
112.776599
 30
0.0
  0
VERTEX
  5
1EC
330
1E8
100
AcDbEntity
  8
001
 62
   140
370
    50
100
AcDbVertex
100
AcDb2dVertex
 10
54.35097
 20
112.780869
 30
0.0
  0
VERTEX
  5
1ED
330
1E8
100
AcDbEntity
  8
001
 62
   140
370
    50
100
AcDbVertex
100
AcDb2dVertex
 10
54.261327
 20
112.793535
 30
0.0
  0
VERTEX
  5
1EE
330
1E8
100
AcDbEntity
  8
001
 62
   140
370
    50
100
AcDbVertex
100
AcDb2dVertex
 10
54.170762
 20
112.797532
 30
0.0
  0
VERTEX
  5
1EF
330
1E8
100
AcDbEntity
  8
001
 62
   140
370
    50
100
AcDbVertex
100
AcDb2dVertex
 10
54.076725
 20
112.792665
 30
0.0
  0
VERTEX
  5
1F0
330
1E8
100
AcDbEntity
  8
001
 62
   140
370
    50
100
AcDbVertex
100
AcDb2dVertex
 10
53.983775
 20
112.778416
 30
0.0
  0
VERTEX
  5
1F1
330
1E8
100
AcDbEntity
  8
001
 62
   140
370
    50
100
AcDbVertex
100
AcDb2dVertex
 10
53.969249
 20
112.775306
 30
0.0
  0
VERTEX
  5
1F2
330
1E8
100
AcDbEntity
  8
001
 62
   140
370
    50
100
AcDbVertex
100
AcDb2dVertex
 10
53.95475
 20
112.772076
 30
0.0
  0
SEQEND
  5
1E9
330
1E8
100
AcDbEntity
  8
001
370
    50
  0
POLYLINE
  5
1F3
330
1F
100
AcDbEntity
  8
001
 62
   140
370
    50
100
AcDb2dPolyline
 66
     1
 10
0.0
 20
0.0
 30
0.0
  0
VERTEX
  5
1F5
330
1F3
100
AcDbEntity
  8
001
 62
   140
370
    50
100
AcDbVertex
100
AcDb2dVertex
 10
53.95475
 20
112.772076
 30
0.0
  0
VERTEX
  5
1F6
330
1F3
100
AcDbEntity
  8
001
 62
   140
370
    50
100
AcDbVertex
100
AcDb2dVertex
 10
53.870239
 20
112.765919
 30
0.0
  0
VERTEX
  5
1F7
330
1F3
100
AcDbEntity
  8
001
 62
   140
370
    50
100
AcDbVertex
100
AcDb2dVertex
 10
53.74923
 20
112.75496
 30
0.0
  0
VERTEX
  5
1F8
330
1F3
100
AcDbEntity
  8
001
 62
   140
370
    50
100
AcDbVertex
100
AcDb2dVertex
 10
53.213116
 20
112.663765
 30
0.0
  0
VERTEX
  5
1F9
330
1F3
100
AcDbEntity
  8
001
 62
   140
370
    50
100
AcDbVertex
100
AcDb2dVertex
 10
52.762825
 20
112.505012
 30
0.0
  0
VERTEX
  5
1FA
330
1F3
100
AcDbEntity
  8
001
 62
   140
370
    50
100
AcDbVertex
100
AcDb2dVertex
 10
52.161398
 20
112.164188
 30
0.0
  0
VERTEX
  5
1FB
330
1F3
100
AcDbEntity
  8
001
 62
   140
370
    50
100
AcDbVertex
100
AcDb2dVertex
 10
51.643054
 20
111.686788
 30
0.0
  0
VERTEX
  5
1FC
330
1F3
100
AcDbEntity
  8
001
 62
   140
370
    50
100
AcDbVertex
100
AcDb2dVertex
 10
51.518198
 20
111.513933
 30
0.0
  0
VERTEX
  5
1FD
330
1F3
100
AcDbEntity
  8
001
 62
   140
370
    50
100
AcDbVertex
100
AcDb2dVertex
 10
51.412815
 20
111.327306
 30
0.0
  0
VERTEX
  5
1FE
330
1F3
100
AcDbEntity
  8
001
 62
   140
370
    50
100
AcDbVertex
100
AcDb2dVertex
 10
51.330097
 20
111.134837
 30
0.0
  0
VERTEX
  5
1FF
330
1F3
100
AcDbEntity
  8
001
 62
   140
370
    50
100
AcDbVertex
100
AcDb2dVertex
 10
51.267673
 20
110.941671
 30
0.0
  0
VERTEX
  5
200
330
1F3
100
AcDbEntity
  8
001
 62
   140
370
    50
100
AcDbVertex
100
AcDb2dVertex
 10
51.228081
 20
110.756032
 30
0.0
  0
VERTEX
  5
201
330
1F3
100
AcDbEntity
  8
001
 62
   140
370
    50
100
AcDbVertex
100
AcDb2dVertex
 10
51.21204
 20
110.541598
 30
0.0
  0
VERTEX
  5
202
330
1F3
100
AcDbEntity
  8
001
 62
   140
370
    50
100
AcDbVertex
100
AcDb2dVertex
 10
51.211894
 20
110.475668
 30
0.0
  0
VERTEX
  5
203
330
1F3
100
AcDbEntity
  8
001
 62
   140
370
    50
100
AcDbVertex
100
AcDb2dVertex
 10
51.21277
 20
110.429428
 30
0.0
  0
SEQEND
  5
1F4
330
1F3
100
AcDbEntity
  8
001
370
    50
  0
LINE
  5
204
330
1F
100
AcDbEntity
  8
001
 62
   140
370
    50
100
AcDbLine
 10
63.86193
 20
112.772076
 30
0.0
 11
54.393098
 21
112.772076
 31
0.0
  0
LINE
  5
205
330
1F
100
AcDbEntity
  8
001
 62
   140
370
    50
100
AcDbLine
 10
53.95475
 20
112.772076
 30
0.0
 11
46.546422
 21
112.772076
 31
0.0
  0
POLYLINE
  5
206
330
1F
100
AcDbEntity
  8
001
 62
   140
370
    50
100
AcDb2dPolyline
 66
     1
 10
0.0
 20
0.0
 30
0.0
  0
VERTEX
  5
208
330
206
100
AcDbEntity
  8
001
 62
   140
370
    50
100
AcDbVertex
100
AcDb2dVertex
 10
46.546422
 20
120.529463
 30
0.0
  0
VERTEX
  5
209
330
206
100
AcDbEntity
  8
001
 62
   140
370
    50
100
AcDbVertex
100
AcDb2dVertex
 10
48.269475
 20
120.436027
 30
0.0
  0
VERTEX
  5
20A
330
206
100
AcDbEntity
  8
001
 62
   140
370
    50
100
AcDbVertex
100
AcDb2dVertex
 10
50.788005
 20
120.30364
 30
0.0
  0
VERTEX
  5
20B
330
206
100
AcDbEntity
  8
001
 62
   140
370
    50
100
AcDbVertex
100
AcDb2dVertex
 10
53.704473
 20
120.15582
 30
0.0
  0
VERTEX
  5
20C
330
206
100
AcDbEntity
  8
001
 62
   140
370
    50
100
AcDbVertex
100
AcDb2dVertex
 10
56.179291
 20
120.035768
 30
0.0
  0
VERTEX
  5
20D
330
206
100
AcDbEntity
  8
001
 62
   140
370
    50
100
AcDbVertex
100
AcDb2dVertex
 10
58.466327
 20
119.928506
 30
0.0
  0
VERTEX
  5
20E
330
206
100
AcDbEntity
  8
001
 62
   140
370
    50
100
AcDbVertex
100
AcDb2dVertex
 10
60.37752
 20
119.841117
 30
0.0
  0
VERTEX
  5
20F
330
206
100
AcDbEntity
  8
001
 62
   140
370
    50
100
AcDbVertex
100
AcDb2dVertex
 10
61.724807
 20
119.780685
 30
0.0
  0
SEQEND
  5
207
330
206
100
AcDbEntity
  8
001
370
    50
  0
POLYLINE
  5
210
330
1F
100
AcDbEntity
  8
001
 62
   140
370
    50
100
AcDb2dPolyline
 66
     1
 10
0.0
 20
0.0
 30
0.0
  0
VERTEX
  5
212
330
210
100
AcDbEntity
  8
001
 62
   140
370
    50
100
AcDbVertex
100
AcDb2dVertex
 10
61.724807
 20
119.780685
 30
0.0
  0
VERTEX
  5
213
330
210
100
AcDbEntity
  8
001
 62
   140
370
    50
100
AcDbVertex
100
AcDb2dVertex
 10
62.05368
 20
118.36464
 30
0.0
  0
VERTEX
  5
214
330
210
100
AcDbEntity
  8
001
 62
   140
370
    50
100
AcDbVertex
100
AcDb2dVertex
 10
62.615896
 20
116.317228
 30
0.0
  0
VERTEX
  5
215
330
210
100
AcDbEntity
  8
001
 62
   140
370
    50
100
AcDbVertex
100
AcDb2dVertex
 10
63.322687
 20
114.201291
 30
0.0
  0
VERTEX
  5
216
330
210
100
AcDbEntity
  8
001
 62
   140
370
    50
100
AcDbVertex
100
AcDb2dVertex
 10
63.86193
 20
112.772076
 30
0.0
  0
SEQEND
  5
211
330
210
100
AcDbEntity
  8
001
370
    50
  0
LINE
  5
217
330
1F
100
AcDbEntity
  8
001
 62
   140
370
    50
100
AcDbLine
 10
64.546422
 20
101.252378
 30
0.0
 11
49.546422
 21
101.252378
 31
0.0
  0
LINE
  5
218
330
1F
100
AcDbEntity
  8
001
 62
   140
370
    50
100
AcDbLine
 10
46.546422
 20
107.581812
 30
0.0
 11
49.546422
 21
103.693381
 31
0.0
  0
LINE
  5
219
330
1F
100
AcDbEntity
  8
001
 62
   140
370
    50
100
AcDbLine
 10
64.546422
 20
112.259851
 30
0.0
 11
63.86193
 21
112.772076
 31
0.0
  0
LINE
  5
21A
330
1F
100
AcDbEntity
  8
001
 62
   140
370
    50
100
AcDbLine
 10
61.704505
 20
123.871346
 30
0.0
 11
61.587959
 21
125.796408
 31
0.0
  0
LINE
  5
21B
330
1F
100
AcDbEntity
  8
001
 62
   140
370
    50
100
AcDbLine
 10
61.587959
 20
125.796408
 30
0.0
 11
64.546422
 21
124.317177
 31
0.0
  0
LINE
  5
21C
330
1F
100
AcDbEntity
  8
001
 62
   140
370
    50
100
AcDbLine
 10
61.724807
 20
119.780685
 30
0.0
 11
61.488524
 21
122.225449
 31
0.0
  0
LINE
  5
21D
330
1F
100
AcDbEntity
  8
001
 62
   140
370
    50
100
AcDbLine
 10
62.029877
 20
122.012094
 30
0.0
 11
61.488524
 21
122.225449
 31
0.0
  0
LINE
  5
21E
330
1F
100
AcDbEntity
  8
001
 62
   140
370
    50
100
AcDbLine
 10
61.922518
 20
123.785425
 30
0.0
 11
62.029877
 21
122.012094
 31
0.0
  0
LINE
  5
21F
330
1F
100
AcDbEntity
  8
001
 62
   140
370
    50
100
AcDbLine
 10
61.922518
 20
123.785425
 30
0.0
 11
61.704505
 21
123.871346
 31
0.0
  0
LINE
  5
220
330
1F
100
AcDbEntity
  8
001
 62
   140
370
    50
100
AcDbLine
 10
61.488524
 20
122.225449
 30
0.0
 11
46.546422
 21
121.791666
 31
0.0
  0
LINE
  5
221
330
1F
100
AcDbEntity
  8
001
 62
   140
370
    50
100
AcDbLine
 10
46.546422
 20
107.581812
 30
0.0
 11
46.546422
 21
121.791666
 31
0.0
  0
LINE
  5
222
330
1F
100
AcDbEntity
  8
001
 62
   140
370
    50
100
AcDbLine
 10
61.922518
 20
123.785425
 30
0.0
 11
61.471619
 21
123.445159
 31
0.0
  0
LINE
  5
223
330
1F
100
AcDbEntity
  8
001
 62
   140
370
    50
100
AcDbLine
 10
61.704505
 20
123.871346
 30
0.0
 11
61.462362
 21
123.688616
 31
0.0
  0
LINE
  5
224
330
1F
100
AcDbEntity
  8
001
 62
   140
370
    50
100
AcDbLine
 10
61.388753
 20
125.624511
 30
0.0
 11
61.587959
 21
125.796408
 31
0.0
  0
LINE
  5
225
330
1F
100
AcDbEntity
  8
001
 62
   140
370
    50
100
AcDbLine
 10
49.546422
 20
103.693381
 30
0.0
 11
49.546422
 21
100.756758
 31
0.0
  0
LINE
  5
226
330
1F
100
AcDbEntity
  8
001
 62
   140
370
    50
100
AcDbLine
 10
64.546422
 20
100.931623
 30
0.0
 11
64.546422
 21
124.317177
 31
0.0
  0
POLYLINE
  5
227
330
1F
100
AcDbEntity
  8
001
 62
   200
370
    50
100
AcDb2dPolyline
 66
     1
 10
0.0
 20
0.0
 30
0.0
  0
VERTEX
  5
229
330
227
100
AcDbEntity
  8
001
 62
   200
370
    50
100
AcDbVertex
100
AcDb2dVertex
 10
46.210301
 20
121.521244
 30
0.0
  0
VERTEX
  5
22A
330
227
100
AcDbEntity
  8
001
 62
   200
370
    50
100
AcDbVertex
100
AcDb2dVertex
 10
46.214633
 20
121.496197
 30
0.0
  0
VERTEX
  5
22B
330
227
100
AcDbEntity
  8
001
 62
   200
370
    50
100
AcDbVertex
100
AcDb2dVertex
 10
46.224675
 20
121.463096
 30
0.0
  0
VERTEX
  5
22C
330
227
100
AcDbEntity
  8
001
 62
   200
370
    50
100
AcDbVertex
100
AcDb2dVertex
 10
46.24051
 20
121.433157
 30
0.0
  0
VERTEX
  5
22D
330
227
100
AcDbEntity
  8
001
 62
   200
370
    50
100
AcDbVertex
100
AcDb2dVertex
 10
46.262902
 20
121.407639
 30
0.0
  0
VERTEX
  5
22E
330
227
100
AcDbEntity
  8
001
 62
   200
370
    50
100
AcDbVertex
100
AcDb2dVertex
 10
46.29237
 20
121.380873
 30
0.0
  0
VERTEX
  5
22F
330
227
100
AcDbEntity
  8
001
 62
   200
370
    50
100
AcDbVertex
100
AcDb2dVertex
 10
46.315237
 20
121.362495
 30
0.0
  0
SEQEND
  5
228
330
227
100
AcDbEntity
  8
001
370
    50
  0
LINE
  5
230
330
1F
100
AcDbEntity
  8
001
 62
   200
370
    50
100
AcDbLine
 10
47.013896
 20
121.88973
 30
0.0
 11
60.732068
 21
122.287981
 31
0.0
  0
POLYLINE
  5
231
330
1F
100
AcDbEntity
  8
001
 62
   200
370
    50
100
AcDb2dPolyline
 66
     1
 10
0.0
 20
0.0
 30
0.0
  0
VERTEX
  5
233
330
231
100
AcDbEntity
  8
001
 62
   200
370
    50
100
AcDbVertex
100
AcDb2dVertex
 10
61.259854
 20
122.218811
 30
0.0
  0
VERTEX
  5
234
330
231
100
AcDbEntity
  8
001
 62
   200
370
    50
100
AcDbVertex
100
AcDb2dVertex
 10
61.19991
 20
122.2364
 30
0.0
  0
VERTEX
  5
235
330
231
100
AcDbEntity
  8
001
 62
   200
370
    50
100
AcDbVertex
100
AcDb2dVertex
 10
61.116492
 20
122.25739
 30
0.0
  0
VERTEX
  5
236
330
231
100
AcDbEntity
  8
001
 62
   200
370
    50
100
AcDbVertex
100
AcDb2dVertex
 10
60.986812
 20
122.280153
 30
0.0
  0
VERTEX
  5
237
330
231
100
AcDbEntity
  8
001
 62
   200
370
    50
100
AcDbVertex
100
AcDb2dVertex
 10
60.854075
 20
122.287561
 30
0.0
  0
VERTEX
  5
238
330
231
100
AcDbEntity
  8
001
 62
   200
370
    50
100
AcDbVertex
100
AcDb2dVertex
 10
60.783134
 20
122.288333
 30
0.0
  0
VERTEX
  5
239
330
231
100
AcDbEntity
  8
001
 62
   200
370
    50
100
AcDbVertex
100
AcDb2dVertex
 10
60.732068
 20
122.287981
 30
0.0
  0
SEQEND
  5
232
330
231
100
AcDbEntity
  8
001
370
    50
  0
LINE
  5
23A
330
1F
100
AcDbEntity
  8
001
 62
   200
370
    50
100
AcDbLine
 10
46.546422
 20
121.198397
 30
0.0
 11
46.315237
 21
121.362495
 31
0.0
  0
POLYLINE
  5
23B
330
1F
100
AcDbEntity
  8
001
 62
   200
370
    50
100
AcDb2dPolyline
 66
     1
 10
0.0
 20
0.0
 30
0.0
  0
VERTEX
  5
23D
330
23B
100
AcDbEntity
  8
001
 62
   200
370
    50
100
AcDbVertex
100
AcDb2dVertex
 10
47.013896
 20
121.88973
 30
0.0
  0
VERTEX
  5
23E
330
23B
100
AcDbEntity
  8
001
 62
   200
370
    50
100
AcDbVertex
100
AcDb2dVertex
 10
47.006938
 20
121.889508
 30
0.0
  0
VERTEX
  5
23F
330
23B
100
AcDbEntity
  8
001
 62
   200
370
    50
100
AcDbVertex
100
AcDb2dVertex
 10
46.99689
 20
121.88916
 30
0.0
  0
VERTEX
  5
240
330
23B
100
AcDbEntity
  8
001
 62
   200
370
    50
100
AcDbVertex
100
AcDb2dVertex
 10
46.922165
 20
121.885108
 30
0.0
  0
VERTEX
  5
241
330
23B
100
AcDbEntity
  8
001
 62
   200
370
    50
100
AcDbVertex
100
AcDb2dVertex
 10
46.858267
 20
121.878754
 30
0.0
  0
VERTEX
  5
242
330
23B
100
AcDbEntity
  8
001
 62
   200
370
    50
100
AcDbVertex
100
AcDb2dVertex
 10
46.731218
 20
121.858921
 30
0.0
  0
VERTEX
  5
243
330
23B
100
AcDbEntity
  8
001
 62
   200
370
    50
100
AcDbVertex
100
AcDb2dVertex
 10
46.598898
 20
121.828742
 30
0.0
  0
VERTEX
  5
244
330
23B
100
AcDbEntity
  8
001
 62
   200
370
    50
100
AcDbVertex
100
AcDb2dVertex
 10
46.446378
 20
121.776313
 30
0.0
  0
VERTEX
  5
245
330
23B
100
AcDbEntity
  8
001
 62
   200
370
    50
100
AcDbVertex
100
AcDb2dVertex
 10
46.310987
 20
121.694076
 30
0.0
  0
VERTEX
  5
246
330
23B
100
AcDbEntity
  8
001
 62
   200
370
    50
100
AcDbVertex
100
AcDb2dVertex
 10
46.281066
 20
121.667274
 30
0.0
  0
VERTEX
  5
247
330
23B
100
AcDbEntity
  8
001
 62
   200
370
    50
100
AcDbVertex
100
AcDb2dVertex
 10
46.254123
 20
121.638516
 30
0.0
  0
VERTEX
  5
248
330
23B
100
AcDbEntity
  8
001
 62
   200
370
    50
100
AcDbVertex
100
AcDb2dVertex
 10
46.234768
 20
121.612324
 30
0.0
  0
VERTEX
  5
249
330
23B
100
AcDbEntity
  8
001
 62
   200
370
    50
100
AcDbVertex
100
AcDb2dVertex
 10
46.220218
 20
121.580315
 30
0.0
  0
VERTEX
  5
24A
330
23B
100
AcDbEntity
  8
001
 62
   200
370
    50
100
AcDbVertex
100
AcDb2dVertex
 10
46.212543
 20
121.546386
 30
0.0
  0
VERTEX
  5
24B
330
23B
100
AcDbEntity
  8
001
 62
   200
370
    50
100
AcDbVertex
100
AcDb2dVertex
 10
46.210301
 20
121.521244
 30
0.0
  0
SEQEND
  5
23C
330
23B
100
AcDbEntity
  8
001
370
    50
  0
POLYLINE
  5
24C
330
1F
100
AcDbEntity
  8
001
 62
   200
370
    50
100
AcDb2dPolyline
 66
     1
 10
0.0
 20
0.0
 30
0.0
  0
VERTEX
  5
24E
330
24C
100
AcDbEntity
  8
001
 62
   200
370
    50
100
AcDbVertex
100
AcDb2dVertex
 10
46.849948
 20
126.201559
 30
0.0
  0
VERTEX
  5
24F
330
24C
100
AcDbEntity
  8
001
 62
   200
370
    50
100
AcDbVertex
100
AcDb2dVertex
 10
46.84299
 20
126.201338
 30
0.0
  0
VERTEX
  5
250
330
24C
100
AcDbEntity
  8
001
 62
   200
370
    50
100
AcDbVertex
100
AcDb2dVertex
 10
46.832942
 20
126.200989
 30
0.0
  0
VERTEX
  5
251
330
24C
100
AcDbEntity
  8
001
 62
   200
370
    50
100
AcDbVertex
100
AcDb2dVertex
 10
46.758216
 20
126.196937
 30
0.0
  0
VERTEX
  5
252
330
24C
100
AcDbEntity
  8
001
 62
   200
370
    50
100
AcDbVertex
100
AcDb2dVertex
 10
46.694318
 20
126.190583
 30
0.0
  0
VERTEX
  5
253
330
24C
100
AcDbEntity
  8
001
 62
   200
370
    50
100
AcDbVertex
100
AcDb2dVertex
 10
46.567269
 20
126.17075
 30
0.0
  0
VERTEX
  5
254
330
24C
100
AcDbEntity
  8
001
 62
   200
370
    50
100
AcDbVertex
100
AcDb2dVertex
 10
46.43495
 20
126.140571
 30
0.0
  0
VERTEX
  5
255
330
24C
100
AcDbEntity
  8
001
 62
   200
370
    50
100
AcDbVertex
100
AcDb2dVertex
 10
46.28243
 20
126.088142
 30
0.0
  0
VERTEX
  5
256
330
24C
100
AcDbEntity
  8
001
 62
   200
370
    50
100
AcDbVertex
100
AcDb2dVertex
 10
46.147038
 20
126.005905
 30
0.0
  0
VERTEX
  5
257
330
24C
100
AcDbEntity
  8
001
 62
   200
370
    50
100
AcDbVertex
100
AcDb2dVertex
 10
46.117118
 20
125.979103
 30
0.0
  0
VERTEX
  5
258
330
24C
100
AcDbEntity
  8
001
 62
   200
370
    50
100
AcDbVertex
100
AcDb2dVertex
 10
46.090175
 20
125.950345
 30
0.0
  0
VERTEX
  5
259
330
24C
100
AcDbEntity
  8
001
 62
   200
370
    50
100
AcDbVertex
100
AcDb2dVertex
 10
46.07082
 20
125.924153
 30
0.0
  0
VERTEX
  5
25A
330
24C
100
AcDbEntity
  8
001
 62
   200
370
    50
100
AcDbVertex
100
AcDb2dVertex
 10
46.056269
 20
125.892145
 30
0.0
  0
VERTEX
  5
25B
330
24C
100
AcDbEntity
  8
001
 62
   200
370
    50
100
AcDbVertex
100
AcDb2dVertex
 10
46.048595
 20
125.858215
 30
0.0
  0
VERTEX
  5
25C
330
24C
100
AcDbEntity
  8
001
 62
   200
370
    50
100
AcDbVertex
100
AcDb2dVertex
 10
46.046353
 20
125.833073
 30
0.0
  0
SEQEND
  5
24D
330
24C
100
AcDbEntity
  8
001
370
    50
  0
LINE
  5
25D
330
1F
100
AcDbEntity
  8
001
 62
   200
370
    50
100
AcDbLine
 10
46.046353
 20
125.833073
 30
0.0
 11
46.210301
 21
121.521244
 31
0.0
  0
LINE
  5
25E
330
1F
100
AcDbEntity
  8
001
 62
   200
370
    50
100
AcDbLine
 10
46.849948
 20
126.201559
 30
0.0
 11
60.568119
 21
126.59981
 31
0.0
  0
LINE
  5
25F
330
1F
100
AcDbEntity
  8
001
 62
   200
370
    50
100
AcDbLine
 10
61.518444
 20
122.213657
 30
0.0
 11
61.363369
 21
126.292117
 31
0.0
  0
POLYLINE
  5
260
330
1F
100
AcDbEntity
  8
001
 62
   200
370
    50
100
AcDb2dPolyline
 66
     1
 10
0.0
 20
0.0
 30
0.0
  0
VERTEX
  5
262
330
260
100
AcDbEntity
  8
001
 62
   200
370
    50
100
AcDbVertex
100
AcDb2dVertex
 10
61.363369
 20
126.292117
 30
0.0
  0
VERTEX
  5
263
330
260
100
AcDbEntity
  8
001
 62
   200
370
    50
100
AcDbVertex
100
AcDb2dVertex
 10
61.359228
 20
126.317016
 30
0.0
  0
VERTEX
  5
264
330
260
100
AcDbEntity
  8
001
 62
   200
370
    50
100
AcDbVertex
100
AcDb2dVertex
 10
61.348995
 20
126.350265
 30
0.0
  0
VERTEX
  5
265
330
260
100
AcDbEntity
  8
001
 62
   200
370
    50
100
AcDbVertex
100
AcDb2dVertex
 10
61.332036
 20
126.381075
 30
0.0
  0
VERTEX
  5
266
330
260
100
AcDbEntity
  8
001
 62
   200
370
    50
100
AcDbVertex
100
AcDb2dVertex
 10
61.310768
 20
126.405722
 30
0.0
  0
VERTEX
  5
267
330
260
100
AcDbEntity
  8
001
 62
   200
370
    50
100
AcDbVertex
100
AcDb2dVertex
 10
61.281818
 20
126.432355
 30
0.0
  0
VERTEX
  5
268
330
260
100
AcDbEntity
  8
001
 62
   200
370
    50
100
AcDbVertex
100
AcDb2dVertex
 10
61.24985
 20
126.456804
 30
0.0
  0
VERTEX
  5
269
330
260
100
AcDbEntity
  8
001
 62
   200
370
    50
100
AcDbVertex
100
AcDb2dVertex
 10
61.105428
 20
126.528411
 30
0.0
  0
VERTEX
  5
26A
330
260
100
AcDbEntity
  8
001
 62
   200
370
    50
100
AcDbVertex
100
AcDb2dVertex
 10
60.952544
 20
126.569219
 30
0.0
  0
VERTEX
  5
26B
330
260
100
AcDbEntity
  8
001
 62
   200
370
    50
100
AcDbVertex
100
AcDb2dVertex
 10
60.829176
 20
126.589642
 30
0.0
  0
VERTEX
  5
26C
330
260
100
AcDbEntity
  8
001
 62
   200
370
    50
100
AcDbVertex
100
AcDb2dVertex
 10
60.690126
 20
126.59939
 30
0.0
  0
VERTEX
  5
26D
330
260
100
AcDbEntity
  8
001
 62
   200
370
    50
100
AcDbVertex
100
AcDb2dVertex
 10
60.618788
 20
126.60031
 30
0.0
  0
VERTEX
  5
26E
330
260
100
AcDbEntity
  8
001
 62
   200
370
    50
100
AcDbVertex
100
AcDb2dVertex
 10
60.568119
 20
126.59981
 30
0.0
  0
SEQEND
  5
261
330
260
100
AcDbEntity
  8
001
370
    50
  0
LINE
  5
26F
330
1F
100
AcDbEntity
  8
001
 62
   140
370
    50
100
AcDbLine
 10
46.546422
 20
134.801226
 30
0.0
 11
49.546422
 21
133.493504
 31
0.0
  0
LINE
  5
270
330
1F
100
AcDbEntity
  8
001
 62
   140
370
    50
100
AcDbLine
 10
49.546422
 20
136.546769
 30
0.0
 11
46.546422
 21
136.546769
 31
0.0
  0
LINE
  5
271
330
1F
100
AcDbEntity
  8
001
 62
   140
370
    50
100
AcDbLine
 10
46.546422
 20
126.167499
 30
0.0
 11
46.546422
 21
136.546769
 31
0.0
  0
LINE
  5
272
330
1F
100
AcDbEntity
  8
001
 62
   200
370
    50
100
AcDbLine
 10
46.546422
 20
129.12764
 30
0.0
 11
46.315237
 21
129.366831
 31
0.0
  0
POLYLINE
  5
273
330
1F
100
AcDbEntity
  8
001
 62
   200
370
    50
100
AcDb2dPolyline
 66
     1
 10
0.0
 20
0.0
 30
0.0
  0
VERTEX
  5
275
330
273
100
AcDbEntity
  8
001
 62
   200
370
    50
100
AcDbVertex
100
AcDb2dVertex
 10
46.210431
 20
129.608272
 30
0.0
  0
VERTEX
  5
276
330
273
100
AcDbEntity
  8
001
 62
   200
370
    50
100
AcDbVertex
100
AcDb2dVertex
 10
46.21202
 20
129.574461
 30
0.0
  0
VERTEX
  5
277
330
273
100
AcDbEntity
  8
001
 62
   200
370
    50
100
AcDbVertex
100
AcDb2dVertex
 10
46.219225
 20
129.528178
 30
0.0
  0
VERTEX
  5
278
330
273
100
AcDbEntity
  8
001
 62
   200
370
    50
100
AcDbVertex
100
AcDb2dVertex
 10
46.233449
 20
129.485339
 30
0.0
  0
VERTEX
  5
279
330
273
100
AcDbEntity
  8
001
 62
   200
370
    50
100
AcDbVertex
100
AcDb2dVertex
 10
46.252039
 20
129.449495
 30
0.0
  0
VERTEX
  5
27A
330
273
100
AcDbEntity
  8
001
 62
   200
370
    50
100
AcDbVertex
100
AcDb2dVertex
 10
46.27558
 20
129.413325
 30
0.0
  0
VERTEX
  5
27B
330
273
100
AcDbEntity
  8
001
 62
   200
370
    50
100
AcDbVertex
100
AcDb2dVertex
 10
46.307874
 20
129.374615
 30
0.0
  0
VERTEX
  5
27C
330
273
100
AcDbEntity
  8
001
 62
   200
370
    50
100
AcDbVertex
100
AcDb2dVertex
 10
46.312212
 20
129.37
 30
0.0
  0
VERTEX
  5
27D
330
273
100
AcDbEntity
  8
001
 62
   200
370
    50
100
AcDbVertex
100
AcDb2dVertex
 10
46.315237
 20
129.366831
 30
0.0
  0
SEQEND
  5
274
330
273
100
AcDbEntity
  8
001
370
    50
  0
POLYLINE
  5
27E
330
1F
100
AcDbEntity
  8
001
 62
   200
370
    50
100
AcDb2dPolyline
 66
     1
 10
0.0
 20
0.0
 30
0.0
  0
VERTEX
  5
280
330
27E
100
AcDbEntity
  8
001
 62
   200
370
    50
100
AcDbVertex
100
AcDb2dVertex
 10
46.546422
 20
129.961783
 30
0.0
  0
VERTEX
  5
281
330
27E
100
AcDbEntity
  8
001
 62
   200
370
    50
100
AcDbVertex
100
AcDb2dVertex
 10
46.447675
 20
129.914519
 30
0.0
  0
VERTEX
  5
282
330
27E
100
AcDbEntity
  8
001
 62
   200
370
    50
100
AcDbVertex
100
AcDb2dVertex
 10
46.327158
 20
129.832917
 30
0.0
  0
VERTEX
  5
283
330
27E
100
AcDbEntity
  8
001
 62
   200
370
    50
100
AcDbVertex
100
AcDb2dVertex
 10
46.293194
 20
129.798642
 30
0.0
  0
VERTEX
  5
284
330
27E
100
AcDbEntity
  8
001
 62
   200
370
    50
100
AcDbVertex
100
AcDb2dVertex
 10
46.26523
 20
129.762992
 30
0.0
  0
VERTEX
  5
285
330
27E
100
AcDbEntity
  8
001
 62
   200
370
    50
100
AcDbVertex
100
AcDb2dVertex
 10
46.243357
 20
129.728471
 30
0.0
  0
VERTEX
  5
286
330
27E
100
AcDbEntity
  8
001
 62
   200
370
    50
100
AcDbVertex
100
AcDb2dVertex
 10
46.225923
 20
129.687344
 30
0.0
  0
VERTEX
  5
287
330
27E
100
AcDbEntity
  8
001
 62
   200
370
    50
100
AcDbVertex
100
AcDb2dVertex
 10
46.214918
 20
129.641897
 30
0.0
  0
VERTEX
  5
288
330
27E
100
AcDbEntity
  8
001
 62
   200
370
    50
100
AcDbVertex
100
AcDb2dVertex
 10
46.210431
 20
129.608272
 30
0.0
  0
SEQEND
  5
27F
330
27E
100
AcDbEntity
  8
001
370
    50
  0
LINE
  5
289
330
1F
100
AcDbEntity
  8
001
 62
   200
370
    50
100
AcDbLine
 10
46.210431
 20
129.608272
 30
0.0
 11
46.053763
 21
125.884954
 31
0.0
  0
LINE
  5
28A
330
1F
100
AcDbEntity
  8
001
 62
   200
370
    50
100
AcDbLine
 10
46.048834
 20
125.76781
 30
0.0
 11
46.046482
 21
125.711916
 31
0.0
  0
POLYLINE
  5
28B
330
1F
100
AcDbEntity
  8
001
 62
   200
370
    50
100
AcDb2dPolyline
 66
     1
 10
0.0
 20
0.0
 30
0.0
  0
VERTEX
  5
28D
330
28B
100
AcDbEntity
  8
001
 62
   200
370
    50
100
AcDbVertex
100
AcDb2dVertex
 10
46.046482
 20
125.711915
 30
0.0
  0
VERTEX
  5
28E
330
28B
100
AcDbEntity
  8
001
 62
   200
370
    50
100
AcDbVertex
100
AcDb2dVertex
 10
46.046345
 20
125.696827
 30
0.0
  0
VERTEX
  5
28F
330
28B
100
AcDbEntity
  8
001
 62
   200
370
    50
100
AcDbVertex
100
AcDb2dVertex
 10
46.04753
 20
125.674849
 30
0.0
  0
VERTEX
  5
290
330
28B
100
AcDbEntity
  8
001
 62
   200
370
    50
100
AcDbVertex
100
AcDb2dVertex
 10
46.050679
 20
125.652774
 30
0.0
  0
VERTEX
  5
291
330
28B
100
AcDbEntity
  8
001
 62
   200
370
    50
100
AcDbVertex
100
AcDb2dVertex
 10
46.053777
 20
125.637805
 30
0.0
  0
SEQEND
  5
28C
330
28B
100
AcDbEntity
  8
001
370
    50
  0
ARC
  5
292
330
1F
100
AcDbEntity
  8
001
 62
   253
370
    50
100
AcDbCircle
 10
50.546422
 20
60.670145
 30
0.0
 40
1.0
100
AcDbArc
 50
180.0
 51
229.690072
  0
LINE
  5
293
330
1F
100
AcDbEntity
  8
001
 62
   253
370
    50
100
AcDbLine
 10
49.546422
 20
60.670145
 30
0.0
 11
49.546422
 21
100.756758
 31
0.0
  0
POLYLINE
  5
294
330
1F
100
AcDbEntity
  8
001
 62
   253
370
    50
100
AcDb2dPolyline
 66
     1
 10
0.0
 20
0.0
 30
0.0
  0
VERTEX
  5
296
330
294
100
AcDbEntity
  8
001
 62
   253
370
    50
100
AcDbVertex
100
AcDb2dVertex
 10
49.546422
 20
100.756758
 30
0.0
  0
VERTEX
  5
297
330
294
100
AcDbEntity
  8
001
 62
   253
370
    50
100
AcDbVertex
100
AcDb2dVertex
 10
49.549109
 20
100.766613
 30
0.0
  0
VERTEX
  5
298
330
294
100
AcDbEntity
  8
001
 62
   253
370
    50
100
AcDbVertex
100
AcDb2dVertex
 10
49.552477
 20
100.775975
 30
0.0
  0
VERTEX
  5
299
330
294
100
AcDbEntity
  8
001
 62
   253
370
    50
100
AcDbVertex
100
AcDb2dVertex
 10
49.590235
 20
100.812302
 30
0.0
  0
VERTEX
  5
29A
330
294
100
AcDbEntity
  8
001
 62
   253
370
    50
100
AcDbVertex
100
AcDb2dVertex
 10
49.64601
 20
100.832839
 30
0.0
  0
VERTEX
  5
29B
330
294
100
AcDbEntity
  8
001
 62
   253
370
    50
100
AcDbVertex
100
AcDb2dVertex
 10
49.746709
 20
100.860348
 30
0.0
  0
VERTEX
  5
29C
330
294
100
AcDbEntity
  8
001
 62
   253
370
    50
100
AcDbVertex
100
AcDb2dVertex
 10
49.84266
 20
100.880995
 30
0.0
  0
VERTEX
  5
29D
330
294
100
AcDbEntity
  8
001
 62
   253
370
    50
100
AcDbVertex
100
AcDb2dVertex
 10
49.979032
 20
100.901231
 30
0.0
  0
VERTEX
  5
29E
330
294
100
AcDbEntity
  8
001
 62
   253
370
    50
100
AcDbVertex
100
AcDb2dVertex
 10
50.118919
 20
100.914841
 30
0.0
  0
VERTEX
  5
29F
330
294
100
AcDbEntity
  8
001
 62
   253
370
    50
100
AcDbVertex
100
AcDb2dVertex
 10
50.2808
 20
100.925368
 30
0.0
  0
VERTEX
  5
2A0
330
294
100
AcDbEntity
  8
001
 62
   253
370
    50
100
AcDbVertex
100
AcDb2dVertex
 10
50.442114
 20
100.930669
 30
0.0
  0
VERTEX
  5
2A1
330
294
100
AcDbEntity
  8
001
 62
   253
370
    50
100
AcDbVertex
100
AcDb2dVertex
 10
50.494241
 20
100.931286
 30
0.0
  0
VERTEX
  5
2A2
330
294
100
AcDbEntity
  8
001
 62
   253
370
    50
100
AcDbVertex
100
AcDb2dVertex
 10
50.546422
 20
100.931623
 30
0.0
  0
SEQEND
  5
295
330
294
100
AcDbEntity
  8
001
370
    50
  0
POLYLINE
  5
2A3
330
1F
100
AcDbEntity
  8
001
 62
   253
370
    50
100
AcDb2dPolyline
 66
     1
 10
0.0
 20
0.0
 30
0.0
  0
VERTEX
  5
2A5
330
2A3
100
AcDbEntity
  8
001
 62
   253
370
    50
100
AcDbVertex
100
AcDb2dVertex
 10
50.546422
 20
59.670145
 30
0.0
  0
VERTEX
  5
2A6
330
2A3
100
AcDbEntity
  8
001
 62
   253
370
    50
100
AcDbVertex
100
AcDb2dVertex
 10
50.37925
 20
59.689404
 30
0.0
  0
VERTEX
  5
2A7
330
2A3
100
AcDbEntity
  8
001
 62
   253
370
    50
100
AcDbVertex
100
AcDb2dVertex
 10
50.216559
 20
59.726117
 30
0.0
  0
VERTEX
  5
2A8
330
2A3
100
AcDbEntity
  8
001
 62
   253
370
    50
100
AcDbVertex
100
AcDb2dVertex
 10
50.063002
 20
59.793474
 30
0.0
  0
VERTEX
  5
2A9
330
2A3
100
AcDbEntity
  8
001
 62
   253
370
    50
100
AcDbVertex
100
AcDb2dVertex
 10
49.923691
 20
59.887716
 30
0.0
  0
VERTEX
  5
2AA
330
2A3
100
AcDbEntity
  8
001
 62
   253
370
    50
100
AcDbVertex
100
AcDb2dVertex
 10
49.911488
 20
59.89767
 30
0.0
  0
VERTEX
  5
2AB
330
2A3
100
AcDbEntity
  8
001
 62
   253
370
    50
100
AcDbVertex
100
AcDb2dVertex
 10
49.899371
 20
59.907706
 30
0.0
  0
SEQEND
  5
2A4
330
2A3
100
AcDbEntity
  8
001
370
    50
  0
ARC
  5
2AC
330
1F
100
AcDbEntity
  8
001
 62
   253
370
    50
100
AcDbCircle
 10
73.546422
 20
136.670145
 30
0.0
 40
0.9999999999999929
100
AcDbArc
 50
0.0
 51
90.0
  0
ARC
  5
2AD
330
1F
100
AcDbEntity
  8
001
 62
   253
370
    50
100
AcDbCircle
 10
73.546422
 20
60.670145
 30
0.0
 40
0.9999999999999929
100
AcDbArc
 50
270.0
 51
0.0
  0
LINE
  5
2AE
330
1F
100
AcDbEntity
  8
001
 62
   253
370
    50
100
AcDbLine
 10
74.546422
 20
60.670145
 30
0.0
 11
74.546422
 21
136.670145
 31
0.0
  0
LINE
  5
2AF
330
1F
100
AcDbEntity
  8
001
 62
   253
370
    50
100
AcDbLine
 10
73.546422
 20
137.670145
 30
0.0
 11
50.546422
 21
137.670145
 31
0.0
  0
LINE
  5
2B0
330
1F
100
AcDbEntity
  8
001
 62
   253
370
    50
100
AcDbLine
 10
50.546422
 20
59.670145
 30
0.0
 11
73.546422
 21
59.670145
 31
0.0
  0
LINE
  5
2B1
330
1F
100
AcDbEntity
  8
001
 62
   253
370
    50
100
AcDbLine
 10
50.546422
 20
100.931623
 30
0.0
 11
64.546422
 21
100.931623
 31
0.0
  0
ARC
  5
2B2
330
1F
100
AcDbEntity
  8
001
 62
   253
370
    50
100
AcDbCircle
 10
82.546422
 20
136.670145
 30
0.0
 40
8.000000000000007
100
AcDbArc
 50
180.0
 51
270.0
  0
ARC
  5
2B3
330
1F
100
AcDbEntity
  8
001
 62
   253
370
    50
100
AcDbCircle
 10
82.546422
 20
60.670145
 30
0.0
 40
8.000000000000007
100
AcDbArc
 50
90.0
 51
180.0
  0
ARC
  5
2B4
330
1F
100
AcDbEntity
  8
001
 62
   253
370
    50
100
AcDbCircle
 10
50.546422
 20
136.670145
 30
0.0
 40
1.0
100
AcDbArc
 50
90.0
 51
180.0
  0
LINE
  5
2B5
330
1F
100
AcDbEntity
  8
001
 62
   253
370
    50
100
AcDbLine
 10
49.546422
 20
126.27984
 30
0.0
 11
49.546422
 21
136.670145
 31
0.0
  0
ARC
  5
2B6
330
1F
100
AcDbEntity
  8
001
 62
   253
370
    50
100
AcDbCircle
 10
88.546422
 20
127.670145
 30
0.0
 40
1.0
100
AcDbArc
 50
0.0
 51
90.0
  0
ARC
  5
2B7
330
1F
100
AcDbEntity
  8
001
 62
   253
370
    50
100
AcDbCircle
 10
88.546422
 20
69.670145
 30
0.0
 40
1.0
100
AcDbArc
 50
270.0
 51
0.0
  0
LINE
  5
2B8
330
1F
100
AcDbEntity
  8
001
 62
   253
370
    50
100
AcDbLine
 10
89.546422
 20
127.670145
 30
0.0
 11
89.546422
 21
69.670145
 31
0.0
  0
LINE
  5
2B9
330
1F
100
AcDbEntity
  8
001
 62
   253
370
    50
100
AcDbLine
 10
88.546422
 20
128.670145
 30
0.0
 11
82.546422
 21
128.670145
 31
0.0
  0
LINE
  5
2BA
330
1F
100
AcDbEntity
  8
001
 62
   253
370
    50
100
AcDbLine
 10
82.546422
 20
68.670145
 30
0.0
 11
88.546422
 21
68.670145
 31
0.0
  0
LINE
  5
2BB
330
1F
100
AcDbEntity
  8
001
 62
   253
370
    50
100
AcDbLine
 10
169.546422
 20
90.670145
 30
0.0
 11
169.546422
 21
106.670145
 31
0.0
  0
LINE
  5
2BC
330
1F
100
AcDbEntity
  8
001
 62
   253
370
    50
100
AcDbLine
 10
161.546422
 20
114.670145
 30
0.0
 11
92.546422
 21
114.670145
 31
0.0
  0
LINE
  5
2BD
330
1F
100
AcDbEntity
  8
001
 62
   253
370
    50
100
AcDbLine
 10
161.546422
 20
82.670145
 30
0.0
 11
92.546422
 21
82.670145
 31
0.0
  0
LINE
  5
2BE
330
1F
100
AcDbEntity
  8
001
 62
   253
370
    50
100
AcDbLine
 10
92.546422
 20
114.670145
 30
0.0
 11
92.546422
 21
82.670145
 31
0.0
  0
LINE
  5
2BF
330
1F
100
AcDbEntity
  8
001
 62
   253
370
    50
100
AcDbLine
 10
92.546422
 20
114.170145
 30
0.0
 11
89.546422
 21
114.170145
 31
0.0
  0
LINE
  5
2C0
330
1F
100
AcDbEntity
  8
001
 62
   253
370
    50
100
AcDbLine
 10
89.546422
 20
83.170145
 30
0.0
 11
92.546422
 21
83.170145
 31
0.0
  0
LINE
  5
2C1
330
1F
100
AcDbEntity
  8
001
370
    50
100
AcDbLine
 10
169.546422
 20
98.670145
 30
0.0
 11
175.213883
 21
101.942255
 31
0.0
  0
LINE
  5
2C2
330
1F
100
AcDbEntity
  8
001
370
    50
100
AcDbLine
 10
169.546422
 20
98.670145
 30
0.0
 11
175.213883
 21
95.398035
 31
0.0
  0
LINE
  5
2C3
330
1F
100
AcDbEntity
  8
001
370
    50
100
AcDbLine
 10
49.546422
 20
98.670145
 30
0.0
 11
43.878961
 21
101.942255
 31
0.0
  0
LINE
  5
2C4
330
1F
100
AcDbEntity
  8
001
370
    50
100
AcDbLine
 10
49.546422
 20
98.670145
 30
0.0
 11
43.878961
 21
95.398035
 31
0.0
  0
LINE
  5
2C5
330
1F
100
AcDbEntity
  8
001
  6
DASHED
 62
   253
370
    50
100
AcDbLine
 10
52.546422
 20
88.170145
 30
0.0
 11
52.546422
 21
100.756758
 31
0.0
  0
LINE
  5
2C6
330
1F
100
AcDbEntity
  8
001
  6
DASHED
370
    50
100
AcDbLine
 10
52.546422
 20
88.170145
 30
0.0
 11
49.546422
 21
85.170145
 31
0.0
  0
ARC
  5
2C7
330
1F
100
AcDbEntity
  8
001
 62
   253
370
    50
100
AcDbCircle
 10
161.546422
 20
106.670145
 30
0.0
 40
8.0
100
AcDbArc
 50
0.0
 51
90.0
  0
ARC
  5
2C8
330
1F
100
AcDbEntity
  8
001
 62
   253
370
    50
100
AcDbCircle
 10
161.546422
 20
90.670145
 30
0.0
 40
8.0
100
AcDbArc
 50
270.0
 51
0.0
  0
TEXT
  5
2C9
330
1F
100
AcDbEntity
  8
001
370
    30
100
AcDbText
 10
48.92893
 20
154.658209
 30
0.0
 40
8.0
  1
ＮＫＮ３２－１１０Ｔ－０３
 41
0.833333
100
AcDbText
  0
ENDSEC
  0
SECTION
  2
OBJECTS
  0
DICTIONARY
  5
C
330
0
100
AcDbDictionary
281
     1
  3
ACAD_GROUP
350
D
  3
ACAD_LAYOUT
350
1A
  3
ACAD_MLEADERSTYLE
350
2CD
  3
ACAD_MLINESTYLE
350
17
  3
ACAD_PLOTSETTINGS
350
19
  3
ACAD_PLOTSTYLENAME
350
E
  3
ACAD_SCALELIST
350
3B
  3
ACAD_TABLESTYLE
350
2CC
  3
ACAD_VISUALSTYLE
350
2A
  3
AcDbVariableDictionary
350
2CA
  0
DICTIONARY
  5
D
102
{ACAD_REACTORS
330
C
102
}
330
C
100
AcDbDictionary
281
     1
  0
DICTIONARY
  5
1A
102
{ACAD_REACTORS
330
C
102
}
330
C
100
AcDbDictionary
281
     1
  3
Layout1
350
1E
  3
Layout2
350
26
  3
Model
350
22
  0
DICTIONARY
  5
2CD
102
{ACAD_REACTORS
330
C
102
}
330
C
100
AcDbDictionary
281
     1
  0
DICTIONARY
  5
17
102
{ACAD_REACTORS
330
C
102
}
330
C
100
AcDbDictionary
281
     1
  3
Standard
350
18
  0
DICTIONARY
  5
19
102
{ACAD_REACTORS
330
C
102
}
330
C
100
AcDbDictionary
281
     1
  0
ACDBDICTIONARYWDFLT
  5
E
102
{ACAD_REACTORS
330
C
102
}
330
C
100
AcDbDictionary
281
     1
  3
Normal
350
F
100
AcDbDictionaryWithDefault
340
F
  0
DICTIONARY
  5
3B
102
{ACAD_REACTORS
330
C
102
}
330
C
100
AcDbDictionary
281
     1
  3
A0
350
3C
  3
A1
350
3D
  3
A2
350
3E
  3
A3
350
3F
  3
A4
350
40
  3
A5
350
41
  3
A6
350
42
  3
A7
350
43
  3
A8
350
44
  3
A9
350
45
  3
B0
350
46
  3
B1
350
47
  3
B2
350
48
  3
B3
350
49
  3
B4
350
4A
  3
B5
350
4B
  3
B6
350
4C
  3
B7
350
4D
  3
B8
350
4E
  3
B9
350
4F
  3
C0
350
50
  3
C1
350
51
  3
C2
350
52
  3
C3
350
53
  3
C4
350
54
  3
C5
350
55
  3
C6
350
56
  3
C7
350
57
  3
C8
350
58
  3
C9
350
59
  3
D0
350
5A
  3
D1
350
5B
  3
D2
350
5C
  0
DICTIONARY
  5
2CC
102
{ACAD_REACTORS
330
C
102
}
330
C
100
AcDbDictionary
281
     1
  0
DICTIONARY
  5
2A
102
{ACAD_REACTORS
330
C
102
}
330
C
100
AcDbDictionary
281
     1
  3
2dWireframe
350
2F
  3
3D Hidden
350
31
  3
3dWireframe
350
30
  3
Basic
350
32
  3
Brighten
350
36
  3
ColorChange
350
3A
  3
Conceptual
350
34
  3
Dim
350
35
  3
Facepattern
350
39
  3
Flat
350
2B
  3
FlatWithEdges
350
2C
  3
Gouraud
350
2D
  3
GouraudWithEdges
350
2E
  3
Linepattern
350
38
  3
Realistic
350
33
  3
Thicken
350
37
  0
DICTIONARY
  5
2CA
102
{ACAD_REACTORS
330
C
102
}
330
C
100
AcDbDictionary
281
     1
  3
CANNOSCALE
350
2CB
  3
PSOLHEIGHT
350
2CF
  3
PSOLWIDTH
350
2CE
  0
LAYOUT
  5
1E
102
{ACAD_REACTORS
330
1A
102
}
330
1A
100
AcDbPlotSettings
  1

  2
none_device
  4

  6

 40
0.0
 41
0.0
 42
0.0
 43
0.0
 44
0.0
 45
0.0
 46
0.0
 47
0.0
 48
0.0
 49
0.0
140
0.0
141
0.0
142
1.0
143
1.0
 70
   688
 72
     0
 73
     0
 74
     5
  7

 75
    16
147
1.0
148
0.0
149
0.0
100
AcDbLayout
  1
Layout1
 70
     1
 71
     1
 10
0.0
 20
0.0
 11
12.0
 21
9.0
 12
0.0
 22
0.0
 32
0.0
 14
1.000000E+20
 24
1.000000E+20
 34
0.0
 15
-1.000000E+20
 25
-1.000000E+20
 35
0.0
146
0.0
 13
0.0
 23
0.0
 33
0.0
 16
1.0
 26
0.0
 36
0.0
 17
0.0
 27
1.0
 37
0.0
 76
     0
330
1B
  0
LAYOUT
  5
26
102
{ACAD_REACTORS
330
1A
102
}
330
1A
100
AcDbPlotSettings
  1

  2
none_device
  4

  6

 40
0.0
 41
0.0
 42
0.0
 43
0.0
 44
0.0
 45
0.0
 46
0.0
 47
0.0
 48
0.0
 49
0.0
140
0.0
141
0.0
142
1.0
143
1.0
 70
   688
 72
     0
 73
     0
 74
     5
  7

 75
    16
147
1.0
148
0.0
149
0.0
100
AcDbLayout
  1
Layout2
 70
     1
 71
     2
 10
0.0
 20
0.0
 11
0.0
 21
0.0
 12
0.0
 22
0.0
 32
0.0
 14
0.0
 24
0.0
 34
0.0
 15
0.0
 25
0.0
 35
0.0
146
0.0
 13
0.0
 23
0.0
 33
0.0
 16
1.0
 26
0.0
 36
0.0
 17
0.0
 27
1.0
 37
0.0
 76
     0
330
23
  0
LAYOUT
  5
22
102
{ACAD_REACTORS
330
1A
102
}
330
1A
100
AcDbPlotSettings
  1

  2
none_device
  4

  6

 40
0.0
 41
0.0
 42
0.0
 43
0.0
 44
0.0
 45
0.0
 46
0.0
 47
0.0
 48
0.0
 49
0.0
140
0.0
141
0.0
142
1.0
143
1.0
 70
  1712
 72
     0
 73
     0
 74
     0
  7

 75
     0
147
1.0
148
0.0
149
0.0
100
AcDbLayout
  1
Model
 70
     1
 71
     0
 10
0.0
 20
0.0
 11
12.0
 21
9.0
 12
0.0
 22
0.0
 32
0.0
 14
17.184479
 24
9.092392
 34
0.0
 15
198.725784
 25
162.658203
 35
0.0
146
0.0
 13
0.0
 23
0.0
 33
0.0
 16
1.0
 26
0.0
 36
0.0
 17
0.0
 27
1.0
 37
0.0
 76
     0
330
1F
331
29
  0
MLINESTYLE
  5
18
102
{ACAD_REACTORS
330
17
102
}
330
17
100
AcDbMlineStyle
  2
Standard
 70
     0
  3

 62
   256
 51
90.0
 52
90.0
 71
     2
 49
0.5
 62
   256
  6
BYLAYER
 49
-0.5
 62
   256
  6
BYLAYER
  0
ACDBPLACEHOLDER
  5
F
102
{ACAD_REACTORS
330
E
102
}
330
E
  0
SCALE
  5
3C
102
{ACAD_REACTORS
330
3B
102
}
330
3B
100
AcDbScale
 70
     0
300
1:1
140
1.0
141
1.0
290
     1
  0
SCALE
  5
3D
102
{ACAD_REACTORS
330
3B
102
}
330
3B
100
AcDbScale
 70
     0
300
1:2
140
1.0
141
2.0
290
     0
  0
SCALE
  5
3E
102
{ACAD_REACTORS
330
3B
102
}
330
3B
100
AcDbScale
 70
     0
300
1:4
140
1.0
141
4.0
290
     0
  0
SCALE
  5
3F
102
{ACAD_REACTORS
330
3B
102
}
330
3B
100
AcDbScale
 70
     0
300
1:5
140
1.0
141
5.0
290
     0
  0
SCALE
  5
40
102
{ACAD_REACTORS
330
3B
102
}
330
3B
100
AcDbScale
 70
     0
300
1:8
140
1.0
141
8.0
290
     0
  0
SCALE
  5
41
102
{ACAD_REACTORS
330
3B
102
}
330
3B
100
AcDbScale
 70
     0
300
1:10
140
1.0
141
10.0
290
     0
  0
SCALE
  5
42
102
{ACAD_REACTORS
330
3B
102
}
330
3B
100
AcDbScale
 70
     0
300
1:16
140
1.0
141
16.0
290
     0
  0
SCALE
  5
43
102
{ACAD_REACTORS
330
3B
102
}
330
3B
100
AcDbScale
 70
     0
300
1:20
140
1.0
141
20.0
290
     0
  0
SCALE
  5
44
102
{ACAD_REACTORS
330
3B
102
}
330
3B
100
AcDbScale
 70
     0
300
1:30
140
1.0
141
30.0
290
     0
  0
SCALE
  5
45
102
{ACAD_REACTORS
330
3B
102
}
330
3B
100
AcDbScale
 70
     0
300
1:40
140
1.0
141
40.0
290
     0
  0
SCALE
  5
46
102
{ACAD_REACTORS
330
3B
102
}
330
3B
100
AcDbScale
 70
     0
300
1:50
140
1.0
141
50.0
290
     0
  0
SCALE
  5
47
102
{ACAD_REACTORS
330
3B
102
}
330
3B
100
AcDbScale
 70
     0
300
1:100
140
1.0
141
100.0
290
     0
  0
SCALE
  5
48
102
{ACAD_REACTORS
330
3B
102
}
330
3B
100
AcDbScale
 70
     0
300
2:1
140
2.0
141
1.0
290
     0
  0
SCALE
  5
49
102
{ACAD_REACTORS
330
3B
102
}
330
3B
100
AcDbScale
 70
     0
300
4:1
140
4.0
141
1.0
290
     0
  0
SCALE
  5
4A
102
{ACAD_REACTORS
330
3B
102
}
330
3B
100
AcDbScale
 70
     0
300
8:1
140
8.0
141
1.0
290
     0
  0
SCALE
  5
4B
102
{ACAD_REACTORS
330
3B
102
}
330
3B
100
AcDbScale
 70
     0
300
10:1
140
10.0
141
1.0
290
     0
  0
SCALE
  5
4C
102
{ACAD_REACTORS
330
3B
102
}
330
3B
100
AcDbScale
 70
     0
300
100:1
140
100.0
141
1.0
290
     0
  0
SCALE
  5
4D
102
{ACAD_REACTORS
330
3B
102
}
330
3B
100
AcDbScale
 70
     0
300
1/128" = 1'-0"
140
0.007812
141
12.0
290
     0
  0
SCALE
  5
4E
102
{ACAD_REACTORS
330
3B
102
}
330
3B
100
AcDbScale
 70
     0
300
1/64" = 1'-0"
140
0.015625
141
12.0
290
     0
  0
SCALE
  5
4F
102
{ACAD_REACTORS
330
3B
102
}
330
3B
100
AcDbScale
 70
     0
300
1/32" = 1'-0"
140
0.03125
141
12.0
290
     0
  0
SCALE
  5
50
102
{ACAD_REACTORS
330
3B
102
}
330
3B
100
AcDbScale
 70
     0
300
1/16" = 1'-0"
140
0.0625
141
12.0
290
     0
  0
SCALE
  5
51
102
{ACAD_REACTORS
330
3B
102
}
330
3B
100
AcDbScale
 70
     0
300
3/32" = 1'-0"
140
0.09375
141
12.0
290
     0
  0
SCALE
  5
52
102
{ACAD_REACTORS
330
3B
102
}
330
3B
100
AcDbScale
 70
     0
300
1/8" = 1'-0"
140
0.125
141
12.0
290
     0
  0
SCALE
  5
53
102
{ACAD_REACTORS
330
3B
102
}
330
3B
100
AcDbScale
 70
     0
300
3/16" = 1'-0"
140
0.1875
141
12.0
290
     0
  0
SCALE
  5
54
102
{ACAD_REACTORS
330
3B
102
}
330
3B
100
AcDbScale
 70
     0
300
1/4" = 1'-0"
140
0.25
141
12.0
290
     0
  0
SCALE
  5
55
102
{ACAD_REACTORS
330
3B
102
}
330
3B
100
AcDbScale
 70
     0
300
3/8" = 1'-0"
140
0.375
141
12.0
290
     0
  0
SCALE
  5
56
102
{ACAD_REACTORS
330
3B
102
}
330
3B
100
AcDbScale
 70
     0
300
1/2" = 1'-0"
140
0.5
141
12.0
290
     0
  0
SCALE
  5
57
102
{ACAD_REACTORS
330
3B
102
}
330
3B
100
AcDbScale
 70
     0
300
3/4" = 1'-0"
140
0.75
141
12.0
290
     0
  0
SCALE
  5
58
102
{ACAD_REACTORS
330
3B
102
}
330
3B
100
AcDbScale
 70
     0
300
1" = 1'-0"
140
1.0
141
12.0
290
     0
  0
SCALE
  5
59
102
{ACAD_REACTORS
330
3B
102
}
330
3B
100
AcDbScale
 70
     0
300
1-1/2" = 1'-0"
140
1.5
141
12.0
290
     0
  0
SCALE
  5
5A
102
{ACAD_REACTORS
330
3B
102
}
330
3B
100
AcDbScale
 70
     0
300
3" = 1'-0"
140
3.0
141
12.0
290
     0
  0
SCALE
  5
5B
102
{ACAD_REACTORS
330
3B
102
}
330
3B
100
AcDbScale
 70
     0
300
6" = 1'-0"
140
6.0
141
12.0
290
     0
  0
SCALE
  5
5C
102
{ACAD_REACTORS
330
3B
102
}
330
3B
100
AcDbScale
 70
     0
300
1'-0" = 1'-0"
140
12.0
141
12.0
290
     0
  0
VISUALSTYLE
  5
2F
102
{ACAD_REACTORS
330
2A
102
}
330
2A
100
AcDbVisualStyle
  2
2dWireframe
 70
     4
 71
     0
 72
     2
 73
     0
 90
        0
 40
-0.6
 41
-30.0
 62
     5
 63
     7
 74
     1
 91
        4
 64
     7
 65
   257
 75
     1
175
     1
 42
1.0
 92
        0
 66
   257
 43
1.0
 76
     1
 77
     6
 78
     2
 67
     7
 79
     5
170
     0
171
     0
290
     0
174
     0
 93
        1
 44
0.0
173
     0
291
     0
 45
0.0
1001
ACAD
1000
AcDbSavedByObjectVersion
1070
     0
  0
VISUALSTYLE
  5
31
102
{ACAD_REACTORS
330
2A
102
}
330
2A
100
AcDbVisualStyle
  2
3D Hidden
 70
     6
 71
     1
 72
     2
 73
     2
 90
        0
 40
-0.6
 41
-30.0
 62
     5
 63
     7
 74
     2
 91
        2
 64
     7
 65
   257
 75
     2
175
     1
 42
40.0
 92
        0
 66
   257
 43
1.0
 76
     1
 77
     6
 78
     2
 67
     7
 79
     3
170
     0
171
     0
290
     0
174
     0
 93
        1
 44
0.0
173
     0
291
     0
 45
0.0
1001
ACAD
1000
AcDbSavedByObjectVersion
1070
     0
  0
VISUALSTYLE
  5
30
102
{ACAD_REACTORS
330
2A
102
}
330
2A
100
AcDbVisualStyle
  2
3dWireframe
 70
     5
 71
     0
 72
     2
 73
     0
 90
        0
 40
-0.6
 41
-30.0
 62
     5
 63
     7
 74
     1
 91
        4
 64
     7
 65
   257
 75
     1
175
     1
 42
1.0
 92
        0
 66
   257
 43
1.0
 76
     1
 77
     6
 78
     2
 67
     7
 79
     5
170
     0
171
     0
290
     0
174
     0
 93
        1
 44
0.0
173
     0
291
     0
 45
0.0
1001
ACAD
1000
AcDbSavedByObjectVersion
1070
     0
  0
VISUALSTYLE
  5
32
102
{ACAD_REACTORS
330
2A
102
}
330
2A
100
AcDbVisualStyle
  2
Basic
 70
     7
 71
     1
 72
     0
 73
     1
 90
        0
 40
-0.6
 41
-30.0
 62
     5
 63
     7
 74
     0
 91
        4
 64
     7
 65
   257
 75
     1
175
     1
 42
1.0
 92
        8
 66
     7
 43
1.0
 76
     1
 77
     6
 78
     2
 67
     7
 79
     5
170
     0
171
     0
290
     0
174
     0
 93
        1
 44
0.0
173
     0
291
     1
 45
0.0
1001
ACAD
1000
AcDbSavedByObjectVersion
1070
     0
  0
VISUALSTYLE
  5
36
102
{ACAD_REACTORS
330
2A
102
}
330
2A
100
AcDbVisualStyle
  2
Brighten
 70
    12
 71
     2
 72
     2
 73
     0
 90
        0
 40
-0.6
 41
-30.0
 62
     5
 63
     7
 74
     1
 91
        4
 64
     7
 65
   257
 75
     1
175
     1
 42
1.0
 92
        8
 66
     7
 43
1.0
 76
     1
 77
     6
 78
     2
 67
     7
 79
     5
170
     0
171
     0
290
     0
174
     0
 93
        1
 44
50.0
173
     0
291
     1
 45
0.0
1001
ACAD
1000
AcDbSavedByObjectVersion
1070
     0
  0
VISUALSTYLE
  5
3A
102
{ACAD_REACTORS
330
2A
102
}
330
2A
100
AcDbVisualStyle
  2
ColorChange
 70
    16
 71
     2
 72
     2
 73
     3
 90
        0
 40
-0.6
 41
-30.0
 62
     5
 63
     8
 74
     1
 91
        4
 64
     7
 65
   257
 75
     1
175
     1
 42
1.0
 92
        8
 66
     8
 43
1.0
 76
     1
 77
     6
 78
     2
 67
     7
 79
     5
170
     0
171
     0
290
     0
174
     0
 93
        1
 44
0.0
173
     0
291
     1
 45
0.0
1001
ACAD
1000
AcDbSavedByObjectVersion
1070
     0
  0
VISUALSTYLE
  5
34
102
{ACAD_REACTORS
330
2A
102
}
330
2A
100
AcDbVisualStyle
  2
Conceptual
 70
     9
 71
     3
 72
     2
 73
     0
 90
        0
 40
-0.6
 41
-30.0
 62
     5
 63
     7
 74
     2
 91
        2
 64
     7
 65
   257
 75
     1
175
     1
 42
40.0
 92
        8
 66
     7
 43
1.0
 76
     1
 77
     6
 78
     2
 67
     7
 79
     3
170
     0
171
     0
290
     0
174
     0
 93
        1
 44
0.0
173
     0
291
     0
 45
0.0
1001
ACAD
1000
AcDbSavedByObjectVersion
1070
     0
  0
VISUALSTYLE
  5
35
102
{ACAD_REACTORS
330
2A
102
}
330
2A
100
AcDbVisualStyle
  2
Dim
 70
    11
 71
     2
 72
     2
 73
     0
 90
        0
 40
-0.6
 41
-30.0
 62
     5
 63
     7
 74
     1
 91
        4
 64
     7
 65
   257
 75
     1
175
     1
 42
1.0
 92
        8
 66
     7
 43
1.0
 76
     1
 77
     6
 78
     2
 67
     7
 79
     5
170
     0
171
     0
290
     0
174
     0
 93
        1
 44
-50.0
173
     0
291
     1
 45
0.0
1001
ACAD
1000
AcDbSavedByObjectVersion
1070
     0
  0
VISUALSTYLE
  5
39
102
{ACAD_REACTORS
330
2A
102
}
330
2A
100
AcDbVisualStyle
  2
Facepattern
 70
    15
 71
     2
 72
     2
 73
     0
 90
        0
 40
-0.6
 41
-30.0
 62
     5
 63
     7
 74
     1
 91
        4
 64
     7
 65
   257
 75
     1
175
     1
 42
1.0
 92
        8
 66
     7
 43
1.0
 76
     1
 77
     6
 78
     2
 67
     7
 79
     5
170
     0
171
     0
290
     0
174
     0
 93
        1
 44
0.0
173
     0
291
     1
 45
0.0
1001
ACAD
1000
AcDbSavedByObjectVersion
1070
     0
  0
VISUALSTYLE
  5
2B
102
{ACAD_REACTORS
330
2A
102
}
330
2A
100
AcDbVisualStyle
  2
Flat
 70
     0
 71
     2
 72
     1
 73
     1
 90
        2
 40
-0.6
 41
30.0
 62
     5
 63
     7
 74
     0
 91
        4
 64
     7
 65
   257
 75
     1
175
     1
 42
1.0
 92
        8
 66
     7
 43
1.0
 76
     1
 77
     6
 78
     2
 67
     7
 79
     5
170
     0
171
     0
290
     0
174
     0
 93
       13
 44
0.0
173
     0
291
     1
 45
0.0
1001
ACAD
1000
AcDbSavedByObjectVersion
1070
     0
  0
VISUALSTYLE
  5
2C
102
{ACAD_REACTORS
330
2A
102
}
330
2A
100
AcDbVisualStyle
  2
FlatWithEdges
 70
     1
 71
     2
 72
     1
 73
     1
 90
        2
 40
-0.6
 41
30.0
 62
     5
 63
     7
 74
     1
 91
        4
 64
     7
 65
   257
 75
     1
175
     1
 42
1.0
 92
        0
 66
   257
 43
1.0
 76
     1
 77
     6
 78
     2
 67
     7
 79
     5
170
     0
171
     0
290
     0
174
     0
 93
       13
 44
0.0
173
     0
291
     1
 45
0.0
1001
ACAD
1000
AcDbSavedByObjectVersion
1070
     0
  0
VISUALSTYLE
  5
2D
102
{ACAD_REACTORS
330
2A
102
}
330
2A
100
AcDbVisualStyle
  2
Gouraud
 70
     2
 71
     2
 72
     2
 73
     1
 90
        2
 40
-0.6
 41
30.0
 62
     5
 63
     7
 74
     0
 91
        4
 64
     7
 65
   257
 75
     1
175
     1
 42
1.0
 92
        0
 66
     7
 43
1.0
 76
     1
 77
     6
 78
     2
 67
     7
 79
     5
170
     0
171
     0
290
     0
174
     0
 93
       13
 44
0.0
173
     0
291
     1
 45
0.0
1001
ACAD
1000
AcDbSavedByObjectVersion
1070
     0
  0
VISUALSTYLE
  5
2E
102
{ACAD_REACTORS
330
2A
102
}
330
2A
100
AcDbVisualStyle
  2
GouraudWithEdges
 70
     3
 71
     2
 72
     2
 73
     1
 90
        2
 40
-0.6
 41
30.0
 62
     5
 63
     7
 74
     1
 91
        4
 64
     7
 65
   257
 75
     1
175
     1
 42
1.0
 92
        0
 66
   257
 43
1.0
 76
     1
 77
     6
 78
     2
 67
     7
 79
     5
170
     0
171
     0
290
     0
174
     0
 93
       13
 44
0.0
173
     0
291
     1
 45
0.0
1001
ACAD
1000
AcDbSavedByObjectVersion
1070
     0
  0
VISUALSTYLE
  5
38
102
{ACAD_REACTORS
330
2A
102
}
330
2A
100
AcDbVisualStyle
  2
Linepattern
 70
    14
 71
     2
 72
     2
 73
     0
 90
        0
 40
-0.6
 41
-30.0
 62
     5
 63
     7
 74
     1
 91
        4
 64
     7
 65
   257
 75
     7
175
     7
 42
1.0
 92
        8
 66
     7
 43
1.0
 76
     1
 77
     6
 78
     2
 67
     7
 79
     5
170
     0
171
     0
290
     0
174
     0
 93
        1
 44
0.0
173
     0
291
     1
 45
0.0
1001
ACAD
1000
AcDbSavedByObjectVersion
1070
     0
  0
VISUALSTYLE
  5
33
102
{ACAD_REACTORS
330
2A
102
}
330
2A
100
AcDbVisualStyle
  2
Realistic
 70
     8
 71
     2
 72
     2
 73
     0
 90
        0
 40
-0.6
 41
-30.0
 62
     5
 63
     7
 74
     1
 91
        0
 64
     7
 65
   257
 75
     1
175
     1
 42
1.0
 92
        8
 66
     8
 43
1.0
 76
     1
 77
     6
 78
     2
 67
     7
 79
     5
170
     0
171
     0
290
     0
174
     0
 93
       13
 44
0.0
173
     0
291
     0
 45
0.0
1001
ACAD
1000
AcDbSavedByObjectVersion
1070
     0
  0
VISUALSTYLE
  5
37
102
{ACAD_REACTORS
330
2A
102
}
330
2A
100
AcDbVisualStyle
  2
Thicken
 70
    13
 71
     2
 72
     2
 73
     0
 90
        0
 40
-0.6
 41
-30.0
 62
     5
 63
     7
 74
     1
 91
        4
 64
     7
 65
   257
 75
     1
175
     1
 42
1.0
 92
       12
 66
     7
 43
1.0
 76
     1
 77
     6
 78
     2
 67
     7
 79
     5
170
     0
171
     0
290
     0
174
     0
 93
        1
 44
0.0
173
     0
291
     1
 45
0.0
1001
ACAD
1000
AcDbSavedByObjectVersion
1070
     0
  0
DICTIONARYVAR
  5
2CB
102
{ACAD_REACTORS
330
2CA
102
}
330
2CA
100
DictionaryVariables
280
     0
  1
1:1
  0
DICTIONARYVAR
  5
2CF
102
{ACAD_REACTORS
330
2CA
102
}
330
2CA
100
DictionaryVariables
280
     0
  1
80.000000
  0
DICTIONARYVAR
  5
2CE
102
{ACAD_REACTORS
330
2CA
102
}
330
2CA
100
DictionaryVariables
280
     0
  1
5.000000
  0
ENDSEC
  0
EOF
