  0
SECTION
  2
HEADER
  9
$ACADVER
  1
AC1015
  9
$ACADMAINTVER
 70
     6
  9
$DWGCODEPAGE
  3
ANSI_932
  9
$INSBASE
 10
0.0
 20
0.0
 30
0.0
  9
$EXTMIN
 10
17.490921
 20
-5.808594
 30
0.0
  9
$EXTMAX
 10
194.811661
 20
147.081512
 30
0.0
  9
$LIMMIN
 10
0.0
 20
0.0
  9
$LIMMAX
 10
12.0
 20
9.0
  9
$ORTHOMODE
 70
     0
  9
$REGENMODE
 70
     1
  9
$FILLMODE
 70
     1
  9
$QTEXTMODE
 70
     0
  9
$MIRRTEXT
 70
     1
  9
$LTSCALE
 40
2.341325
  9
$ATTMODE
 70
     1
  9
$TEXTSIZE
 40
3.2
  9
$TRACEWID
 40
1.0
  9
$TEXTSTYLE
  7
Standard
  9
$CLAYER
  8
0
  9
$CELTYPE
  6
ByLayer
  9
$CECOLOR
 62
   256
  9
$CELTSCALE
 40
1.0
  9
$DISPSILH
 70
     0
  9
$DIMSCALE
 40
1.0
  9
$DIMASZ
 40
2.5
  9
$DIMEXO
 40
0.625
  9
$DIMDLI
 40
3.75
  9
$DIMRND
 40
0.0
  9
$DIMDLE
 40
0.0
  9
$DIMEXE
 40
1.25
  9
$DIMTP
 40
0.0
  9
$DIMTM
 40
0.0
  9
$DIMTXT
 40
2.5
  9
$DIMCEN
 40
0.09
  9
$DIMTSZ
 40
0.0
  9
$DIMTOL
 70
     0
  9
$DIMLIM
 70
     0
  9
$DIMTIH
 70
     0
  9
$DIMTOH
 70
     0
  9
$DIMSE1
 70
     0
  9
$DIMSE2
 70
     0
  9
$DIMTAD
 70
     0
  9
$DIMZIN
 70
     8
  9
$DIMBLK
  1

  9
$DIMASO
 70
     1
  9
$DIMSHO
 70
     0
  9
$DIMPOST
  1

  9
$DIMAPOST
  1

  9
$DIMALT
 70
     0
  9
$DIMALTD
 70
     3
  9
$DIMALTF
 40
0.03937
  9
$DIMLFAC
 40
1.0
  9
$DIMTOFL
 70
     1
  9
$DIMTVP
 40
0.0
  9
$DIMTIX
 70
     0
  9
$DIMSOXD
 70
     0
  9
$DIMSAH
 70
     0
  9
$DIMBLK1
  1

  9
$DIMBLK2
  1

  9
$DIMSTYLE
  2
ISO-25
  9
$DIMCLRD
 70
     0
  9
$DIMCLRE
 70
     0
  9
$DIMCLRT
 70
     0
  9
$DIMTFAC
 40
1.0
  9
$DIMGAP
 40
0.625
  9
$DIMJUST
 70
     0
  9
$DIMSD1
 70
     0
  9
$DIMSD2
 70
     0
  9
$DIMTOLJ
 70
     0
  9
$DIMTZIN
 70
     8
  9
$DIMALTZ
 70
     0
  9
$DIMALTTZ
 70
     0
  9
$DIMUPT
 70
     0
  9
$DIMDEC
 70
     2
  9
$DIMTDEC
 70
     2
  9
$DIMALTU
 70
     2
  9
$DIMALTTD
 70
     3
  9
$DIMTXSTY
  7
Standard
  9
$DIMAUNIT
 70
     0
  9
$DIMADEC
 70
     0
  9
$DIMALTRND
 40
0.0
  9
$DIMAZIN
 70
     0
  9
$DIMDSEP
 70
    44
  9
$DIMATFIT
 70
     3
  9
$DIMFRAC
 70
     0
  9
$DIMLDRBLK
  1

  9
$DIMLUNIT
 70
     2
  9
$DIMLWD
 70
    -2
  9
$DIMLWE
 70
    -2
  9
$DIMTMOVE
 70
     0
  9
$LUNITS
 70
     2
  9
$LUPREC
 70
     4
  9
$SKETCHINC
 40
1.0
  9
$FILLETRAD
 40
0.0
  9
$AUNITS
 70
     0
  9
$AUPREC
 70
     0
  9
$MENU
  1
.
  9
$ELEVATION
 40
0.0
  9
$PELEVATION
 40
0.0
  9
$THICKNESS
 40
0.0
  9
$LIMCHECK
 70
     0
  9
$CHAMFERA
 40
10.0
  9
$CHAMFERB
 40
10.0
  9
$CHAMFERC
 40
20.0
  9
$CHAMFERD
 40
0.0
  9
$SKPOLY
 70
     0
  9
$TDCREATE
 40
2455356.592515
  9
$TDUCREATE
 40
2455356.217515
  9
$TDUPDATE
 40
2455356.592515012
  9
$TDUUPDATE
 40
2455356.217515012
  9
$TDINDWG
 40
0.0000000116
  9
$TDUSRTIMER
 40
0.0000000116
  9
$USRTIMER
 70
     1
  9
$ANGBASE
 50
0.0
  9
$ANGDIR
 70
     0
  9
$PDMODE
 70
     0
  9
$PDSIZE
 40
0.0
  9
$PLINEWID
 40
0.0
  9
$SPLFRAME
 70
     0
  9
$SPLINETYPE
 70
     6
  9
$SPLINESEGS
 70
     8
  9
$HANDSEED
  5
332
  9
$SURFTAB1
 70
     6
  9
$SURFTAB2
 70
     6
  9
$SURFTYPE
 70
     6
  9
$SURFU
 70
     6
  9
$SURFV
 70
     6
  9
$UCSBASE
  2

  9
$UCSNAME
  2

  9
$UCSORG
 10
0.0
 20
0.0
 30
0.0
  9
$UCSXDIR
 10
1.0
 20
0.0
 30
0.0
  9
$UCSYDIR
 10
0.0
 20
1.0
 30
0.0
  9
$UCSORTHOREF
  2

  9
$UCSORTHOVIEW
 70
     0
  9
$UCSORGTOP
 10
0.0
 20
0.0
 30
0.0
  9
$UCSORGBOTTOM
 10
0.0
 20
0.0
 30
0.0
  9
$UCSORGLEFT
 10
0.0
 20
0.0
 30
0.0
  9
$UCSORGRIGHT
 10
0.0
 20
0.0
 30
0.0
  9
$UCSORGFRONT
 10
0.0
 20
0.0
 30
0.0
  9
$UCSORGBACK
 10
0.0
 20
0.0
 30
0.0
  9
$PUCSBASE
  2

  9
$PUCSNAME
  2

  9
$PUCSORG
 10
0.0
 20
0.0
 30
0.0
  9
$PUCSXDIR
 10
1.0
 20
0.0
 30
0.0
  9
$PUCSYDIR
 10
0.0
 20
1.0
 30
0.0
  9
$PUCSORTHOREF
  2

  9
$PUCSORTHOVIEW
 70
     0
  9
$PUCSORGTOP
 10
0.0
 20
0.0
 30
0.0
  9
$PUCSORGBOTTOM
 10
0.0
 20
0.0
 30
0.0
  9
$PUCSORGLEFT
 10
0.0
 20
0.0
 30
0.0
  9
$PUCSORGRIGHT
 10
0.0
 20
0.0
 30
0.0
  9
$PUCSORGFRONT
 10
0.0
 20
0.0
 30
0.0
  9
$PUCSORGBACK
 10
0.0
 20
0.0
 30
0.0
  9
$USERI1
 70
     0
  9
$USERI2
 70
     0
  9
$USERI3
 70
     0
  9
$USERI4
 70
     0
  9
$USERI5
 70
     0
  9
$USERR1
 40
0.0
  9
$USERR2
 40
0.0
  9
$USERR3
 40
0.0
  9
$USERR4
 40
0.0
  9
$USERR5
 40
0.0
  9
$WORLDVIEW
 70
     1
  9
$SHADEDGE
 70
     3
  9
$SHADEDIF
 70
    70
  9
$TILEMODE
 70
     1
  9
$MAXACTVP
 70
    64
  9
$PINSBASE
 10
0.0
 20
0.0
 30
0.0
  9
$PLIMCHECK
 70
     0
  9
$PEXTMIN
 10
1.000000E+20
 20
1.000000E+20
 30
0.0
  9
$PEXTMAX
 10
-1.000000E+20
 20
-1.000000E+20
 30
0.0
  9
$PLIMMIN
 10
0.0
 20
0.0
  9
$PLIMMAX
 10
12.0
 20
9.0
  9
$UNITMODE
 70
     0
  9
$VISRETAIN
 70
     1
  9
$PLINEGEN
 70
     0
  9
$PSLTSCALE
 70
     1
  9
$TREEDEPTH
 70
  3020
  9
$CMLSTYLE
  2
Standard
  9
$CMLJUST
 70
     0
  9
$CMLSCALE
 40
20.0
  9
$PROXYGRAPHICS
 70
     1
  9
$MEASUREMENT
 70
     1
  9
$CELWEIGHT
370
    -1
  9
$ENDCAPS
280
     0
  9
$JOINSTYLE
280
     0
  9
$LWDISPLAY
290
     0
  9
$INSUNITS
 70
     4
  9
$HYPERLINKBASE
  1

  9
$STYLESHEET
  1

  9
$XEDIT
290
     1
  9
$CEPSNTYPE
380
     0
  9
$PSTYLEMODE
290
     1
  9
$FINGERPRINTGUID
  2
{C49C759F-E7B3-4E26-9DF4-32372079A562}
  9
$VERSIONGUID
  2
{FAEB1C32-E019-11D5-929B-00C0DF256EC4}
  9
$EXTNAMES
290
     1
  9
$PSVPSCALE
 40
0.0
  9
$OLESTARTUP
290
     0
  0
ENDSEC
  0
SECTION
  2
CLASSES
  0
CLASS
  1
ACDBDICTIONARYWDFLT
  2
AcDbDictionaryWithDefault
  3
ObjectDBX Classes
 90
        0
280
     0
281
     0
  0
CLASS
  1
VISUALSTYLE
  2
AcDbVisualStyle
  3
ObjectDBX Classes
 90
     4095
280
     0
281
     0
  0
CLASS
  1
SCALE
  2
AcDbScale
  3
ObjectDBX Classes
 90
     1153
280
     0
281
     0
  0
CLASS
  1
DICTIONARYVAR
  2
AcDbDictionaryVar
  3
ObjectDBX Classes
 90
        0
280
     0
281
     0
  0
CLASS
  1
ACDBPLACEHOLDER
  2
AcDbPlaceHolder
  3
ObjectDBX Classes
 90
        0
280
     0
281
     0
  0
CLASS
  1
LAYOUT
  2
AcDbLayout
  3
ObjectDBX Classes
 90
        0
280
     0
281
     0
  0
ENDSEC
  0
SECTION
  2
TABLES
  0
TABLE
  2
VPORT
  5
8
330
0
100
AcDbSymbolTable
 70
     1
  0
VPORT
  5
29
330
8
100
AcDbSymbolTableRecord
100
AcDbViewportTableRecord
  2
*Active
 70
     0
 10
0.0
 20
0.0
 11
1.0
 21
1.0
 12
106.151291
 22
70.636459
 13
0.0
 23
0.0
 14
1.0
 24
1.0
 15
0.0
 25
0.0
 16
0.0
 26
0.0
 36
1.0
 17
0.0
 27
0.0
 37
0.0
 40
154.419007
 41
1.691288
 42
50.0
 43
0.0
 44
0.0
 50
0.0
 51
0.0
 71
     0
 72
   100
 73
     1
 74
     3
 75
     0
 76
     0
 77
     0
 78
     0
281
     0
 65
     1
110
0.0
120
0.0
130
0.0
111
1.0
121
0.0
131
0.0
112
0.0
122
1.0
132
0.0
 79
     0
146
0.0
  0
ENDTAB
  0
TABLE
  2
LTYPE
  5
5
330
0
100
AcDbSymbolTable
 70
     5
  0
LTYPE
  5
14
330
5
100
AcDbSymbolTableRecord
100
AcDbLinetypeTableRecord
  2
ByBlock
 70
     0
  3

 72
    65
 73
     0
 40
0.0
  0
LTYPE
  5
15
330
5
100
AcDbSymbolTableRecord
100
AcDbLinetypeTableRecord
  2
ByLayer
 70
     0
  3

 72
    65
 73
     0
 40
0.0
  0
LTYPE
  5
16
330
5
100
AcDbSymbolTableRecord
100
AcDbLinetypeTableRecord
  2
Continuous
 70
     0
  3
Solid line
 72
    65
 73
     0
 40
0.0
  0
LTYPE
  5
5D
330
5
100
AcDbSymbolTableRecord
100
AcDbLinetypeTableRecord
  2
DASHED
 70
     0
  3
DASHED
 72
    83
 73
     2
 40
0.75
 49
0.5
 74
     0
 49
-0.25
 74
     0
  0
LTYPE
  5
5E
330
5
100
AcDbSymbolTableRecord
100
AcDbLinetypeTableRecord
  2
HIDDEN
 70
     0
  3
HIDDEN
 72
    83
 73
     2
 40
0.375
 49
0.25
 74
     0
 49
-0.125
 74
     0
  0
LTYPE
  5
5F
330
5
100
AcDbSymbolTableRecord
100
AcDbLinetypeTableRecord
  2
CENTER
 70
     0
  3
CENTER
 72
    83
 73
     4
 40
2.0
 49
1.25
 74
     0
 49
-0.25
 74
     0
 49
0.25
 74
     0
 49
-0.25
 74
     0
  0
LTYPE
  5
60
330
5
100
AcDbSymbolTableRecord
100
AcDbLinetypeTableRecord
  2
PHANTOM
 70
     0
  3
PHANTOM
 72
    83
 73
     6
 40
2.5
 49
1.25
 74
     0
 49
-0.25
 74
     0
 49
0.25
 74
     0
 49
-0.25
 74
     0
 49
0.25
 74
     0
 49
-0.25
 74
     0
  0
ENDTAB
  0
TABLE
  2
LAYER
  5
2
330
0
100
AcDbSymbolTable
 70
     2
  0
LAYER
  5
10
330
2
100
AcDbSymbolTableRecord
100
AcDbLayerTableRecord
  2
0
 70
     0
 62
     7
  6
Continuous
370
    -3
390
F
  0
LAYER
  5
61
330
2
100
AcDbSymbolTableRecord
100
AcDbLayerTableRecord
  2
001
 70
     0
 62
     7
  6
Continuous
370
    -3
390
F
  0
ENDTAB
  0
TABLE
  2
STYLE
  5
3
330
0
100
AcDbSymbolTable
 70
     2
  0
STYLE
  5
11
330
3
100
AcDbSymbolTableRecord
100
AcDbTextStyleTableRecord
  2
Standard
 70
     0
 40
0.0
 41
1.0
 50
0.0
 71
     0
 42
0.2
  3
TXT
  4
BIGFONT
  0
STYLE
  5
62
330
3
100
AcDbSymbolTableRecord
100
AcDbTextStyleTableRecord
  2
TATEGAKI
 70
     4
 40
1.0
 41
1.0
 50
0.0
 71
     0
 42
0.2
  3
TXT
  4
BIGFONT
  0
ENDTAB
  0
TABLE
  2
VIEW
  5
6
330
0
100
AcDbSymbolTable
 70
     0
  0
ENDTAB
  0
TABLE
  2
UCS
  5
7
330
0
100
AcDbSymbolTable
 70
     0
  0
ENDTAB
  0
TABLE
  2
APPID
  5
9
330
0
100
AcDbSymbolTable
 70
     1
  0
APPID
  5
12
330
9
100
AcDbSymbolTableRecord
100
AcDbRegAppTableRecord
  2
ACAD
 70
     0
  0
ENDTAB
  0
TABLE
  2
DIMSTYLE
  5
A
330
0
100
AcDbSymbolTable
 70
     2
100
AcDbDimStyleTable
  0
DIMSTYLE
105
27
330
A
100
AcDbSymbolTableRecord
100
AcDbDimStyleTableRecord
  2
ISO-25
 70
     0
 41
2.5
 42
0.625
 43
3.75
 44
1.25
 73
     0
 74
     0
 77
     1
 78
     8
140
2.5
141
2.5
143
0.03937
147
0.625
171
     3
172
     1
271
     2
272
     2
274
     3
278
    44
283
     0
284
     8
340
11
  0
DIMSTYLE
105
63
102
{ACAD_REACTORS
330
B4
330
B5
330
C2
330
C3
102
}
330
A
100
AcDbSymbolTableRecord
100
AcDbDimStyleTableRecord
  2
Standard
 70
     0
 41
1.5
 42
0.0
 44
2.75
 73
     0
 74
     0
 77
     1
 78
     8
 79
     2
140
4.0
146
0.8
147
1.0
172
     1
179
     1
271
     1
340
11
  0
ENDTAB
  0
TABLE
  2
BLOCK_RECORD
  5
1
330
0
100
AcDbSymbolTable
 70
     5
  0
BLOCK_RECORD
  5
1F
330
1
100
AcDbSymbolTableRecord
100
AcDbBlockTableRecord
  2
*Model_Space
340
22
  0
BLOCK_RECORD
  5
1B
330
1
100
AcDbSymbolTableRecord
100
AcDbBlockTableRecord
  2
*Paper_Space
340
1E
  0
BLOCK_RECORD
  5
23
330
1
100
AcDbSymbolTableRecord
100
AcDbBlockTableRecord
  2
*Paper_Space0
340
26
  0
BLOCK_RECORD
  5
64
330
1
100
AcDbSymbolTableRecord
100
AcDbBlockTableRecord
  2
*D1
340
0
  0
BLOCK_RECORD
  5
78
330
1
100
AcDbSymbolTableRecord
100
AcDbBlockTableRecord
  2
*D2
340
0
  0
BLOCK_RECORD
  5
8C
330
1
100
AcDbSymbolTableRecord
100
AcDbBlockTableRecord
  2
*D3
340
0
  0
BLOCK_RECORD
  5
A0
330
1
100
AcDbSymbolTableRecord
100
AcDbBlockTableRecord
  2
*D4
340
0
  0
ENDTAB
  0
ENDSEC
  0
SECTION
  2
BLOCKS
  0
BLOCK
  5
20
330
1F
100
AcDbEntity
  8
0
100
AcDbBlockBegin
  2
*Model_Space
 70
     0
 10
0.0
 20
0.0
 30
0.0
  3
*Model_Space
  1

  0
ENDBLK
  5
21
330
1F
100
AcDbEntity
  8
0
100
AcDbBlockEnd
  0
BLOCK
  5
1C
330
1B
100
AcDbEntity
 67
     1
  8
0
100
AcDbBlockBegin
  2
*Paper_Space
 70
     0
 10
0.0
 20
0.0
 30
0.0
  3
*Paper_Space
  1

  0
ENDBLK
  5
1D
330
1B
100
AcDbEntity
 67
     1
  8
0
100
AcDbBlockEnd
  0
BLOCK
  5
24
330
23
100
AcDbEntity
  8
0
100
AcDbBlockBegin
  2
*Paper_Space0
 70
     0
 10
0.0
 20
0.0
 30
0.0
  3
*Paper_Space0
  1

  0
ENDBLK
  5
25
330
23
100
AcDbEntity
  8
0
100
AcDbBlockEnd
  0
BLOCK
  5
65
330
64
100
AcDbEntity
  8
0
100
AcDbBlockBegin
  2
*D1
 70
     1
 10
0.0
 20
0.0
 30
0.0
  3
*D1
  1

  0
LINE
  5
67
330
64
100
AcDbEntity
  8
001
370
     9
100
AcDbLine
 10
89.243576
 20
55.704324
 30
0.0
 11
89.243576
 21
7.648375
 31
0.0
  0
LINE
  5
68
330
64
100
AcDbEntity
  8
001
370
     9
100
AcDbLine
 10
45.743576
 20
34.704324
 30
0.0
 11
45.743576
 21
7.648375
 31
0.0
  0
LINE
  5
69
330
64
100
AcDbEntity
  8
001
370
     9
100
AcDbLine
 10
89.243576
 20
10.398375
 30
0.0
 11
45.743576
 21
10.398375
 31
0.0
  0
POLYLINE
  5
6A
330
64
100
AcDbEntity
  8
001
370
     9
100
AcDb2dPolyline
 66
     1
 10
0.0
 20
0.0
 30
0.0
  0
VERTEX
  5
6C
330
6A
100
AcDbEntity
  8
001
370
     9
100
AcDbVertex
100
AcDb2dVertex
 10
87.743576
 20
10.800298
 30
0.0
  0
VERTEX
  5
6D
330
6A
100
AcDbEntity
  8
001
370
     9
100
AcDbVertex
100
AcDb2dVertex
 10
89.243576
 20
10.398375
 30
0.0
  0
VERTEX
  5
6E
330
6A
100
AcDbEntity
  8
001
370
     9
100
AcDbVertex
100
AcDb2dVertex
 10
87.743576
 20
9.996451
 30
0.0
  0
SEQEND
  5
6B
330
6A
100
AcDbEntity
  8
001
370
     9
  0
POLYLINE
  5
6F
330
64
100
AcDbEntity
  8
001
370
     9
100
AcDb2dPolyline
 66
     1
 10
0.0
 20
0.0
 30
0.0
  0
VERTEX
  5
71
330
6F
100
AcDbEntity
  8
001
370
     9
100
AcDbVertex
100
AcDb2dVertex
 10
47.243576
 20
9.996451
 30
0.0
  0
VERTEX
  5
72
330
6F
100
AcDbEntity
  8
001
370
     9
100
AcDbVertex
100
AcDb2dVertex
 10
45.743576
 20
10.398375
 30
0.0
  0
VERTEX
  5
73
330
6F
100
AcDbEntity
  8
001
370
     9
100
AcDbVertex
100
AcDb2dVertex
 10
47.243576
 20
10.800298
 30
0.0
  0
SEQEND
  5
70
330
6F
100
AcDbEntity
  8
001
370
     9
  0
TEXT
  5
74
330
64
100
AcDbEntity
  8
001
370
    30
100
AcDbText
 10
59.493576
 20
11.398375
 30
0.0
 40
4.0
  1
４３．５
 41
0.833333
100
AcDbText
  0
POINT
  5
75
330
64
100
AcDbEntity
  8
001
370
     9
100
AcDbPoint
 10
89.243576
 20
55.704324
 30
0.0
  0
POINT
  5
76
330
64
100
AcDbEntity
  8
001
370
     9
100
AcDbPoint
 10
45.743576
 20
34.704324
 30
0.0
  0
POINT
  5
77
330
64
100
AcDbEntity
  8
001
370
     9
100
AcDbPoint
 10
45.743576
 20
10.398375
 30
0.0
  0
ENDBLK
  5
66
330
64
100
AcDbEntity
  8
0
100
AcDbBlockEnd
  0
BLOCK
  5
79
330
78
100
AcDbEntity
  8
0
100
AcDbBlockBegin
  2
*D2
 70
     1
 10
0.0
 20
0.0
 30
0.0
  3
*D2
  1

  0
LINE
  5
7B
330
78
100
AcDbEntity
  8
001
370
     9
100
AcDbLine
 10
169.243576
 20
76.704324
 30
0.0
 11
169.243576
 21
7.648375
 31
0.0
  0
LINE
  5
7C
330
78
100
AcDbEntity
  8
001
370
     9
100
AcDbLine
 10
89.243576
 20
55.704324
 30
0.0
 11
89.243576
 21
7.648375
 31
0.0
  0
LINE
  5
7D
330
78
100
AcDbEntity
  8
001
370
     9
100
AcDbLine
 10
169.243576
 20
10.398375
 30
0.0
 11
89.243576
 21
10.398375
 31
0.0
  0
POLYLINE
  5
7E
330
78
100
AcDbEntity
  8
001
370
     9
100
AcDb2dPolyline
 66
     1
 10
0.0
 20
0.0
 30
0.0
  0
VERTEX
  5
80
330
7E
100
AcDbEntity
  8
001
370
     9
100
AcDbVertex
100
AcDb2dVertex
 10
167.743576
 20
10.800298
 30
0.0
  0
VERTEX
  5
81
330
7E
100
AcDbEntity
  8
001
370
     9
100
AcDbVertex
100
AcDb2dVertex
 10
169.243576
 20
10.398375
 30
0.0
  0
VERTEX
  5
82
330
7E
100
AcDbEntity
  8
001
370
     9
100
AcDbVertex
100
AcDb2dVertex
 10
167.743576
 20
9.996451
 30
0.0
  0
SEQEND
  5
7F
330
7E
100
AcDbEntity
  8
001
370
     9
  0
POLYLINE
  5
83
330
78
100
AcDbEntity
  8
001
370
     9
100
AcDb2dPolyline
 66
     1
 10
0.0
 20
0.0
 30
0.0
  0
VERTEX
  5
85
330
83
100
AcDbEntity
  8
001
370
     9
100
AcDbVertex
100
AcDb2dVertex
 10
90.743576
 20
9.996451
 30
0.0
  0
VERTEX
  5
86
330
83
100
AcDbEntity
  8
001
370
     9
100
AcDbVertex
100
AcDb2dVertex
 10
89.243576
 20
10.398375
 30
0.0
  0
VERTEX
  5
87
330
83
100
AcDbEntity
  8
001
370
     9
100
AcDbVertex
100
AcDb2dVertex
 10
90.743576
 20
10.800298
 30
0.0
  0
SEQEND
  5
84
330
83
100
AcDbEntity
  8
001
370
     9
  0
TEXT
  5
88
330
78
100
AcDbEntity
  8
001
370
    30
100
AcDbText
 10
125.243576
 20
11.398375
 30
0.0
 40
4.0
  1
８０
 41
0.833333
100
AcDbText
  0
POINT
  5
89
330
78
100
AcDbEntity
  8
001
370
     9
100
AcDbPoint
 10
169.243576
 20
76.704324
 30
0.0
  0
POINT
  5
8A
330
78
100
AcDbEntity
  8
001
370
     9
100
AcDbPoint
 10
89.243576
 20
55.704324
 30
0.0
  0
POINT
  5
8B
330
78
100
AcDbEntity
  8
001
370
     9
100
AcDbPoint
 10
89.243576
 20
10.398375
 30
0.0
  0
ENDBLK
  5
7A
330
78
100
AcDbEntity
  8
0
100
AcDbBlockEnd
  0
BLOCK
  5
8D
330
8C
100
AcDbEntity
  8
0
100
AcDbBlockBegin
  2
*D3
 70
     1
 10
0.0
 20
0.0
 30
0.0
  3
*D3
  1

  0
LINE
  5
8F
330
8C
100
AcDbEntity
  8
001
370
     9
100
AcDbLine
 10
161.243576
 20
100.704324
 30
0.0
 11
194.811654
 21
100.704324
 31
0.0
  0
LINE
  5
90
330
8C
100
AcDbEntity
  8
001
370
     9
100
AcDbLine
 10
161.243576
 20
68.704324
 30
0.0
 11
194.811654
 21
68.704324
 31
0.0
  0
LINE
  5
91
330
8C
100
AcDbEntity
  8
001
370
     9
100
AcDbLine
 10
192.061654
 20
100.704324
 30
0.0
 11
192.061654
 21
68.704324
 31
0.0
  0
POLYLINE
  5
92
330
8C
100
AcDbEntity
  8
001
370
     9
100
AcDb2dPolyline
 66
     1
 10
0.0
 20
0.0
 30
0.0
  0
VERTEX
  5
94
330
92
100
AcDbEntity
  8
001
370
     9
100
AcDbVertex
100
AcDb2dVertex
 10
191.65973
 20
99.204324
 30
0.0
  0
VERTEX
  5
95
330
92
100
AcDbEntity
  8
001
370
     9
100
AcDbVertex
100
AcDb2dVertex
 10
192.061654
 20
100.704324
 30
0.0
  0
VERTEX
  5
96
330
92
100
AcDbEntity
  8
001
370
     9
100
AcDbVertex
100
AcDb2dVertex
 10
192.463578
 20
99.204324
 30
0.0
  0
SEQEND
  5
93
330
92
100
AcDbEntity
  8
001
370
     9
  0
POLYLINE
  5
97
330
8C
100
AcDbEntity
  8
001
370
     9
100
AcDb2dPolyline
 66
     1
 10
0.0
 20
0.0
 30
0.0
  0
VERTEX
  5
99
330
97
100
AcDbEntity
  8
001
370
     9
100
AcDbVertex
100
AcDb2dVertex
 10
192.463578
 20
70.204324
 30
0.0
  0
VERTEX
  5
9A
330
97
100
AcDbEntity
  8
001
370
     9
100
AcDbVertex
100
AcDb2dVertex
 10
192.061654
 20
68.704324
 30
0.0
  0
VERTEX
  5
9B
330
97
100
AcDbEntity
  8
001
370
     9
100
AcDbVertex
100
AcDb2dVertex
 10
191.65973
 20
70.204324
 30
0.0
  0
SEQEND
  5
98
330
97
100
AcDbEntity
  8
001
370
     9
  0
TEXT
  5
9C
330
8C
100
AcDbEntity
  8
001
370
    30
100
AcDbText
 10
191.061654
 20
78.704324
 30
0.0
 40
4.0
  1
%%c３２
 50
90.000003
 41
0.882353
100
AcDbText
  0
POINT
  5
9D
330
8C
100
AcDbEntity
  8
001
370
     9
100
AcDbPoint
 10
161.243576
 20
100.704324
 30
0.0
  0
POINT
  5
9E
330
8C
100
AcDbEntity
  8
001
370
     9
100
AcDbPoint
 10
161.243576
 20
68.704324
 30
0.0
  0
POINT
  5
9F
330
8C
100
AcDbEntity
  8
001
370
     9
100
AcDbPoint
 10
192.061654
 20
68.704324
 30
0.0
  0
ENDBLK
  5
8E
330
8C
100
AcDbEntity
  8
0
100
AcDbBlockEnd
  0
BLOCK
  5
A1
330
A0
100
AcDbEntity
  8
0
100
AcDbBlockBegin
  2
*D4
 70
     1
 10
0.0
 20
0.0
 30
0.0
  3
*D4
  1

  0
LINE
  5
A3
330
A0
100
AcDbEntity
  8
001
370
     9
100
AcDbLine
 10
45.743576
 20
10.398375
 30
0.0
 11
45.743576
 21
-5.8086
 31
0.0
  0
LINE
  5
A4
330
A0
100
AcDbEntity
  8
001
370
     9
100
AcDbLine
 10
169.243576
 20
76.704324
 30
0.0
 11
169.243576
 21
-5.8086
 31
0.0
  0
LINE
  5
A5
330
A0
100
AcDbEntity
  8
001
370
     9
100
AcDbLine
 10
45.743576
 20
-3.0586
 30
0.0
 11
169.243576
 21
-3.0586
 31
0.0
  0
POLYLINE
  5
A6
330
A0
100
AcDbEntity
  8
001
370
     9
100
AcDb2dPolyline
 66
     1
 10
0.0
 20
0.0
 30
0.0
  0
VERTEX
  5
A8
330
A6
100
AcDbEntity
  8
001
370
     9
100
AcDbVertex
100
AcDb2dVertex
 10
47.243576
 20
-3.460524
 30
0.0
  0
VERTEX
  5
A9
330
A6
100
AcDbEntity
  8
001
370
     9
100
AcDbVertex
100
AcDb2dVertex
 10
45.743576
 20
-3.0586
 30
0.0
  0
VERTEX
  5
AA
330
A6
100
AcDbEntity
  8
001
370
     9
100
AcDbVertex
100
AcDb2dVertex
 10
47.243576
 20
-2.656676
 30
0.0
  0
SEQEND
  5
A7
330
A6
100
AcDbEntity
  8
001
370
     9
  0
POLYLINE
  5
AB
330
A0
100
AcDbEntity
  8
001
370
     9
100
AcDb2dPolyline
 66
     1
 10
0.0
 20
0.0
 30
0.0
  0
VERTEX
  5
AD
330
AB
100
AcDbEntity
  8
001
370
     9
100
AcDbVertex
100
AcDb2dVertex
 10
167.743576
 20
-2.656676
 30
0.0
  0
VERTEX
  5
AE
330
AB
100
AcDbEntity
  8
001
370
     9
100
AcDbVertex
100
AcDb2dVertex
 10
169.243576
 20
-3.0586
 30
0.0
  0
VERTEX
  5
AF
330
AB
100
AcDbEntity
  8
001
370
     9
100
AcDbVertex
100
AcDb2dVertex
 10
167.743576
 20
-3.460524
 30
0.0
  0
SEQEND
  5
AC
330
AB
100
AcDbEntity
  8
001
370
     9
  0
TEXT
  5
B0
330
A0
100
AcDbEntity
  8
001
370
    30
100
AcDbText
 10
97.493576
 20
-2.0586
 30
0.0
 40
4.0
  1
１２３．５
 41
0.833333
100
AcDbText
  0
POINT
  5
B1
330
A0
100
AcDbEntity
  8
001
370
     9
100
AcDbPoint
 10
45.743576
 20
10.398375
 30
0.0
  0
POINT
  5
B2
330
A0
100
AcDbEntity
  8
001
370
     9
100
AcDbPoint
 10
169.243576
 20
76.704324
 30
0.0
  0
POINT
  5
B3
330
A0
100
AcDbEntity
  8
001
370
     9
100
AcDbPoint
 10
169.243576
 20
-3.0586
 30
0.0
  0
ENDBLK
  5
A2
330
A0
100
AcDbEntity
  8
0
100
AcDbBlockEnd
  0
ENDSEC
  0
SECTION
  2
ENTITIES
  0
DIMENSION
  5
B4
330
1F
100
AcDbEntity
  8
001
370
     9
100
AcDbDimension
  2
*D1
 10
45.743576
 20
10.398375
 30
0.0
 11
67.493576
 21
13.398375
 31
0.0
 70
   160
 71
     5
 42
-1.0
  3
Standard
100
AcDbAlignedDimension
 13
89.243576
 23
55.704324
 33
0.0
 14
45.743576
 24
34.704324
 34
0.0
 50
180.0
100
AcDbRotatedDimension
  0
DIMENSION
  5
B5
330
1F
100
AcDbEntity
  8
001
370
     9
100
AcDbDimension
  2
*D2
 10
89.243576
 20
10.398375
 30
0.0
 11
129.243576
 21
13.398375
 31
0.0
 70
   160
 71
     5
 42
-1.0
  3
Standard
100
AcDbAlignedDimension
 13
169.243576
 23
76.704324
 33
0.0
 14
89.243576
 24
55.704324
 34
0.0
 50
180.0
100
AcDbRotatedDimension
  0
TEXT
  5
B6
330
1F
100
AcDbEntity
  8
001
370
    30
100
AcDbText
 10
21.490923
 20
76.704324
 30
0.0
 40
4.0
  1
%%c１００
 50
90.000003
 41
0.869565
100
AcDbText
  0
POLYLINE
  5
B7
330
1F
100
AcDbEntity
  8
001
370
     9
100
AcDb2dPolyline
 66
     1
 10
0.0
 20
0.0
 30
0.0
  0
VERTEX
  5
B9
330
B7
100
AcDbEntity
  8
001
370
     9
100
AcDbVertex
100
AcDb2dVertex
 10
22.892847
 20
36.204324
 30
0.0
  0
VERTEX
  5
BA
330
B7
100
AcDbEntity
  8
001
370
     9
100
AcDbVertex
100
AcDb2dVertex
 10
22.490923
 20
34.704324
 30
0.0
  0
VERTEX
  5
BB
330
B7
100
AcDbEntity
  8
001
370
     9
100
AcDbVertex
100
AcDb2dVertex
 10
22.088999
 20
36.204324
 30
0.0
  0
SEQEND
  5
B8
330
B7
100
AcDbEntity
  8
001
370
     9
  0
LINE
  5
BC
330
1F
100
AcDbEntity
  8
001
370
     9
100
AcDbLine
 10
22.490923
 20
134.704324
 30
0.0
 11
22.490923
 21
34.704324
 31
0.0
  0
POLYLINE
  5
BD
330
1F
100
AcDbEntity
  8
001
370
     9
100
AcDb2dPolyline
 66
     1
 10
0.0
 20
0.0
 30
0.0
  0
VERTEX
  5
BF
330
BD
100
AcDbEntity
  8
001
370
     9
100
AcDbVertex
100
AcDb2dVertex
 10
45.743576
 20
34.704324
 30
0.0
  0
VERTEX
  5
C0
330
BD
100
AcDbEntity
  8
001
370
     9
100
AcDbVertex
100
AcDb2dVertex
 10
22.490923
 20
34.704324
 30
0.0
  0
VERTEX
  5
C1
330
BD
100
AcDbEntity
  8
001
370
     9
100
AcDbVertex
100
AcDb2dVertex
 10
19.740923
 20
34.704324
 30
0.0
  0
SEQEND
  5
BE
330
BD
100
AcDbEntity
  8
001
370
     9
  0
DIMENSION
  5
C2
330
1F
100
AcDbEntity
  8
001
370
     9
100
AcDbDimension
  2
*D3
 10
192.061654
 20
68.704324
 30
0.0
 11
189.061654
 21
84.704324
 31
0.0
 70
   160
 71
     5
 42
-1.0
  3
Standard
100
AcDbAlignedDimension
 13
161.243576
 23
100.704324
 33
0.0
 14
161.243576
 24
68.704324
 34
0.0
 50
270.0
100
AcDbRotatedDimension
  0
DIMENSION
  5
C3
330
1F
100
AcDbEntity
  8
001
370
     9
100
AcDbDimension
  2
*D4
 10
169.243576
 20
-3.0586
 30
0.0
 11
107.493576
 21
-0.0586
 31
0.0
 70
   160
 71
     5
 42
-1.0
  3
Standard
100
AcDbAlignedDimension
 13
45.743576
 23
10.398375
 33
0.0
 14
169.243576
 24
76.704324
 34
0.0
100
AcDbRotatedDimension
  0
LINE
  5
C4
330
1F
100
AcDbEntity
  8
001
 62
     3
370
    50
100
AcDbLine
 10
46.743576
 20
120.822253
 30
0.0
 11
49.243576
 21
120.193075
 31
0.0
  0
LINE
  5
C5
330
1F
100
AcDbEntity
  8
001
 62
     3
370
    50
100
AcDbLine
 10
49.2472
 20
122.789388
 30
0.0
 11
46.743576
 21
122.129404
 31
0.0
  0
LINE
  5
C6
330
1F
100
AcDbEntity
  8
001
 62
     3
370
    50
100
AcDbLine
 10
46.743576
 20
110.58154
 30
0.0
 11
46.743576
 21
122.129404
 31
0.0
  0
LINE
  5
C7
330
1F
100
AcDbEntity
  8
001
 62
     3
370
    50
100
AcDbLine
 10
46.743576
 20
111.528032
 30
0.0
 11
46.292569
 21
111.812642
 31
0.0
  0
POLYLINE
  5
C8
330
1F
100
AcDbEntity
  8
001
 62
     3
370
    50
100
AcDb2dPolyline
 66
     1
 10
0.0
 20
0.0
 30
0.0
  0
VERTEX
  5
CA
330
C8
100
AcDbEntity
  8
001
 62
     3
370
    50
100
AcDbVertex
100
AcDb2dVertex
 10
46.059412
 20
112.140254
 30
0.0
  0
VERTEX
  5
CB
330
C8
100
AcDbEntity
  8
001
 62
     3
370
    50
100
AcDbVertex
100
AcDb2dVertex
 10
46.060618
 20
112.120058
 30
0.0
  0
VERTEX
  5
CC
330
C8
100
AcDbEntity
  8
001
 62
     3
370
    50
100
AcDbVertex
100
AcDb2dVertex
 10
46.064234
 20
112.091966
 30
0.0
  0
VERTEX
  5
CD
330
C8
100
AcDbEntity
  8
001
 62
     3
370
    50
100
AcDbVertex
100
AcDb2dVertex
 10
46.075402
 20
112.050367
 30
0.0
  0
VERTEX
  5
CE
330
C8
100
AcDbEntity
  8
001
 62
     3
370
    50
100
AcDbVertex
100
AcDb2dVertex
 10
46.091447
 20
112.015213
 30
0.0
  0
VERTEX
  5
CF
330
C8
100
AcDbEntity
  8
001
 62
     3
370
    50
100
AcDbVertex
100
AcDb2dVertex
 10
46.113512
 20
111.977678
 30
0.0
  0
VERTEX
  5
D0
330
C8
100
AcDbEntity
  8
001
 62
     3
370
    50
100
AcDbVertex
100
AcDb2dVertex
 10
46.141873
 20
111.940235
 30
0.0
  0
VERTEX
  5
D1
330
C8
100
AcDbEntity
  8
001
 62
     3
370
    50
100
AcDbVertex
100
AcDb2dVertex
 10
46.224481
 20
111.862534
 30
0.0
  0
VERTEX
  5
D2
330
C8
100
AcDbEntity
  8
001
 62
     3
370
    50
100
AcDbVertex
100
AcDb2dVertex
 10
46.292569
 20
111.812642
 30
0.0
  0
SEQEND
  5
C9
330
C8
100
AcDbEntity
  8
001
370
    50
  0
LINE
  5
D3
330
1F
100
AcDbEntity
  8
001
 62
     3
370
    50
100
AcDbLine
 10
46.059412
 20
112.140254
 30
0.0
 11
46.059412
 21
112.575966
 31
0.0
  0
POLYLINE
  5
D4
330
1F
100
AcDbEntity
  8
001
 62
     3
370
    50
100
AcDb2dPolyline
 66
     1
 10
0.0
 20
0.0
 30
0.0
  0
VERTEX
  5
D6
330
D4
100
AcDbEntity
  8
001
 62
     3
370
    50
100
AcDbVertex
100
AcDb2dVertex
 10
46.061063
 20
112.603872
 30
0.0
  0
VERTEX
  5
D7
330
D4
100
AcDbEntity
  8
001
 62
     3
370
    50
100
AcDbVertex
100
AcDb2dVertex
 10
46.06047
 20
112.598228
 30
0.0
  0
VERTEX
  5
D8
330
D4
100
AcDbEntity
  8
001
 62
     3
370
    50
100
AcDbVertex
100
AcDb2dVertex
 10
46.059825
 20
112.589961
 30
0.0
  0
VERTEX
  5
D9
330
D4
100
AcDbEntity
  8
001
 62
     3
370
    50
100
AcDbVertex
100
AcDb2dVertex
 10
46.05949
 20
112.581655
 30
0.0
  0
VERTEX
  5
DA
330
D4
100
AcDbEntity
  8
001
 62
     3
370
    50
100
AcDbVertex
100
AcDb2dVertex
 10
46.059412
 20
112.575966
 30
0.0
  0
SEQEND
  5
D5
330
D4
100
AcDbEntity
  8
001
370
    50
  0
LINE
  5
DB
330
1F
100
AcDbEntity
  8
001
 62
     3
370
    50
100
AcDbLine
 10
46.292569
 20
112.864542
 30
0.0
 11
46.743576
 21
113.073645
 31
0.0
  0
POLYLINE
  5
DC
330
1F
100
AcDbEntity
  8
001
 62
     3
370
    50
100
AcDb2dPolyline
 66
     1
 10
0.0
 20
0.0
 30
0.0
  0
VERTEX
  5
DE
330
DC
100
AcDbEntity
  8
001
 62
     3
370
    50
100
AcDbVertex
100
AcDb2dVertex
 10
45.743576
 20
109.486469
 30
0.0
  0
VERTEX
  5
DF
330
DC
100
AcDbEntity
  8
001
 62
     3
370
    50
100
AcDbVertex
100
AcDb2dVertex
 10
45.74452
 20
109.466723
 30
0.0
  0
VERTEX
  5
E0
330
DC
100
AcDbEntity
  8
001
 62
     3
370
    50
100
AcDbVertex
100
AcDb2dVertex
 10
45.748398
 20
109.43818
 30
0.0
  0
VERTEX
  5
E1
330
DC
100
AcDbEntity
  8
001
 62
     3
370
    50
100
AcDbVertex
100
AcDb2dVertex
 10
45.751986
 20
109.422684
 30
0.0
  0
VERTEX
  5
E2
330
DC
100
AcDbEntity
  8
001
 62
     3
370
    50
100
AcDbVertex
100
AcDb2dVertex
 10
45.754929
 20
109.412191
 30
0.0
  0
SEQEND
  5
DD
330
DC
100
AcDbEntity
  8
001
370
    50
  0
POLYLINE
  5
E3
330
1F
100
AcDbEntity
  8
001
 62
     3
370
    50
100
AcDb2dPolyline
 66
     1
 10
0.0
 20
0.0
 30
0.0
  0
VERTEX
  5
E5
330
E3
100
AcDbEntity
  8
001
 62
     3
370
    50
100
AcDbVertex
100
AcDb2dVertex
 10
46.292569
 20
112.864542
 30
0.0
  0
VERTEX
  5
E6
330
E3
100
AcDbEntity
  8
001
 62
     3
370
    50
100
AcDbVertex
100
AcDb2dVertex
 10
46.249487
 20
112.841913
 30
0.0
  0
VERTEX
  5
E7
330
E3
100
AcDbEntity
  8
001
 62
     3
370
    50
100
AcDbVertex
100
AcDb2dVertex
 10
46.193111
 20
112.806465
 30
0.0
  0
VERTEX
  5
E8
330
E3
100
AcDbEntity
  8
001
 62
     3
370
    50
100
AcDbVertex
100
AcDb2dVertex
 10
46.156483
 20
112.776546
 30
0.0
  0
VERTEX
  5
E9
330
E3
100
AcDbEntity
  8
001
 62
     3
370
    50
100
AcDbVertex
100
AcDb2dVertex
 10
46.126495
 20
112.745416
 30
0.0
  0
VERTEX
  5
EA
330
E3
100
AcDbEntity
  8
001
 62
     3
370
    50
100
AcDbVertex
100
AcDb2dVertex
 10
46.102451
 20
112.714804
 30
0.0
  0
VERTEX
  5
EB
330
E3
100
AcDbEntity
  8
001
 62
     3
370
    50
100
AcDbVertex
100
AcDb2dVertex
 10
46.082029
 20
112.677195
 30
0.0
  0
VERTEX
  5
EC
330
E3
100
AcDbEntity
  8
001
 62
     3
370
    50
100
AcDbVertex
100
AcDb2dVertex
 10
46.067881
 20
112.63523
 30
0.0
  0
VERTEX
  5
ED
330
E3
100
AcDbEntity
  8
001
 62
     3
370
    50
100
AcDbVertex
100
AcDb2dVertex
 10
46.061063
 20
112.603872
 30
0.0
  0
SEQEND
  5
E4
330
E3
100
AcDbEntity
  8
001
370
    50
  0
LINE
  5
EE
330
1F
100
AcDbEntity
  8
001
 62
     3
370
    50
100
AcDbLine
 10
46.061063
 20
112.603872
 30
0.0
 11
45.745226
 21
109.950086
 31
0.0
  0
POLYLINE
  5
EF
330
1F
100
AcDbEntity
  8
001
 62
     3
370
    50
100
AcDb2dPolyline
 66
     1
 10
0.0
 20
0.0
 30
0.0
  0
VERTEX
  5
F1
330
EF
100
AcDbEntity
  8
001
 62
     3
370
    50
100
AcDbVertex
100
AcDb2dVertex
 10
45.745226
 20
109.950086
 30
0.0
  0
VERTEX
  5
F2
330
EF
100
AcDbEntity
  8
001
 62
     3
370
    50
100
AcDbVertex
100
AcDb2dVertex
 10
45.744633
 20
109.944442
 30
0.0
  0
VERTEX
  5
F3
330
EF
100
AcDbEntity
  8
001
 62
     3
370
    50
100
AcDbVertex
100
AcDb2dVertex
 10
45.743988
 20
109.936175
 30
0.0
  0
VERTEX
  5
F4
330
EF
100
AcDbEntity
  8
001
 62
     3
370
    50
100
AcDbVertex
100
AcDb2dVertex
 10
45.743653
 20
109.927869
 30
0.0
  0
VERTEX
  5
F5
330
EF
100
AcDbEntity
  8
001
 62
     3
370
    50
100
AcDbVertex
100
AcDb2dVertex
 10
45.743576
 20
109.92218
 30
0.0
  0
SEQEND
  5
F0
330
EF
100
AcDbEntity
  8
001
370
    50
  0
POLYLINE
  5
F6
330
1F
100
AcDbEntity
  8
001
 62
     3
370
    50
100
AcDb2dPolyline
 66
     1
 10
0.0
 20
0.0
 30
0.0
  0
VERTEX
  5
F8
330
F6
100
AcDbEntity
  8
001
 62
     3
370
    50
100
AcDbVertex
100
AcDb2dVertex
 10
57.691847
 20
35.04136
 30
0.0
  0
VERTEX
  5
F9
330
F6
100
AcDbEntity
  8
001
 62
     3
370
    50
100
AcDbVertex
100
AcDb2dVertex
 10
57.682484
 20
35.146256
 30
0.0
  0
VERTEX
  5
FA
330
F6
100
AcDbEntity
  8
001
 62
     3
370
    50
100
AcDbVertex
100
AcDb2dVertex
 10
57.653659
 20
35.286035
 30
0.0
  0
VERTEX
  5
FB
330
F6
100
AcDbEntity
  8
001
 62
     3
370
    50
100
AcDbVertex
100
AcDb2dVertex
 10
57.628862
 20
35.354414
 30
0.0
  0
VERTEX
  5
FC
330
F6
100
AcDbEntity
  8
001
 62
     3
370
    50
100
AcDbVertex
100
AcDb2dVertex
 10
57.599844
 20
35.414675
 30
0.0
  0
VERTEX
  5
FD
330
F6
100
AcDbEntity
  8
001
 62
     3
370
    50
100
AcDbVertex
100
AcDb2dVertex
 10
57.567192
 20
35.472034
 30
0.0
  0
VERTEX
  5
FE
330
F6
100
AcDbEntity
  8
001
 62
     3
370
    50
100
AcDbVertex
100
AcDb2dVertex
 10
57.524638
 20
35.532098
 30
0.0
  0
VERTEX
  5
FF
330
F6
100
AcDbEntity
  8
001
 62
     3
370
    50
100
AcDbVertex
100
AcDb2dVertex
 10
57.487064
 20
35.576718
 30
0.0
  0
VERTEX
  5
100
330
F6
100
AcDbEntity
  8
001
 62
     3
370
    50
100
AcDbVertex
100
AcDb2dVertex
 10
57.458691
 20
35.607489
 30
0.0
  0
SEQEND
  5
F7
330
F6
100
AcDbEntity
  8
001
370
    50
  0
LINE
  5
101
330
1F
100
AcDbEntity
  8
001
 62
     3
370
    50
100
AcDbLine
 10
57.691847
 20
34.242457
 30
0.0
 11
57.691847
 21
35.04136
 31
0.0
  0
POLYLINE
  5
102
330
1F
100
AcDbEntity
  8
001
 62
     3
370
    50
100
AcDb2dPolyline
 66
     1
 10
0.0
 20
0.0
 30
0.0
  0
VERTEX
  5
104
330
102
100
AcDbEntity
  8
001
 62
     3
370
    50
100
AcDbVertex
100
AcDb2dVertex
 10
57.458691
 20
33.678765
 30
0.0
  0
VERTEX
  5
105
330
102
100
AcDbEntity
  8
001
 62
     3
370
    50
100
AcDbVertex
100
AcDb2dVertex
 10
57.469932
 20
33.690314
 30
0.0
  0
VERTEX
  5
106
330
102
100
AcDbEntity
  8
001
 62
     3
370
    50
100
AcDbVertex
100
AcDb2dVertex
 10
57.485695
 20
33.707091
 30
0.0
  0
VERTEX
  5
107
330
102
100
AcDbEntity
  8
001
 62
     3
370
    50
100
AcDbVertex
100
AcDb2dVertex
 10
57.53346
 20
33.764434
 30
0.0
  0
VERTEX
  5
108
330
102
100
AcDbEntity
  8
001
 62
     3
370
    50
100
AcDbVertex
100
AcDb2dVertex
 10
57.569552
 20
33.817605
 30
0.0
  0
VERTEX
  5
109
330
102
100
AcDbEntity
  8
001
 62
     3
370
    50
100
AcDbVertex
100
AcDb2dVertex
 10
57.653066
 20
33.990645
 30
0.0
  0
VERTEX
  5
10A
330
102
100
AcDbEntity
  8
001
 62
     3
370
    50
100
AcDbVertex
100
AcDb2dVertex
 10
57.691271
 20
34.212058
 30
0.0
  0
VERTEX
  5
10B
330
102
100
AcDbEntity
  8
001
 62
     3
370
    50
100
AcDbVertex
100
AcDb2dVertex
 10
57.691712
 20
34.230055
 30
0.0
  0
VERTEX
  5
10C
330
102
100
AcDbEntity
  8
001
 62
     3
370
    50
100
AcDbVertex
100
AcDb2dVertex
 10
57.691847
 20
34.242457
 30
0.0
  0
SEQEND
  5
103
330
102
100
AcDbEntity
  8
001
370
    50
  0
LINE
  5
10D
330
1F
100
AcDbEntity
  8
001
 62
     3
370
    50
100
AcDbLine
 10
52.678622
 20
28.906497
 30
0.0
 11
57.458691
 21
33.678765
 31
0.0
  0
POLYLINE
  5
10E
330
1F
100
AcDbEntity
  8
001
 62
     3
370
    50
100
AcDb2dPolyline
 66
     1
 10
0.0
 20
0.0
 30
0.0
  0
VERTEX
  5
110
330
10E
100
AcDbEntity
  8
001
 62
     3
370
    50
100
AcDbVertex
100
AcDb2dVertex
 10
52.115734
 20
28.675444
 30
0.0
  0
VERTEX
  5
111
330
10E
100
AcDbEntity
  8
001
 62
     3
370
    50
100
AcDbVertex
100
AcDb2dVertex
 10
52.161539
 20
28.677248
 30
0.0
  0
VERTEX
  5
112
330
10E
100
AcDbEntity
  8
001
 62
     3
370
    50
100
AcDbVertex
100
AcDb2dVertex
 10
52.224033
 20
28.682306
 30
0.0
  0
VERTEX
  5
113
330
10E
100
AcDbEntity
  8
001
 62
     3
370
    50
100
AcDbVertex
100
AcDb2dVertex
 10
52.293076
 20
28.693115
 30
0.0
  0
VERTEX
  5
114
330
10E
100
AcDbEntity
  8
001
 62
     3
370
    50
100
AcDbVertex
100
AcDb2dVertex
 10
52.359334
 20
28.712497
 30
0.0
  0
VERTEX
  5
115
330
10E
100
AcDbEntity
  8
001
 62
     3
370
    50
100
AcDbVertex
100
AcDb2dVertex
 10
52.433537
 20
28.741462
 30
0.0
  0
VERTEX
  5
116
330
10E
100
AcDbEntity
  8
001
 62
     3
370
    50
100
AcDbVertex
100
AcDb2dVertex
 10
52.487233
 20
28.765836
 30
0.0
  0
SEQEND
  5
10F
330
10E
100
AcDbEntity
  8
001
370
    50
  0
LINE
  5
117
330
1F
100
AcDbEntity
  8
001
 62
     3
370
    50
100
AcDbLine
 10
51.319689
 20
28.679602
 30
0.0
 11
52.115734
 21
28.675444
 31
0.0
  0
POLYLINE
  5
118
330
1F
100
AcDbEntity
  8
001
 62
     3
370
    50
100
AcDb2dPolyline
 66
     1
 10
0.0
 20
0.0
 30
0.0
  0
VERTEX
  5
11A
330
118
100
AcDbEntity
  8
001
 62
     3
370
    50
100
AcDbVertex
100
AcDb2dVertex
 10
50.756801
 20
28.916536
 30
0.0
  0
VERTEX
  5
11B
330
118
100
AcDbEntity
  8
001
 62
     3
370
    50
100
AcDbVertex
100
AcDb2dVertex
 10
50.813177
 20
28.867419
 30
0.0
  0
VERTEX
  5
11C
330
118
100
AcDbEntity
  8
001
 62
     3
370
    50
100
AcDbVertex
100
AcDb2dVertex
 10
50.895721
 20
28.804552
 30
0.0
  0
VERTEX
  5
11D
330
118
100
AcDbEntity
  8
001
 62
     3
370
    50
100
AcDbVertex
100
AcDb2dVertex
 10
51.077532
 20
28.710329
 30
0.0
  0
VERTEX
  5
11E
330
118
100
AcDbEntity
  8
001
 62
     3
370
    50
100
AcDbVertex
100
AcDb2dVertex
 10
51.289397
 20
28.680339
 30
0.0
  0
VERTEX
  5
11F
330
118
100
AcDbEntity
  8
001
 62
     3
370
    50
100
AcDbVertex
100
AcDb2dVertex
 10
51.307307
 20
28.679826
 30
0.0
  0
VERTEX
  5
120
330
118
100
AcDbEntity
  8
001
 62
     3
370
    50
100
AcDbVertex
100
AcDb2dVertex
 10
51.319689
 20
28.679602
 30
0.0
  0
SEQEND
  5
119
330
118
100
AcDbEntity
  8
001
370
    50
  0
LINE
  5
121
330
1F
100
AcDbEntity
  8
001
 62
     3
370
    50
100
AcDbLine
 10
45.976732
 20
33.738744
 30
0.0
 11
50.756801
 21
28.916536
 31
0.0
  0
POLYLINE
  5
122
330
1F
100
AcDbEntity
  8
001
 62
     3
370
    50
100
AcDb2dPolyline
 66
     1
 10
0.0
 20
0.0
 30
0.0
  0
VERTEX
  5
124
330
122
100
AcDbEntity
  8
001
 62
     3
370
    50
100
AcDbVertex
100
AcDb2dVertex
 10
45.743576
 20
34.304872
 30
0.0
  0
VERTEX
  5
125
330
122
100
AcDbEntity
  8
001
 62
     3
370
    50
100
AcDbVertex
100
AcDb2dVertex
 10
45.752938
 20
34.199976
 30
0.0
  0
VERTEX
  5
126
330
122
100
AcDbEntity
  8
001
 62
     3
370
    50
100
AcDbVertex
100
AcDb2dVertex
 10
45.781764
 20
34.060198
 30
0.0
  0
VERTEX
  5
127
330
122
100
AcDbEntity
  8
001
 62
     3
370
    50
100
AcDbVertex
100
AcDb2dVertex
 10
45.80656
 20
33.991818
 30
0.0
  0
VERTEX
  5
128
330
122
100
AcDbEntity
  8
001
 62
     3
370
    50
100
AcDbVertex
100
AcDb2dVertex
 10
45.835578
 20
33.931558
 30
0.0
  0
VERTEX
  5
129
330
122
100
AcDbEntity
  8
001
 62
     3
370
    50
100
AcDbVertex
100
AcDb2dVertex
 10
45.868231
 20
33.874198
 30
0.0
  0
VERTEX
  5
12A
330
122
100
AcDbEntity
  8
001
 62
     3
370
    50
100
AcDbVertex
100
AcDb2dVertex
 10
45.910785
 20
33.814134
 30
0.0
  0
VERTEX
  5
12B
330
122
100
AcDbEntity
  8
001
 62
     3
370
    50
100
AcDbVertex
100
AcDb2dVertex
 10
45.948359
 20
33.769515
 30
0.0
  0
VERTEX
  5
12C
330
122
100
AcDbEntity
  8
001
 62
     3
370
    50
100
AcDbVertex
100
AcDb2dVertex
 10
45.976732
 20
33.738744
 30
0.0
  0
SEQEND
  5
123
330
122
100
AcDbEntity
  8
001
370
    50
  0
LINE
  5
12D
330
1F
100
AcDbEntity
  8
001
 62
     3
370
    50
100
AcDbLine
 10
45.743576
 20
35.103776
 30
0.0
 11
45.743576
 21
34.304872
 31
0.0
  0
POLYLINE
  5
12E
330
1F
100
AcDbEntity
  8
001
 62
     3
370
    50
100
AcDb2dPolyline
 66
     1
 10
0.0
 20
0.0
 30
0.0
  0
VERTEX
  5
130
330
12E
100
AcDbEntity
  8
001
 62
     3
370
    50
100
AcDbVertex
100
AcDb2dVertex
 10
45.976732
 20
35.667468
 30
0.0
  0
VERTEX
  5
131
330
12E
100
AcDbEntity
  8
001
 62
     3
370
    50
100
AcDbVertex
100
AcDb2dVertex
 10
45.965491
 20
35.655919
 30
0.0
  0
VERTEX
  5
132
330
12E
100
AcDbEntity
  8
001
 62
     3
370
    50
100
AcDbVertex
100
AcDb2dVertex
 10
45.949728
 20
35.639141
 30
0.0
  0
VERTEX
  5
133
330
12E
100
AcDbEntity
  8
001
 62
     3
370
    50
100
AcDbVertex
100
AcDb2dVertex
 10
45.901963
 20
35.581799
 30
0.0
  0
VERTEX
  5
134
330
12E
100
AcDbEntity
  8
001
 62
     3
370
    50
100
AcDbVertex
100
AcDb2dVertex
 10
45.865871
 20
35.528628
 30
0.0
  0
VERTEX
  5
135
330
12E
100
AcDbEntity
  8
001
 62
     3
370
    50
100
AcDbVertex
100
AcDb2dVertex
 10
45.782357
 20
35.355587
 30
0.0
  0
VERTEX
  5
136
330
12E
100
AcDbEntity
  8
001
 62
     3
370
    50
100
AcDbVertex
100
AcDb2dVertex
 10
45.744152
 20
35.134174
 30
0.0
  0
VERTEX
  5
137
330
12E
100
AcDbEntity
  8
001
 62
     3
370
    50
100
AcDbVertex
100
AcDb2dVertex
 10
45.74371
 20
35.116178
 30
0.0
  0
VERTEX
  5
138
330
12E
100
AcDbEntity
  8
001
 62
     3
370
    50
100
AcDbVertex
100
AcDb2dVertex
 10
45.743576
 20
35.103776
 30
0.0
  0
SEQEND
  5
12F
330
12E
100
AcDbEntity
  8
001
370
    50
  0
LINE
  5
139
330
1F
100
AcDbEntity
  8
001
 62
     3
370
    50
100
AcDbLine
 10
50.756801
 20
40.439736
 30
0.0
 11
45.976732
 21
35.667468
 31
0.0
  0
POLYLINE
  5
13A
330
1F
100
AcDbEntity
  8
001
 62
     3
370
    50
100
AcDb2dPolyline
 66
     1
 10
0.0
 20
0.0
 30
0.0
  0
VERTEX
  5
13C
330
13A
100
AcDbEntity
  8
001
 62
     3
370
    50
100
AcDbVertex
100
AcDb2dVertex
 10
51.319689
 20
40.670789
 30
0.0
  0
VERTEX
  5
13D
330
13A
100
AcDbEntity
  8
001
 62
     3
370
    50
100
AcDbVertex
100
AcDb2dVertex
 10
51.273883
 20
40.668985
 30
0.0
  0
VERTEX
  5
13E
330
13A
100
AcDbEntity
  8
001
 62
     3
370
    50
100
AcDbVertex
100
AcDb2dVertex
 10
51.21139
 20
40.663927
 30
0.0
  0
VERTEX
  5
13F
330
13A
100
AcDbEntity
  8
001
 62
     3
370
    50
100
AcDbVertex
100
AcDb2dVertex
 10
51.142347
 20
40.653117
 30
0.0
  0
VERTEX
  5
140
330
13A
100
AcDbEntity
  8
001
 62
     3
370
    50
100
AcDbVertex
100
AcDb2dVertex
 10
51.076089
 20
40.633736
 30
0.0
  0
VERTEX
  5
141
330
13A
100
AcDbEntity
  8
001
 62
     3
370
    50
100
AcDbVertex
100
AcDb2dVertex
 10
51.001886
 20
40.604771
 30
0.0
  0
VERTEX
  5
142
330
13A
100
AcDbEntity
  8
001
 62
     3
370
    50
100
AcDbVertex
100
AcDb2dVertex
 10
50.94819
 20
40.580396
 30
0.0
  0
SEQEND
  5
13B
330
13A
100
AcDbEntity
  8
001
370
    50
  0
LINE
  5
143
330
1F
100
AcDbEntity
  8
001
 62
     3
370
    50
100
AcDbLine
 10
52.115734
 20
40.66663
 30
0.0
 11
51.319689
 21
40.670789
 31
0.0
  0
POLYLINE
  5
144
330
1F
100
AcDbEntity
  8
001
 62
     3
370
    50
100
AcDb2dPolyline
 66
     1
 10
0.0
 20
0.0
 30
0.0
  0
VERTEX
  5
146
330
144
100
AcDbEntity
  8
001
 62
     3
370
    50
100
AcDbVertex
100
AcDb2dVertex
 10
52.678622
 20
40.429697
 30
0.0
  0
VERTEX
  5
147
330
144
100
AcDbEntity
  8
001
 62
     3
370
    50
100
AcDbVertex
100
AcDb2dVertex
 10
52.622246
 20
40.478814
 30
0.0
  0
VERTEX
  5
148
330
144
100
AcDbEntity
  8
001
 62
     3
370
    50
100
AcDbVertex
100
AcDb2dVertex
 10
52.539702
 20
40.541681
 30
0.0
  0
VERTEX
  5
149
330
144
100
AcDbEntity
  8
001
 62
     3
370
    50
100
AcDbVertex
100
AcDb2dVertex
 10
52.357891
 20
40.635903
 30
0.0
  0
VERTEX
  5
14A
330
144
100
AcDbEntity
  8
001
 62
     3
370
    50
100
AcDbVertex
100
AcDb2dVertex
 10
52.146026
 20
40.665893
 30
0.0
  0
VERTEX
  5
14B
330
144
100
AcDbEntity
  8
001
 62
     3
370
    50
100
AcDbVertex
100
AcDb2dVertex
 10
52.128116
 20
40.666407
 30
0.0
  0
VERTEX
  5
14C
330
144
100
AcDbEntity
  8
001
 62
     3
370
    50
100
AcDbVertex
100
AcDb2dVertex
 10
52.115734
 20
40.66663
 30
0.0
  0
SEQEND
  5
145
330
144
100
AcDbEntity
  8
001
370
    50
  0
LINE
  5
14D
330
1F
100
AcDbEntity
  8
001
 62
     3
370
    50
100
AcDbLine
 10
57.458691
 20
35.607489
 30
0.0
 11
52.678622
 21
40.429697
 31
0.0
  0
POLYLINE
  5
14E
330
1F
100
AcDbEntity
  8
001
 62
     3
370
    50
100
AcDb2dPolyline
 66
     1
 10
0.0
 20
0.0
 30
0.0
  0
VERTEX
  5
150
330
14E
100
AcDbEntity
  8
001
 62
     3
370
    50
100
AcDbVertex
100
AcDb2dVertex
 10
53.613292
 20
34.663214
 30
0.0
  0
VERTEX
  5
151
330
14E
100
AcDbEntity
  8
001
 62
     3
370
    50
100
AcDbVertex
100
AcDb2dVertex
 10
53.590307
 20
34.913669
 30
0.0
  0
VERTEX
  5
152
330
14E
100
AcDbEntity
  8
001
 62
     3
370
    50
100
AcDbVertex
100
AcDb2dVertex
 10
53.522356
 20
35.245846
 30
0.0
  0
VERTEX
  5
153
330
14E
100
AcDbEntity
  8
001
 62
     3
370
    50
100
AcDbVertex
100
AcDb2dVertex
 10
53.464912
 20
35.407113
 30
0.0
  0
VERTEX
  5
154
330
14E
100
AcDbEntity
  8
001
 62
     3
370
    50
100
AcDbVertex
100
AcDb2dVertex
 10
53.394211
 20
35.55217
 30
0.0
  0
VERTEX
  5
155
330
14E
100
AcDbEntity
  8
001
 62
     3
370
    50
100
AcDbVertex
100
AcDb2dVertex
 10
53.310774
 20
35.694291
 30
0.0
  0
VERTEX
  5
156
330
14E
100
AcDbEntity
  8
001
 62
     3
370
    50
100
AcDbVertex
100
AcDb2dVertex
 10
53.215126
 20
35.831784
 30
0.0
  0
VERTEX
  5
157
330
14E
100
AcDbEntity
  8
001
 62
     3
370
    50
100
AcDbVertex
100
AcDb2dVertex
 10
52.990877
 20
36.076741
 30
0.0
  0
VERTEX
  5
158
330
14E
100
AcDbEntity
  8
001
 62
     3
370
    50
100
AcDbVertex
100
AcDb2dVertex
 10
52.727286
 20
36.27797
 30
0.0
  0
VERTEX
  5
159
330
14E
100
AcDbEntity
  8
001
 62
     3
370
    50
100
AcDbVertex
100
AcDb2dVertex
 10
52.278939
 20
36.487238
 30
0.0
  0
VERTEX
  5
15A
330
14E
100
AcDbEntity
  8
001
 62
     3
370
    50
100
AcDbVertex
100
AcDb2dVertex
 10
51.789846
 20
36.573751
 30
0.0
  0
VERTEX
  5
15B
330
14E
100
AcDbEntity
  8
001
 62
     3
370
    50
100
AcDbVertex
100
AcDb2dVertex
 10
51.622489
 20
36.572825
 30
0.0
  0
VERTEX
  5
15C
330
14E
100
AcDbEntity
  8
001
 62
     3
370
    50
100
AcDbVertex
100
AcDb2dVertex
 10
51.459824
 20
36.559165
 30
0.0
  0
VERTEX
  5
15D
330
14E
100
AcDbEntity
  8
001
 62
     3
370
    50
100
AcDbVertex
100
AcDb2dVertex
 10
51.303473
 20
36.533547
 30
0.0
  0
VERTEX
  5
15E
330
14E
100
AcDbEntity
  8
001
 62
     3
370
    50
100
AcDbVertex
100
AcDb2dVertex
 10
51.137638
 20
36.487273
 30
0.0
  0
VERTEX
  5
15F
330
14E
100
AcDbEntity
  8
001
 62
     3
370
    50
100
AcDbVertex
100
AcDb2dVertex
 10
50.959331
 20
36.418277
 30
0.0
  0
VERTEX
  5
160
330
14E
100
AcDbEntity
  8
001
 62
     3
370
    50
100
AcDbVertex
100
AcDb2dVertex
 10
50.833078
 20
36.360258
 30
0.0
  0
SEQEND
  5
14F
330
14E
100
AcDbEntity
  8
001
370
    50
  0
LINE
  5
161
330
1F
100
AcDbEntity
  8
001
 62
     3
370
    50
100
AcDbLine
 10
54.2194
 20
39.359563
 30
0.0
 11
52.994459
 21
40.595302
 31
0.0
  0
LINE
  5
162
330
1F
100
AcDbEntity
  8
001
 62
     3
370
    50
100
AcDbLine
 10
58.007684
 20
34.408062
 30
0.0
 11
58.007684
 21
35.102594
 31
0.0
  0
POLYLINE
  5
163
330
1F
100
AcDbEntity
  8
001
 62
     3
370
    50
100
AcDb2dPolyline
 66
     1
 10
0.0
 20
0.0
 30
0.0
  0
VERTEX
  5
165
330
163
100
AcDbEntity
  8
001
 62
     3
370
    50
100
AcDbVertex
100
AcDb2dVertex
 10
57.774528
 20
33.84437
 30
0.0
  0
VERTEX
  5
166
330
163
100
AcDbEntity
  8
001
 62
     3
370
    50
100
AcDbVertex
100
AcDb2dVertex
 10
57.785769
 20
33.85592
 30
0.0
  0
VERTEX
  5
167
330
163
100
AcDbEntity
  8
001
 62
     3
370
    50
100
AcDbVertex
100
AcDb2dVertex
 10
57.801532
 20
33.872697
 30
0.0
  0
VERTEX
  5
168
330
163
100
AcDbEntity
  8
001
 62
     3
370
    50
100
AcDbVertex
100
AcDb2dVertex
 10
57.849297
 20
33.930039
 30
0.0
  0
VERTEX
  5
169
330
163
100
AcDbEntity
  8
001
 62
     3
370
    50
100
AcDbVertex
100
AcDb2dVertex
 10
57.885389
 20
33.98321
 30
0.0
  0
VERTEX
  5
16A
330
163
100
AcDbEntity
  8
001
 62
     3
370
    50
100
AcDbVertex
100
AcDb2dVertex
 10
57.968903
 20
34.156251
 30
0.0
  0
VERTEX
  5
16B
330
163
100
AcDbEntity
  8
001
 62
     3
370
    50
100
AcDbVertex
100
AcDb2dVertex
 10
58.007107
 20
34.377664
 30
0.0
  0
VERTEX
  5
16C
330
163
100
AcDbEntity
  8
001
 62
     3
370
    50
100
AcDbVertex
100
AcDb2dVertex
 10
58.007549
 20
34.39566
 30
0.0
  0
VERTEX
  5
16D
330
163
100
AcDbEntity
  8
001
 62
     3
370
    50
100
AcDbVertex
100
AcDb2dVertex
 10
58.007684
 20
34.408062
 30
0.0
  0
SEQEND
  5
164
330
163
100
AcDbEntity
  8
001
370
    50
  0
LINE
  5
16E
330
1F
100
AcDbEntity
  8
001
 62
     3
370
    50
100
AcDbLine
 10
52.994459
 20
29.072102
 30
0.0
 11
57.774528
 21
33.84437
 31
0.0
  0
POLYLINE
  5
16F
330
1F
100
AcDbEntity
  8
001
 62
     3
370
    50
100
AcDb2dPolyline
 66
     1
 10
0.0
 20
0.0
 30
0.0
  0
VERTEX
  5
171
330
16F
100
AcDbEntity
  8
001
 62
     3
370
    50
100
AcDbVertex
100
AcDb2dVertex
 10
52.994459
 20
40.595302
 30
0.0
  0
VERTEX
  5
172
330
16F
100
AcDbEntity
  8
001
 62
     3
370
    50
100
AcDbVertex
100
AcDb2dVertex
 10
52.938083
 20
40.644419
 30
0.0
  0
VERTEX
  5
173
330
16F
100
AcDbEntity
  8
001
 62
     3
370
    50
100
AcDbVertex
100
AcDb2dVertex
 10
52.855539
 20
40.707286
 30
0.0
  0
VERTEX
  5
174
330
16F
100
AcDbEntity
  8
001
 62
     3
370
    50
100
AcDbVertex
100
AcDb2dVertex
 10
52.673728
 20
40.801509
 30
0.0
  0
VERTEX
  5
175
330
16F
100
AcDbEntity
  8
001
 62
     3
370
    50
100
AcDbVertex
100
AcDb2dVertex
 10
52.461863
 20
40.831499
 30
0.0
  0
VERTEX
  5
176
330
16F
100
AcDbEntity
  8
001
 62
     3
370
    50
100
AcDbVertex
100
AcDb2dVertex
 10
52.443952
 20
40.832013
 30
0.0
  0
VERTEX
  5
177
330
16F
100
AcDbEntity
  8
001
 62
     3
370
    50
100
AcDbVertex
100
AcDb2dVertex
 10
52.43157
 20
40.832236
 30
0.0
  0
SEQEND
  5
170
330
16F
100
AcDbEntity
  8
001
370
    50
  0
LINE
  5
178
330
1F
100
AcDbEntity
  8
001
 62
     3
370
    50
100
AcDbLine
 10
52.43157
 20
40.832236
 30
0.0
 11
51.635526
 21
40.836394
 31
0.0
  0
POLYLINE
  5
179
330
1F
100
AcDbEntity
  8
001
 62
     3
370
    50
100
AcDb2dPolyline
 66
     1
 10
0.0
 20
0.0
 30
0.0
  0
VERTEX
  5
17B
330
179
100
AcDbEntity
  8
001
 62
     3
370
    50
100
AcDbVertex
100
AcDb2dVertex
 10
50.94819
 20
40.580396
 30
0.0
  0
VERTEX
  5
17C
330
179
100
AcDbEntity
  8
001
 62
     3
370
    50
100
AcDbVertex
100
AcDb2dVertex
 10
50.899319
 20
40.552176
 30
0.0
  0
VERTEX
  5
17D
330
179
100
AcDbEntity
  8
001
 62
     3
370
    50
100
AcDbVertex
100
AcDb2dVertex
 10
50.831578
 20
40.505529
 30
0.0
  0
VERTEX
  5
17E
330
179
100
AcDbEntity
  8
001
 62
     3
370
    50
100
AcDbVertex
100
AcDb2dVertex
 10
50.7863
 20
40.467518
 30
0.0
  0
VERTEX
  5
17F
330
179
100
AcDbEntity
  8
001
 62
     3
370
    50
100
AcDbVertex
100
AcDb2dVertex
 10
50.756801
 20
40.439736
 30
0.0
  0
SEQEND
  5
17A
330
179
100
AcDbEntity
  8
001
370
    50
  0
LINE
  5
180
330
1F
100
AcDbEntity
  8
001
 62
     3
370
    50
100
AcDbLine
 10
51.264026
 20
40.746002
 30
0.0
 11
50.948189
 21
40.580396
 31
0.0
  0
POLYLINE
  5
181
330
1F
100
AcDbEntity
  8
001
 62
     3
370
    50
100
AcDb2dPolyline
 66
     1
 10
0.0
 20
0.0
 30
0.0
  0
VERTEX
  5
183
330
181
100
AcDbEntity
  8
001
 62
     3
370
    50
100
AcDbVertex
100
AcDb2dVertex
 10
51.635526
 20
40.836394
 30
0.0
  0
VERTEX
  5
184
330
181
100
AcDbEntity
  8
001
 62
     3
370
    50
100
AcDbVertex
100
AcDb2dVertex
 10
51.58972
 20
40.83459
 30
0.0
  0
VERTEX
  5
185
330
181
100
AcDbEntity
  8
001
 62
     3
370
    50
100
AcDbVertex
100
AcDb2dVertex
 10
51.527227
 20
40.829532
 30
0.0
  0
VERTEX
  5
186
330
181
100
AcDbEntity
  8
001
 62
     3
370
    50
100
AcDbVertex
100
AcDb2dVertex
 10
51.458184
 20
40.818723
 30
0.0
  0
VERTEX
  5
187
330
181
100
AcDbEntity
  8
001
 62
     3
370
    50
100
AcDbVertex
100
AcDb2dVertex
 10
51.391926
 20
40.799341
 30
0.0
  0
VERTEX
  5
188
330
181
100
AcDbEntity
  8
001
 62
     3
370
    50
100
AcDbVertex
100
AcDb2dVertex
 10
51.317723
 20
40.770377
 30
0.0
  0
VERTEX
  5
189
330
181
100
AcDbEntity
  8
001
 62
     3
370
    50
100
AcDbVertex
100
AcDb2dVertex
 10
51.264026
 20
40.746002
 30
0.0
  0
SEQEND
  5
182
330
181
100
AcDbEntity
  8
001
370
    50
  0
POLYLINE
  5
18A
330
1F
100
AcDbEntity
  8
001
 62
     3
370
    50
100
AcDb2dPolyline
 66
     1
 10
0.0
 20
0.0
 30
0.0
  0
VERTEX
  5
18C
330
18A
100
AcDbEntity
  8
001
 62
     3
370
    50
100
AcDbVertex
100
AcDb2dVertex
 10
52.602345
 20
32.985974
 30
0.0
  0
VERTEX
  5
18D
330
18A
100
AcDbEntity
  8
001
 62
     3
370
    50
100
AcDbVertex
100
AcDb2dVertex
 10
52.721869
 20
33.056914
 30
0.0
  0
VERTEX
  5
18E
330
18A
100
AcDbEntity
  8
001
 62
     3
370
    50
100
AcDbVertex
100
AcDb2dVertex
 10
52.880027
 20
33.164252
 30
0.0
  0
VERTEX
  5
18F
330
18A
100
AcDbEntity
  8
001
 62
     3
370
    50
100
AcDbVertex
100
AcDb2dVertex
 10
53.012405
 20
33.273901
 30
0.0
  0
VERTEX
  5
190
330
18A
100
AcDbEntity
  8
001
 62
     3
370
    50
100
AcDbVertex
100
AcDb2dVertex
 10
53.122392
 20
33.388375
 30
0.0
  0
VERTEX
  5
191
330
18A
100
AcDbEntity
  8
001
 62
     3
370
    50
100
AcDbVertex
100
AcDb2dVertex
 10
53.226121
 20
33.516075
 30
0.0
  0
VERTEX
  5
192
330
18A
100
AcDbEntity
  8
001
 62
     3
370
    50
100
AcDbVertex
100
AcDb2dVertex
 10
53.322076
 20
33.651535
 30
0.0
  0
VERTEX
  5
193
330
18A
100
AcDbEntity
  8
001
 62
     3
370
    50
100
AcDbVertex
100
AcDb2dVertex
 10
53.529362
 20
34.071027
 30
0.0
  0
VERTEX
  5
194
330
18A
100
AcDbEntity
  8
001
 62
     3
370
    50
100
AcDbVertex
100
AcDb2dVertex
 10
53.611919
 20
34.590828
 30
0.0
  0
VERTEX
  5
195
330
18A
100
AcDbEntity
  8
001
 62
     3
370
    50
100
AcDbVertex
100
AcDb2dVertex
 10
53.612951
 20
34.633664
 30
0.0
  0
VERTEX
  5
196
330
18A
100
AcDbEntity
  8
001
 62
     3
370
    50
100
AcDbVertex
100
AcDb2dVertex
 10
53.613292
 20
34.663214
 30
0.0
  0
SEQEND
  5
18B
330
18A
100
AcDbEntity
  8
001
370
    50
  0
POLYLINE
  5
197
330
1F
100
AcDbEntity
  8
001
 62
     3
370
    50
100
AcDb2dPolyline
 66
     1
 10
0.0
 20
0.0
 30
0.0
  0
VERTEX
  5
199
330
197
100
AcDbEntity
  8
001
 62
     3
370
    50
100
AcDbVertex
100
AcDb2dVertex
 10
50.833078
 20
36.360258
 30
0.0
  0
VERTEX
  5
19A
330
197
100
AcDbEntity
  8
001
 62
     3
370
    50
100
AcDbVertex
100
AcDb2dVertex
 10
50.713554
 20
36.289406
 30
0.0
  0
VERTEX
  5
19B
330
197
100
AcDbEntity
  8
001
 62
     3
370
    50
100
AcDbVertex
100
AcDb2dVertex
 10
50.555396
 20
36.181981
 30
0.0
  0
VERTEX
  5
19C
330
197
100
AcDbEntity
  8
001
 62
     3
370
    50
100
AcDbVertex
100
AcDb2dVertex
 10
50.423017
 20
36.071896
 30
0.0
  0
VERTEX
  5
19D
330
197
100
AcDbEntity
  8
001
 62
     3
370
    50
100
AcDbVertex
100
AcDb2dVertex
 10
50.313031
 20
35.957857
 30
0.0
  0
VERTEX
  5
19E
330
197
100
AcDbEntity
  8
001
 62
     3
370
    50
100
AcDbVertex
100
AcDb2dVertex
 10
50.209304
 20
35.831815
 30
0.0
  0
VERTEX
  5
19F
330
197
100
AcDbEntity
  8
001
 62
     3
370
    50
100
AcDbVertex
100
AcDb2dVertex
 10
50.113346
 20
35.694698
 30
0.0
  0
VERTEX
  5
1A0
330
197
100
AcDbEntity
  8
001
 62
     3
370
    50
100
AcDbVertex
100
AcDb2dVertex
 10
49.906014
 20
35.243434
 30
0.0
  0
VERTEX
  5
1A1
330
197
100
AcDbEntity
  8
001
 62
     3
370
    50
100
AcDbVertex
100
AcDb2dVertex
 10
49.823504
 20
34.755405
 30
0.0
  0
VERTEX
  5
1A2
330
197
100
AcDbEntity
  8
001
 62
     3
370
    50
100
AcDbVertex
100
AcDb2dVertex
 10
49.839965
 20
34.42356
 30
0.0
  0
VERTEX
  5
1A3
330
197
100
AcDbEntity
  8
001
 62
     3
370
    50
100
AcDbVertex
100
AcDb2dVertex
 10
49.913067
 20
34.100387
 30
0.0
  0
VERTEX
  5
1A4
330
197
100
AcDbEntity
  8
001
 62
     3
370
    50
100
AcDbVertex
100
AcDb2dVertex
 10
49.970505
 20
33.944391
 30
0.0
  0
VERTEX
  5
1A5
330
197
100
AcDbEntity
  8
001
 62
     3
370
    50
100
AcDbVertex
100
AcDb2dVertex
 10
50.041212
 20
33.794063
 30
0.0
  0
VERTEX
  5
1A6
330
197
100
AcDbEntity
  8
001
 62
     3
370
    50
100
AcDbVertex
100
AcDb2dVertex
 10
50.12465
 20
33.65041
 30
0.0
  0
VERTEX
  5
1A7
330
197
100
AcDbEntity
  8
001
 62
     3
370
    50
100
AcDbVertex
100
AcDb2dVertex
 10
50.220297
 20
33.514449
 30
0.0
  0
VERTEX
  5
1A8
330
197
100
AcDbEntity
  8
001
 62
     3
370
    50
100
AcDbVertex
100
AcDb2dVertex
 10
50.444545
 20
33.270527
 30
0.0
  0
VERTEX
  5
1A9
330
197
100
AcDbEntity
  8
001
 62
     3
370
    50
100
AcDbVertex
100
AcDb2dVertex
 10
50.708137
 20
33.068263
 30
0.0
  0
VERTEX
  5
1AA
330
197
100
AcDbEntity
  8
001
 62
     3
370
    50
100
AcDbVertex
100
AcDb2dVertex
 10
51.156484
 20
32.858582
 30
0.0
  0
VERTEX
  5
1AB
330
197
100
AcDbEntity
  8
001
 62
     3
370
    50
100
AcDbVertex
100
AcDb2dVertex
 10
51.645577
 20
32.772482
 30
0.0
  0
VERTEX
  5
1AC
330
197
100
AcDbEntity
  8
001
 62
     3
370
    50
100
AcDbVertex
100
AcDb2dVertex
 10
51.812934
 20
32.77343
 30
0.0
  0
VERTEX
  5
1AD
330
197
100
AcDbEntity
  8
001
 62
     3
370
    50
100
AcDbVertex
100
AcDb2dVertex
 10
51.975599
 20
32.787068
 30
0.0
  0
VERTEX
  5
1AE
330
197
100
AcDbEntity
  8
001
 62
     3
370
    50
100
AcDbVertex
100
AcDb2dVertex
 10
52.13195
 20
32.81268
 30
0.0
  0
VERTEX
  5
1AF
330
197
100
AcDbEntity
  8
001
 62
     3
370
    50
100
AcDbVertex
100
AcDb2dVertex
 10
52.297785
 20
32.85896
 30
0.0
  0
VERTEX
  5
1B0
330
197
100
AcDbEntity
  8
001
 62
     3
370
    50
100
AcDbVertex
100
AcDb2dVertex
 10
52.476092
 20
32.927957
 30
0.0
  0
VERTEX
  5
1B1
330
197
100
AcDbEntity
  8
001
 62
     3
370
    50
100
AcDbVertex
100
AcDb2dVertex
 10
52.602345
 20
32.985974
 30
0.0
  0
SEQEND
  5
198
330
197
100
AcDbEntity
  8
001
370
    50
  0
POLYLINE
  5
1B2
330
1F
100
AcDbEntity
  8
001
 62
     3
370
    50
100
AcDb2dPolyline
 66
     1
 10
0.0
 20
0.0
 30
0.0
  0
VERTEX
  5
1B4
330
1B2
100
AcDbEntity
  8
001
 62
     3
370
    50
100
AcDbVertex
100
AcDb2dVertex
 10
52.80307
 20
28.931442
 30
0.0
  0
VERTEX
  5
1B5
330
1B2
100
AcDbEntity
  8
001
 62
     3
370
    50
100
AcDbVertex
100
AcDb2dVertex
 10
52.851931
 20
28.959655
 30
0.0
  0
VERTEX
  5
1B6
330
1B2
100
AcDbEntity
  8
001
 62
     3
370
    50
100
AcDbVertex
100
AcDb2dVertex
 10
52.919682
 20
29.006309
 30
0.0
  0
VERTEX
  5
1B7
330
1B2
100
AcDbEntity
  8
001
 62
     3
370
    50
100
AcDbVertex
100
AcDb2dVertex
 10
52.943191
 20
29.025276
 30
0.0
  0
VERTEX
  5
1B8
330
1B2
100
AcDbEntity
  8
001
 62
     3
370
    50
100
AcDbVertex
100
AcDb2dVertex
 10
52.9589
 20
29.038726
 30
0.0
  0
SEQEND
  5
1B3
330
1B2
100
AcDbEntity
  8
001
370
    50
  0
POLYLINE
  5
1B9
330
1F
100
AcDbEntity
  8
001
 62
     3
370
    50
100
AcDb2dPolyline
 66
     1
 10
0.0
 20
0.0
 30
0.0
  0
VERTEX
  5
1BB
330
1B9
100
AcDbEntity
  8
001
 62
     3
370
    50
100
AcDbVertex
100
AcDb2dVertex
 10
52.9589
 20
29.038726
 30
0.0
  0
VERTEX
  5
1BC
330
1B9
100
AcDbEntity
  8
001
 62
     3
370
    50
100
AcDbVertex
100
AcDb2dVertex
 10
52.966283
 20
29.045333
 30
0.0
  0
VERTEX
  5
1BD
330
1B9
100
AcDbEntity
  8
001
 62
     3
370
    50
100
AcDbVertex
100
AcDb2dVertex
 10
52.976936
 20
29.055139
 30
0.0
  0
VERTEX
  5
1BE
330
1B9
100
AcDbEntity
  8
001
 62
     3
370
    50
100
AcDbVertex
100
AcDb2dVertex
 10
52.987397
 20
29.065152
 30
0.0
  0
VERTEX
  5
1BF
330
1B9
100
AcDbEntity
  8
001
 62
     3
370
    50
100
AcDbVertex
100
AcDb2dVertex
 10
52.994459
 20
29.072102
 30
0.0
  0
SEQEND
  5
1BA
330
1B9
100
AcDbEntity
  8
001
370
    50
  0
POLYLINE
  5
1C0
330
1F
100
AcDbEntity
  8
001
 62
     3
370
    50
100
AcDb2dPolyline
 66
     1
 10
0.0
 20
0.0
 30
0.0
  0
VERTEX
  5
1C2
330
1C0
100
AcDbEntity
  8
001
 62
     3
370
    50
100
AcDbVertex
100
AcDb2dVertex
 10
52.487233
 20
28.765836
 30
0.0
  0
VERTEX
  5
1C3
330
1C0
100
AcDbEntity
  8
001
 62
     3
370
    50
100
AcDbVertex
100
AcDb2dVertex
 10
52.536104
 20
28.794057
 30
0.0
  0
VERTEX
  5
1C4
330
1C0
100
AcDbEntity
  8
001
 62
     3
370
    50
100
AcDbVertex
100
AcDb2dVertex
 10
52.603845
 20
28.840704
 30
0.0
  0
VERTEX
  5
1C5
330
1C0
100
AcDbEntity
  8
001
 62
     3
370
    50
100
AcDbVertex
100
AcDb2dVertex
 10
52.649123
 20
28.878715
 30
0.0
  0
VERTEX
  5
1C6
330
1C0
100
AcDbEntity
  8
001
 62
     3
370
    50
100
AcDbVertex
100
AcDb2dVertex
 10
52.678622
 20
28.906497
 30
0.0
  0
SEQEND
  5
1C1
330
1C0
100
AcDbEntity
  8
001
370
    50
  0
LINE
  5
1C7
330
1F
100
AcDbEntity
  8
001
 62
     3
370
    50
100
AcDbLine
 10
52.487233
 20
28.765837
 30
0.0
 11
52.80307
 21
28.931442
 31
0.0
  0
LINE
  5
1C8
330
1F
100
AcDbEntity
  8
001
 62
     3
370
    50
100
AcDbLine
 10
64.243576
 20
39.60612
 30
0.0
 11
56.116799
 21
31.656739
 31
0.0
  0
POLYLINE
  5
1C9
330
1F
100
AcDbEntity
  8
001
 62
     3
370
    50
100
AcDb2dPolyline
 66
     1
 10
0.0
 20
0.0
 30
0.0
  0
VERTEX
  5
1CB
330
1C9
100
AcDbEntity
  8
001
 62
     3
370
    50
100
AcDbVertex
100
AcDb2dVertex
 10
52.961011
 20
29.038709
 30
0.0
  0
VERTEX
  5
1CC
330
1C9
100
AcDbEntity
  8
001
 62
     3
370
    50
100
AcDbVertex
100
AcDb2dVertex
 10
53.1383
 20
29.159685
 30
0.0
  0
VERTEX
  5
1CD
330
1C9
100
AcDbEntity
  8
001
 62
     3
370
    50
100
AcDbVertex
100
AcDb2dVertex
 10
53.385304
 20
29.337992
 30
0.0
  0
VERTEX
  5
1CE
330
1C9
100
AcDbEntity
  8
001
 62
     3
370
    50
100
AcDbVertex
100
AcDb2dVertex
 10
54.309817
 20
30.066186
 30
0.0
  0
VERTEX
  5
1CF
330
1C9
100
AcDbEntity
  8
001
 62
     3
370
    50
100
AcDbVertex
100
AcDb2dVertex
 10
55.16643
 20
30.818967
 30
0.0
  0
VERTEX
  5
1D0
330
1C9
100
AcDbEntity
  8
001
 62
     3
370
    50
100
AcDbVertex
100
AcDb2dVertex
 10
55.71622
 20
31.303654
 30
0.0
  0
VERTEX
  5
1D1
330
1C9
100
AcDbEntity
  8
001
 62
     3
370
    50
100
AcDbVertex
100
AcDb2dVertex
 10
56.116799
 20
31.656739
 30
0.0
  0
SEQEND
  5
1CA
330
1C9
100
AcDbEntity
  8
001
370
    50
  0
LINE
  5
1D2
330
1F
100
AcDbEntity
  8
001
 62
     3
370
    50
100
AcDbLine
 10
52.994459
 20
29.072102
 30
0.0
 11
52.961011
 21
29.038709
 31
0.0
  0
LINE
  5
1D3
330
1F
100
AcDbEntity
  8
001
 62
     3
370
    50
100
AcDbLine
 10
58.735439
 20
34.803712
 30
0.0
 11
57.774528
 21
33.84437
 31
0.0
  0
LINE
  5
1D4
330
1F
100
AcDbEntity
  8
001
 62
     3
370
    50
100
AcDbLine
 10
58.449686
 20
34.653881
 30
0.0
 11
58.735439
 21
34.803712
 31
0.0
  0
LINE
  5
1D5
330
1F
100
AcDbEntity
  8
001
 62
     3
370
    50
100
AcDbLine
 10
58.449686
 20
34.653881
 30
0.0
 11
64.243576
 21
40.373786
 31
0.0
  0
LINE
  5
1D6
330
1F
100
AcDbEntity
  8
001
 62
     3
370
    50
100
AcDbLine
 10
47.660966
 20
41.621715
 30
0.0
 11
49.614855
 21
40.225742
 31
0.0
  0
LINE
  5
1D7
330
1F
100
AcDbEntity
  8
001
 62
     3
370
    50
100
AcDbLine
 10
49.243576
 20
46.704324
 30
0.0
 11
49.243576
 21
43.204324
 31
0.0
  0
LINE
  5
1D8
330
1F
100
AcDbEntity
  8
001
 62
     3
370
    50
100
AcDbLine
 10
64.243576
 20
39.60612
 30
0.0
 11
64.243576
 21
45.704324
 31
0.0
  0
POLYLINE
  5
1D9
330
1F
100
AcDbEntity
  8
001
 62
     3
370
    50
100
AcDb2dPolyline
 66
     1
 10
0.0
 20
0.0
 30
0.0
  0
VERTEX
  5
1DB
330
1D9
100
AcDbEntity
  8
001
 62
     3
370
    50
100
AcDbVertex
100
AcDb2dVertex
 10
54.25286
 20
38.914421
 30
0.0
  0
VERTEX
  5
1DC
330
1D9
100
AcDbEntity
  8
001
 62
     3
370
    50
100
AcDbVertex
100
AcDb2dVertex
 10
54.228777
 20
39.234814
 30
0.0
  0
VERTEX
  5
1DD
330
1D9
100
AcDbEntity
  8
001
 62
     3
370
    50
100
AcDbVertex
100
AcDb2dVertex
 10
54.149992
 20
39.661086
 30
0.0
  0
VERTEX
  5
1DE
330
1D9
100
AcDbEntity
  8
001
 62
     3
370
    50
100
AcDbVertex
100
AcDb2dVertex
 10
54.078863
 20
39.874503
 30
0.0
  0
VERTEX
  5
1DF
330
1D9
100
AcDbEntity
  8
001
 62
     3
370
    50
100
AcDbVertex
100
AcDb2dVertex
 10
53.989674
 20
40.06677
 30
0.0
  0
VERTEX
  5
1E0
330
1D9
100
AcDbEntity
  8
001
 62
     3
370
    50
100
AcDbVertex
100
AcDb2dVertex
 10
53.883496
 20
40.255267
 30
0.0
  0
VERTEX
  5
1E1
330
1D9
100
AcDbEntity
  8
001
 62
     3
370
    50
100
AcDbVertex
100
AcDb2dVertex
 10
53.761015
 20
40.437441
 30
0.0
  0
VERTEX
  5
1E2
330
1D9
100
AcDbEntity
  8
001
 62
     3
370
    50
100
AcDbVertex
100
AcDb2dVertex
 10
53.623196
 20
40.606572
 30
0.0
  0
VERTEX
  5
1E3
330
1D9
100
AcDbEntity
  8
001
 62
     3
370
    50
100
AcDbVertex
100
AcDb2dVertex
 10
53.470961
 20
40.761835
 30
0.0
  0
VERTEX
  5
1E4
330
1D9
100
AcDbEntity
  8
001
 62
     3
370
    50
100
AcDbVertex
100
AcDb2dVertex
 10
53.305479
 20
40.903356
 30
0.0
  0
VERTEX
  5
1E5
330
1D9
100
AcDbEntity
  8
001
 62
     3
370
    50
100
AcDbVertex
100
AcDb2dVertex
 10
53.128327
 20
41.030097
 30
0.0
  0
VERTEX
  5
1E6
330
1D9
100
AcDbEntity
  8
001
 62
     3
370
    50
100
AcDbVertex
100
AcDb2dVertex
 10
52.940791
 20
41.140818
 30
0.0
  0
VERTEX
  5
1E7
330
1D9
100
AcDbEntity
  8
001
 62
     3
370
    50
100
AcDbVertex
100
AcDb2dVertex
 10
52.743522
 20
41.234075
 30
0.0
  0
VERTEX
  5
1E8
330
1D9
100
AcDbEntity
  8
001
 62
     3
370
    50
100
AcDbVertex
100
AcDb2dVertex
 10
52.537466
 20
41.309208
 30
0.0
  0
VERTEX
  5
1E9
330
1D9
100
AcDbEntity
  8
001
 62
     3
370
    50
100
AcDbVertex
100
AcDb2dVertex
 10
52.328239
 20
41.367572
 30
0.0
  0
VERTEX
  5
1EA
330
1D9
100
AcDbEntity
  8
001
 62
     3
370
    50
100
AcDbVertex
100
AcDb2dVertex
 10
51.705781
 20
41.441832
 30
0.0
  0
VERTEX
  5
1EB
330
1D9
100
AcDbEntity
  8
001
 62
     3
370
    50
100
AcDbVertex
100
AcDb2dVertex
 10
51.028015
 20
41.315988
 30
0.0
  0
VERTEX
  5
1EC
330
1D9
100
AcDbEntity
  8
001
 62
     3
370
    50
100
AcDbVertex
100
AcDb2dVertex
 10
50.773785
 20
41.218613
 30
0.0
  0
VERTEX
  5
1ED
330
1D9
100
AcDbEntity
  8
001
 62
     3
370
    50
100
AcDbVertex
100
AcDb2dVertex
 10
50.598951
 20
41.138716
 30
0.0
  0
SEQEND
  5
1DA
330
1D9
100
AcDbEntity
  8
001
370
    50
  0
LINE
  5
1EE
330
1F
100
AcDbEntity
  8
001
 62
     3
370
    50
100
AcDbLine
 10
54.25286
 20
38.914421
 30
0.0
 11
58.449686
 21
34.653881
 31
0.0
  0
POLYLINE
  5
1EF
330
1F
100
AcDbEntity
  8
001
 62
     3
370
    50
100
AcDb2dPolyline
 66
     1
 10
0.0
 20
0.0
 30
0.0
  0
VERTEX
  5
1F1
330
1EF
100
AcDbEntity
  8
001
 62
     3
370
    50
100
AcDbVertex
100
AcDb2dVertex
 10
50.739153
 20
41.206857
 30
0.0
  0
VERTEX
  5
1F2
330
1EF
100
AcDbEntity
  8
001
 62
     3
370
    50
100
AcDbVertex
100
AcDb2dVertex
 10
50.641242
 20
41.14298
 30
0.0
  0
VERTEX
  5
1F3
330
1EF
100
AcDbEntity
  8
001
 62
     3
370
    50
100
AcDbVertex
100
AcDb2dVertex
 10
50.5082
 20
41.048247
 30
0.0
  0
VERTEX
  5
1F4
330
1EF
100
AcDbEntity
  8
001
 62
     3
370
    50
100
AcDbVertex
100
AcDb2dVertex
 10
50.333173
 20
40.901127
 30
0.0
  0
VERTEX
  5
1F5
330
1EF
100
AcDbEntity
  8
001
 62
     3
370
    50
100
AcDbVertex
100
AcDb2dVertex
 10
50.190136
 20
40.754121
 30
0.0
  0
VERTEX
  5
1F6
330
1EF
100
AcDbEntity
  8
001
 62
     3
370
    50
100
AcDbVertex
100
AcDb2dVertex
 10
50.054671
 20
40.594099
 30
0.0
  0
VERTEX
  5
1F7
330
1EF
100
AcDbEntity
  8
001
 62
     3
370
    50
100
AcDbVertex
100
AcDb2dVertex
 10
49.928082
 20
40.408767
 30
0.0
  0
VERTEX
  5
1F8
330
1EF
100
AcDbEntity
  8
001
 62
     3
370
    50
100
AcDbVertex
100
AcDb2dVertex
 10
49.659116
 20
39.755446
 30
0.0
  0
VERTEX
  5
1F9
330
1EF
100
AcDbEntity
  8
001
 62
     3
370
    50
100
AcDbVertex
100
AcDb2dVertex
 10
49.550677
 20
39.235581
 30
0.0
  0
SEQEND
  5
1F0
330
1EF
100
AcDbEntity
  8
001
370
    50
  0
POLYLINE
  5
1FA
330
1F
100
AcDbEntity
  8
001
 62
     3
370
    50
100
AcDb2dPolyline
 66
     1
 10
0.0
 20
0.0
 30
0.0
  0
VERTEX
  5
1FC
330
1FA
100
AcDbEntity
  8
001
 62
     3
370
    50
100
AcDbVertex
100
AcDb2dVertex
 10
50.598951
 20
41.138716
 30
0.0
  0
VERTEX
  5
1FD
330
1FA
100
AcDbEntity
  8
001
 62
     3
370
    50
100
AcDbVertex
100
AcDb2dVertex
 10
50.44822
 20
41.050505
 30
0.0
  0
VERTEX
  5
1FE
330
1FA
100
AcDbEntity
  8
001
 62
     3
370
    50
100
AcDbVertex
100
AcDb2dVertex
 10
50.246863
 20
40.915781
 30
0.0
  0
VERTEX
  5
1FF
330
1FA
100
AcDbEntity
  8
001
 62
     3
370
    50
100
AcDbVertex
100
AcDb2dVertex
 10
50.065866
 20
40.767541
 30
0.0
  0
VERTEX
  5
200
330
1FA
100
AcDbEntity
  8
001
 62
     3
370
    50
100
AcDbVertex
100
AcDb2dVertex
 10
49.918685
 20
40.620906
 30
0.0
  0
VERTEX
  5
201
330
1FA
100
AcDbEntity
  8
001
 62
     3
370
    50
100
AcDbVertex
100
AcDb2dVertex
 10
49.784875
 20
40.467598
 30
0.0
  0
VERTEX
  5
202
330
1FA
100
AcDbEntity
  8
001
 62
     3
370
    50
100
AcDbVertex
100
AcDb2dVertex
 10
49.645859
 20
40.274181
 30
0.0
  0
VERTEX
  5
203
330
1FA
100
AcDbEntity
  8
001
 62
     3
370
    50
100
AcDbVertex
100
AcDb2dVertex
 10
49.627448
 20
40.245622
 30
0.0
  0
VERTEX
  5
204
330
1FA
100
AcDbEntity
  8
001
 62
     3
370
    50
100
AcDbVertex
100
AcDb2dVertex
 10
49.614855
 20
40.225742
 30
0.0
  0
SEQEND
  5
1FB
330
1FA
100
AcDbEntity
  8
001
370
    50
  0
POLYLINE
  5
205
330
1F
100
AcDbEntity
  8
001
 62
     3
370
    50
100
AcDb2dPolyline
 66
     1
 10
0.0
 20
0.0
 30
0.0
  0
VERTEX
  5
207
330
205
100
AcDbEntity
  8
001
 62
     3
370
    50
100
AcDbVertex
100
AcDb2dVertex
 10
49.614855
 20
40.225742
 30
0.0
  0
VERTEX
  5
208
330
205
100
AcDbEntity
  8
001
 62
     3
370
    50
100
AcDbVertex
100
AcDb2dVertex
 10
49.399802
 20
39.752488
 30
0.0
  0
VERTEX
  5
209
330
205
100
AcDbEntity
  8
001
 62
     3
370
    50
100
AcDbVertex
100
AcDb2dVertex
 10
49.251738
 20
39.02091
 30
0.0
  0
VERTEX
  5
20A
330
205
100
AcDbEntity
  8
001
 62
     3
370
    50
100
AcDbVertex
100
AcDb2dVertex
 10
49.250271
 20
38.96453
 30
0.0
  0
VERTEX
  5
20B
330
205
100
AcDbEntity
  8
001
 62
     3
370
    50
100
AcDbVertex
100
AcDb2dVertex
 10
49.249936
 20
38.925915
 30
0.0
  0
SEQEND
  5
206
330
205
100
AcDbEntity
  8
001
370
    50
  0
LINE
  5
20C
330
1F
100
AcDbEntity
  8
001
 62
     3
370
    50
100
AcDbLine
 10
46.743576
 20
40.704324
 30
0.0
 11
49.243576
 21
43.204324
 31
0.0
  0
LINE
  5
20D
330
1F
100
AcDbEntity
  8
001
 62
     3
370
    50
100
AcDbLine
 10
46.743576
 20
36.433061
 30
0.0
 11
46.743576
 21
40.704324
 31
0.0
  0
POLYLINE
  5
20E
330
1F
100
AcDbEntity
  8
001
 62
     3
370
    50
100
AcDb2dPolyline
 66
     1
 10
0.0
 20
0.0
 30
0.0
  0
VERTEX
  5
210
330
20E
100
AcDbEntity
  8
001
 62
     3
370
    50
100
AcDbVertex
100
AcDb2dVertex
 10
52.9589
 20
29.038726
 30
0.0
  0
VERTEX
  5
211
330
20E
100
AcDbEntity
  8
001
 62
     3
370
    50
100
AcDbVertex
100
AcDb2dVertex
 10
52.959329
 20
29.038723
 30
0.0
  0
VERTEX
  5
212
330
20E
100
AcDbEntity
  8
001
 62
     3
370
    50
100
AcDbVertex
100
AcDb2dVertex
 10
52.959956
 20
29.038718
 30
0.0
  0
VERTEX
  5
213
330
20E
100
AcDbEntity
  8
001
 62
     3
370
    50
100
AcDbVertex
100
AcDb2dVertex
 10
52.960583
 20
29.038713
 30
0.0
  0
VERTEX
  5
214
330
20E
100
AcDbEntity
  8
001
 62
     3
370
    50
100
AcDbVertex
100
AcDb2dVertex
 10
52.961011
 20
29.038709
 30
0.0
  0
SEQEND
  5
20F
330
20E
100
AcDbEntity
  8
001
370
    50
  0
POLYLINE
  5
215
330
1F
100
AcDbEntity
  8
001
 62
     3
370
    50
100
AcDb2dPolyline
 66
     1
 10
0.0
 20
0.0
 30
0.0
  0
VERTEX
  5
217
330
215
100
AcDbEntity
  8
001
 62
     3
370
    50
100
AcDbVertex
100
AcDb2dVertex
 10
51.635526
 20
110.106518
 30
0.0
  0
VERTEX
  5
218
330
215
100
AcDbEntity
  8
001
 62
     3
370
    50
100
AcDbVertex
100
AcDb2dVertex
 10
51.618944
 20
110.104935
 30
0.0
  0
VERTEX
  5
219
330
215
100
AcDbEntity
  8
001
 62
     3
370
    50
100
AcDbVertex
100
AcDb2dVertex
 10
51.595293
 20
110.102476
 30
0.0
  0
VERTEX
  5
21A
330
215
100
AcDbEntity
  8
001
 62
     3
370
    50
100
AcDbVertex
100
AcDb2dVertex
 10
51.521208
 20
110.092685
 30
0.0
  0
VERTEX
  5
21B
330
215
100
AcDbEntity
  8
001
 62
     3
370
    50
100
AcDbVertex
100
AcDb2dVertex
 10
51.457849
 20
110.081555
 30
0.0
  0
VERTEX
  5
21C
330
215
100
AcDbEntity
  8
001
 62
     3
370
    50
100
AcDbVertex
100
AcDb2dVertex
 10
51.337281
 20
110.054656
 30
0.0
  0
VERTEX
  5
21D
330
215
100
AcDbEntity
  8
001
 62
     3
370
    50
100
AcDbVertex
100
AcDb2dVertex
 10
51.20317
 20
110.009828
 30
0.0
  0
VERTEX
  5
21E
330
215
100
AcDbEntity
  8
001
 62
     3
370
    50
100
AcDbVertex
100
AcDb2dVertex
 10
51.12616
 20
109.976348
 30
0.0
  0
VERTEX
  5
21F
330
215
100
AcDbEntity
  8
001
 62
     3
370
    50
100
AcDbVertex
100
AcDb2dVertex
 10
51.072638
 20
109.950082
 30
0.0
  0
SEQEND
  5
216
330
215
100
AcDbEntity
  8
001
370
    50
  0
POLYLINE
  5
220
330
1F
100
AcDbEntity
  8
001
 62
     3
370
    50
100
AcDb2dPolyline
 66
     1
 10
0.0
 20
0.0
 30
0.0
  0
VERTEX
  5
222
330
220
100
AcDbEntity
  8
001
 62
     3
370
    50
100
AcDbVertex
100
AcDb2dVertex
 10
51.319689
 20
112.92591
 30
0.0
  0
VERTEX
  5
223
330
220
100
AcDbEntity
  8
001
 62
     3
370
    50
100
AcDbVertex
100
AcDb2dVertex
 10
51.303107
 20
112.924326
 30
0.0
  0
VERTEX
  5
224
330
220
100
AcDbEntity
  8
001
 62
     3
370
    50
100
AcDbVertex
100
AcDb2dVertex
 10
51.279456
 20
112.921867
 30
0.0
  0
VERTEX
  5
225
330
220
100
AcDbEntity
  8
001
 62
     3
370
    50
100
AcDbVertex
100
AcDb2dVertex
 10
51.205371
 20
112.912076
 30
0.0
  0
VERTEX
  5
226
330
220
100
AcDbEntity
  8
001
 62
     3
370
    50
100
AcDbVertex
100
AcDb2dVertex
 10
51.142012
 20
112.900946
 30
0.0
  0
VERTEX
  5
227
330
220
100
AcDbEntity
  8
001
 62
     3
370
    50
100
AcDbVertex
100
AcDb2dVertex
 10
51.021444
 20
112.874047
 30
0.0
  0
VERTEX
  5
228
330
220
100
AcDbEntity
  8
001
 62
     3
370
    50
100
AcDbVertex
100
AcDb2dVertex
 10
50.887333
 20
112.82922
 30
0.0
  0
VERTEX
  5
229
330
220
100
AcDbEntity
  8
001
 62
     3
370
    50
100
AcDbVertex
100
AcDb2dVertex
 10
50.810323
 20
112.795739
 30
0.0
  0
VERTEX
  5
22A
330
220
100
AcDbEntity
  8
001
 62
     3
370
    50
100
AcDbVertex
100
AcDb2dVertex
 10
50.756801
 20
112.769473
 30
0.0
  0
SEQEND
  5
221
330
220
100
AcDbEntity
  8
001
370
    50
  0
LINE
  5
22B
330
1F
100
AcDbEntity
  8
001
 62
     3
370
    50
100
AcDbLine
 10
46.743576
 20
106.301596
 30
0.0
 11
46.292569
 21
106.467257
 31
0.0
  0
POLYLINE
  5
22C
330
1F
100
AcDbEntity
  8
001
 62
     3
370
    50
100
AcDb2dPolyline
 66
     1
 10
0.0
 20
0.0
 30
0.0
  0
VERTEX
  5
22E
330
22C
100
AcDbEntity
  8
001
 62
     3
370
    50
100
AcDbVertex
100
AcDb2dVertex
 10
46.06043
 20
106.685071
 30
0.0
  0
VERTEX
  5
22F
330
22C
100
AcDbEntity
  8
001
 62
     3
370
    50
100
AcDbVertex
100
AcDb2dVertex
 10
46.06651
 20
106.658856
 30
0.0
  0
VERTEX
  5
230
330
22C
100
AcDbEntity
  8
001
 62
     3
370
    50
100
AcDbVertex
100
AcDb2dVertex
 10
46.079494
 20
106.624058
 30
0.0
  0
VERTEX
  5
231
330
22C
100
AcDbEntity
  8
001
 62
     3
370
    50
100
AcDbVertex
100
AcDb2dVertex
 10
46.099096
 20
106.592493
 30
0.0
  0
VERTEX
  5
232
330
22C
100
AcDbEntity
  8
001
 62
     3
370
    50
100
AcDbVertex
100
AcDb2dVertex
 10
46.122136
 20
106.567606
 30
0.0
  0
VERTEX
  5
233
330
22C
100
AcDbEntity
  8
001
 62
     3
370
    50
100
AcDbVertex
100
AcDb2dVertex
 10
46.151759
 20
106.541694
 30
0.0
  0
VERTEX
  5
234
330
22C
100
AcDbEntity
  8
001
 62
     3
370
    50
100
AcDbVertex
100
AcDb2dVertex
 10
46.18706
 20
106.517428
 30
0.0
  0
VERTEX
  5
235
330
22C
100
AcDbEntity
  8
001
 62
     3
370
    50
100
AcDbVertex
100
AcDb2dVertex
 10
46.246964
 20
106.486445
 30
0.0
  0
VERTEX
  5
236
330
22C
100
AcDbEntity
  8
001
 62
     3
370
    50
100
AcDbVertex
100
AcDb2dVertex
 10
46.292569
 20
106.467257
 30
0.0
  0
SEQEND
  5
22D
330
22C
100
AcDbEntity
  8
001
370
    50
  0
LINE
  5
237
330
1F
100
AcDbEntity
  8
001
 62
     3
370
    50
100
AcDbLine
 10
46.059412
 20
106.703337
 30
0.0
 11
46.059412
 21
107.066529
 31
0.0
  0
POLYLINE
  5
238
330
1F
100
AcDbEntity
  8
001
 62
     3
370
    50
100
AcDb2dPolyline
 66
     1
 10
0.0
 20
0.0
 30
0.0
  0
VERTEX
  5
23A
330
238
100
AcDbEntity
  8
001
 62
     3
370
    50
100
AcDbVertex
100
AcDb2dVertex
 10
46.292569
 20
107.344081
 30
0.0
  0
VERTEX
  5
23B
330
238
100
AcDbEntity
  8
001
 62
     3
370
    50
100
AcDbVertex
100
AcDb2dVertex
 10
46.227573
 20
107.303576
 30
0.0
  0
VERTEX
  5
23C
330
238
100
AcDbEntity
  8
001
 62
     3
370
    50
100
AcDbVertex
100
AcDb2dVertex
 10
46.146827
 20
107.239771
 30
0.0
  0
VERTEX
  5
23D
330
238
100
AcDbEntity
  8
001
 62
     3
370
    50
100
AcDbVertex
100
AcDb2dVertex
 10
46.117945
 20
107.208436
 30
0.0
  0
VERTEX
  5
23E
330
238
100
AcDbEntity
  8
001
 62
     3
370
    50
100
AcDbVertex
100
AcDb2dVertex
 10
46.094615
 20
107.176471
 30
0.0
  0
VERTEX
  5
23F
330
238
100
AcDbEntity
  8
001
 62
     3
370
    50
100
AcDbVertex
100
AcDb2dVertex
 10
46.077784
 20
107.147256
 30
0.0
  0
VERTEX
  5
240
330
238
100
AcDbEntity
  8
001
 62
     3
370
    50
100
AcDbVertex
100
AcDb2dVertex
 10
46.065522
 20
107.111982
 30
0.0
  0
VERTEX
  5
241
330
238
100
AcDbEntity
  8
001
 62
     3
370
    50
100
AcDbVertex
100
AcDb2dVertex
 10
46.060967
 20
107.085629
 30
0.0
  0
VERTEX
  5
242
330
238
100
AcDbEntity
  8
001
 62
     3
370
    50
100
AcDbVertex
100
AcDb2dVertex
 10
46.059412
 20
107.066529
 30
0.0
  0
SEQEND
  5
239
330
238
100
AcDbEntity
  8
001
370
    50
  0
LINE
  5
243
330
1F
100
AcDbEntity
  8
001
 62
     3
370
    50
100
AcDbLine
 10
46.292569
 20
107.344081
 30
0.0
 11
51.072638
 21
109.950082
 31
0.0
  0
LINE
  5
244
330
1F
100
AcDbEntity
  8
001
 62
     3
370
    50
100
AcDbLine
 10
51.635526
 20
110.106518
 30
0.0
 11
52.43157
 21
110.177314
 31
0.0
  0
POLYLINE
  5
245
330
1F
100
AcDbEntity
  8
001
 62
     3
370
    50
100
AcDb2dPolyline
 66
     1
 10
0.0
 20
0.0
 30
0.0
  0
VERTEX
  5
247
330
245
100
AcDbEntity
  8
001
 62
     3
370
    50
100
AcDbVertex
100
AcDb2dVertex
 10
52.9589
 20
110.133093
 30
0.0
  0
VERTEX
  5
248
330
245
100
AcDbEntity
  8
001
 62
     3
370
    50
100
AcDbVertex
100
AcDb2dVertex
 10
52.889808
 20
110.150468
 30
0.0
  0
VERTEX
  5
249
330
245
100
AcDbEntity
  8
001
 62
     3
370
    50
100
AcDbVertex
100
AcDb2dVertex
 10
52.794241
 20
110.169685
 30
0.0
  0
VERTEX
  5
24A
330
245
100
AcDbEntity
  8
001
 62
     3
370
    50
100
AcDbVertex
100
AcDb2dVertex
 10
52.664149
 20
110.18472
 30
0.0
  0
VERTEX
  5
24B
330
245
100
AcDbEntity
  8
001
 62
     3
370
    50
100
AcDbVertex
100
AcDb2dVertex
 10
52.530004
 20
110.183281
 30
0.0
  0
VERTEX
  5
24C
330
245
100
AcDbEntity
  8
001
 62
     3
370
    50
100
AcDbVertex
100
AcDb2dVertex
 10
52.472552
 20
110.180161
 30
0.0
  0
VERTEX
  5
24D
330
245
100
AcDbEntity
  8
001
 62
     3
370
    50
100
AcDbVertex
100
AcDb2dVertex
 10
52.43157
 20
110.177314
 30
0.0
  0
SEQEND
  5
246
330
245
100
AcDbEntity
  8
001
370
    50
  0
POLYLINE
  5
24E
330
1F
100
AcDbEntity
  8
001
 62
     3
370
    50
100
AcDb2dPolyline
 66
     1
 10
0.0
 20
0.0
 30
0.0
  0
VERTEX
  5
250
330
24E
100
AcDbEntity
  8
001
 62
     3
370
    50
100
AcDbVertex
100
AcDb2dVertex
 10
52.994459
 20
110.120998
 30
0.0
  0
VERTEX
  5
251
330
24E
100
AcDbEntity
  8
001
 62
     3
370
    50
100
AcDbVertex
100
AcDb2dVertex
 10
52.987356
 20
110.12356
 30
0.0
  0
VERTEX
  5
252
330
24E
100
AcDbEntity
  8
001
 62
     3
370
    50
100
AcDbVertex
100
AcDb2dVertex
 10
52.976936
 20
110.127192
 30
0.0
  0
VERTEX
  5
253
330
24E
100
AcDbEntity
  8
001
 62
     3
370
    50
100
AcDbVertex
100
AcDb2dVertex
 10
52.966243
 20
110.130742
 30
0.0
  0
VERTEX
  5
254
330
24E
100
AcDbEntity
  8
001
 62
     3
370
    50
100
AcDbVertex
100
AcDb2dVertex
 10
52.9589
 20
110.133093
 30
0.0
  0
SEQEND
  5
24F
330
24E
100
AcDbEntity
  8
001
370
    50
  0
LINE
  5
255
330
1F
100
AcDbEntity
  8
001
 62
     3
370
    50
100
AcDbLine
 10
52.994459
 20
110.120998
 30
0.0
 11
57.774528
 21
108.36522
 31
0.0
  0
LINE
  5
256
330
1F
100
AcDbEntity
  8
001
 62
     3
370
    50
100
AcDbLine
 10
51.319689
 20
112.92591
 30
0.0
 11
52.115734
 21
112.996705
 31
0.0
  0
POLYLINE
  5
257
330
1F
100
AcDbEntity
  8
001
 62
     3
370
    50
100
AcDb2dPolyline
 66
     1
 10
0.0
 20
0.0
 30
0.0
  0
VERTEX
  5
259
330
257
100
AcDbEntity
  8
001
 62
     3
370
    50
100
AcDbVertex
100
AcDb2dVertex
 10
52.678622
 20
112.940389
 30
0.0
  0
VERTEX
  5
25A
330
257
100
AcDbEntity
  8
001
 62
     3
370
    50
100
AcDbVertex
100
AcDb2dVertex
 10
52.594436
 20
112.964105
 30
0.0
  0
VERTEX
  5
25B
330
257
100
AcDbEntity
  8
001
 62
     3
370
    50
100
AcDbVertex
100
AcDb2dVertex
 10
52.478404
 20
112.989077
 30
0.0
  0
VERTEX
  5
25C
330
257
100
AcDbEntity
  8
001
 62
     3
370
    50
100
AcDbVertex
100
AcDb2dVertex
 10
52.34896
 20
113.004226
 30
0.0
  0
VERTEX
  5
25D
330
257
100
AcDbEntity
  8
001
 62
     3
370
    50
100
AcDbVertex
100
AcDb2dVertex
 10
52.214167
 20
113.002672
 30
0.0
  0
VERTEX
  5
25E
330
257
100
AcDbEntity
  8
001
 62
     3
370
    50
100
AcDbVertex
100
AcDb2dVertex
 10
52.156687
 20
112.999547
 30
0.0
  0
VERTEX
  5
25F
330
257
100
AcDbEntity
  8
001
 62
     3
370
    50
100
AcDbVertex
100
AcDb2dVertex
 10
52.115734
 20
112.996705
 30
0.0
  0
SEQEND
  5
258
330
257
100
AcDbEntity
  8
001
370
    50
  0
LINE
  5
260
330
1F
100
AcDbEntity
  8
001
 62
     3
370
    50
100
AcDbLine
 10
45.976732
 20
110.163472
 30
0.0
 11
50.756801
 21
112.769473
 31
0.0
  0
LINE
  5
261
330
1F
100
AcDbEntity
  8
001
 62
     3
370
    50
100
AcDbLine
 10
52.678622
 20
112.940389
 30
0.0
 11
57.458691
 21
111.184612
 31
0.0
  0
POLYLINE
  5
262
330
1F
100
AcDbEntity
  8
001
 62
     3
370
    50
100
AcDb2dPolyline
 66
     1
 10
0.0
 20
0.0
 30
0.0
  0
VERTEX
  5
264
330
262
100
AcDbEntity
  8
001
 62
     3
370
    50
100
AcDbVertex
100
AcDb2dVertex
 10
45.976732
 20
110.163472
 30
0.0
  0
VERTEX
  5
265
330
262
100
AcDbEntity
  8
001
 62
     3
370
    50
100
AcDbVertex
100
AcDb2dVertex
 10
45.911736
 20
110.122967
 30
0.0
  0
VERTEX
  5
266
330
262
100
AcDbEntity
  8
001
 62
     3
370
    50
100
AcDbVertex
100
AcDb2dVertex
 10
45.83099
 20
110.059162
 30
0.0
  0
VERTEX
  5
267
330
262
100
AcDbEntity
  8
001
 62
     3
370
    50
100
AcDbVertex
100
AcDb2dVertex
 10
45.802109
 20
110.027827
 30
0.0
  0
VERTEX
  5
268
330
262
100
AcDbEntity
  8
001
 62
     3
370
    50
100
AcDbVertex
100
AcDb2dVertex
 10
45.778779
 20
109.995862
 30
0.0
  0
VERTEX
  5
269
330
262
100
AcDbEntity
  8
001
 62
     3
370
    50
100
AcDbVertex
100
AcDb2dVertex
 10
45.761947
 20
109.966647
 30
0.0
  0
VERTEX
  5
26A
330
262
100
AcDbEntity
  8
001
 62
     3
370
    50
100
AcDbVertex
100
AcDb2dVertex
 10
45.749685
 20
109.931373
 30
0.0
  0
VERTEX
  5
26B
330
262
100
AcDbEntity
  8
001
 62
     3
370
    50
100
AcDbVertex
100
AcDb2dVertex
 10
45.745131
 20
109.90502
 30
0.0
  0
VERTEX
  5
26C
330
262
100
AcDbEntity
  8
001
 62
     3
370
    50
100
AcDbVertex
100
AcDb2dVertex
 10
45.743576
 20
109.88592
 30
0.0
  0
SEQEND
  5
263
330
262
100
AcDbEntity
  8
001
370
    50
  0
LINE
  5
26D
330
1F
100
AcDbEntity
  8
001
 62
     3
370
    50
100
AcDbLine
 10
45.743576
 20
109.486469
 30
0.0
 11
45.743576
 21
109.92218
 31
0.0
  0
LINE
  5
26E
330
1F
100
AcDbEntity
  8
001
 62
     3
370
    50
100
AcDbLine
 10
57.991181
 20
108.285641
 30
0.0
 11
57.69083
 21
110.966797
 31
0.0
  0
POLYLINE
  5
26F
330
1F
100
AcDbEntity
  8
001
 62
     3
370
    50
100
AcDb2dPolyline
 66
     1
 10
0.0
 20
0.0
 30
0.0
  0
VERTEX
  5
271
330
26F
100
AcDbEntity
  8
001
 62
     3
370
    50
100
AcDbVertex
100
AcDb2dVertex
 10
57.69083
 20
110.966797
 30
0.0
  0
VERTEX
  5
272
330
26F
100
AcDbEntity
  8
001
 62
     3
370
    50
100
AcDbVertex
100
AcDb2dVertex
 10
57.684749
 20
110.993012
 30
0.0
  0
VERTEX
  5
273
330
26F
100
AcDbEntity
  8
001
 62
     3
370
    50
100
AcDbVertex
100
AcDb2dVertex
 10
57.671765
 20
111.02781
 30
0.0
  0
VERTEX
  5
274
330
26F
100
AcDbEntity
  8
001
 62
     3
370
    50
100
AcDbVertex
100
AcDb2dVertex
 10
57.652164
 20
111.059375
 30
0.0
  0
VERTEX
  5
275
330
26F
100
AcDbEntity
  8
001
 62
     3
370
    50
100
AcDbVertex
100
AcDb2dVertex
 10
57.629123
 20
111.084263
 30
0.0
  0
VERTEX
  5
276
330
26F
100
AcDbEntity
  8
001
 62
     3
370
    50
100
AcDbVertex
100
AcDb2dVertex
 10
57.599501
 20
111.110174
 30
0.0
  0
VERTEX
  5
277
330
26F
100
AcDbEntity
  8
001
 62
     3
370
    50
100
AcDbVertex
100
AcDb2dVertex
 10
57.5642
 20
111.13444
 30
0.0
  0
VERTEX
  5
278
330
26F
100
AcDbEntity
  8
001
 62
     3
370
    50
100
AcDbVertex
100
AcDb2dVertex
 10
57.504296
 20
111.165423
 30
0.0
  0
VERTEX
  5
279
330
26F
100
AcDbEntity
  8
001
 62
     3
370
    50
100
AcDbVertex
100
AcDb2dVertex
 10
57.458691
 20
111.184612
 30
0.0
  0
SEQEND
  5
270
330
26F
100
AcDbEntity
  8
001
370
    50
  0
POLYLINE
  5
27A
330
1F
100
AcDbEntity
  8
001
 62
     3
370
    50
100
AcDb2dPolyline
 66
     1
 10
0.0
 20
0.0
 30
0.0
  0
VERTEX
  5
27C
330
27A
100
AcDbEntity
  8
001
 62
     3
370
    50
100
AcDbVertex
100
AcDb2dVertex
 10
46.059412
 20
106.703337
 30
0.0
  0
VERTEX
  5
27D
330
27A
100
AcDbEntity
  8
001
 62
     3
370
    50
100
AcDbVertex
100
AcDb2dVertex
 10
46.05946
 20
106.699614
 30
0.0
  0
VERTEX
  5
27E
330
27A
100
AcDbEntity
  8
001
 62
     3
370
    50
100
AcDbVertex
100
AcDb2dVertex
 10
46.059667
 20
106.694178
 30
0.0
  0
VERTEX
  5
27F
330
27A
100
AcDbEntity
  8
001
 62
     3
370
    50
100
AcDbVertex
100
AcDb2dVertex
 10
46.060064
 20
106.688767
 30
0.0
  0
VERTEX
  5
280
330
27A
100
AcDbEntity
  8
001
 62
     3
370
    50
100
AcDbVertex
100
AcDb2dVertex
 10
46.06043
 20
106.685071
 30
0.0
  0
SEQEND
  5
27B
330
27A
100
AcDbEntity
  8
001
370
    50
  0
POLYLINE
  5
281
330
1F
100
AcDbEntity
  8
001
 62
     3
370
    50
100
AcDb2dPolyline
 66
     1
 10
0.0
 20
0.0
 30
0.0
  0
VERTEX
  5
283
330
281
100
AcDbEntity
  8
001
 62
     3
370
    50
100
AcDbVertex
100
AcDb2dVertex
 10
45.743576
 20
109.522728
 30
0.0
  0
VERTEX
  5
284
330
281
100
AcDbEntity
  8
001
 62
     3
370
    50
100
AcDbVertex
100
AcDb2dVertex
 10
45.743623
 20
109.519005
 30
0.0
  0
VERTEX
  5
285
330
281
100
AcDbEntity
  8
001
 62
     3
370
    50
100
AcDbVertex
100
AcDb2dVertex
 10
45.74383
 20
109.51357
 30
0.0
  0
VERTEX
  5
286
330
281
100
AcDbEntity
  8
001
 62
     3
370
    50
100
AcDbVertex
100
AcDb2dVertex
 10
45.744227
 20
109.508158
 30
0.0
  0
VERTEX
  5
287
330
281
100
AcDbEntity
  8
001
 62
     3
370
    50
100
AcDbVertex
100
AcDb2dVertex
 10
45.744593
 20
109.504462
 30
0.0
  0
SEQEND
  5
282
330
281
100
AcDbEntity
  8
001
370
    50
  0
LINE
  5
288
330
1F
100
AcDbEntity
  8
001
 62
     3
370
    50
100
AcDbLine
 10
45.744593
 20
109.504462
 30
0.0
 11
46.06043
 21
106.685071
 31
0.0
  0
LINE
  5
289
330
1F
100
AcDbEntity
  8
001
 62
     3
370
    50
100
AcDbLine
 10
64.243576
 20
93.408213
 30
0.0
 11
56.116799
 21
99.356963
 31
0.0
  0
POLYLINE
  5
28A
330
1F
100
AcDbEntity
  8
001
 62
     3
370
    50
100
AcDb2dPolyline
 66
     1
 10
0.0
 20
0.0
 30
0.0
  0
VERTEX
  5
28C
330
28A
100
AcDbEntity
  8
001
 62
     3
370
    50
100
AcDbVertex
100
AcDb2dVertex
 10
52.961011
 20
110.133283
 30
0.0
  0
VERTEX
  5
28D
330
28A
100
AcDbEntity
  8
001
 62
     3
370
    50
100
AcDbVertex
100
AcDb2dVertex
 10
53.348751
 20
107.97643
 30
0.0
  0
VERTEX
  5
28E
330
28A
100
AcDbEntity
  8
001
 62
     3
370
    50
100
AcDbVertex
100
AcDb2dVertex
 10
54.110642
 20
104.870742
 30
0.0
  0
VERTEX
  5
28F
330
28A
100
AcDbEntity
  8
001
 62
     3
370
    50
100
AcDbVertex
100
AcDb2dVertex
 10
55.222563
 20
101.570476
 30
0.0
  0
VERTEX
  5
290
330
28A
100
AcDbEntity
  8
001
 62
     3
370
    50
100
AcDbVertex
100
AcDb2dVertex
 10
56.116799
 20
99.356963
 30
0.0
  0
SEQEND
  5
28B
330
28A
100
AcDbEntity
  8
001
370
    50
  0
LINE
  5
291
330
1F
100
AcDbEntity
  8
001
 62
     3
370
    50
100
AcDbLine
 10
52.994459
 20
110.120998
 30
0.0
 11
52.961011
 21
110.133283
 31
0.0
  0
LINE
  5
292
330
1F
100
AcDbEntity
  8
001
 62
     3
370
    50
100
AcDbLine
 10
58.735439
 20
108.012266
 30
0.0
 11
57.774528
 21
108.36522
 31
0.0
  0
LINE
  5
293
330
1F
100
AcDbEntity
  8
001
 62
     3
370
    50
100
AcDbLine
 10
58.449686
 20
110.5631
 30
0.0
 11
58.735439
 21
108.012266
 31
0.0
  0
LINE
  5
294
330
1F
100
AcDbEntity
  8
001
 62
     3
370
    50
100
AcDbLine
 10
58.449686
 20
110.5631
 30
0.0
 11
64.243576
 21
107.269765
 31
0.0
  0
LINE
  5
295
330
1F
100
AcDbEntity
  8
001
 62
     3
370
    50
100
AcDbLine
 10
50.422724
 20
99.356963
 30
0.0
 11
46.743576
 21
96.473125
 31
0.0
  0
LINE
  5
296
330
1F
100
AcDbEntity
  8
001
 62
     3
370
    50
100
AcDbLine
 10
51.383121
 20
109.990944
 30
0.0
 11
46.743576
 21
107.461553
 31
0.0
  0
POLYLINE
  5
297
330
1F
100
AcDbEntity
  8
001
 62
     3
370
    50
100
AcDb2dPolyline
 66
     1
 10
0.0
 20
0.0
 30
0.0
  0
VERTEX
  5
299
330
297
100
AcDbEntity
  8
001
 62
     3
370
    50
100
AcDbVertex
100
AcDb2dVertex
 10
50.422724
 20
99.356963
 30
0.0
  0
VERTEX
  5
29A
330
297
100
AcDbEntity
  8
001
 62
     3
370
    50
100
AcDbVertex
100
AcDb2dVertex
 10
50.71186
 20
100.677816
 30
0.0
  0
VERTEX
  5
29B
330
297
100
AcDbEntity
  8
001
 62
     3
370
    50
100
AcDbVertex
100
AcDb2dVertex
 10
51.032129
 20
102.513583
 30
0.0
  0
VERTEX
  5
29C
330
297
100
AcDbEntity
  8
001
 62
     3
370
    50
100
AcDbVertex
100
AcDb2dVertex
 10
51.305219
 20
104.73394
 30
0.0
  0
VERTEX
  5
29D
330
297
100
AcDbEntity
  8
001
 62
     3
370
    50
100
AcDbVertex
100
AcDb2dVertex
 10
51.452819
 20
107.20856
 30
0.0
  0
VERTEX
  5
29E
330
297
100
AcDbEntity
  8
001
 62
     3
370
    50
100
AcDbVertex
100
AcDb2dVertex
 10
51.396615
 20
109.807119
 30
0.0
  0
VERTEX
  5
29F
330
297
100
AcDbEntity
  8
001
 62
     3
370
    50
100
AcDbVertex
100
AcDb2dVertex
 10
51.388727
 20
109.91627
 30
0.0
  0
VERTEX
  5
2A0
330
297
100
AcDbEntity
  8
001
 62
     3
370
    50
100
AcDbVertex
100
AcDb2dVertex
 10
51.383121
 20
109.990944
 30
0.0
  0
SEQEND
  5
298
330
297
100
AcDbEntity
  8
001
370
    50
  0
LINE
  5
2A1
330
1F
100
AcDbEntity
  8
001
 62
     3
370
    50
100
AcDbLine
 10
64.243576
 20
87.3683
 30
0.0
 11
49.243576
 21
87.3683
 31
0.0
  0
LINE
  5
2A2
330
1F
100
AcDbEntity
  8
001
 62
     3
370
    50
100
AcDbLine
 10
46.743576
 20
92.586395
 30
0.0
 11
49.243576
 21
90.715573
 31
0.0
  0
LINE
  5
2A3
330
1F
100
AcDbEntity
  8
001
 62
     3
370
    50
100
AcDbLine
 10
46.743576
 20
107.461553
 30
0.0
 11
46.743576
 21
92.586395
 31
0.0
  0
LINE
  5
2A4
330
1F
100
AcDbEntity
  8
001
 62
     3
370
    50
100
AcDbLine
 10
56.116799
 20
99.356963
 30
0.0
 11
50.422724
 21
99.356963
 31
0.0
  0
POLYLINE
  5
2A5
330
1F
100
AcDbEntity
  8
001
 62
     3
370
    50
100
AcDb2dPolyline
 66
     1
 10
0.0
 20
0.0
 30
0.0
  0
VERTEX
  5
2A7
330
2A5
100
AcDbEntity
  8
001
 62
     3
370
    50
100
AcDbVertex
100
AcDb2dVertex
 10
52.322254
 20
98.688742
 30
0.0
  0
VERTEX
  5
2A8
330
2A5
100
AcDbEntity
  8
001
 62
     3
370
    50
100
AcDbVertex
100
AcDb2dVertex
 10
52.133382
 20
98.639373
 30
0.0
  0
VERTEX
  5
2A9
330
2A5
100
AcDbEntity
  8
001
 62
     3
370
    50
100
AcDbVertex
100
AcDb2dVertex
 10
51.868842
 20
98.556898
 30
0.0
  0
VERTEX
  5
2AA
330
2A5
100
AcDbEntity
  8
001
 62
     3
370
    50
100
AcDbVertex
100
AcDb2dVertex
 10
51.206317
 20
98.236109
 30
0.0
  0
VERTEX
  5
2AB
330
2A5
100
AcDbEntity
  8
001
 62
     3
370
    50
100
AcDbVertex
100
AcDb2dVertex
 10
50.715625
 20
97.790609
 30
0.0
  0
VERTEX
  5
2AC
330
2A5
100
AcDbEntity
  8
001
 62
     3
370
    50
100
AcDbVertex
100
AcDb2dVertex
 10
50.586409
 20
97.624943
 30
0.0
  0
VERTEX
  5
2AD
330
2A5
100
AcDbEntity
  8
001
 62
     3
370
    50
100
AcDbVertex
100
AcDb2dVertex
 10
50.471967
 20
97.444561
 30
0.0
  0
VERTEX
  5
2AE
330
2A5
100
AcDbEntity
  8
001
 62
     3
370
    50
100
AcDbVertex
100
AcDb2dVertex
 10
50.382059
 20
97.258729
 30
0.0
  0
VERTEX
  5
2AF
330
2A5
100
AcDbEntity
  8
001
 62
     3
370
    50
100
AcDbVertex
100
AcDb2dVertex
 10
50.312927
 20
97.069686
 30
0.0
  0
VERTEX
  5
2B0
330
2A5
100
AcDbEntity
  8
001
 62
     3
370
    50
100
AcDbVertex
100
AcDb2dVertex
 10
50.265914
 20
96.885096
 30
0.0
  0
VERTEX
  5
2B1
330
2A5
100
AcDbEntity
  8
001
 62
     3
370
    50
100
AcDbVertex
100
AcDb2dVertex
 10
50.243338
 20
96.677372
 30
0.0
  0
VERTEX
  5
2B2
330
2A5
100
AcDbEntity
  8
001
 62
     3
370
    50
100
AcDbVertex
100
AcDb2dVertex
 10
50.243501
 20
96.504603
 30
0.0
  0
VERTEX
  5
2B3
330
2A5
100
AcDbEntity
  8
001
 62
     3
370
    50
100
AcDbVertex
100
AcDb2dVertex
 10
50.251048
 20
96.380428
 30
0.0
  0
SEQEND
  5
2A6
330
2A5
100
AcDbEntity
  8
001
370
    50
  0
POLYLINE
  5
2B4
330
1F
100
AcDbEntity
  8
001
 62
     3
370
    50
100
AcDb2dPolyline
 66
     1
 10
0.0
 20
0.0
 30
0.0
  0
VERTEX
  5
2B6
330
2B4
100
AcDbEntity
  8
001
 62
     3
370
    50
100
AcDbVertex
100
AcDb2dVertex
 10
52.9589
 20
110.133093
 30
0.0
  0
VERTEX
  5
2B7
330
2B4
100
AcDbEntity
  8
001
 62
     3
370
    50
100
AcDbVertex
100
AcDb2dVertex
 10
52.63881
 20
110.104242
 30
0.0
  0
VERTEX
  5
2B8
330
2B4
100
AcDbEntity
  8
001
 62
     3
370
    50
100
AcDbVertex
100
AcDb2dVertex
 10
52.170987
 20
110.062055
 30
0.0
  0
VERTEX
  5
2B9
330
2B4
100
AcDbEntity
  8
001
 62
     3
370
    50
100
AcDbVertex
100
AcDb2dVertex
 10
51.703191
 20
110.019841
 30
0.0
  0
VERTEX
  5
2BA
330
2B4
100
AcDbEntity
  8
001
 62
     3
370
    50
100
AcDbVertex
100
AcDb2dVertex
 10
51.383121
 20
109.990944
 30
0.0
  0
SEQEND
  5
2B5
330
2B4
100
AcDbEntity
  8
001
370
    50
  0
POLYLINE
  5
2BB
330
1F
100
AcDbEntity
  8
001
 62
     3
370
    50
100
AcDb2dPolyline
 66
     1
 10
0.0
 20
0.0
 30
0.0
  0
VERTEX
  5
2BD
330
2BB
100
AcDbEntity
  8
001
 62
     3
370
    50
100
AcDbVertex
100
AcDb2dVertex
 10
52.961011
 20
110.133283
 30
0.0
  0
VERTEX
  5
2BE
330
2BB
100
AcDbEntity
  8
001
 62
     3
370
    50
100
AcDbVertex
100
AcDb2dVertex
 10
52.960583
 20
110.133245
 30
0.0
  0
VERTEX
  5
2BF
330
2BB
100
AcDbEntity
  8
001
 62
     3
370
    50
100
AcDbVertex
100
AcDb2dVertex
 10
52.959956
 20
110.133188
 30
0.0
  0
VERTEX
  5
2C0
330
2BB
100
AcDbEntity
  8
001
 62
     3
370
    50
100
AcDbVertex
100
AcDb2dVertex
 10
52.959329
 20
110.133132
 30
0.0
  0
VERTEX
  5
2C1
330
2BB
100
AcDbEntity
  8
001
 62
     3
370
    50
100
AcDbVertex
100
AcDb2dVertex
 10
52.9589
 20
110.133093
 30
0.0
  0
SEQEND
  5
2BC
330
2BB
100
AcDbEntity
  8
001
370
    50
  0
POLYLINE
  5
2C2
330
1F
100
AcDbEntity
  8
001
 62
     3
370
    50
100
AcDb2dPolyline
 66
     1
 10
0.0
 20
0.0
 30
0.0
  0
VERTEX
  5
2C4
330
2C2
100
AcDbEntity
  8
001
 62
     3
370
    50
100
AcDbVertex
100
AcDb2dVertex
 10
56.262734
 20
96.611135
 30
0.0
  0
VERTEX
  5
2C5
330
2C2
100
AcDbEntity
  8
001
 62
     3
370
    50
100
AcDbVertex
100
AcDb2dVertex
 10
56.257332
 20
96.652743
 30
0.0
  0
VERTEX
  5
2C6
330
2C2
100
AcDbEntity
  8
001
 62
     3
370
    50
100
AcDbVertex
100
AcDb2dVertex
 10
56.248467
 20
96.712022
 30
0.0
  0
VERTEX
  5
2C7
330
2C2
100
AcDbEntity
  8
001
 62
     3
370
    50
100
AcDbVertex
100
AcDb2dVertex
 10
56.201274
 20
96.923988
 30
0.0
  0
VERTEX
  5
2C8
330
2C2
100
AcDbEntity
  8
001
 62
     3
370
    50
100
AcDbVertex
100
AcDb2dVertex
 10
56.135594
 20
97.103283
 30
0.0
  0
VERTEX
  5
2C9
330
2C2
100
AcDbEntity
  8
001
 62
     3
370
    50
100
AcDbVertex
100
AcDb2dVertex
 10
56.04547
 20
97.290541
 30
0.0
  0
VERTEX
  5
2CA
330
2C2
100
AcDbEntity
  8
001
 62
     3
370
    50
100
AcDbVertex
100
AcDb2dVertex
 10
55.935252
 20
97.476085
 30
0.0
  0
VERTEX
  5
2CB
330
2C2
100
AcDbEntity
  8
001
 62
     3
370
    50
100
AcDbVertex
100
AcDb2dVertex
 10
55.466368
 20
97.994433
 30
0.0
  0
VERTEX
  5
2CC
330
2C2
100
AcDbEntity
  8
001
 62
     3
370
    50
100
AcDbVertex
100
AcDb2dVertex
 10
54.882395
 20
98.375307
 30
0.0
  0
VERTEX
  5
2CD
330
2C2
100
AcDbEntity
  8
001
 62
     3
370
    50
100
AcDbVertex
100
AcDb2dVertex
 10
54.411445
 20
98.574216
 30
0.0
  0
VERTEX
  5
2CE
330
2C2
100
AcDbEntity
  8
001
 62
     3
370
    50
100
AcDbVertex
100
AcDb2dVertex
 10
53.915201
 20
98.704815
 30
0.0
  0
VERTEX
  5
2CF
330
2C2
100
AcDbEntity
  8
001
 62
     3
370
    50
100
AcDbVertex
100
AcDb2dVertex
 10
53.652567
 20
98.745816
 30
0.0
  0
VERTEX
  5
2D0
330
2C2
100
AcDbEntity
  8
001
 62
     3
370
    50
100
AcDbVertex
100
AcDb2dVertex
 10
53.393986
 20
98.770912
 30
0.0
  0
VERTEX
  5
2D1
330
2C2
100
AcDbEntity
  8
001
 62
     3
370
    50
100
AcDbVertex
100
AcDb2dVertex
 10
53.141983
 20
98.78045
 30
0.0
  0
VERTEX
  5
2D2
330
2C2
100
AcDbEntity
  8
001
 62
     3
370
    50
100
AcDbVertex
100
AcDb2dVertex
 10
52.868605
 20
98.767881
 30
0.0
  0
VERTEX
  5
2D3
330
2C2
100
AcDbEntity
  8
001
 62
     3
370
    50
100
AcDbVertex
100
AcDb2dVertex
 10
52.551388
 20
98.728812
 30
0.0
  0
VERTEX
  5
2D4
330
2C2
100
AcDbEntity
  8
001
 62
     3
370
    50
100
AcDbVertex
100
AcDb2dVertex
 10
52.322254
 20
98.688742
 30
0.0
  0
SEQEND
  5
2C3
330
2C2
100
AcDbEntity
  8
001
370
    50
  0
POLYLINE
  5
2D5
330
1F
100
AcDbEntity
  8
001
 62
     3
370
    50
100
AcDb2dPolyline
 66
     1
 10
0.0
 20
0.0
 30
0.0
  0
VERTEX
  5
2D7
330
2D5
100
AcDbEntity
  8
001
 62
     3
370
    50
100
AcDbVertex
100
AcDb2dVertex
 10
50.251048
 20
96.380428
 30
0.0
  0
VERTEX
  5
2D8
330
2D5
100
AcDbEntity
  8
001
 62
     3
370
    50
100
AcDbVertex
100
AcDb2dVertex
 10
50.25645
 20
96.338821
 30
0.0
  0
VERTEX
  5
2D9
330
2D5
100
AcDbEntity
  8
001
 62
     3
370
    50
100
AcDbVertex
100
AcDb2dVertex
 10
50.265315
 20
96.279541
 30
0.0
  0
VERTEX
  5
2DA
330
2D5
100
AcDbEntity
  8
001
 62
     3
370
    50
100
AcDbVertex
100
AcDb2dVertex
 10
50.312502
 20
96.067574
 30
0.0
  0
VERTEX
  5
2DB
330
2D5
100
AcDbEntity
  8
001
 62
     3
370
    50
100
AcDbVertex
100
AcDb2dVertex
 10
50.378189
 20
95.88828
 30
0.0
  0
VERTEX
  5
2DC
330
2D5
100
AcDbEntity
  8
001
 62
     3
370
    50
100
AcDbVertex
100
AcDb2dVertex
 10
50.468344
 20
95.70103
 30
0.0
  0
VERTEX
  5
2DD
330
2D5
100
AcDbEntity
  8
001
 62
     3
370
    50
100
AcDbVertex
100
AcDb2dVertex
 10
50.578531
 20
95.515478
 30
0.0
  0
VERTEX
  5
2DE
330
2D5
100
AcDbEntity
  8
001
 62
     3
370
    50
100
AcDbVertex
100
AcDb2dVertex
 10
51.046707
 20
94.996969
 30
0.0
  0
VERTEX
  5
2DF
330
2D5
100
AcDbEntity
  8
001
 62
     3
370
    50
100
AcDbVertex
100
AcDb2dVertex
 10
51.631387
 20
94.616256
 30
0.0
  0
VERTEX
  5
2E0
330
2D5
100
AcDbEntity
  8
001
 62
     3
370
    50
100
AcDbVertex
100
AcDb2dVertex
 10
52.10436
 20
94.417808
 30
0.0
  0
VERTEX
  5
2E1
330
2D5
100
AcDbEntity
  8
001
 62
     3
370
    50
100
AcDbVertex
100
AcDb2dVertex
 10
52.598581
 20
94.286748
 30
0.0
  0
VERTEX
  5
2E2
330
2D5
100
AcDbEntity
  8
001
 62
     3
370
    50
100
AcDbVertex
100
AcDb2dVertex
 10
52.858105
 20
94.245039
 30
0.0
  0
VERTEX
  5
2E3
330
2D5
100
AcDbEntity
  8
001
 62
     3
370
    50
100
AcDbVertex
100
AcDb2dVertex
 10
53.119796
 20
94.220651
 30
0.0
  0
VERTEX
  5
2E4
330
2D5
100
AcDbEntity
  8
001
 62
     3
370
    50
100
AcDbVertex
100
AcDb2dVertex
 10
53.382538
 20
94.213559
 30
0.0
  0
VERTEX
  5
2E5
330
2D5
100
AcDbEntity
  8
001
 62
     3
370
    50
100
AcDbVertex
100
AcDb2dVertex
 10
53.645177
 20
94.223683
 30
0.0
  0
VERTEX
  5
2E6
330
2D5
100
AcDbEntity
  8
001
 62
     3
370
    50
100
AcDbVertex
100
AcDb2dVertex
 10
54.151401
 20
94.293527
 30
0.0
  0
VERTEX
  5
2E7
330
2D5
100
AcDbEntity
  8
001
 62
     3
370
    50
100
AcDbVertex
100
AcDb2dVertex
 10
54.64494
 20
94.434665
 30
0.0
  0
VERTEX
  5
2E8
330
2D5
100
AcDbEntity
  8
001
 62
     3
370
    50
100
AcDbVertex
100
AcDb2dVertex
 10
55.272103
 20
94.748055
 30
0.0
  0
VERTEX
  5
2E9
330
2D5
100
AcDbEntity
  8
001
 62
     3
370
    50
100
AcDbVertex
100
AcDb2dVertex
 10
55.798157
 20
95.200954
 30
0.0
  0
VERTEX
  5
2EA
330
2D5
100
AcDbEntity
  8
001
 62
     3
370
    50
100
AcDbVertex
100
AcDb2dVertex
 10
55.928945
 20
95.366949
 30
0.0
  0
VERTEX
  5
2EB
330
2D5
100
AcDbEntity
  8
001
 62
     3
370
    50
100
AcDbVertex
100
AcDb2dVertex
 10
56.041815
 20
95.547002
 30
0.0
  0
VERTEX
  5
2EC
330
2D5
100
AcDbEntity
  8
001
 62
     3
370
    50
100
AcDbVertex
100
AcDb2dVertex
 10
56.131326
 20
95.732751
 30
0.0
  0
VERTEX
  5
2ED
330
2D5
100
AcDbEntity
  8
001
 62
     3
370
    50
100
AcDbVertex
100
AcDb2dVertex
 10
56.200855
 20
95.921878
 30
0.0
  0
VERTEX
  5
2EE
330
2D5
100
AcDbEntity
  8
001
 62
     3
370
    50
100
AcDbVertex
100
AcDb2dVertex
 10
56.247965
 20
96.106488
 30
0.0
  0
VERTEX
  5
2EF
330
2D5
100
AcDbEntity
  8
001
 62
     3
370
    50
100
AcDbVertex
100
AcDb2dVertex
 10
56.270444
 20
96.314191
 30
0.0
  0
VERTEX
  5
2F0
330
2D5
100
AcDbEntity
  8
001
 62
     3
370
    50
100
AcDbVertex
100
AcDb2dVertex
 10
56.270269
 20
96.486958
 30
0.0
  0
VERTEX
  5
2F1
330
2D5
100
AcDbEntity
  8
001
 62
     3
370
    50
100
AcDbVertex
100
AcDb2dVertex
 10
56.262734
 20
96.611135
 30
0.0
  0
SEQEND
  5
2D6
330
2D5
100
AcDbEntity
  8
001
370
    50
  0
LINE
  5
2F2
330
1F
100
AcDbEntity
  8
001
 62
     3
370
    50
100
AcDbLine
 10
57.779909
 20
110.171609
 30
0.0
 11
58.449686
 21
110.5631
 31
0.0
  0
LINE
  5
2F3
330
1F
100
AcDbEntity
  8
001
 62
     3
370
    50
100
AcDbLine
 10
49.243576
 20
90.715573
 30
0.0
 11
49.243576
 21
86.790937
 31
0.0
  0
LINE
  5
2F4
330
1F
100
AcDbEntity
  8
001
 62
     3
370
    50
100
AcDbLine
 10
64.243576
 20
86.965802
 30
0.0
 11
64.243576
 21
107.269765
 31
0.0
  0
ARC
  5
2F5
330
1F
100
AcDbEntity
  8
001
 62
     3
370
    50
100
AcDbCircle
 10
50.243576
 20
46.704324
 30
0.0
 40
1.0
100
AcDbArc
 50
180.0
 51
229.690072
  0
LINE
  5
2F6
330
1F
100
AcDbEntity
  8
001
 62
     3
370
    50
100
AcDbLine
 10
49.243576
 20
46.704324
 30
0.0
 11
49.243576
 21
86.790937
 31
0.0
  0
POLYLINE
  5
2F7
330
1F
100
AcDbEntity
  8
001
 62
     3
370
    50
100
AcDb2dPolyline
 66
     1
 10
0.0
 20
0.0
 30
0.0
  0
VERTEX
  5
2F9
330
2F7
100
AcDbEntity
  8
001
 62
     3
370
    50
100
AcDbVertex
100
AcDb2dVertex
 10
50.243576
 20
45.704324
 30
0.0
  0
VERTEX
  5
2FA
330
2F7
100
AcDbEntity
  8
001
 62
     3
370
    50
100
AcDbVertex
100
AcDb2dVertex
 10
50.076403
 20
45.723583
 30
0.0
  0
VERTEX
  5
2FB
330
2F7
100
AcDbEntity
  8
001
 62
     3
370
    50
100
AcDbVertex
100
AcDb2dVertex
 10
49.913712
 20
45.760297
 30
0.0
  0
VERTEX
  5
2FC
330
2F7
100
AcDbEntity
  8
001
 62
     3
370
    50
100
AcDbVertex
100
AcDb2dVertex
 10
49.760156
 20
45.827654
 30
0.0
  0
VERTEX
  5
2FD
330
2F7
100
AcDbEntity
  8
001
 62
     3
370
    50
100
AcDbVertex
100
AcDb2dVertex
 10
49.620844
 20
45.921895
 30
0.0
  0
VERTEX
  5
2FE
330
2F7
100
AcDbEntity
  8
001
 62
     3
370
    50
100
AcDbVertex
100
AcDb2dVertex
 10
49.608641
 20
45.931849
 30
0.0
  0
VERTEX
  5
2FF
330
2F7
100
AcDbEntity
  8
001
 62
     3
370
    50
100
AcDbVertex
100
AcDb2dVertex
 10
49.596525
 20
45.941886
 30
0.0
  0
SEQEND
  5
2F8
330
2F7
100
AcDbEntity
  8
001
370
    50
  0
POLYLINE
  5
300
330
1F
100
AcDbEntity
  8
001
 62
     3
370
    50
100
AcDb2dPolyline
 66
     1
 10
0.0
 20
0.0
 30
0.0
  0
VERTEX
  5
302
330
300
100
AcDbEntity
  8
001
 62
     3
370
    50
100
AcDbVertex
100
AcDb2dVertex
 10
49.243576
 20
86.790937
 30
0.0
  0
VERTEX
  5
303
330
300
100
AcDbEntity
  8
001
 62
     3
370
    50
100
AcDbVertex
100
AcDb2dVertex
 10
49.246263
 20
86.800792
 30
0.0
  0
VERTEX
  5
304
330
300
100
AcDbEntity
  8
001
 62
     3
370
    50
100
AcDbVertex
100
AcDb2dVertex
 10
49.249631
 20
86.810154
 30
0.0
  0
VERTEX
  5
305
330
300
100
AcDbEntity
  8
001
 62
     3
370
    50
100
AcDbVertex
100
AcDb2dVertex
 10
49.287389
 20
86.846481
 30
0.0
  0
VERTEX
  5
306
330
300
100
AcDbEntity
  8
001
 62
     3
370
    50
100
AcDbVertex
100
AcDb2dVertex
 10
49.343164
 20
86.867018
 30
0.0
  0
VERTEX
  5
307
330
300
100
AcDbEntity
  8
001
 62
     3
370
    50
100
AcDbVertex
100
AcDb2dVertex
 10
49.443863
 20
86.894527
 30
0.0
  0
VERTEX
  5
308
330
300
100
AcDbEntity
  8
001
 62
     3
370
    50
100
AcDbVertex
100
AcDb2dVertex
 10
49.539814
 20
86.915174
 30
0.0
  0
VERTEX
  5
309
330
300
100
AcDbEntity
  8
001
 62
     3
370
    50
100
AcDbVertex
100
AcDb2dVertex
 10
49.676185
 20
86.93541
 30
0.0
  0
VERTEX
  5
30A
330
300
100
AcDbEntity
  8
001
 62
     3
370
    50
100
AcDbVertex
100
AcDb2dVertex
 10
49.816073
 20
86.94902
 30
0.0
  0
VERTEX
  5
30B
330
300
100
AcDbEntity
  8
001
 62
     3
370
    50
100
AcDbVertex
100
AcDb2dVertex
 10
49.977954
 20
86.959547
 30
0.0
  0
VERTEX
  5
30C
330
300
100
AcDbEntity
  8
001
 62
     3
370
    50
100
AcDbVertex
100
AcDb2dVertex
 10
50.139268
 20
86.964848
 30
0.0
  0
VERTEX
  5
30D
330
300
100
AcDbEntity
  8
001
 62
     3
370
    50
100
AcDbVertex
100
AcDb2dVertex
 10
50.191395
 20
86.965465
 30
0.0
  0
VERTEX
  5
30E
330
300
100
AcDbEntity
  8
001
 62
     3
370
    50
100
AcDbVertex
100
AcDb2dVertex
 10
50.243576
 20
86.965802
 30
0.0
  0
SEQEND
  5
301
330
300
100
AcDbEntity
  8
001
370
    50
  0
LINE
  5
30F
330
1F
100
AcDbEntity
  8
001
 62
     3
370
    50
100
AcDbLine
 10
73.243576
 20
123.704324
 30
0.0
 11
50.243576
 21
123.704324
 31
0.0
  0
LINE
  5
310
330
1F
100
AcDbEntity
  8
001
 62
     3
370
    50
100
AcDbLine
 10
50.243576
 20
45.704324
 30
0.0
 11
73.243576
 21
45.704324
 31
0.0
  0
LINE
  5
311
330
1F
100
AcDbEntity
  8
001
 62
     3
370
    50
100
AcDbLine
 10
50.243576
 20
86.965802
 30
0.0
 11
64.243576
 21
86.965802
 31
0.0
  0
ARC
  5
312
330
1F
100
AcDbEntity
  8
001
 62
     3
370
    50
100
AcDbCircle
 10
73.243576
 20
122.704324
 30
0.0
 40
0.9999999999999929
100
AcDbArc
 50
0.0
 51
90.0
  0
ARC
  5
313
330
1F
100
AcDbEntity
  8
001
 62
     3
370
    50
100
AcDbCircle
 10
73.243576
 20
46.704324
 30
0.0
 40
0.9999999999999929
100
AcDbArc
 50
270.0
 51
0.0
  0
LINE
  5
314
330
1F
100
AcDbEntity
  8
001
 62
     3
370
    50
100
AcDbLine
 10
74.243576
 20
46.704324
 30
0.0
 11
74.243576
 21
122.704324
 31
0.0
  0
ARC
  5
315
330
1F
100
AcDbEntity
  8
001
 62
     3
370
    50
100
AcDbCircle
 10
82.243576
 20
122.704324
 30
0.0
 40
8.000000000000007
100
AcDbArc
 50
180.0
 51
270.0
  0
ARC
  5
316
330
1F
100
AcDbEntity
  8
001
 62
     3
370
    50
100
AcDbCircle
 10
82.243576
 20
46.704324
 30
0.0
 40
8.000000000000007
100
AcDbArc
 50
90.0
 51
180.0
  0
ARC
  5
317
330
1F
100
AcDbEntity
  8
001
 62
     3
370
    50
100
AcDbCircle
 10
50.243576
 20
122.704324
 30
0.0
 40
1.0
100
AcDbArc
 50
90.0
 51
180.0
  0
LINE
  5
318
330
1F
100
AcDbEntity
  8
001
 62
     3
370
    50
100
AcDbLine
 10
49.243576
 20
111.944492
 30
0.0
 11
49.243576
 21
122.704324
 31
0.0
  0
LINE
  5
319
330
1F
100
AcDbEntity
  8
001
 62
     3
370
    50
100
AcDbLine
 10
88.243576
 20
114.704324
 30
0.0
 11
82.243576
 21
114.704324
 31
0.0
  0
LINE
  5
31A
330
1F
100
AcDbEntity
  8
001
 62
     3
370
    50
100
AcDbLine
 10
82.243576
 20
54.704324
 30
0.0
 11
88.243576
 21
54.704324
 31
0.0
  0
ARC
  5
31B
330
1F
100
AcDbEntity
  8
001
 62
     3
370
    50
100
AcDbCircle
 10
88.243576
 20
113.704324
 30
0.0
 40
1.0
100
AcDbArc
 50
0.0
 51
90.0
  0
ARC
  5
31C
330
1F
100
AcDbEntity
  8
001
 62
     3
370
    50
100
AcDbCircle
 10
88.243576
 20
55.704324
 30
0.0
 40
1.0
100
AcDbArc
 50
270.0
 51
0.0
  0
LINE
  5
31D
330
1F
100
AcDbEntity
  8
001
 62
     3
370
    50
100
AcDbLine
 10
89.243576
 20
113.704324
 30
0.0
 11
89.243576
 21
55.704324
 31
0.0
  0
LINE
  5
31E
330
1F
100
AcDbEntity
  8
001
 62
     3
370
    50
100
AcDbLine
 10
169.243576
 20
76.704324
 30
0.0
 11
169.243576
 21
92.704324
 31
0.0
  0
LINE
  5
31F
330
1F
100
AcDbEntity
  8
001
 62
     3
370
    50
100
AcDbLine
 10
161.243576
 20
100.704324
 30
0.0
 11
92.243576
 21
100.704324
 31
0.0
  0
LINE
  5
320
330
1F
100
AcDbEntity
  8
001
 62
     3
370
    50
100
AcDbLine
 10
161.243576
 20
68.704324
 30
0.0
 11
92.243576
 21
68.704324
 31
0.0
  0
LINE
  5
321
330
1F
100
AcDbEntity
  8
001
 62
     3
370
    50
100
AcDbLine
 10
92.243576
 20
100.704324
 30
0.0
 11
92.243576
 21
68.704324
 31
0.0
  0
LINE
  5
322
330
1F
100
AcDbEntity
  8
001
 62
     3
370
    50
100
AcDbLine
 10
92.243576
 20
100.204324
 30
0.0
 11
89.243576
 21
100.204324
 31
0.0
  0
LINE
  5
323
330
1F
100
AcDbEntity
  8
001
 62
     3
370
    50
100
AcDbLine
 10
89.243576
 20
69.204324
 30
0.0
 11
92.243576
 21
69.204324
 31
0.0
  0
LINE
  5
324
330
1F
100
AcDbEntity
  8
001
  6
CENTER
370
     9
100
AcDbLine
 10
36.278825
 20
84.704324
 30
0.0
 11
177.599445
 21
84.704324
 31
0.0
  0
LINE
  5
325
330
1F
100
AcDbEntity
  8
001
 62
     3
370
    50
100
AcDbLine
 10
169.243576
 20
84.704324
 30
0.0
 11
174.911037
 21
87.976434
 31
0.0
  0
LINE
  5
326
330
1F
100
AcDbEntity
  8
001
 62
     3
370
    50
100
AcDbLine
 10
169.243576
 20
84.704324
 30
0.0
 11
174.911037
 21
81.432214
 31
0.0
  0
LINE
  5
327
330
1F
100
AcDbEntity
  8
001
 62
     3
370
    50
100
AcDbLine
 10
49.243576
 20
84.704324
 30
0.0
 11
43.576114
 21
87.976434
 31
0.0
  0
LINE
  5
328
330
1F
100
AcDbEntity
  8
001
 62
     3
370
    50
100
AcDbLine
 10
49.243576
 20
84.704324
 30
0.0
 11
43.576114
 21
81.432214
 31
0.0
  0
TEXT
  5
329
330
1F
100
AcDbEntity
  8
001
370
    30
100
AcDbText
 10
56.338128
 20
139.08151
 30
0.0
 40
8.0
  1
ＮＫＮ３２－１００Ｓ－０３
 41
0.833333
100
AcDbText
  0
ARC
  5
32A
330
1F
100
AcDbEntity
  8
001
 62
     3
370
    50
100
AcDbCircle
 10
161.243576
 20
92.704324
 30
0.0
 40
8.0
100
AcDbArc
 50
0.0
 51
90.0
  0
ARC
  5
32B
330
1F
100
AcDbEntity
  8
001
 62
     3
370
    50
100
AcDbCircle
 10
161.243576
 20
76.704324
 30
0.0
 40
8.0
100
AcDbArc
 50
270.0
 51
0.0
  0
ENDSEC
  0
SECTION
  2
OBJECTS
  0
DICTIONARY
  5
C
330
0
100
AcDbDictionary
281
     1
  3
ACAD_GROUP
350
D
  3
ACAD_LAYOUT
350
1A
  3
ACAD_MLEADERSTYLE
350
32F
  3
ACAD_MLINESTYLE
350
17
  3
ACAD_PLOTSETTINGS
350
19
  3
ACAD_PLOTSTYLENAME
350
E
  3
ACAD_SCALELIST
350
3B
  3
ACAD_TABLESTYLE
350
32E
  3
ACAD_VISUALSTYLE
350
2A
  3
AcDbVariableDictionary
350
32C
  0
DICTIONARY
  5
D
102
{ACAD_REACTORS
330
C
102
}
330
C
100
AcDbDictionary
281
     1
  0
DICTIONARY
  5
1A
102
{ACAD_REACTORS
330
C
102
}
330
C
100
AcDbDictionary
281
     1
  3
Layout1
350
1E
  3
Layout2
350
26
  3
Model
350
22
  0
DICTIONARY
  5
32F
102
{ACAD_REACTORS
330
C
102
}
330
C
100
AcDbDictionary
281
     1
  0
DICTIONARY
  5
17
102
{ACAD_REACTORS
330
C
102
}
330
C
100
AcDbDictionary
281
     1
  3
Standard
350
18
  0
DICTIONARY
  5
19
102
{ACAD_REACTORS
330
C
102
}
330
C
100
AcDbDictionary
281
     1
  0
ACDBDICTIONARYWDFLT
  5
E
102
{ACAD_REACTORS
330
C
102
}
330
C
100
AcDbDictionary
281
     1
  3
Normal
350
F
100
AcDbDictionaryWithDefault
340
F
  0
DICTIONARY
  5
3B
102
{ACAD_REACTORS
330
C
102
}
330
C
100
AcDbDictionary
281
     1
  3
A0
350
3C
  3
A1
350
3D
  3
A2
350
3E
  3
A3
350
3F
  3
A4
350
40
  3
A5
350
41
  3
A6
350
42
  3
A7
350
43
  3
A8
350
44
  3
A9
350
45
  3
B0
350
46
  3
B1
350
47
  3
B2
350
48
  3
B3
350
49
  3
B4
350
4A
  3
B5
350
4B
  3
B6
350
4C
  3
B7
350
4D
  3
B8
350
4E
  3
B9
350
4F
  3
C0
350
50
  3
C1
350
51
  3
C2
350
52
  3
C3
350
53
  3
C4
350
54
  3
C5
350
55
  3
C6
350
56
  3
C7
350
57
  3
C8
350
58
  3
C9
350
59
  3
D0
350
5A
  3
D1
350
5B
  3
D2
350
5C
  0
DICTIONARY
  5
32E
102
{ACAD_REACTORS
330
C
102
}
330
C
100
AcDbDictionary
281
     1
  0
DICTIONARY
  5
2A
102
{ACAD_REACTORS
330
C
102
}
330
C
100
AcDbDictionary
281
     1
  3
2dWireframe
350
2F
  3
3D Hidden
350
31
  3
3dWireframe
350
30
  3
Basic
350
32
  3
Brighten
350
36
  3
ColorChange
350
3A
  3
Conceptual
350
34
  3
Dim
350
35
  3
Facepattern
350
39
  3
Flat
350
2B
  3
FlatWithEdges
350
2C
  3
Gouraud
350
2D
  3
GouraudWithEdges
350
2E
  3
Linepattern
350
38
  3
Realistic
350
33
  3
Thicken
350
37
  0
DICTIONARY
  5
32C
102
{ACAD_REACTORS
330
C
102
}
330
C
100
AcDbDictionary
281
     1
  3
CANNOSCALE
350
32D
  3
PSOLHEIGHT
350
331
  3
PSOLWIDTH
350
330
  0
LAYOUT
  5
1E
102
{ACAD_REACTORS
330
1A
102
}
330
1A
100
AcDbPlotSettings
  1

  2
none_device
  4

  6

 40
0.0
 41
0.0
 42
0.0
 43
0.0
 44
0.0
 45
0.0
 46
0.0
 47
0.0
 48
0.0
 49
0.0
140
0.0
141
0.0
142
1.0
143
1.0
 70
   688
 72
     0
 73
     0
 74
     5
  7

 75
    16
147
1.0
148
0.0
149
0.0
100
AcDbLayout
  1
Layout1
 70
     1
 71
     1
 10
0.0
 20
0.0
 11
12.0
 21
9.0
 12
0.0
 22
0.0
 32
0.0
 14
1.000000E+20
 24
1.000000E+20
 34
0.0
 15
-1.000000E+20
 25
-1.000000E+20
 35
0.0
146
0.0
 13
0.0
 23
0.0
 33
0.0
 16
1.0
 26
0.0
 36
0.0
 17
0.0
 27
1.0
 37
0.0
 76
     0
330
1B
  0
LAYOUT
  5
26
102
{ACAD_REACTORS
330
1A
102
}
330
1A
100
AcDbPlotSettings
  1

  2
none_device
  4

  6

 40
0.0
 41
0.0
 42
0.0
 43
0.0
 44
0.0
 45
0.0
 46
0.0
 47
0.0
 48
0.0
 49
0.0
140
0.0
141
0.0
142
1.0
143
1.0
 70
   688
 72
     0
 73
     0
 74
     5
  7

 75
    16
147
1.0
148
0.0
149
0.0
100
AcDbLayout
  1
Layout2
 70
     1
 71
     2
 10
0.0
 20
0.0
 11
0.0
 21
0.0
 12
0.0
 22
0.0
 32
0.0
 14
0.0
 24
0.0
 34
0.0
 15
0.0
 25
0.0
 35
0.0
146
0.0
 13
0.0
 23
0.0
 33
0.0
 16
1.0
 26
0.0
 36
0.0
 17
0.0
 27
1.0
 37
0.0
 76
     0
330
23
  0
LAYOUT
  5
22
102
{ACAD_REACTORS
330
1A
102
}
330
1A
100
AcDbPlotSettings
  1

  2
none_device
  4

  6

 40
0.0
 41
0.0
 42
0.0
 43
0.0
 44
0.0
 45
0.0
 46
0.0
 47
0.0
 48
0.0
 49
0.0
140
0.0
141
0.0
142
1.0
143
1.0
 70
  1712
 72
     0
 73
     0
 74
     0
  7

 75
     0
147
1.0
148
0.0
149
0.0
100
AcDbLayout
  1
Model
 70
     1
 71
     0
 10
0.0
 20
0.0
 11
12.0
 21
9.0
 12
0.0
 22
0.0
 32
0.0
 14
17.490921
 24
-5.808594
 34
0.0
 15
194.811661
 25
147.081512
 35
0.0
146
0.0
 13
0.0
 23
0.0
 33
0.0
 16
1.0
 26
0.0
 36
0.0
 17
0.0
 27
1.0
 37
0.0
 76
     0
330
1F
331
29
  0
MLINESTYLE
  5
18
102
{ACAD_REACTORS
330
17
102
}
330
17
100
AcDbMlineStyle
  2
Standard
 70
     0
  3

 62
   256
 51
90.0
 52
90.0
 71
     2
 49
0.5
 62
   256
  6
BYLAYER
 49
-0.5
 62
   256
  6
BYLAYER
  0
ACDBPLACEHOLDER
  5
F
102
{ACAD_REACTORS
330
E
102
}
330
E
  0
SCALE
  5
3C
102
{ACAD_REACTORS
330
3B
102
}
330
3B
100
AcDbScale
 70
     0
300
1:1
140
1.0
141
1.0
290
     1
  0
SCALE
  5
3D
102
{ACAD_REACTORS
330
3B
102
}
330
3B
100
AcDbScale
 70
     0
300
1:2
140
1.0
141
2.0
290
     0
  0
SCALE
  5
3E
102
{ACAD_REACTORS
330
3B
102
}
330
3B
100
AcDbScale
 70
     0
300
1:4
140
1.0
141
4.0
290
     0
  0
SCALE
  5
3F
102
{ACAD_REACTORS
330
3B
102
}
330
3B
100
AcDbScale
 70
     0
300
1:5
140
1.0
141
5.0
290
     0
  0
SCALE
  5
40
102
{ACAD_REACTORS
330
3B
102
}
330
3B
100
AcDbScale
 70
     0
300
1:8
140
1.0
141
8.0
290
     0
  0
SCALE
  5
41
102
{ACAD_REACTORS
330
3B
102
}
330
3B
100
AcDbScale
 70
     0
300
1:10
140
1.0
141
10.0
290
     0
  0
SCALE
  5
42
102
{ACAD_REACTORS
330
3B
102
}
330
3B
100
AcDbScale
 70
     0
300
1:16
140
1.0
141
16.0
290
     0
  0
SCALE
  5
43
102
{ACAD_REACTORS
330
3B
102
}
330
3B
100
AcDbScale
 70
     0
300
1:20
140
1.0
141
20.0
290
     0
  0
SCALE
  5
44
102
{ACAD_REACTORS
330
3B
102
}
330
3B
100
AcDbScale
 70
     0
300
1:30
140
1.0
141
30.0
290
     0
  0
SCALE
  5
45
102
{ACAD_REACTORS
330
3B
102
}
330
3B
100
AcDbScale
 70
     0
300
1:40
140
1.0
141
40.0
290
     0
  0
SCALE
  5
46
102
{ACAD_REACTORS
330
3B
102
}
330
3B
100
AcDbScale
 70
     0
300
1:50
140
1.0
141
50.0
290
     0
  0
SCALE
  5
47
102
{ACAD_REACTORS
330
3B
102
}
330
3B
100
AcDbScale
 70
     0
300
1:100
140
1.0
141
100.0
290
     0
  0
SCALE
  5
48
102
{ACAD_REACTORS
330
3B
102
}
330
3B
100
AcDbScale
 70
     0
300
2:1
140
2.0
141
1.0
290
     0
  0
SCALE
  5
49
102
{ACAD_REACTORS
330
3B
102
}
330
3B
100
AcDbScale
 70
     0
300
4:1
140
4.0
141
1.0
290
     0
  0
SCALE
  5
4A
102
{ACAD_REACTORS
330
3B
102
}
330
3B
100
AcDbScale
 70
     0
300
8:1
140
8.0
141
1.0
290
     0
  0
SCALE
  5
4B
102
{ACAD_REACTORS
330
3B
102
}
330
3B
100
AcDbScale
 70
     0
300
10:1
140
10.0
141
1.0
290
     0
  0
SCALE
  5
4C
102
{ACAD_REACTORS
330
3B
102
}
330
3B
100
AcDbScale
 70
     0
300
100:1
140
100.0
141
1.0
290
     0
  0
SCALE
  5
4D
102
{ACAD_REACTORS
330
3B
102
}
330
3B
100
AcDbScale
 70
     0
300
1/128" = 1'-0"
140
0.007812
141
12.0
290
     0
  0
SCALE
  5
4E
102
{ACAD_REACTORS
330
3B
102
}
330
3B
100
AcDbScale
 70
     0
300
1/64" = 1'-0"
140
0.015625
141
12.0
290
     0
  0
SCALE
  5
4F
102
{ACAD_REACTORS
330
3B
102
}
330
3B
100
AcDbScale
 70
     0
300
1/32" = 1'-0"
140
0.03125
141
12.0
290
     0
  0
SCALE
  5
50
102
{ACAD_REACTORS
330
3B
102
}
330
3B
100
AcDbScale
 70
     0
300
1/16" = 1'-0"
140
0.0625
141
12.0
290
     0
  0
SCALE
  5
51
102
{ACAD_REACTORS
330
3B
102
}
330
3B
100
AcDbScale
 70
     0
300
3/32" = 1'-0"
140
0.09375
141
12.0
290
     0
  0
SCALE
  5
52
102
{ACAD_REACTORS
330
3B
102
}
330
3B
100
AcDbScale
 70
     0
300
1/8" = 1'-0"
140
0.125
141
12.0
290
     0
  0
SCALE
  5
53
102
{ACAD_REACTORS
330
3B
102
}
330
3B
100
AcDbScale
 70
     0
300
3/16" = 1'-0"
140
0.1875
141
12.0
290
     0
  0
SCALE
  5
54
102
{ACAD_REACTORS
330
3B
102
}
330
3B
100
AcDbScale
 70
     0
300
1/4" = 1'-0"
140
0.25
141
12.0
290
     0
  0
SCALE
  5
55
102
{ACAD_REACTORS
330
3B
102
}
330
3B
100
AcDbScale
 70
     0
300
3/8" = 1'-0"
140
0.375
141
12.0
290
     0
  0
SCALE
  5
56
102
{ACAD_REACTORS
330
3B
102
}
330
3B
100
AcDbScale
 70
     0
300
1/2" = 1'-0"
140
0.5
141
12.0
290
     0
  0
SCALE
  5
57
102
{ACAD_REACTORS
330
3B
102
}
330
3B
100
AcDbScale
 70
     0
300
3/4" = 1'-0"
140
0.75
141
12.0
290
     0
  0
SCALE
  5
58
102
{ACAD_REACTORS
330
3B
102
}
330
3B
100
AcDbScale
 70
     0
300
1" = 1'-0"
140
1.0
141
12.0
290
     0
  0
SCALE
  5
59
102
{ACAD_REACTORS
330
3B
102
}
330
3B
100
AcDbScale
 70
     0
300
1-1/2" = 1'-0"
140
1.5
141
12.0
290
     0
  0
SCALE
  5
5A
102
{ACAD_REACTORS
330
3B
102
}
330
3B
100
AcDbScale
 70
     0
300
3" = 1'-0"
140
3.0
141
12.0
290
     0
  0
SCALE
  5
5B
102
{ACAD_REACTORS
330
3B
102
}
330
3B
100
AcDbScale
 70
     0
300
6" = 1'-0"
140
6.0
141
12.0
290
     0
  0
SCALE
  5
5C
102
{ACAD_REACTORS
330
3B
102
}
330
3B
100
AcDbScale
 70
     0
300
1'-0" = 1'-0"
140
12.0
141
12.0
290
     0
  0
VISUALSTYLE
  5
2F
102
{ACAD_REACTORS
330
2A
102
}
330
2A
100
AcDbVisualStyle
  2
2dWireframe
 70
     4
 71
     0
 72
     2
 73
     0
 90
        0
 40
-0.6
 41
-30.0
 62
     5
 63
     7
 74
     1
 91
        4
 64
     7
 65
   257
 75
     1
175
     1
 42
1.0
 92
        0
 66
   257
 43
1.0
 76
     1
 77
     6
 78
     2
 67
     7
 79
     5
170
     0
171
     0
290
     0
174
     0
 93
        1
 44
0.0
173
     0
291
     0
 45
0.0
1001
ACAD
1000
AcDbSavedByObjectVersion
1070
     0
  0
VISUALSTYLE
  5
31
102
{ACAD_REACTORS
330
2A
102
}
330
2A
100
AcDbVisualStyle
  2
3D Hidden
 70
     6
 71
     1
 72
     2
 73
     2
 90
        0
 40
-0.6
 41
-30.0
 62
     5
 63
     7
 74
     2
 91
        2
 64
     7
 65
   257
 75
     2
175
     1
 42
40.0
 92
        0
 66
   257
 43
1.0
 76
     1
 77
     6
 78
     2
 67
     7
 79
     3
170
     0
171
     0
290
     0
174
     0
 93
        1
 44
0.0
173
     0
291
     0
 45
0.0
1001
ACAD
1000
AcDbSavedByObjectVersion
1070
     0
  0
VISUALSTYLE
  5
30
102
{ACAD_REACTORS
330
2A
102
}
330
2A
100
AcDbVisualStyle
  2
3dWireframe
 70
     5
 71
     0
 72
     2
 73
     0
 90
        0
 40
-0.6
 41
-30.0
 62
     5
 63
     7
 74
     1
 91
        4
 64
     7
 65
   257
 75
     1
175
     1
 42
1.0
 92
        0
 66
   257
 43
1.0
 76
     1
 77
     6
 78
     2
 67
     7
 79
     5
170
     0
171
     0
290
     0
174
     0
 93
        1
 44
0.0
173
     0
291
     0
 45
0.0
1001
ACAD
1000
AcDbSavedByObjectVersion
1070
     0
  0
VISUALSTYLE
  5
32
102
{ACAD_REACTORS
330
2A
102
}
330
2A
100
AcDbVisualStyle
  2
Basic
 70
     7
 71
     1
 72
     0
 73
     1
 90
        0
 40
-0.6
 41
-30.0
 62
     5
 63
     7
 74
     0
 91
        4
 64
     7
 65
   257
 75
     1
175
     1
 42
1.0
 92
        8
 66
     7
 43
1.0
 76
     1
 77
     6
 78
     2
 67
     7
 79
     5
170
     0
171
     0
290
     0
174
     0
 93
        1
 44
0.0
173
     0
291
     1
 45
0.0
1001
ACAD
1000
AcDbSavedByObjectVersion
1070
     0
  0
VISUALSTYLE
  5
36
102
{ACAD_REACTORS
330
2A
102
}
330
2A
100
AcDbVisualStyle
  2
Brighten
 70
    12
 71
     2
 72
     2
 73
     0
 90
        0
 40
-0.6
 41
-30.0
 62
     5
 63
     7
 74
     1
 91
        4
 64
     7
 65
   257
 75
     1
175
     1
 42
1.0
 92
        8
 66
     7
 43
1.0
 76
     1
 77
     6
 78
     2
 67
     7
 79
     5
170
     0
171
     0
290
     0
174
     0
 93
        1
 44
50.0
173
     0
291
     1
 45
0.0
1001
ACAD
1000
AcDbSavedByObjectVersion
1070
     0
  0
VISUALSTYLE
  5
3A
102
{ACAD_REACTORS
330
2A
102
}
330
2A
100
AcDbVisualStyle
  2
ColorChange
 70
    16
 71
     2
 72
     2
 73
     3
 90
        0
 40
-0.6
 41
-30.0
 62
     5
 63
     8
 74
     1
 91
        4
 64
     7
 65
   257
 75
     1
175
     1
 42
1.0
 92
        8
 66
     8
 43
1.0
 76
     1
 77
     6
 78
     2
 67
     7
 79
     5
170
     0
171
     0
290
     0
174
     0
 93
        1
 44
0.0
173
     0
291
     1
 45
0.0
1001
ACAD
1000
AcDbSavedByObjectVersion
1070
     0
  0
VISUALSTYLE
  5
34
102
{ACAD_REACTORS
330
2A
102
}
330
2A
100
AcDbVisualStyle
  2
Conceptual
 70
     9
 71
     3
 72
     2
 73
     0
 90
        0
 40
-0.6
 41
-30.0
 62
     5
 63
     7
 74
     2
 91
        2
 64
     7
 65
   257
 75
     1
175
     1
 42
40.0
 92
        8
 66
     7
 43
1.0
 76
     1
 77
     6
 78
     2
 67
     7
 79
     3
170
     0
171
     0
290
     0
174
     0
 93
        1
 44
0.0
173
     0
291
     0
 45
0.0
1001
ACAD
1000
AcDbSavedByObjectVersion
1070
     0
  0
VISUALSTYLE
  5
35
102
{ACAD_REACTORS
330
2A
102
}
330
2A
100
AcDbVisualStyle
  2
Dim
 70
    11
 71
     2
 72
     2
 73
     0
 90
        0
 40
-0.6
 41
-30.0
 62
     5
 63
     7
 74
     1
 91
        4
 64
     7
 65
   257
 75
     1
175
     1
 42
1.0
 92
        8
 66
     7
 43
1.0
 76
     1
 77
     6
 78
     2
 67
     7
 79
     5
170
     0
171
     0
290
     0
174
     0
 93
        1
 44
-50.0
173
     0
291
     1
 45
0.0
1001
ACAD
1000
AcDbSavedByObjectVersion
1070
     0
  0
VISUALSTYLE
  5
39
102
{ACAD_REACTORS
330
2A
102
}
330
2A
100
AcDbVisualStyle
  2
Facepattern
 70
    15
 71
     2
 72
     2
 73
     0
 90
        0
 40
-0.6
 41
-30.0
 62
     5
 63
     7
 74
     1
 91
        4
 64
     7
 65
   257
 75
     1
175
     1
 42
1.0
 92
        8
 66
     7
 43
1.0
 76
     1
 77
     6
 78
     2
 67
     7
 79
     5
170
     0
171
     0
290
     0
174
     0
 93
        1
 44
0.0
173
     0
291
     1
 45
0.0
1001
ACAD
1000
AcDbSavedByObjectVersion
1070
     0
  0
VISUALSTYLE
  5
2B
102
{ACAD_REACTORS
330
2A
102
}
330
2A
100
AcDbVisualStyle
  2
Flat
 70
     0
 71
     2
 72
     1
 73
     1
 90
        2
 40
-0.6
 41
30.0
 62
     5
 63
     7
 74
     0
 91
        4
 64
     7
 65
   257
 75
     1
175
     1
 42
1.0
 92
        8
 66
     7
 43
1.0
 76
     1
 77
     6
 78
     2
 67
     7
 79
     5
170
     0
171
     0
290
     0
174
     0
 93
       13
 44
0.0
173
     0
291
     1
 45
0.0
1001
ACAD
1000
AcDbSavedByObjectVersion
1070
     0
  0
VISUALSTYLE
  5
2C
102
{ACAD_REACTORS
330
2A
102
}
330
2A
100
AcDbVisualStyle
  2
FlatWithEdges
 70
     1
 71
     2
 72
     1
 73
     1
 90
        2
 40
-0.6
 41
30.0
 62
     5
 63
     7
 74
     1
 91
        4
 64
     7
 65
   257
 75
     1
175
     1
 42
1.0
 92
        0
 66
   257
 43
1.0
 76
     1
 77
     6
 78
     2
 67
     7
 79
     5
170
     0
171
     0
290
     0
174
     0
 93
       13
 44
0.0
173
     0
291
     1
 45
0.0
1001
ACAD
1000
AcDbSavedByObjectVersion
1070
     0
  0
VISUALSTYLE
  5
2D
102
{ACAD_REACTORS
330
2A
102
}
330
2A
100
AcDbVisualStyle
  2
Gouraud
 70
     2
 71
     2
 72
     2
 73
     1
 90
        2
 40
-0.6
 41
30.0
 62
     5
 63
     7
 74
     0
 91
        4
 64
     7
 65
   257
 75
     1
175
     1
 42
1.0
 92
        0
 66
     7
 43
1.0
 76
     1
 77
     6
 78
     2
 67
     7
 79
     5
170
     0
171
     0
290
     0
174
     0
 93
       13
 44
0.0
173
     0
291
     1
 45
0.0
1001
ACAD
1000
AcDbSavedByObjectVersion
1070
     0
  0
VISUALSTYLE
  5
2E
102
{ACAD_REACTORS
330
2A
102
}
330
2A
100
AcDbVisualStyle
  2
GouraudWithEdges
 70
     3
 71
     2
 72
     2
 73
     1
 90
        2
 40
-0.6
 41
30.0
 62
     5
 63
     7
 74
     1
 91
        4
 64
     7
 65
   257
 75
     1
175
     1
 42
1.0
 92
        0
 66
   257
 43
1.0
 76
     1
 77
     6
 78
     2
 67
     7
 79
     5
170
     0
171
     0
290
     0
174
     0
 93
       13
 44
0.0
173
     0
291
     1
 45
0.0
1001
ACAD
1000
AcDbSavedByObjectVersion
1070
     0
  0
VISUALSTYLE
  5
38
102
{ACAD_REACTORS
330
2A
102
}
330
2A
100
AcDbVisualStyle
  2
Linepattern
 70
    14
 71
     2
 72
     2
 73
     0
 90
        0
 40
-0.6
 41
-30.0
 62
     5
 63
     7
 74
     1
 91
        4
 64
     7
 65
   257
 75
     7
175
     7
 42
1.0
 92
        8
 66
     7
 43
1.0
 76
     1
 77
     6
 78
     2
 67
     7
 79
     5
170
     0
171
     0
290
     0
174
     0
 93
        1
 44
0.0
173
     0
291
     1
 45
0.0
1001
ACAD
1000
AcDbSavedByObjectVersion
1070
     0
  0
VISUALSTYLE
  5
33
102
{ACAD_REACTORS
330
2A
102
}
330
2A
100
AcDbVisualStyle
  2
Realistic
 70
     8
 71
     2
 72
     2
 73
     0
 90
        0
 40
-0.6
 41
-30.0
 62
     5
 63
     7
 74
     1
 91
        0
 64
     7
 65
   257
 75
     1
175
     1
 42
1.0
 92
        8
 66
     8
 43
1.0
 76
     1
 77
     6
 78
     2
 67
     7
 79
     5
170
     0
171
     0
290
     0
174
     0
 93
       13
 44
0.0
173
     0
291
     0
 45
0.0
1001
ACAD
1000
AcDbSavedByObjectVersion
1070
     0
  0
VISUALSTYLE
  5
37
102
{ACAD_REACTORS
330
2A
102
}
330
2A
100
AcDbVisualStyle
  2
Thicken
 70
    13
 71
     2
 72
     2
 73
     0
 90
        0
 40
-0.6
 41
-30.0
 62
     5
 63
     7
 74
     1
 91
        4
 64
     7
 65
   257
 75
     1
175
     1
 42
1.0
 92
       12
 66
     7
 43
1.0
 76
     1
 77
     6
 78
     2
 67
     7
 79
     5
170
     0
171
     0
290
     0
174
     0
 93
        1
 44
0.0
173
     0
291
     1
 45
0.0
1001
ACAD
1000
AcDbSavedByObjectVersion
1070
     0
  0
DICTIONARYVAR
  5
32D
102
{ACAD_REACTORS
330
32C
102
}
330
32C
100
DictionaryVariables
280
     0
  1
1:1
  0
DICTIONARYVAR
  5
331
102
{ACAD_REACTORS
330
32C
102
}
330
32C
100
DictionaryVariables
280
     0
  1
80.000000
  0
DICTIONARYVAR
  5
330
102
{ACAD_REACTORS
330
32C
102
}
330
32C
100
DictionaryVariables
280
     0
  1
5.000000
  0
ENDSEC
  0
EOF
