  0
SECTION
  2
HEADER
  9
$ACADVER
  1
AC1015
  9
$ACADMAINTVER
 70
     6
  9
$DWGCODEPAGE
  3
ANSI_932
  9
$INSBASE
 10
0.0
 20
0.0
 30
0.0
  9
$EXTMIN
 10
86.794479
 20
45.551636
 30
0.0
  9
$EXTMAX
 10
446.913269
 20
409.048553
 30
0.0
  9
$LIMMIN
 10
0.0
 20
0.0
  9
$LIMMAX
 10
12.0
 20
9.0
  9
$ORTHOMODE
 70
     0
  9
$REGENMODE
 70
     1
  9
$FILLMODE
 70
     1
  9
$QTEXTMODE
 70
     0
  9
$MIRRTEXT
 70
     1
  9
$LTSCALE
 40
5.116791
  9
$ATTMODE
 70
     1
  9
$TEXTSIZE
 40
3.2
  9
$TRACEWID
 40
1.0
  9
$TEXTSTYLE
  7
Standard
  9
$CLAYER
  8
0
  9
$CELTYPE
  6
ByLayer
  9
$CECOLOR
 62
   256
  9
$CELTSCALE
 40
1.0
  9
$DISPSILH
 70
     0
  9
$DIMSCALE
 40
1.0
  9
$DIMASZ
 40
2.5
  9
$DIMEXO
 40
0.625
  9
$DIMDLI
 40
3.75
  9
$DIMRND
 40
0.0
  9
$DIMDLE
 40
0.0
  9
$DIMEXE
 40
1.25
  9
$DIMTP
 40
0.0
  9
$DIMTM
 40
0.0
  9
$DIMTXT
 40
2.5
  9
$DIMCEN
 40
0.09
  9
$DIMTSZ
 40
0.0
  9
$DIMTOL
 70
     0
  9
$DIMLIM
 70
     0
  9
$DIMTIH
 70
     0
  9
$DIMTOH
 70
     0
  9
$DIMSE1
 70
     0
  9
$DIMSE2
 70
     0
  9
$DIMTAD
 70
     0
  9
$DIMZIN
 70
     8
  9
$DIMBLK
  1

  9
$DIMASO
 70
     1
  9
$DIMSHO
 70
     0
  9
$DIMPOST
  1

  9
$DIMAPOST
  1

  9
$DIMALT
 70
     0
  9
$DIMALTD
 70
     3
  9
$DIMALTF
 40
0.03937
  9
$DIMLFAC
 40
1.0
  9
$DIMTOFL
 70
     1
  9
$DIMTVP
 40
0.0
  9
$DIMTIX
 70
     0
  9
$DIMSOXD
 70
     0
  9
$DIMSAH
 70
     0
  9
$DIMBLK1
  1

  9
$DIMBLK2
  1

  9
$DIMSTYLE
  2
ISO-25
  9
$DIMCLRD
 70
     0
  9
$DIMCLRE
 70
     0
  9
$DIMCLRT
 70
     0
  9
$DIMTFAC
 40
1.0
  9
$DIMGAP
 40
0.625
  9
$DIMJUST
 70
     0
  9
$DIMSD1
 70
     0
  9
$DIMSD2
 70
     0
  9
$DIMTOLJ
 70
     0
  9
$DIMTZIN
 70
     8
  9
$DIMALTZ
 70
     0
  9
$DIMALTTZ
 70
     0
  9
$DIMUPT
 70
     0
  9
$DIMDEC
 70
     2
  9
$DIMTDEC
 70
     2
  9
$DIMALTU
 70
     2
  9
$DIMALTTD
 70
     3
  9
$DIMTXSTY
  7
Standard
  9
$DIMAUNIT
 70
     0
  9
$DIMADEC
 70
     0
  9
$DIMALTRND
 40
0.0
  9
$DIMAZIN
 70
     0
  9
$DIMDSEP
 70
    44
  9
$DIMATFIT
 70
     3
  9
$DIMFRAC
 70
     0
  9
$DIMLDRBLK
  1

  9
$DIMLUNIT
 70
     2
  9
$DIMLWD
 70
    -2
  9
$DIMLWE
 70
    -2
  9
$DIMTMOVE
 70
     0
  9
$LUNITS
 70
     2
  9
$LUPREC
 70
     4
  9
$SKETCHINC
 40
1.0
  9
$FILLETRAD
 40
0.0
  9
$AUNITS
 70
     0
  9
$AUPREC
 70
     0
  9
$MENU
  1
.
  9
$ELEVATION
 40
0.0
  9
$PELEVATION
 40
0.0
  9
$THICKNESS
 40
0.0
  9
$LIMCHECK
 70
     0
  9
$CHAMFERA
 40
10.0
  9
$CHAMFERB
 40
10.0
  9
$CHAMFERC
 40
20.0
  9
$CHAMFERD
 40
0.0
  9
$SKPOLY
 70
     0
  9
$TDCREATE
 40
2454848.495105787
  9
$TDUCREATE
 40
2454848.120105787
  9
$TDUPDATE
 40
2454848.495105799
  9
$TDUUPDATE
 40
2454848.120105799
  9
$TDINDWG
 40
0.0000000116
  9
$TDUSRTIMER
 40
0.0000000116
  9
$USRTIMER
 70
     1
  9
$ANGBASE
 50
0.0
  9
$ANGDIR
 70
     0
  9
$PDMODE
 70
     0
  9
$PDSIZE
 40
0.0
  9
$PLINEWID
 40
0.0
  9
$SPLFRAME
 70
     0
  9
$SPLINETYPE
 70
     6
  9
$SPLINESEGS
 70
     8
  9
$HANDSEED
  5
7EE
  9
$SURFTAB1
 70
     6
  9
$SURFTAB2
 70
     6
  9
$SURFTYPE
 70
     6
  9
$SURFU
 70
     6
  9
$SURFV
 70
     6
  9
$UCSBASE
  2

  9
$UCSNAME
  2

  9
$UCSORG
 10
0.0
 20
0.0
 30
0.0
  9
$UCSXDIR
 10
1.0
 20
0.0
 30
0.0
  9
$UCSYDIR
 10
0.0
 20
1.0
 30
0.0
  9
$UCSORTHOREF
  2

  9
$UCSORTHOVIEW
 70
     0
  9
$UCSORGTOP
 10
0.0
 20
0.0
 30
0.0
  9
$UCSORGBOTTOM
 10
0.0
 20
0.0
 30
0.0
  9
$UCSORGLEFT
 10
0.0
 20
0.0
 30
0.0
  9
$UCSORGRIGHT
 10
0.0
 20
0.0
 30
0.0
  9
$UCSORGFRONT
 10
0.0
 20
0.0
 30
0.0
  9
$UCSORGBACK
 10
0.0
 20
0.0
 30
0.0
  9
$PUCSBASE
  2

  9
$PUCSNAME
  2

  9
$PUCSORG
 10
0.0
 20
0.0
 30
0.0
  9
$PUCSXDIR
 10
1.0
 20
0.0
 30
0.0
  9
$PUCSYDIR
 10
0.0
 20
1.0
 30
0.0
  9
$PUCSORTHOREF
  2

  9
$PUCSORTHOVIEW
 70
     0
  9
$PUCSORGTOP
 10
0.0
 20
0.0
 30
0.0
  9
$PUCSORGBOTTOM
 10
0.0
 20
0.0
 30
0.0
  9
$PUCSORGLEFT
 10
0.0
 20
0.0
 30
0.0
  9
$PUCSORGRIGHT
 10
0.0
 20
0.0
 30
0.0
  9
$PUCSORGFRONT
 10
0.0
 20
0.0
 30
0.0
  9
$PUCSORGBACK
 10
0.0
 20
0.0
 30
0.0
  9
$USERI1
 70
     0
  9
$USERI2
 70
     0
  9
$USERI3
 70
     0
  9
$USERI4
 70
     0
  9
$USERI5
 70
     0
  9
$USERR1
 40
0.0
  9
$USERR2
 40
0.0
  9
$USERR3
 40
0.0
  9
$USERR4
 40
0.0
  9
$USERR5
 40
0.0
  9
$WORLDVIEW
 70
     1
  9
$SHADEDGE
 70
     3
  9
$SHADEDIF
 70
    70
  9
$TILEMODE
 70
     1
  9
$MAXACTVP
 70
    64
  9
$PINSBASE
 10
0.0
 20
0.0
 30
0.0
  9
$PLIMCHECK
 70
     0
  9
$PEXTMIN
 10
1.000000E+20
 20
1.000000E+20
 30
0.0
  9
$PEXTMAX
 10
-1.000000E+20
 20
-1.000000E+20
 30
0.0
  9
$PLIMMIN
 10
0.0
 20
0.0
  9
$PLIMMAX
 10
12.0
 20
9.0
  9
$UNITMODE
 70
     0
  9
$VISRETAIN
 70
     1
  9
$PLINEGEN
 70
     0
  9
$PSLTSCALE
 70
     1
  9
$TREEDEPTH
 70
  3020
  9
$CMLSTYLE
  2
Standard
  9
$CMLJUST
 70
     0
  9
$CMLSCALE
 40
20.0
  9
$PROXYGRAPHICS
 70
     1
  9
$MEASUREMENT
 70
     1
  9
$CELWEIGHT
370
    -1
  9
$ENDCAPS
280
     0
  9
$JOINSTYLE
280
     0
  9
$LWDISPLAY
290
     0
  9
$INSUNITS
 70
     4
  9
$HYPERLINKBASE
  1

  9
$STYLESHEET
  1

  9
$XEDIT
290
     1
  9
$CEPSNTYPE
380
     0
  9
$PSTYLEMODE
290
     1
  9
$FINGERPRINTGUID
  2
{2A397748-99B2-4C39-9768-BC7EEE0064EF}
  9
$VERSIONGUID
  2
{FAEB1C32-E019-11D5-929B-00C0DF256EC4}
  9
$EXTNAMES
290
     1
  9
$PSVPSCALE
 40
0.0
  9
$OLESTARTUP
290
     0
  0
ENDSEC
  0
SECTION
  2
CLASSES
  0
CLASS
  1
ACDBDICTIONARYWDFLT
  2
AcDbDictionaryWithDefault
  3
ObjectDBX Classes
 90
        0
280
     0
281
     0
  0
CLASS
  1
VISUALSTYLE
  2
AcDbVisualStyle
  3
ObjectDBX Classes
 90
     4095
280
     0
281
     0
  0
CLASS
  1
SCALE
  2
AcDbScale
  3
ObjectDBX Classes
 90
     1153
280
     0
281
     0
  0
CLASS
  1
DICTIONARYVAR
  2
AcDbDictionaryVar
  3
ObjectDBX Classes
 90
        0
280
     0
281
     0
  0
CLASS
  1
ACDBPLACEHOLDER
  2
AcDbPlaceHolder
  3
ObjectDBX Classes
 90
        0
280
     0
281
     0
  0
CLASS
  1
LAYOUT
  2
AcDbLayout
  3
ObjectDBX Classes
 90
        0
280
     0
281
     0
  0
ENDSEC
  0
SECTION
  2
TABLES
  0
TABLE
  2
VPORT
  5
8
330
0
100
AcDbSymbolTable
 70
     1
  0
VPORT
  5
29
330
8
100
AcDbSymbolTableRecord
100
AcDbViewportTableRecord
  2
*Active
 70
     0
 10
0.0
 20
0.0
 11
1.0
 21
1.0
 12
266.853874
 22
227.300095
 13
0.0
 23
0.0
 14
1.0
 24
1.0
 15
0.0
 25
0.0
 16
0.0
 26
0.0
 36
1.0
 17
0.0
 27
0.0
 37
0.0
 40
367.131887
 41
1.691288
 42
50.0
 43
0.0
 44
0.0
 50
0.0
 51
0.0
 71
     0
 72
   100
 73
     1
 74
     3
 75
     0
 76
     0
 77
     0
 78
     0
281
     0
 65
     1
110
0.0
120
0.0
130
0.0
111
1.0
121
0.0
131
0.0
112
0.0
122
1.0
132
0.0
 79
     0
146
0.0
  0
ENDTAB
  0
TABLE
  2
LTYPE
  5
5
330
0
100
AcDbSymbolTable
 70
     5
  0
LTYPE
  5
14
330
5
100
AcDbSymbolTableRecord
100
AcDbLinetypeTableRecord
  2
ByBlock
 70
     0
  3

 72
    65
 73
     0
 40
0.0
  0
LTYPE
  5
15
330
5
100
AcDbSymbolTableRecord
100
AcDbLinetypeTableRecord
  2
ByLayer
 70
     0
  3

 72
    65
 73
     0
 40
0.0
  0
LTYPE
  5
16
330
5
100
AcDbSymbolTableRecord
100
AcDbLinetypeTableRecord
  2
Continuous
 70
     0
  3
Solid line
 72
    65
 73
     0
 40
0.0
  0
LTYPE
  5
5D
330
5
100
AcDbSymbolTableRecord
100
AcDbLinetypeTableRecord
  2
DASHED
 70
     0
  3
DASHED
 72
    83
 73
     2
 40
0.75
 49
0.5
 74
     0
 49
-0.25
 74
     0
  0
LTYPE
  5
5E
330
5
100
AcDbSymbolTableRecord
100
AcDbLinetypeTableRecord
  2
HIDDEN
 70
     0
  3
HIDDEN
 72
    83
 73
     2
 40
0.375
 49
0.25
 74
     0
 49
-0.125
 74
     0
  0
LTYPE
  5
5F
330
5
100
AcDbSymbolTableRecord
100
AcDbLinetypeTableRecord
  2
CENTER
 70
     0
  3
CENTER
 72
    83
 73
     4
 40
2.0
 49
1.25
 74
     0
 49
-0.25
 74
     0
 49
0.25
 74
     0
 49
-0.25
 74
     0
  0
LTYPE
  5
60
330
5
100
AcDbSymbolTableRecord
100
AcDbLinetypeTableRecord
  2
PHANTOM
 70
     0
  3
PHANTOM
 72
    83
 73
     6
 40
2.5
 49
1.25
 74
     0
 49
-0.25
 74
     0
 49
0.25
 74
     0
 49
-0.25
 74
     0
 49
0.25
 74
     0
 49
-0.25
 74
     0
  0
ENDTAB
  0
TABLE
  2
LAYER
  5
2
330
0
100
AcDbSymbolTable
 70
     2
  0
LAYER
  5
10
330
2
100
AcDbSymbolTableRecord
100
AcDbLayerTableRecord
  2
0
 70
     0
 62
     7
  6
Continuous
370
    -3
390
F
  0
LAYER
  5
61
330
2
100
AcDbSymbolTableRecord
100
AcDbLayerTableRecord
  2
001
 70
     0
 62
     7
  6
Continuous
370
    -3
390
F
  0
ENDTAB
  0
TABLE
  2
STYLE
  5
3
330
0
100
AcDbSymbolTable
 70
     2
  0
STYLE
  5
11
330
3
100
AcDbSymbolTableRecord
100
AcDbTextStyleTableRecord
  2
Standard
 70
     0
 40
0.0
 41
1.0
 50
0.0
 71
     0
 42
0.2
  3
TXT
  4
BIGFONT
  0
STYLE
  5
62
330
3
100
AcDbSymbolTableRecord
100
AcDbTextStyleTableRecord
  2
TATEGAKI
 70
     4
 40
1.0
 41
1.0
 50
0.0
 71
     0
 42
0.2
  3
TXT
  4
BIGFONT
  0
ENDTAB
  0
TABLE
  2
VIEW
  5
6
330
0
100
AcDbSymbolTable
 70
     0
  0
ENDTAB
  0
TABLE
  2
UCS
  5
7
330
0
100
AcDbSymbolTable
 70
     0
  0
ENDTAB
  0
TABLE
  2
APPID
  5
9
330
0
100
AcDbSymbolTable
 70
     1
  0
APPID
  5
12
330
9
100
AcDbSymbolTableRecord
100
AcDbRegAppTableRecord
  2
ACAD
 70
     0
  0
ENDTAB
  0
TABLE
  2
DIMSTYLE
  5
A
330
0
100
AcDbSymbolTable
 70
     2
100
AcDbDimStyleTable
  0
DIMSTYLE
105
27
330
A
100
AcDbSymbolTableRecord
100
AcDbDimStyleTableRecord
  2
ISO-25
 70
     0
 41
2.5
 42
0.625
 43
3.75
 44
1.25
 73
     0
 74
     0
 77
     1
 78
     8
140
2.5
141
2.5
143
0.03937
147
0.625
171
     3
172
     1
271
     2
272
     2
274
     3
278
    44
283
     0
284
     8
340
11
  0
DIMSTYLE
105
63
102
{ACAD_REACTORS
330
13C
330
13D
330
13E
330
13F
330
14B
330
158
330
159
330
165
330
166
330
167
102
}
330
A
100
AcDbSymbolTableRecord
100
AcDbDimStyleTableRecord
  2
Standard
 70
     0
 41
1.5
 42
0.0
 44
2.75
 73
     0
 74
     0
 77
     1
 78
     8
 79
     2
140
4.0
146
0.8
147
1.0
172
     1
179
     1
271
     1
340
11
  0
ENDTAB
  0
TABLE
  2
BLOCK_RECORD
  5
1
330
0
100
AcDbSymbolTable
 70
    11
  0
BLOCK_RECORD
  5
1F
330
1
100
AcDbSymbolTableRecord
100
AcDbBlockTableRecord
  2
*Model_Space
340
22
  0
BLOCK_RECORD
  5
1B
330
1
100
AcDbSymbolTableRecord
100
AcDbBlockTableRecord
  2
*Paper_Space
340
1E
  0
BLOCK_RECORD
  5
23
330
1
100
AcDbSymbolTableRecord
100
AcDbBlockTableRecord
  2
*Paper_Space0
340
26
  0
BLOCK_RECORD
  5
64
330
1
100
AcDbSymbolTableRecord
100
AcDbBlockTableRecord
  2
*D1
340
0
  0
BLOCK_RECORD
  5
78
330
1
100
AcDbSymbolTableRecord
100
AcDbBlockTableRecord
  2
*D2
340
0
  0
BLOCK_RECORD
  5
8C
330
1
100
AcDbSymbolTableRecord
100
AcDbBlockTableRecord
  2
*D3
340
0
  0
BLOCK_RECORD
  5
A0
330
1
100
AcDbSymbolTableRecord
100
AcDbBlockTableRecord
  2
*D4
340
0
  0
BLOCK_RECORD
  5
B4
330
1
100
AcDbSymbolTableRecord
100
AcDbBlockTableRecord
  2
*D5
340
0
  0
BLOCK_RECORD
  5
CA
330
1
100
AcDbSymbolTableRecord
100
AcDbBlockTableRecord
  2
*D6
340
0
  0
BLOCK_RECORD
  5
DE
330
1
100
AcDbSymbolTableRecord
100
AcDbBlockTableRecord
  2
*D7
340
0
  0
BLOCK_RECORD
  5
F2
330
1
100
AcDbSymbolTableRecord
100
AcDbBlockTableRecord
  2
*D8
340
0
  0
BLOCK_RECORD
  5
108
330
1
100
AcDbSymbolTableRecord
100
AcDbBlockTableRecord
  2
*D9
340
0
  0
BLOCK_RECORD
  5
11C
330
1
100
AcDbSymbolTableRecord
100
AcDbBlockTableRecord
  2
*D10
340
0
  0
ENDTAB
  0
ENDSEC
  0
SECTION
  2
BLOCKS
  0
BLOCK
  5
20
330
1F
100
AcDbEntity
  8
0
100
AcDbBlockBegin
  2
*Model_Space
 70
     0
 10
0.0
 20
0.0
 30
0.0
  3
*Model_Space
  1

  0
ENDBLK
  5
21
330
1F
100
AcDbEntity
  8
0
100
AcDbBlockEnd
  0
BLOCK
  5
1C
330
1B
100
AcDbEntity
 67
     1
  8
0
100
AcDbBlockBegin
  2
*Paper_Space
 70
     0
 10
0.0
 20
0.0
 30
0.0
  3
*Paper_Space
  1

  0
ENDBLK
  5
1D
330
1B
100
AcDbEntity
 67
     1
  8
0
100
AcDbBlockEnd
  0
BLOCK
  5
24
330
23
100
AcDbEntity
  8
0
100
AcDbBlockBegin
  2
*Paper_Space0
 70
     0
 10
0.0
 20
0.0
 30
0.0
  3
*Paper_Space0
  1

  0
ENDBLK
  5
25
330
23
100
AcDbEntity
  8
0
100
AcDbBlockEnd
  0
BLOCK
  5
65
330
64
100
AcDbEntity
  8
0
100
AcDbBlockBegin
  2
*D1
 70
     1
 10
0.0
 20
0.0
 30
0.0
  3
*D1
  1

  0
LINE
  5
67
330
64
100
AcDbEntity
  8
001
370
     9
100
AcDbLine
 10
161.455759
 20
86.299538
 30
0.0
 11
161.455759
 21
54.178893
 31
0.0
  0
LINE
  5
68
330
64
100
AcDbEntity
  8
001
370
     9
100
AcDbLine
 10
126.855759
 20
78.308415
 30
0.0
 11
126.855759
 21
54.178893
 31
0.0
  0
LINE
  5
69
330
64
100
AcDbEntity
  8
001
370
     9
100
AcDbLine
 10
161.455759
 20
56.928893
 30
0.0
 11
126.855759
 21
56.928893
 31
0.0
  0
POLYLINE
  5
6A
330
64
100
AcDbEntity
  8
001
370
     9
100
AcDb2dPolyline
 66
     1
 10
0.0
 20
0.0
 30
0.0
  0
VERTEX
  5
6C
330
6A
100
AcDbEntity
  8
001
370
     9
100
AcDbVertex
100
AcDb2dVertex
 10
159.955759
 20
57.330817
 30
0.0
  0
VERTEX
  5
6D
330
6A
100
AcDbEntity
  8
001
370
     9
100
AcDbVertex
100
AcDb2dVertex
 10
161.455759
 20
56.928893
 30
0.0
  0
VERTEX
  5
6E
330
6A
100
AcDbEntity
  8
001
370
     9
100
AcDbVertex
100
AcDb2dVertex
 10
159.955759
 20
56.526969
 30
0.0
  0
SEQEND
  5
6B
330
6A
100
AcDbEntity
  8
001
370
     9
  0
POLYLINE
  5
6F
330
64
100
AcDbEntity
  8
001
370
     9
100
AcDb2dPolyline
 66
     1
 10
0.0
 20
0.0
 30
0.0
  0
VERTEX
  5
71
330
6F
100
AcDbEntity
  8
001
370
     9
100
AcDbVertex
100
AcDb2dVertex
 10
128.355759
 20
56.526969
 30
0.0
  0
VERTEX
  5
72
330
6F
100
AcDbEntity
  8
001
370
     9
100
AcDbVertex
100
AcDb2dVertex
 10
126.855759
 20
56.928893
 30
0.0
  0
VERTEX
  5
73
330
6F
100
AcDbEntity
  8
001
370
     9
100
AcDbVertex
100
AcDb2dVertex
 10
128.355759
 20
57.330817
 30
0.0
  0
SEQEND
  5
70
330
6F
100
AcDbEntity
  8
001
370
     9
  0
TEXT
  5
74
330
64
100
AcDbEntity
  8
001
370
    30
100
AcDbText
 10
136.155759
 20
57.928893
 30
0.0
 40
4.0
  1
３４．６
 41
0.833333
100
AcDbText
  0
POINT
  5
75
330
64
100
AcDbEntity
  8
001
370
     9
100
AcDbPoint
 10
161.455759
 20
86.299538
 30
0.0
  0
POINT
  5
76
330
64
100
AcDbEntity
  8
001
370
     9
100
AcDbPoint
 10
126.855759
 20
78.308415
 30
0.0
  0
POINT
  5
77
330
64
100
AcDbEntity
  8
001
370
     9
100
AcDbPoint
 10
126.855759
 20
56.928893
 30
0.0
  0
ENDBLK
  5
66
330
64
100
AcDbEntity
  8
0
100
AcDbBlockEnd
  0
BLOCK
  5
79
330
78
100
AcDbEntity
  8
0
100
AcDbBlockBegin
  2
*D2
 70
     1
 10
0.0
 20
0.0
 30
0.0
  3
*D2
  1

  0
LINE
  5
7B
330
78
100
AcDbEntity
  8
001
370
     9
100
AcDbLine
 10
261.455759
 20
95.549538
 30
0.0
 11
261.455759
 21
54.178893
 31
0.0
  0
LINE
  5
7C
330
78
100
AcDbEntity
  8
001
370
     9
100
AcDbLine
 10
161.455759
 20
86.299538
 30
0.0
 11
161.455759
 21
54.178893
 31
0.0
  0
LINE
  5
7D
330
78
100
AcDbEntity
  8
001
370
     9
100
AcDbLine
 10
261.455759
 20
56.928893
 30
0.0
 11
161.455759
 21
56.928893
 31
0.0
  0
POLYLINE
  5
7E
330
78
100
AcDbEntity
  8
001
370
     9
100
AcDb2dPolyline
 66
     1
 10
0.0
 20
0.0
 30
0.0
  0
VERTEX
  5
80
330
7E
100
AcDbEntity
  8
001
370
     9
100
AcDbVertex
100
AcDb2dVertex
 10
259.955759
 20
57.330817
 30
0.0
  0
VERTEX
  5
81
330
7E
100
AcDbEntity
  8
001
370
     9
100
AcDbVertex
100
AcDb2dVertex
 10
261.455759
 20
56.928893
 30
0.0
  0
VERTEX
  5
82
330
7E
100
AcDbEntity
  8
001
370
     9
100
AcDbVertex
100
AcDb2dVertex
 10
259.955759
 20
56.526969
 30
0.0
  0
SEQEND
  5
7F
330
7E
100
AcDbEntity
  8
001
370
     9
  0
POLYLINE
  5
83
330
78
100
AcDbEntity
  8
001
370
     9
100
AcDb2dPolyline
 66
     1
 10
0.0
 20
0.0
 30
0.0
  0
VERTEX
  5
85
330
83
100
AcDbEntity
  8
001
370
     9
100
AcDbVertex
100
AcDb2dVertex
 10
162.955759
 20
56.526969
 30
0.0
  0
VERTEX
  5
86
330
83
100
AcDbEntity
  8
001
370
     9
100
AcDbVertex
100
AcDb2dVertex
 10
161.455759
 20
56.928893
 30
0.0
  0
VERTEX
  5
87
330
83
100
AcDbEntity
  8
001
370
     9
100
AcDbVertex
100
AcDb2dVertex
 10
162.955759
 20
57.330817
 30
0.0
  0
SEQEND
  5
84
330
83
100
AcDbEntity
  8
001
370
     9
  0
TEXT
  5
88
330
78
100
AcDbEntity
  8
001
370
    30
100
AcDbText
 10
205.455759
 20
57.928893
 30
0.0
 40
4.0
  1
１００
 41
0.833333
100
AcDbText
  0
POINT
  5
89
330
78
100
AcDbEntity
  8
001
370
     9
100
AcDbPoint
 10
261.455759
 20
95.549538
 30
0.0
  0
POINT
  5
8A
330
78
100
AcDbEntity
  8
001
370
     9
100
AcDbPoint
 10
161.455759
 20
86.299538
 30
0.0
  0
POINT
  5
8B
330
78
100
AcDbEntity
  8
001
370
     9
100
AcDbPoint
 10
161.455759
 20
56.928893
 30
0.0
  0
ENDBLK
  5
7A
330
78
100
AcDbEntity
  8
0
100
AcDbBlockEnd
  0
BLOCK
  5
8D
330
8C
100
AcDbEntity
  8
0
100
AcDbBlockBegin
  2
*D3
 70
     1
 10
0.0
 20
0.0
 30
0.0
  3
*D3
  1

  0
LINE
  5
8F
330
8C
100
AcDbEntity
  8
001
370
     9
100
AcDbLine
 10
126.855759
 20
78.308415
 30
0.0
 11
126.855759
 21
45.551647
 31
0.0
  0
LINE
  5
90
330
8C
100
AcDbEntity
  8
001
370
     9
100
AcDbLine
 10
261.455759
 20
95.549538
 30
0.0
 11
261.455759
 21
45.551647
 31
0.0
  0
LINE
  5
91
330
8C
100
AcDbEntity
  8
001
370
     9
100
AcDbLine
 10
126.855759
 20
48.301647
 30
0.0
 11
261.455759
 21
48.301647
 31
0.0
  0
POLYLINE
  5
92
330
8C
100
AcDbEntity
  8
001
370
     9
100
AcDb2dPolyline
 66
     1
 10
0.0
 20
0.0
 30
0.0
  0
VERTEX
  5
94
330
92
100
AcDbEntity
  8
001
370
     9
100
AcDbVertex
100
AcDb2dVertex
 10
128.355759
 20
47.899724
 30
0.0
  0
VERTEX
  5
95
330
92
100
AcDbEntity
  8
001
370
     9
100
AcDbVertex
100
AcDb2dVertex
 10
126.855759
 20
48.301647
 30
0.0
  0
VERTEX
  5
96
330
92
100
AcDbEntity
  8
001
370
     9
100
AcDbVertex
100
AcDb2dVertex
 10
128.355759
 20
48.703571
 30
0.0
  0
SEQEND
  5
93
330
92
100
AcDbEntity
  8
001
370
     9
  0
POLYLINE
  5
97
330
8C
100
AcDbEntity
  8
001
370
     9
100
AcDb2dPolyline
 66
     1
 10
0.0
 20
0.0
 30
0.0
  0
VERTEX
  5
99
330
97
100
AcDbEntity
  8
001
370
     9
100
AcDbVertex
100
AcDb2dVertex
 10
259.955759
 20
48.703571
 30
0.0
  0
VERTEX
  5
9A
330
97
100
AcDbEntity
  8
001
370
     9
100
AcDbVertex
100
AcDb2dVertex
 10
261.455759
 20
48.301647
 30
0.0
  0
VERTEX
  5
9B
330
97
100
AcDbEntity
  8
001
370
     9
100
AcDbVertex
100
AcDb2dVertex
 10
259.955759
 20
47.899724
 30
0.0
  0
SEQEND
  5
98
330
97
100
AcDbEntity
  8
001
370
     9
  0
TEXT
  5
9C
330
8C
100
AcDbEntity
  8
001
370
    30
100
AcDbText
 10
184.155759
 20
49.301647
 30
0.0
 40
4.0
  1
１３４．６
 41
0.833333
100
AcDbText
  0
POINT
  5
9D
330
8C
100
AcDbEntity
  8
001
370
     9
100
AcDbPoint
 10
126.855759
 20
78.308415
 30
0.0
  0
POINT
  5
9E
330
8C
100
AcDbEntity
  8
001
370
     9
100
AcDbPoint
 10
261.455759
 20
95.549538
 30
0.0
  0
POINT
  5
9F
330
8C
100
AcDbEntity
  8
001
370
     9
100
AcDbPoint
 10
261.455759
 20
48.301647
 30
0.0
  0
ENDBLK
  5
8E
330
8C
100
AcDbEntity
  8
0
100
AcDbBlockEnd
  0
BLOCK
  5
A1
330
A0
100
AcDbEntity
  8
0
100
AcDbBlockBegin
  2
*D4
 70
     1
 10
0.0
 20
0.0
 30
0.0
  3
*D4
  1

  0
LINE
  5
A3
330
A0
100
AcDbEntity
  8
001
370
     9
100
AcDbLine
 10
253.455759
 20
119.549538
 30
0.0
 11
290.367157
 21
119.549538
 31
0.0
  0
LINE
  5
A4
330
A0
100
AcDbEntity
  8
001
370
     9
100
AcDbLine
 10
253.455759
 20
87.549538
 30
0.0
 11
290.367157
 21
87.549538
 31
0.0
  0
LINE
  5
A5
330
A0
100
AcDbEntity
  8
001
370
     9
100
AcDbLine
 10
287.617157
 20
119.549538
 30
0.0
 11
287.617157
 21
87.549538
 31
0.0
  0
POLYLINE
  5
A6
330
A0
100
AcDbEntity
  8
001
370
     9
100
AcDb2dPolyline
 66
     1
 10
0.0
 20
0.0
 30
0.0
  0
VERTEX
  5
A8
330
A6
100
AcDbEntity
  8
001
370
     9
100
AcDbVertex
100
AcDb2dVertex
 10
287.215234
 20
118.049538
 30
0.0
  0
VERTEX
  5
A9
330
A6
100
AcDbEntity
  8
001
370
     9
100
AcDbVertex
100
AcDb2dVertex
 10
287.617157
 20
119.549538
 30
0.0
  0
VERTEX
  5
AA
330
A6
100
AcDbEntity
  8
001
370
     9
100
AcDbVertex
100
AcDb2dVertex
 10
288.019081
 20
118.049538
 30
0.0
  0
SEQEND
  5
A7
330
A6
100
AcDbEntity
  8
001
370
     9
  0
POLYLINE
  5
AB
330
A0
100
AcDbEntity
  8
001
370
     9
100
AcDb2dPolyline
 66
     1
 10
0.0
 20
0.0
 30
0.0
  0
VERTEX
  5
AD
330
AB
100
AcDbEntity
  8
001
370
     9
100
AcDbVertex
100
AcDb2dVertex
 10
288.019081
 20
89.049538
 30
0.0
  0
VERTEX
  5
AE
330
AB
100
AcDbEntity
  8
001
370
     9
100
AcDbVertex
100
AcDb2dVertex
 10
287.617157
 20
87.549538
 30
0.0
  0
VERTEX
  5
AF
330
AB
100
AcDbEntity
  8
001
370
     9
100
AcDbVertex
100
AcDb2dVertex
 10
287.215234
 20
89.049538
 30
0.0
  0
SEQEND
  5
AC
330
AB
100
AcDbEntity
  8
001
370
     9
  0
TEXT
  5
B0
330
A0
100
AcDbEntity
  8
001
370
    30
100
AcDbText
 10
286.617157
 20
97.549538
 30
0.0
 40
4.0
  1
%%c３２
 50
90.000003
 41
0.882353
100
AcDbText
  0
POINT
  5
B1
330
A0
100
AcDbEntity
  8
001
370
     9
100
AcDbPoint
 10
253.455759
 20
119.549538
 30
0.0
  0
POINT
  5
B2
330
A0
100
AcDbEntity
  8
001
370
     9
100
AcDbPoint
 10
253.455759
 20
87.549538
 30
0.0
  0
POINT
  5
B3
330
A0
100
AcDbEntity
  8
001
370
     9
100
AcDbPoint
 10
287.617157
 20
87.549538
 30
0.0
  0
ENDBLK
  5
A2
330
A0
100
AcDbEntity
  8
0
100
AcDbBlockEnd
  0
BLOCK
  5
B5
330
B4
100
AcDbEntity
  8
0
100
AcDbBlockBegin
  2
*D5
 70
     1
 10
0.0
 20
0.0
 30
0.0
  3
*D5
  1

  0
LINE
  5
B7
330
B4
100
AcDbEntity
  8
001
370
     9
100
AcDbLine
 10
144.455759
 20
83.665482
 30
0.0
 11
144.455759
 21
63.901655
 31
0.0
  0
LINE
  5
B8
330
B4
100
AcDbEntity
  8
001
370
     9
100
AcDbLine
 10
126.855759
 20
78.308415
 30
0.0
 11
126.855759
 21
63.901655
 31
0.0
  0
LINE
  5
B9
330
B4
100
AcDbEntity
  8
001
370
     9
100
AcDbLine
 10
144.455759
 20
66.651655
 30
0.0
 11
126.855759
 21
66.651655
 31
0.0
  0
POLYLINE
  5
BA
330
B4
100
AcDbEntity
  8
001
370
     9
100
AcDb2dPolyline
 66
     1
 10
0.0
 20
0.0
 30
0.0
  0
VERTEX
  5
BC
330
BA
100
AcDbEntity
  8
001
370
     9
100
AcDbVertex
100
AcDb2dVertex
 10
145.955759
 20
66.249731
 30
0.0
  0
VERTEX
  5
BD
330
BA
100
AcDbEntity
  8
001
370
     9
100
AcDbVertex
100
AcDb2dVertex
 10
144.455759
 20
66.651655
 30
0.0
  0
VERTEX
  5
BE
330
BA
100
AcDbEntity
  8
001
370
     9
100
AcDbVertex
100
AcDb2dVertex
 10
145.955759
 20
67.053578
 30
0.0
  0
SEQEND
  5
BB
330
BA
100
AcDbEntity
  8
001
370
     9
  0
POLYLINE
  5
BF
330
B4
100
AcDbEntity
  8
001
370
     9
100
AcDb2dPolyline
 66
     1
 10
0.0
 20
0.0
 30
0.0
  0
VERTEX
  5
C1
330
BF
100
AcDbEntity
  8
001
370
     9
100
AcDbVertex
100
AcDb2dVertex
 10
125.355759
 20
67.053578
 30
0.0
  0
VERTEX
  5
C2
330
BF
100
AcDbEntity
  8
001
370
     9
100
AcDbVertex
100
AcDb2dVertex
 10
126.855759
 20
66.651655
 30
0.0
  0
VERTEX
  5
C3
330
BF
100
AcDbEntity
  8
001
370
     9
100
AcDbVertex
100
AcDb2dVertex
 10
125.355759
 20
66.249731
 30
0.0
  0
SEQEND
  5
C0
330
BF
100
AcDbEntity
  8
001
370
     9
  0
TEXT
  5
C4
330
B4
100
AcDbEntity
  8
001
370
    30
100
AcDbText
 10
99.355759
 20
67.651655
 30
0.0
 40
4.0
  1
（１７．６）
 41
0.833333
100
AcDbText
  0
POINT
  5
C5
330
B4
100
AcDbEntity
  8
001
370
     9
100
AcDbPoint
 10
144.455759
 20
83.665482
 30
0.0
  0
POINT
  5
C6
330
B4
100
AcDbEntity
  8
001
370
     9
100
AcDbPoint
 10
126.855759
 20
78.308415
 30
0.0
  0
POINT
  5
C7
330
B4
100
AcDbEntity
  8
001
370
     9
100
AcDbPoint
 10
126.855759
 20
66.651655
 30
0.0
  0
LINE
  5
C8
330
B4
100
AcDbEntity
  8
001
370
     9
100
AcDbLine
 10
144.455759
 20
66.651655
 30
0.0
 11
146.955759
 21
66.651655
 31
0.0
  0
LINE
  5
C9
330
B4
100
AcDbEntity
  8
001
370
     9
100
AcDbLine
 10
126.855759
 20
66.651655
 30
0.0
 11
96.355759
 21
66.651655
 31
0.0
  0
ENDBLK
  5
B6
330
B4
100
AcDbEntity
  8
0
100
AcDbBlockEnd
  0
BLOCK
  5
CB
330
CA
100
AcDbEntity
  8
0
100
AcDbBlockBegin
  2
*D6
 70
     1
 10
0.0
 20
0.0
 30
0.0
  3
*D6
  1

  0
LINE
  5
CD
330
CA
100
AcDbEntity
  8
001
370
     9
100
AcDbLine
 10
161.455759
 20
327.380583
 30
0.0
 11
161.455759
 21
295.259938
 31
0.0
  0
LINE
  5
CE
330
CA
100
AcDbEntity
  8
001
370
     9
100
AcDbLine
 10
126.855759
 20
319.38946
 30
0.0
 11
126.855759
 21
295.259938
 31
0.0
  0
LINE
  5
CF
330
CA
100
AcDbEntity
  8
001
370
     9
100
AcDbLine
 10
161.455759
 20
298.009938
 30
0.0
 11
126.855759
 21
298.009938
 31
0.0
  0
POLYLINE
  5
D0
330
CA
100
AcDbEntity
  8
001
370
     9
100
AcDb2dPolyline
 66
     1
 10
0.0
 20
0.0
 30
0.0
  0
VERTEX
  5
D2
330
D0
100
AcDbEntity
  8
001
370
     9
100
AcDbVertex
100
AcDb2dVertex
 10
159.955759
 20
298.411862
 30
0.0
  0
VERTEX
  5
D3
330
D0
100
AcDbEntity
  8
001
370
     9
100
AcDbVertex
100
AcDb2dVertex
 10
161.455759
 20
298.009938
 30
0.0
  0
VERTEX
  5
D4
330
D0
100
AcDbEntity
  8
001
370
     9
100
AcDbVertex
100
AcDb2dVertex
 10
159.955759
 20
297.608014
 30
0.0
  0
SEQEND
  5
D1
330
D0
100
AcDbEntity
  8
001
370
     9
  0
POLYLINE
  5
D5
330
CA
100
AcDbEntity
  8
001
370
     9
100
AcDb2dPolyline
 66
     1
 10
0.0
 20
0.0
 30
0.0
  0
VERTEX
  5
D7
330
D5
100
AcDbEntity
  8
001
370
     9
100
AcDbVertex
100
AcDb2dVertex
 10
128.355759
 20
297.608014
 30
0.0
  0
VERTEX
  5
D8
330
D5
100
AcDbEntity
  8
001
370
     9
100
AcDbVertex
100
AcDb2dVertex
 10
126.855759
 20
298.009938
 30
0.0
  0
VERTEX
  5
D9
330
D5
100
AcDbEntity
  8
001
370
     9
100
AcDbVertex
100
AcDb2dVertex
 10
128.355759
 20
298.411862
 30
0.0
  0
SEQEND
  5
D6
330
D5
100
AcDbEntity
  8
001
370
     9
  0
TEXT
  5
DA
330
CA
100
AcDbEntity
  8
001
370
    30
100
AcDbText
 10
136.155759
 20
299.009938
 30
0.0
 40
4.0
  1
３４．６
 41
0.833333
100
AcDbText
  0
POINT
  5
DB
330
CA
100
AcDbEntity
  8
001
370
     9
100
AcDbPoint
 10
161.455759
 20
327.380583
 30
0.0
  0
POINT
  5
DC
330
CA
100
AcDbEntity
  8
001
370
     9
100
AcDbPoint
 10
126.855759
 20
319.38946
 30
0.0
  0
POINT
  5
DD
330
CA
100
AcDbEntity
  8
001
370
     9
100
AcDbPoint
 10
126.855759
 20
298.009938
 30
0.0
  0
ENDBLK
  5
CC
330
CA
100
AcDbEntity
  8
0
100
AcDbBlockEnd
  0
BLOCK
  5
DF
330
DE
100
AcDbEntity
  8
0
100
AcDbBlockBegin
  2
*D7
 70
     1
 10
0.0
 20
0.0
 30
0.0
  3
*D7
  1

  0
LINE
  5
E1
330
DE
100
AcDbEntity
  8
001
370
     9
100
AcDbLine
 10
303.455759
 20
360.630583
 30
0.0
 11
340.367157
 21
360.630583
 31
0.0
  0
LINE
  5
E2
330
DE
100
AcDbEntity
  8
001
370
     9
100
AcDbLine
 10
303.455759
 20
328.630583
 30
0.0
 11
340.367157
 21
328.630583
 31
0.0
  0
LINE
  5
E3
330
DE
100
AcDbEntity
  8
001
370
     9
100
AcDbLine
 10
337.617157
 20
360.630583
 30
0.0
 11
337.617157
 21
328.630583
 31
0.0
  0
POLYLINE
  5
E4
330
DE
100
AcDbEntity
  8
001
370
     9
100
AcDb2dPolyline
 66
     1
 10
0.0
 20
0.0
 30
0.0
  0
VERTEX
  5
E6
330
E4
100
AcDbEntity
  8
001
370
     9
100
AcDbVertex
100
AcDb2dVertex
 10
337.215234
 20
359.130583
 30
0.0
  0
VERTEX
  5
E7
330
E4
100
AcDbEntity
  8
001
370
     9
100
AcDbVertex
100
AcDb2dVertex
 10
337.617157
 20
360.630583
 30
0.0
  0
VERTEX
  5
E8
330
E4
100
AcDbEntity
  8
001
370
     9
100
AcDbVertex
100
AcDb2dVertex
 10
338.019081
 20
359.130583
 30
0.0
  0
SEQEND
  5
E5
330
E4
100
AcDbEntity
  8
001
370
     9
  0
POLYLINE
  5
E9
330
DE
100
AcDbEntity
  8
001
370
     9
100
AcDb2dPolyline
 66
     1
 10
0.0
 20
0.0
 30
0.0
  0
VERTEX
  5
EB
330
E9
100
AcDbEntity
  8
001
370
     9
100
AcDbVertex
100
AcDb2dVertex
 10
338.019081
 20
330.130583
 30
0.0
  0
VERTEX
  5
EC
330
E9
100
AcDbEntity
  8
001
370
     9
100
AcDbVertex
100
AcDb2dVertex
 10
337.617157
 20
328.630583
 30
0.0
  0
VERTEX
  5
ED
330
E9
100
AcDbEntity
  8
001
370
     9
100
AcDbVertex
100
AcDb2dVertex
 10
337.215234
 20
330.130583
 30
0.0
  0
SEQEND
  5
EA
330
E9
100
AcDbEntity
  8
001
370
     9
  0
TEXT
  5
EE
330
DE
100
AcDbEntity
  8
001
370
    30
100
AcDbText
 10
336.617157
 20
338.630583
 30
0.0
 40
4.0
  1
%%c３２
 50
90.000003
 41
0.882353
100
AcDbText
  0
POINT
  5
EF
330
DE
100
AcDbEntity
  8
001
370
     9
100
AcDbPoint
 10
303.455759
 20
360.630583
 30
0.0
  0
POINT
  5
F0
330
DE
100
AcDbEntity
  8
001
370
     9
100
AcDbPoint
 10
303.455759
 20
328.630583
 30
0.0
  0
POINT
  5
F1
330
DE
100
AcDbEntity
  8
001
370
     9
100
AcDbPoint
 10
337.617157
 20
328.630583
 30
0.0
  0
ENDBLK
  5
E0
330
DE
100
AcDbEntity
  8
0
100
AcDbBlockEnd
  0
BLOCK
  5
F3
330
F2
100
AcDbEntity
  8
0
100
AcDbBlockBegin
  2
*D8
 70
     1
 10
0.0
 20
0.0
 30
0.0
  3
*D8
  1

  0
LINE
  5
F5
330
F2
100
AcDbEntity
  8
001
370
     9
100
AcDbLine
 10
144.455759
 20
324.746526
 30
0.0
 11
144.455759
 21
304.982699
 31
0.0
  0
LINE
  5
F6
330
F2
100
AcDbEntity
  8
001
370
     9
100
AcDbLine
 10
126.855759
 20
319.38946
 30
0.0
 11
126.855759
 21
304.982699
 31
0.0
  0
LINE
  5
F7
330
F2
100
AcDbEntity
  8
001
370
     9
100
AcDbLine
 10
144.455759
 20
307.732699
 30
0.0
 11
126.855759
 21
307.732699
 31
0.0
  0
POLYLINE
  5
F8
330
F2
100
AcDbEntity
  8
001
370
     9
100
AcDb2dPolyline
 66
     1
 10
0.0
 20
0.0
 30
0.0
  0
VERTEX
  5
FA
330
F8
100
AcDbEntity
  8
001
370
     9
100
AcDbVertex
100
AcDb2dVertex
 10
145.955759
 20
307.330776
 30
0.0
  0
VERTEX
  5
FB
330
F8
100
AcDbEntity
  8
001
370
     9
100
AcDbVertex
100
AcDb2dVertex
 10
144.455759
 20
307.732699
 30
0.0
  0
VERTEX
  5
FC
330
F8
100
AcDbEntity
  8
001
370
     9
100
AcDbVertex
100
AcDb2dVertex
 10
145.955759
 20
308.134623
 30
0.0
  0
SEQEND
  5
F9
330
F8
100
AcDbEntity
  8
001
370
     9
  0
POLYLINE
  5
FD
330
F2
100
AcDbEntity
  8
001
370
     9
100
AcDb2dPolyline
 66
     1
 10
0.0
 20
0.0
 30
0.0
  0
VERTEX
  5
FF
330
FD
100
AcDbEntity
  8
001
370
     9
100
AcDbVertex
100
AcDb2dVertex
 10
125.355759
 20
308.134623
 30
0.0
  0
VERTEX
  5
100
330
FD
100
AcDbEntity
  8
001
370
     9
100
AcDbVertex
100
AcDb2dVertex
 10
126.855759
 20
307.732699
 30
0.0
  0
VERTEX
  5
101
330
FD
100
AcDbEntity
  8
001
370
     9
100
AcDbVertex
100
AcDb2dVertex
 10
125.355759
 20
307.330776
 30
0.0
  0
SEQEND
  5
FE
330
FD
100
AcDbEntity
  8
001
370
     9
  0
TEXT
  5
102
330
F2
100
AcDbEntity
  8
001
370
    30
100
AcDbText
 10
99.355759
 20
308.732699
 30
0.0
 40
4.0
  1
（１７．６）
 41
0.833333
100
AcDbText
  0
POINT
  5
103
330
F2
100
AcDbEntity
  8
001
370
     9
100
AcDbPoint
 10
144.455759
 20
324.746526
 30
0.0
  0
POINT
  5
104
330
F2
100
AcDbEntity
  8
001
370
     9
100
AcDbPoint
 10
126.855759
 20
319.38946
 30
0.0
  0
POINT
  5
105
330
F2
100
AcDbEntity
  8
001
370
     9
100
AcDbPoint
 10
126.855759
 20
307.732699
 30
0.0
  0
LINE
  5
106
330
F2
100
AcDbEntity
  8
001
370
     9
100
AcDbLine
 10
144.455759
 20
307.732699
 30
0.0
 11
146.955759
 21
307.732699
 31
0.0
  0
LINE
  5
107
330
F2
100
AcDbEntity
  8
001
370
     9
100
AcDbLine
 10
126.855759
 20
307.732699
 30
0.0
 11
96.355759
 21
307.732699
 31
0.0
  0
ENDBLK
  5
F4
330
F2
100
AcDbEntity
  8
0
100
AcDbBlockEnd
  0
BLOCK
  5
109
330
108
100
AcDbEntity
  8
0
100
AcDbBlockBegin
  2
*D9
 70
     1
 10
0.0
 20
0.0
 30
0.0
  3
*D9
  1

  0
LINE
  5
10B
330
108
100
AcDbEntity
  8
001
370
     9
100
AcDbLine
 10
126.855759
 20
319.38946
 30
0.0
 11
126.855759
 21
286.632692
 31
0.0
  0
LINE
  5
10C
330
108
100
AcDbEntity
  8
001
370
     9
100
AcDbLine
 10
311.455759
 20
336.630583
 30
0.0
 11
311.455759
 21
286.632692
 31
0.0
  0
LINE
  5
10D
330
108
100
AcDbEntity
  8
001
370
     9
100
AcDbLine
 10
126.855759
 20
289.382692
 30
0.0
 11
311.455759
 21
289.382692
 31
0.0
  0
POLYLINE
  5
10E
330
108
100
AcDbEntity
  8
001
370
     9
100
AcDb2dPolyline
 66
     1
 10
0.0
 20
0.0
 30
0.0
  0
VERTEX
  5
110
330
10E
100
AcDbEntity
  8
001
370
     9
100
AcDbVertex
100
AcDb2dVertex
 10
128.355759
 20
288.980768
 30
0.0
  0
VERTEX
  5
111
330
10E
100
AcDbEntity
  8
001
370
     9
100
AcDbVertex
100
AcDb2dVertex
 10
126.855759
 20
289.382692
 30
0.0
  0
VERTEX
  5
112
330
10E
100
AcDbEntity
  8
001
370
     9
100
AcDbVertex
100
AcDb2dVertex
 10
128.355759
 20
289.784616
 30
0.0
  0
SEQEND
  5
10F
330
10E
100
AcDbEntity
  8
001
370
     9
  0
POLYLINE
  5
113
330
108
100
AcDbEntity
  8
001
370
     9
100
AcDb2dPolyline
 66
     1
 10
0.0
 20
0.0
 30
0.0
  0
VERTEX
  5
115
330
113
100
AcDbEntity
  8
001
370
     9
100
AcDbVertex
100
AcDb2dVertex
 10
309.955759
 20
289.784616
 30
0.0
  0
VERTEX
  5
116
330
113
100
AcDbEntity
  8
001
370
     9
100
AcDbVertex
100
AcDb2dVertex
 10
311.455759
 20
289.382692
 30
0.0
  0
VERTEX
  5
117
330
113
100
AcDbEntity
  8
001
370
     9
100
AcDbVertex
100
AcDb2dVertex
 10
309.955759
 20
288.980768
 30
0.0
  0
SEQEND
  5
114
330
113
100
AcDbEntity
  8
001
370
     9
  0
TEXT
  5
118
330
108
100
AcDbEntity
  8
001
370
    30
100
AcDbText
 10
209.155759
 20
290.382692
 30
0.0
 40
4.0
  1
１８４．６
 41
0.833333
100
AcDbText
  0
POINT
  5
119
330
108
100
AcDbEntity
  8
001
370
     9
100
AcDbPoint
 10
126.855759
 20
319.38946
 30
0.0
  0
POINT
  5
11A
330
108
100
AcDbEntity
  8
001
370
     9
100
AcDbPoint
 10
311.455759
 20
336.630583
 30
0.0
  0
POINT
  5
11B
330
108
100
AcDbEntity
  8
001
370
     9
100
AcDbPoint
 10
311.455759
 20
289.382692
 30
0.0
  0
ENDBLK
  5
10A
330
108
100
AcDbEntity
  8
0
100
AcDbBlockEnd
  0
BLOCK
  5
11D
330
11C
100
AcDbEntity
  8
0
100
AcDbBlockBegin
  2
*D10
 70
     1
 10
0.0
 20
0.0
 30
0.0
  3
*D10
  1

  0
LINE
  5
11F
330
11C
100
AcDbEntity
  8
001
370
     9
100
AcDbLine
 10
311.455759
 20
336.630583
 30
0.0
 11
311.455759
 21
295.259938
 31
0.0
  0
LINE
  5
120
330
11C
100
AcDbEntity
  8
001
370
     9
100
AcDbLine
 10
161.455759
 20
327.380583
 30
0.0
 11
161.455759
 21
295.259938
 31
0.0
  0
LINE
  5
121
330
11C
100
AcDbEntity
  8
001
370
     9
100
AcDbLine
 10
311.455759
 20
298.009938
 30
0.0
 11
161.455759
 21
298.009938
 31
0.0
  0
POLYLINE
  5
122
330
11C
100
AcDbEntity
  8
001
370
     9
100
AcDb2dPolyline
 66
     1
 10
0.0
 20
0.0
 30
0.0
  0
VERTEX
  5
124
330
122
100
AcDbEntity
  8
001
370
     9
100
AcDbVertex
100
AcDb2dVertex
 10
309.955759
 20
298.411862
 30
0.0
  0
VERTEX
  5
125
330
122
100
AcDbEntity
  8
001
370
     9
100
AcDbVertex
100
AcDb2dVertex
 10
311.455759
 20
298.009938
 30
0.0
  0
VERTEX
  5
126
330
122
100
AcDbEntity
  8
001
370
     9
100
AcDbVertex
100
AcDb2dVertex
 10
309.955759
 20
297.608014
 30
0.0
  0
SEQEND
  5
123
330
122
100
AcDbEntity
  8
001
370
     9
  0
POLYLINE
  5
127
330
11C
100
AcDbEntity
  8
001
370
     9
100
AcDb2dPolyline
 66
     1
 10
0.0
 20
0.0
 30
0.0
  0
VERTEX
  5
129
330
127
100
AcDbEntity
  8
001
370
     9
100
AcDbVertex
100
AcDb2dVertex
 10
162.955759
 20
297.608014
 30
0.0
  0
VERTEX
  5
12A
330
127
100
AcDbEntity
  8
001
370
     9
100
AcDbVertex
100
AcDb2dVertex
 10
161.455759
 20
298.009938
 30
0.0
  0
VERTEX
  5
12B
330
127
100
AcDbEntity
  8
001
370
     9
100
AcDbVertex
100
AcDb2dVertex
 10
162.955759
 20
298.411862
 30
0.0
  0
SEQEND
  5
128
330
127
100
AcDbEntity
  8
001
370
     9
  0
TEXT
  5
12C
330
11C
100
AcDbEntity
  8
001
370
    30
100
AcDbText
 10
230.455759
 20
299.009938
 30
0.0
 40
4.0
  1
１５０
 41
0.833333
100
AcDbText
  0
POINT
  5
12D
330
11C
100
AcDbEntity
  8
001
370
     9
100
AcDbPoint
 10
311.455759
 20
336.630583
 30
0.0
  0
POINT
  5
12E
330
11C
100
AcDbEntity
  8
001
370
     9
100
AcDbPoint
 10
161.455759
 20
327.380583
 30
0.0
  0
POINT
  5
12F
330
11C
100
AcDbEntity
  8
001
370
     9
100
AcDbPoint
 10
161.455759
 20
298.009938
 30
0.0
  0
ENDBLK
  5
11E
330
11C
100
AcDbEntity
  8
0
100
AcDbBlockEnd
  0
ENDSEC
  0
SECTION
  2
ENTITIES
  0
TEXT
  5
130
330
1F
100
AcDbEntity
  8
001
370
    30
100
AcDbText
 10
105.4626
 20
97.549538
 30
0.0
 40
4.0
  1
%%c４０
 50
90.000003
 41
0.882353
100
AcDbText
  0
POLYLINE
  5
131
330
1F
100
AcDbEntity
  8
001
370
     9
100
AcDb2dPolyline
 66
     1
 10
0.0
 20
0.0
 30
0.0
  0
VERTEX
  5
133
330
131
100
AcDbEntity
  8
001
370
     9
100
AcDbVertex
100
AcDb2dVertex
 10
106.864524
 20
85.099538
 30
0.0
  0
VERTEX
  5
134
330
131
100
AcDbEntity
  8
001
370
     9
100
AcDbVertex
100
AcDb2dVertex
 10
106.4626
 20
83.599538
 30
0.0
  0
VERTEX
  5
135
330
131
100
AcDbEntity
  8
001
370
     9
100
AcDbVertex
100
AcDb2dVertex
 10
106.060677
 20
85.099538
 30
0.0
  0
SEQEND
  5
132
330
131
100
AcDbEntity
  8
001
370
     9
  0
LINE
  5
136
330
1F
100
AcDbEntity
  8
001
370
     9
100
AcDbLine
 10
106.4626
 20
83.599538
 30
0.0
 11
106.4626
 21
123.499538
 31
0.0
  0
POLYLINE
  5
137
330
1F
100
AcDbEntity
  8
001
370
     9
100
AcDb2dPolyline
 66
     1
 10
0.0
 20
0.0
 30
0.0
  0
VERTEX
  5
139
330
137
100
AcDbEntity
  8
001
370
     9
100
AcDbVertex
100
AcDb2dVertex
 10
121.358254
 20
83.599538
 30
0.0
  0
VERTEX
  5
13A
330
137
100
AcDbEntity
  8
001
370
     9
100
AcDbVertex
100
AcDb2dVertex
 10
106.4626
 20
83.599538
 30
0.0
  0
VERTEX
  5
13B
330
137
100
AcDbEntity
  8
001
370
     9
100
AcDbVertex
100
AcDb2dVertex
 10
103.7126
 20
83.599538
 30
0.0
  0
SEQEND
  5
138
330
137
100
AcDbEntity
  8
001
370
     9
  0
DIMENSION
  5
13C
330
1F
100
AcDbEntity
  8
001
370
     9
100
AcDbDimension
  2
*D1
 10
126.855759
 20
56.928893
 30
0.0
 11
144.155759
 21
59.928893
 31
0.0
 70
   160
 71
     5
 42
-1.0
  3
Standard
100
AcDbAlignedDimension
 13
161.455759
 23
86.299538
 33
0.0
 14
126.855759
 24
78.308415
 34
0.0
 50
180.0
100
AcDbRotatedDimension
  0
DIMENSION
  5
13D
330
1F
100
AcDbEntity
  8
001
370
     9
100
AcDbDimension
  2
*D2
 10
161.455759
 20
56.928893
 30
0.0
 11
211.455759
 21
59.928893
 31
0.0
 70
   160
 71
     5
 42
-1.0
  3
Standard
100
AcDbAlignedDimension
 13
261.455759
 23
95.549538
 33
0.0
 14
161.455759
 24
86.299538
 34
0.0
 50
180.0
100
AcDbRotatedDimension
  0
DIMENSION
  5
13E
330
1F
100
AcDbEntity
  8
001
370
     9
100
AcDbDimension
  2
*D3
 10
261.455759
 20
48.301647
 30
0.0
 11
194.155759
 21
51.301647
 31
0.0
 70
   160
 71
     5
 42
-1.0
  3
Standard
100
AcDbAlignedDimension
 13
126.855759
 23
78.308415
 33
0.0
 14
261.455759
 24
95.549538
 34
0.0
100
AcDbRotatedDimension
  0
DIMENSION
  5
13F
330
1F
100
AcDbEntity
  8
001
370
     9
100
AcDbDimension
  2
*D4
 10
287.617157
 20
87.549538
 30
0.0
 11
284.617157
 21
103.549538
 31
0.0
 70
   160
 71
     5
 42
-1.0
  3
Standard
100
AcDbAlignedDimension
 13
253.455759
 23
119.549538
 33
0.0
 14
253.455759
 24
87.549538
 34
0.0
 50
270.0
100
AcDbRotatedDimension
  0
TEXT
  5
140
330
1F
100
AcDbEntity
  8
001
370
    30
100
AcDbText
 10
98.498088
 20
75.562373
 30
0.0
 40
4.0
  1
Ｒ１０
 41
0.833333
100
AcDbText
  0
POLYLINE
  5
141
330
1F
100
AcDbEntity
  8
001
370
     9
100
AcDb2dPolyline
 66
     1
 10
0.0
 20
0.0
 30
0.0
  0
VERTEX
  5
143
330
141
100
AcDbEntity
  8
001
370
     9
100
AcDbVertex
100
AcDb2dVertex
 10
127.54737
 20
86.834522
 30
0.0
  0
VERTEX
  5
144
330
141
100
AcDbEntity
  8
001
370
     9
100
AcDbVertex
100
AcDb2dVertex
 10
128.976729
 20
87.441544
 30
0.0
  0
VERTEX
  5
145
330
141
100
AcDbEntity
  8
001
370
     9
100
AcDbVertex
100
AcDb2dVertex
 10
128.042379
 20
86.201168
 30
0.0
  0
SEQEND
  5
142
330
141
100
AcDbEntity
  8
001
370
     9
  0
POLYLINE
  5
146
330
1F
100
AcDbEntity
  8
001
370
     9
100
AcDb2dPolyline
 66
     1
 10
0.0
 20
0.0
 30
0.0
  0
VERTEX
  5
148
330
146
100
AcDbEntity
  8
001
370
     9
100
AcDbVertex
100
AcDb2dVertex
 10
128.976729
 20
87.441544
 30
0.0
  0
VERTEX
  5
149
330
146
100
AcDbEntity
  8
001
370
     9
100
AcDbVertex
100
AcDb2dVertex
 10
112.498088
 20
74.562373
 30
0.0
  0
VERTEX
  5
14A
330
146
100
AcDbEntity
  8
001
370
     9
100
AcDbVertex
100
AcDb2dVertex
 10
96.498088
 20
74.562373
 30
0.0
  0
SEQEND
  5
147
330
146
100
AcDbEntity
  8
001
370
     9
  0
DIMENSION
  5
14B
330
1F
100
AcDbEntity
  8
001
370
     9
100
AcDbDimension
  2
*D5
 10
126.855759
 20
66.651655
 30
0.0
 11
111.355759
 21
69.651655
 31
0.0
 70
   160
 71
     5
 42
-1.0
  3
Standard
100
AcDbAlignedDimension
 13
144.455759
 23
83.665482
 33
0.0
 14
126.855759
 24
78.308415
 34
0.0
 50
180.0
100
AcDbRotatedDimension
  0
TEXT
  5
14C
330
1F
100
AcDbEntity
  8
001
370
    30
100
AcDbText
 10
105.4626
 20
338.630583
 30
0.0
 40
4.0
  1
%%c４０
 50
90.000003
 41
0.882353
100
AcDbText
  0
POLYLINE
  5
14D
330
1F
100
AcDbEntity
  8
001
370
     9
100
AcDb2dPolyline
 66
     1
 10
0.0
 20
0.0
 30
0.0
  0
VERTEX
  5
14F
330
14D
100
AcDbEntity
  8
001
370
     9
100
AcDbVertex
100
AcDb2dVertex
 10
106.864524
 20
326.180583
 30
0.0
  0
VERTEX
  5
150
330
14D
100
AcDbEntity
  8
001
370
     9
100
AcDbVertex
100
AcDb2dVertex
 10
106.4626
 20
324.680583
 30
0.0
  0
VERTEX
  5
151
330
14D
100
AcDbEntity
  8
001
370
     9
100
AcDbVertex
100
AcDb2dVertex
 10
106.060677
 20
326.180583
 30
0.0
  0
SEQEND
  5
14E
330
14D
100
AcDbEntity
  8
001
370
     9
  0
LINE
  5
152
330
1F
100
AcDbEntity
  8
001
370
     9
100
AcDbLine
 10
106.4626
 20
324.680583
 30
0.0
 11
106.4626
 21
364.580583
 31
0.0
  0
POLYLINE
  5
153
330
1F
100
AcDbEntity
  8
001
370
     9
100
AcDb2dPolyline
 66
     1
 10
0.0
 20
0.0
 30
0.0
  0
VERTEX
  5
155
330
153
100
AcDbEntity
  8
001
370
     9
100
AcDbVertex
100
AcDb2dVertex
 10
121.358254
 20
324.680583
 30
0.0
  0
VERTEX
  5
156
330
153
100
AcDbEntity
  8
001
370
     9
100
AcDbVertex
100
AcDb2dVertex
 10
106.4626
 20
324.680583
 30
0.0
  0
VERTEX
  5
157
330
153
100
AcDbEntity
  8
001
370
     9
100
AcDbVertex
100
AcDb2dVertex
 10
103.7126
 20
324.680583
 30
0.0
  0
SEQEND
  5
154
330
153
100
AcDbEntity
  8
001
370
     9
  0
DIMENSION
  5
158
330
1F
100
AcDbEntity
  8
001
370
     9
100
AcDbDimension
  2
*D6
 10
126.855759
 20
298.009938
 30
0.0
 11
144.155759
 21
301.009938
 31
0.0
 70
   160
 71
     5
 42
-1.0
  3
Standard
100
AcDbAlignedDimension
 13
161.455759
 23
327.380583
 33
0.0
 14
126.855759
 24
319.38946
 34
0.0
 50
180.0
100
AcDbRotatedDimension
  0
DIMENSION
  5
159
330
1F
100
AcDbEntity
  8
001
370
     9
100
AcDbDimension
  2
*D7
 10
337.617157
 20
328.630583
 30
0.0
 11
334.617157
 21
344.630583
 31
0.0
 70
   160
 71
     5
 42
-1.0
  3
Standard
100
AcDbAlignedDimension
 13
303.455759
 23
360.630583
 33
0.0
 14
303.455759
 24
328.630583
 34
0.0
 50
270.0
100
AcDbRotatedDimension
  0
TEXT
  5
15A
330
1F
100
AcDbEntity
  8
001
370
    30
100
AcDbText
 10
98.498088
 20
316.643418
 30
0.0
 40
4.0
  1
Ｒ１０
 41
0.833333
100
AcDbText
  0
POLYLINE
  5
15B
330
1F
100
AcDbEntity
  8
001
370
     9
100
AcDb2dPolyline
 66
     1
 10
0.0
 20
0.0
 30
0.0
  0
VERTEX
  5
15D
330
15B
100
AcDbEntity
  8
001
370
     9
100
AcDbVertex
100
AcDb2dVertex
 10
127.54737
 20
327.915567
 30
0.0
  0
VERTEX
  5
15E
330
15B
100
AcDbEntity
  8
001
370
     9
100
AcDbVertex
100
AcDb2dVertex
 10
128.976729
 20
328.522589
 30
0.0
  0
VERTEX
  5
15F
330
15B
100
AcDbEntity
  8
001
370
     9
100
AcDbVertex
100
AcDb2dVertex
 10
128.042379
 20
327.282213
 30
0.0
  0
SEQEND
  5
15C
330
15B
100
AcDbEntity
  8
001
370
     9
  0
POLYLINE
  5
160
330
1F
100
AcDbEntity
  8
001
370
     9
100
AcDb2dPolyline
 66
     1
 10
0.0
 20
0.0
 30
0.0
  0
VERTEX
  5
162
330
160
100
AcDbEntity
  8
001
370
     9
100
AcDbVertex
100
AcDb2dVertex
 10
128.976729
 20
328.522589
 30
0.0
  0
VERTEX
  5
163
330
160
100
AcDbEntity
  8
001
370
     9
100
AcDbVertex
100
AcDb2dVertex
 10
112.498088
 20
315.643418
 30
0.0
  0
VERTEX
  5
164
330
160
100
AcDbEntity
  8
001
370
     9
100
AcDbVertex
100
AcDb2dVertex
 10
96.498088
 20
315.643418
 30
0.0
  0
SEQEND
  5
161
330
160
100
AcDbEntity
  8
001
370
     9
  0
DIMENSION
  5
165
330
1F
100
AcDbEntity
  8
001
370
     9
100
AcDbDimension
  2
*D8
 10
126.855759
 20
307.732699
 30
0.0
 11
111.355759
 21
310.732699
 31
0.0
 70
   160
 71
     5
 42
-1.0
  3
Standard
100
AcDbAlignedDimension
 13
144.455759
 23
324.746526
 33
0.0
 14
126.855759
 24
319.38946
 34
0.0
 50
180.0
100
AcDbRotatedDimension
  0
DIMENSION
  5
166
330
1F
100
AcDbEntity
  8
001
370
     9
100
AcDbDimension
  2
*D9
 10
311.455759
 20
289.382692
 30
0.0
 11
219.155759
 21
292.382692
 31
0.0
 70
   160
 71
     5
 42
-1.0
  3
Standard
100
AcDbAlignedDimension
 13
126.855759
 23
319.38946
 33
0.0
 14
311.455759
 24
336.630583
 34
0.0
100
AcDbRotatedDimension
  0
DIMENSION
  5
167
330
1F
100
AcDbEntity
  8
001
370
     9
100
AcDbDimension
  2
*D10
 10
161.455759
 20
298.009938
 30
0.0
 11
236.455759
 21
301.009938
 31
0.0
 70
   160
 71
     5
 42
-1.0
  3
Standard
100
AcDbAlignedDimension
 13
311.455759
 23
336.630583
 33
0.0
 14
161.455759
 24
327.380583
 34
0.0
 50
180.0
100
AcDbRotatedDimension
  0
TEXT
  5
168
330
1F
100
AcDbEntity
  8
001
370
    30
100
AcDbText
 10
370.691471
 20
138.122566
 30
0.0
 40
4.0
  1
%%c４０
 50
90.000003
 41
0.882353
100
AcDbText
  0
POLYLINE
  5
169
330
1F
100
AcDbEntity
  8
001
370
     9
100
AcDb2dPolyline
 66
     1
 10
0.0
 20
0.0
 30
0.0
  0
VERTEX
  5
16B
330
169
100
AcDbEntity
  8
001
370
     9
100
AcDbVertex
100
AcDb2dVertex
 10
372.093394
 20
125.672566
 30
0.0
  0
VERTEX
  5
16C
330
169
100
AcDbEntity
  8
001
370
     9
100
AcDbVertex
100
AcDb2dVertex
 10
371.691471
 20
124.172566
 30
0.0
  0
VERTEX
  5
16D
330
169
100
AcDbEntity
  8
001
370
     9
100
AcDbVertex
100
AcDb2dVertex
 10
371.289547
 20
125.672566
 30
0.0
  0
SEQEND
  5
16A
330
169
100
AcDbEntity
  8
001
370
     9
  0
LINE
  5
16E
330
1F
100
AcDbEntity
  8
001
370
     9
100
AcDbLine
 10
371.691471
 20
124.172566
 30
0.0
 11
371.691471
 21
164.072566
 31
0.0
  0
POLYLINE
  5
16F
330
1F
100
AcDbEntity
  8
001
370
     9
100
AcDb2dPolyline
 66
     1
 10
0.0
 20
0.0
 30
0.0
  0
VERTEX
  5
171
330
16F
100
AcDbEntity
  8
001
370
     9
100
AcDbVertex
100
AcDb2dVertex
 10
386.587124
 20
124.172566
 30
0.0
  0
VERTEX
  5
172
330
16F
100
AcDbEntity
  8
001
370
     9
100
AcDbVertex
100
AcDb2dVertex
 10
371.691471
 20
124.172566
 30
0.0
  0
VERTEX
  5
173
330
16F
100
AcDbEntity
  8
001
370
     9
100
AcDbVertex
100
AcDb2dVertex
 10
368.941471
 20
124.172566
 30
0.0
  0
SEQEND
  5
170
330
16F
100
AcDbEntity
  8
001
370
     9
  0
TEXT
  5
174
330
1F
100
AcDbEntity
  8
001
370
    30
100
AcDbText
 10
371.782738
 20
221.402217
 30
0.0
 40
4.0
  1
%%c４０
 50
90.000003
 41
0.882353
100
AcDbText
  0
POLYLINE
  5
175
330
1F
100
AcDbEntity
  8
001
370
     9
100
AcDb2dPolyline
 66
     1
 10
0.0
 20
0.0
 30
0.0
  0
VERTEX
  5
177
330
175
100
AcDbEntity
  8
001
370
     9
100
AcDbVertex
100
AcDb2dVertex
 10
373.184661
 20
208.952217
 30
0.0
  0
VERTEX
  5
178
330
175
100
AcDbEntity
  8
001
370
     9
100
AcDbVertex
100
AcDb2dVertex
 10
372.782738
 20
207.452217
 30
0.0
  0
VERTEX
  5
179
330
175
100
AcDbEntity
  8
001
370
     9
100
AcDbVertex
100
AcDb2dVertex
 10
372.380814
 20
208.952217
 30
0.0
  0
SEQEND
  5
176
330
175
100
AcDbEntity
  8
001
370
     9
  0
LINE
  5
17A
330
1F
100
AcDbEntity
  8
001
370
     9
100
AcDbLine
 10
372.782738
 20
207.452217
 30
0.0
 11
372.782738
 21
247.352217
 31
0.0
  0
POLYLINE
  5
17B
330
1F
100
AcDbEntity
  8
001
370
     9
100
AcDb2dPolyline
 66
     1
 10
0.0
 20
0.0
 30
0.0
  0
VERTEX
  5
17D
330
17B
100
AcDbEntity
  8
001
370
     9
100
AcDbVertex
100
AcDb2dVertex
 10
387.678391
 20
207.452217
 30
0.0
  0
VERTEX
  5
17E
330
17B
100
AcDbEntity
  8
001
370
     9
100
AcDbVertex
100
AcDb2dVertex
 10
372.782738
 20
207.452217
 30
0.0
  0
VERTEX
  5
17F
330
17B
100
AcDbEntity
  8
001
370
     9
100
AcDbVertex
100
AcDb2dVertex
 10
370.032738
 20
207.452217
 30
0.0
  0
SEQEND
  5
17C
330
17B
100
AcDbEntity
  8
001
370
     9
  0
TEXT
  5
180
330
1F
100
AcDbEntity
  8
001
370
    30
100
AcDbText
 10
377.330542
 20
111.360772
 30
0.0
 40
4.0
  1
Ｒ８
 41
0.833333
100
AcDbText
  0
POLYLINE
  5
181
330
1F
100
AcDbEntity
  8
001
370
     9
100
AcDb2dPolyline
 66
     1
 10
0.0
 20
0.0
 30
0.0
  0
VERTEX
  5
183
330
181
100
AcDbEntity
  8
001
370
     9
100
AcDbVertex
100
AcDb2dVertex
 10
396.375974
 20
124.516219
 30
0.0
  0
VERTEX
  5
184
330
181
100
AcDbEntity
  8
001
370
     9
100
AcDbVertex
100
AcDb2dVertex
 10
397.547081
 20
125.536048
 30
0.0
  0
VERTEX
  5
185
330
181
100
AcDbEntity
  8
001
370
     9
100
AcDbVertex
100
AcDb2dVertex
 10
397.042787
 20
124.067297
 30
0.0
  0
SEQEND
  5
182
330
181
100
AcDbEntity
  8
001
370
     9
  0
POLYLINE
  5
186
330
1F
100
AcDbEntity
  8
001
370
     9
100
AcDb2dPolyline
 66
     1
 10
0.0
 20
0.0
 30
0.0
  0
VERTEX
  5
188
330
186
100
AcDbEntity
  8
001
370
     9
100
AcDbVertex
100
AcDb2dVertex
 10
397.547081
 20
125.536048
 30
0.0
  0
VERTEX
  5
189
330
186
100
AcDbEntity
  8
001
370
     9
100
AcDbVertex
100
AcDb2dVertex
 10
387.330542
 20
110.360772
 30
0.0
  0
VERTEX
  5
18A
330
186
100
AcDbEntity
  8
001
370
     9
100
AcDbVertex
100
AcDb2dVertex
 10
375.330542
 20
110.360772
 30
0.0
  0
SEQEND
  5
187
330
186
100
AcDbEntity
  8
001
370
     9
  0
TEXT
  5
18B
330
1F
100
AcDbEntity
  8
001
370
    30
100
AcDbText
 10
376.157646
 20
196.61132
 30
0.0
 40
4.0
  1
Ｒ９
 41
0.833333
100
AcDbText
  0
POLYLINE
  5
18C
330
1F
100
AcDbEntity
  8
001
370
     9
100
AcDb2dPolyline
 66
     1
 10
0.0
 20
0.0
 30
0.0
  0
VERTEX
  5
18E
330
18C
100
AcDbEntity
  8
001
370
     9
100
AcDbVertex
100
AcDb2dVertex
 10
396.162654
 20
208.557482
 30
0.0
  0
VERTEX
  5
18F
330
18C
100
AcDbEntity
  8
001
370
     9
100
AcDbVertex
100
AcDb2dVertex
 10
397.420659
 20
209.467957
 30
0.0
  0
VERTEX
  5
190
330
18C
100
AcDbEntity
  8
001
370
     9
100
AcDbVertex
100
AcDb2dVertex
 10
396.786432
 20
208.05046
 30
0.0
  0
SEQEND
  5
18D
330
18C
100
AcDbEntity
  8
001
370
     9
  0
POLYLINE
  5
191
330
1F
100
AcDbEntity
  8
001
370
     9
100
AcDb2dPolyline
 66
     1
 10
0.0
 20
0.0
 30
0.0
  0
VERTEX
  5
193
330
191
100
AcDbEntity
  8
001
370
     9
100
AcDbVertex
100
AcDb2dVertex
 10
397.420659
 20
209.467957
 30
0.0
  0
VERTEX
  5
194
330
191
100
AcDbEntity
  8
001
370
     9
100
AcDbVertex
100
AcDb2dVertex
 10
386.157646
 20
195.61132
 30
0.0
  0
VERTEX
  5
195
330
191
100
AcDbEntity
  8
001
370
     9
100
AcDbVertex
100
AcDb2dVertex
 10
374.157646
 20
195.61132
 30
0.0
  0
SEQEND
  5
192
330
191
100
AcDbEntity
  8
001
370
     9
  0
LINE
  5
196
330
1F
100
AcDbEntity
  8
001
370
    50
100
AcDbLine
 10
127.417107
 20
110.278074
 30
0.0
 11
127.244972
 21
112.534227
 31
0.0
  0
POLYLINE
  5
197
330
1F
100
AcDbEntity
  8
001
370
    50
100
AcDb2dPolyline
 66
     1
 10
0.0
 20
0.0
 30
0.0
  0
VERTEX
  5
199
330
197
100
AcDbEntity
  8
001
370
    50
100
AcDbVertex
100
AcDb2dVertex
 10
136.281508
 20
122.350146
 30
0.0
  0
VERTEX
  5
19A
330
197
100
AcDbEntity
  8
001
370
    50
100
AcDbVertex
100
AcDb2dVertex
 10
135.586836
 20
122.318486
 30
0.0
  0
VERTEX
  5
19B
330
197
100
AcDbEntity
  8
001
370
    50
100
AcDbVertex
100
AcDb2dVertex
 10
134.636129
 20
122.212556
 30
0.0
  0
VERTEX
  5
19C
330
197
100
AcDbEntity
  8
001
370
    50
100
AcDbVertex
100
AcDb2dVertex
 10
133.794256
 20
122.029422
 30
0.0
  0
VERTEX
  5
19D
330
197
100
AcDbEntity
  8
001
370
    50
100
AcDbVertex
100
AcDb2dVertex
 10
133.043416
 20
121.771229
 30
0.0
  0
VERTEX
  5
19E
330
197
100
AcDbEntity
  8
001
370
    50
100
AcDbVertex
100
AcDb2dVertex
 10
132.292842
 20
121.440569
 30
0.0
  0
VERTEX
  5
19F
330
197
100
AcDbEntity
  8
001
370
    50
100
AcDbVertex
100
AcDb2dVertex
 10
131.557273
 20
121.041103
 30
0.0
  0
VERTEX
  5
1A0
330
197
100
AcDbEntity
  8
001
370
    50
100
AcDbVertex
100
AcDb2dVertex
 10
130.867081
 20
120.574949
 30
0.0
  0
VERTEX
  5
1A1
330
197
100
AcDbEntity
  8
001
370
    50
100
AcDbVertex
100
AcDb2dVertex
 10
130.227997
 20
120.046887
 30
0.0
  0
VERTEX
  5
1A2
330
197
100
AcDbEntity
  8
001
370
    50
100
AcDbVertex
100
AcDb2dVertex
 10
129.636856
 20
119.45981
 30
0.0
  0
VERTEX
  5
1A3
330
197
100
AcDbEntity
  8
001
370
    50
100
AcDbVertex
100
AcDb2dVertex
 10
129.100579
 20
118.822231
 30
0.0
  0
VERTEX
  5
1A4
330
197
100
AcDbEntity
  8
001
370
    50
100
AcDbVertex
100
AcDb2dVertex
 10
128.624157
 20
118.13825
 30
0.0
  0
VERTEX
  5
1A5
330
197
100
AcDbEntity
  8
001
370
    50
100
AcDbVertex
100
AcDb2dVertex
 10
128.213174
 20
117.408582
 30
0.0
  0
VERTEX
  5
1A6
330
197
100
AcDbEntity
  8
001
370
    50
100
AcDbVertex
100
AcDb2dVertex
 10
127.869857
 20
116.635742
 30
0.0
  0
VERTEX
  5
1A7
330
197
100
AcDbEntity
  8
001
370
    50
100
AcDbVertex
100
AcDb2dVertex
 10
127.595816
 20
115.853785
 30
0.0
  0
VERTEX
  5
1A8
330
197
100
AcDbEntity
  8
001
370
    50
100
AcDbVertex
100
AcDb2dVertex
 10
127.392567
 20
115.075088
 30
0.0
  0
VERTEX
  5
1A9
330
197
100
AcDbEntity
  8
001
370
    50
100
AcDbVertex
100
AcDb2dVertex
 10
127.2694
 20
114.210461
 30
0.0
  0
VERTEX
  5
1AA
330
197
100
AcDbEntity
  8
001
370
    50
100
AcDbVertex
100
AcDb2dVertex
 10
127.229304
 20
113.240079
 30
0.0
  0
VERTEX
  5
1AB
330
197
100
AcDbEntity
  8
001
370
    50
100
AcDbVertex
100
AcDb2dVertex
 10
127.244972
 20
112.534227
 30
0.0
  0
SEQEND
  5
198
330
197
100
AcDbEntity
  8
001
370
    50
  0
LINE
  5
1AC
330
1F
100
AcDbEntity
  8
001
370
    50
100
AcDbLine
 10
136.281508
 20
122.350146
 30
0.0
 11
143.217267
 21
122.280079
 31
0.0
  0
POLYLINE
  5
1AD
330
1F
100
AcDbEntity
  8
001
370
    50
100
AcDb2dPolyline
 66
     1
 10
0.0
 20
0.0
 30
0.0
  0
VERTEX
  5
1AF
330
1AD
100
AcDbEntity
  8
001
370
    50
100
AcDbVertex
100
AcDb2dVertex
 10
154.516591
 20
84.299823
 30
0.0
  0
VERTEX
  5
1B0
330
1AD
100
AcDbEntity
  8
001
370
    50
100
AcDbVertex
100
AcDb2dVertex
 10
154.52034
 20
84.299721
 30
0.0
  0
VERTEX
  5
1B1
330
1AD
100
AcDbEntity
  8
001
370
    50
100
AcDbVertex
100
AcDb2dVertex
 10
154.525821
 20
84.299609
 30
0.0
  0
VERTEX
  5
1B2
330
1AD
100
AcDbEntity
  8
001
370
    50
100
AcDbVertex
100
AcDb2dVertex
 10
154.5313
 20
84.299552
 30
0.0
  0
VERTEX
  5
1B3
330
1AD
100
AcDbEntity
  8
001
370
    50
100
AcDbVertex
100
AcDb2dVertex
 10
154.53505
 20
84.299538
 30
0.0
  0
SEQEND
  5
1AE
330
1AD
100
AcDbEntity
  8
001
370
    50
  0
POLYLINE
  5
1B4
330
1F
100
AcDbEntity
  8
001
370
    50
100
AcDb2dPolyline
 66
     1
 10
0.0
 20
0.0
 30
0.0
  0
VERTEX
  5
1B6
330
1B4
100
AcDbEntity
  8
001
370
    50
100
AcDbVertex
100
AcDb2dVertex
 10
154.53505
 20
122.799538
 30
0.0
  0
VERTEX
  5
1B7
330
1B4
100
AcDbEntity
  8
001
370
    50
100
AcDbVertex
100
AcDb2dVertex
 10
154.5313
 20
122.799525
 30
0.0
  0
VERTEX
  5
1B8
330
1B4
100
AcDbEntity
  8
001
370
    50
100
AcDbVertex
100
AcDb2dVertex
 10
154.525821
 20
122.799467
 30
0.0
  0
VERTEX
  5
1B9
330
1B4
100
AcDbEntity
  8
001
370
    50
100
AcDbVertex
100
AcDb2dVertex
 10
154.52034
 20
122.799356
 30
0.0
  0
VERTEX
  5
1BA
330
1B4
100
AcDbEntity
  8
001
370
    50
100
AcDbVertex
100
AcDb2dVertex
 10
154.516591
 20
122.799254
 30
0.0
  0
SEQEND
  5
1B5
330
1B4
100
AcDbEntity
  8
001
370
    50
  0
LINE
  5
1BB
330
1F
100
AcDbEntity
  8
001
370
    50
100
AcDbLine
 10
159.455759
 20
122.799538
 30
0.0
 11
154.53505
 21
122.799538
 31
0.0
  0
LINE
  5
1BC
330
1F
100
AcDbEntity
  8
001
370
    50
100
AcDbLine
 10
154.53505
 20
84.299538
 30
0.0
 11
159.455759
 21
84.299538
 31
0.0
  0
POLYLINE
  5
1BD
330
1F
100
AcDbEntity
  8
001
370
    50
100
AcDb2dPolyline
 66
     1
 10
0.0
 20
0.0
 30
0.0
  0
VERTEX
  5
1BF
330
1BD
100
AcDbEntity
  8
001
370
    50
100
AcDbVertex
100
AcDb2dVertex
 10
146.149989
 20
84.372612
 30
0.0
  0
VERTEX
  5
1C0
330
1BD
100
AcDbEntity
  8
001
370
    50
100
AcDbVertex
100
AcDb2dVertex
 10
147.144773
 20
84.388857
 30
0.0
  0
VERTEX
  5
1C1
330
1BD
100
AcDbEntity
  8
001
370
    50
100
AcDbVertex
100
AcDb2dVertex
 10
148.598642
 20
84.415248
 30
0.0
  0
VERTEX
  5
1C2
330
1BD
100
AcDbEntity
  8
001
370
    50
100
AcDbVertex
100
AcDb2dVertex
 10
150.048947
 20
84.445259
 30
0.0
  0
VERTEX
  5
1C3
330
1BD
100
AcDbEntity
  8
001
370
    50
100
AcDbVertex
100
AcDb2dVertex
 10
151.041223
 20
84.467604
 30
0.0
  0
SEQEND
  5
1BE
330
1BD
100
AcDbEntity
  8
001
370
    50
  0
POLYLINE
  5
1C4
330
1F
100
AcDbEntity
  8
001
370
    50
100
AcDb2dPolyline
 66
     1
 10
0.0
 20
0.0
 30
0.0
  0
VERTEX
  5
1C6
330
1C4
100
AcDbEntity
  8
001
370
    50
100
AcDbVertex
100
AcDb2dVertex
 10
151.041223
 20
84.467604
 30
0.0
  0
VERTEX
  5
1C7
330
1C4
100
AcDbEntity
  8
001
370
    50
100
AcDbVertex
100
AcDb2dVertex
 10
151.291017
 20
84.471484
 30
0.0
  0
VERTEX
  5
1C8
330
1C4
100
AcDbEntity
  8
001
370
    50
100
AcDbVertex
100
AcDb2dVertex
 10
151.540821
 20
84.473624
 30
0.0
  0
VERTEX
  5
1C9
330
1C4
100
AcDbEntity
  8
001
370
    50
100
AcDbVertex
100
AcDb2dVertex
 10
151.790933
 20
84.472638
 30
0.0
  0
VERTEX
  5
1CA
330
1C4
100
AcDbEntity
  8
001
370
    50
100
AcDbVertex
100
AcDb2dVertex
 10
152.041021
 20
84.468552
 30
0.0
  0
VERTEX
  5
1CB
330
1C4
100
AcDbEntity
  8
001
370
    50
100
AcDbVertex
100
AcDb2dVertex
 10
152.284277
 20
84.461912
 30
0.0
  0
VERTEX
  5
1CC
330
1C4
100
AcDbEntity
  8
001
370
    50
100
AcDbVertex
100
AcDb2dVertex
 10
152.527447
 20
84.452722
 30
0.0
  0
VERTEX
  5
1CD
330
1C4
100
AcDbEntity
  8
001
370
    50
100
AcDbVertex
100
AcDb2dVertex
 10
152.757193
 20
84.441704
 30
0.0
  0
VERTEX
  5
1CE
330
1C4
100
AcDbEntity
  8
001
370
    50
100
AcDbVertex
100
AcDb2dVertex
 10
152.986819
 20
84.428429
 30
0.0
  0
VERTEX
  5
1CF
330
1C4
100
AcDbEntity
  8
001
370
    50
100
AcDbVertex
100
AcDb2dVertex
 10
153.197191
 20
84.414304
 30
0.0
  0
VERTEX
  5
1D0
330
1C4
100
AcDbEntity
  8
001
370
    50
100
AcDbVertex
100
AcDb2dVertex
 10
153.407439
 20
84.398439
 30
0.0
  0
VERTEX
  5
1D1
330
1C4
100
AcDbEntity
  8
001
370
    50
100
AcDbVertex
100
AcDb2dVertex
 10
153.59204
 20
84.383183
 30
0.0
  0
VERTEX
  5
1D2
330
1C4
100
AcDbEntity
  8
001
370
    50
100
AcDbVertex
100
AcDb2dVertex
 10
153.776544
 20
84.366794
 30
0.0
  0
VERTEX
  5
1D3
330
1C4
100
AcDbEntity
  8
001
370
    50
100
AcDbVertex
100
AcDb2dVertex
 10
153.930862
 20
84.352318
 30
0.0
  0
VERTEX
  5
1D4
330
1C4
100
AcDbEntity
  8
001
370
    50
100
AcDbVertex
100
AcDb2dVertex
 10
154.085139
 20
84.337427
 30
0.0
  0
VERTEX
  5
1D5
330
1C4
100
AcDbEntity
  8
001
370
    50
100
AcDbVertex
100
AcDb2dVertex
 10
154.203803
 20
84.325895
 30
0.0
  0
VERTEX
  5
1D6
330
1C4
100
AcDbEntity
  8
001
370
    50
100
AcDbVertex
100
AcDb2dVertex
 10
154.322487
 20
84.314497
 30
0.0
  0
VERTEX
  5
1D7
330
1C4
100
AcDbEntity
  8
001
370
    50
100
AcDbVertex
100
AcDb2dVertex
 10
154.380274
 20
84.309157
 30
0.0
  0
VERTEX
  5
1D8
330
1C4
100
AcDbEntity
  8
001
370
    50
100
AcDbVertex
100
AcDb2dVertex
 10
154.438115
 20
84.304523
 30
0.0
  0
VERTEX
  5
1D9
330
1C4
100
AcDbEntity
  8
001
370
    50
100
AcDbVertex
100
AcDb2dVertex
 10
154.477342
 20
84.30202
 30
0.0
  0
VERTEX
  5
1DA
330
1C4
100
AcDbEntity
  8
001
370
    50
100
AcDbVertex
100
AcDb2dVertex
 10
154.516591
 20
84.299823
 30
0.0
  0
SEQEND
  5
1C5
330
1C4
100
AcDbEntity
  8
001
370
    50
  0
POLYLINE
  5
1DB
330
1F
100
AcDbEntity
  8
001
370
    50
100
AcDb2dPolyline
 66
     1
 10
0.0
 20
0.0
 30
0.0
  0
VERTEX
  5
1DD
330
1DB
100
AcDbEntity
  8
001
370
    50
100
AcDbVertex
100
AcDb2dVertex
 10
154.53505
 20
84.299538
 30
0.0
  0
VERTEX
  5
1DE
330
1DB
100
AcDbEntity
  8
001
370
    50
100
AcDbVertex
100
AcDb2dVertex
 10
154.803247
 20
84.392201
 30
0.0
  0
VERTEX
  5
1DF
330
1DB
100
AcDbEntity
  8
001
370
    50
100
AcDbVertex
100
AcDb2dVertex
 10
155.141222
 20
84.608993
 30
0.0
  0
VERTEX
  5
1E0
330
1DB
100
AcDbEntity
  8
001
370
    50
100
AcDbVertex
100
AcDb2dVertex
 10
155.509765
 20
85.042671
 30
0.0
  0
VERTEX
  5
1E1
330
1DB
100
AcDbEntity
  8
001
370
    50
100
AcDbVertex
100
AcDb2dVertex
 10
155.727904
 20
85.527409
 30
0.0
  0
VERTEX
  5
1E2
330
1DB
100
AcDbEntity
  8
001
370
    50
100
AcDbVertex
100
AcDb2dVertex
 10
156.013888
 20
86.273392
 30
0.0
  0
VERTEX
  5
1E3
330
1DB
100
AcDbEntity
  8
001
370
    50
100
AcDbVertex
100
AcDb2dVertex
 10
156.276234
 20
87.025257
 30
0.0
  0
VERTEX
  5
1E4
330
1DB
100
AcDbEntity
  8
001
370
    50
100
AcDbVertex
100
AcDb2dVertex
 10
156.545864
 20
87.995829
 30
0.0
  0
VERTEX
  5
1E5
330
1DB
100
AcDbEntity
  8
001
370
    50
100
AcDbVertex
100
AcDb2dVertex
 10
156.768584
 20
89.054379
 30
0.0
  0
VERTEX
  5
1E6
330
1DB
100
AcDbEntity
  8
001
370
    50
100
AcDbVertex
100
AcDb2dVertex
 10
157.022917
 20
90.493349
 30
0.0
  0
VERTEX
  5
1E7
330
1DB
100
AcDbEntity
  8
001
370
    50
100
AcDbVertex
100
AcDb2dVertex
 10
157.189123
 20
91.549538
 30
0.0
  0
SEQEND
  5
1DC
330
1DB
100
AcDbEntity
  8
001
370
    50
  0
POLYLINE
  5
1E8
330
1F
100
AcDbEntity
  8
001
370
    50
100
AcDb2dPolyline
 66
     1
 10
0.0
 20
0.0
 30
0.0
  0
VERTEX
  5
1EA
330
1E8
100
AcDbEntity
  8
001
370
    50
100
AcDbVertex
100
AcDb2dVertex
 10
147.756709
 20
101.549538
 30
0.0
  0
VERTEX
  5
1EB
330
1E8
100
AcDbEntity
  8
001
370
    50
100
AcDbVertex
100
AcDb2dVertex
 10
148.175341
 20
101.537669
 30
0.0
  0
VERTEX
  5
1EC
330
1E8
100
AcDbEntity
  8
001
370
    50
100
AcDbVertex
100
AcDb2dVertex
 10
148.59327
 20
101.51499
 30
0.0
  0
VERTEX
  5
1ED
330
1E8
100
AcDbEntity
  8
001
370
    50
100
AcDbVertex
100
AcDb2dVertex
 10
149.011196
 20
101.472831
 30
0.0
  0
VERTEX
  5
1EE
330
1E8
100
AcDbEntity
  8
001
370
    50
100
AcDbVertex
100
AcDb2dVertex
 10
149.427025
 20
101.411995
 30
0.0
  0
VERTEX
  5
1EF
330
1E8
100
AcDbEntity
  8
001
370
    50
100
AcDbVertex
100
AcDb2dVertex
 10
149.839941
 20
101.334948
 30
0.0
  0
VERTEX
  5
1F0
330
1E8
100
AcDbEntity
  8
001
370
    50
100
AcDbVertex
100
AcDb2dVertex
 10
150.24937
 20
101.241524
 30
0.0
  0
VERTEX
  5
1F1
330
1E8
100
AcDbEntity
  8
001
370
    50
100
AcDbVertex
100
AcDb2dVertex
 10
150.65303
 20
101.131527
 30
0.0
  0
VERTEX
  5
1F2
330
1E8
100
AcDbEntity
  8
001
370
    50
100
AcDbVertex
100
AcDb2dVertex
 10
151.051702
 20
101.00455
 30
0.0
  0
VERTEX
  5
1F3
330
1E8
100
AcDbEntity
  8
001
370
    50
100
AcDbVertex
100
AcDb2dVertex
 10
151.445285
 20
100.860437
 30
0.0
  0
VERTEX
  5
1F4
330
1E8
100
AcDbEntity
  8
001
370
    50
100
AcDbVertex
100
AcDb2dVertex
 10
151.832385
 20
100.699727
 30
0.0
  0
VERTEX
  5
1F5
330
1E8
100
AcDbEntity
  8
001
370
    50
100
AcDbVertex
100
AcDb2dVertex
 10
152.213387
 20
100.522278
 30
0.0
  0
VERTEX
  5
1F6
330
1E8
100
AcDbEntity
  8
001
370
    50
100
AcDbVertex
100
AcDb2dVertex
 10
152.586529
 20
100.328845
 30
0.0
  0
VERTEX
  5
1F7
330
1E8
100
AcDbEntity
  8
001
370
    50
100
AcDbVertex
100
AcDb2dVertex
 10
152.950296
 20
100.120216
 30
0.0
  0
VERTEX
  5
1F8
330
1E8
100
AcDbEntity
  8
001
370
    50
100
AcDbVertex
100
AcDb2dVertex
 10
153.304778
 20
99.896165
 30
0.0
  0
VERTEX
  5
1F9
330
1E8
100
AcDbEntity
  8
001
370
    50
100
AcDbVertex
100
AcDb2dVertex
 10
153.64676
 20
99.658571
 30
0.0
  0
VERTEX
  5
1FA
330
1E8
100
AcDbEntity
  8
001
370
    50
100
AcDbVertex
100
AcDb2dVertex
 10
153.977776
 20
99.405952
 30
0.0
  0
VERTEX
  5
1FB
330
1E8
100
AcDbEntity
  8
001
370
    50
100
AcDbVertex
100
AcDb2dVertex
 10
154.280307
 20
99.152955
 30
0.0
  0
VERTEX
  5
1FC
330
1E8
100
AcDbEntity
  8
001
370
    50
100
AcDbVertex
100
AcDb2dVertex
 10
154.571631
 20
98.887123
 30
0.0
  0
VERTEX
  5
1FD
330
1E8
100
AcDbEntity
  8
001
370
    50
100
AcDbVertex
100
AcDb2dVertex
 10
154.850802
 20
98.609579
 30
0.0
  0
VERTEX
  5
1FE
330
1E8
100
AcDbEntity
  8
001
370
    50
100
AcDbVertex
100
AcDb2dVertex
 10
155.117879
 20
98.32038
 30
0.0
  0
VERTEX
  5
1FF
330
1E8
100
AcDbEntity
  8
001
370
    50
100
AcDbVertex
100
AcDb2dVertex
 10
155.370189
 20
98.022657
 30
0.0
  0
VERTEX
  5
200
330
1E8
100
AcDbEntity
  8
001
370
    50
100
AcDbVertex
100
AcDb2dVertex
 10
155.609421
 20
97.714329
 30
0.0
  0
VERTEX
  5
201
330
1E8
100
AcDbEntity
  8
001
370
    50
100
AcDbVertex
100
AcDb2dVertex
 10
155.831429
 20
97.40077
 30
0.0
  0
VERTEX
  5
202
330
1E8
100
AcDbEntity
  8
001
370
    50
100
AcDbVertex
100
AcDb2dVertex
 10
156.039159
 20
97.077575
 30
0.0
  0
VERTEX
  5
203
330
1E8
100
AcDbEntity
  8
001
370
    50
100
AcDbVertex
100
AcDb2dVertex
 10
156.265384
 20
96.683449
 30
0.0
  0
VERTEX
  5
204
330
1E8
100
AcDbEntity
  8
001
370
    50
100
AcDbVertex
100
AcDb2dVertex
 10
156.470134
 20
96.277703
 30
0.0
  0
VERTEX
  5
205
330
1E8
100
AcDbEntity
  8
001
370
    50
100
AcDbVertex
100
AcDb2dVertex
 10
156.650039
 20
95.869213
 30
0.0
  0
VERTEX
  5
206
330
1E8
100
AcDbEntity
  8
001
370
    50
100
AcDbVertex
100
AcDb2dVertex
 10
156.808382
 20
95.451909
 30
0.0
  0
VERTEX
  5
207
330
1E8
100
AcDbEntity
  8
001
370
    50
100
AcDbVertex
100
AcDb2dVertex
 10
156.940934
 20
95.038953
 30
0.0
  0
VERTEX
  5
208
330
1E8
100
AcDbEntity
  8
001
370
    50
100
AcDbVertex
100
AcDb2dVertex
 10
157.051646
 20
94.619623
 30
0.0
  0
VERTEX
  5
209
330
1E8
100
AcDbEntity
  8
001
370
    50
100
AcDbVertex
100
AcDb2dVertex
 10
157.136146
 20
94.215035
 30
0.0
  0
VERTEX
  5
20A
330
1E8
100
AcDbEntity
  8
001
370
    50
100
AcDbVertex
100
AcDb2dVertex
 10
157.200027
 20
93.806713
 30
0.0
  0
VERTEX
  5
20B
330
1E8
100
AcDbEntity
  8
001
370
    50
100
AcDbVertex
100
AcDb2dVertex
 10
157.242497
 20
93.407305
 30
0.0
  0
VERTEX
  5
20C
330
1E8
100
AcDbEntity
  8
001
370
    50
100
AcDbVertex
100
AcDb2dVertex
 10
157.266224
 20
93.006254
 30
0.0
  0
VERTEX
  5
20D
330
1E8
100
AcDbEntity
  8
001
370
    50
100
AcDbVertex
100
AcDb2dVertex
 10
157.271437
 20
92.618151
 30
0.0
  0
VERTEX
  5
20E
330
1E8
100
AcDbEntity
  8
001
370
    50
100
AcDbVertex
100
AcDb2dVertex
 10
157.256987
 20
92.230507
 30
0.0
  0
VERTEX
  5
20F
330
1E8
100
AcDbEntity
  8
001
370
    50
100
AcDbVertex
100
AcDb2dVertex
 10
157.227434
 20
91.88969
 30
0.0
  0
VERTEX
  5
210
330
1E8
100
AcDbEntity
  8
001
370
    50
100
AcDbVertex
100
AcDb2dVertex
 10
157.189123
 20
91.549538
 30
0.0
  0
SEQEND
  5
1E9
330
1E8
100
AcDbEntity
  8
001
370
    50
  0
LINE
  5
211
330
1F
100
AcDbEntity
  8
001
370
    50
100
AcDbLine
 10
146.149989
 20
122.726464
 30
0.0
 11
146.149989
 21
101.549538
 31
0.0
  0
POLYLINE
  5
212
330
1F
100
AcDbEntity
  8
001
370
    50
100
AcDb2dPolyline
 66
     1
 10
0.0
 20
0.0
 30
0.0
  0
VERTEX
  5
214
330
212
100
AcDbEntity
  8
001
370
    50
100
AcDbVertex
100
AcDb2dVertex
 10
151.041223
 20
122.631472
 30
0.0
  0
VERTEX
  5
215
330
212
100
AcDbEntity
  8
001
370
    50
100
AcDbVertex
100
AcDb2dVertex
 10
150.048947
 20
122.653817
 30
0.0
  0
VERTEX
  5
216
330
212
100
AcDbEntity
  8
001
370
    50
100
AcDbVertex
100
AcDb2dVertex
 10
148.598642
 20
122.683828
 30
0.0
  0
VERTEX
  5
217
330
212
100
AcDbEntity
  8
001
370
    50
100
AcDbVertex
100
AcDb2dVertex
 10
147.144773
 20
122.71022
 30
0.0
  0
VERTEX
  5
218
330
212
100
AcDbEntity
  8
001
370
    50
100
AcDbVertex
100
AcDb2dVertex
 10
146.149989
 20
122.726464
 30
0.0
  0
SEQEND
  5
213
330
212
100
AcDbEntity
  8
001
370
    50
  0
POLYLINE
  5
219
330
1F
100
AcDbEntity
  8
001
370
    50
100
AcDb2dPolyline
 66
     1
 10
0.0
 20
0.0
 30
0.0
  0
VERTEX
  5
21B
330
219
100
AcDbEntity
  8
001
370
    50
100
AcDbVertex
100
AcDb2dVertex
 10
151.041223
 20
122.631472
 30
0.0
  0
VERTEX
  5
21C
330
219
100
AcDbEntity
  8
001
370
    50
100
AcDbVertex
100
AcDb2dVertex
 10
151.291017
 20
122.627593
 30
0.0
  0
VERTEX
  5
21D
330
219
100
AcDbEntity
  8
001
370
    50
100
AcDbVertex
100
AcDb2dVertex
 10
151.540821
 20
122.625452
 30
0.0
  0
VERTEX
  5
21E
330
219
100
AcDbEntity
  8
001
370
    50
100
AcDbVertex
100
AcDb2dVertex
 10
151.790933
 20
122.626439
 30
0.0
  0
VERTEX
  5
21F
330
219
100
AcDbEntity
  8
001
370
    50
100
AcDbVertex
100
AcDb2dVertex
 10
152.041021
 20
122.630525
 30
0.0
  0
VERTEX
  5
220
330
219
100
AcDbEntity
  8
001
370
    50
100
AcDbVertex
100
AcDb2dVertex
 10
152.284277
 20
122.637165
 30
0.0
  0
VERTEX
  5
221
330
219
100
AcDbEntity
  8
001
370
    50
100
AcDbVertex
100
AcDb2dVertex
 10
152.527447
 20
122.646355
 30
0.0
  0
VERTEX
  5
222
330
219
100
AcDbEntity
  8
001
370
    50
100
AcDbVertex
100
AcDb2dVertex
 10
152.757193
 20
122.657372
 30
0.0
  0
VERTEX
  5
223
330
219
100
AcDbEntity
  8
001
370
    50
100
AcDbVertex
100
AcDb2dVertex
 10
152.986819
 20
122.670648
 30
0.0
  0
VERTEX
  5
224
330
219
100
AcDbEntity
  8
001
370
    50
100
AcDbVertex
100
AcDb2dVertex
 10
153.197191
 20
122.684772
 30
0.0
  0
VERTEX
  5
225
330
219
100
AcDbEntity
  8
001
370
    50
100
AcDbVertex
100
AcDb2dVertex
 10
153.407439
 20
122.700638
 30
0.0
  0
VERTEX
  5
226
330
219
100
AcDbEntity
  8
001
370
    50
100
AcDbVertex
100
AcDb2dVertex
 10
153.59204
 20
122.715893
 30
0.0
  0
VERTEX
  5
227
330
219
100
AcDbEntity
  8
001
370
    50
100
AcDbVertex
100
AcDb2dVertex
 10
153.776544
 20
122.732283
 30
0.0
  0
VERTEX
  5
228
330
219
100
AcDbEntity
  8
001
370
    50
100
AcDbVertex
100
AcDb2dVertex
 10
153.930862
 20
122.746758
 30
0.0
  0
VERTEX
  5
229
330
219
100
AcDbEntity
  8
001
370
    50
100
AcDbVertex
100
AcDb2dVertex
 10
154.085139
 20
122.76165
 30
0.0
  0
VERTEX
  5
22A
330
219
100
AcDbEntity
  8
001
370
    50
100
AcDbVertex
100
AcDb2dVertex
 10
154.203803
 20
122.773181
 30
0.0
  0
VERTEX
  5
22B
330
219
100
AcDbEntity
  8
001
370
    50
100
AcDbVertex
100
AcDb2dVertex
 10
154.322487
 20
122.784579
 30
0.0
  0
VERTEX
  5
22C
330
219
100
AcDbEntity
  8
001
370
    50
100
AcDbVertex
100
AcDb2dVertex
 10
154.380274
 20
122.789919
 30
0.0
  0
VERTEX
  5
22D
330
219
100
AcDbEntity
  8
001
370
    50
100
AcDbVertex
100
AcDb2dVertex
 10
154.438115
 20
122.794553
 30
0.0
  0
VERTEX
  5
22E
330
219
100
AcDbEntity
  8
001
370
    50
100
AcDbVertex
100
AcDb2dVertex
 10
154.477342
 20
122.797057
 30
0.0
  0
VERTEX
  5
22F
330
219
100
AcDbEntity
  8
001
370
    50
100
AcDbVertex
100
AcDb2dVertex
 10
154.516591
 20
122.799254
 30
0.0
  0
SEQEND
  5
21A
330
219
100
AcDbEntity
  8
001
370
    50
  0
ARC
  5
230
330
1F
100
AcDbEntity
  8
001
370
    50
100
AcDbCircle
 10
159.455759
 20
120.799538
 30
0.0
 40
2.000000000000002
100
AcDbArc
 50
0.0
 51
90.0
  0
ARC
  5
231
330
1F
100
AcDbEntity
  8
001
370
    50
100
AcDbCircle
 10
159.455759
 20
86.299538
 30
0.0
 40
2.000000000000002
100
AcDbArc
 50
270.0
 51
0.0
  0
LINE
  5
232
330
1F
100
AcDbEntity
  8
001
370
    50
100
AcDbLine
 10
161.455759
 20
120.799538
 30
0.0
 11
161.455759
 21
86.299538
 31
0.0
  0
POLYLINE
  5
233
330
1F
100
AcDbEntity
  8
001
370
    50
100
AcDb2dPolyline
 66
     1
 10
0.0
 20
0.0
 30
0.0
  0
VERTEX
  5
235
330
233
100
AcDbEntity
  8
001
370
    50
100
AcDbVertex
100
AcDb2dVertex
 10
143.233843
 20
122.062823
 30
0.0
  0
VERTEX
  5
236
330
233
100
AcDbEntity
  8
001
370
    50
100
AcDbVertex
100
AcDb2dVertex
 10
141.833743
 20
122.089521
 30
0.0
  0
VERTEX
  5
237
330
233
100
AcDbEntity
  8
001
370
    50
100
AcDbVertex
100
AcDb2dVertex
 10
139.787355
 20
122.123257
 30
0.0
  0
VERTEX
  5
238
330
233
100
AcDbEntity
  8
001
370
    50
100
AcDbVertex
100
AcDb2dVertex
 10
137.735438
 20
122.149708
 30
0.0
  0
VERTEX
  5
239
330
233
100
AcDbEntity
  8
001
370
    50
100
AcDbVertex
100
AcDb2dVertex
 10
136.331448
 20
122.164187
 30
0.0
  0
SEQEND
  5
234
330
233
100
AcDbEntity
  8
001
370
    50
  0
POLYLINE
  5
23A
330
1F
100
AcDbEntity
  8
001
370
    50
100
AcDb2dPolyline
 66
     1
 10
0.0
 20
0.0
 30
0.0
  0
VERTEX
  5
23C
330
23A
100
AcDbEntity
  8
001
370
    50
100
AcDbVertex
100
AcDb2dVertex
 10
144.836423
 20
122.710801
 30
0.0
  0
VERTEX
  5
23D
330
23A
100
AcDbEntity
  8
001
370
    50
100
AcDbVertex
100
AcDb2dVertex
 10
144.499648
 20
122.629782
 30
0.0
  0
VERTEX
  5
23E
330
23A
100
AcDbEntity
  8
001
370
    50
100
AcDbVertex
100
AcDb2dVertex
 10
144.021189
 20
122.469806
 30
0.0
  0
VERTEX
  5
23F
330
23A
100
AcDbEntity
  8
001
370
    50
100
AcDbVertex
100
AcDb2dVertex
 10
143.54602
 20
122.244473
 30
0.0
  0
VERTEX
  5
240
330
23A
100
AcDbEntity
  8
001
370
    50
100
AcDbVertex
100
AcDb2dVertex
 10
143.233843
 20
122.062823
 30
0.0
  0
SEQEND
  5
23B
330
23A
100
AcDbEntity
  8
001
370
    50
  0
POLYLINE
  5
241
330
1F
100
AcDbEntity
  8
001
370
    50
100
AcDb2dPolyline
 66
     1
 10
0.0
 20
0.0
 30
0.0
  0
VERTEX
  5
243
330
241
100
AcDbEntity
  8
001
370
    50
100
AcDbVertex
100
AcDb2dVertex
 10
146.149989
 20
122.726464
 30
0.0
  0
VERTEX
  5
244
330
241
100
AcDbEntity
  8
001
370
    50
100
AcDbVertex
100
AcDb2dVertex
 10
145.883115
 20
122.723497
 30
0.0
  0
VERTEX
  5
245
330
241
100
AcDbEntity
  8
001
370
    50
100
AcDbVertex
100
AcDb2dVertex
 10
145.493072
 20
122.718975
 30
0.0
  0
VERTEX
  5
246
330
241
100
AcDbEntity
  8
001
370
    50
100
AcDbVertex
100
AcDb2dVertex
 10
145.103186
 20
122.714197
 30
0.0
  0
VERTEX
  5
247
330
241
100
AcDbEntity
  8
001
370
    50
100
AcDbVertex
100
AcDb2dVertex
 10
144.836423
 20
122.710801
 30
0.0
  0
SEQEND
  5
242
330
241
100
AcDbEntity
  8
001
370
    50
  0
POLYLINE
  5
248
330
1F
100
AcDbEntity
  8
001
370
    50
100
AcDb2dPolyline
 66
     1
 10
0.0
 20
0.0
 30
0.0
  0
VERTEX
  5
24A
330
248
100
AcDbEntity
  8
001
370
    50
100
AcDbVertex
100
AcDb2dVertex
 10
127.469658
 20
113.19453
 30
0.0
  0
VERTEX
  5
24B
330
248
100
AcDbEntity
  8
001
370
    50
100
AcDbVertex
100
AcDb2dVertex
 10
127.472989
 20
113.409172
 30
0.0
  0
VERTEX
  5
24C
330
248
100
AcDbEntity
  8
001
370
    50
100
AcDbVertex
100
AcDb2dVertex
 10
127.479258
 20
113.623716
 30
0.0
  0
VERTEX
  5
24D
330
248
100
AcDbEntity
  8
001
370
    50
100
AcDbVertex
100
AcDb2dVertex
 10
127.507354
 20
114.044769
 30
0.0
  0
VERTEX
  5
24E
330
248
100
AcDbEntity
  8
001
370
    50
100
AcDbVertex
100
AcDb2dVertex
 10
127.555806
 20
114.464128
 30
0.0
  0
VERTEX
  5
24F
330
248
100
AcDbEntity
  8
001
370
    50
100
AcDbVertex
100
AcDb2dVertex
 10
127.623017
 20
114.882522
 30
0.0
  0
VERTEX
  5
250
330
248
100
AcDbEntity
  8
001
370
    50
100
AcDbVertex
100
AcDb2dVertex
 10
127.708758
 20
115.297443
 30
0.0
  0
VERTEX
  5
251
330
248
100
AcDbEntity
  8
001
370
    50
100
AcDbVertex
100
AcDb2dVertex
 10
127.813235
 20
115.707733
 30
0.0
  0
VERTEX
  5
252
330
248
100
AcDbEntity
  8
001
370
    50
100
AcDbVertex
100
AcDb2dVertex
 10
127.93647
 20
116.112809
 30
0.0
  0
VERTEX
  5
253
330
248
100
AcDbEntity
  8
001
370
    50
100
AcDbVertex
100
AcDb2dVertex
 10
128.077592
 20
116.509646
 30
0.0
  0
VERTEX
  5
254
330
248
100
AcDbEntity
  8
001
370
    50
100
AcDbVertex
100
AcDb2dVertex
 10
128.237297
 20
116.899374
 30
0.0
  0
VERTEX
  5
255
330
248
100
AcDbEntity
  8
001
370
    50
100
AcDbVertex
100
AcDb2dVertex
 10
128.454746
 20
117.358901
 30
0.0
  0
VERTEX
  5
256
330
248
100
AcDbEntity
  8
001
370
    50
100
AcDbVertex
100
AcDb2dVertex
 10
128.698196
 20
117.805262
 30
0.0
  0
VERTEX
  5
257
330
248
100
AcDbEntity
  8
001
370
    50
100
AcDbVertex
100
AcDb2dVertex
 10
128.966962
 20
118.2379
 30
0.0
  0
VERTEX
  5
258
330
248
100
AcDbEntity
  8
001
370
    50
100
AcDbVertex
100
AcDb2dVertex
 10
129.259782
 20
118.654624
 30
0.0
  0
VERTEX
  5
259
330
248
100
AcDbEntity
  8
001
370
    50
100
AcDbVertex
100
AcDb2dVertex
 10
129.574271
 20
119.052017
 30
0.0
  0
VERTEX
  5
25A
330
248
100
AcDbEntity
  8
001
370
    50
100
AcDbVertex
100
AcDb2dVertex
 10
129.911215
 20
119.430524
 30
0.0
  0
VERTEX
  5
25B
330
248
100
AcDbEntity
  8
001
370
    50
100
AcDbVertex
100
AcDb2dVertex
 10
130.26035
 20
119.779593
 30
0.0
  0
VERTEX
  5
25C
330
248
100
AcDbEntity
  8
001
370
    50
100
AcDbVertex
100
AcDb2dVertex
 10
130.628725
 20
120.108319
 30
0.0
  0
VERTEX
  5
25D
330
248
100
AcDbEntity
  8
001
370
    50
100
AcDbVertex
100
AcDb2dVertex
 10
131.01549
 20
120.416375
 30
0.0
  0
VERTEX
  5
25E
330
248
100
AcDbEntity
  8
001
370
    50
100
AcDbVertex
100
AcDb2dVertex
 10
131.418869
 20
120.702335
 30
0.0
  0
VERTEX
  5
25F
330
248
100
AcDbEntity
  8
001
370
    50
100
AcDbVertex
100
AcDb2dVertex
 10
131.83567
 20
120.964002
 30
0.0
  0
VERTEX
  5
260
330
248
100
AcDbEntity
  8
001
370
    50
100
AcDbVertex
100
AcDb2dVertex
 10
132.266655
 20
121.201528
 30
0.0
  0
VERTEX
  5
261
330
248
100
AcDbEntity
  8
001
370
    50
100
AcDbVertex
100
AcDb2dVertex
 10
132.709444
 20
121.413274
 30
0.0
  0
VERTEX
  5
262
330
248
100
AcDbEntity
  8
001
370
    50
100
AcDbVertex
100
AcDb2dVertex
 10
133.163556
 20
121.599594
 30
0.0
  0
VERTEX
  5
263
330
248
100
AcDbEntity
  8
001
370
    50
100
AcDbVertex
100
AcDb2dVertex
 10
133.628307
 20
121.760588
 30
0.0
  0
VERTEX
  5
264
330
248
100
AcDbEntity
  8
001
370
    50
100
AcDbVertex
100
AcDb2dVertex
 10
134.101329
 20
121.895219
 30
0.0
  0
VERTEX
  5
265
330
248
100
AcDbEntity
  8
001
370
    50
100
AcDbVertex
100
AcDb2dVertex
 10
134.579304
 20
122.002561
 30
0.0
  0
VERTEX
  5
266
330
248
100
AcDbEntity
  8
001
370
    50
100
AcDbVertex
100
AcDb2dVertex
 10
135.062522
 20
122.083359
 30
0.0
  0
VERTEX
  5
267
330
248
100
AcDbEntity
  8
001
370
    50
100
AcDbVertex
100
AcDb2dVertex
 10
135.378475
 20
122.121482
 30
0.0
  0
VERTEX
  5
268
330
248
100
AcDbEntity
  8
001
370
    50
100
AcDbVertex
100
AcDb2dVertex
 10
135.695559
 20
122.146819
 30
0.0
  0
VERTEX
  5
269
330
248
100
AcDbEntity
  8
001
370
    50
100
AcDbVertex
100
AcDb2dVertex
 10
136.013325
 20
122.159132
 30
0.0
  0
VERTEX
  5
26A
330
248
100
AcDbEntity
  8
001
370
    50
100
AcDbVertex
100
AcDb2dVertex
 10
136.331448
 20
122.164187
 30
0.0
  0
SEQEND
  5
249
330
248
100
AcDbEntity
  8
001
370
    50
  0
POLYLINE
  5
26B
330
1F
100
AcDbEntity
  8
001
  6
DASHED
370
    30
100
AcDb2dPolyline
 66
     1
 10
0.0
 20
0.0
 30
0.0
  0
VERTEX
  5
26D
330
26B
100
AcDbEntity
  8
001
  6
DASHED
370
    30
100
AcDbVertex
100
AcDb2dVertex
 10
127.49771
 20
112.460663
 30
0.0
  0
VERTEX
  5
26E
330
26B
100
AcDbEntity
  8
001
  6
DASHED
370
    30
100
AcDbVertex
100
AcDb2dVertex
 10
127.481044
 20
112.751197
 30
0.0
  0
VERTEX
  5
26F
330
26B
100
AcDbEntity
  8
001
  6
DASHED
370
    30
100
AcDbVertex
100
AcDb2dVertex
 10
127.470915
 20
113.041908
 30
0.0
  0
VERTEX
  5
270
330
26B
100
AcDbEntity
  8
001
  6
DASHED
370
    30
100
AcDbVertex
100
AcDb2dVertex
 10
127.470062
 20
113.118213
 30
0.0
  0
VERTEX
  5
271
330
26B
100
AcDbEntity
  8
001
  6
DASHED
370
    30
100
AcDbVertex
100
AcDb2dVertex
 10
127.469658
 20
113.19453
 30
0.0
  0
SEQEND
  5
26C
330
26B
100
AcDbEntity
  8
001
  6
DASHED
370
    30
  0
POLYLINE
  5
272
330
1F
100
AcDbEntity
  8
001
370
    50
100
AcDb2dPolyline
 66
     1
 10
0.0
 20
0.0
 30
0.0
  0
VERTEX
  5
274
330
272
100
AcDbEntity
  8
001
370
    50
100
AcDbVertex
100
AcDb2dVertex
 10
133.195517
 20
118.220662
 30
0.0
  0
VERTEX
  5
275
330
272
100
AcDbEntity
  8
001
370
    50
100
AcDbVertex
100
AcDb2dVertex
 10
133.061563
 20
118.157825
 30
0.0
  0
VERTEX
  5
276
330
272
100
AcDbEntity
  8
001
370
    50
100
AcDbVertex
100
AcDb2dVertex
 10
132.930381
 20
118.089847
 30
0.0
  0
VERTEX
  5
277
330
272
100
AcDbEntity
  8
001
370
    50
100
AcDbVertex
100
AcDb2dVertex
 10
132.80465
 20
118.013023
 30
0.0
  0
VERTEX
  5
278
330
272
100
AcDbEntity
  8
001
370
    50
100
AcDbVertex
100
AcDb2dVertex
 10
132.684225
 20
117.927841
 30
0.0
  0
VERTEX
  5
279
330
272
100
AcDbEntity
  8
001
370
    50
100
AcDbVertex
100
AcDb2dVertex
 10
132.571924
 20
117.83835
 30
0.0
  0
VERTEX
  5
27A
330
272
100
AcDbEntity
  8
001
370
    50
100
AcDbVertex
100
AcDb2dVertex
 10
132.46479
 20
117.74284
 30
0.0
  0
VERTEX
  5
27B
330
272
100
AcDbEntity
  8
001
370
    50
100
AcDbVertex
100
AcDb2dVertex
 10
132.365968
 20
117.644476
 30
0.0
  0
VERTEX
  5
27C
330
272
100
AcDbEntity
  8
001
370
    50
100
AcDbVertex
100
AcDb2dVertex
 10
132.272564
 20
117.54091
 30
0.0
  0
VERTEX
  5
27D
330
272
100
AcDbEntity
  8
001
370
    50
100
AcDbVertex
100
AcDb2dVertex
 10
132.155054
 20
117.392908
 30
0.0
  0
VERTEX
  5
27E
330
272
100
AcDbEntity
  8
001
370
    50
100
AcDbVertex
100
AcDb2dVertex
 10
132.048399
 20
117.236887
 30
0.0
  0
VERTEX
  5
27F
330
272
100
AcDbEntity
  8
001
370
    50
100
AcDbVertex
100
AcDb2dVertex
 10
131.957945
 20
117.0827
 30
0.0
  0
VERTEX
  5
280
330
272
100
AcDbEntity
  8
001
370
    50
100
AcDbVertex
100
AcDb2dVertex
 10
131.878146
 20
116.922724
 30
0.0
  0
VERTEX
  5
281
330
272
100
AcDbEntity
  8
001
370
    50
100
AcDbVertex
100
AcDb2dVertex
 10
131.792922
 20
116.712024
 30
0.0
  0
VERTEX
  5
282
330
272
100
AcDbEntity
  8
001
370
    50
100
AcDbVertex
100
AcDb2dVertex
 10
131.726878
 20
116.494514
 30
0.0
  0
VERTEX
  5
283
330
272
100
AcDbEntity
  8
001
370
    50
100
AcDbVertex
100
AcDb2dVertex
 10
131.683554
 20
116.286701
 30
0.0
  0
VERTEX
  5
284
330
272
100
AcDbEntity
  8
001
370
    50
100
AcDbVertex
100
AcDb2dVertex
 10
131.659037
 20
116.075872
 30
0.0
  0
VERTEX
  5
285
330
272
100
AcDbEntity
  8
001
370
    50
100
AcDbVertex
100
AcDb2dVertex
 10
131.654245
 20
115.870789
 30
0.0
  0
VERTEX
  5
286
330
272
100
AcDbEntity
  8
001
370
    50
100
AcDbVertex
100
AcDb2dVertex
 10
131.669092
 20
115.666184
 30
0.0
  0
VERTEX
  5
287
330
272
100
AcDbEntity
  8
001
370
    50
100
AcDbVertex
100
AcDb2dVertex
 10
131.702747
 20
115.472123
 30
0.0
  0
VERTEX
  5
288
330
272
100
AcDbEntity
  8
001
370
    50
100
AcDbVertex
100
AcDb2dVertex
 10
131.756082
 20
115.282601
 30
0.0
  0
VERTEX
  5
289
330
272
100
AcDbEntity
  8
001
370
    50
100
AcDbVertex
100
AcDb2dVertex
 10
131.811297
 20
115.140374
 30
0.0
  0
VERTEX
  5
28A
330
272
100
AcDbEntity
  8
001
370
    50
100
AcDbVertex
100
AcDb2dVertex
 10
131.878722
 20
115.00354
 30
0.0
  0
VERTEX
  5
28B
330
272
100
AcDbEntity
  8
001
370
    50
100
AcDbVertex
100
AcDb2dVertex
 10
131.959002
 20
114.872362
 30
0.0
  0
VERTEX
  5
28C
330
272
100
AcDbEntity
  8
001
370
    50
100
AcDbVertex
100
AcDb2dVertex
 10
132.051334
 20
114.749351
 30
0.0
  0
VERTEX
  5
28D
330
272
100
AcDbEntity
  8
001
370
    50
100
AcDbVertex
100
AcDb2dVertex
 10
132.15769
 20
114.63347
 30
0.0
  0
VERTEX
  5
28E
330
272
100
AcDbEntity
  8
001
370
    50
100
AcDbVertex
100
AcDb2dVertex
 10
132.275176
 20
114.528925
 30
0.0
  0
VERTEX
  5
28F
330
272
100
AcDbEntity
  8
001
370
    50
100
AcDbVertex
100
AcDb2dVertex
 10
132.386098
 20
114.447801
 30
0.0
  0
VERTEX
  5
290
330
272
100
AcDbEntity
  8
001
370
    50
100
AcDbVertex
100
AcDb2dVertex
 10
132.503775
 20
114.376822
 30
0.0
  0
VERTEX
  5
291
330
272
100
AcDbEntity
  8
001
370
    50
100
AcDbVertex
100
AcDb2dVertex
 10
132.635103
 20
114.313045
 30
0.0
  0
VERTEX
  5
292
330
272
100
AcDbEntity
  8
001
370
    50
100
AcDbVertex
100
AcDb2dVertex
 10
132.771726
 20
114.261644
 30
0.0
  0
VERTEX
  5
293
330
272
100
AcDbEntity
  8
001
370
    50
100
AcDbVertex
100
AcDb2dVertex
 10
132.89263
 20
114.227512
 30
0.0
  0
VERTEX
  5
294
330
272
100
AcDbEntity
  8
001
370
    50
100
AcDbVertex
100
AcDb2dVertex
 10
133.015779
 20
114.202541
 30
0.0
  0
VERTEX
  5
295
330
272
100
AcDbEntity
  8
001
370
    50
100
AcDbVertex
100
AcDb2dVertex
 10
133.1485
 20
114.185776
 30
0.0
  0
VERTEX
  5
296
330
272
100
AcDbEntity
  8
001
370
    50
100
AcDbVertex
100
AcDb2dVertex
 10
133.282035
 20
114.179215
 30
0.0
  0
VERTEX
  5
297
330
272
100
AcDbEntity
  8
001
370
    50
100
AcDbVertex
100
AcDb2dVertex
 10
133.293066
 20
114.179128
 30
0.0
  0
VERTEX
  5
298
330
272
100
AcDbEntity
  8
001
370
    50
100
AcDbVertex
100
AcDb2dVertex
 10
133.304097
 20
114.179077
 30
0.0
  0
SEQEND
  5
273
330
272
100
AcDbEntity
  8
001
370
    50
  0
LINE
  5
299
330
1F
100
AcDbEntity
  8
001
370
    50
100
AcDbLine
 10
261.455759
 20
95.549538
 30
0.0
 11
261.455759
 21
111.549538
 31
0.0
  0
POLYLINE
  5
29A
330
1F
100
AcDbEntity
  8
001
370
    50
100
AcDb2dPolyline
 66
     1
 10
0.0
 20
0.0
 30
0.0
  0
VERTEX
  5
29C
330
29A
100
AcDbEntity
  8
001
370
    50
100
AcDbVertex
100
AcDb2dVertex
 10
133.967484
 20
118.379077
 30
0.0
  0
VERTEX
  5
29D
330
29A
100
AcDbEntity
  8
001
370
    50
100
AcDbVertex
100
AcDb2dVertex
 10
133.869878
 20
118.375467
 30
0.0
  0
VERTEX
  5
29E
330
29A
100
AcDbEntity
  8
001
370
    50
100
AcDbVertex
100
AcDb2dVertex
 10
133.77246
 20
118.368939
 30
0.0
  0
VERTEX
  5
29F
330
29A
100
AcDbEntity
  8
001
370
    50
100
AcDbVertex
100
AcDb2dVertex
 10
133.626892
 20
118.349
 30
0.0
  0
VERTEX
  5
2A0
330
29A
100
AcDbEntity
  8
001
370
    50
100
AcDbVertex
100
AcDb2dVertex
 10
133.483555
 20
118.316623
 30
0.0
  0
VERTEX
  5
2A1
330
29A
100
AcDbEntity
  8
001
370
    50
100
AcDbVertex
100
AcDb2dVertex
 10
133.338572
 20
118.271766
 30
0.0
  0
VERTEX
  5
2A2
330
29A
100
AcDbEntity
  8
001
370
    50
100
AcDbVertex
100
AcDb2dVertex
 10
133.195517
 20
118.220662
 30
0.0
  0
SEQEND
  5
29B
330
29A
100
AcDbEntity
  8
001
370
    50
  0
POLYLINE
  5
2A3
330
1F
100
AcDbEntity
  8
001
370
    50
100
AcDb2dPolyline
 66
     1
 10
0.0
 20
0.0
 30
0.0
  0
VERTEX
  5
2A5
330
2A3
100
AcDbEntity
  8
001
370
    50
100
AcDbVertex
100
AcDb2dVertex
 10
133.304097
 20
114.179077
 30
0.0
  0
VERTEX
  5
2A6
330
2A3
100
AcDbEntity
  8
001
370
    50
100
AcDbVertex
100
AcDb2dVertex
 10
133.436359
 20
114.18573
 30
0.0
  0
VERTEX
  5
2A7
330
2A3
100
AcDbEntity
  8
001
370
    50
100
AcDbVertex
100
AcDb2dVertex
 10
133.568027
 20
114.197835
 30
0.0
  0
VERTEX
  5
2A8
330
2A3
100
AcDbEntity
  8
001
370
    50
100
AcDbVertex
100
AcDb2dVertex
 10
133.715747
 20
114.22332
 30
0.0
  0
VERTEX
  5
2A9
330
2A3
100
AcDbEntity
  8
001
370
    50
100
AcDbVertex
100
AcDb2dVertex
 10
133.86116
 20
114.260558
 30
0.0
  0
VERTEX
  5
2AA
330
2A3
100
AcDbEntity
  8
001
370
    50
100
AcDbVertex
100
AcDb2dVertex
 10
133.985147
 20
114.300958
 30
0.0
  0
VERTEX
  5
2AB
330
2A3
100
AcDbEntity
  8
001
370
    50
100
AcDbVertex
100
AcDb2dVertex
 10
134.106548
 20
114.348365
 30
0.0
  0
VERTEX
  5
2AC
330
2A3
100
AcDbEntity
  8
001
370
    50
100
AcDbVertex
100
AcDb2dVertex
 10
134.225742
 20
114.402902
 30
0.0
  0
VERTEX
  5
2AD
330
2A3
100
AcDbEntity
  8
001
370
    50
100
AcDbVertex
100
AcDb2dVertex
 10
134.341701
 20
114.464055
 30
0.0
  0
VERTEX
  5
2AE
330
2A3
100
AcDbEntity
  8
001
370
    50
100
AcDbVertex
100
AcDb2dVertex
 10
134.452277
 20
114.53036
 30
0.0
  0
VERTEX
  5
2AF
330
2A3
100
AcDbEntity
  8
001
370
    50
100
AcDbVertex
100
AcDb2dVertex
 10
134.559212
 20
114.602384
 30
0.0
  0
VERTEX
  5
2B0
330
2A3
100
AcDbEntity
  8
001
370
    50
100
AcDbVertex
100
AcDb2dVertex
 10
134.660412
 20
114.678239
 30
0.0
  0
VERTEX
  5
2B1
330
2A3
100
AcDbEntity
  8
001
370
    50
100
AcDbVertex
100
AcDb2dVertex
 10
134.757724
 20
114.759034
 30
0.0
  0
VERTEX
  5
2B2
330
2A3
100
AcDbEntity
  8
001
370
    50
100
AcDbVertex
100
AcDb2dVertex
 10
134.888185
 20
114.881224
 30
0.0
  0
VERTEX
  5
2B3
330
2A3
100
AcDbEntity
  8
001
370
    50
100
AcDbVertex
100
AcDb2dVertex
 10
135.009985
 20
115.01209
 30
0.0
  0
VERTEX
  5
2B4
330
2A3
100
AcDbEntity
  8
001
370
    50
100
AcDbVertex
100
AcDb2dVertex
 10
135.117912
 20
115.144588
 30
0.0
  0
VERTEX
  5
2B5
330
2A3
100
AcDbEntity
  8
001
370
    50
100
AcDbVertex
100
AcDb2dVertex
 10
135.217038
 20
115.283796
 30
0.0
  0
VERTEX
  5
2B6
330
2A3
100
AcDbEntity
  8
001
370
    50
100
AcDbVertex
100
AcDb2dVertex
 10
135.329913
 20
115.470253
 30
0.0
  0
VERTEX
  5
2B7
330
2A3
100
AcDbEntity
  8
001
370
    50
100
AcDbVertex
100
AcDb2dVertex
 10
135.426764
 20
115.665558
 30
0.0
  0
VERTEX
  5
2B8
330
2A3
100
AcDbEntity
  8
001
370
    50
100
AcDbVertex
100
AcDb2dVertex
 10
135.502494
 20
115.856495
 30
0.0
  0
VERTEX
  5
2B9
330
2A3
100
AcDbEntity
  8
001
370
    50
100
AcDbVertex
100
AcDb2dVertex
 10
135.562195
 20
116.053007
 30
0.0
  0
VERTEX
  5
2BA
330
2A3
100
AcDbEntity
  8
001
370
    50
100
AcDbVertex
100
AcDb2dVertex
 10
135.603871
 20
116.247852
 30
0.0
  0
VERTEX
  5
2BB
330
2A3
100
AcDbEntity
  8
001
370
    50
100
AcDbVertex
100
AcDb2dVertex
 10
135.62869
 20
116.445542
 30
0.0
  0
VERTEX
  5
2BC
330
2A3
100
AcDbEntity
  8
001
370
    50
100
AcDbVertex
100
AcDb2dVertex
 10
135.63585
 20
116.63603
 30
0.0
  0
VERTEX
  5
2BD
330
2A3
100
AcDbEntity
  8
001
370
    50
100
AcDbVertex
100
AcDb2dVertex
 10
135.625952
 20
116.826417
 30
0.0
  0
VERTEX
  5
2BE
330
2A3
100
AcDbEntity
  8
001
370
    50
100
AcDbVertex
100
AcDb2dVertex
 10
135.591596
 20
117.047316
 30
0.0
  0
VERTEX
  5
2BF
330
2A3
100
AcDbEntity
  8
001
370
    50
100
AcDbVertex
100
AcDb2dVertex
 10
135.53186
 20
117.262805
 30
0.0
  0
VERTEX
  5
2C0
330
2A3
100
AcDbEntity
  8
001
370
    50
100
AcDbVertex
100
AcDb2dVertex
 10
135.447666
 20
117.466382
 30
0.0
  0
VERTEX
  5
2C1
330
2A3
100
AcDbEntity
  8
001
370
    50
100
AcDbVertex
100
AcDb2dVertex
 10
135.338475
 20
117.657553
 30
0.0
  0
VERTEX
  5
2C2
330
2A3
100
AcDbEntity
  8
001
370
    50
100
AcDbVertex
100
AcDb2dVertex
 10
135.23641
 20
117.79542
 30
0.0
  0
VERTEX
  5
2C3
330
2A3
100
AcDbEntity
  8
001
370
    50
100
AcDbVertex
100
AcDb2dVertex
 10
135.120337
 20
117.921708
 30
0.0
  0
VERTEX
  5
2C4
330
2A3
100
AcDbEntity
  8
001
370
    50
100
AcDbVertex
100
AcDb2dVertex
 10
134.986444
 20
118.038631
 30
0.0
  0
VERTEX
  5
2C5
330
2A3
100
AcDbEntity
  8
001
370
    50
100
AcDbVertex
100
AcDb2dVertex
 10
134.840312
 20
118.139763
 30
0.0
  0
VERTEX
  5
2C6
330
2A3
100
AcDbEntity
  8
001
370
    50
100
AcDbVertex
100
AcDb2dVertex
 10
134.716317
 20
118.208062
 30
0.0
  0
VERTEX
  5
2C7
330
2A3
100
AcDbEntity
  8
001
370
    50
100
AcDbVertex
100
AcDb2dVertex
 10
134.586767
 20
118.265073
 30
0.0
  0
VERTEX
  5
2C8
330
2A3
100
AcDbEntity
  8
001
370
    50
100
AcDbVertex
100
AcDb2dVertex
 10
134.444633
 20
118.312955
 30
0.0
  0
VERTEX
  5
2C9
330
2A3
100
AcDbEntity
  8
001
370
    50
100
AcDbVertex
100
AcDb2dVertex
 10
134.298745
 20
118.347873
 30
0.0
  0
VERTEX
  5
2CA
330
2A3
100
AcDbEntity
  8
001
370
    50
100
AcDbVertex
100
AcDb2dVertex
 10
134.171562
 20
118.367449
 30
0.0
  0
VERTEX
  5
2CB
330
2A3
100
AcDbEntity
  8
001
370
    50
100
AcDbVertex
100
AcDb2dVertex
 10
134.043347
 20
118.377305
 30
0.0
  0
VERTEX
  5
2CC
330
2A3
100
AcDbEntity
  8
001
370
    50
100
AcDbVertex
100
AcDb2dVertex
 10
134.005421
 20
118.378406
 30
0.0
  0
VERTEX
  5
2CD
330
2A3
100
AcDbEntity
  8
001
370
    50
100
AcDbVertex
100
AcDb2dVertex
 10
133.967484
 20
118.379077
 30
0.0
  0
SEQEND
  5
2A4
330
2A3
100
AcDbEntity
  8
001
370
    50
  0
LINE
  5
2CE
330
1F
100
AcDbEntity
  8
001
  6
DASHED
370
    30
100
AcDbLine
 10
127.944896
 20
107.049538
 30
0.0
 11
127.944896
 21
100.049538
 31
0.0
  0
LINE
  5
2CF
330
1F
100
AcDbEntity
  8
001
  6
DASHED
370
    30
100
AcDbLine
 10
127.944896
 20
107.049538
 30
0.0
 11
127.737574
 21
109.683814
 31
0.0
  0
POLYLINE
  5
2D0
330
1F
100
AcDbEntity
  8
001
  6
DASHED
370
    30
100
AcDb2dPolyline
 66
     1
 10
0.0
 20
0.0
 30
0.0
  0
VERTEX
  5
2D2
330
2D0
100
AcDbEntity
  8
001
  6
DASHED
370
    30
100
AcDbVertex
100
AcDb2dVertex
 10
127.662342
 20
110.275597
 30
0.0
  0
VERTEX
  5
2D3
330
2D0
100
AcDbEntity
  8
001
  6
DASHED
370
    30
100
AcDbVertex
100
AcDb2dVertex
 10
127.699868
 20
110.02449
 30
0.0
  0
VERTEX
  5
2D4
330
2D0
100
AcDbEntity
  8
001
  6
DASHED
370
    30
100
AcDbVertex
100
AcDb2dVertex
 10
127.729866
 20
109.77255
 30
0.0
  0
VERTEX
  5
2D5
330
2D0
100
AcDbEntity
  8
001
  6
DASHED
370
    30
100
AcDbVertex
100
AcDb2dVertex
 10
127.733854
 20
109.727972
 30
0.0
  0
VERTEX
  5
2D6
330
2D0
100
AcDbEntity
  8
001
  6
DASHED
370
    30
100
AcDbVertex
100
AcDb2dVertex
 10
127.737609
 20
109.683367
 30
0.0
  0
SEQEND
  5
2D1
330
2D0
100
AcDbEntity
  8
001
  6
DASHED
370
    30
  0
LINE
  5
2D7
330
1F
100
AcDbEntity
  8
001
  6
DASHED
370
    30
100
AcDbLine
 10
127.662342
 20
110.275597
 30
0.0
 11
127.49771
 21
112.460663
 31
0.0
  0
POLYLINE
  5
2D8
330
1F
100
AcDbEntity
  8
001
370
    50
100
AcDb2dPolyline
 66
     1
 10
0.0
 20
0.0
 30
0.0
  0
VERTEX
  5
2DA
330
2D8
100
AcDbEntity
  8
001
370
    50
100
AcDbVertex
100
AcDb2dVertex
 10
127.825465
 20
101.549538
 30
0.0
  0
VERTEX
  5
2DB
330
2D8
100
AcDbEntity
  8
001
370
    50
100
AcDbVertex
100
AcDb2dVertex
 10
127.83987
 20
101.538266
 30
0.0
  0
VERTEX
  5
2DC
330
2D8
100
AcDbEntity
  8
001
370
    50
100
AcDbVertex
100
AcDb2dVertex
 10
127.852416
 20
101.525709
 30
0.0
  0
VERTEX
  5
2DD
330
2D8
100
AcDbEntity
  8
001
370
    50
100
AcDbVertex
100
AcDb2dVertex
 10
127.868592
 20
101.492729
 30
0.0
  0
VERTEX
  5
2DE
330
2D8
100
AcDbEntity
  8
001
370
    50
100
AcDbVertex
100
AcDb2dVertex
 10
127.876591
 20
101.454702
 30
0.0
  0
VERTEX
  5
2DF
330
2D8
100
AcDbEntity
  8
001
370
    50
100
AcDbVertex
100
AcDb2dVertex
 10
127.891278
 20
101.366458
 30
0.0
  0
VERTEX
  5
2E0
330
2D8
100
AcDbEntity
  8
001
370
    50
100
AcDbVertex
100
AcDb2dVertex
 10
127.90335
 20
101.280292
 30
0.0
  0
VERTEX
  5
2E1
330
2D8
100
AcDbEntity
  8
001
370
    50
100
AcDbVertex
100
AcDb2dVertex
 10
127.914441
 20
101.151779
 30
0.0
  0
VERTEX
  5
2E2
330
2D8
100
AcDbEntity
  8
001
370
    50
100
AcDbVertex
100
AcDb2dVertex
 10
127.919991
 20
101.021674
 30
0.0
  0
VERTEX
  5
2E3
330
2D8
100
AcDbEntity
  8
001
370
    50
100
AcDbVertex
100
AcDb2dVertex
 10
127.923414
 20
100.858478
 30
0.0
  0
VERTEX
  5
2E4
330
2D8
100
AcDbEntity
  8
001
370
    50
100
AcDbVertex
100
AcDb2dVertex
 10
127.923927
 20
100.695731
 30
0.0
  0
VERTEX
  5
2E5
330
2D8
100
AcDbEntity
  8
001
370
    50
100
AcDbVertex
100
AcDb2dVertex
 10
127.921173
 20
100.500592
 30
0.0
  0
VERTEX
  5
2E6
330
2D8
100
AcDbEntity
  8
001
370
    50
100
AcDbVertex
100
AcDb2dVertex
 10
127.915529
 20
100.305344
 30
0.0
  0
VERTEX
  5
2E7
330
2D8
100
AcDbEntity
  8
001
370
    50
100
AcDbVertex
100
AcDb2dVertex
 10
127.907018
 20
100.092831
 30
0.0
  0
VERTEX
  5
2E8
330
2D8
100
AcDbEntity
  8
001
370
    50
100
AcDbVertex
100
AcDb2dVertex
 10
127.896615
 20
99.880455
 30
0.0
  0
VERTEX
  5
2E9
330
2D8
100
AcDbEntity
  8
001
370
    50
100
AcDbVertex
100
AcDb2dVertex
 10
127.883685
 20
99.649617
 30
0.0
  0
VERTEX
  5
2EA
330
2D8
100
AcDbEntity
  8
001
370
    50
100
AcDbVertex
100
AcDb2dVertex
 10
127.869449
 20
99.41884
 30
0.0
  0
VERTEX
  5
2EB
330
2D8
100
AcDbEntity
  8
001
370
    50
100
AcDbVertex
100
AcDb2dVertex
 10
127.855269
 20
99.203689
 30
0.0
  0
VERTEX
  5
2EC
330
2D8
100
AcDbEntity
  8
001
370
    50
100
AcDbVertex
100
AcDb2dVertex
 10
127.840333
 20
98.988592
 30
0.0
  0
VERTEX
  5
2ED
330
2D8
100
AcDbEntity
  8
001
370
    50
100
AcDbVertex
100
AcDb2dVertex
 10
127.824429
 20
98.769053
 30
0.0
  0
VERTEX
  5
2EE
330
2D8
100
AcDbEntity
  8
001
370
    50
100
AcDbVertex
100
AcDb2dVertex
 10
127.808172
 20
98.549538
 30
0.0
  0
SEQEND
  5
2D9
330
2D8
100
AcDbEntity
  8
001
370
    50
  0
LINE
  5
2EF
330
1F
100
AcDbEntity
  8
001
370
    50
100
AcDbLine
 10
147.756709
 20
101.549538
 30
0.0
 11
127.469658
 21
101.549538
 31
0.0
  0
LINE
  5
2F0
330
1F
100
AcDbEntity
  8
001
370
    50
100
AcDbLine
 10
127.469658
 20
110.277543
 30
0.0
 11
127.417107
 21
110.278074
 31
0.0
  0
LINE
  5
2F1
330
1F
100
AcDbEntity
  8
001
370
    50
100
AcDbLine
 10
143.217267
 20
122.280079
 30
0.0
 11
143.233843
 21
122.062823
 31
0.0
  0
LINE
  5
2F2
330
1F
100
AcDbEntity
  8
001
370
    50
100
AcDbLine
 10
163.455759
 20
87.549538
 30
0.0
 11
163.455759
 21
119.549538
 31
0.0
  0
LINE
  5
2F3
330
1F
100
AcDbEntity
  8
001
370
    50
100
AcDbLine
 10
253.455759
 20
119.549538
 30
0.0
 11
163.455759
 21
119.549538
 31
0.0
  0
LINE
  5
2F4
330
1F
100
AcDbEntity
  8
001
370
    50
100
AcDbLine
 10
253.455759
 20
87.549538
 30
0.0
 11
163.455759
 21
87.549538
 31
0.0
  0
LINE
  5
2F5
330
1F
100
AcDbEntity
  8
001
  6
CENTER
370
     9
100
AcDbLine
 10
124.092015
 20
103.549538
 30
0.0
 11
265.591023
 21
103.549538
 31
0.0
  0
LINE
  5
2F6
330
1F
100
AcDbEntity
  8
001
370
    50
100
AcDbLine
 10
261.455759
 20
103.549538
 30
0.0
 11
264.919861
 21
105.549538
 31
0.0
  0
LINE
  5
2F7
330
1F
100
AcDbEntity
  8
001
370
    50
100
AcDbLine
 10
261.455759
 20
103.549538
 30
0.0
 11
264.919861
 21
101.549538
 31
0.0
  0
LINE
  5
2F8
330
1F
100
AcDbEntity
  8
001
370
    50
100
AcDbLine
 10
163.455759
 20
119.049538
 30
0.0
 11
161.455759
 21
119.049538
 31
0.0
  0
LINE
  5
2F9
330
1F
100
AcDbEntity
  8
001
370
    50
100
AcDbLine
 10
161.455759
 20
88.049538
 30
0.0
 11
163.455759
 21
88.049538
 31
0.0
  0
ARC
  5
2FA
330
1F
100
AcDbEntity
  8
001
370
    50
100
AcDbCircle
 10
253.455759
 20
111.549538
 30
0.0
 40
8.0
100
AcDbArc
 50
0.0
 51
90.0
  0
ARC
  5
2FB
330
1F
100
AcDbEntity
  8
001
370
    50
100
AcDbCircle
 10
253.455759
 20
95.549538
 30
0.0
 40
8.0
100
AcDbArc
 50
270.0
 51
0.0
  0
ARC
  5
2FC
330
1F
100
AcDbEntity
  8
001
370
    50
100
AcDbCircle
 10
144.452268
 20
84.065466
 30
0.0
 40
0.4
100
AcDbArc
 50
270.5
 51
355.5
  0
ARC
  5
2FD
330
1F
100
AcDbEntity
  8
001
370
    50
100
AcDbCircle
 10
127.52567
 20
97.406264
 30
0.0
 40
0.4
100
AcDbArc
 50
90.5
 51
175.5
  0
LINE
  5
2FE
330
1F
100
AcDbEntity
  8
001
370
    50
100
AcDbLine
 10
126.886586
 20
94.384129
 30
0.0
 11
127.126903
 21
97.437647
 31
0.0
  0
LINE
  5
2FF
330
1F
100
AcDbEntity
  8
001
370
    50
100
AcDbLine
 10
145.494334
 20
92.207971
 30
0.0
 11
144.851035
 21
84.034083
 31
0.0
  0
ARC
  5
300
330
1F
100
AcDbEntity
  8
001
370
    50
100
AcDbCircle
 10
142.58917
 20
94.95752
 30
0.0
 40
4.0
100
AcDbArc
 50
316.57635
 51
132.338696
  0
CIRCLE
  5
301
330
1F
100
AcDbEntity
  8
001
370
    50
100
AcDbCircle
 10
136.154028
 20
90.737306
 30
0.0
 40
3.75
  0
CIRCLE
  5
302
330
1F
100
AcDbEntity
  8
001
370
    50
100
AcDbCircle
 10
136.154028
 20
90.737306
 30
0.0
 40
3.25
  0
LINE
  5
303
330
1F
100
AcDbEntity
  8
001
370
    50
100
AcDbLine
 10
135.360171
 20
92.112306
 30
0.0
 11
135.721015
 21
92.737306
 31
0.0
  0
LINE
  5
304
330
1F
100
AcDbEntity
  8
001
370
    50
100
AcDbLine
 10
136.947884
 20
92.112306
 30
0.0
 11
136.58704
 21
92.737306
 31
0.0
  0
ARC
  5
305
330
1F
100
AcDbEntity
  8
001
370
    50
100
AcDbCircle
 10
136.154028
 20
92.487306
 30
0.0
 40
0.5
100
AcDbArc
 50
30.0
 51
150.0
  0
LINE
  5
306
330
1F
100
AcDbEntity
  8
001
370
    50
100
AcDbLine
 10
134.566314
 20
90.737306
 30
0.0
 11
134.20547
 21
91.362306
 31
0.0
  0
LINE
  5
307
330
1F
100
AcDbEntity
  8
001
370
    50
100
AcDbLine
 10
135.360171
 20
92.112306
 30
0.0
 11
134.638483
 21
92.112306
 31
0.0
  0
ARC
  5
308
330
1F
100
AcDbEntity
  8
001
370
    50
100
AcDbCircle
 10
134.638483
 20
91.612306
 30
0.0
 40
0.5
100
AcDbArc
 50
90.0
 51
210.0
  0
LINE
  5
309
330
1F
100
AcDbEntity
  8
001
370
    50
100
AcDbLine
 10
135.360171
 20
89.362306
 30
0.0
 11
134.638483
 21
89.362306
 31
0.0
  0
LINE
  5
30A
330
1F
100
AcDbEntity
  8
001
370
    50
100
AcDbLine
 10
134.566314
 20
90.737306
 30
0.0
 11
134.20547
 21
90.112306
 31
0.0
  0
ARC
  5
30B
330
1F
100
AcDbEntity
  8
001
370
    50
100
AcDbCircle
 10
134.638483
 20
89.862306
 30
0.0
 40
0.5
100
AcDbArc
 50
150.0
 51
270.0
  0
LINE
  5
30C
330
1F
100
AcDbEntity
  8
001
370
    50
100
AcDbLine
 10
136.947884
 20
89.362306
 30
0.0
 11
136.58704
 21
88.737306
 31
0.0
  0
LINE
  5
30D
330
1F
100
AcDbEntity
  8
001
370
    50
100
AcDbLine
 10
135.360171
 20
89.362306
 30
0.0
 11
135.721015
 21
88.737306
 31
0.0
  0
ARC
  5
30E
330
1F
100
AcDbEntity
  8
001
370
    50
100
AcDbCircle
 10
136.154028
 20
88.987306
 30
0.0
 40
0.5
100
AcDbArc
 50
210.0
 51
330.0
  0
LINE
  5
30F
330
1F
100
AcDbEntity
  8
001
370
    50
100
AcDbLine
 10
137.741741
 20
90.737306
 30
0.0
 11
138.102585
 21
90.112306
 31
0.0
  0
LINE
  5
310
330
1F
100
AcDbEntity
  8
001
370
    50
100
AcDbLine
 10
136.947884
 20
89.362306
 30
0.0
 11
137.669572
 21
89.362306
 31
0.0
  0
ARC
  5
311
330
1F
100
AcDbEntity
  8
001
370
    50
100
AcDbCircle
 10
137.669572
 20
89.862306
 30
0.0
 40
0.5
100
AcDbArc
 50
270.0
 51
30.0
  0
LINE
  5
312
330
1F
100
AcDbEntity
  8
001
370
    50
100
AcDbLine
 10
136.947884
 20
92.112306
 30
0.0
 11
137.669572
 21
92.112306
 31
0.0
  0
LINE
  5
313
330
1F
100
AcDbEntity
  8
001
370
    50
100
AcDbLine
 10
137.741741
 20
90.737306
 30
0.0
 11
138.102585
 21
91.362306
 31
0.0
  0
ARC
  5
314
330
1F
100
AcDbEntity
  8
001
370
    50
100
AcDbCircle
 10
137.669572
 20
91.612306
 30
0.0
 40
0.5
100
AcDbArc
 50
330.0
 51
90.0
  0
POLYLINE
  5
315
330
1F
100
AcDbEntity
  8
001
370
    50
100
AcDb2dPolyline
 66
     1
 10
0.0
 20
0.0
 30
0.0
  0
VERTEX
  5
317
330
315
100
AcDbEntity
  8
001
370
    50
100
AcDbVertex
100
AcDb2dVertex
 10
144.879332
 20
84.387539
 30
0.0
  0
VERTEX
  5
318
330
315
100
AcDbEntity
  8
001
370
    50
100
AcDbVertex
100
AcDb2dVertex
 10
145.128922
 20
84.384509
 30
0.0
  0
VERTEX
  5
319
330
315
100
AcDbEntity
  8
001
370
    50
100
AcDbVertex
100
AcDb2dVertex
 10
145.378511
 20
84.38148
 30
0.0
  0
VERTEX
  5
31A
330
315
100
AcDbEntity
  8
001
370
    50
100
AcDbVertex
100
AcDb2dVertex
 10
145.435622
 20
84.38079
 30
0.0
  0
VERTEX
  5
31B
330
315
100
AcDbEntity
  8
001
370
    50
100
AcDbVertex
100
AcDb2dVertex
 10
145.493072
 20
84.380102
 30
0.0
  0
VERTEX
  5
31C
330
315
100
AcDbEntity
  8
001
370
    50
100
AcDbVertex
100
AcDb2dVertex
 10
145.883115
 20
84.375579
 30
0.0
  0
VERTEX
  5
31D
330
315
100
AcDbEntity
  8
001
370
    50
100
AcDbVertex
100
AcDb2dVertex
 10
146.149989
 20
84.372612
 30
0.0
  0
SEQEND
  5
316
330
315
100
AcDbEntity
  8
001
370
    50
  0
ARC
  5
31E
330
1F
100
AcDbEntity
  8
001
370
    50
100
AcDbCircle
 10
136.855759
 20
93.599538
 30
0.0
 40
10.0
100
AcDbArc
 50
175.5
 51
270.5
  0
ARC
  5
31F
330
1F
100
AcDbEntity
  8
001
370
    50
100
AcDbCircle
 10
135.122179
 20
87.872192
 30
0.0
 40
10.0
100
AcDbArc
 50
355.5
 51
90.5
  0
LINE
  5
320
330
1F
100
AcDbEntity
  8
001
370
     9
100
AcDbLine
 10
121.358254
 20
83.599538
 30
0.0
 11
136.855759
 21
83.599538
 31
0.0
  0
LINE
  5
321
330
1F
100
AcDbEntity
  8
001
370
     9
100
AcDbLine
 10
126.855759
 20
93.599538
 30
0.0
 11
126.855759
 21
78.308415
 31
0.0
  0
LINE
  5
322
330
1F
100
AcDbEntity
  8
001
370
    50
100
AcDbLine
 10
144.455759
 20
83.665482
 30
0.0
 11
136.943024
 21
83.599919
 31
0.0
  0
LINE
  5
323
330
1F
100
AcDbEntity
  8
001
370
    50
100
AcDbLine
 10
139.895123
 20
97.914226
 30
0.0
 11
127.522179
 21
97.806249
 31
0.0
  0
LINE
  5
324
330
1F
100
AcDbEntity
  8
001
370
    50
100
AcDbLine
 10
127.469658
 20
113.195642
 30
0.0
 11
127.469658
 21
97.802323
 31
0.0
  0
LINE
  5
325
330
1F
100
AcDbEntity
  8
001
  6
DASHED
370
    30
100
AcDbLine
 10
127.768514
 20
97.808398
 30
0.0
 11
127.944896
 21
100.049538
 31
0.0
  0
LINE
  5
326
330
1F
100
AcDbEntity
  8
001
370
    50
100
AcDbLine
 10
127.751954
 20
97.808254
 30
0.0
 11
127.808172
 21
98.549538
 31
0.0
  0
ARC
  5
327
330
1F
100
AcDbEntity
  8
001
370
    50
100
AcDbCircle
 10
144.452268
 20
123.03361
 30
0.0
 40
0.4
100
AcDbArc
 50
4.5
 51
89.5
  0
LINE
  5
328
330
1F
100
AcDbEntity
  8
001
370
    50
100
AcDbLine
 10
126.886586
 20
112.714947
 30
0.0
 11
127.126903
 21
109.661429
 31
0.0
  0
ARC
  5
329
330
1F
100
AcDbEntity
  8
001
370
    50
100
AcDbCircle
 10
136.855759
 20
113.499538
 30
0.0
 40
10.0
100
AcDbArc
 50
89.5
 51
184.5
  0
LINE
  5
32A
330
1F
100
AcDbEntity
  8
001
370
    50
100
AcDbLine
 10
144.455759
 20
123.433595
 30
0.0
 11
136.943024
 21
123.499157
 31
0.0
  0
LINE
  5
32B
330
1F
100
AcDbEntity
  8
001
370
    50
100
AcDbLine
 10
144.878868
 20
122.711349
 30
0.0
 11
144.851035
 21
123.064994
 31
0.0
  0
ARC
  5
32C
330
1F
100
AcDbEntity
  8
001
370
    50
100
AcDbCircle
 10
127.52567
 20
109.692813
 30
0.0
 40
0.4
100
AcDbArc
 50
184.5
 51
261.950468
  0
LINE
  5
32D
330
1F
100
AcDbEntity
  8
001
370
    50
100
AcDbLine
 10
127.417107
 20
351.359119
 30
0.0
 11
127.244972
 21
353.615272
 31
0.0
  0
POLYLINE
  5
32E
330
1F
100
AcDbEntity
  8
001
370
    50
100
AcDb2dPolyline
 66
     1
 10
0.0
 20
0.0
 30
0.0
  0
VERTEX
  5
330
330
32E
100
AcDbEntity
  8
001
370
    50
100
AcDbVertex
100
AcDb2dVertex
 10
136.281508
 20
363.43119
 30
0.0
  0
VERTEX
  5
331
330
32E
100
AcDbEntity
  8
001
370
    50
100
AcDbVertex
100
AcDb2dVertex
 10
135.586836
 20
363.399531
 30
0.0
  0
VERTEX
  5
332
330
32E
100
AcDbEntity
  8
001
370
    50
100
AcDbVertex
100
AcDb2dVertex
 10
134.636129
 20
363.293601
 30
0.0
  0
VERTEX
  5
333
330
32E
100
AcDbEntity
  8
001
370
    50
100
AcDbVertex
100
AcDb2dVertex
 10
133.794256
 20
363.110466
 30
0.0
  0
VERTEX
  5
334
330
32E
100
AcDbEntity
  8
001
370
    50
100
AcDbVertex
100
AcDb2dVertex
 10
133.043416
 20
362.852274
 30
0.0
  0
VERTEX
  5
335
330
32E
100
AcDbEntity
  8
001
370
    50
100
AcDbVertex
100
AcDb2dVertex
 10
132.292842
 20
362.521614
 30
0.0
  0
VERTEX
  5
336
330
32E
100
AcDbEntity
  8
001
370
    50
100
AcDbVertex
100
AcDb2dVertex
 10
131.557273
 20
362.122148
 30
0.0
  0
VERTEX
  5
337
330
32E
100
AcDbEntity
  8
001
370
    50
100
AcDbVertex
100
AcDb2dVertex
 10
130.867081
 20
361.655994
 30
0.0
  0
VERTEX
  5
338
330
32E
100
AcDbEntity
  8
001
370
    50
100
AcDbVertex
100
AcDb2dVertex
 10
130.227997
 20
361.127932
 30
0.0
  0
VERTEX
  5
339
330
32E
100
AcDbEntity
  8
001
370
    50
100
AcDbVertex
100
AcDb2dVertex
 10
129.636856
 20
360.540854
 30
0.0
  0
VERTEX
  5
33A
330
32E
100
AcDbEntity
  8
001
370
    50
100
AcDbVertex
100
AcDb2dVertex
 10
129.100579
 20
359.903276
 30
0.0
  0
VERTEX
  5
33B
330
32E
100
AcDbEntity
  8
001
370
    50
100
AcDbVertex
100
AcDb2dVertex
 10
128.624157
 20
359.219295
 30
0.0
  0
VERTEX
  5
33C
330
32E
100
AcDbEntity
  8
001
370
    50
100
AcDbVertex
100
AcDb2dVertex
 10
128.213174
 20
358.489627
 30
0.0
  0
VERTEX
  5
33D
330
32E
100
AcDbEntity
  8
001
370
    50
100
AcDbVertex
100
AcDb2dVertex
 10
127.869857
 20
357.716786
 30
0.0
  0
VERTEX
  5
33E
330
32E
100
AcDbEntity
  8
001
370
    50
100
AcDbVertex
100
AcDb2dVertex
 10
127.595816
 20
356.93483
 30
0.0
  0
VERTEX
  5
33F
330
32E
100
AcDbEntity
  8
001
370
    50
100
AcDbVertex
100
AcDb2dVertex
 10
127.392567
 20
356.156133
 30
0.0
  0
VERTEX
  5
340
330
32E
100
AcDbEntity
  8
001
370
    50
100
AcDbVertex
100
AcDb2dVertex
 10
127.2694
 20
355.291505
 30
0.0
  0
VERTEX
  5
341
330
32E
100
AcDbEntity
  8
001
370
    50
100
AcDbVertex
100
AcDb2dVertex
 10
127.229304
 20
354.321124
 30
0.0
  0
VERTEX
  5
342
330
32E
100
AcDbEntity
  8
001
370
    50
100
AcDbVertex
100
AcDb2dVertex
 10
127.244972
 20
353.615272
 30
0.0
  0
SEQEND
  5
32F
330
32E
100
AcDbEntity
  8
001
370
    50
  0
LINE
  5
343
330
1F
100
AcDbEntity
  8
001
370
    50
100
AcDbLine
 10
136.281508
 20
363.43119
 30
0.0
 11
143.217267
 21
363.361124
 31
0.0
  0
POLYLINE
  5
344
330
1F
100
AcDbEntity
  8
001
370
    50
100
AcDb2dPolyline
 66
     1
 10
0.0
 20
0.0
 30
0.0
  0
VERTEX
  5
346
330
344
100
AcDbEntity
  8
001
370
    50
100
AcDbVertex
100
AcDb2dVertex
 10
154.516591
 20
325.380868
 30
0.0
  0
VERTEX
  5
347
330
344
100
AcDbEntity
  8
001
370
    50
100
AcDbVertex
100
AcDb2dVertex
 10
154.52034
 20
325.380765
 30
0.0
  0
VERTEX
  5
348
330
344
100
AcDbEntity
  8
001
370
    50
100
AcDbVertex
100
AcDb2dVertex
 10
154.525821
 20
325.380654
 30
0.0
  0
VERTEX
  5
349
330
344
100
AcDbEntity
  8
001
370
    50
100
AcDbVertex
100
AcDb2dVertex
 10
154.5313
 20
325.380596
 30
0.0
  0
VERTEX
  5
34A
330
344
100
AcDbEntity
  8
001
370
    50
100
AcDbVertex
100
AcDb2dVertex
 10
154.53505
 20
325.380583
 30
0.0
  0
SEQEND
  5
345
330
344
100
AcDbEntity
  8
001
370
    50
  0
POLYLINE
  5
34B
330
1F
100
AcDbEntity
  8
001
370
    50
100
AcDb2dPolyline
 66
     1
 10
0.0
 20
0.0
 30
0.0
  0
VERTEX
  5
34D
330
34B
100
AcDbEntity
  8
001
370
    50
100
AcDbVertex
100
AcDb2dVertex
 10
154.53505
 20
363.880583
 30
0.0
  0
VERTEX
  5
34E
330
34B
100
AcDbEntity
  8
001
370
    50
100
AcDbVertex
100
AcDb2dVertex
 10
154.5313
 20
363.88057
 30
0.0
  0
VERTEX
  5
34F
330
34B
100
AcDbEntity
  8
001
370
    50
100
AcDbVertex
100
AcDb2dVertex
 10
154.525821
 20
363.880512
 30
0.0
  0
VERTEX
  5
350
330
34B
100
AcDbEntity
  8
001
370
    50
100
AcDbVertex
100
AcDb2dVertex
 10
154.52034
 20
363.880401
 30
0.0
  0
VERTEX
  5
351
330
34B
100
AcDbEntity
  8
001
370
    50
100
AcDbVertex
100
AcDb2dVertex
 10
154.516591
 20
363.880298
 30
0.0
  0
SEQEND
  5
34C
330
34B
100
AcDbEntity
  8
001
370
    50
  0
LINE
  5
352
330
1F
100
AcDbEntity
  8
001
370
    50
100
AcDbLine
 10
159.455759
 20
363.880583
 30
0.0
 11
154.53505
 21
363.880583
 31
0.0
  0
LINE
  5
353
330
1F
100
AcDbEntity
  8
001
370
    50
100
AcDbLine
 10
154.53505
 20
325.380583
 30
0.0
 11
159.455759
 21
325.380583
 31
0.0
  0
POLYLINE
  5
354
330
1F
100
AcDbEntity
  8
001
370
    50
100
AcDb2dPolyline
 66
     1
 10
0.0
 20
0.0
 30
0.0
  0
VERTEX
  5
356
330
354
100
AcDbEntity
  8
001
370
    50
100
AcDbVertex
100
AcDb2dVertex
 10
146.149989
 20
325.453657
 30
0.0
  0
VERTEX
  5
357
330
354
100
AcDbEntity
  8
001
370
    50
100
AcDbVertex
100
AcDb2dVertex
 10
147.144773
 20
325.469902
 30
0.0
  0
VERTEX
  5
358
330
354
100
AcDbEntity
  8
001
370
    50
100
AcDbVertex
100
AcDb2dVertex
 10
148.598642
 20
325.496293
 30
0.0
  0
VERTEX
  5
359
330
354
100
AcDbEntity
  8
001
370
    50
100
AcDbVertex
100
AcDb2dVertex
 10
150.048947
 20
325.526304
 30
0.0
  0
VERTEX
  5
35A
330
354
100
AcDbEntity
  8
001
370
    50
100
AcDbVertex
100
AcDb2dVertex
 10
151.041223
 20
325.548649
 30
0.0
  0
SEQEND
  5
355
330
354
100
AcDbEntity
  8
001
370
    50
  0
POLYLINE
  5
35B
330
1F
100
AcDbEntity
  8
001
370
    50
100
AcDb2dPolyline
 66
     1
 10
0.0
 20
0.0
 30
0.0
  0
VERTEX
  5
35D
330
35B
100
AcDbEntity
  8
001
370
    50
100
AcDbVertex
100
AcDb2dVertex
 10
151.041223
 20
325.548649
 30
0.0
  0
VERTEX
  5
35E
330
35B
100
AcDbEntity
  8
001
370
    50
100
AcDbVertex
100
AcDb2dVertex
 10
151.291017
 20
325.552528
 30
0.0
  0
VERTEX
  5
35F
330
35B
100
AcDbEntity
  8
001
370
    50
100
AcDbVertex
100
AcDb2dVertex
 10
151.540821
 20
325.554669
 30
0.0
  0
VERTEX
  5
360
330
35B
100
AcDbEntity
  8
001
370
    50
100
AcDbVertex
100
AcDb2dVertex
 10
151.790933
 20
325.553683
 30
0.0
  0
VERTEX
  5
361
330
35B
100
AcDbEntity
  8
001
370
    50
100
AcDbVertex
100
AcDb2dVertex
 10
152.041021
 20
325.549596
 30
0.0
  0
VERTEX
  5
362
330
35B
100
AcDbEntity
  8
001
370
    50
100
AcDbVertex
100
AcDb2dVertex
 10
152.284277
 20
325.542957
 30
0.0
  0
VERTEX
  5
363
330
35B
100
AcDbEntity
  8
001
370
    50
100
AcDbVertex
100
AcDb2dVertex
 10
152.527447
 20
325.533766
 30
0.0
  0
VERTEX
  5
364
330
35B
100
AcDbEntity
  8
001
370
    50
100
AcDbVertex
100
AcDb2dVertex
 10
152.757193
 20
325.522749
 30
0.0
  0
VERTEX
  5
365
330
35B
100
AcDbEntity
  8
001
370
    50
100
AcDbVertex
100
AcDb2dVertex
 10
152.986819
 20
325.509474
 30
0.0
  0
VERTEX
  5
366
330
35B
100
AcDbEntity
  8
001
370
    50
100
AcDbVertex
100
AcDb2dVertex
 10
153.197191
 20
325.495349
 30
0.0
  0
VERTEX
  5
367
330
35B
100
AcDbEntity
  8
001
370
    50
100
AcDbVertex
100
AcDb2dVertex
 10
153.407439
 20
325.479484
 30
0.0
  0
VERTEX
  5
368
330
35B
100
AcDbEntity
  8
001
370
    50
100
AcDbVertex
100
AcDb2dVertex
 10
153.59204
 20
325.464228
 30
0.0
  0
VERTEX
  5
369
330
35B
100
AcDbEntity
  8
001
370
    50
100
AcDbVertex
100
AcDb2dVertex
 10
153.776544
 20
325.447838
 30
0.0
  0
VERTEX
  5
36A
330
35B
100
AcDbEntity
  8
001
370
    50
100
AcDbVertex
100
AcDb2dVertex
 10
153.930862
 20
325.433363
 30
0.0
  0
VERTEX
  5
36B
330
35B
100
AcDbEntity
  8
001
370
    50
100
AcDbVertex
100
AcDb2dVertex
 10
154.085139
 20
325.418472
 30
0.0
  0
VERTEX
  5
36C
330
35B
100
AcDbEntity
  8
001
370
    50
100
AcDbVertex
100
AcDb2dVertex
 10
154.203803
 20
325.40694
 30
0.0
  0
VERTEX
  5
36D
330
35B
100
AcDbEntity
  8
001
370
    50
100
AcDbVertex
100
AcDb2dVertex
 10
154.322487
 20
325.395542
 30
0.0
  0
VERTEX
  5
36E
330
35B
100
AcDbEntity
  8
001
370
    50
100
AcDbVertex
100
AcDb2dVertex
 10
154.380274
 20
325.390202
 30
0.0
  0
VERTEX
  5
36F
330
35B
100
AcDbEntity
  8
001
370
    50
100
AcDbVertex
100
AcDb2dVertex
 10
154.438115
 20
325.385568
 30
0.0
  0
VERTEX
  5
370
330
35B
100
AcDbEntity
  8
001
370
    50
100
AcDbVertex
100
AcDb2dVertex
 10
154.477342
 20
325.383065
 30
0.0
  0
VERTEX
  5
371
330
35B
100
AcDbEntity
  8
001
370
    50
100
AcDbVertex
100
AcDb2dVertex
 10
154.516591
 20
325.380868
 30
0.0
  0
SEQEND
  5
35C
330
35B
100
AcDbEntity
  8
001
370
    50
  0
POLYLINE
  5
372
330
1F
100
AcDbEntity
  8
001
370
    50
100
AcDb2dPolyline
 66
     1
 10
0.0
 20
0.0
 30
0.0
  0
VERTEX
  5
374
330
372
100
AcDbEntity
  8
001
370
    50
100
AcDbVertex
100
AcDb2dVertex
 10
154.53505
 20
325.380583
 30
0.0
  0
VERTEX
  5
375
330
372
100
AcDbEntity
  8
001
370
    50
100
AcDbVertex
100
AcDb2dVertex
 10
154.803247
 20
325.473245
 30
0.0
  0
VERTEX
  5
376
330
372
100
AcDbEntity
  8
001
370
    50
100
AcDbVertex
100
AcDb2dVertex
 10
155.141222
 20
325.690038
 30
0.0
  0
VERTEX
  5
377
330
372
100
AcDbEntity
  8
001
370
    50
100
AcDbVertex
100
AcDb2dVertex
 10
155.509765
 20
326.123716
 30
0.0
  0
VERTEX
  5
378
330
372
100
AcDbEntity
  8
001
370
    50
100
AcDbVertex
100
AcDb2dVertex
 10
155.727904
 20
326.608453
 30
0.0
  0
VERTEX
  5
379
330
372
100
AcDbEntity
  8
001
370
    50
100
AcDbVertex
100
AcDb2dVertex
 10
156.013888
 20
327.354437
 30
0.0
  0
VERTEX
  5
37A
330
372
100
AcDbEntity
  8
001
370
    50
100
AcDbVertex
100
AcDb2dVertex
 10
156.276234
 20
328.106301
 30
0.0
  0
VERTEX
  5
37B
330
372
100
AcDbEntity
  8
001
370
    50
100
AcDbVertex
100
AcDb2dVertex
 10
156.545864
 20
329.076873
 30
0.0
  0
VERTEX
  5
37C
330
372
100
AcDbEntity
  8
001
370
    50
100
AcDbVertex
100
AcDb2dVertex
 10
156.768584
 20
330.135424
 30
0.0
  0
VERTEX
  5
37D
330
372
100
AcDbEntity
  8
001
370
    50
100
AcDbVertex
100
AcDb2dVertex
 10
157.022917
 20
331.574394
 30
0.0
  0
VERTEX
  5
37E
330
372
100
AcDbEntity
  8
001
370
    50
100
AcDbVertex
100
AcDb2dVertex
 10
157.189123
 20
332.630583
 30
0.0
  0
SEQEND
  5
373
330
372
100
AcDbEntity
  8
001
370
    50
  0
POLYLINE
  5
37F
330
1F
100
AcDbEntity
  8
001
370
    50
100
AcDb2dPolyline
 66
     1
 10
0.0
 20
0.0
 30
0.0
  0
VERTEX
  5
381
330
37F
100
AcDbEntity
  8
001
370
    50
100
AcDbVertex
100
AcDb2dVertex
 10
147.756709
 20
342.630583
 30
0.0
  0
VERTEX
  5
382
330
37F
100
AcDbEntity
  8
001
370
    50
100
AcDbVertex
100
AcDb2dVertex
 10
148.175341
 20
342.618713
 30
0.0
  0
VERTEX
  5
383
330
37F
100
AcDbEntity
  8
001
370
    50
100
AcDbVertex
100
AcDb2dVertex
 10
148.59327
 20
342.596035
 30
0.0
  0
VERTEX
  5
384
330
37F
100
AcDbEntity
  8
001
370
    50
100
AcDbVertex
100
AcDb2dVertex
 10
149.011196
 20
342.553876
 30
0.0
  0
VERTEX
  5
385
330
37F
100
AcDbEntity
  8
001
370
    50
100
AcDbVertex
100
AcDb2dVertex
 10
149.427025
 20
342.49304
 30
0.0
  0
VERTEX
  5
386
330
37F
100
AcDbEntity
  8
001
370
    50
100
AcDbVertex
100
AcDb2dVertex
 10
149.839941
 20
342.415993
 30
0.0
  0
VERTEX
  5
387
330
37F
100
AcDbEntity
  8
001
370
    50
100
AcDbVertex
100
AcDb2dVertex
 10
150.24937
 20
342.322569
 30
0.0
  0
VERTEX
  5
388
330
37F
100
AcDbEntity
  8
001
370
    50
100
AcDbVertex
100
AcDb2dVertex
 10
150.65303
 20
342.212572
 30
0.0
  0
VERTEX
  5
389
330
37F
100
AcDbEntity
  8
001
370
    50
100
AcDbVertex
100
AcDb2dVertex
 10
151.051702
 20
342.085595
 30
0.0
  0
VERTEX
  5
38A
330
37F
100
AcDbEntity
  8
001
370
    50
100
AcDbVertex
100
AcDb2dVertex
 10
151.445285
 20
341.941482
 30
0.0
  0
VERTEX
  5
38B
330
37F
100
AcDbEntity
  8
001
370
    50
100
AcDbVertex
100
AcDb2dVertex
 10
151.832385
 20
341.780772
 30
0.0
  0
VERTEX
  5
38C
330
37F
100
AcDbEntity
  8
001
370
    50
100
AcDbVertex
100
AcDb2dVertex
 10
152.213387
 20
341.603323
 30
0.0
  0
VERTEX
  5
38D
330
37F
100
AcDbEntity
  8
001
370
    50
100
AcDbVertex
100
AcDb2dVertex
 10
152.586529
 20
341.40989
 30
0.0
  0
VERTEX
  5
38E
330
37F
100
AcDbEntity
  8
001
370
    50
100
AcDbVertex
100
AcDb2dVertex
 10
152.950296
 20
341.201261
 30
0.0
  0
VERTEX
  5
38F
330
37F
100
AcDbEntity
  8
001
370
    50
100
AcDbVertex
100
AcDb2dVertex
 10
153.304778
 20
340.97721
 30
0.0
  0
VERTEX
  5
390
330
37F
100
AcDbEntity
  8
001
370
    50
100
AcDbVertex
100
AcDb2dVertex
 10
153.64676
 20
340.739616
 30
0.0
  0
VERTEX
  5
391
330
37F
100
AcDbEntity
  8
001
370
    50
100
AcDbVertex
100
AcDb2dVertex
 10
153.977776
 20
340.486996
 30
0.0
  0
VERTEX
  5
392
330
37F
100
AcDbEntity
  8
001
370
    50
100
AcDbVertex
100
AcDb2dVertex
 10
154.280307
 20
340.234
 30
0.0
  0
VERTEX
  5
393
330
37F
100
AcDbEntity
  8
001
370
    50
100
AcDbVertex
100
AcDb2dVertex
 10
154.571631
 20
339.968167
 30
0.0
  0
VERTEX
  5
394
330
37F
100
AcDbEntity
  8
001
370
    50
100
AcDbVertex
100
AcDb2dVertex
 10
154.850802
 20
339.690623
 30
0.0
  0
VERTEX
  5
395
330
37F
100
AcDbEntity
  8
001
370
    50
100
AcDbVertex
100
AcDb2dVertex
 10
155.117879
 20
339.401425
 30
0.0
  0
VERTEX
  5
396
330
37F
100
AcDbEntity
  8
001
370
    50
100
AcDbVertex
100
AcDb2dVertex
 10
155.370189
 20
339.103701
 30
0.0
  0
VERTEX
  5
397
330
37F
100
AcDbEntity
  8
001
370
    50
100
AcDbVertex
100
AcDb2dVertex
 10
155.609421
 20
338.795374
 30
0.0
  0
VERTEX
  5
398
330
37F
100
AcDbEntity
  8
001
370
    50
100
AcDbVertex
100
AcDb2dVertex
 10
155.831429
 20
338.481814
 30
0.0
  0
VERTEX
  5
399
330
37F
100
AcDbEntity
  8
001
370
    50
100
AcDbVertex
100
AcDb2dVertex
 10
156.039159
 20
338.15862
 30
0.0
  0
VERTEX
  5
39A
330
37F
100
AcDbEntity
  8
001
370
    50
100
AcDbVertex
100
AcDb2dVertex
 10
156.265384
 20
337.764494
 30
0.0
  0
VERTEX
  5
39B
330
37F
100
AcDbEntity
  8
001
370
    50
100
AcDbVertex
100
AcDb2dVertex
 10
156.470134
 20
337.358748
 30
0.0
  0
VERTEX
  5
39C
330
37F
100
AcDbEntity
  8
001
370
    50
100
AcDbVertex
100
AcDb2dVertex
 10
156.650039
 20
336.950258
 30
0.0
  0
VERTEX
  5
39D
330
37F
100
AcDbEntity
  8
001
370
    50
100
AcDbVertex
100
AcDb2dVertex
 10
156.808382
 20
336.532953
 30
0.0
  0
VERTEX
  5
39E
330
37F
100
AcDbEntity
  8
001
370
    50
100
AcDbVertex
100
AcDb2dVertex
 10
156.940934
 20
336.119998
 30
0.0
  0
VERTEX
  5
39F
330
37F
100
AcDbEntity
  8
001
370
    50
100
AcDbVertex
100
AcDb2dVertex
 10
157.051646
 20
335.700668
 30
0.0
  0
VERTEX
  5
3A0
330
37F
100
AcDbEntity
  8
001
370
    50
100
AcDbVertex
100
AcDb2dVertex
 10
157.136146
 20
335.296079
 30
0.0
  0
VERTEX
  5
3A1
330
37F
100
AcDbEntity
  8
001
370
    50
100
AcDbVertex
100
AcDb2dVertex
 10
157.200027
 20
334.887758
 30
0.0
  0
VERTEX
  5
3A2
330
37F
100
AcDbEntity
  8
001
370
    50
100
AcDbVertex
100
AcDb2dVertex
 10
157.242497
 20
334.48835
 30
0.0
  0
VERTEX
  5
3A3
330
37F
100
AcDbEntity
  8
001
370
    50
100
AcDbVertex
100
AcDb2dVertex
 10
157.266224
 20
334.087299
 30
0.0
  0
VERTEX
  5
3A4
330
37F
100
AcDbEntity
  8
001
370
    50
100
AcDbVertex
100
AcDb2dVertex
 10
157.271437
 20
333.699196
 30
0.0
  0
VERTEX
  5
3A5
330
37F
100
AcDbEntity
  8
001
370
    50
100
AcDbVertex
100
AcDb2dVertex
 10
157.256987
 20
333.311552
 30
0.0
  0
VERTEX
  5
3A6
330
37F
100
AcDbEntity
  8
001
370
    50
100
AcDbVertex
100
AcDb2dVertex
 10
157.227434
 20
332.970734
 30
0.0
  0
VERTEX
  5
3A7
330
37F
100
AcDbEntity
  8
001
370
    50
100
AcDbVertex
100
AcDb2dVertex
 10
157.189123
 20
332.630583
 30
0.0
  0
SEQEND
  5
380
330
37F
100
AcDbEntity
  8
001
370
    50
  0
LINE
  5
3A8
330
1F
100
AcDbEntity
  8
001
370
    50
100
AcDbLine
 10
146.149989
 20
363.807509
 30
0.0
 11
146.149989
 21
342.630583
 31
0.0
  0
POLYLINE
  5
3A9
330
1F
100
AcDbEntity
  8
001
370
    50
100
AcDb2dPolyline
 66
     1
 10
0.0
 20
0.0
 30
0.0
  0
VERTEX
  5
3AB
330
3A9
100
AcDbEntity
  8
001
370
    50
100
AcDbVertex
100
AcDb2dVertex
 10
151.041223
 20
363.712517
 30
0.0
  0
VERTEX
  5
3AC
330
3A9
100
AcDbEntity
  8
001
370
    50
100
AcDbVertex
100
AcDb2dVertex
 10
150.048947
 20
363.734862
 30
0.0
  0
VERTEX
  5
3AD
330
3A9
100
AcDbEntity
  8
001
370
    50
100
AcDbVertex
100
AcDb2dVertex
 10
148.598642
 20
363.764873
 30
0.0
  0
VERTEX
  5
3AE
330
3A9
100
AcDbEntity
  8
001
370
    50
100
AcDbVertex
100
AcDb2dVertex
 10
147.144773
 20
363.791264
 30
0.0
  0
VERTEX
  5
3AF
330
3A9
100
AcDbEntity
  8
001
370
    50
100
AcDbVertex
100
AcDb2dVertex
 10
146.149989
 20
363.807509
 30
0.0
  0
SEQEND
  5
3AA
330
3A9
100
AcDbEntity
  8
001
370
    50
  0
POLYLINE
  5
3B0
330
1F
100
AcDbEntity
  8
001
370
    50
100
AcDb2dPolyline
 66
     1
 10
0.0
 20
0.0
 30
0.0
  0
VERTEX
  5
3B2
330
3B0
100
AcDbEntity
  8
001
370
    50
100
AcDbVertex
100
AcDb2dVertex
 10
151.041223
 20
363.712517
 30
0.0
  0
VERTEX
  5
3B3
330
3B0
100
AcDbEntity
  8
001
370
    50
100
AcDbVertex
100
AcDb2dVertex
 10
151.291017
 20
363.708638
 30
0.0
  0
VERTEX
  5
3B4
330
3B0
100
AcDbEntity
  8
001
370
    50
100
AcDbVertex
100
AcDb2dVertex
 10
151.540821
 20
363.706497
 30
0.0
  0
VERTEX
  5
3B5
330
3B0
100
AcDbEntity
  8
001
370
    50
100
AcDbVertex
100
AcDb2dVertex
 10
151.790933
 20
363.707483
 30
0.0
  0
VERTEX
  5
3B6
330
3B0
100
AcDbEntity
  8
001
370
    50
100
AcDbVertex
100
AcDb2dVertex
 10
152.041021
 20
363.71157
 30
0.0
  0
VERTEX
  5
3B7
330
3B0
100
AcDbEntity
  8
001
370
    50
100
AcDbVertex
100
AcDb2dVertex
 10
152.284277
 20
363.718209
 30
0.0
  0
VERTEX
  5
3B8
330
3B0
100
AcDbEntity
  8
001
370
    50
100
AcDbVertex
100
AcDb2dVertex
 10
152.527447
 20
363.7274
 30
0.0
  0
VERTEX
  5
3B9
330
3B0
100
AcDbEntity
  8
001
370
    50
100
AcDbVertex
100
AcDb2dVertex
 10
152.757193
 20
363.738417
 30
0.0
  0
VERTEX
  5
3BA
330
3B0
100
AcDbEntity
  8
001
370
    50
100
AcDbVertex
100
AcDb2dVertex
 10
152.986819
 20
363.751692
 30
0.0
  0
VERTEX
  5
3BB
330
3B0
100
AcDbEntity
  8
001
370
    50
100
AcDbVertex
100
AcDb2dVertex
 10
153.197191
 20
363.765817
 30
0.0
  0
VERTEX
  5
3BC
330
3B0
100
AcDbEntity
  8
001
370
    50
100
AcDbVertex
100
AcDb2dVertex
 10
153.407439
 20
363.781682
 30
0.0
  0
VERTEX
  5
3BD
330
3B0
100
AcDbEntity
  8
001
370
    50
100
AcDbVertex
100
AcDb2dVertex
 10
153.59204
 20
363.796938
 30
0.0
  0
VERTEX
  5
3BE
330
3B0
100
AcDbEntity
  8
001
370
    50
100
AcDbVertex
100
AcDb2dVertex
 10
153.776544
 20
363.813328
 30
0.0
  0
VERTEX
  5
3BF
330
3B0
100
AcDbEntity
  8
001
370
    50
100
AcDbVertex
100
AcDb2dVertex
 10
153.930862
 20
363.827803
 30
0.0
  0
VERTEX
  5
3C0
330
3B0
100
AcDbEntity
  8
001
370
    50
100
AcDbVertex
100
AcDb2dVertex
 10
154.085139
 20
363.842694
 30
0.0
  0
VERTEX
  5
3C1
330
3B0
100
AcDbEntity
  8
001
370
    50
100
AcDbVertex
100
AcDb2dVertex
 10
154.203803
 20
363.854226
 30
0.0
  0
VERTEX
  5
3C2
330
3B0
100
AcDbEntity
  8
001
370
    50
100
AcDbVertex
100
AcDb2dVertex
 10
154.322487
 20
363.865624
 30
0.0
  0
VERTEX
  5
3C3
330
3B0
100
AcDbEntity
  8
001
370
    50
100
AcDbVertex
100
AcDb2dVertex
 10
154.380274
 20
363.870964
 30
0.0
  0
VERTEX
  5
3C4
330
3B0
100
AcDbEntity
  8
001
370
    50
100
AcDbVertex
100
AcDb2dVertex
 10
154.438115
 20
363.875598
 30
0.0
  0
VERTEX
  5
3C5
330
3B0
100
AcDbEntity
  8
001
370
    50
100
AcDbVertex
100
AcDb2dVertex
 10
154.477342
 20
363.878101
 30
0.0
  0
VERTEX
  5
3C6
330
3B0
100
AcDbEntity
  8
001
370
    50
100
AcDbVertex
100
AcDb2dVertex
 10
154.516591
 20
363.880298
 30
0.0
  0
SEQEND
  5
3B1
330
3B0
100
AcDbEntity
  8
001
370
    50
  0
ARC
  5
3C7
330
1F
100
AcDbEntity
  8
001
370
    50
100
AcDbCircle
 10
159.455759
 20
361.880583
 30
0.0
 40
2.000000000000002
100
AcDbArc
 50
0.0
 51
90.0
  0
ARC
  5
3C8
330
1F
100
AcDbEntity
  8
001
370
    50
100
AcDbCircle
 10
159.455759
 20
327.380583
 30
0.0
 40
2.000000000000002
100
AcDbArc
 50
270.0
 51
0.0
  0
LINE
  5
3C9
330
1F
100
AcDbEntity
  8
001
370
    50
100
AcDbLine
 10
161.455759
 20
361.880583
 30
0.0
 11
161.455759
 21
327.380583
 31
0.0
  0
POLYLINE
  5
3CA
330
1F
100
AcDbEntity
  8
001
370
    50
100
AcDb2dPolyline
 66
     1
 10
0.0
 20
0.0
 30
0.0
  0
VERTEX
  5
3CC
330
3CA
100
AcDbEntity
  8
001
370
    50
100
AcDbVertex
100
AcDb2dVertex
 10
143.233843
 20
363.143867
 30
0.0
  0
VERTEX
  5
3CD
330
3CA
100
AcDbEntity
  8
001
370
    50
100
AcDbVertex
100
AcDb2dVertex
 10
141.833743
 20
363.170566
 30
0.0
  0
VERTEX
  5
3CE
330
3CA
100
AcDbEntity
  8
001
370
    50
100
AcDbVertex
100
AcDb2dVertex
 10
139.787355
 20
363.204301
 30
0.0
  0
VERTEX
  5
3CF
330
3CA
100
AcDbEntity
  8
001
370
    50
100
AcDbVertex
100
AcDb2dVertex
 10
137.735438
 20
363.230753
 30
0.0
  0
VERTEX
  5
3D0
330
3CA
100
AcDbEntity
  8
001
370
    50
100
AcDbVertex
100
AcDb2dVertex
 10
136.331448
 20
363.245232
 30
0.0
  0
SEQEND
  5
3CB
330
3CA
100
AcDbEntity
  8
001
370
    50
  0
POLYLINE
  5
3D1
330
1F
100
AcDbEntity
  8
001
370
    50
100
AcDb2dPolyline
 66
     1
 10
0.0
 20
0.0
 30
0.0
  0
VERTEX
  5
3D3
330
3D1
100
AcDbEntity
  8
001
370
    50
100
AcDbVertex
100
AcDb2dVertex
 10
144.836423
 20
363.791846
 30
0.0
  0
VERTEX
  5
3D4
330
3D1
100
AcDbEntity
  8
001
370
    50
100
AcDbVertex
100
AcDb2dVertex
 10
144.499648
 20
363.710826
 30
0.0
  0
VERTEX
  5
3D5
330
3D1
100
AcDbEntity
  8
001
370
    50
100
AcDbVertex
100
AcDb2dVertex
 10
144.021189
 20
363.55085
 30
0.0
  0
VERTEX
  5
3D6
330
3D1
100
AcDbEntity
  8
001
370
    50
100
AcDbVertex
100
AcDb2dVertex
 10
143.54602
 20
363.325518
 30
0.0
  0
VERTEX
  5
3D7
330
3D1
100
AcDbEntity
  8
001
370
    50
100
AcDbVertex
100
AcDb2dVertex
 10
143.233843
 20
363.143867
 30
0.0
  0
SEQEND
  5
3D2
330
3D1
100
AcDbEntity
  8
001
370
    50
  0
POLYLINE
  5
3D8
330
1F
100
AcDbEntity
  8
001
370
    50
100
AcDb2dPolyline
 66
     1
 10
0.0
 20
0.0
 30
0.0
  0
VERTEX
  5
3DA
330
3D8
100
AcDbEntity
  8
001
370
    50
100
AcDbVertex
100
AcDb2dVertex
 10
146.149989
 20
363.807509
 30
0.0
  0
VERTEX
  5
3DB
330
3D8
100
AcDbEntity
  8
001
370
    50
100
AcDbVertex
100
AcDb2dVertex
 10
145.883115
 20
363.804542
 30
0.0
  0
VERTEX
  5
3DC
330
3D8
100
AcDbEntity
  8
001
370
    50
100
AcDbVertex
100
AcDb2dVertex
 10
145.493072
 20
363.80002
 30
0.0
  0
VERTEX
  5
3DD
330
3D8
100
AcDbEntity
  8
001
370
    50
100
AcDbVertex
100
AcDb2dVertex
 10
145.103186
 20
363.795242
 30
0.0
  0
VERTEX
  5
3DE
330
3D8
100
AcDbEntity
  8
001
370
    50
100
AcDbVertex
100
AcDb2dVertex
 10
144.836423
 20
363.791846
 30
0.0
  0
SEQEND
  5
3D9
330
3D8
100
AcDbEntity
  8
001
370
    50
  0
POLYLINE
  5
3DF
330
1F
100
AcDbEntity
  8
001
370
    50
100
AcDb2dPolyline
 66
     1
 10
0.0
 20
0.0
 30
0.0
  0
VERTEX
  5
3E1
330
3DF
100
AcDbEntity
  8
001
370
    50
100
AcDbVertex
100
AcDb2dVertex
 10
127.469658
 20
354.275575
 30
0.0
  0
VERTEX
  5
3E2
330
3DF
100
AcDbEntity
  8
001
370
    50
100
AcDbVertex
100
AcDb2dVertex
 10
127.472989
 20
354.490216
 30
0.0
  0
VERTEX
  5
3E3
330
3DF
100
AcDbEntity
  8
001
370
    50
100
AcDbVertex
100
AcDb2dVertex
 10
127.479258
 20
354.704761
 30
0.0
  0
VERTEX
  5
3E4
330
3DF
100
AcDbEntity
  8
001
370
    50
100
AcDbVertex
100
AcDb2dVertex
 10
127.507354
 20
355.125813
 30
0.0
  0
VERTEX
  5
3E5
330
3DF
100
AcDbEntity
  8
001
370
    50
100
AcDbVertex
100
AcDb2dVertex
 10
127.555806
 20
355.545173
 30
0.0
  0
VERTEX
  5
3E6
330
3DF
100
AcDbEntity
  8
001
370
    50
100
AcDbVertex
100
AcDb2dVertex
 10
127.623017
 20
355.963567
 30
0.0
  0
VERTEX
  5
3E7
330
3DF
100
AcDbEntity
  8
001
370
    50
100
AcDbVertex
100
AcDb2dVertex
 10
127.708758
 20
356.378488
 30
0.0
  0
VERTEX
  5
3E8
330
3DF
100
AcDbEntity
  8
001
370
    50
100
AcDbVertex
100
AcDb2dVertex
 10
127.813235
 20
356.788778
 30
0.0
  0
VERTEX
  5
3E9
330
3DF
100
AcDbEntity
  8
001
370
    50
100
AcDbVertex
100
AcDb2dVertex
 10
127.93647
 20
357.193854
 30
0.0
  0
VERTEX
  5
3EA
330
3DF
100
AcDbEntity
  8
001
370
    50
100
AcDbVertex
100
AcDb2dVertex
 10
128.077592
 20
357.590691
 30
0.0
  0
VERTEX
  5
3EB
330
3DF
100
AcDbEntity
  8
001
370
    50
100
AcDbVertex
100
AcDb2dVertex
 10
128.237297
 20
357.980419
 30
0.0
  0
VERTEX
  5
3EC
330
3DF
100
AcDbEntity
  8
001
370
    50
100
AcDbVertex
100
AcDb2dVertex
 10
128.454746
 20
358.439945
 30
0.0
  0
VERTEX
  5
3ED
330
3DF
100
AcDbEntity
  8
001
370
    50
100
AcDbVertex
100
AcDb2dVertex
 10
128.698196
 20
358.886306
 30
0.0
  0
VERTEX
  5
3EE
330
3DF
100
AcDbEntity
  8
001
370
    50
100
AcDbVertex
100
AcDb2dVertex
 10
128.966962
 20
359.318945
 30
0.0
  0
VERTEX
  5
3EF
330
3DF
100
AcDbEntity
  8
001
370
    50
100
AcDbVertex
100
AcDb2dVertex
 10
129.259782
 20
359.735668
 30
0.0
  0
VERTEX
  5
3F0
330
3DF
100
AcDbEntity
  8
001
370
    50
100
AcDbVertex
100
AcDb2dVertex
 10
129.574271
 20
360.133062
 30
0.0
  0
VERTEX
  5
3F1
330
3DF
100
AcDbEntity
  8
001
370
    50
100
AcDbVertex
100
AcDb2dVertex
 10
129.911215
 20
360.511569
 30
0.0
  0
VERTEX
  5
3F2
330
3DF
100
AcDbEntity
  8
001
370
    50
100
AcDbVertex
100
AcDb2dVertex
 10
130.26035
 20
360.860638
 30
0.0
  0
VERTEX
  5
3F3
330
3DF
100
AcDbEntity
  8
001
370
    50
100
AcDbVertex
100
AcDb2dVertex
 10
130.628725
 20
361.189364
 30
0.0
  0
VERTEX
  5
3F4
330
3DF
100
AcDbEntity
  8
001
370
    50
100
AcDbVertex
100
AcDb2dVertex
 10
131.01549
 20
361.49742
 30
0.0
  0
VERTEX
  5
3F5
330
3DF
100
AcDbEntity
  8
001
370
    50
100
AcDbVertex
100
AcDb2dVertex
 10
131.418869
 20
361.78338
 30
0.0
  0
VERTEX
  5
3F6
330
3DF
100
AcDbEntity
  8
001
370
    50
100
AcDbVertex
100
AcDb2dVertex
 10
131.83567
 20
362.045047
 30
0.0
  0
VERTEX
  5
3F7
330
3DF
100
AcDbEntity
  8
001
370
    50
100
AcDbVertex
100
AcDb2dVertex
 10
132.266655
 20
362.282573
 30
0.0
  0
VERTEX
  5
3F8
330
3DF
100
AcDbEntity
  8
001
370
    50
100
AcDbVertex
100
AcDb2dVertex
 10
132.709444
 20
362.494318
 30
0.0
  0
VERTEX
  5
3F9
330
3DF
100
AcDbEntity
  8
001
370
    50
100
AcDbVertex
100
AcDb2dVertex
 10
133.163556
 20
362.680639
 30
0.0
  0
VERTEX
  5
3FA
330
3DF
100
AcDbEntity
  8
001
370
    50
100
AcDbVertex
100
AcDb2dVertex
 10
133.628307
 20
362.841633
 30
0.0
  0
VERTEX
  5
3FB
330
3DF
100
AcDbEntity
  8
001
370
    50
100
AcDbVertex
100
AcDb2dVertex
 10
134.101329
 20
362.976263
 30
0.0
  0
VERTEX
  5
3FC
330
3DF
100
AcDbEntity
  8
001
370
    50
100
AcDbVertex
100
AcDb2dVertex
 10
134.579304
 20
363.083606
 30
0.0
  0
VERTEX
  5
3FD
330
3DF
100
AcDbEntity
  8
001
370
    50
100
AcDbVertex
100
AcDb2dVertex
 10
135.062522
 20
363.164404
 30
0.0
  0
VERTEX
  5
3FE
330
3DF
100
AcDbEntity
  8
001
370
    50
100
AcDbVertex
100
AcDb2dVertex
 10
135.378475
 20
363.202527
 30
0.0
  0
VERTEX
  5
3FF
330
3DF
100
AcDbEntity
  8
001
370
    50
100
AcDbVertex
100
AcDb2dVertex
 10
135.695559
 20
363.227863
 30
0.0
  0
VERTEX
  5
400
330
3DF
100
AcDbEntity
  8
001
370
    50
100
AcDbVertex
100
AcDb2dVertex
 10
136.013325
 20
363.240177
 30
0.0
  0
VERTEX
  5
401
330
3DF
100
AcDbEntity
  8
001
370
    50
100
AcDbVertex
100
AcDb2dVertex
 10
136.331448
 20
363.245232
 30
0.0
  0
SEQEND
  5
3E0
330
3DF
100
AcDbEntity
  8
001
370
    50
  0
POLYLINE
  5
402
330
1F
100
AcDbEntity
  8
001
  6
DASHED
370
    30
100
AcDb2dPolyline
 66
     1
 10
0.0
 20
0.0
 30
0.0
  0
VERTEX
  5
404
330
402
100
AcDbEntity
  8
001
  6
DASHED
370
    30
100
AcDbVertex
100
AcDb2dVertex
 10
127.49771
 20
353.541708
 30
0.0
  0
VERTEX
  5
405
330
402
100
AcDbEntity
  8
001
  6
DASHED
370
    30
100
AcDbVertex
100
AcDb2dVertex
 10
127.481044
 20
353.832242
 30
0.0
  0
VERTEX
  5
406
330
402
100
AcDbEntity
  8
001
  6
DASHED
370
    30
100
AcDbVertex
100
AcDb2dVertex
 10
127.470915
 20
354.122953
 30
0.0
  0
VERTEX
  5
407
330
402
100
AcDbEntity
  8
001
  6
DASHED
370
    30
100
AcDbVertex
100
AcDb2dVertex
 10
127.470062
 20
354.199258
 30
0.0
  0
VERTEX
  5
408
330
402
100
AcDbEntity
  8
001
  6
DASHED
370
    30
100
AcDbVertex
100
AcDb2dVertex
 10
127.469658
 20
354.275575
 30
0.0
  0
SEQEND
  5
403
330
402
100
AcDbEntity
  8
001
  6
DASHED
370
    30
  0
POLYLINE
  5
409
330
1F
100
AcDbEntity
  8
001
370
    50
100
AcDb2dPolyline
 66
     1
 10
0.0
 20
0.0
 30
0.0
  0
VERTEX
  5
40B
330
409
100
AcDbEntity
  8
001
370
    50
100
AcDbVertex
100
AcDb2dVertex
 10
133.195517
 20
359.301707
 30
0.0
  0
VERTEX
  5
40C
330
409
100
AcDbEntity
  8
001
370
    50
100
AcDbVertex
100
AcDb2dVertex
 10
133.061563
 20
359.23887
 30
0.0
  0
VERTEX
  5
40D
330
409
100
AcDbEntity
  8
001
370
    50
100
AcDbVertex
100
AcDb2dVertex
 10
132.930381
 20
359.170892
 30
0.0
  0
VERTEX
  5
40E
330
409
100
AcDbEntity
  8
001
370
    50
100
AcDbVertex
100
AcDb2dVertex
 10
132.80465
 20
359.094068
 30
0.0
  0
VERTEX
  5
40F
330
409
100
AcDbEntity
  8
001
370
    50
100
AcDbVertex
100
AcDb2dVertex
 10
132.684225
 20
359.008886
 30
0.0
  0
VERTEX
  5
410
330
409
100
AcDbEntity
  8
001
370
    50
100
AcDbVertex
100
AcDb2dVertex
 10
132.571924
 20
358.919395
 30
0.0
  0
VERTEX
  5
411
330
409
100
AcDbEntity
  8
001
370
    50
100
AcDbVertex
100
AcDb2dVertex
 10
132.46479
 20
358.823885
 30
0.0
  0
VERTEX
  5
412
330
409
100
AcDbEntity
  8
001
370
    50
100
AcDbVertex
100
AcDb2dVertex
 10
132.365968
 20
358.725521
 30
0.0
  0
VERTEX
  5
413
330
409
100
AcDbEntity
  8
001
370
    50
100
AcDbVertex
100
AcDb2dVertex
 10
132.272564
 20
358.621955
 30
0.0
  0
VERTEX
  5
414
330
409
100
AcDbEntity
  8
001
370
    50
100
AcDbVertex
100
AcDb2dVertex
 10
132.155054
 20
358.473953
 30
0.0
  0
VERTEX
  5
415
330
409
100
AcDbEntity
  8
001
370
    50
100
AcDbVertex
100
AcDb2dVertex
 10
132.048399
 20
358.317932
 30
0.0
  0
VERTEX
  5
416
330
409
100
AcDbEntity
  8
001
370
    50
100
AcDbVertex
100
AcDb2dVertex
 10
131.957945
 20
358.163745
 30
0.0
  0
VERTEX
  5
417
330
409
100
AcDbEntity
  8
001
370
    50
100
AcDbVertex
100
AcDb2dVertex
 10
131.878146
 20
358.003769
 30
0.0
  0
VERTEX
  5
418
330
409
100
AcDbEntity
  8
001
370
    50
100
AcDbVertex
100
AcDb2dVertex
 10
131.792922
 20
357.793069
 30
0.0
  0
VERTEX
  5
419
330
409
100
AcDbEntity
  8
001
370
    50
100
AcDbVertex
100
AcDb2dVertex
 10
131.726878
 20
357.575558
 30
0.0
  0
VERTEX
  5
41A
330
409
100
AcDbEntity
  8
001
370
    50
100
AcDbVertex
100
AcDb2dVertex
 10
131.683554
 20
357.367746
 30
0.0
  0
VERTEX
  5
41B
330
409
100
AcDbEntity
  8
001
370
    50
100
AcDbVertex
100
AcDb2dVertex
 10
131.659037
 20
357.156916
 30
0.0
  0
VERTEX
  5
41C
330
409
100
AcDbEntity
  8
001
370
    50
100
AcDbVertex
100
AcDb2dVertex
 10
131.654245
 20
356.951833
 30
0.0
  0
VERTEX
  5
41D
330
409
100
AcDbEntity
  8
001
370
    50
100
AcDbVertex
100
AcDb2dVertex
 10
131.669092
 20
356.747228
 30
0.0
  0
VERTEX
  5
41E
330
409
100
AcDbEntity
  8
001
370
    50
100
AcDbVertex
100
AcDb2dVertex
 10
131.702747
 20
356.553168
 30
0.0
  0
VERTEX
  5
41F
330
409
100
AcDbEntity
  8
001
370
    50
100
AcDbVertex
100
AcDb2dVertex
 10
131.756082
 20
356.363646
 30
0.0
  0
VERTEX
  5
420
330
409
100
AcDbEntity
  8
001
370
    50
100
AcDbVertex
100
AcDb2dVertex
 10
131.811297
 20
356.221419
 30
0.0
  0
VERTEX
  5
421
330
409
100
AcDbEntity
  8
001
370
    50
100
AcDbVertex
100
AcDb2dVertex
 10
131.878722
 20
356.084585
 30
0.0
  0
VERTEX
  5
422
330
409
100
AcDbEntity
  8
001
370
    50
100
AcDbVertex
100
AcDb2dVertex
 10
131.959002
 20
355.953407
 30
0.0
  0
VERTEX
  5
423
330
409
100
AcDbEntity
  8
001
370
    50
100
AcDbVertex
100
AcDb2dVertex
 10
132.051334
 20
355.830396
 30
0.0
  0
VERTEX
  5
424
330
409
100
AcDbEntity
  8
001
370
    50
100
AcDbVertex
100
AcDb2dVertex
 10
132.15769
 20
355.714514
 30
0.0
  0
VERTEX
  5
425
330
409
100
AcDbEntity
  8
001
370
    50
100
AcDbVertex
100
AcDb2dVertex
 10
132.275176
 20
355.60997
 30
0.0
  0
VERTEX
  5
426
330
409
100
AcDbEntity
  8
001
370
    50
100
AcDbVertex
100
AcDb2dVertex
 10
132.386098
 20
355.528846
 30
0.0
  0
VERTEX
  5
427
330
409
100
AcDbEntity
  8
001
370
    50
100
AcDbVertex
100
AcDb2dVertex
 10
132.503775
 20
355.457867
 30
0.0
  0
VERTEX
  5
428
330
409
100
AcDbEntity
  8
001
370
    50
100
AcDbVertex
100
AcDb2dVertex
 10
132.635103
 20
355.394089
 30
0.0
  0
VERTEX
  5
429
330
409
100
AcDbEntity
  8
001
370
    50
100
AcDbVertex
100
AcDb2dVertex
 10
132.771726
 20
355.342689
 30
0.0
  0
VERTEX
  5
42A
330
409
100
AcDbEntity
  8
001
370
    50
100
AcDbVertex
100
AcDb2dVertex
 10
132.89263
 20
355.308557
 30
0.0
  0
VERTEX
  5
42B
330
409
100
AcDbEntity
  8
001
370
    50
100
AcDbVertex
100
AcDb2dVertex
 10
133.015779
 20
355.283586
 30
0.0
  0
VERTEX
  5
42C
330
409
100
AcDbEntity
  8
001
370
    50
100
AcDbVertex
100
AcDb2dVertex
 10
133.1485
 20
355.266821
 30
0.0
  0
VERTEX
  5
42D
330
409
100
AcDbEntity
  8
001
370
    50
100
AcDbVertex
100
AcDb2dVertex
 10
133.282035
 20
355.260259
 30
0.0
  0
VERTEX
  5
42E
330
409
100
AcDbEntity
  8
001
370
    50
100
AcDbVertex
100
AcDb2dVertex
 10
133.293066
 20
355.260173
 30
0.0
  0
VERTEX
  5
42F
330
409
100
AcDbEntity
  8
001
370
    50
100
AcDbVertex
100
AcDb2dVertex
 10
133.304097
 20
355.260122
 30
0.0
  0
SEQEND
  5
40A
330
409
100
AcDbEntity
  8
001
370
    50
  0
LINE
  5
430
330
1F
100
AcDbEntity
  8
001
370
    50
100
AcDbLine
 10
311.455759
 20
336.630583
 30
0.0
 11
311.455759
 21
352.630583
 31
0.0
  0
POLYLINE
  5
431
330
1F
100
AcDbEntity
  8
001
370
    50
100
AcDb2dPolyline
 66
     1
 10
0.0
 20
0.0
 30
0.0
  0
VERTEX
  5
433
330
431
100
AcDbEntity
  8
001
370
    50
100
AcDbVertex
100
AcDb2dVertex
 10
133.967484
 20
359.460121
 30
0.0
  0
VERTEX
  5
434
330
431
100
AcDbEntity
  8
001
370
    50
100
AcDbVertex
100
AcDb2dVertex
 10
133.869878
 20
359.456511
 30
0.0
  0
VERTEX
  5
435
330
431
100
AcDbEntity
  8
001
370
    50
100
AcDbVertex
100
AcDb2dVertex
 10
133.77246
 20
359.449984
 30
0.0
  0
VERTEX
  5
436
330
431
100
AcDbEntity
  8
001
370
    50
100
AcDbVertex
100
AcDb2dVertex
 10
133.626892
 20
359.430045
 30
0.0
  0
VERTEX
  5
437
330
431
100
AcDbEntity
  8
001
370
    50
100
AcDbVertex
100
AcDb2dVertex
 10
133.483555
 20
359.397668
 30
0.0
  0
VERTEX
  5
438
330
431
100
AcDbEntity
  8
001
370
    50
100
AcDbVertex
100
AcDb2dVertex
 10
133.338572
 20
359.352811
 30
0.0
  0
VERTEX
  5
439
330
431
100
AcDbEntity
  8
001
370
    50
100
AcDbVertex
100
AcDb2dVertex
 10
133.195517
 20
359.301707
 30
0.0
  0
SEQEND
  5
432
330
431
100
AcDbEntity
  8
001
370
    50
  0
POLYLINE
  5
43A
330
1F
100
AcDbEntity
  8
001
370
    50
100
AcDb2dPolyline
 66
     1
 10
0.0
 20
0.0
 30
0.0
  0
VERTEX
  5
43C
330
43A
100
AcDbEntity
  8
001
370
    50
100
AcDbVertex
100
AcDb2dVertex
 10
133.304097
 20
355.260122
 30
0.0
  0
VERTEX
  5
43D
330
43A
100
AcDbEntity
  8
001
370
    50
100
AcDbVertex
100
AcDb2dVertex
 10
133.436359
 20
355.266775
 30
0.0
  0
VERTEX
  5
43E
330
43A
100
AcDbEntity
  8
001
370
    50
100
AcDbVertex
100
AcDb2dVertex
 10
133.568027
 20
355.27888
 30
0.0
  0
VERTEX
  5
43F
330
43A
100
AcDbEntity
  8
001
370
    50
100
AcDbVertex
100
AcDb2dVertex
 10
133.715747
 20
355.304365
 30
0.0
  0
VERTEX
  5
440
330
43A
100
AcDbEntity
  8
001
370
    50
100
AcDbVertex
100
AcDb2dVertex
 10
133.86116
 20
355.341603
 30
0.0
  0
VERTEX
  5
441
330
43A
100
AcDbEntity
  8
001
370
    50
100
AcDbVertex
100
AcDb2dVertex
 10
133.985147
 20
355.382003
 30
0.0
  0
VERTEX
  5
442
330
43A
100
AcDbEntity
  8
001
370
    50
100
AcDbVertex
100
AcDb2dVertex
 10
134.106548
 20
355.42941
 30
0.0
  0
VERTEX
  5
443
330
43A
100
AcDbEntity
  8
001
370
    50
100
AcDbVertex
100
AcDb2dVertex
 10
134.225742
 20
355.483946
 30
0.0
  0
VERTEX
  5
444
330
43A
100
AcDbEntity
  8
001
370
    50
100
AcDbVertex
100
AcDb2dVertex
 10
134.341701
 20
355.545099
 30
0.0
  0
VERTEX
  5
445
330
43A
100
AcDbEntity
  8
001
370
    50
100
AcDbVertex
100
AcDb2dVertex
 10
134.452277
 20
355.611405
 30
0.0
  0
VERTEX
  5
446
330
43A
100
AcDbEntity
  8
001
370
    50
100
AcDbVertex
100
AcDb2dVertex
 10
134.559212
 20
355.683429
 30
0.0
  0
VERTEX
  5
447
330
43A
100
AcDbEntity
  8
001
370
    50
100
AcDbVertex
100
AcDb2dVertex
 10
134.660412
 20
355.759284
 30
0.0
  0
VERTEX
  5
448
330
43A
100
AcDbEntity
  8
001
370
    50
100
AcDbVertex
100
AcDb2dVertex
 10
134.757724
 20
355.840079
 30
0.0
  0
VERTEX
  5
449
330
43A
100
AcDbEntity
  8
001
370
    50
100
AcDbVertex
100
AcDb2dVertex
 10
134.888185
 20
355.962269
 30
0.0
  0
VERTEX
  5
44A
330
43A
100
AcDbEntity
  8
001
370
    50
100
AcDbVertex
100
AcDb2dVertex
 10
135.009985
 20
356.093135
 30
0.0
  0
VERTEX
  5
44B
330
43A
100
AcDbEntity
  8
001
370
    50
100
AcDbVertex
100
AcDb2dVertex
 10
135.117912
 20
356.225633
 30
0.0
  0
VERTEX
  5
44C
330
43A
100
AcDbEntity
  8
001
370
    50
100
AcDbVertex
100
AcDb2dVertex
 10
135.217038
 20
356.364841
 30
0.0
  0
VERTEX
  5
44D
330
43A
100
AcDbEntity
  8
001
370
    50
100
AcDbVertex
100
AcDb2dVertex
 10
135.329913
 20
356.551298
 30
0.0
  0
VERTEX
  5
44E
330
43A
100
AcDbEntity
  8
001
370
    50
100
AcDbVertex
100
AcDb2dVertex
 10
135.426764
 20
356.746603
 30
0.0
  0
VERTEX
  5
44F
330
43A
100
AcDbEntity
  8
001
370
    50
100
AcDbVertex
100
AcDb2dVertex
 10
135.502494
 20
356.93754
 30
0.0
  0
VERTEX
  5
450
330
43A
100
AcDbEntity
  8
001
370
    50
100
AcDbVertex
100
AcDb2dVertex
 10
135.562195
 20
357.134052
 30
0.0
  0
VERTEX
  5
451
330
43A
100
AcDbEntity
  8
001
370
    50
100
AcDbVertex
100
AcDb2dVertex
 10
135.603871
 20
357.328896
 30
0.0
  0
VERTEX
  5
452
330
43A
100
AcDbEntity
  8
001
370
    50
100
AcDbVertex
100
AcDb2dVertex
 10
135.62869
 20
357.526587
 30
0.0
  0
VERTEX
  5
453
330
43A
100
AcDbEntity
  8
001
370
    50
100
AcDbVertex
100
AcDb2dVertex
 10
135.63585
 20
357.717075
 30
0.0
  0
VERTEX
  5
454
330
43A
100
AcDbEntity
  8
001
370
    50
100
AcDbVertex
100
AcDb2dVertex
 10
135.625952
 20
357.907462
 30
0.0
  0
VERTEX
  5
455
330
43A
100
AcDbEntity
  8
001
370
    50
100
AcDbVertex
100
AcDb2dVertex
 10
135.591596
 20
358.12836
 30
0.0
  0
VERTEX
  5
456
330
43A
100
AcDbEntity
  8
001
370
    50
100
AcDbVertex
100
AcDb2dVertex
 10
135.53186
 20
358.34385
 30
0.0
  0
VERTEX
  5
457
330
43A
100
AcDbEntity
  8
001
370
    50
100
AcDbVertex
100
AcDb2dVertex
 10
135.447666
 20
358.547427
 30
0.0
  0
VERTEX
  5
458
330
43A
100
AcDbEntity
  8
001
370
    50
100
AcDbVertex
100
AcDb2dVertex
 10
135.338475
 20
358.738598
 30
0.0
  0
VERTEX
  5
459
330
43A
100
AcDbEntity
  8
001
370
    50
100
AcDbVertex
100
AcDb2dVertex
 10
135.23641
 20
358.876465
 30
0.0
  0
VERTEX
  5
45A
330
43A
100
AcDbEntity
  8
001
370
    50
100
AcDbVertex
100
AcDb2dVertex
 10
135.120337
 20
359.002753
 30
0.0
  0
VERTEX
  5
45B
330
43A
100
AcDbEntity
  8
001
370
    50
100
AcDbVertex
100
AcDb2dVertex
 10
134.986444
 20
359.119676
 30
0.0
  0
VERTEX
  5
45C
330
43A
100
AcDbEntity
  8
001
370
    50
100
AcDbVertex
100
AcDb2dVertex
 10
134.840312
 20
359.220808
 30
0.0
  0
VERTEX
  5
45D
330
43A
100
AcDbEntity
  8
001
370
    50
100
AcDbVertex
100
AcDb2dVertex
 10
134.716317
 20
359.289106
 30
0.0
  0
VERTEX
  5
45E
330
43A
100
AcDbEntity
  8
001
370
    50
100
AcDbVertex
100
AcDb2dVertex
 10
134.586767
 20
359.346118
 30
0.0
  0
VERTEX
  5
45F
330
43A
100
AcDbEntity
  8
001
370
    50
100
AcDbVertex
100
AcDb2dVertex
 10
134.444633
 20
359.393999
 30
0.0
  0
VERTEX
  5
460
330
43A
100
AcDbEntity
  8
001
370
    50
100
AcDbVertex
100
AcDb2dVertex
 10
134.298745
 20
359.428918
 30
0.0
  0
VERTEX
  5
461
330
43A
100
AcDbEntity
  8
001
370
    50
100
AcDbVertex
100
AcDb2dVertex
 10
134.171562
 20
359.448494
 30
0.0
  0
VERTEX
  5
462
330
43A
100
AcDbEntity
  8
001
370
    50
100
AcDbVertex
100
AcDb2dVertex
 10
134.043347
 20
359.45835
 30
0.0
  0
VERTEX
  5
463
330
43A
100
AcDbEntity
  8
001
370
    50
100
AcDbVertex
100
AcDb2dVertex
 10
134.005421
 20
359.459451
 30
0.0
  0
VERTEX
  5
464
330
43A
100
AcDbEntity
  8
001
370
    50
100
AcDbVertex
100
AcDb2dVertex
 10
133.967484
 20
359.460121
 30
0.0
  0
SEQEND
  5
43B
330
43A
100
AcDbEntity
  8
001
370
    50
  0
LINE
  5
465
330
1F
100
AcDbEntity
  8
001
  6
DASHED
370
    30
100
AcDbLine
 10
127.944896
 20
348.130583
 30
0.0
 11
127.944896
 21
341.130583
 31
0.0
  0
LINE
  5
466
330
1F
100
AcDbEntity
  8
001
  6
DASHED
370
    30
100
AcDbLine
 10
127.944896
 20
348.130583
 30
0.0
 11
127.737574
 21
350.764859
 31
0.0
  0
POLYLINE
  5
467
330
1F
100
AcDbEntity
  8
001
  6
DASHED
370
    30
100
AcDb2dPolyline
 66
     1
 10
0.0
 20
0.0
 30
0.0
  0
VERTEX
  5
469
330
467
100
AcDbEntity
  8
001
  6
DASHED
370
    30
100
AcDbVertex
100
AcDb2dVertex
 10
127.662342
 20
351.356642
 30
0.0
  0
VERTEX
  5
46A
330
467
100
AcDbEntity
  8
001
  6
DASHED
370
    30
100
AcDbVertex
100
AcDb2dVertex
 10
127.699868
 20
351.105534
 30
0.0
  0
VERTEX
  5
46B
330
467
100
AcDbEntity
  8
001
  6
DASHED
370
    30
100
AcDbVertex
100
AcDb2dVertex
 10
127.729866
 20
350.853595
 30
0.0
  0
VERTEX
  5
46C
330
467
100
AcDbEntity
  8
001
  6
DASHED
370
    30
100
AcDbVertex
100
AcDb2dVertex
 10
127.733854
 20
350.809016
 30
0.0
  0
VERTEX
  5
46D
330
467
100
AcDbEntity
  8
001
  6
DASHED
370
    30
100
AcDbVertex
100
AcDb2dVertex
 10
127.737609
 20
350.764412
 30
0.0
  0
SEQEND
  5
468
330
467
100
AcDbEntity
  8
001
  6
DASHED
370
    30
  0
LINE
  5
46E
330
1F
100
AcDbEntity
  8
001
  6
DASHED
370
    30
100
AcDbLine
 10
127.662342
 20
351.356642
 30
0.0
 11
127.49771
 21
353.541708
 31
0.0
  0
POLYLINE
  5
46F
330
1F
100
AcDbEntity
  8
001
370
    50
100
AcDb2dPolyline
 66
     1
 10
0.0
 20
0.0
 30
0.0
  0
VERTEX
  5
471
330
46F
100
AcDbEntity
  8
001
370
    50
100
AcDbVertex
100
AcDb2dVertex
 10
127.825465
 20
342.630583
 30
0.0
  0
VERTEX
  5
472
330
46F
100
AcDbEntity
  8
001
370
    50
100
AcDbVertex
100
AcDb2dVertex
 10
127.83987
 20
342.619311
 30
0.0
  0
VERTEX
  5
473
330
46F
100
AcDbEntity
  8
001
370
    50
100
AcDbVertex
100
AcDb2dVertex
 10
127.852416
 20
342.606754
 30
0.0
  0
VERTEX
  5
474
330
46F
100
AcDbEntity
  8
001
370
    50
100
AcDbVertex
100
AcDb2dVertex
 10
127.868592
 20
342.573773
 30
0.0
  0
VERTEX
  5
475
330
46F
100
AcDbEntity
  8
001
370
    50
100
AcDbVertex
100
AcDb2dVertex
 10
127.876591
 20
342.535747
 30
0.0
  0
VERTEX
  5
476
330
46F
100
AcDbEntity
  8
001
370
    50
100
AcDbVertex
100
AcDb2dVertex
 10
127.891278
 20
342.447503
 30
0.0
  0
VERTEX
  5
477
330
46F
100
AcDbEntity
  8
001
370
    50
100
AcDbVertex
100
AcDb2dVertex
 10
127.90335
 20
342.361336
 30
0.0
  0
VERTEX
  5
478
330
46F
100
AcDbEntity
  8
001
370
    50
100
AcDbVertex
100
AcDb2dVertex
 10
127.914441
 20
342.232824
 30
0.0
  0
VERTEX
  5
479
330
46F
100
AcDbEntity
  8
001
370
    50
100
AcDbVertex
100
AcDb2dVertex
 10
127.919991
 20
342.102719
 30
0.0
  0
VERTEX
  5
47A
330
46F
100
AcDbEntity
  8
001
370
    50
100
AcDbVertex
100
AcDb2dVertex
 10
127.923414
 20
341.939523
 30
0.0
  0
VERTEX
  5
47B
330
46F
100
AcDbEntity
  8
001
370
    50
100
AcDbVertex
100
AcDb2dVertex
 10
127.923927
 20
341.776776
 30
0.0
  0
VERTEX
  5
47C
330
46F
100
AcDbEntity
  8
001
370
    50
100
AcDbVertex
100
AcDb2dVertex
 10
127.921173
 20
341.581637
 30
0.0
  0
VERTEX
  5
47D
330
46F
100
AcDbEntity
  8
001
370
    50
100
AcDbVertex
100
AcDb2dVertex
 10
127.915529
 20
341.386388
 30
0.0
  0
VERTEX
  5
47E
330
46F
100
AcDbEntity
  8
001
370
    50
100
AcDbVertex
100
AcDb2dVertex
 10
127.907018
 20
341.173876
 30
0.0
  0
VERTEX
  5
47F
330
46F
100
AcDbEntity
  8
001
370
    50
100
AcDbVertex
100
AcDb2dVertex
 10
127.896615
 20
340.9615
 30
0.0
  0
VERTEX
  5
480
330
46F
100
AcDbEntity
  8
001
370
    50
100
AcDbVertex
100
AcDb2dVertex
 10
127.883685
 20
340.730662
 30
0.0
  0
VERTEX
  5
481
330
46F
100
AcDbEntity
  8
001
370
    50
100
AcDbVertex
100
AcDb2dVertex
 10
127.869449
 20
340.499885
 30
0.0
  0
VERTEX
  5
482
330
46F
100
AcDbEntity
  8
001
370
    50
100
AcDbVertex
100
AcDb2dVertex
 10
127.855269
 20
340.284733
 30
0.0
  0
VERTEX
  5
483
330
46F
100
AcDbEntity
  8
001
370
    50
100
AcDbVertex
100
AcDb2dVertex
 10
127.840333
 20
340.069637
 30
0.0
  0
VERTEX
  5
484
330
46F
100
AcDbEntity
  8
001
370
    50
100
AcDbVertex
100
AcDb2dVertex
 10
127.824429
 20
339.850098
 30
0.0
  0
VERTEX
  5
485
330
46F
100
AcDbEntity
  8
001
370
    50
100
AcDbVertex
100
AcDb2dVertex
 10
127.808172
 20
339.630583
 30
0.0
  0
SEQEND
  5
470
330
46F
100
AcDbEntity
  8
001
370
    50
  0
LINE
  5
486
330
1F
100
AcDbEntity
  8
001
370
    50
100
AcDbLine
 10
147.756709
 20
342.630583
 30
0.0
 11
127.469658
 21
342.630583
 31
0.0
  0
LINE
  5
487
330
1F
100
AcDbEntity
  8
001
370
    50
100
AcDbLine
 10
127.469658
 20
351.358588
 30
0.0
 11
127.417107
 21
351.359119
 31
0.0
  0
LINE
  5
488
330
1F
100
AcDbEntity
  8
001
370
    50
100
AcDbLine
 10
143.217267
 20
363.361124
 30
0.0
 11
143.233843
 21
363.143867
 31
0.0
  0
LINE
  5
489
330
1F
100
AcDbEntity
  8
001
370
    50
100
AcDbLine
 10
163.455759
 20
328.630583
 30
0.0
 11
163.455759
 21
360.630583
 31
0.0
  0
LINE
  5
48A
330
1F
100
AcDbEntity
  8
001
370
    50
100
AcDbLine
 10
303.455759
 20
360.630583
 30
0.0
 11
163.455759
 21
360.630583
 31
0.0
  0
LINE
  5
48B
330
1F
100
AcDbEntity
  8
001
370
    50
100
AcDbLine
 10
303.455759
 20
328.630583
 30
0.0
 11
163.455759
 21
328.630583
 31
0.0
  0
LINE
  5
48C
330
1F
100
AcDbEntity
  8
001
370
    50
100
AcDbLine
 10
311.455759
 20
344.630583
 30
0.0
 11
314.919861
 21
346.630583
 31
0.0
  0
LINE
  5
48D
330
1F
100
AcDbEntity
  8
001
370
    50
100
AcDbLine
 10
311.455759
 20
344.630583
 30
0.0
 11
314.919861
 21
342.630583
 31
0.0
  0
LINE
  5
48E
330
1F
100
AcDbEntity
  8
001
370
    50
100
AcDbLine
 10
163.455759
 20
360.130583
 30
0.0
 11
161.455759
 21
360.130583
 31
0.0
  0
LINE
  5
48F
330
1F
100
AcDbEntity
  8
001
370
    50
100
AcDbLine
 10
161.455759
 20
329.130583
 30
0.0
 11
163.455759
 21
329.130583
 31
0.0
  0
ARC
  5
490
330
1F
100
AcDbEntity
  8
001
370
    50
100
AcDbCircle
 10
303.455759
 20
352.630583
 30
0.0
 40
8.0
100
AcDbArc
 50
0.0
 51
90.0
  0
ARC
  5
491
330
1F
100
AcDbEntity
  8
001
370
    50
100
AcDbCircle
 10
303.455759
 20
336.630583
 30
0.0
 40
8.0
100
AcDbArc
 50
270.0
 51
0.0
  0
ARC
  5
492
330
1F
100
AcDbEntity
  8
001
370
    50
100
AcDbCircle
 10
144.452268
 20
325.146511
 30
0.0
 40
0.4
100
AcDbArc
 50
270.5
 51
355.5
  0
ARC
  5
493
330
1F
100
AcDbEntity
  8
001
370
    50
100
AcDbCircle
 10
127.52567
 20
338.487309
 30
0.0
 40
0.4
100
AcDbArc
 50
90.5
 51
175.5
  0
LINE
  5
494
330
1F
100
AcDbEntity
  8
001
370
    50
100
AcDbLine
 10
126.886586
 20
335.465174
 30
0.0
 11
127.126903
 21
338.518692
 31
0.0
  0
LINE
  5
495
330
1F
100
AcDbEntity
  8
001
370
    50
100
AcDbLine
 10
145.494334
 20
333.289015
 30
0.0
 11
144.851035
 21
325.115128
 31
0.0
  0
ARC
  5
496
330
1F
100
AcDbEntity
  8
001
370
    50
100
AcDbCircle
 10
142.58917
 20
336.038565
 30
0.0
 40
4.0
100
AcDbArc
 50
316.57635
 51
132.338696
  0
CIRCLE
  5
497
330
1F
100
AcDbEntity
  8
001
370
    50
100
AcDbCircle
 10
136.154028
 20
331.81835
 30
0.0
 40
3.75
  0
CIRCLE
  5
498
330
1F
100
AcDbEntity
  8
001
370
    50
100
AcDbCircle
 10
136.154028
 20
331.81835
 30
0.0
 40
3.25
  0
LINE
  5
499
330
1F
100
AcDbEntity
  8
001
370
    50
100
AcDbLine
 10
135.360171
 20
333.19335
 30
0.0
 11
135.721015
 21
333.81835
 31
0.0
  0
LINE
  5
49A
330
1F
100
AcDbEntity
  8
001
370
    50
100
AcDbLine
 10
136.947884
 20
333.19335
 30
0.0
 11
136.58704
 21
333.81835
 31
0.0
  0
ARC
  5
49B
330
1F
100
AcDbEntity
  8
001
370
    50
100
AcDbCircle
 10
136.154028
 20
333.56835
 30
0.0
 40
0.5
100
AcDbArc
 50
30.0
 51
150.0
  0
LINE
  5
49C
330
1F
100
AcDbEntity
  8
001
370
    50
100
AcDbLine
 10
134.566314
 20
331.81835
 30
0.0
 11
134.20547
 21
332.44335
 31
0.0
  0
LINE
  5
49D
330
1F
100
AcDbEntity
  8
001
370
    50
100
AcDbLine
 10
135.360171
 20
333.19335
 30
0.0
 11
134.638483
 21
333.19335
 31
0.0
  0
ARC
  5
49E
330
1F
100
AcDbEntity
  8
001
370
    50
100
AcDbCircle
 10
134.638483
 20
332.69335
 30
0.0
 40
0.5
100
AcDbArc
 50
90.0
 51
210.0
  0
LINE
  5
49F
330
1F
100
AcDbEntity
  8
001
370
    50
100
AcDbLine
 10
135.360171
 20
330.44335
 30
0.0
 11
134.638483
 21
330.44335
 31
0.0
  0
LINE
  5
4A0
330
1F
100
AcDbEntity
  8
001
370
    50
100
AcDbLine
 10
134.566314
 20
331.81835
 30
0.0
 11
134.20547
 21
331.19335
 31
0.0
  0
ARC
  5
4A1
330
1F
100
AcDbEntity
  8
001
370
    50
100
AcDbCircle
 10
134.638483
 20
330.94335
 30
0.0
 40
0.5
100
AcDbArc
 50
150.0
 51
270.0
  0
LINE
  5
4A2
330
1F
100
AcDbEntity
  8
001
370
    50
100
AcDbLine
 10
136.947884
 20
330.44335
 30
0.0
 11
136.58704
 21
329.81835
 31
0.0
  0
LINE
  5
4A3
330
1F
100
AcDbEntity
  8
001
370
    50
100
AcDbLine
 10
135.360171
 20
330.44335
 30
0.0
 11
135.721015
 21
329.81835
 31
0.0
  0
ARC
  5
4A4
330
1F
100
AcDbEntity
  8
001
370
    50
100
AcDbCircle
 10
136.154028
 20
330.06835
 30
0.0
 40
0.5
100
AcDbArc
 50
210.0
 51
330.0
  0
LINE
  5
4A5
330
1F
100
AcDbEntity
  8
001
370
    50
100
AcDbLine
 10
137.741741
 20
331.81835
 30
0.0
 11
138.102585
 21
331.19335
 31
0.0
  0
LINE
  5
4A6
330
1F
100
AcDbEntity
  8
001
370
    50
100
AcDbLine
 10
136.947884
 20
330.44335
 30
0.0
 11
137.669572
 21
330.44335
 31
0.0
  0
ARC
  5
4A7
330
1F
100
AcDbEntity
  8
001
370
    50
100
AcDbCircle
 10
137.669572
 20
330.94335
 30
0.0
 40
0.5
100
AcDbArc
 50
270.0
 51
30.0
  0
LINE
  5
4A8
330
1F
100
AcDbEntity
  8
001
370
    50
100
AcDbLine
 10
136.947884
 20
333.19335
 30
0.0
 11
137.669572
 21
333.19335
 31
0.0
  0
LINE
  5
4A9
330
1F
100
AcDbEntity
  8
001
370
    50
100
AcDbLine
 10
137.741741
 20
331.81835
 30
0.0
 11
138.102585
 21
332.44335
 31
0.0
  0
ARC
  5
4AA
330
1F
100
AcDbEntity
  8
001
370
    50
100
AcDbCircle
 10
137.669572
 20
332.69335
 30
0.0
 40
0.5
100
AcDbArc
 50
330.0
 51
90.0
  0
POLYLINE
  5
4AB
330
1F
100
AcDbEntity
  8
001
370
    50
100
AcDb2dPolyline
 66
     1
 10
0.0
 20
0.0
 30
0.0
  0
VERTEX
  5
4AD
330
4AB
100
AcDbEntity
  8
001
370
    50
100
AcDbVertex
100
AcDb2dVertex
 10
144.879332
 20
325.468583
 30
0.0
  0
VERTEX
  5
4AE
330
4AB
100
AcDbEntity
  8
001
370
    50
100
AcDbVertex
100
AcDb2dVertex
 10
145.128922
 20
325.465554
 30
0.0
  0
VERTEX
  5
4AF
330
4AB
100
AcDbEntity
  8
001
370
    50
100
AcDbVertex
100
AcDb2dVertex
 10
145.378511
 20
325.462525
 30
0.0
  0
VERTEX
  5
4B0
330
4AB
100
AcDbEntity
  8
001
370
    50
100
AcDbVertex
100
AcDb2dVertex
 10
145.435622
 20
325.461835
 30
0.0
  0
VERTEX
  5
4B1
330
4AB
100
AcDbEntity
  8
001
370
    50
100
AcDbVertex
100
AcDb2dVertex
 10
145.493072
 20
325.461146
 30
0.0
  0
VERTEX
  5
4B2
330
4AB
100
AcDbEntity
  8
001
370
    50
100
AcDbVertex
100
AcDb2dVertex
 10
145.883115
 20
325.456624
 30
0.0
  0
VERTEX
  5
4B3
330
4AB
100
AcDbEntity
  8
001
370
    50
100
AcDbVertex
100
AcDb2dVertex
 10
146.149989
 20
325.453657
 30
0.0
  0
SEQEND
  5
4AC
330
4AB
100
AcDbEntity
  8
001
370
    50
  0
ARC
  5
4B4
330
1F
100
AcDbEntity
  8
001
370
    50
100
AcDbCircle
 10
136.855759
 20
334.680583
 30
0.0
 40
10.0
100
AcDbArc
 50
175.5
 51
270.5
  0
ARC
  5
4B5
330
1F
100
AcDbEntity
  8
001
370
    50
100
AcDbCircle
 10
135.122179
 20
328.953237
 30
0.0
 40
10.0
100
AcDbArc
 50
355.5
 51
90.5
  0
LINE
  5
4B6
330
1F
100
AcDbEntity
  8
001
370
     9
100
AcDbLine
 10
121.358254
 20
324.680583
 30
0.0
 11
136.855759
 21
324.680583
 31
0.0
  0
LINE
  5
4B7
330
1F
100
AcDbEntity
  8
001
370
     9
100
AcDbLine
 10
126.855759
 20
334.680583
 30
0.0
 11
126.855759
 21
319.38946
 31
0.0
  0
LINE
  5
4B8
330
1F
100
AcDbEntity
  8
001
370
    50
100
AcDbLine
 10
144.455759
 20
324.746526
 30
0.0
 11
136.943024
 21
324.680964
 31
0.0
  0
LINE
  5
4B9
330
1F
100
AcDbEntity
  8
001
370
    50
100
AcDbLine
 10
139.895123
 20
338.99527
 30
0.0
 11
127.522179
 21
338.887293
 31
0.0
  0
LINE
  5
4BA
330
1F
100
AcDbEntity
  8
001
370
    50
100
AcDbLine
 10
127.469658
 20
354.276687
 30
0.0
 11
127.469658
 21
338.883368
 31
0.0
  0
LINE
  5
4BB
330
1F
100
AcDbEntity
  8
001
  6
DASHED
370
    30
100
AcDbLine
 10
127.768514
 20
338.889443
 30
0.0
 11
127.944896
 21
341.130583
 31
0.0
  0
LINE
  5
4BC
330
1F
100
AcDbEntity
  8
001
370
    50
100
AcDbLine
 10
127.751954
 20
338.889299
 30
0.0
 11
127.808172
 21
339.630583
 31
0.0
  0
ARC
  5
4BD
330
1F
100
AcDbEntity
  8
001
370
    50
100
AcDbCircle
 10
144.452268
 20
364.114655
 30
0.0
 40
0.4
100
AcDbArc
 50
4.5
 51
89.5
  0
LINE
  5
4BE
330
1F
100
AcDbEntity
  8
001
370
    50
100
AcDbLine
 10
126.886586
 20
353.795992
 30
0.0
 11
127.126903
 21
350.742474
 31
0.0
  0
ARC
  5
4BF
330
1F
100
AcDbEntity
  8
001
370
    50
100
AcDbCircle
 10
136.855759
 20
354.580583
 30
0.0
 40
10.0
100
AcDbArc
 50
89.5
 51
184.5
  0
LINE
  5
4C0
330
1F
100
AcDbEntity
  8
001
370
    50
100
AcDbLine
 10
144.455759
 20
364.51464
 30
0.0
 11
136.943024
 21
364.580202
 31
0.0
  0
LINE
  5
4C1
330
1F
100
AcDbEntity
  8
001
370
    50
100
AcDbLine
 10
144.878868
 20
363.792394
 30
0.0
 11
144.851035
 21
364.146038
 31
0.0
  0
ARC
  5
4C2
330
1F
100
AcDbEntity
  8
001
370
    50
100
AcDbCircle
 10
127.52567
 20
350.773857
 30
0.0
 40
0.4
100
AcDbArc
 50
184.5
 51
261.950468
  0
LINE
  5
4C3
330
1F
100
AcDbEntity
  8
001
  6
CENTER
370
     9
100
AcDbLine
 10
124.092015
 20
344.630583
 30
0.0
 11
318.203678
 21
344.630583
 31
0.0
  0
LINE
  5
4C4
330
1F
100
AcDbEntity
  8
001
370
    50
100
AcDbLine
 10
394.741245
 20
150.869768
 30
0.0
 11
394.569111
 21
153.125921
 31
0.0
  0
POLYLINE
  5
4C5
330
1F
100
AcDbEntity
  8
001
370
    50
100
AcDb2dPolyline
 66
     1
 10
0.0
 20
0.0
 30
0.0
  0
VERTEX
  5
4C7
330
4C5
100
AcDbEntity
  8
001
370
    50
100
AcDbVertex
100
AcDb2dVertex
 10
403.605647
 20
162.94184
 30
0.0
  0
VERTEX
  5
4C8
330
4C5
100
AcDbEntity
  8
001
370
    50
100
AcDbVertex
100
AcDb2dVertex
 10
402.910975
 20
162.91018
 30
0.0
  0
VERTEX
  5
4C9
330
4C5
100
AcDbEntity
  8
001
370
    50
100
AcDbVertex
100
AcDb2dVertex
 10
401.960268
 20
162.80425
 30
0.0
  0
VERTEX
  5
4CA
330
4C5
100
AcDbEntity
  8
001
370
    50
100
AcDbVertex
100
AcDb2dVertex
 10
401.118395
 20
162.621116
 30
0.0
  0
VERTEX
  5
4CB
330
4C5
100
AcDbEntity
  8
001
370
    50
100
AcDbVertex
100
AcDb2dVertex
 10
400.367555
 20
162.362923
 30
0.0
  0
VERTEX
  5
4CC
330
4C5
100
AcDbEntity
  8
001
370
    50
100
AcDbVertex
100
AcDb2dVertex
 10
399.61698
 20
162.032263
 30
0.0
  0
VERTEX
  5
4CD
330
4C5
100
AcDbEntity
  8
001
370
    50
100
AcDbVertex
100
AcDb2dVertex
 10
398.881411
 20
161.632797
 30
0.0
  0
VERTEX
  5
4CE
330
4C5
100
AcDbEntity
  8
001
370
    50
100
AcDbVertex
100
AcDb2dVertex
 10
398.19122
 20
161.166643
 30
0.0
  0
VERTEX
  5
4CF
330
4C5
100
AcDbEntity
  8
001
370
    50
100
AcDbVertex
100
AcDb2dVertex
 10
397.552136
 20
160.638581
 30
0.0
  0
VERTEX
  5
4D0
330
4C5
100
AcDbEntity
  8
001
370
    50
100
AcDbVertex
100
AcDb2dVertex
 10
396.960995
 20
160.051504
 30
0.0
  0
VERTEX
  5
4D1
330
4C5
100
AcDbEntity
  8
001
370
    50
100
AcDbVertex
100
AcDb2dVertex
 10
396.424718
 20
159.413925
 30
0.0
  0
VERTEX
  5
4D2
330
4C5
100
AcDbEntity
  8
001
370
    50
100
AcDbVertex
100
AcDb2dVertex
 10
395.948295
 20
158.729944
 30
0.0
  0
VERTEX
  5
4D3
330
4C5
100
AcDbEntity
  8
001
370
    50
100
AcDbVertex
100
AcDb2dVertex
 10
395.537313
 20
158.000276
 30
0.0
  0
VERTEX
  5
4D4
330
4C5
100
AcDbEntity
  8
001
370
    50
100
AcDbVertex
100
AcDb2dVertex
 10
395.193996
 20
157.227436
 30
0.0
  0
VERTEX
  5
4D5
330
4C5
100
AcDbEntity
  8
001
370
    50
100
AcDbVertex
100
AcDb2dVertex
 10
394.919955
 20
156.445479
 30
0.0
  0
VERTEX
  5
4D6
330
4C5
100
AcDbEntity
  8
001
370
    50
100
AcDbVertex
100
AcDb2dVertex
 10
394.716706
 20
155.666782
 30
0.0
  0
VERTEX
  5
4D7
330
4C5
100
AcDbEntity
  8
001
370
    50
100
AcDbVertex
100
AcDb2dVertex
 10
394.593538
 20
154.802155
 30
0.0
  0
VERTEX
  5
4D8
330
4C5
100
AcDbEntity
  8
001
370
    50
100
AcDbVertex
100
AcDb2dVertex
 10
394.553442
 20
153.831773
 30
0.0
  0
VERTEX
  5
4D9
330
4C5
100
AcDbEntity
  8
001
370
    50
100
AcDbVertex
100
AcDb2dVertex
 10
394.569111
 20
153.125921
 30
0.0
  0
SEQEND
  5
4C6
330
4C5
100
AcDbEntity
  8
001
370
    50
  0
LINE
  5
4DA
330
1F
100
AcDbEntity
  8
001
370
    50
100
AcDbLine
 10
403.605647
 20
162.94184
 30
0.0
 11
410.541406
 21
162.871773
 31
0.0
  0
POLYLINE
  5
4DB
330
1F
100
AcDbEntity
  8
001
370
    50
100
AcDb2dPolyline
 66
     1
 10
0.0
 20
0.0
 30
0.0
  0
VERTEX
  5
4DD
330
4DB
100
AcDbEntity
  8
001
370
    50
100
AcDbVertex
100
AcDb2dVertex
 10
421.84073
 20
124.891517
 30
0.0
  0
VERTEX
  5
4DE
330
4DB
100
AcDbEntity
  8
001
370
    50
100
AcDbVertex
100
AcDb2dVertex
 10
421.844479
 20
124.891414
 30
0.0
  0
VERTEX
  5
4DF
330
4DB
100
AcDbEntity
  8
001
370
    50
100
AcDbVertex
100
AcDb2dVertex
 10
421.849959
 20
124.891303
 30
0.0
  0
VERTEX
  5
4E0
330
4DB
100
AcDbEntity
  8
001
370
    50
100
AcDbVertex
100
AcDb2dVertex
 10
421.855439
 20
124.891245
 30
0.0
  0
VERTEX
  5
4E1
330
4DB
100
AcDbEntity
  8
001
370
    50
100
AcDbVertex
100
AcDb2dVertex
 10
421.859189
 20
124.891232
 30
0.0
  0
SEQEND
  5
4DC
330
4DB
100
AcDbEntity
  8
001
370
    50
  0
POLYLINE
  5
4E2
330
1F
100
AcDbEntity
  8
001
370
    50
100
AcDb2dPolyline
 66
     1
 10
0.0
 20
0.0
 30
0.0
  0
VERTEX
  5
4E4
330
4E2
100
AcDbEntity
  8
001
370
    50
100
AcDbVertex
100
AcDb2dVertex
 10
421.859189
 20
163.391232
 30
0.0
  0
VERTEX
  5
4E5
330
4E2
100
AcDbEntity
  8
001
370
    50
100
AcDbVertex
100
AcDb2dVertex
 10
421.855439
 20
163.391219
 30
0.0
  0
VERTEX
  5
4E6
330
4E2
100
AcDbEntity
  8
001
370
    50
100
AcDbVertex
100
AcDb2dVertex
 10
421.849959
 20
163.391161
 30
0.0
  0
VERTEX
  5
4E7
330
4E2
100
AcDbEntity
  8
001
370
    50
100
AcDbVertex
100
AcDb2dVertex
 10
421.844479
 20
163.39105
 30
0.0
  0
VERTEX
  5
4E8
330
4E2
100
AcDbEntity
  8
001
370
    50
100
AcDbVertex
100
AcDb2dVertex
 10
421.84073
 20
163.390947
 30
0.0
  0
SEQEND
  5
4E3
330
4E2
100
AcDbEntity
  8
001
370
    50
  0
LINE
  5
4E9
330
1F
100
AcDbEntity
  8
001
370
    50
100
AcDbLine
 10
426.779898
 20
163.391232
 30
0.0
 11
421.859189
 21
163.391232
 31
0.0
  0
LINE
  5
4EA
330
1F
100
AcDbEntity
  8
001
370
    50
100
AcDbLine
 10
421.859189
 20
124.891232
 30
0.0
 11
426.779898
 21
124.891232
 31
0.0
  0
POLYLINE
  5
4EB
330
1F
100
AcDbEntity
  8
001
370
    50
100
AcDb2dPolyline
 66
     1
 10
0.0
 20
0.0
 30
0.0
  0
VERTEX
  5
4ED
330
4EB
100
AcDbEntity
  8
001
370
    50
100
AcDbVertex
100
AcDb2dVertex
 10
413.474128
 20
124.964306
 30
0.0
  0
VERTEX
  5
4EE
330
4EB
100
AcDbEntity
  8
001
370
    50
100
AcDbVertex
100
AcDb2dVertex
 10
414.468912
 20
124.980551
 30
0.0
  0
VERTEX
  5
4EF
330
4EB
100
AcDbEntity
  8
001
370
    50
100
AcDbVertex
100
AcDb2dVertex
 10
415.92278
 20
125.006942
 30
0.0
  0
VERTEX
  5
4F0
330
4EB
100
AcDbEntity
  8
001
370
    50
100
AcDbVertex
100
AcDb2dVertex
 10
417.373086
 20
125.036953
 30
0.0
  0
VERTEX
  5
4F1
330
4EB
100
AcDbEntity
  8
001
370
    50
100
AcDbVertex
100
AcDb2dVertex
 10
418.365362
 20
125.059298
 30
0.0
  0
SEQEND
  5
4EC
330
4EB
100
AcDbEntity
  8
001
370
    50
  0
POLYLINE
  5
4F2
330
1F
100
AcDbEntity
  8
001
370
    50
100
AcDb2dPolyline
 66
     1
 10
0.0
 20
0.0
 30
0.0
  0
VERTEX
  5
4F4
330
4F2
100
AcDbEntity
  8
001
370
    50
100
AcDbVertex
100
AcDb2dVertex
 10
418.365362
 20
125.059298
 30
0.0
  0
VERTEX
  5
4F5
330
4F2
100
AcDbEntity
  8
001
370
    50
100
AcDbVertex
100
AcDb2dVertex
 10
418.615156
 20
125.063177
 30
0.0
  0
VERTEX
  5
4F6
330
4F2
100
AcDbEntity
  8
001
370
    50
100
AcDbVertex
100
AcDb2dVertex
 10
418.86496
 20
125.065318
 30
0.0
  0
VERTEX
  5
4F7
330
4F2
100
AcDbEntity
  8
001
370
    50
100
AcDbVertex
100
AcDb2dVertex
 10
419.115072
 20
125.064332
 30
0.0
  0
VERTEX
  5
4F8
330
4F2
100
AcDbEntity
  8
001
370
    50
100
AcDbVertex
100
AcDb2dVertex
 10
419.36516
 20
125.060245
 30
0.0
  0
VERTEX
  5
4F9
330
4F2
100
AcDbEntity
  8
001
370
    50
100
AcDbVertex
100
AcDb2dVertex
 10
419.608416
 20
125.053606
 30
0.0
  0
VERTEX
  5
4FA
330
4F2
100
AcDbEntity
  8
001
370
    50
100
AcDbVertex
100
AcDb2dVertex
 10
419.851586
 20
125.044415
 30
0.0
  0
VERTEX
  5
4FB
330
4F2
100
AcDbEntity
  8
001
370
    50
100
AcDbVertex
100
AcDb2dVertex
 10
420.081332
 20
125.033398
 30
0.0
  0
VERTEX
  5
4FC
330
4F2
100
AcDbEntity
  8
001
370
    50
100
AcDbVertex
100
AcDb2dVertex
 10
420.310958
 20
125.020123
 30
0.0
  0
VERTEX
  5
4FD
330
4F2
100
AcDbEntity
  8
001
370
    50
100
AcDbVertex
100
AcDb2dVertex
 10
420.52133
 20
125.005998
 30
0.0
  0
VERTEX
  5
4FE
330
4F2
100
AcDbEntity
  8
001
370
    50
100
AcDbVertex
100
AcDb2dVertex
 10
420.731578
 20
124.990133
 30
0.0
  0
VERTEX
  5
4FF
330
4F2
100
AcDbEntity
  8
001
370
    50
100
AcDbVertex
100
AcDb2dVertex
 10
420.916179
 20
124.974877
 30
0.0
  0
VERTEX
  5
500
330
4F2
100
AcDbEntity
  8
001
370
    50
100
AcDbVertex
100
AcDb2dVertex
 10
421.100683
 20
124.958487
 30
0.0
  0
VERTEX
  5
501
330
4F2
100
AcDbEntity
  8
001
370
    50
100
AcDbVertex
100
AcDb2dVertex
 10
421.255001
 20
124.944012
 30
0.0
  0
VERTEX
  5
502
330
4F2
100
AcDbEntity
  8
001
370
    50
100
AcDbVertex
100
AcDb2dVertex
 10
421.409278
 20
124.929121
 30
0.0
  0
VERTEX
  5
503
330
4F2
100
AcDbEntity
  8
001
370
    50
100
AcDbVertex
100
AcDb2dVertex
 10
421.527942
 20
124.917589
 30
0.0
  0
VERTEX
  5
504
330
4F2
100
AcDbEntity
  8
001
370
    50
100
AcDbVertex
100
AcDb2dVertex
 10
421.646626
 20
124.906191
 30
0.0
  0
VERTEX
  5
505
330
4F2
100
AcDbEntity
  8
001
370
    50
100
AcDbVertex
100
AcDb2dVertex
 10
421.704413
 20
124.900851
 30
0.0
  0
VERTEX
  5
506
330
4F2
100
AcDbEntity
  8
001
370
    50
100
AcDbVertex
100
AcDb2dVertex
 10
421.762253
 20
124.896217
 30
0.0
  0
VERTEX
  5
507
330
4F2
100
AcDbEntity
  8
001
370
    50
100
AcDbVertex
100
AcDb2dVertex
 10
421.801481
 20
124.893714
 30
0.0
  0
VERTEX
  5
508
330
4F2
100
AcDbEntity
  8
001
370
    50
100
AcDbVertex
100
AcDb2dVertex
 10
421.84073
 20
124.891517
 30
0.0
  0
SEQEND
  5
4F3
330
4F2
100
AcDbEntity
  8
001
370
    50
  0
POLYLINE
  5
509
330
1F
100
AcDbEntity
  8
001
370
    50
100
AcDb2dPolyline
 66
     1
 10
0.0
 20
0.0
 30
0.0
  0
VERTEX
  5
50B
330
509
100
AcDbEntity
  8
001
370
    50
100
AcDbVertex
100
AcDb2dVertex
 10
421.859189
 20
124.891232
 30
0.0
  0
VERTEX
  5
50C
330
509
100
AcDbEntity
  8
001
370
    50
100
AcDbVertex
100
AcDb2dVertex
 10
422.127386
 20
124.983895
 30
0.0
  0
VERTEX
  5
50D
330
509
100
AcDbEntity
  8
001
370
    50
100
AcDbVertex
100
AcDb2dVertex
 10
422.46536
 20
125.200687
 30
0.0
  0
VERTEX
  5
50E
330
509
100
AcDbEntity
  8
001
370
    50
100
AcDbVertex
100
AcDb2dVertex
 10
422.833904
 20
125.634365
 30
0.0
  0
VERTEX
  5
50F
330
509
100
AcDbEntity
  8
001
370
    50
100
AcDbVertex
100
AcDb2dVertex
 10
423.052043
 20
126.119103
 30
0.0
  0
VERTEX
  5
510
330
509
100
AcDbEntity
  8
001
370
    50
100
AcDbVertex
100
AcDb2dVertex
 10
423.338027
 20
126.865086
 30
0.0
  0
VERTEX
  5
511
330
509
100
AcDbEntity
  8
001
370
    50
100
AcDbVertex
100
AcDb2dVertex
 10
423.600373
 20
127.61695
 30
0.0
  0
VERTEX
  5
512
330
509
100
AcDbEntity
  8
001
370
    50
100
AcDbVertex
100
AcDb2dVertex
 10
423.870003
 20
128.587522
 30
0.0
  0
VERTEX
  5
513
330
509
100
AcDbEntity
  8
001
370
    50
100
AcDbVertex
100
AcDb2dVertex
 10
424.092723
 20
129.646073
 30
0.0
  0
VERTEX
  5
514
330
509
100
AcDbEntity
  8
001
370
    50
100
AcDbVertex
100
AcDb2dVertex
 10
424.347056
 20
131.085043
 30
0.0
  0
VERTEX
  5
515
330
509
100
AcDbEntity
  8
001
370
    50
100
AcDbVertex
100
AcDb2dVertex
 10
424.513262
 20
132.141232
 30
0.0
  0
SEQEND
  5
50A
330
509
100
AcDbEntity
  8
001
370
    50
  0
POLYLINE
  5
516
330
1F
100
AcDbEntity
  8
001
370
    50
100
AcDb2dPolyline
 66
     1
 10
0.0
 20
0.0
 30
0.0
  0
VERTEX
  5
518
330
516
100
AcDbEntity
  8
001
370
    50
100
AcDbVertex
100
AcDb2dVertex
 10
415.080848
 20
142.141232
 30
0.0
  0
VERTEX
  5
519
330
516
100
AcDbEntity
  8
001
370
    50
100
AcDbVertex
100
AcDb2dVertex
 10
415.49948
 20
142.129363
 30
0.0
  0
VERTEX
  5
51A
330
516
100
AcDbEntity
  8
001
370
    50
100
AcDbVertex
100
AcDb2dVertex
 10
415.917409
 20
142.106684
 30
0.0
  0
VERTEX
  5
51B
330
516
100
AcDbEntity
  8
001
370
    50
100
AcDbVertex
100
AcDb2dVertex
 10
416.335335
 20
142.064525
 30
0.0
  0
VERTEX
  5
51C
330
516
100
AcDbEntity
  8
001
370
    50
100
AcDbVertex
100
AcDb2dVertex
 10
416.751164
 20
142.003689
 30
0.0
  0
VERTEX
  5
51D
330
516
100
AcDbEntity
  8
001
370
    50
100
AcDbVertex
100
AcDb2dVertex
 10
417.16408
 20
141.926642
 30
0.0
  0
VERTEX
  5
51E
330
516
100
AcDbEntity
  8
001
370
    50
100
AcDbVertex
100
AcDb2dVertex
 10
417.573509
 20
141.833218
 30
0.0
  0
VERTEX
  5
51F
330
516
100
AcDbEntity
  8
001
370
    50
100
AcDbVertex
100
AcDb2dVertex
 10
417.977169
 20
141.723221
 30
0.0
  0
VERTEX
  5
520
330
516
100
AcDbEntity
  8
001
370
    50
100
AcDbVertex
100
AcDb2dVertex
 10
418.375841
 20
141.596244
 30
0.0
  0
VERTEX
  5
521
330
516
100
AcDbEntity
  8
001
370
    50
100
AcDbVertex
100
AcDb2dVertex
 10
418.769424
 20
141.452131
 30
0.0
  0
VERTEX
  5
522
330
516
100
AcDbEntity
  8
001
370
    50
100
AcDbVertex
100
AcDb2dVertex
 10
419.156524
 20
141.291421
 30
0.0
  0
VERTEX
  5
523
330
516
100
AcDbEntity
  8
001
370
    50
100
AcDbVertex
100
AcDb2dVertex
 10
419.537526
 20
141.113972
 30
0.0
  0
VERTEX
  5
524
330
516
100
AcDbEntity
  8
001
370
    50
100
AcDbVertex
100
AcDb2dVertex
 10
419.910668
 20
140.920539
 30
0.0
  0
VERTEX
  5
525
330
516
100
AcDbEntity
  8
001
370
    50
100
AcDbVertex
100
AcDb2dVertex
 10
420.274435
 20
140.71191
 30
0.0
  0
VERTEX
  5
526
330
516
100
AcDbEntity
  8
001
370
    50
100
AcDbVertex
100
AcDb2dVertex
 10
420.628917
 20
140.487859
 30
0.0
  0
VERTEX
  5
527
330
516
100
AcDbEntity
  8
001
370
    50
100
AcDbVertex
100
AcDb2dVertex
 10
420.970899
 20
140.250265
 30
0.0
  0
VERTEX
  5
528
330
516
100
AcDbEntity
  8
001
370
    50
100
AcDbVertex
100
AcDb2dVertex
 10
421.301915
 20
139.997645
 30
0.0
  0
VERTEX
  5
529
330
516
100
AcDbEntity
  8
001
370
    50
100
AcDbVertex
100
AcDb2dVertex
 10
421.604446
 20
139.744649
 30
0.0
  0
VERTEX
  5
52A
330
516
100
AcDbEntity
  8
001
370
    50
100
AcDbVertex
100
AcDb2dVertex
 10
421.89577
 20
139.478816
 30
0.0
  0
VERTEX
  5
52B
330
516
100
AcDbEntity
  8
001
370
    50
100
AcDbVertex
100
AcDb2dVertex
 10
422.174941
 20
139.201273
 30
0.0
  0
VERTEX
  5
52C
330
516
100
AcDbEntity
  8
001
370
    50
100
AcDbVertex
100
AcDb2dVertex
 10
422.442018
 20
138.912074
 30
0.0
  0
VERTEX
  5
52D
330
516
100
AcDbEntity
  8
001
370
    50
100
AcDbVertex
100
AcDb2dVertex
 10
422.694328
 20
138.61435
 30
0.0
  0
VERTEX
  5
52E
330
516
100
AcDbEntity
  8
001
370
    50
100
AcDbVertex
100
AcDb2dVertex
 10
422.93356
 20
138.306023
 30
0.0
  0
VERTEX
  5
52F
330
516
100
AcDbEntity
  8
001
370
    50
100
AcDbVertex
100
AcDb2dVertex
 10
423.155568
 20
137.992464
 30
0.0
  0
VERTEX
  5
530
330
516
100
AcDbEntity
  8
001
370
    50
100
AcDbVertex
100
AcDb2dVertex
 10
423.363297
 20
137.669269
 30
0.0
  0
VERTEX
  5
531
330
516
100
AcDbEntity
  8
001
370
    50
100
AcDbVertex
100
AcDb2dVertex
 10
423.589523
 20
137.275143
 30
0.0
  0
VERTEX
  5
532
330
516
100
AcDbEntity
  8
001
370
    50
100
AcDbVertex
100
AcDb2dVertex
 10
423.794272
 20
136.869397
 30
0.0
  0
VERTEX
  5
533
330
516
100
AcDbEntity
  8
001
370
    50
100
AcDbVertex
100
AcDb2dVertex
 10
423.974178
 20
136.460907
 30
0.0
  0
VERTEX
  5
534
330
516
100
AcDbEntity
  8
001
370
    50
100
AcDbVertex
100
AcDb2dVertex
 10
424.132521
 20
136.043603
 30
0.0
  0
VERTEX
  5
535
330
516
100
AcDbEntity
  8
001
370
    50
100
AcDbVertex
100
AcDb2dVertex
 10
424.265073
 20
135.630647
 30
0.0
  0
VERTEX
  5
536
330
516
100
AcDbEntity
  8
001
370
    50
100
AcDbVertex
100
AcDb2dVertex
 10
424.375785
 20
135.211317
 30
0.0
  0
VERTEX
  5
537
330
516
100
AcDbEntity
  8
001
370
    50
100
AcDbVertex
100
AcDb2dVertex
 10
424.460285
 20
134.806729
 30
0.0
  0
VERTEX
  5
538
330
516
100
AcDbEntity
  8
001
370
    50
100
AcDbVertex
100
AcDb2dVertex
 10
424.524166
 20
134.398407
 30
0.0
  0
VERTEX
  5
539
330
516
100
AcDbEntity
  8
001
370
    50
100
AcDbVertex
100
AcDb2dVertex
 10
424.566636
 20
133.998999
 30
0.0
  0
VERTEX
  5
53A
330
516
100
AcDbEntity
  8
001
370
    50
100
AcDbVertex
100
AcDb2dVertex
 10
424.590363
 20
133.597948
 30
0.0
  0
VERTEX
  5
53B
330
516
100
AcDbEntity
  8
001
370
    50
100
AcDbVertex
100
AcDb2dVertex
 10
424.595576
 20
133.209845
 30
0.0
  0
VERTEX
  5
53C
330
516
100
AcDbEntity
  8
001
370
    50
100
AcDbVertex
100
AcDb2dVertex
 10
424.581126
 20
132.822201
 30
0.0
  0
VERTEX
  5
53D
330
516
100
AcDbEntity
  8
001
370
    50
100
AcDbVertex
100
AcDb2dVertex
 10
424.551573
 20
132.481383
 30
0.0
  0
VERTEX
  5
53E
330
516
100
AcDbEntity
  8
001
370
    50
100
AcDbVertex
100
AcDb2dVertex
 10
424.513262
 20
132.141232
 30
0.0
  0
SEQEND
  5
517
330
516
100
AcDbEntity
  8
001
370
    50
  0
LINE
  5
53F
330
1F
100
AcDbEntity
  8
001
370
    50
100
AcDbLine
 10
413.474128
 20
163.318158
 30
0.0
 11
413.474128
 21
142.141232
 31
0.0
  0
POLYLINE
  5
540
330
1F
100
AcDbEntity
  8
001
370
    50
100
AcDb2dPolyline
 66
     1
 10
0.0
 20
0.0
 30
0.0
  0
VERTEX
  5
542
330
540
100
AcDbEntity
  8
001
370
    50
100
AcDbVertex
100
AcDb2dVertex
 10
418.365362
 20
163.223166
 30
0.0
  0
VERTEX
  5
543
330
540
100
AcDbEntity
  8
001
370
    50
100
AcDbVertex
100
AcDb2dVertex
 10
417.373086
 20
163.245511
 30
0.0
  0
VERTEX
  5
544
330
540
100
AcDbEntity
  8
001
370
    50
100
AcDbVertex
100
AcDb2dVertex
 10
415.92278
 20
163.275522
 30
0.0
  0
VERTEX
  5
545
330
540
100
AcDbEntity
  8
001
370
    50
100
AcDbVertex
100
AcDb2dVertex
 10
414.468912
 20
163.301913
 30
0.0
  0
VERTEX
  5
546
330
540
100
AcDbEntity
  8
001
370
    50
100
AcDbVertex
100
AcDb2dVertex
 10
413.474128
 20
163.318158
 30
0.0
  0
SEQEND
  5
541
330
540
100
AcDbEntity
  8
001
370
    50
  0
POLYLINE
  5
547
330
1F
100
AcDbEntity
  8
001
370
    50
100
AcDb2dPolyline
 66
     1
 10
0.0
 20
0.0
 30
0.0
  0
VERTEX
  5
549
330
547
100
AcDbEntity
  8
001
370
    50
100
AcDbVertex
100
AcDb2dVertex
 10
418.365362
 20
163.223166
 30
0.0
  0
VERTEX
  5
54A
330
547
100
AcDbEntity
  8
001
370
    50
100
AcDbVertex
100
AcDb2dVertex
 10
418.615156
 20
163.219287
 30
0.0
  0
VERTEX
  5
54B
330
547
100
AcDbEntity
  8
001
370
    50
100
AcDbVertex
100
AcDb2dVertex
 10
418.86496
 20
163.217146
 30
0.0
  0
VERTEX
  5
54C
330
547
100
AcDbEntity
  8
001
370
    50
100
AcDbVertex
100
AcDb2dVertex
 10
419.115072
 20
163.218133
 30
0.0
  0
VERTEX
  5
54D
330
547
100
AcDbEntity
  8
001
370
    50
100
AcDbVertex
100
AcDb2dVertex
 10
419.36516
 20
163.222219
 30
0.0
  0
VERTEX
  5
54E
330
547
100
AcDbEntity
  8
001
370
    50
100
AcDbVertex
100
AcDb2dVertex
 10
419.608416
 20
163.228858
 30
0.0
  0
VERTEX
  5
54F
330
547
100
AcDbEntity
  8
001
370
    50
100
AcDbVertex
100
AcDb2dVertex
 10
419.851586
 20
163.238049
 30
0.0
  0
VERTEX
  5
550
330
547
100
AcDbEntity
  8
001
370
    50
100
AcDbVertex
100
AcDb2dVertex
 10
420.081332
 20
163.249066
 30
0.0
  0
VERTEX
  5
551
330
547
100
AcDbEntity
  8
001
370
    50
100
AcDbVertex
100
AcDb2dVertex
 10
420.310958
 20
163.262341
 30
0.0
  0
VERTEX
  5
552
330
547
100
AcDbEntity
  8
001
370
    50
100
AcDbVertex
100
AcDb2dVertex
 10
420.52133
 20
163.276466
 30
0.0
  0
VERTEX
  5
553
330
547
100
AcDbEntity
  8
001
370
    50
100
AcDbVertex
100
AcDb2dVertex
 10
420.731578
 20
163.292331
 30
0.0
  0
VERTEX
  5
554
330
547
100
AcDbEntity
  8
001
370
    50
100
AcDbVertex
100
AcDb2dVertex
 10
420.916179
 20
163.307587
 30
0.0
  0
VERTEX
  5
555
330
547
100
AcDbEntity
  8
001
370
    50
100
AcDbVertex
100
AcDb2dVertex
 10
421.100683
 20
163.323977
 30
0.0
  0
VERTEX
  5
556
330
547
100
AcDbEntity
  8
001
370
    50
100
AcDbVertex
100
AcDb2dVertex
 10
421.255001
 20
163.338452
 30
0.0
  0
VERTEX
  5
557
330
547
100
AcDbEntity
  8
001
370
    50
100
AcDbVertex
100
AcDb2dVertex
 10
421.409278
 20
163.353343
 30
0.0
  0
VERTEX
  5
558
330
547
100
AcDbEntity
  8
001
370
    50
100
AcDbVertex
100
AcDb2dVertex
 10
421.527942
 20
163.364875
 30
0.0
  0
VERTEX
  5
559
330
547
100
AcDbEntity
  8
001
370
    50
100
AcDbVertex
100
AcDb2dVertex
 10
421.646626
 20
163.376273
 30
0.0
  0
VERTEX
  5
55A
330
547
100
AcDbEntity
  8
001
370
    50
100
AcDbVertex
100
AcDb2dVertex
 10
421.704413
 20
163.381613
 30
0.0
  0
VERTEX
  5
55B
330
547
100
AcDbEntity
  8
001
370
    50
100
AcDbVertex
100
AcDb2dVertex
 10
421.762253
 20
163.386247
 30
0.0
  0
VERTEX
  5
55C
330
547
100
AcDbEntity
  8
001
370
    50
100
AcDbVertex
100
AcDb2dVertex
 10
421.801481
 20
163.38875
 30
0.0
  0
VERTEX
  5
55D
330
547
100
AcDbEntity
  8
001
370
    50
100
AcDbVertex
100
AcDb2dVertex
 10
421.84073
 20
163.390947
 30
0.0
  0
SEQEND
  5
548
330
547
100
AcDbEntity
  8
001
370
    50
  0
ARC
  5
55E
330
1F
100
AcDbEntity
  8
001
370
    50
100
AcDbCircle
 10
426.779898
 20
161.391232
 30
0.0
 40
2.000000000000002
100
AcDbArc
 50
0.0
 51
90.0
  0
ARC
  5
55F
330
1F
100
AcDbEntity
  8
001
370
    50
100
AcDbCircle
 10
426.779898
 20
126.891232
 30
0.0
 40
2.000000000000002
100
AcDbArc
 50
270.0
 51
0.0
  0
LINE
  5
560
330
1F
100
AcDbEntity
  8
001
370
    50
100
AcDbLine
 10
428.779898
 20
161.391232
 30
0.0
 11
428.779898
 21
126.891232
 31
0.0
  0
POLYLINE
  5
561
330
1F
100
AcDbEntity
  8
001
370
    50
100
AcDb2dPolyline
 66
     1
 10
0.0
 20
0.0
 30
0.0
  0
VERTEX
  5
563
330
561
100
AcDbEntity
  8
001
370
    50
100
AcDbVertex
100
AcDb2dVertex
 10
410.557982
 20
162.654516
 30
0.0
  0
VERTEX
  5
564
330
561
100
AcDbEntity
  8
001
370
    50
100
AcDbVertex
100
AcDb2dVertex
 10
409.157882
 20
162.681215
 30
0.0
  0
VERTEX
  5
565
330
561
100
AcDbEntity
  8
001
370
    50
100
AcDbVertex
100
AcDb2dVertex
 10
407.111494
 20
162.71495
 30
0.0
  0
VERTEX
  5
566
330
561
100
AcDbEntity
  8
001
370
    50
100
AcDbVertex
100
AcDb2dVertex
 10
405.059577
 20
162.741402
 30
0.0
  0
VERTEX
  5
567
330
561
100
AcDbEntity
  8
001
370
    50
100
AcDbVertex
100
AcDb2dVertex
 10
403.655587
 20
162.755881
 30
0.0
  0
SEQEND
  5
562
330
561
100
AcDbEntity
  8
001
370
    50
  0
POLYLINE
  5
568
330
1F
100
AcDbEntity
  8
001
370
    50
100
AcDb2dPolyline
 66
     1
 10
0.0
 20
0.0
 30
0.0
  0
VERTEX
  5
56A
330
568
100
AcDbEntity
  8
001
370
    50
100
AcDbVertex
100
AcDb2dVertex
 10
412.160562
 20
163.302495
 30
0.0
  0
VERTEX
  5
56B
330
568
100
AcDbEntity
  8
001
370
    50
100
AcDbVertex
100
AcDb2dVertex
 10
411.823786
 20
163.221475
 30
0.0
  0
VERTEX
  5
56C
330
568
100
AcDbEntity
  8
001
370
    50
100
AcDbVertex
100
AcDb2dVertex
 10
411.345328
 20
163.0615
 30
0.0
  0
VERTEX
  5
56D
330
568
100
AcDbEntity
  8
001
370
    50
100
AcDbVertex
100
AcDb2dVertex
 10
410.870159
 20
162.836167
 30
0.0
  0
VERTEX
  5
56E
330
568
100
AcDbEntity
  8
001
370
    50
100
AcDbVertex
100
AcDb2dVertex
 10
410.557982
 20
162.654516
 30
0.0
  0
SEQEND
  5
569
330
568
100
AcDbEntity
  8
001
370
    50
  0
POLYLINE
  5
56F
330
1F
100
AcDbEntity
  8
001
370
    50
100
AcDb2dPolyline
 66
     1
 10
0.0
 20
0.0
 30
0.0
  0
VERTEX
  5
571
330
56F
100
AcDbEntity
  8
001
370
    50
100
AcDbVertex
100
AcDb2dVertex
 10
413.474128
 20
163.318158
 30
0.0
  0
VERTEX
  5
572
330
56F
100
AcDbEntity
  8
001
370
    50
100
AcDbVertex
100
AcDb2dVertex
 10
413.207254
 20
163.315191
 30
0.0
  0
VERTEX
  5
573
330
56F
100
AcDbEntity
  8
001
370
    50
100
AcDbVertex
100
AcDb2dVertex
 10
412.817211
 20
163.310669
 30
0.0
  0
VERTEX
  5
574
330
56F
100
AcDbEntity
  8
001
370
    50
100
AcDbVertex
100
AcDb2dVertex
 10
412.427325
 20
163.305891
 30
0.0
  0
VERTEX
  5
575
330
56F
100
AcDbEntity
  8
001
370
    50
100
AcDbVertex
100
AcDb2dVertex
 10
412.160562
 20
163.302495
 30
0.0
  0
SEQEND
  5
570
330
56F
100
AcDbEntity
  8
001
370
    50
  0
POLYLINE
  5
576
330
1F
100
AcDbEntity
  8
001
370
    50
100
AcDb2dPolyline
 66
     1
 10
0.0
 20
0.0
 30
0.0
  0
VERTEX
  5
578
330
576
100
AcDbEntity
  8
001
370
    50
100
AcDbVertex
100
AcDb2dVertex
 10
394.793797
 20
153.786224
 30
0.0
  0
VERTEX
  5
579
330
576
100
AcDbEntity
  8
001
370
    50
100
AcDbVertex
100
AcDb2dVertex
 10
394.797128
 20
154.000865
 30
0.0
  0
VERTEX
  5
57A
330
576
100
AcDbEntity
  8
001
370
    50
100
AcDbVertex
100
AcDb2dVertex
 10
394.803396
 20
154.21541
 30
0.0
  0
VERTEX
  5
57B
330
576
100
AcDbEntity
  8
001
370
    50
100
AcDbVertex
100
AcDb2dVertex
 10
394.831493
 20
154.636462
 30
0.0
  0
VERTEX
  5
57C
330
576
100
AcDbEntity
  8
001
370
    50
100
AcDbVertex
100
AcDb2dVertex
 10
394.879944
 20
155.055822
 30
0.0
  0
VERTEX
  5
57D
330
576
100
AcDbEntity
  8
001
370
    50
100
AcDbVertex
100
AcDb2dVertex
 10
394.947156
 20
155.474216
 30
0.0
  0
VERTEX
  5
57E
330
576
100
AcDbEntity
  8
001
370
    50
100
AcDbVertex
100
AcDb2dVertex
 10
395.032897
 20
155.889137
 30
0.0
  0
VERTEX
  5
57F
330
576
100
AcDbEntity
  8
001
370
    50
100
AcDbVertex
100
AcDb2dVertex
 10
395.137374
 20
156.299427
 30
0.0
  0
VERTEX
  5
580
330
576
100
AcDbEntity
  8
001
370
    50
100
AcDbVertex
100
AcDb2dVertex
 10
395.260609
 20
156.704503
 30
0.0
  0
VERTEX
  5
581
330
576
100
AcDbEntity
  8
001
370
    50
100
AcDbVertex
100
AcDb2dVertex
 10
395.401731
 20
157.10134
 30
0.0
  0
VERTEX
  5
582
330
576
100
AcDbEntity
  8
001
370
    50
100
AcDbVertex
100
AcDb2dVertex
 10
395.561436
 20
157.491068
 30
0.0
  0
VERTEX
  5
583
330
576
100
AcDbEntity
  8
001
370
    50
100
AcDbVertex
100
AcDb2dVertex
 10
395.778885
 20
157.950595
 30
0.0
  0
VERTEX
  5
584
330
576
100
AcDbEntity
  8
001
370
    50
100
AcDbVertex
100
AcDb2dVertex
 10
396.022335
 20
158.396955
 30
0.0
  0
VERTEX
  5
585
330
576
100
AcDbEntity
  8
001
370
    50
100
AcDbVertex
100
AcDb2dVertex
 10
396.291101
 20
158.829594
 30
0.0
  0
VERTEX
  5
586
330
576
100
AcDbEntity
  8
001
370
    50
100
AcDbVertex
100
AcDb2dVertex
 10
396.583921
 20
159.246317
 30
0.0
  0
VERTEX
  5
587
330
576
100
AcDbEntity
  8
001
370
    50
100
AcDbVertex
100
AcDb2dVertex
 10
396.89841
 20
159.643711
 30
0.0
  0
VERTEX
  5
588
330
576
100
AcDbEntity
  8
001
370
    50
100
AcDbVertex
100
AcDb2dVertex
 10
397.235354
 20
160.022218
 30
0.0
  0
VERTEX
  5
589
330
576
100
AcDbEntity
  8
001
370
    50
100
AcDbVertex
100
AcDb2dVertex
 10
397.584489
 20
160.371287
 30
0.0
  0
VERTEX
  5
58A
330
576
100
AcDbEntity
  8
001
370
    50
100
AcDbVertex
100
AcDb2dVertex
 10
397.952864
 20
160.700013
 30
0.0
  0
VERTEX
  5
58B
330
576
100
AcDbEntity
  8
001
370
    50
100
AcDbVertex
100
AcDb2dVertex
 10
398.339629
 20
161.008069
 30
0.0
  0
VERTEX
  5
58C
330
576
100
AcDbEntity
  8
001
370
    50
100
AcDbVertex
100
AcDb2dVertex
 10
398.743007
 20
161.294029
 30
0.0
  0
VERTEX
  5
58D
330
576
100
AcDbEntity
  8
001
370
    50
100
AcDbVertex
100
AcDb2dVertex
 10
399.159809
 20
161.555696
 30
0.0
  0
VERTEX
  5
58E
330
576
100
AcDbEntity
  8
001
370
    50
100
AcDbVertex
100
AcDb2dVertex
 10
399.590793
 20
161.793222
 30
0.0
  0
VERTEX
  5
58F
330
576
100
AcDbEntity
  8
001
370
    50
100
AcDbVertex
100
AcDb2dVertex
 10
400.033582
 20
162.004967
 30
0.0
  0
VERTEX
  5
590
330
576
100
AcDbEntity
  8
001
370
    50
100
AcDbVertex
100
AcDb2dVertex
 10
400.487695
 20
162.191288
 30
0.0
  0
VERTEX
  5
591
330
576
100
AcDbEntity
  8
001
370
    50
100
AcDbVertex
100
AcDb2dVertex
 10
400.952446
 20
162.352282
 30
0.0
  0
VERTEX
  5
592
330
576
100
AcDbEntity
  8
001
370
    50
100
AcDbVertex
100
AcDb2dVertex
 10
401.425468
 20
162.486912
 30
0.0
  0
VERTEX
  5
593
330
576
100
AcDbEntity
  8
001
370
    50
100
AcDbVertex
100
AcDb2dVertex
 10
401.903443
 20
162.594255
 30
0.0
  0
VERTEX
  5
594
330
576
100
AcDbEntity
  8
001
370
    50
100
AcDbVertex
100
AcDb2dVertex
 10
402.386661
 20
162.675053
 30
0.0
  0
VERTEX
  5
595
330
576
100
AcDbEntity
  8
001
370
    50
100
AcDbVertex
100
AcDb2dVertex
 10
402.702614
 20
162.713176
 30
0.0
  0
VERTEX
  5
596
330
576
100
AcDbEntity
  8
001
370
    50
100
AcDbVertex
100
AcDb2dVertex
 10
403.019698
 20
162.738513
 30
0.0
  0
VERTEX
  5
597
330
576
100
AcDbEntity
  8
001
370
    50
100
AcDbVertex
100
AcDb2dVertex
 10
403.337464
 20
162.750826
 30
0.0
  0
VERTEX
  5
598
330
576
100
AcDbEntity
  8
001
370
    50
100
AcDbVertex
100
AcDb2dVertex
 10
403.655587
 20
162.755881
 30
0.0
  0
SEQEND
  5
577
330
576
100
AcDbEntity
  8
001
370
    50
  0
POLYLINE
  5
599
330
1F
100
AcDbEntity
  8
001
  6
DASHED
370
    30
100
AcDb2dPolyline
 66
     1
 10
0.0
 20
0.0
 30
0.0
  0
VERTEX
  5
59B
330
599
100
AcDbEntity
  8
001
  6
DASHED
370
    30
100
AcDbVertex
100
AcDb2dVertex
 10
394.821849
 20
153.052357
 30
0.0
  0
VERTEX
  5
59C
330
599
100
AcDbEntity
  8
001
  6
DASHED
370
    30
100
AcDbVertex
100
AcDb2dVertex
 10
394.805183
 20
153.342891
 30
0.0
  0
VERTEX
  5
59D
330
599
100
AcDbEntity
  8
001
  6
DASHED
370
    30
100
AcDbVertex
100
AcDb2dVertex
 10
394.795054
 20
153.633602
 30
0.0
  0
VERTEX
  5
59E
330
599
100
AcDbEntity
  8
001
  6
DASHED
370
    30
100
AcDbVertex
100
AcDb2dVertex
 10
394.794201
 20
153.709907
 30
0.0
  0
VERTEX
  5
59F
330
599
100
AcDbEntity
  8
001
  6
DASHED
370
    30
100
AcDbVertex
100
AcDb2dVertex
 10
394.793797
 20
153.786224
 30
0.0
  0
SEQEND
  5
59A
330
599
100
AcDbEntity
  8
001
  6
DASHED
370
    30
  0
POLYLINE
  5
5A0
330
1F
100
AcDbEntity
  8
001
370
    50
100
AcDb2dPolyline
 66
     1
 10
0.0
 20
0.0
 30
0.0
  0
VERTEX
  5
5A2
330
5A0
100
AcDbEntity
  8
001
370
    50
100
AcDbVertex
100
AcDb2dVertex
 10
400.519656
 20
158.812356
 30
0.0
  0
VERTEX
  5
5A3
330
5A0
100
AcDbEntity
  8
001
370
    50
100
AcDbVertex
100
AcDb2dVertex
 10
400.385702
 20
158.749519
 30
0.0
  0
VERTEX
  5
5A4
330
5A0
100
AcDbEntity
  8
001
370
    50
100
AcDbVertex
100
AcDb2dVertex
 10
400.25452
 20
158.681541
 30
0.0
  0
VERTEX
  5
5A5
330
5A0
100
AcDbEntity
  8
001
370
    50
100
AcDbVertex
100
AcDb2dVertex
 10
400.128789
 20
158.604717
 30
0.0
  0
VERTEX
  5
5A6
330
5A0
100
AcDbEntity
  8
001
370
    50
100
AcDbVertex
100
AcDb2dVertex
 10
400.008363
 20
158.519535
 30
0.0
  0
VERTEX
  5
5A7
330
5A0
100
AcDbEntity
  8
001
370
    50
100
AcDbVertex
100
AcDb2dVertex
 10
399.896063
 20
158.430044
 30
0.0
  0
VERTEX
  5
5A8
330
5A0
100
AcDbEntity
  8
001
370
    50
100
AcDbVertex
100
AcDb2dVertex
 10
399.788929
 20
158.334534
 30
0.0
  0
VERTEX
  5
5A9
330
5A0
100
AcDbEntity
  8
001
370
    50
100
AcDbVertex
100
AcDb2dVertex
 10
399.690107
 20
158.23617
 30
0.0
  0
VERTEX
  5
5AA
330
5A0
100
AcDbEntity
  8
001
370
    50
100
AcDbVertex
100
AcDb2dVertex
 10
399.596702
 20
158.132604
 30
0.0
  0
VERTEX
  5
5AB
330
5A0
100
AcDbEntity
  8
001
370
    50
100
AcDbVertex
100
AcDb2dVertex
 10
399.479193
 20
157.984602
 30
0.0
  0
VERTEX
  5
5AC
330
5A0
100
AcDbEntity
  8
001
370
    50
100
AcDbVertex
100
AcDb2dVertex
 10
399.372538
 20
157.828581
 30
0.0
  0
VERTEX
  5
5AD
330
5A0
100
AcDbEntity
  8
001
370
    50
100
AcDbVertex
100
AcDb2dVertex
 10
399.282084
 20
157.674394
 30
0.0
  0
VERTEX
  5
5AE
330
5A0
100
AcDbEntity
  8
001
370
    50
100
AcDbVertex
100
AcDb2dVertex
 10
399.202285
 20
157.514418
 30
0.0
  0
VERTEX
  5
5AF
330
5A0
100
AcDbEntity
  8
001
370
    50
100
AcDbVertex
100
AcDb2dVertex
 10
399.117061
 20
157.303718
 30
0.0
  0
VERTEX
  5
5B0
330
5A0
100
AcDbEntity
  8
001
370
    50
100
AcDbVertex
100
AcDb2dVertex
 10
399.051017
 20
157.086207
 30
0.0
  0
VERTEX
  5
5B1
330
5A0
100
AcDbEntity
  8
001
370
    50
100
AcDbVertex
100
AcDb2dVertex
 10
399.007693
 20
156.878395
 30
0.0
  0
VERTEX
  5
5B2
330
5A0
100
AcDbEntity
  8
001
370
    50
100
AcDbVertex
100
AcDb2dVertex
 10
398.983176
 20
156.667565
 30
0.0
  0
VERTEX
  5
5B3
330
5A0
100
AcDbEntity
  8
001
370
    50
100
AcDbVertex
100
AcDb2dVertex
 10
398.978384
 20
156.462482
 30
0.0
  0
VERTEX
  5
5B4
330
5A0
100
AcDbEntity
  8
001
370
    50
100
AcDbVertex
100
AcDb2dVertex
 10
398.993231
 20
156.257877
 30
0.0
  0
VERTEX
  5
5B5
330
5A0
100
AcDbEntity
  8
001
370
    50
100
AcDbVertex
100
AcDb2dVertex
 10
399.026886
 20
156.063817
 30
0.0
  0
VERTEX
  5
5B6
330
5A0
100
AcDbEntity
  8
001
370
    50
100
AcDbVertex
100
AcDb2dVertex
 10
399.080221
 20
155.874295
 30
0.0
  0
VERTEX
  5
5B7
330
5A0
100
AcDbEntity
  8
001
370
    50
100
AcDbVertex
100
AcDb2dVertex
 10
399.135436
 20
155.732068
 30
0.0
  0
VERTEX
  5
5B8
330
5A0
100
AcDbEntity
  8
001
370
    50
100
AcDbVertex
100
AcDb2dVertex
 10
399.202861
 20
155.595234
 30
0.0
  0
VERTEX
  5
5B9
330
5A0
100
AcDbEntity
  8
001
370
    50
100
AcDbVertex
100
AcDb2dVertex
 10
399.283141
 20
155.464056
 30
0.0
  0
VERTEX
  5
5BA
330
5A0
100
AcDbEntity
  8
001
370
    50
100
AcDbVertex
100
AcDb2dVertex
 10
399.375473
 20
155.341045
 30
0.0
  0
VERTEX
  5
5BB
330
5A0
100
AcDbEntity
  8
001
370
    50
100
AcDbVertex
100
AcDb2dVertex
 10
399.481829
 20
155.225164
 30
0.0
  0
VERTEX
  5
5BC
330
5A0
100
AcDbEntity
  8
001
370
    50
100
AcDbVertex
100
AcDb2dVertex
 10
399.599315
 20
155.120619
 30
0.0
  0
VERTEX
  5
5BD
330
5A0
100
AcDbEntity
  8
001
370
    50
100
AcDbVertex
100
AcDb2dVertex
 10
399.710237
 20
155.039495
 30
0.0
  0
VERTEX
  5
5BE
330
5A0
100
AcDbEntity
  8
001
370
    50
100
AcDbVertex
100
AcDb2dVertex
 10
399.827913
 20
154.968516
 30
0.0
  0
VERTEX
  5
5BF
330
5A0
100
AcDbEntity
  8
001
370
    50
100
AcDbVertex
100
AcDb2dVertex
 10
399.959242
 20
154.904739
 30
0.0
  0
VERTEX
  5
5C0
330
5A0
100
AcDbEntity
  8
001
370
    50
100
AcDbVertex
100
AcDb2dVertex
 10
400.095864
 20
154.853338
 30
0.0
  0
VERTEX
  5
5C1
330
5A0
100
AcDbEntity
  8
001
370
    50
100
AcDbVertex
100
AcDb2dVertex
 10
400.216769
 20
154.819206
 30
0.0
  0
VERTEX
  5
5C2
330
5A0
100
AcDbEntity
  8
001
370
    50
100
AcDbVertex
100
AcDb2dVertex
 10
400.339918
 20
154.794235
 30
0.0
  0
VERTEX
  5
5C3
330
5A0
100
AcDbEntity
  8
001
370
    50
100
AcDbVertex
100
AcDb2dVertex
 10
400.472639
 20
154.77747
 30
0.0
  0
VERTEX
  5
5C4
330
5A0
100
AcDbEntity
  8
001
370
    50
100
AcDbVertex
100
AcDb2dVertex
 10
400.606174
 20
154.770908
 30
0.0
  0
VERTEX
  5
5C5
330
5A0
100
AcDbEntity
  8
001
370
    50
100
AcDbVertex
100
AcDb2dVertex
 10
400.617205
 20
154.770822
 30
0.0
  0
VERTEX
  5
5C6
330
5A0
100
AcDbEntity
  8
001
370
    50
100
AcDbVertex
100
AcDb2dVertex
 10
400.628236
 20
154.770771
 30
0.0
  0
SEQEND
  5
5A1
330
5A0
100
AcDbEntity
  8
001
370
    50
  0
POLYLINE
  5
5C7
330
1F
100
AcDbEntity
  8
001
370
    50
100
AcDb2dPolyline
 66
     1
 10
0.0
 20
0.0
 30
0.0
  0
VERTEX
  5
5C9
330
5C7
100
AcDbEntity
  8
001
370
    50
100
AcDbVertex
100
AcDb2dVertex
 10
401.291623
 20
158.97077
 30
0.0
  0
VERTEX
  5
5CA
330
5C7
100
AcDbEntity
  8
001
370
    50
100
AcDbVertex
100
AcDb2dVertex
 10
401.194016
 20
158.967161
 30
0.0
  0
VERTEX
  5
5CB
330
5C7
100
AcDbEntity
  8
001
370
    50
100
AcDbVertex
100
AcDb2dVertex
 10
401.096599
 20
158.960633
 30
0.0
  0
VERTEX
  5
5CC
330
5C7
100
AcDbEntity
  8
001
370
    50
100
AcDbVertex
100
AcDb2dVertex
 10
400.951031
 20
158.940694
 30
0.0
  0
VERTEX
  5
5CD
330
5C7
100
AcDbEntity
  8
001
370
    50
100
AcDbVertex
100
AcDb2dVertex
 10
400.807694
 20
158.908317
 30
0.0
  0
VERTEX
  5
5CE
330
5C7
100
AcDbEntity
  8
001
370
    50
100
AcDbVertex
100
AcDb2dVertex
 10
400.662711
 20
158.86346
 30
0.0
  0
VERTEX
  5
5CF
330
5C7
100
AcDbEntity
  8
001
370
    50
100
AcDbVertex
100
AcDb2dVertex
 10
400.519656
 20
158.812356
 30
0.0
  0
SEQEND
  5
5C8
330
5C7
100
AcDbEntity
  8
001
370
    50
  0
POLYLINE
  5
5D0
330
1F
100
AcDbEntity
  8
001
370
    50
100
AcDb2dPolyline
 66
     1
 10
0.0
 20
0.0
 30
0.0
  0
VERTEX
  5
5D2
330
5D0
100
AcDbEntity
  8
001
370
    50
100
AcDbVertex
100
AcDb2dVertex
 10
400.628236
 20
154.770771
 30
0.0
  0
VERTEX
  5
5D3
330
5D0
100
AcDbEntity
  8
001
370
    50
100
AcDbVertex
100
AcDb2dVertex
 10
400.760497
 20
154.777424
 30
0.0
  0
VERTEX
  5
5D4
330
5D0
100
AcDbEntity
  8
001
370
    50
100
AcDbVertex
100
AcDb2dVertex
 10
400.892166
 20
154.789529
 30
0.0
  0
VERTEX
  5
5D5
330
5D0
100
AcDbEntity
  8
001
370
    50
100
AcDbVertex
100
AcDb2dVertex
 10
401.039885
 20
154.815014
 30
0.0
  0
VERTEX
  5
5D6
330
5D0
100
AcDbEntity
  8
001
370
    50
100
AcDbVertex
100
AcDb2dVertex
 10
401.185299
 20
154.852252
 30
0.0
  0
VERTEX
  5
5D7
330
5D0
100
AcDbEntity
  8
001
370
    50
100
AcDbVertex
100
AcDb2dVertex
 10
401.309286
 20
154.892652
 30
0.0
  0
VERTEX
  5
5D8
330
5D0
100
AcDbEntity
  8
001
370
    50
100
AcDbVertex
100
AcDb2dVertex
 10
401.430687
 20
154.940059
 30
0.0
  0
VERTEX
  5
5D9
330
5D0
100
AcDbEntity
  8
001
370
    50
100
AcDbVertex
100
AcDb2dVertex
 10
401.549881
 20
154.994596
 30
0.0
  0
VERTEX
  5
5DA
330
5D0
100
AcDbEntity
  8
001
370
    50
100
AcDbVertex
100
AcDb2dVertex
 10
401.665839
 20
155.055749
 30
0.0
  0
VERTEX
  5
5DB
330
5D0
100
AcDbEntity
  8
001
370
    50
100
AcDbVertex
100
AcDb2dVertex
 10
401.776416
 20
155.122054
 30
0.0
  0
VERTEX
  5
5DC
330
5D0
100
AcDbEntity
  8
001
370
    50
100
AcDbVertex
100
AcDb2dVertex
 10
401.883351
 20
155.194078
 30
0.0
  0
VERTEX
  5
5DD
330
5D0
100
AcDbEntity
  8
001
370
    50
100
AcDbVertex
100
AcDb2dVertex
 10
401.984551
 20
155.269933
 30
0.0
  0
VERTEX
  5
5DE
330
5D0
100
AcDbEntity
  8
001
370
    50
100
AcDbVertex
100
AcDb2dVertex
 10
402.081863
 20
155.350728
 30
0.0
  0
VERTEX
  5
5DF
330
5D0
100
AcDbEntity
  8
001
370
    50
100
AcDbVertex
100
AcDb2dVertex
 10
402.212324
 20
155.472918
 30
0.0
  0
VERTEX
  5
5E0
330
5D0
100
AcDbEntity
  8
001
370
    50
100
AcDbVertex
100
AcDb2dVertex
 10
402.334123
 20
155.603784
 30
0.0
  0
VERTEX
  5
5E1
330
5D0
100
AcDbEntity
  8
001
370
    50
100
AcDbVertex
100
AcDb2dVertex
 10
402.44205
 20
155.736282
 30
0.0
  0
VERTEX
  5
5E2
330
5D0
100
AcDbEntity
  8
001
370
    50
100
AcDbVertex
100
AcDb2dVertex
 10
402.541177
 20
155.87549
 30
0.0
  0
VERTEX
  5
5E3
330
5D0
100
AcDbEntity
  8
001
370
    50
100
AcDbVertex
100
AcDb2dVertex
 10
402.654052
 20
156.061947
 30
0.0
  0
VERTEX
  5
5E4
330
5D0
100
AcDbEntity
  8
001
370
    50
100
AcDbVertex
100
AcDb2dVertex
 10
402.750902
 20
156.257252
 30
0.0
  0
VERTEX
  5
5E5
330
5D0
100
AcDbEntity
  8
001
370
    50
100
AcDbVertex
100
AcDb2dVertex
 10
402.826633
 20
156.448189
 30
0.0
  0
VERTEX
  5
5E6
330
5D0
100
AcDbEntity
  8
001
370
    50
100
AcDbVertex
100
AcDb2dVertex
 10
402.886333
 20
156.644701
 30
0.0
  0
VERTEX
  5
5E7
330
5D0
100
AcDbEntity
  8
001
370
    50
100
AcDbVertex
100
AcDb2dVertex
 10
402.92801
 20
156.839546
 30
0.0
  0
VERTEX
  5
5E8
330
5D0
100
AcDbEntity
  8
001
370
    50
100
AcDbVertex
100
AcDb2dVertex
 10
402.952829
 20
157.037236
 30
0.0
  0
VERTEX
  5
5E9
330
5D0
100
AcDbEntity
  8
001
370
    50
100
AcDbVertex
100
AcDb2dVertex
 10
402.959989
 20
157.227724
 30
0.0
  0
VERTEX
  5
5EA
330
5D0
100
AcDbEntity
  8
001
370
    50
100
AcDbVertex
100
AcDb2dVertex
 10
402.950091
 20
157.418111
 30
0.0
  0
VERTEX
  5
5EB
330
5D0
100
AcDbEntity
  8
001
370
    50
100
AcDbVertex
100
AcDb2dVertex
 10
402.915735
 20
157.639009
 30
0.0
  0
VERTEX
  5
5EC
330
5D0
100
AcDbEntity
  8
001
370
    50
100
AcDbVertex
100
AcDb2dVertex
 10
402.855999
 20
157.854499
 30
0.0
  0
VERTEX
  5
5ED
330
5D0
100
AcDbEntity
  8
001
370
    50
100
AcDbVertex
100
AcDb2dVertex
 10
402.771805
 20
158.058076
 30
0.0
  0
VERTEX
  5
5EE
330
5D0
100
AcDbEntity
  8
001
370
    50
100
AcDbVertex
100
AcDb2dVertex
 10
402.662614
 20
158.249247
 30
0.0
  0
VERTEX
  5
5EF
330
5D0
100
AcDbEntity
  8
001
370
    50
100
AcDbVertex
100
AcDb2dVertex
 10
402.560549
 20
158.387114
 30
0.0
  0
VERTEX
  5
5F0
330
5D0
100
AcDbEntity
  8
001
370
    50
100
AcDbVertex
100
AcDb2dVertex
 10
402.444475
 20
158.513402
 30
0.0
  0
VERTEX
  5
5F1
330
5D0
100
AcDbEntity
  8
001
370
    50
100
AcDbVertex
100
AcDb2dVertex
 10
402.310583
 20
158.630325
 30
0.0
  0
VERTEX
  5
5F2
330
5D0
100
AcDbEntity
  8
001
370
    50
100
AcDbVertex
100
AcDb2dVertex
 10
402.164451
 20
158.731457
 30
0.0
  0
VERTEX
  5
5F3
330
5D0
100
AcDbEntity
  8
001
370
    50
100
AcDbVertex
100
AcDb2dVertex
 10
402.040456
 20
158.799755
 30
0.0
  0
VERTEX
  5
5F4
330
5D0
100
AcDbEntity
  8
001
370
    50
100
AcDbVertex
100
AcDb2dVertex
 10
401.910905
 20
158.856767
 30
0.0
  0
VERTEX
  5
5F5
330
5D0
100
AcDbEntity
  8
001
370
    50
100
AcDbVertex
100
AcDb2dVertex
 10
401.768772
 20
158.904648
 30
0.0
  0
VERTEX
  5
5F6
330
5D0
100
AcDbEntity
  8
001
370
    50
100
AcDbVertex
100
AcDb2dVertex
 10
401.622884
 20
158.939567
 30
0.0
  0
VERTEX
  5
5F7
330
5D0
100
AcDbEntity
  8
001
370
    50
100
AcDbVertex
100
AcDb2dVertex
 10
401.495701
 20
158.959143
 30
0.0
  0
VERTEX
  5
5F8
330
5D0
100
AcDbEntity
  8
001
370
    50
100
AcDbVertex
100
AcDb2dVertex
 10
401.367486
 20
158.968999
 30
0.0
  0
VERTEX
  5
5F9
330
5D0
100
AcDbEntity
  8
001
370
    50
100
AcDbVertex
100
AcDb2dVertex
 10
401.329559
 20
158.9701
 30
0.0
  0
VERTEX
  5
5FA
330
5D0
100
AcDbEntity
  8
001
370
    50
100
AcDbVertex
100
AcDb2dVertex
 10
401.291623
 20
158.97077
 30
0.0
  0
SEQEND
  5
5D1
330
5D0
100
AcDbEntity
  8
001
370
    50
  0
LINE
  5
5FB
330
1F
100
AcDbEntity
  8
001
  6
DASHED
370
    30
100
AcDbLine
 10
395.269035
 20
147.641232
 30
0.0
 11
395.269035
 21
140.641232
 31
0.0
  0
LINE
  5
5FC
330
1F
100
AcDbEntity
  8
001
  6
DASHED
370
    30
100
AcDbLine
 10
395.269035
 20
147.641232
 30
0.0
 11
395.061713
 21
150.275508
 31
0.0
  0
POLYLINE
  5
5FD
330
1F
100
AcDbEntity
  8
001
  6
DASHED
370
    30
100
AcDb2dPolyline
 66
     1
 10
0.0
 20
0.0
 30
0.0
  0
VERTEX
  5
5FF
330
5FD
100
AcDbEntity
  8
001
  6
DASHED
370
    30
100
AcDbVertex
100
AcDb2dVertex
 10
394.986481
 20
150.867291
 30
0.0
  0
VERTEX
  5
600
330
5FD
100
AcDbEntity
  8
001
  6
DASHED
370
    30
100
AcDbVertex
100
AcDb2dVertex
 10
395.024007
 20
150.616183
 30
0.0
  0
VERTEX
  5
601
330
5FD
100
AcDbEntity
  8
001
  6
DASHED
370
    30
100
AcDbVertex
100
AcDb2dVertex
 10
395.054004
 20
150.364244
 30
0.0
  0
VERTEX
  5
602
330
5FD
100
AcDbEntity
  8
001
  6
DASHED
370
    30
100
AcDbVertex
100
AcDb2dVertex
 10
395.057993
 20
150.319666
 30
0.0
  0
VERTEX
  5
603
330
5FD
100
AcDbEntity
  8
001
  6
DASHED
370
    30
100
AcDbVertex
100
AcDb2dVertex
 10
395.061748
 20
150.275061
 30
0.0
  0
SEQEND
  5
5FE
330
5FD
100
AcDbEntity
  8
001
  6
DASHED
370
    30
  0
LINE
  5
604
330
1F
100
AcDbEntity
  8
001
  6
DASHED
370
    30
100
AcDbLine
 10
394.986481
 20
150.867291
 30
0.0
 11
394.821849
 21
153.052357
 31
0.0
  0
POLYLINE
  5
605
330
1F
100
AcDbEntity
  8
001
370
    50
100
AcDb2dPolyline
 66
     1
 10
0.0
 20
0.0
 30
0.0
  0
VERTEX
  5
607
330
605
100
AcDbEntity
  8
001
370
    50
100
AcDbVertex
100
AcDb2dVertex
 10
395.149604
 20
142.141232
 30
0.0
  0
VERTEX
  5
608
330
605
100
AcDbEntity
  8
001
370
    50
100
AcDbVertex
100
AcDb2dVertex
 10
395.164009
 20
142.12996
 30
0.0
  0
VERTEX
  5
609
330
605
100
AcDbEntity
  8
001
370
    50
100
AcDbVertex
100
AcDb2dVertex
 10
395.176555
 20
142.117403
 30
0.0
  0
VERTEX
  5
60A
330
605
100
AcDbEntity
  8
001
370
    50
100
AcDbVertex
100
AcDb2dVertex
 10
395.192731
 20
142.084423
 30
0.0
  0
VERTEX
  5
60B
330
605
100
AcDbEntity
  8
001
370
    50
100
AcDbVertex
100
AcDb2dVertex
 10
395.20073
 20
142.046396
 30
0.0
  0
VERTEX
  5
60C
330
605
100
AcDbEntity
  8
001
370
    50
100
AcDbVertex
100
AcDb2dVertex
 10
395.215417
 20
141.958152
 30
0.0
  0
VERTEX
  5
60D
330
605
100
AcDbEntity
  8
001
370
    50
100
AcDbVertex
100
AcDb2dVertex
 10
395.227489
 20
141.871985
 30
0.0
  0
VERTEX
  5
60E
330
605
100
AcDbEntity
  8
001
370
    50
100
AcDbVertex
100
AcDb2dVertex
 10
395.23858
 20
141.743473
 30
0.0
  0
VERTEX
  5
60F
330
605
100
AcDbEntity
  8
001
370
    50
100
AcDbVertex
100
AcDb2dVertex
 10
395.24413
 20
141.613368
 30
0.0
  0
VERTEX
  5
610
330
605
100
AcDbEntity
  8
001
370
    50
100
AcDbVertex
100
AcDb2dVertex
 10
395.247553
 20
141.450172
 30
0.0
  0
VERTEX
  5
611
330
605
100
AcDbEntity
  8
001
370
    50
100
AcDbVertex
100
AcDb2dVertex
 10
395.248065
 20
141.287425
 30
0.0
  0
VERTEX
  5
612
330
605
100
AcDbEntity
  8
001
370
    50
100
AcDbVertex
100
AcDb2dVertex
 10
395.245311
 20
141.092286
 30
0.0
  0
VERTEX
  5
613
330
605
100
AcDbEntity
  8
001
370
    50
100
AcDbVertex
100
AcDb2dVertex
 10
395.239668
 20
140.897038
 30
0.0
  0
VERTEX
  5
614
330
605
100
AcDbEntity
  8
001
370
    50
100
AcDbVertex
100
AcDb2dVertex
 10
395.231157
 20
140.684525
 30
0.0
  0
VERTEX
  5
615
330
605
100
AcDbEntity
  8
001
370
    50
100
AcDbVertex
100
AcDb2dVertex
 10
395.220753
 20
140.472149
 30
0.0
  0
VERTEX
  5
616
330
605
100
AcDbEntity
  8
001
370
    50
100
AcDbVertex
100
AcDb2dVertex
 10
395.207824
 20
140.241311
 30
0.0
  0
VERTEX
  5
617
330
605
100
AcDbEntity
  8
001
370
    50
100
AcDbVertex
100
AcDb2dVertex
 10
395.193588
 20
140.010534
 30
0.0
  0
VERTEX
  5
618
330
605
100
AcDbEntity
  8
001
370
    50
100
AcDbVertex
100
AcDb2dVertex
 10
395.179408
 20
139.795382
 30
0.0
  0
VERTEX
  5
619
330
605
100
AcDbEntity
  8
001
370
    50
100
AcDbVertex
100
AcDb2dVertex
 10
395.164472
 20
139.580286
 30
0.0
  0
VERTEX
  5
61A
330
605
100
AcDbEntity
  8
001
370
    50
100
AcDbVertex
100
AcDb2dVertex
 10
395.148568
 20
139.360747
 30
0.0
  0
VERTEX
  5
61B
330
605
100
AcDbEntity
  8
001
370
    50
100
AcDbVertex
100
AcDb2dVertex
 10
395.132311
 20
139.141232
 30
0.0
  0
SEQEND
  5
606
330
605
100
AcDbEntity
  8
001
370
    50
  0
LINE
  5
61C
330
1F
100
AcDbEntity
  8
001
370
    50
100
AcDbLine
 10
415.080848
 20
142.141232
 30
0.0
 11
394.793797
 21
142.141232
 31
0.0
  0
LINE
  5
61D
330
1F
100
AcDbEntity
  8
001
370
    50
100
AcDbLine
 10
394.793797
 20
150.869237
 30
0.0
 11
394.741245
 21
150.869768
 31
0.0
  0
LINE
  5
61E
330
1F
100
AcDbEntity
  8
001
370
    50
100
AcDbLine
 10
410.541406
 20
162.871773
 30
0.0
 11
410.557982
 21
162.654516
 31
0.0
  0
LINE
  5
61F
330
1F
100
AcDbEntity
  8
001
370
    50
100
AcDbLine
 10
430.779898
 20
128.141232
 30
0.0
 11
430.779898
 21
160.141232
 31
0.0
  0
LINE
  5
620
330
1F
100
AcDbEntity
  8
001
370
    50
100
AcDbLine
 10
430.779898
 20
159.641232
 30
0.0
 11
428.779898
 21
159.641232
 31
0.0
  0
LINE
  5
621
330
1F
100
AcDbEntity
  8
001
370
    50
100
AcDbLine
 10
428.779898
 20
128.641232
 30
0.0
 11
430.779898
 21
128.641232
 31
0.0
  0
ARC
  5
622
330
1F
100
AcDbEntity
  8
001
370
    50
100
AcDbCircle
 10
411.776407
 20
124.65716
 30
0.0
 40
0.4
100
AcDbArc
 50
270.5
 51
355.5
  0
ARC
  5
623
330
1F
100
AcDbEntity
  8
001
370
    50
100
AcDbCircle
 10
394.849809
 20
137.997958
 30
0.0
 40
0.4
100
AcDbArc
 50
90.5
 51
175.5
  0
LINE
  5
624
330
1F
100
AcDbEntity
  8
001
370
    50
100
AcDbLine
 10
394.039478
 20
132.799934
 30
0.0
 11
394.451042
 21
138.029341
 31
0.0
  0
LINE
  5
625
330
1F
100
AcDbEntity
  8
001
370
    50
100
AcDbLine
 10
412.818473
 20
132.799665
 30
0.0
 11
412.175174
 21
124.625777
 31
0.0
  0
ARC
  5
626
330
1F
100
AcDbEntity
  8
001
370
    50
100
AcDbCircle
 10
409.913309
 20
135.549214
 30
0.0
 40
4.0
100
AcDbArc
 50
316.57635
 51
132.338696
  0
CIRCLE
  5
627
330
1F
100
AcDbEntity
  8
001
370
    50
100
AcDbCircle
 10
403.478166
 20
131.328999
 30
0.0
 40
3.75
  0
CIRCLE
  5
628
330
1F
100
AcDbEntity
  8
001
370
    50
100
AcDbCircle
 10
403.478166
 20
131.328999
 30
0.0
 40
3.25
  0
LINE
  5
629
330
1F
100
AcDbEntity
  8
001
370
    50
100
AcDbLine
 10
402.68431
 20
132.703999
 30
0.0
 11
403.045154
 21
133.328999
 31
0.0
  0
LINE
  5
62A
330
1F
100
AcDbEntity
  8
001
370
    50
100
AcDbLine
 10
404.272023
 20
132.703999
 30
0.0
 11
403.911179
 21
133.328999
 31
0.0
  0
ARC
  5
62B
330
1F
100
AcDbEntity
  8
001
370
    50
100
AcDbCircle
 10
403.478166
 20
133.078999
 30
0.0
 40
0.5
100
AcDbArc
 50
30.0
 51
150.0
  0
LINE
  5
62C
330
1F
100
AcDbEntity
  8
001
370
    50
100
AcDbLine
 10
401.890453
 20
131.328999
 30
0.0
 11
401.529609
 21
131.953999
 31
0.0
  0
LINE
  5
62D
330
1F
100
AcDbEntity
  8
001
370
    50
100
AcDbLine
 10
402.68431
 20
132.703999
 30
0.0
 11
401.962622
 21
132.703999
 31
0.0
  0
ARC
  5
62E
330
1F
100
AcDbEntity
  8
001
370
    50
100
AcDbCircle
 10
401.962622
 20
132.203999
 30
0.0
 40
0.5
100
AcDbArc
 50
90.0
 51
210.0
  0
LINE
  5
62F
330
1F
100
AcDbEntity
  8
001
370
    50
100
AcDbLine
 10
402.68431
 20
129.953999
 30
0.0
 11
401.962622
 21
129.953999
 31
0.0
  0
LINE
  5
630
330
1F
100
AcDbEntity
  8
001
370
    50
100
AcDbLine
 10
401.890453
 20
131.328999
 30
0.0
 11
401.529609
 21
130.703999
 31
0.0
  0
ARC
  5
631
330
1F
100
AcDbEntity
  8
001
370
    50
100
AcDbCircle
 10
401.962622
 20
130.453999
 30
0.0
 40
0.5
100
AcDbArc
 50
150.0
 51
270.0
  0
LINE
  5
632
330
1F
100
AcDbEntity
  8
001
370
    50
100
AcDbLine
 10
404.272023
 20
129.953999
 30
0.0
 11
403.911179
 21
129.328999
 31
0.0
  0
LINE
  5
633
330
1F
100
AcDbEntity
  8
001
370
    50
100
AcDbLine
 10
402.68431
 20
129.953999
 30
0.0
 11
403.045154
 21
129.328999
 31
0.0
  0
ARC
  5
634
330
1F
100
AcDbEntity
  8
001
370
    50
100
AcDbCircle
 10
403.478166
 20
129.578999
 30
0.0
 40
0.5
100
AcDbArc
 50
210.0
 51
330.0
  0
LINE
  5
635
330
1F
100
AcDbEntity
  8
001
370
    50
100
AcDbLine
 10
405.06588
 20
131.328999
 30
0.0
 11
405.426724
 21
130.703999
 31
0.0
  0
LINE
  5
636
330
1F
100
AcDbEntity
  8
001
370
    50
100
AcDbLine
 10
404.272023
 20
129.953999
 30
0.0
 11
404.993711
 21
129.953999
 31
0.0
  0
ARC
  5
637
330
1F
100
AcDbEntity
  8
001
370
    50
100
AcDbCircle
 10
404.993711
 20
130.453999
 30
0.0
 40
0.5
100
AcDbArc
 50
270.0
 51
30.0
  0
LINE
  5
638
330
1F
100
AcDbEntity
  8
001
370
    50
100
AcDbLine
 10
404.272023
 20
132.703999
 30
0.0
 11
404.993711
 21
132.703999
 31
0.0
  0
LINE
  5
639
330
1F
100
AcDbEntity
  8
001
370
    50
100
AcDbLine
 10
405.06588
 20
131.328999
 30
0.0
 11
405.426724
 21
131.953999
 31
0.0
  0
ARC
  5
63A
330
1F
100
AcDbEntity
  8
001
370
    50
100
AcDbCircle
 10
404.993711
 20
132.203999
 30
0.0
 40
0.5
100
AcDbArc
 50
330.0
 51
90.0
  0
POLYLINE
  5
63B
330
1F
100
AcDbEntity
  8
001
370
    50
100
AcDb2dPolyline
 66
     1
 10
0.0
 20
0.0
 30
0.0
  0
VERTEX
  5
63D
330
63B
100
AcDbEntity
  8
001
370
    50
100
AcDbVertex
100
AcDb2dVertex
 10
412.203471
 20
124.979232
 30
0.0
  0
VERTEX
  5
63E
330
63B
100
AcDbEntity
  8
001
370
    50
100
AcDbVertex
100
AcDb2dVertex
 10
412.45306
 20
124.976203
 30
0.0
  0
VERTEX
  5
63F
330
63B
100
AcDbEntity
  8
001
370
    50
100
AcDbVertex
100
AcDb2dVertex
 10
412.70265
 20
124.973174
 30
0.0
  0
VERTEX
  5
640
330
63B
100
AcDbEntity
  8
001
370
    50
100
AcDbVertex
100
AcDb2dVertex
 10
412.759761
 20
124.972484
 30
0.0
  0
VERTEX
  5
641
330
63B
100
AcDbEntity
  8
001
370
    50
100
AcDbVertex
100
AcDb2dVertex
 10
412.817211
 20
124.971795
 30
0.0
  0
VERTEX
  5
642
330
63B
100
AcDbEntity
  8
001
370
    50
100
AcDbVertex
100
AcDb2dVertex
 10
413.207254
 20
124.967273
 30
0.0
  0
VERTEX
  5
643
330
63B
100
AcDbEntity
  8
001
370
    50
100
AcDbVertex
100
AcDb2dVertex
 10
413.474128
 20
124.964306
 30
0.0
  0
SEQEND
  5
63C
330
63B
100
AcDbEntity
  8
001
370
    50
  0
LINE
  5
644
330
1F
100
AcDbEntity
  8
001
370
    50
100
AcDbLine
 10
402.084629
 20
124.172566
 30
0.0
 11
411.779898
 21
124.257176
 31
0.0
  0
LINE
  5
645
330
1F
100
AcDbEntity
  8
001
370
    50
100
AcDbLine
 10
407.219262
 20
138.50592
 30
0.0
 11
394.846318
 21
138.397942
 31
0.0
  0
LINE
  5
646
330
1F
100
AcDbEntity
  8
001
370
    50
100
AcDbLine
 10
394.793797
 20
153.787336
 30
0.0
 11
394.793797
 21
138.394017
 31
0.0
  0
LINE
  5
647
330
1F
100
AcDbEntity
  8
001
  6
DASHED
370
    30
100
AcDbLine
 10
395.092653
 20
138.400092
 30
0.0
 11
395.269035
 21
140.641232
 31
0.0
  0
LINE
  5
648
330
1F
100
AcDbEntity
  8
001
370
    50
100
AcDbLine
 10
395.076093
 20
138.399948
 30
0.0
 11
395.132311
 21
139.141232
 31
0.0
  0
ARC
  5
649
330
1F
100
AcDbEntity
  8
001
370
    50
100
AcDbCircle
 10
411.776407
 20
163.625304
 30
0.0
 40
0.4
100
AcDbArc
 50
4.5
 51
89.5
  0
LINE
  5
64A
330
1F
100
AcDbEntity
  8
001
370
    50
100
AcDbLine
 10
394.039478
 20
155.48253
 30
0.0
 11
394.451042
 21
150.253123
 31
0.0
  0
LINE
  5
64B
330
1F
100
AcDbEntity
  8
001
370
    50
100
AcDbLine
 10
402.084629
 20
164.109898
 30
0.0
 11
411.779898
 21
164.025289
 31
0.0
  0
LINE
  5
64C
330
1F
100
AcDbEntity
  8
001
370
    50
100
AcDbLine
 10
412.203007
 20
163.303043
 30
0.0
 11
412.175174
 21
163.656688
 31
0.0
  0
ARC
  5
64D
330
1F
100
AcDbEntity
  8
001
370
    50
100
AcDbCircle
 10
394.849809
 20
150.284507
 30
0.0
 40
0.4
100
AcDbArc
 50
184.5
 51
261.950468
  0
ARC
  5
64E
330
1F
100
AcDbEntity
  8
001
370
    50
100
AcDbCircle
 10
402.014817
 20
132.172262
 30
0.0
 40
8.0
100
AcDbArc
 50
175.5
 51
270.5
  0
ARC
  5
64F
330
1F
100
AcDbEntity
  8
001
370
    50
100
AcDbCircle
 10
404.611399
 20
130.482856
 30
0.0
 40
8.0
100
AcDbArc
 50
355.5
 51
90.5
  0
ARC
  5
650
330
1F
100
AcDbEntity
  8
001
370
    50
100
AcDbCircle
 10
402.014817
 20
156.110203
 30
0.0
 40
8.0
100
AcDbArc
 50
89.5
 51
184.5
  0
LINE
  5
651
330
1F
100
AcDbEntity
  8
001
370
     9
100
AcDbLine
 10
386.587124
 20
124.172566
 30
0.0
 11
402.084629
 21
124.172566
 31
0.0
  0
LINE
  5
652
330
1F
100
AcDbEntity
  8
001
370
    50
100
AcDbLine
 10
442.63218
 20
160.141232
 30
0.0
 11
430.779898
 21
160.141232
 31
0.0
  0
LINE
  5
653
330
1F
100
AcDbEntity
  8
001
  6
CENTER
370
     9
100
AcDbLine
 10
391.416154
 20
144.141232
 30
0.0
 11
446.913306
 21
144.141232
 31
0.0
  0
LINE
  5
654
330
1F
100
AcDbEntity
  8
001
370
    50
100
AcDbLine
 10
442.831302
 20
128.141232
 30
0.0
 11
430.779898
 21
128.141232
 31
0.0
  0
LINE
  5
655
330
1F
100
AcDbEntity
  8
001
370
    50
100
AcDbLine
 10
394.741245
 20
234.139896
 30
0.0
 11
394.569111
 21
236.396048
 31
0.0
  0
POLYLINE
  5
656
330
1F
100
AcDbEntity
  8
001
370
    50
100
AcDb2dPolyline
 66
     1
 10
0.0
 20
0.0
 30
0.0
  0
VERTEX
  5
658
330
656
100
AcDbEntity
  8
001
370
    50
100
AcDbVertex
100
AcDb2dVertex
 10
403.605647
 20
246.211967
 30
0.0
  0
VERTEX
  5
659
330
656
100
AcDbEntity
  8
001
370
    50
100
AcDbVertex
100
AcDb2dVertex
 10
402.910975
 20
246.180307
 30
0.0
  0
VERTEX
  5
65A
330
656
100
AcDbEntity
  8
001
370
    50
100
AcDbVertex
100
AcDb2dVertex
 10
401.960268
 20
246.074377
 30
0.0
  0
VERTEX
  5
65B
330
656
100
AcDbEntity
  8
001
370
    50
100
AcDbVertex
100
AcDb2dVertex
 10
401.118395
 20
245.891243
 30
0.0
  0
VERTEX
  5
65C
330
656
100
AcDbEntity
  8
001
370
    50
100
AcDbVertex
100
AcDb2dVertex
 10
400.367555
 20
245.633051
 30
0.0
  0
VERTEX
  5
65D
330
656
100
AcDbEntity
  8
001
370
    50
100
AcDbVertex
100
AcDb2dVertex
 10
399.61698
 20
245.30239
 30
0.0
  0
VERTEX
  5
65E
330
656
100
AcDbEntity
  8
001
370
    50
100
AcDbVertex
100
AcDb2dVertex
 10
398.881411
 20
244.902924
 30
0.0
  0
VERTEX
  5
65F
330
656
100
AcDbEntity
  8
001
370
    50
100
AcDbVertex
100
AcDb2dVertex
 10
398.19122
 20
244.43677
 30
0.0
  0
VERTEX
  5
660
330
656
100
AcDbEntity
  8
001
370
    50
100
AcDbVertex
100
AcDb2dVertex
 10
397.552136
 20
243.908708
 30
0.0
  0
VERTEX
  5
661
330
656
100
AcDbEntity
  8
001
370
    50
100
AcDbVertex
100
AcDb2dVertex
 10
396.960995
 20
243.321631
 30
0.0
  0
VERTEX
  5
662
330
656
100
AcDbEntity
  8
001
370
    50
100
AcDbVertex
100
AcDb2dVertex
 10
396.424718
 20
242.684052
 30
0.0
  0
VERTEX
  5
663
330
656
100
AcDbEntity
  8
001
370
    50
100
AcDbVertex
100
AcDb2dVertex
 10
395.948295
 20
242.000072
 30
0.0
  0
VERTEX
  5
664
330
656
100
AcDbEntity
  8
001
370
    50
100
AcDbVertex
100
AcDb2dVertex
 10
395.537313
 20
241.270403
 30
0.0
  0
VERTEX
  5
665
330
656
100
AcDbEntity
  8
001
370
    50
100
AcDbVertex
100
AcDb2dVertex
 10
395.193996
 20
240.497563
 30
0.0
  0
VERTEX
  5
666
330
656
100
AcDbEntity
  8
001
370
    50
100
AcDbVertex
100
AcDb2dVertex
 10
394.919955
 20
239.715606
 30
0.0
  0
VERTEX
  5
667
330
656
100
AcDbEntity
  8
001
370
    50
100
AcDbVertex
100
AcDb2dVertex
 10
394.716706
 20
238.93691
 30
0.0
  0
VERTEX
  5
668
330
656
100
AcDbEntity
  8
001
370
    50
100
AcDbVertex
100
AcDb2dVertex
 10
394.593538
 20
238.072282
 30
0.0
  0
VERTEX
  5
669
330
656
100
AcDbEntity
  8
001
370
    50
100
AcDbVertex
100
AcDb2dVertex
 10
394.553442
 20
237.1019
 30
0.0
  0
VERTEX
  5
66A
330
656
100
AcDbEntity
  8
001
370
    50
100
AcDbVertex
100
AcDb2dVertex
 10
394.569111
 20
236.396048
 30
0.0
  0
SEQEND
  5
657
330
656
100
AcDbEntity
  8
001
370
    50
  0
LINE
  5
66B
330
1F
100
AcDbEntity
  8
001
370
    50
100
AcDbLine
 10
403.605647
 20
246.211967
 30
0.0
 11
410.541406
 21
246.141901
 31
0.0
  0
POLYLINE
  5
66C
330
1F
100
AcDbEntity
  8
001
370
    50
100
AcDb2dPolyline
 66
     1
 10
0.0
 20
0.0
 30
0.0
  0
VERTEX
  5
66E
330
66C
100
AcDbEntity
  8
001
370
    50
100
AcDbVertex
100
AcDb2dVertex
 10
421.84073
 20
208.161644
 30
0.0
  0
VERTEX
  5
66F
330
66C
100
AcDbEntity
  8
001
370
    50
100
AcDbVertex
100
AcDb2dVertex
 10
421.844479
 20
208.161542
 30
0.0
  0
VERTEX
  5
670
330
66C
100
AcDbEntity
  8
001
370
    50
100
AcDbVertex
100
AcDb2dVertex
 10
421.849959
 20
208.161431
 30
0.0
  0
VERTEX
  5
671
330
66C
100
AcDbEntity
  8
001
370
    50
100
AcDbVertex
100
AcDb2dVertex
 10
421.855439
 20
208.161373
 30
0.0
  0
VERTEX
  5
672
330
66C
100
AcDbEntity
  8
001
370
    50
100
AcDbVertex
100
AcDb2dVertex
 10
421.859189
 20
208.16136
 30
0.0
  0
SEQEND
  5
66D
330
66C
100
AcDbEntity
  8
001
370
    50
  0
POLYLINE
  5
673
330
1F
100
AcDbEntity
  8
001
370
    50
100
AcDb2dPolyline
 66
     1
 10
0.0
 20
0.0
 30
0.0
  0
VERTEX
  5
675
330
673
100
AcDbEntity
  8
001
370
    50
100
AcDbVertex
100
AcDb2dVertex
 10
421.859189
 20
246.66136
 30
0.0
  0
VERTEX
  5
676
330
673
100
AcDbEntity
  8
001
370
    50
100
AcDbVertex
100
AcDb2dVertex
 10
421.855439
 20
246.661346
 30
0.0
  0
VERTEX
  5
677
330
673
100
AcDbEntity
  8
001
370
    50
100
AcDbVertex
100
AcDb2dVertex
 10
421.849959
 20
246.661288
 30
0.0
  0
VERTEX
  5
678
330
673
100
AcDbEntity
  8
001
370
    50
100
AcDbVertex
100
AcDb2dVertex
 10
421.844479
 20
246.661177
 30
0.0
  0
VERTEX
  5
679
330
673
100
AcDbEntity
  8
001
370
    50
100
AcDbVertex
100
AcDb2dVertex
 10
421.84073
 20
246.661075
 30
0.0
  0
SEQEND
  5
674
330
673
100
AcDbEntity
  8
001
370
    50
  0
LINE
  5
67A
330
1F
100
AcDbEntity
  8
001
370
    50
100
AcDbLine
 10
426.779898
 20
246.66136
 30
0.0
 11
421.859189
 21
246.66136
 31
0.0
  0
LINE
  5
67B
330
1F
100
AcDbEntity
  8
001
370
    50
100
AcDbLine
 10
421.859189
 20
208.16136
 30
0.0
 11
426.779898
 21
208.16136
 31
0.0
  0
POLYLINE
  5
67C
330
1F
100
AcDbEntity
  8
001
370
    50
100
AcDb2dPolyline
 66
     1
 10
0.0
 20
0.0
 30
0.0
  0
VERTEX
  5
67E
330
67C
100
AcDbEntity
  8
001
370
    50
100
AcDbVertex
100
AcDb2dVertex
 10
413.474128
 20
208.234433
 30
0.0
  0
VERTEX
  5
67F
330
67C
100
AcDbEntity
  8
001
370
    50
100
AcDbVertex
100
AcDb2dVertex
 10
414.468912
 20
208.250678
 30
0.0
  0
VERTEX
  5
680
330
67C
100
AcDbEntity
  8
001
370
    50
100
AcDbVertex
100
AcDb2dVertex
 10
415.92278
 20
208.277069
 30
0.0
  0
VERTEX
  5
681
330
67C
100
AcDbEntity
  8
001
370
    50
100
AcDbVertex
100
AcDb2dVertex
 10
417.373086
 20
208.30708
 30
0.0
  0
VERTEX
  5
682
330
67C
100
AcDbEntity
  8
001
370
    50
100
AcDbVertex
100
AcDb2dVertex
 10
418.365362
 20
208.329425
 30
0.0
  0
SEQEND
  5
67D
330
67C
100
AcDbEntity
  8
001
370
    50
  0
POLYLINE
  5
683
330
1F
100
AcDbEntity
  8
001
370
    50
100
AcDb2dPolyline
 66
     1
 10
0.0
 20
0.0
 30
0.0
  0
VERTEX
  5
685
330
683
100
AcDbEntity
  8
001
370
    50
100
AcDbVertex
100
AcDb2dVertex
 10
418.365362
 20
208.329425
 30
0.0
  0
VERTEX
  5
686
330
683
100
AcDbEntity
  8
001
370
    50
100
AcDbVertex
100
AcDb2dVertex
 10
418.615156
 20
208.333305
 30
0.0
  0
VERTEX
  5
687
330
683
100
AcDbEntity
  8
001
370
    50
100
AcDbVertex
100
AcDb2dVertex
 10
418.86496
 20
208.335445
 30
0.0
  0
VERTEX
  5
688
330
683
100
AcDbEntity
  8
001
370
    50
100
AcDbVertex
100
AcDb2dVertex
 10
419.115072
 20
208.334459
 30
0.0
  0
VERTEX
  5
689
330
683
100
AcDbEntity
  8
001
370
    50
100
AcDbVertex
100
AcDb2dVertex
 10
419.36516
 20
208.330373
 30
0.0
  0
VERTEX
  5
68A
330
683
100
AcDbEntity
  8
001
370
    50
100
AcDbVertex
100
AcDb2dVertex
 10
419.608416
 20
208.323733
 30
0.0
  0
VERTEX
  5
68B
330
683
100
AcDbEntity
  8
001
370
    50
100
AcDbVertex
100
AcDb2dVertex
 10
419.851586
 20
208.314543
 30
0.0
  0
VERTEX
  5
68C
330
683
100
AcDbEntity
  8
001
370
    50
100
AcDbVertex
100
AcDb2dVertex
 10
420.081332
 20
208.303526
 30
0.0
  0
VERTEX
  5
68D
330
683
100
AcDbEntity
  8
001
370
    50
100
AcDbVertex
100
AcDb2dVertex
 10
420.310958
 20
208.29025
 30
0.0
  0
VERTEX
  5
68E
330
683
100
AcDbEntity
  8
001
370
    50
100
AcDbVertex
100
AcDb2dVertex
 10
420.52133
 20
208.276126
 30
0.0
  0
VERTEX
  5
68F
330
683
100
AcDbEntity
  8
001
370
    50
100
AcDbVertex
100
AcDb2dVertex
 10
420.731578
 20
208.26026
 30
0.0
  0
VERTEX
  5
690
330
683
100
AcDbEntity
  8
001
370
    50
100
AcDbVertex
100
AcDb2dVertex
 10
420.916179
 20
208.245004
 30
0.0
  0
VERTEX
  5
691
330
683
100
AcDbEntity
  8
001
370
    50
100
AcDbVertex
100
AcDb2dVertex
 10
421.100683
 20
208.228615
 30
0.0
  0
VERTEX
  5
692
330
683
100
AcDbEntity
  8
001
370
    50
100
AcDbVertex
100
AcDb2dVertex
 10
421.255001
 20
208.214139
 30
0.0
  0
VERTEX
  5
693
330
683
100
AcDbEntity
  8
001
370
    50
100
AcDbVertex
100
AcDb2dVertex
 10
421.409278
 20
208.199248
 30
0.0
  0
VERTEX
  5
694
330
683
100
AcDbEntity
  8
001
370
    50
100
AcDbVertex
100
AcDb2dVertex
 10
421.527942
 20
208.187717
 30
0.0
  0
VERTEX
  5
695
330
683
100
AcDbEntity
  8
001
370
    50
100
AcDbVertex
100
AcDb2dVertex
 10
421.646626
 20
208.176319
 30
0.0
  0
VERTEX
  5
696
330
683
100
AcDbEntity
  8
001
370
    50
100
AcDbVertex
100
AcDb2dVertex
 10
421.704413
 20
208.170978
 30
0.0
  0
VERTEX
  5
697
330
683
100
AcDbEntity
  8
001
370
    50
100
AcDbVertex
100
AcDb2dVertex
 10
421.762253
 20
208.166344
 30
0.0
  0
VERTEX
  5
698
330
683
100
AcDbEntity
  8
001
370
    50
100
AcDbVertex
100
AcDb2dVertex
 10
421.801481
 20
208.163841
 30
0.0
  0
VERTEX
  5
699
330
683
100
AcDbEntity
  8
001
370
    50
100
AcDbVertex
100
AcDb2dVertex
 10
421.84073
 20
208.161644
 30
0.0
  0
SEQEND
  5
684
330
683
100
AcDbEntity
  8
001
370
    50
  0
POLYLINE
  5
69A
330
1F
100
AcDbEntity
  8
001
370
    50
100
AcDb2dPolyline
 66
     1
 10
0.0
 20
0.0
 30
0.0
  0
VERTEX
  5
69C
330
69A
100
AcDbEntity
  8
001
370
    50
100
AcDbVertex
100
AcDb2dVertex
 10
421.859189
 20
208.16136
 30
0.0
  0
VERTEX
  5
69D
330
69A
100
AcDbEntity
  8
001
370
    50
100
AcDbVertex
100
AcDb2dVertex
 10
422.127386
 20
208.254022
 30
0.0
  0
VERTEX
  5
69E
330
69A
100
AcDbEntity
  8
001
370
    50
100
AcDbVertex
100
AcDb2dVertex
 10
422.46536
 20
208.470814
 30
0.0
  0
VERTEX
  5
69F
330
69A
100
AcDbEntity
  8
001
370
    50
100
AcDbVertex
100
AcDb2dVertex
 10
422.833904
 20
208.904493
 30
0.0
  0
VERTEX
  5
6A0
330
69A
100
AcDbEntity
  8
001
370
    50
100
AcDbVertex
100
AcDb2dVertex
 10
423.052043
 20
209.38923
 30
0.0
  0
VERTEX
  5
6A1
330
69A
100
AcDbEntity
  8
001
370
    50
100
AcDbVertex
100
AcDb2dVertex
 10
423.338027
 20
210.135214
 30
0.0
  0
VERTEX
  5
6A2
330
69A
100
AcDbEntity
  8
001
370
    50
100
AcDbVertex
100
AcDb2dVertex
 10
423.600373
 20
210.887078
 30
0.0
  0
VERTEX
  5
6A3
330
69A
100
AcDbEntity
  8
001
370
    50
100
AcDbVertex
100
AcDb2dVertex
 10
423.870003
 20
211.85765
 30
0.0
  0
VERTEX
  5
6A4
330
69A
100
AcDbEntity
  8
001
370
    50
100
AcDbVertex
100
AcDb2dVertex
 10
424.092723
 20
212.916201
 30
0.0
  0
VERTEX
  5
6A5
330
69A
100
AcDbEntity
  8
001
370
    50
100
AcDbVertex
100
AcDb2dVertex
 10
424.347056
 20
214.35517
 30
0.0
  0
VERTEX
  5
6A6
330
69A
100
AcDbEntity
  8
001
370
    50
100
AcDbVertex
100
AcDb2dVertex
 10
424.513262
 20
215.41136
 30
0.0
  0
SEQEND
  5
69B
330
69A
100
AcDbEntity
  8
001
370
    50
  0
POLYLINE
  5
6A7
330
1F
100
AcDbEntity
  8
001
370
    50
100
AcDb2dPolyline
 66
     1
 10
0.0
 20
0.0
 30
0.0
  0
VERTEX
  5
6A9
330
6A7
100
AcDbEntity
  8
001
370
    50
100
AcDbVertex
100
AcDb2dVertex
 10
415.080848
 20
225.41136
 30
0.0
  0
VERTEX
  5
6AA
330
6A7
100
AcDbEntity
  8
001
370
    50
100
AcDbVertex
100
AcDb2dVertex
 10
415.49948
 20
225.39949
 30
0.0
  0
VERTEX
  5
6AB
330
6A7
100
AcDbEntity
  8
001
370
    50
100
AcDbVertex
100
AcDb2dVertex
 10
415.917409
 20
225.376812
 30
0.0
  0
VERTEX
  5
6AC
330
6A7
100
AcDbEntity
  8
001
370
    50
100
AcDbVertex
100
AcDb2dVertex
 10
416.335335
 20
225.334652
 30
0.0
  0
VERTEX
  5
6AD
330
6A7
100
AcDbEntity
  8
001
370
    50
100
AcDbVertex
100
AcDb2dVertex
 10
416.751164
 20
225.273816
 30
0.0
  0
VERTEX
  5
6AE
330
6A7
100
AcDbEntity
  8
001
370
    50
100
AcDbVertex
100
AcDb2dVertex
 10
417.16408
 20
225.19677
 30
0.0
  0
VERTEX
  5
6AF
330
6A7
100
AcDbEntity
  8
001
370
    50
100
AcDbVertex
100
AcDb2dVertex
 10
417.573509
 20
225.103346
 30
0.0
  0
VERTEX
  5
6B0
330
6A7
100
AcDbEntity
  8
001
370
    50
100
AcDbVertex
100
AcDb2dVertex
 10
417.977169
 20
224.993349
 30
0.0
  0
VERTEX
  5
6B1
330
6A7
100
AcDbEntity
  8
001
370
    50
100
AcDbVertex
100
AcDb2dVertex
 10
418.375841
 20
224.866371
 30
0.0
  0
VERTEX
  5
6B2
330
6A7
100
AcDbEntity
  8
001
370
    50
100
AcDbVertex
100
AcDb2dVertex
 10
418.769424
 20
224.722259
 30
0.0
  0
VERTEX
  5
6B3
330
6A7
100
AcDbEntity
  8
001
370
    50
100
AcDbVertex
100
AcDb2dVertex
 10
419.156524
 20
224.561549
 30
0.0
  0
VERTEX
  5
6B4
330
6A7
100
AcDbEntity
  8
001
370
    50
100
AcDbVertex
100
AcDb2dVertex
 10
419.537526
 20
224.384099
 30
0.0
  0
VERTEX
  5
6B5
330
6A7
100
AcDbEntity
  8
001
370
    50
100
AcDbVertex
100
AcDb2dVertex
 10
419.910668
 20
224.190666
 30
0.0
  0
VERTEX
  5
6B6
330
6A7
100
AcDbEntity
  8
001
370
    50
100
AcDbVertex
100
AcDb2dVertex
 10
420.274435
 20
223.982038
 30
0.0
  0
VERTEX
  5
6B7
330
6A7
100
AcDbEntity
  8
001
370
    50
100
AcDbVertex
100
AcDb2dVertex
 10
420.628917
 20
223.757987
 30
0.0
  0
VERTEX
  5
6B8
330
6A7
100
AcDbEntity
  8
001
370
    50
100
AcDbVertex
100
AcDb2dVertex
 10
420.970899
 20
223.520392
 30
0.0
  0
VERTEX
  5
6B9
330
6A7
100
AcDbEntity
  8
001
370
    50
100
AcDbVertex
100
AcDb2dVertex
 10
421.301915
 20
223.267773
 30
0.0
  0
VERTEX
  5
6BA
330
6A7
100
AcDbEntity
  8
001
370
    50
100
AcDbVertex
100
AcDb2dVertex
 10
421.604446
 20
223.014777
 30
0.0
  0
VERTEX
  5
6BB
330
6A7
100
AcDbEntity
  8
001
370
    50
100
AcDbVertex
100
AcDb2dVertex
 10
421.89577
 20
222.748944
 30
0.0
  0
VERTEX
  5
6BC
330
6A7
100
AcDbEntity
  8
001
370
    50
100
AcDbVertex
100
AcDb2dVertex
 10
422.174941
 20
222.4714
 30
0.0
  0
VERTEX
  5
6BD
330
6A7
100
AcDbEntity
  8
001
370
    50
100
AcDbVertex
100
AcDb2dVertex
 10
422.442018
 20
222.182201
 30
0.0
  0
VERTEX
  5
6BE
330
6A7
100
AcDbEntity
  8
001
370
    50
100
AcDbVertex
100
AcDb2dVertex
 10
422.694328
 20
221.884478
 30
0.0
  0
VERTEX
  5
6BF
330
6A7
100
AcDbEntity
  8
001
370
    50
100
AcDbVertex
100
AcDb2dVertex
 10
422.93356
 20
221.57615
 30
0.0
  0
VERTEX
  5
6C0
330
6A7
100
AcDbEntity
  8
001
370
    50
100
AcDbVertex
100
AcDb2dVertex
 10
423.155568
 20
221.262591
 30
0.0
  0
VERTEX
  5
6C1
330
6A7
100
AcDbEntity
  8
001
370
    50
100
AcDbVertex
100
AcDb2dVertex
 10
423.363297
 20
220.939396
 30
0.0
  0
VERTEX
  5
6C2
330
6A7
100
AcDbEntity
  8
001
370
    50
100
AcDbVertex
100
AcDb2dVertex
 10
423.589523
 20
220.545271
 30
0.0
  0
VERTEX
  5
6C3
330
6A7
100
AcDbEntity
  8
001
370
    50
100
AcDbVertex
100
AcDb2dVertex
 10
423.794272
 20
220.139525
 30
0.0
  0
VERTEX
  5
6C4
330
6A7
100
AcDbEntity
  8
001
370
    50
100
AcDbVertex
100
AcDb2dVertex
 10
423.974178
 20
219.731034
 30
0.0
  0
VERTEX
  5
6C5
330
6A7
100
AcDbEntity
  8
001
370
    50
100
AcDbVertex
100
AcDb2dVertex
 10
424.132521
 20
219.31373
 30
0.0
  0
VERTEX
  5
6C6
330
6A7
100
AcDbEntity
  8
001
370
    50
100
AcDbVertex
100
AcDb2dVertex
 10
424.265073
 20
218.900774
 30
0.0
  0
VERTEX
  5
6C7
330
6A7
100
AcDbEntity
  8
001
370
    50
100
AcDbVertex
100
AcDb2dVertex
 10
424.375785
 20
218.481445
 30
0.0
  0
VERTEX
  5
6C8
330
6A7
100
AcDbEntity
  8
001
370
    50
100
AcDbVertex
100
AcDb2dVertex
 10
424.460285
 20
218.076856
 30
0.0
  0
VERTEX
  5
6C9
330
6A7
100
AcDbEntity
  8
001
370
    50
100
AcDbVertex
100
AcDb2dVertex
 10
424.524166
 20
217.668535
 30
0.0
  0
VERTEX
  5
6CA
330
6A7
100
AcDbEntity
  8
001
370
    50
100
AcDbVertex
100
AcDb2dVertex
 10
424.566636
 20
217.269127
 30
0.0
  0
VERTEX
  5
6CB
330
6A7
100
AcDbEntity
  8
001
370
    50
100
AcDbVertex
100
AcDb2dVertex
 10
424.590363
 20
216.868075
 30
0.0
  0
VERTEX
  5
6CC
330
6A7
100
AcDbEntity
  8
001
370
    50
100
AcDbVertex
100
AcDb2dVertex
 10
424.595576
 20
216.479972
 30
0.0
  0
VERTEX
  5
6CD
330
6A7
100
AcDbEntity
  8
001
370
    50
100
AcDbVertex
100
AcDb2dVertex
 10
424.581126
 20
216.092329
 30
0.0
  0
VERTEX
  5
6CE
330
6A7
100
AcDbEntity
  8
001
370
    50
100
AcDbVertex
100
AcDb2dVertex
 10
424.551573
 20
215.751511
 30
0.0
  0
VERTEX
  5
6CF
330
6A7
100
AcDbEntity
  8
001
370
    50
100
AcDbVertex
100
AcDb2dVertex
 10
424.513262
 20
215.41136
 30
0.0
  0
SEQEND
  5
6A8
330
6A7
100
AcDbEntity
  8
001
370
    50
  0
LINE
  5
6D0
330
1F
100
AcDbEntity
  8
001
370
    50
100
AcDbLine
 10
413.474128
 20
246.588286
 30
0.0
 11
413.474128
 21
225.41136
 31
0.0
  0
POLYLINE
  5
6D1
330
1F
100
AcDbEntity
  8
001
370
    50
100
AcDb2dPolyline
 66
     1
 10
0.0
 20
0.0
 30
0.0
  0
VERTEX
  5
6D3
330
6D1
100
AcDbEntity
  8
001
370
    50
100
AcDbVertex
100
AcDb2dVertex
 10
418.365362
 20
246.493294
 30
0.0
  0
VERTEX
  5
6D4
330
6D1
100
AcDbEntity
  8
001
370
    50
100
AcDbVertex
100
AcDb2dVertex
 10
417.373086
 20
246.515639
 30
0.0
  0
VERTEX
  5
6D5
330
6D1
100
AcDbEntity
  8
001
370
    50
100
AcDbVertex
100
AcDb2dVertex
 10
415.92278
 20
246.54565
 30
0.0
  0
VERTEX
  5
6D6
330
6D1
100
AcDbEntity
  8
001
370
    50
100
AcDbVertex
100
AcDb2dVertex
 10
414.468912
 20
246.572041
 30
0.0
  0
VERTEX
  5
6D7
330
6D1
100
AcDbEntity
  8
001
370
    50
100
AcDbVertex
100
AcDb2dVertex
 10
413.474128
 20
246.588286
 30
0.0
  0
SEQEND
  5
6D2
330
6D1
100
AcDbEntity
  8
001
370
    50
  0
POLYLINE
  5
6D8
330
1F
100
AcDbEntity
  8
001
370
    50
100
AcDb2dPolyline
 66
     1
 10
0.0
 20
0.0
 30
0.0
  0
VERTEX
  5
6DA
330
6D8
100
AcDbEntity
  8
001
370
    50
100
AcDbVertex
100
AcDb2dVertex
 10
418.365362
 20
246.493294
 30
0.0
  0
VERTEX
  5
6DB
330
6D8
100
AcDbEntity
  8
001
370
    50
100
AcDbVertex
100
AcDb2dVertex
 10
418.615156
 20
246.489414
 30
0.0
  0
VERTEX
  5
6DC
330
6D8
100
AcDbEntity
  8
001
370
    50
100
AcDbVertex
100
AcDb2dVertex
 10
418.86496
 20
246.487274
 30
0.0
  0
VERTEX
  5
6DD
330
6D8
100
AcDbEntity
  8
001
370
    50
100
AcDbVertex
100
AcDb2dVertex
 10
419.115072
 20
246.48826
 30
0.0
  0
VERTEX
  5
6DE
330
6D8
100
AcDbEntity
  8
001
370
    50
100
AcDbVertex
100
AcDb2dVertex
 10
419.36516
 20
246.492346
 30
0.0
  0
VERTEX
  5
6DF
330
6D8
100
AcDbEntity
  8
001
370
    50
100
AcDbVertex
100
AcDb2dVertex
 10
419.608416
 20
246.498986
 30
0.0
  0
VERTEX
  5
6E0
330
6D8
100
AcDbEntity
  8
001
370
    50
100
AcDbVertex
100
AcDb2dVertex
 10
419.851586
 20
246.508176
 30
0.0
  0
VERTEX
  5
6E1
330
6D8
100
AcDbEntity
  8
001
370
    50
100
AcDbVertex
100
AcDb2dVertex
 10
420.081332
 20
246.519193
 30
0.0
  0
VERTEX
  5
6E2
330
6D8
100
AcDbEntity
  8
001
370
    50
100
AcDbVertex
100
AcDb2dVertex
 10
420.310958
 20
246.532469
 30
0.0
  0
VERTEX
  5
6E3
330
6D8
100
AcDbEntity
  8
001
370
    50
100
AcDbVertex
100
AcDb2dVertex
 10
420.52133
 20
246.546593
 30
0.0
  0
VERTEX
  5
6E4
330
6D8
100
AcDbEntity
  8
001
370
    50
100
AcDbVertex
100
AcDb2dVertex
 10
420.731578
 20
246.562459
 30
0.0
  0
VERTEX
  5
6E5
330
6D8
100
AcDbEntity
  8
001
370
    50
100
AcDbVertex
100
AcDb2dVertex
 10
420.916179
 20
246.577715
 30
0.0
  0
VERTEX
  5
6E6
330
6D8
100
AcDbEntity
  8
001
370
    50
100
AcDbVertex
100
AcDb2dVertex
 10
421.100683
 20
246.594104
 30
0.0
  0
VERTEX
  5
6E7
330
6D8
100
AcDbEntity
  8
001
370
    50
100
AcDbVertex
100
AcDb2dVertex
 10
421.255001
 20
246.60858
 30
0.0
  0
VERTEX
  5
6E8
330
6D8
100
AcDbEntity
  8
001
370
    50
100
AcDbVertex
100
AcDb2dVertex
 10
421.409278
 20
246.623471
 30
0.0
  0
VERTEX
  5
6E9
330
6D8
100
AcDbEntity
  8
001
370
    50
100
AcDbVertex
100
AcDb2dVertex
 10
421.527942
 20
246.635002
 30
0.0
  0
VERTEX
  5
6EA
330
6D8
100
AcDbEntity
  8
001
370
    50
100
AcDbVertex
100
AcDb2dVertex
 10
421.646626
 20
246.646401
 30
0.0
  0
VERTEX
  5
6EB
330
6D8
100
AcDbEntity
  8
001
370
    50
100
AcDbVertex
100
AcDb2dVertex
 10
421.704413
 20
246.651741
 30
0.0
  0
VERTEX
  5
6EC
330
6D8
100
AcDbEntity
  8
001
370
    50
100
AcDbVertex
100
AcDb2dVertex
 10
421.762253
 20
246.656375
 30
0.0
  0
VERTEX
  5
6ED
330
6D8
100
AcDbEntity
  8
001
370
    50
100
AcDbVertex
100
AcDb2dVertex
 10
421.801481
 20
246.658878
 30
0.0
  0
VERTEX
  5
6EE
330
6D8
100
AcDbEntity
  8
001
370
    50
100
AcDbVertex
100
AcDb2dVertex
 10
421.84073
 20
246.661075
 30
0.0
  0
SEQEND
  5
6D9
330
6D8
100
AcDbEntity
  8
001
370
    50
  0
ARC
  5
6EF
330
1F
100
AcDbEntity
  8
001
370
    50
100
AcDbCircle
 10
426.779898
 20
244.66136
 30
0.0
 40
2.000000000000002
100
AcDbArc
 50
0.0
 51
90.0
  0
ARC
  5
6F0
330
1F
100
AcDbEntity
  8
001
370
    50
100
AcDbCircle
 10
426.779898
 20
210.16136
 30
0.0
 40
2.000000000000002
100
AcDbArc
 50
270.0
 51
0.0
  0
LINE
  5
6F1
330
1F
100
AcDbEntity
  8
001
370
    50
100
AcDbLine
 10
428.779898
 20
244.66136
 30
0.0
 11
428.779898
 21
210.16136
 31
0.0
  0
POLYLINE
  5
6F2
330
1F
100
AcDbEntity
  8
001
370
    50
100
AcDb2dPolyline
 66
     1
 10
0.0
 20
0.0
 30
0.0
  0
VERTEX
  5
6F4
330
6F2
100
AcDbEntity
  8
001
370
    50
100
AcDbVertex
100
AcDb2dVertex
 10
410.557982
 20
245.924644
 30
0.0
  0
VERTEX
  5
6F5
330
6F2
100
AcDbEntity
  8
001
370
    50
100
AcDbVertex
100
AcDb2dVertex
 10
409.157882
 20
245.951342
 30
0.0
  0
VERTEX
  5
6F6
330
6F2
100
AcDbEntity
  8
001
370
    50
100
AcDbVertex
100
AcDb2dVertex
 10
407.111494
 20
245.985078
 30
0.0
  0
VERTEX
  5
6F7
330
6F2
100
AcDbEntity
  8
001
370
    50
100
AcDbVertex
100
AcDb2dVertex
 10
405.059577
 20
246.011529
 30
0.0
  0
VERTEX
  5
6F8
330
6F2
100
AcDbEntity
  8
001
370
    50
100
AcDbVertex
100
AcDb2dVertex
 10
403.655587
 20
246.026009
 30
0.0
  0
SEQEND
  5
6F3
330
6F2
100
AcDbEntity
  8
001
370
    50
  0
POLYLINE
  5
6F9
330
1F
100
AcDbEntity
  8
001
370
    50
100
AcDb2dPolyline
 66
     1
 10
0.0
 20
0.0
 30
0.0
  0
VERTEX
  5
6FB
330
6F9
100
AcDbEntity
  8
001
370
    50
100
AcDbVertex
100
AcDb2dVertex
 10
412.160562
 20
246.572623
 30
0.0
  0
VERTEX
  5
6FC
330
6F9
100
AcDbEntity
  8
001
370
    50
100
AcDbVertex
100
AcDb2dVertex
 10
411.823786
 20
246.491603
 30
0.0
  0
VERTEX
  5
6FD
330
6F9
100
AcDbEntity
  8
001
370
    50
100
AcDbVertex
100
AcDb2dVertex
 10
411.345328
 20
246.331627
 30
0.0
  0
VERTEX
  5
6FE
330
6F9
100
AcDbEntity
  8
001
370
    50
100
AcDbVertex
100
AcDb2dVertex
 10
410.870159
 20
246.106294
 30
0.0
  0
VERTEX
  5
6FF
330
6F9
100
AcDbEntity
  8
001
370
    50
100
AcDbVertex
100
AcDb2dVertex
 10
410.557982
 20
245.924644
 30
0.0
  0
SEQEND
  5
6FA
330
6F9
100
AcDbEntity
  8
001
370
    50
  0
POLYLINE
  5
700
330
1F
100
AcDbEntity
  8
001
370
    50
100
AcDb2dPolyline
 66
     1
 10
0.0
 20
0.0
 30
0.0
  0
VERTEX
  5
702
330
700
100
AcDbEntity
  8
001
370
    50
100
AcDbVertex
100
AcDb2dVertex
 10
413.474128
 20
246.588286
 30
0.0
  0
VERTEX
  5
703
330
700
100
AcDbEntity
  8
001
370
    50
100
AcDbVertex
100
AcDb2dVertex
 10
413.207254
 20
246.585318
 30
0.0
  0
VERTEX
  5
704
330
700
100
AcDbEntity
  8
001
370
    50
100
AcDbVertex
100
AcDb2dVertex
 10
412.817211
 20
246.580796
 30
0.0
  0
VERTEX
  5
705
330
700
100
AcDbEntity
  8
001
370
    50
100
AcDbVertex
100
AcDb2dVertex
 10
412.427325
 20
246.576018
 30
0.0
  0
VERTEX
  5
706
330
700
100
AcDbEntity
  8
001
370
    50
100
AcDbVertex
100
AcDb2dVertex
 10
412.160562
 20
246.572623
 30
0.0
  0
SEQEND
  5
701
330
700
100
AcDbEntity
  8
001
370
    50
  0
POLYLINE
  5
707
330
1F
100
AcDbEntity
  8
001
370
    50
100
AcDb2dPolyline
 66
     1
 10
0.0
 20
0.0
 30
0.0
  0
VERTEX
  5
709
330
707
100
AcDbEntity
  8
001
370
    50
100
AcDbVertex
100
AcDb2dVertex
 10
394.793797
 20
237.056351
 30
0.0
  0
VERTEX
  5
70A
330
707
100
AcDbEntity
  8
001
370
    50
100
AcDbVertex
100
AcDb2dVertex
 10
394.797128
 20
237.270993
 30
0.0
  0
VERTEX
  5
70B
330
707
100
AcDbEntity
  8
001
370
    50
100
AcDbVertex
100
AcDb2dVertex
 10
394.803396
 20
237.485537
 30
0.0
  0
VERTEX
  5
70C
330
707
100
AcDbEntity
  8
001
370
    50
100
AcDbVertex
100
AcDb2dVertex
 10
394.831493
 20
237.90659
 30
0.0
  0
VERTEX
  5
70D
330
707
100
AcDbEntity
  8
001
370
    50
100
AcDbVertex
100
AcDb2dVertex
 10
394.879944
 20
238.32595
 30
0.0
  0
VERTEX
  5
70E
330
707
100
AcDbEntity
  8
001
370
    50
100
AcDbVertex
100
AcDb2dVertex
 10
394.947156
 20
238.744343
 30
0.0
  0
VERTEX
  5
70F
330
707
100
AcDbEntity
  8
001
370
    50
100
AcDbVertex
100
AcDb2dVertex
 10
395.032897
 20
239.159265
 30
0.0
  0
VERTEX
  5
710
330
707
100
AcDbEntity
  8
001
370
    50
100
AcDbVertex
100
AcDb2dVertex
 10
395.137374
 20
239.569555
 30
0.0
  0
VERTEX
  5
711
330
707
100
AcDbEntity
  8
001
370
    50
100
AcDbVertex
100
AcDb2dVertex
 10
395.260609
 20
239.97463
 30
0.0
  0
VERTEX
  5
712
330
707
100
AcDbEntity
  8
001
370
    50
100
AcDbVertex
100
AcDb2dVertex
 10
395.401731
 20
240.371468
 30
0.0
  0
VERTEX
  5
713
330
707
100
AcDbEntity
  8
001
370
    50
100
AcDbVertex
100
AcDb2dVertex
 10
395.561436
 20
240.761195
 30
0.0
  0
VERTEX
  5
714
330
707
100
AcDbEntity
  8
001
370
    50
100
AcDbVertex
100
AcDb2dVertex
 10
395.778885
 20
241.220722
 30
0.0
  0
VERTEX
  5
715
330
707
100
AcDbEntity
  8
001
370
    50
100
AcDbVertex
100
AcDb2dVertex
 10
396.022335
 20
241.667083
 30
0.0
  0
VERTEX
  5
716
330
707
100
AcDbEntity
  8
001
370
    50
100
AcDbVertex
100
AcDb2dVertex
 10
396.291101
 20
242.099721
 30
0.0
  0
VERTEX
  5
717
330
707
100
AcDbEntity
  8
001
370
    50
100
AcDbVertex
100
AcDb2dVertex
 10
396.583921
 20
242.516445
 30
0.0
  0
VERTEX
  5
718
330
707
100
AcDbEntity
  8
001
370
    50
100
AcDbVertex
100
AcDb2dVertex
 10
396.89841
 20
242.913838
 30
0.0
  0
VERTEX
  5
719
330
707
100
AcDbEntity
  8
001
370
    50
100
AcDbVertex
100
AcDb2dVertex
 10
397.235354
 20
243.292346
 30
0.0
  0
VERTEX
  5
71A
330
707
100
AcDbEntity
  8
001
370
    50
100
AcDbVertex
100
AcDb2dVertex
 10
397.584489
 20
243.641415
 30
0.0
  0
VERTEX
  5
71B
330
707
100
AcDbEntity
  8
001
370
    50
100
AcDbVertex
100
AcDb2dVertex
 10
397.952864
 20
243.970141
 30
0.0
  0
VERTEX
  5
71C
330
707
100
AcDbEntity
  8
001
370
    50
100
AcDbVertex
100
AcDb2dVertex
 10
398.339629
 20
244.278196
 30
0.0
  0
VERTEX
  5
71D
330
707
100
AcDbEntity
  8
001
370
    50
100
AcDbVertex
100
AcDb2dVertex
 10
398.743007
 20
244.564157
 30
0.0
  0
VERTEX
  5
71E
330
707
100
AcDbEntity
  8
001
370
    50
100
AcDbVertex
100
AcDb2dVertex
 10
399.159809
 20
244.825824
 30
0.0
  0
VERTEX
  5
71F
330
707
100
AcDbEntity
  8
001
370
    50
100
AcDbVertex
100
AcDb2dVertex
 10
399.590793
 20
245.063349
 30
0.0
  0
VERTEX
  5
720
330
707
100
AcDbEntity
  8
001
370
    50
100
AcDbVertex
100
AcDb2dVertex
 10
400.033582
 20
245.275095
 30
0.0
  0
VERTEX
  5
721
330
707
100
AcDbEntity
  8
001
370
    50
100
AcDbVertex
100
AcDb2dVertex
 10
400.487695
 20
245.461415
 30
0.0
  0
VERTEX
  5
722
330
707
100
AcDbEntity
  8
001
370
    50
100
AcDbVertex
100
AcDb2dVertex
 10
400.952446
 20
245.622409
 30
0.0
  0
VERTEX
  5
723
330
707
100
AcDbEntity
  8
001
370
    50
100
AcDbVertex
100
AcDb2dVertex
 10
401.425468
 20
245.75704
 30
0.0
  0
VERTEX
  5
724
330
707
100
AcDbEntity
  8
001
370
    50
100
AcDbVertex
100
AcDb2dVertex
 10
401.903443
 20
245.864382
 30
0.0
  0
VERTEX
  5
725
330
707
100
AcDbEntity
  8
001
370
    50
100
AcDbVertex
100
AcDb2dVertex
 10
402.386661
 20
245.945181
 30
0.0
  0
VERTEX
  5
726
330
707
100
AcDbEntity
  8
001
370
    50
100
AcDbVertex
100
AcDb2dVertex
 10
402.702614
 20
245.983304
 30
0.0
  0
VERTEX
  5
727
330
707
100
AcDbEntity
  8
001
370
    50
100
AcDbVertex
100
AcDb2dVertex
 10
403.019698
 20
246.00864
 30
0.0
  0
VERTEX
  5
728
330
707
100
AcDbEntity
  8
001
370
    50
100
AcDbVertex
100
AcDb2dVertex
 10
403.337464
 20
246.020954
 30
0.0
  0
VERTEX
  5
729
330
707
100
AcDbEntity
  8
001
370
    50
100
AcDbVertex
100
AcDb2dVertex
 10
403.655587
 20
246.026009
 30
0.0
  0
SEQEND
  5
708
330
707
100
AcDbEntity
  8
001
370
    50
  0
POLYLINE
  5
72A
330
1F
100
AcDbEntity
  8
001
  6
DASHED
370
    30
100
AcDb2dPolyline
 66
     1
 10
0.0
 20
0.0
 30
0.0
  0
VERTEX
  5
72C
330
72A
100
AcDbEntity
  8
001
  6
DASHED
370
    30
100
AcDbVertex
100
AcDb2dVertex
 10
394.821849
 20
236.322484
 30
0.0
  0
VERTEX
  5
72D
330
72A
100
AcDbEntity
  8
001
  6
DASHED
370
    30
100
AcDbVertex
100
AcDb2dVertex
 10
394.805183
 20
236.613018
 30
0.0
  0
VERTEX
  5
72E
330
72A
100
AcDbEntity
  8
001
  6
DASHED
370
    30
100
AcDbVertex
100
AcDb2dVertex
 10
394.795054
 20
236.90373
 30
0.0
  0
VERTEX
  5
72F
330
72A
100
AcDbEntity
  8
001
  6
DASHED
370
    30
100
AcDbVertex
100
AcDb2dVertex
 10
394.794201
 20
236.980034
 30
0.0
  0
VERTEX
  5
730
330
72A
100
AcDbEntity
  8
001
  6
DASHED
370
    30
100
AcDbVertex
100
AcDb2dVertex
 10
394.793797
 20
237.056351
 30
0.0
  0
SEQEND
  5
72B
330
72A
100
AcDbEntity
  8
001
  6
DASHED
370
    30
  0
POLYLINE
  5
731
330
1F
100
AcDbEntity
  8
001
370
    50
100
AcDb2dPolyline
 66
     1
 10
0.0
 20
0.0
 30
0.0
  0
VERTEX
  5
733
330
731
100
AcDbEntity
  8
001
370
    50
100
AcDbVertex
100
AcDb2dVertex
 10
400.519656
 20
242.082483
 30
0.0
  0
VERTEX
  5
734
330
731
100
AcDbEntity
  8
001
370
    50
100
AcDbVertex
100
AcDb2dVertex
 10
400.385702
 20
242.019646
 30
0.0
  0
VERTEX
  5
735
330
731
100
AcDbEntity
  8
001
370
    50
100
AcDbVertex
100
AcDb2dVertex
 10
400.25452
 20
241.951668
 30
0.0
  0
VERTEX
  5
736
330
731
100
AcDbEntity
  8
001
370
    50
100
AcDbVertex
100
AcDb2dVertex
 10
400.128789
 20
241.874844
 30
0.0
  0
VERTEX
  5
737
330
731
100
AcDbEntity
  8
001
370
    50
100
AcDbVertex
100
AcDb2dVertex
 10
400.008363
 20
241.789662
 30
0.0
  0
VERTEX
  5
738
330
731
100
AcDbEntity
  8
001
370
    50
100
AcDbVertex
100
AcDb2dVertex
 10
399.896063
 20
241.700171
 30
0.0
  0
VERTEX
  5
739
330
731
100
AcDbEntity
  8
001
370
    50
100
AcDbVertex
100
AcDb2dVertex
 10
399.788929
 20
241.604661
 30
0.0
  0
VERTEX
  5
73A
330
731
100
AcDbEntity
  8
001
370
    50
100
AcDbVertex
100
AcDb2dVertex
 10
399.690107
 20
241.506297
 30
0.0
  0
VERTEX
  5
73B
330
731
100
AcDbEntity
  8
001
370
    50
100
AcDbVertex
100
AcDb2dVertex
 10
399.596702
 20
241.402732
 30
0.0
  0
VERTEX
  5
73C
330
731
100
AcDbEntity
  8
001
370
    50
100
AcDbVertex
100
AcDb2dVertex
 10
399.479193
 20
241.25473
 30
0.0
  0
VERTEX
  5
73D
330
731
100
AcDbEntity
  8
001
370
    50
100
AcDbVertex
100
AcDb2dVertex
 10
399.372538
 20
241.098708
 30
0.0
  0
VERTEX
  5
73E
330
731
100
AcDbEntity
  8
001
370
    50
100
AcDbVertex
100
AcDb2dVertex
 10
399.282084
 20
240.944521
 30
0.0
  0
VERTEX
  5
73F
330
731
100
AcDbEntity
  8
001
370
    50
100
AcDbVertex
100
AcDb2dVertex
 10
399.202285
 20
240.784545
 30
0.0
  0
VERTEX
  5
740
330
731
100
AcDbEntity
  8
001
370
    50
100
AcDbVertex
100
AcDb2dVertex
 10
399.117061
 20
240.573845
 30
0.0
  0
VERTEX
  5
741
330
731
100
AcDbEntity
  8
001
370
    50
100
AcDbVertex
100
AcDb2dVertex
 10
399.051017
 20
240.356335
 30
0.0
  0
VERTEX
  5
742
330
731
100
AcDbEntity
  8
001
370
    50
100
AcDbVertex
100
AcDb2dVertex
 10
399.007693
 20
240.148522
 30
0.0
  0
VERTEX
  5
743
330
731
100
AcDbEntity
  8
001
370
    50
100
AcDbVertex
100
AcDb2dVertex
 10
398.983176
 20
239.937693
 30
0.0
  0
VERTEX
  5
744
330
731
100
AcDbEntity
  8
001
370
    50
100
AcDbVertex
100
AcDb2dVertex
 10
398.978384
 20
239.73261
 30
0.0
  0
VERTEX
  5
745
330
731
100
AcDbEntity
  8
001
370
    50
100
AcDbVertex
100
AcDb2dVertex
 10
398.993231
 20
239.528005
 30
0.0
  0
VERTEX
  5
746
330
731
100
AcDbEntity
  8
001
370
    50
100
AcDbVertex
100
AcDb2dVertex
 10
399.026886
 20
239.333945
 30
0.0
  0
VERTEX
  5
747
330
731
100
AcDbEntity
  8
001
370
    50
100
AcDbVertex
100
AcDb2dVertex
 10
399.080221
 20
239.144423
 30
0.0
  0
VERTEX
  5
748
330
731
100
AcDbEntity
  8
001
370
    50
100
AcDbVertex
100
AcDb2dVertex
 10
399.135436
 20
239.002195
 30
0.0
  0
VERTEX
  5
749
330
731
100
AcDbEntity
  8
001
370
    50
100
AcDbVertex
100
AcDb2dVertex
 10
399.202861
 20
238.865362
 30
0.0
  0
VERTEX
  5
74A
330
731
100
AcDbEntity
  8
001
370
    50
100
AcDbVertex
100
AcDb2dVertex
 10
399.283141
 20
238.734183
 30
0.0
  0
VERTEX
  5
74B
330
731
100
AcDbEntity
  8
001
370
    50
100
AcDbVertex
100
AcDb2dVertex
 10
399.375473
 20
238.611173
 30
0.0
  0
VERTEX
  5
74C
330
731
100
AcDbEntity
  8
001
370
    50
100
AcDbVertex
100
AcDb2dVertex
 10
399.481829
 20
238.495291
 30
0.0
  0
VERTEX
  5
74D
330
731
100
AcDbEntity
  8
001
370
    50
100
AcDbVertex
100
AcDb2dVertex
 10
399.599315
 20
238.390747
 30
0.0
  0
VERTEX
  5
74E
330
731
100
AcDbEntity
  8
001
370
    50
100
AcDbVertex
100
AcDb2dVertex
 10
399.710237
 20
238.309623
 30
0.0
  0
VERTEX
  5
74F
330
731
100
AcDbEntity
  8
001
370
    50
100
AcDbVertex
100
AcDb2dVertex
 10
399.827913
 20
238.238644
 30
0.0
  0
VERTEX
  5
750
330
731
100
AcDbEntity
  8
001
370
    50
100
AcDbVertex
100
AcDb2dVertex
 10
399.959242
 20
238.174866
 30
0.0
  0
VERTEX
  5
751
330
731
100
AcDbEntity
  8
001
370
    50
100
AcDbVertex
100
AcDb2dVertex
 10
400.095864
 20
238.123466
 30
0.0
  0
VERTEX
  5
752
330
731
100
AcDbEntity
  8
001
370
    50
100
AcDbVertex
100
AcDb2dVertex
 10
400.216769
 20
238.089333
 30
0.0
  0
VERTEX
  5
753
330
731
100
AcDbEntity
  8
001
370
    50
100
AcDbVertex
100
AcDb2dVertex
 10
400.339918
 20
238.064362
 30
0.0
  0
VERTEX
  5
754
330
731
100
AcDbEntity
  8
001
370
    50
100
AcDbVertex
100
AcDb2dVertex
 10
400.472639
 20
238.047598
 30
0.0
  0
VERTEX
  5
755
330
731
100
AcDbEntity
  8
001
370
    50
100
AcDbVertex
100
AcDb2dVertex
 10
400.606174
 20
238.041036
 30
0.0
  0
VERTEX
  5
756
330
731
100
AcDbEntity
  8
001
370
    50
100
AcDbVertex
100
AcDb2dVertex
 10
400.617205
 20
238.040949
 30
0.0
  0
VERTEX
  5
757
330
731
100
AcDbEntity
  8
001
370
    50
100
AcDbVertex
100
AcDb2dVertex
 10
400.628236
 20
238.040898
 30
0.0
  0
SEQEND
  5
732
330
731
100
AcDbEntity
  8
001
370
    50
  0
POLYLINE
  5
758
330
1F
100
AcDbEntity
  8
001
370
    50
100
AcDb2dPolyline
 66
     1
 10
0.0
 20
0.0
 30
0.0
  0
VERTEX
  5
75A
330
758
100
AcDbEntity
  8
001
370
    50
100
AcDbVertex
100
AcDb2dVertex
 10
401.291623
 20
242.240898
 30
0.0
  0
VERTEX
  5
75B
330
758
100
AcDbEntity
  8
001
370
    50
100
AcDbVertex
100
AcDb2dVertex
 10
401.194016
 20
242.237288
 30
0.0
  0
VERTEX
  5
75C
330
758
100
AcDbEntity
  8
001
370
    50
100
AcDbVertex
100
AcDb2dVertex
 10
401.096599
 20
242.23076
 30
0.0
  0
VERTEX
  5
75D
330
758
100
AcDbEntity
  8
001
370
    50
100
AcDbVertex
100
AcDb2dVertex
 10
400.951031
 20
242.210821
 30
0.0
  0
VERTEX
  5
75E
330
758
100
AcDbEntity
  8
001
370
    50
100
AcDbVertex
100
AcDb2dVertex
 10
400.807694
 20
242.178444
 30
0.0
  0
VERTEX
  5
75F
330
758
100
AcDbEntity
  8
001
370
    50
100
AcDbVertex
100
AcDb2dVertex
 10
400.662711
 20
242.133587
 30
0.0
  0
VERTEX
  5
760
330
758
100
AcDbEntity
  8
001
370
    50
100
AcDbVertex
100
AcDb2dVertex
 10
400.519656
 20
242.082483
 30
0.0
  0
SEQEND
  5
759
330
758
100
AcDbEntity
  8
001
370
    50
  0
POLYLINE
  5
761
330
1F
100
AcDbEntity
  8
001
370
    50
100
AcDb2dPolyline
 66
     1
 10
0.0
 20
0.0
 30
0.0
  0
VERTEX
  5
763
330
761
100
AcDbEntity
  8
001
370
    50
100
AcDbVertex
100
AcDb2dVertex
 10
400.628236
 20
238.040898
 30
0.0
  0
VERTEX
  5
764
330
761
100
AcDbEntity
  8
001
370
    50
100
AcDbVertex
100
AcDb2dVertex
 10
400.760497
 20
238.047551
 30
0.0
  0
VERTEX
  5
765
330
761
100
AcDbEntity
  8
001
370
    50
100
AcDbVertex
100
AcDb2dVertex
 10
400.892166
 20
238.059657
 30
0.0
  0
VERTEX
  5
766
330
761
100
AcDbEntity
  8
001
370
    50
100
AcDbVertex
100
AcDb2dVertex
 10
401.039885
 20
238.085142
 30
0.0
  0
VERTEX
  5
767
330
761
100
AcDbEntity
  8
001
370
    50
100
AcDbVertex
100
AcDb2dVertex
 10
401.185299
 20
238.12238
 30
0.0
  0
VERTEX
  5
768
330
761
100
AcDbEntity
  8
001
370
    50
100
AcDbVertex
100
AcDb2dVertex
 10
401.309286
 20
238.162779
 30
0.0
  0
VERTEX
  5
769
330
761
100
AcDbEntity
  8
001
370
    50
100
AcDbVertex
100
AcDb2dVertex
 10
401.430687
 20
238.210187
 30
0.0
  0
VERTEX
  5
76A
330
761
100
AcDbEntity
  8
001
370
    50
100
AcDbVertex
100
AcDb2dVertex
 10
401.549881
 20
238.264723
 30
0.0
  0
VERTEX
  5
76B
330
761
100
AcDbEntity
  8
001
370
    50
100
AcDbVertex
100
AcDb2dVertex
 10
401.665839
 20
238.325876
 30
0.0
  0
VERTEX
  5
76C
330
761
100
AcDbEntity
  8
001
370
    50
100
AcDbVertex
100
AcDb2dVertex
 10
401.776416
 20
238.392181
 30
0.0
  0
VERTEX
  5
76D
330
761
100
AcDbEntity
  8
001
370
    50
100
AcDbVertex
100
AcDb2dVertex
 10
401.883351
 20
238.464205
 30
0.0
  0
VERTEX
  5
76E
330
761
100
AcDbEntity
  8
001
370
    50
100
AcDbVertex
100
AcDb2dVertex
 10
401.984551
 20
238.54006
 30
0.0
  0
VERTEX
  5
76F
330
761
100
AcDbEntity
  8
001
370
    50
100
AcDbVertex
100
AcDb2dVertex
 10
402.081863
 20
238.620855
 30
0.0
  0
VERTEX
  5
770
330
761
100
AcDbEntity
  8
001
370
    50
100
AcDbVertex
100
AcDb2dVertex
 10
402.212324
 20
238.743045
 30
0.0
  0
VERTEX
  5
771
330
761
100
AcDbEntity
  8
001
370
    50
100
AcDbVertex
100
AcDb2dVertex
 10
402.334123
 20
238.873912
 30
0.0
  0
VERTEX
  5
772
330
761
100
AcDbEntity
  8
001
370
    50
100
AcDbVertex
100
AcDb2dVertex
 10
402.44205
 20
239.006409
 30
0.0
  0
VERTEX
  5
773
330
761
100
AcDbEntity
  8
001
370
    50
100
AcDbVertex
100
AcDb2dVertex
 10
402.541177
 20
239.145618
 30
0.0
  0
VERTEX
  5
774
330
761
100
AcDbEntity
  8
001
370
    50
100
AcDbVertex
100
AcDb2dVertex
 10
402.654052
 20
239.332074
 30
0.0
  0
VERTEX
  5
775
330
761
100
AcDbEntity
  8
001
370
    50
100
AcDbVertex
100
AcDb2dVertex
 10
402.750902
 20
239.527379
 30
0.0
  0
VERTEX
  5
776
330
761
100
AcDbEntity
  8
001
370
    50
100
AcDbVertex
100
AcDb2dVertex
 10
402.826633
 20
239.718316
 30
0.0
  0
VERTEX
  5
777
330
761
100
AcDbEntity
  8
001
370
    50
100
AcDbVertex
100
AcDb2dVertex
 10
402.886333
 20
239.914828
 30
0.0
  0
VERTEX
  5
778
330
761
100
AcDbEntity
  8
001
370
    50
100
AcDbVertex
100
AcDb2dVertex
 10
402.92801
 20
240.109673
 30
0.0
  0
VERTEX
  5
779
330
761
100
AcDbEntity
  8
001
370
    50
100
AcDbVertex
100
AcDb2dVertex
 10
402.952829
 20
240.307363
 30
0.0
  0
VERTEX
  5
77A
330
761
100
AcDbEntity
  8
001
370
    50
100
AcDbVertex
100
AcDb2dVertex
 10
402.959989
 20
240.497852
 30
0.0
  0
VERTEX
  5
77B
330
761
100
AcDbEntity
  8
001
370
    50
100
AcDbVertex
100
AcDb2dVertex
 10
402.950091
 20
240.688238
 30
0.0
  0
VERTEX
  5
77C
330
761
100
AcDbEntity
  8
001
370
    50
100
AcDbVertex
100
AcDb2dVertex
 10
402.915735
 20
240.909137
 30
0.0
  0
VERTEX
  5
77D
330
761
100
AcDbEntity
  8
001
370
    50
100
AcDbVertex
100
AcDb2dVertex
 10
402.855999
 20
241.124626
 30
0.0
  0
VERTEX
  5
77E
330
761
100
AcDbEntity
  8
001
370
    50
100
AcDbVertex
100
AcDb2dVertex
 10
402.771805
 20
241.328204
 30
0.0
  0
VERTEX
  5
77F
330
761
100
AcDbEntity
  8
001
370
    50
100
AcDbVertex
100
AcDb2dVertex
 10
402.662614
 20
241.519374
 30
0.0
  0
VERTEX
  5
780
330
761
100
AcDbEntity
  8
001
370
    50
100
AcDbVertex
100
AcDb2dVertex
 10
402.560549
 20
241.657242
 30
0.0
  0
VERTEX
  5
781
330
761
100
AcDbEntity
  8
001
370
    50
100
AcDbVertex
100
AcDb2dVertex
 10
402.444475
 20
241.78353
 30
0.0
  0
VERTEX
  5
782
330
761
100
AcDbEntity
  8
001
370
    50
100
AcDbVertex
100
AcDb2dVertex
 10
402.310583
 20
241.900452
 30
0.0
  0
VERTEX
  5
783
330
761
100
AcDbEntity
  8
001
370
    50
100
AcDbVertex
100
AcDb2dVertex
 10
402.164451
 20
242.001584
 30
0.0
  0
VERTEX
  5
784
330
761
100
AcDbEntity
  8
001
370
    50
100
AcDbVertex
100
AcDb2dVertex
 10
402.040456
 20
242.069883
 30
0.0
  0
VERTEX
  5
785
330
761
100
AcDbEntity
  8
001
370
    50
100
AcDbVertex
100
AcDb2dVertex
 10
401.910905
 20
242.126895
 30
0.0
  0
VERTEX
  5
786
330
761
100
AcDbEntity
  8
001
370
    50
100
AcDbVertex
100
AcDb2dVertex
 10
401.768772
 20
242.174776
 30
0.0
  0
VERTEX
  5
787
330
761
100
AcDbEntity
  8
001
370
    50
100
AcDbVertex
100
AcDb2dVertex
 10
401.622884
 20
242.209694
 30
0.0
  0
VERTEX
  5
788
330
761
100
AcDbEntity
  8
001
370
    50
100
AcDbVertex
100
AcDb2dVertex
 10
401.495701
 20
242.22927
 30
0.0
  0
VERTEX
  5
789
330
761
100
AcDbEntity
  8
001
370
    50
100
AcDbVertex
100
AcDb2dVertex
 10
401.367486
 20
242.239126
 30
0.0
  0
VERTEX
  5
78A
330
761
100
AcDbEntity
  8
001
370
    50
100
AcDbVertex
100
AcDb2dVertex
 10
401.329559
 20
242.240227
 30
0.0
  0
VERTEX
  5
78B
330
761
100
AcDbEntity
  8
001
370
    50
100
AcDbVertex
100
AcDb2dVertex
 10
401.291623
 20
242.240898
 30
0.0
  0
SEQEND
  5
762
330
761
100
AcDbEntity
  8
001
370
    50
  0
LINE
  5
78C
330
1F
100
AcDbEntity
  8
001
  6
DASHED
370
    30
100
AcDbLine
 10
395.269035
 20
230.91136
 30
0.0
 11
395.269035
 21
223.91136
 31
0.0
  0
LINE
  5
78D
330
1F
100
AcDbEntity
  8
001
  6
DASHED
370
    30
100
AcDbLine
 10
395.269035
 20
230.91136
 30
0.0
 11
395.061713
 21
233.545635
 31
0.0
  0
POLYLINE
  5
78E
330
1F
100
AcDbEntity
  8
001
  6
DASHED
370
    30
100
AcDb2dPolyline
 66
     1
 10
0.0
 20
0.0
 30
0.0
  0
VERTEX
  5
790
330
78E
100
AcDbEntity
  8
001
  6
DASHED
370
    30
100
AcDbVertex
100
AcDb2dVertex
 10
394.986481
 20
234.137418
 30
0.0
  0
VERTEX
  5
791
330
78E
100
AcDbEntity
  8
001
  6
DASHED
370
    30
100
AcDbVertex
100
AcDb2dVertex
 10
395.024007
 20
233.886311
 30
0.0
  0
VERTEX
  5
792
330
78E
100
AcDbEntity
  8
001
  6
DASHED
370
    30
100
AcDbVertex
100
AcDb2dVertex
 10
395.054004
 20
233.634372
 30
0.0
  0
VERTEX
  5
793
330
78E
100
AcDbEntity
  8
001
  6
DASHED
370
    30
100
AcDbVertex
100
AcDb2dVertex
 10
395.057993
 20
233.589793
 30
0.0
  0
VERTEX
  5
794
330
78E
100
AcDbEntity
  8
001
  6
DASHED
370
    30
100
AcDbVertex
100
AcDb2dVertex
 10
395.061748
 20
233.545188
 30
0.0
  0
SEQEND
  5
78F
330
78E
100
AcDbEntity
  8
001
  6
DASHED
370
    30
  0
LINE
  5
795
330
1F
100
AcDbEntity
  8
001
  6
DASHED
370
    30
100
AcDbLine
 10
394.986481
 20
234.137418
 30
0.0
 11
394.821849
 21
236.322484
 31
0.0
  0
POLYLINE
  5
796
330
1F
100
AcDbEntity
  8
001
370
    50
100
AcDb2dPolyline
 66
     1
 10
0.0
 20
0.0
 30
0.0
  0
VERTEX
  5
798
330
796
100
AcDbEntity
  8
001
370
    50
100
AcDbVertex
100
AcDb2dVertex
 10
395.149604
 20
225.41136
 30
0.0
  0
VERTEX
  5
799
330
796
100
AcDbEntity
  8
001
370
    50
100
AcDbVertex
100
AcDb2dVertex
 10
395.164009
 20
225.400088
 30
0.0
  0
VERTEX
  5
79A
330
796
100
AcDbEntity
  8
001
370
    50
100
AcDbVertex
100
AcDb2dVertex
 10
395.176555
 20
225.387531
 30
0.0
  0
VERTEX
  5
79B
330
796
100
AcDbEntity
  8
001
370
    50
100
AcDbVertex
100
AcDb2dVertex
 10
395.192731
 20
225.35455
 30
0.0
  0
VERTEX
  5
79C
330
796
100
AcDbEntity
  8
001
370
    50
100
AcDbVertex
100
AcDb2dVertex
 10
395.20073
 20
225.316523
 30
0.0
  0
VERTEX
  5
79D
330
796
100
AcDbEntity
  8
001
370
    50
100
AcDbVertex
100
AcDb2dVertex
 10
395.215417
 20
225.228279
 30
0.0
  0
VERTEX
  5
79E
330
796
100
AcDbEntity
  8
001
370
    50
100
AcDbVertex
100
AcDb2dVertex
 10
395.227489
 20
225.142113
 30
0.0
  0
VERTEX
  5
79F
330
796
100
AcDbEntity
  8
001
370
    50
100
AcDbVertex
100
AcDb2dVertex
 10
395.23858
 20
225.0136
 30
0.0
  0
VERTEX
  5
7A0
330
796
100
AcDbEntity
  8
001
370
    50
100
AcDbVertex
100
AcDb2dVertex
 10
395.24413
 20
224.883496
 30
0.0
  0
VERTEX
  5
7A1
330
796
100
AcDbEntity
  8
001
370
    50
100
AcDbVertex
100
AcDb2dVertex
 10
395.247553
 20
224.720299
 30
0.0
  0
VERTEX
  5
7A2
330
796
100
AcDbEntity
  8
001
370
    50
100
AcDbVertex
100
AcDb2dVertex
 10
395.248065
 20
224.557552
 30
0.0
  0
VERTEX
  5
7A3
330
796
100
AcDbEntity
  8
001
370
    50
100
AcDbVertex
100
AcDb2dVertex
 10
395.245311
 20
224.362413
 30
0.0
  0
VERTEX
  5
7A4
330
796
100
AcDbEntity
  8
001
370
    50
100
AcDbVertex
100
AcDb2dVertex
 10
395.239668
 20
224.167165
 30
0.0
  0
VERTEX
  5
7A5
330
796
100
AcDbEntity
  8
001
370
    50
100
AcDbVertex
100
AcDb2dVertex
 10
395.231157
 20
223.954652
 30
0.0
  0
VERTEX
  5
7A6
330
796
100
AcDbEntity
  8
001
370
    50
100
AcDbVertex
100
AcDb2dVertex
 10
395.220753
 20
223.742277
 30
0.0
  0
VERTEX
  5
7A7
330
796
100
AcDbEntity
  8
001
370
    50
100
AcDbVertex
100
AcDb2dVertex
 10
395.207824
 20
223.511439
 30
0.0
  0
VERTEX
  5
7A8
330
796
100
AcDbEntity
  8
001
370
    50
100
AcDbVertex
100
AcDb2dVertex
 10
395.193588
 20
223.280662
 30
0.0
  0
VERTEX
  5
7A9
330
796
100
AcDbEntity
  8
001
370
    50
100
AcDbVertex
100
AcDb2dVertex
 10
395.179408
 20
223.06551
 30
0.0
  0
VERTEX
  5
7AA
330
796
100
AcDbEntity
  8
001
370
    50
100
AcDbVertex
100
AcDb2dVertex
 10
395.164472
 20
222.850414
 30
0.0
  0
VERTEX
  5
7AB
330
796
100
AcDbEntity
  8
001
370
    50
100
AcDbVertex
100
AcDb2dVertex
 10
395.148568
 20
222.630874
 30
0.0
  0
VERTEX
  5
7AC
330
796
100
AcDbEntity
  8
001
370
    50
100
AcDbVertex
100
AcDb2dVertex
 10
395.132311
 20
222.41136
 30
0.0
  0
SEQEND
  5
797
330
796
100
AcDbEntity
  8
001
370
    50
  0
LINE
  5
7AD
330
1F
100
AcDbEntity
  8
001
370
    50
100
AcDbLine
 10
415.080848
 20
225.41136
 30
0.0
 11
394.793797
 21
225.41136
 31
0.0
  0
LINE
  5
7AE
330
1F
100
AcDbEntity
  8
001
370
    50
100
AcDbLine
 10
394.793797
 20
234.139365
 30
0.0
 11
394.741245
 21
234.139896
 31
0.0
  0
LINE
  5
7AF
330
1F
100
AcDbEntity
  8
001
370
    50
100
AcDbLine
 10
410.541406
 20
246.141901
 30
0.0
 11
410.557982
 21
245.924644
 31
0.0
  0
LINE
  5
7B0
330
1F
100
AcDbEntity
  8
001
370
    50
100
AcDbLine
 10
430.779898
 20
211.41136
 30
0.0
 11
430.779898
 21
243.41136
 31
0.0
  0
LINE
  5
7B1
330
1F
100
AcDbEntity
  8
001
370
    50
100
AcDbLine
 10
430.779898
 20
242.91136
 30
0.0
 11
428.779898
 21
242.91136
 31
0.0
  0
LINE
  5
7B2
330
1F
100
AcDbEntity
  8
001
370
    50
100
AcDbLine
 10
428.779898
 20
211.91136
 30
0.0
 11
430.779898
 21
211.91136
 31
0.0
  0
ARC
  5
7B3
330
1F
100
AcDbEntity
  8
001
370
    50
100
AcDbCircle
 10
411.776407
 20
207.927288
 30
0.0
 40
0.4
100
AcDbArc
 50
270.5
 51
355.5
  0
ARC
  5
7B4
330
1F
100
AcDbEntity
  8
001
370
    50
100
AcDbCircle
 10
394.849809
 20
221.268085
 30
0.0
 40
0.4
100
AcDbArc
 50
90.5
 51
175.5
  0
LINE
  5
7B5
330
1F
100
AcDbEntity
  8
001
370
    50
100
AcDbLine
 10
394.125101
 20
217.158006
 30
0.0
 11
394.451042
 21
221.299469
 31
0.0
  0
LINE
  5
7B6
330
1F
100
AcDbEntity
  8
001
370
    50
100
AcDbLine
 10
412.818473
 20
216.069792
 30
0.0
 11
412.175174
 21
207.895904
 31
0.0
  0
ARC
  5
7B7
330
1F
100
AcDbEntity
  8
001
370
    50
100
AcDbCircle
 10
409.913309
 20
218.819341
 30
0.0
 40
4.0
100
AcDbArc
 50
316.57635
 51
132.338696
  0
CIRCLE
  5
7B8
330
1F
100
AcDbEntity
  8
001
370
    50
100
AcDbCircle
 10
403.478166
 20
214.599127
 30
0.0
 40
3.75
  0
CIRCLE
  5
7B9
330
1F
100
AcDbEntity
  8
001
370
    50
100
AcDbCircle
 10
403.478166
 20
214.599127
 30
0.0
 40
3.25
  0
LINE
  5
7BA
330
1F
100
AcDbEntity
  8
001
370
    50
100
AcDbLine
 10
402.68431
 20
215.974127
 30
0.0
 11
403.045154
 21
216.599127
 31
0.0
  0
LINE
  5
7BB
330
1F
100
AcDbEntity
  8
001
370
    50
100
AcDbLine
 10
404.272023
 20
215.974127
 30
0.0
 11
403.911179
 21
216.599127
 31
0.0
  0
ARC
  5
7BC
330
1F
100
AcDbEntity
  8
001
370
    50
100
AcDbCircle
 10
403.478166
 20
216.349127
 30
0.0
 40
0.5
100
AcDbArc
 50
30.0
 51
150.0
  0
LINE
  5
7BD
330
1F
100
AcDbEntity
  8
001
370
    50
100
AcDbLine
 10
401.890453
 20
214.599127
 30
0.0
 11
401.529609
 21
215.224127
 31
0.0
  0
LINE
  5
7BE
330
1F
100
AcDbEntity
  8
001
370
    50
100
AcDbLine
 10
402.68431
 20
215.974127
 30
0.0
 11
401.962622
 21
215.974127
 31
0.0
  0
ARC
  5
7BF
330
1F
100
AcDbEntity
  8
001
370
    50
100
AcDbCircle
 10
401.962622
 20
215.474127
 30
0.0
 40
0.5
100
AcDbArc
 50
90.0
 51
210.0
  0
LINE
  5
7C0
330
1F
100
AcDbEntity
  8
001
370
    50
100
AcDbLine
 10
402.68431
 20
213.224127
 30
0.0
 11
401.962622
 21
213.224127
 31
0.0
  0
LINE
  5
7C1
330
1F
100
AcDbEntity
  8
001
370
    50
100
AcDbLine
 10
401.890453
 20
214.599127
 30
0.0
 11
401.529609
 21
213.974127
 31
0.0
  0
ARC
  5
7C2
330
1F
100
AcDbEntity
  8
001
370
    50
100
AcDbCircle
 10
401.962622
 20
213.724127
 30
0.0
 40
0.5
100
AcDbArc
 50
150.0
 51
270.0
  0
LINE
  5
7C3
330
1F
100
AcDbEntity
  8
001
370
    50
100
AcDbLine
 10
404.272023
 20
213.224127
 30
0.0
 11
403.911179
 21
212.599127
 31
0.0
  0
LINE
  5
7C4
330
1F
100
AcDbEntity
  8
001
370
    50
100
AcDbLine
 10
402.68431
 20
213.224127
 30
0.0
 11
403.045154
 21
212.599127
 31
0.0
  0
ARC
  5
7C5
330
1F
100
AcDbEntity
  8
001
370
    50
100
AcDbCircle
 10
403.478166
 20
212.849127
 30
0.0
 40
0.5
100
AcDbArc
 50
210.0
 51
330.0
  0
LINE
  5
7C6
330
1F
100
AcDbEntity
  8
001
370
    50
100
AcDbLine
 10
405.06588
 20
214.599127
 30
0.0
 11
405.426724
 21
213.974127
 31
0.0
  0
LINE
  5
7C7
330
1F
100
AcDbEntity
  8
001
370
    50
100
AcDbLine
 10
404.272023
 20
213.224127
 30
0.0
 11
404.993711
 21
213.224127
 31
0.0
  0
ARC
  5
7C8
330
1F
100
AcDbEntity
  8
001
370
    50
100
AcDbCircle
 10
404.993711
 20
213.724127
 30
0.0
 40
0.5
100
AcDbArc
 50
270.0
 51
30.0
  0
LINE
  5
7C9
330
1F
100
AcDbEntity
  8
001
370
    50
100
AcDbLine
 10
404.272023
 20
215.974127
 30
0.0
 11
404.993711
 21
215.974127
 31
0.0
  0
LINE
  5
7CA
330
1F
100
AcDbEntity
  8
001
370
    50
100
AcDbLine
 10
405.06588
 20
214.599127
 30
0.0
 11
405.426724
 21
215.224127
 31
0.0
  0
ARC
  5
7CB
330
1F
100
AcDbEntity
  8
001
370
    50
100
AcDbCircle
 10
404.993711
 20
215.474127
 30
0.0
 40
0.5
100
AcDbArc
 50
330.0
 51
90.0
  0
POLYLINE
  5
7CC
330
1F
100
AcDbEntity
  8
001
370
    50
100
AcDb2dPolyline
 66
     1
 10
0.0
 20
0.0
 30
0.0
  0
VERTEX
  5
7CE
330
7CC
100
AcDbEntity
  8
001
370
    50
100
AcDbVertex
100
AcDb2dVertex
 10
412.203471
 20
208.24936
 30
0.0
  0
VERTEX
  5
7CF
330
7CC
100
AcDbEntity
  8
001
370
    50
100
AcDbVertex
100
AcDb2dVertex
 10
412.45306
 20
208.246331
 30
0.0
  0
VERTEX
  5
7D0
330
7CC
100
AcDbEntity
  8
001
370
    50
100
AcDbVertex
100
AcDb2dVertex
 10
412.70265
 20
208.243301
 30
0.0
  0
VERTEX
  5
7D1
330
7CC
100
AcDbEntity
  8
001
370
    50
100
AcDbVertex
100
AcDb2dVertex
 10
412.759761
 20
208.242611
 30
0.0
  0
VERTEX
  5
7D2
330
7CC
100
AcDbEntity
  8
001
370
    50
100
AcDbVertex
100
AcDb2dVertex
 10
412.817211
 20
208.241923
 30
0.0
  0
VERTEX
  5
7D3
330
7CC
100
AcDbEntity
  8
001
370
    50
100
AcDbVertex
100
AcDb2dVertex
 10
413.207254
 20
208.237401
 30
0.0
  0
VERTEX
  5
7D4
330
7CC
100
AcDbEntity
  8
001
370
    50
100
AcDbVertex
100
AcDb2dVertex
 10
413.474128
 20
208.234433
 30
0.0
  0
SEQEND
  5
7CD
330
7CC
100
AcDbEntity
  8
001
370
    50
  0
LINE
  5
7D5
330
1F
100
AcDbEntity
  8
001
370
    50
100
AcDbLine
 10
403.175896
 20
207.452217
 30
0.0
 11
411.779898
 21
207.527303
 31
0.0
  0
LINE
  5
7D6
330
1F
100
AcDbEntity
  8
001
370
    50
100
AcDbLine
 10
407.219262
 20
221.776047
 30
0.0
 11
394.846318
 21
221.66807
 31
0.0
  0
LINE
  5
7D7
330
1F
100
AcDbEntity
  8
001
370
    50
100
AcDbLine
 10
394.793797
 20
237.057463
 30
0.0
 11
394.793797
 21
221.664144
 31
0.0
  0
LINE
  5
7D8
330
1F
100
AcDbEntity
  8
001
  6
DASHED
370
    30
100
AcDbLine
 10
395.092653
 20
221.67022
 30
0.0
 11
395.269035
 21
223.91136
 31
0.0
  0
LINE
  5
7D9
330
1F
100
AcDbEntity
  8
001
370
    50
100
AcDbLine
 10
395.076093
 20
221.670075
 30
0.0
 11
395.132311
 21
222.41136
 31
0.0
  0
ARC
  5
7DA
330
1F
100
AcDbEntity
  8
001
370
    50
100
AcDbCircle
 10
411.776407
 20
246.895431
 30
0.0
 40
0.4
100
AcDbArc
 50
4.5
 51
89.5
  0
LINE
  5
7DB
330
1F
100
AcDbEntity
  8
001
370
    50
100
AcDbLine
 10
394.125101
 20
237.664713
 30
0.0
 11
394.451042
 21
233.52325
 31
0.0
  0
LINE
  5
7DC
330
1F
100
AcDbEntity
  8
001
370
    50
100
AcDbLine
 10
403.175896
 20
247.370502
 30
0.0
 11
411.779898
 21
247.295416
 31
0.0
  0
LINE
  5
7DD
330
1F
100
AcDbEntity
  8
001
370
    50
100
AcDbLine
 10
412.203007
 20
246.573171
 30
0.0
 11
412.175174
 21
246.926815
 31
0.0
  0
ARC
  5
7DE
330
1F
100
AcDbEntity
  8
001
370
    50
100
AcDbCircle
 10
394.849809
 20
233.554634
 30
0.0
 40
0.4
100
AcDbArc
 50
184.5
 51
261.950468
  0
LINE
  5
7DF
330
1F
100
AcDbEntity
  8
001
370
     9
100
AcDbLine
 10
387.678391
 20
207.452217
 30
0.0
 11
403.175896
 21
207.452217
 31
0.0
  0
LINE
  5
7E0
330
1F
100
AcDbEntity
  8
001
370
    50
100
AcDbLine
 10
442.63218
 20
243.41136
 30
0.0
 11
430.779898
 21
243.41136
 31
0.0
  0
LINE
  5
7E1
330
1F
100
AcDbEntity
  8
001
  6
CENTER
370
     9
100
AcDbLine
 10
391.416154
 20
227.41136
 30
0.0
 11
446.913306
 21
227.41136
 31
0.0
  0
LINE
  5
7E2
330
1F
100
AcDbEntity
  8
001
370
    50
100
AcDbLine
 10
442.831302
 20
211.41136
 30
0.0
 11
430.779898
 21
211.41136
 31
0.0
  0
ARC
  5
7E3
330
1F
100
AcDbEntity
  8
001
370
    50
100
AcDbCircle
 10
403.097357
 20
238.370845
 30
0.0
 40
9.0
100
AcDbArc
 50
89.5
 51
184.5
  0
ARC
  5
7E4
330
1F
100
AcDbEntity
  8
001
370
    50
100
AcDbCircle
 10
403.097357
 20
216.451874
 30
0.0
 40
9.0
100
AcDbArc
 50
175.5
 51
270.5
  0
ARC
  5
7E5
330
1F
100
AcDbEntity
  8
001
370
    50
100
AcDbCircle
 10
403.528858
 20
212.743499
 30
0.0
 40
9.0
100
AcDbArc
 50
355.5
 51
90.5
  0
TEXT
  5
7E6
330
1F
100
AcDbEntity
  8
001
370
    30
100
AcDbText
 10
91.794488
 20
159.905412
 30
0.0
 40
10.0
  1
デカスミ　ＤＣ３２－４０ＡＬＲ　（２枚刃）
 41
0.833333
100
AcDbText
  0
TEXT
  5
7E7
330
1F
100
AcDbEntity
  8
001
370
    30
100
AcDbText
 10
86.794488
 20
399.048541
 30
0.0
 40
10.0
  1
デカスミ　ＤＣ３２－４０ＡＬＲＬ　（２枚刃）
 41
0.833333
100
AcDbText
  0
ENDSEC
  0
SECTION
  2
OBJECTS
  0
DICTIONARY
  5
C
330
0
100
AcDbDictionary
281
     1
  3
ACAD_GROUP
350
D
  3
ACAD_LAYOUT
350
1A
  3
ACAD_MLEADERSTYLE
350
7EB
  3
ACAD_MLINESTYLE
350
17
  3
ACAD_PLOTSETTINGS
350
19
  3
ACAD_PLOTSTYLENAME
350
E
  3
ACAD_SCALELIST
350
3B
  3
ACAD_TABLESTYLE
350
7EA
  3
ACAD_VISUALSTYLE
350
2A
  3
AcDbVariableDictionary
350
7E8
  0
DICTIONARY
  5
D
102
{ACAD_REACTORS
330
C
102
}
330
C
100
AcDbDictionary
281
     1
  0
DICTIONARY
  5
1A
102
{ACAD_REACTORS
330
C
102
}
330
C
100
AcDbDictionary
281
     1
  3
Layout1
350
1E
  3
Layout2
350
26
  3
Model
350
22
  0
DICTIONARY
  5
7EB
102
{ACAD_REACTORS
330
C
102
}
330
C
100
AcDbDictionary
281
     1
  0
DICTIONARY
  5
17
102
{ACAD_REACTORS
330
C
102
}
330
C
100
AcDbDictionary
281
     1
  3
Standard
350
18
  0
DICTIONARY
  5
19
102
{ACAD_REACTORS
330
C
102
}
330
C
100
AcDbDictionary
281
     1
  0
ACDBDICTIONARYWDFLT
  5
E
102
{ACAD_REACTORS
330
C
102
}
330
C
100
AcDbDictionary
281
     1
  3
Normal
350
F
100
AcDbDictionaryWithDefault
340
F
  0
DICTIONARY
  5
3B
102
{ACAD_REACTORS
330
C
102
}
330
C
100
AcDbDictionary
281
     1
  3
A0
350
3C
  3
A1
350
3D
  3
A2
350
3E
  3
A3
350
3F
  3
A4
350
40
  3
A5
350
41
  3
A6
350
42
  3
A7
350
43
  3
A8
350
44
  3
A9
350
45
  3
B0
350
46
  3
B1
350
47
  3
B2
350
48
  3
B3
350
49
  3
B4
350
4A
  3
B5
350
4B
  3
B6
350
4C
  3
B7
350
4D
  3
B8
350
4E
  3
B9
350
4F
  3
C0
350
50
  3
C1
350
51
  3
C2
350
52
  3
C3
350
53
  3
C4
350
54
  3
C5
350
55
  3
C6
350
56
  3
C7
350
57
  3
C8
350
58
  3
C9
350
59
  3
D0
350
5A
  3
D1
350
5B
  3
D2
350
5C
  0
DICTIONARY
  5
7EA
102
{ACAD_REACTORS
330
C
102
}
330
C
100
AcDbDictionary
281
     1
  0
DICTIONARY
  5
2A
102
{ACAD_REACTORS
330
C
102
}
330
C
100
AcDbDictionary
281
     1
  3
2dWireframe
350
2F
  3
3D Hidden
350
31
  3
3dWireframe
350
30
  3
Basic
350
32
  3
Brighten
350
36
  3
ColorChange
350
3A
  3
Conceptual
350
34
  3
Dim
350
35
  3
Facepattern
350
39
  3
Flat
350
2B
  3
FlatWithEdges
350
2C
  3
Gouraud
350
2D
  3
GouraudWithEdges
350
2E
  3
Linepattern
350
38
  3
Realistic
350
33
  3
Thicken
350
37
  0
DICTIONARY
  5
7E8
102
{ACAD_REACTORS
330
C
102
}
330
C
100
AcDbDictionary
281
     1
  3
CANNOSCALE
350
7E9
  3
PSOLHEIGHT
350
7ED
  3
PSOLWIDTH
350
7EC
  0
LAYOUT
  5
1E
102
{ACAD_REACTORS
330
1A
102
}
330
1A
100
AcDbPlotSettings
  1

  2
none_device
  4

  6

 40
0.0
 41
0.0
 42
0.0
 43
0.0
 44
0.0
 45
0.0
 46
0.0
 47
0.0
 48
0.0
 49
0.0
140
0.0
141
0.0
142
1.0
143
1.0
 70
   688
 72
     0
 73
     0
 74
     5
  7

 75
    16
147
1.0
148
0.0
149
0.0
100
AcDbLayout
  1
Layout1
 70
     1
 71
     1
 10
0.0
 20
0.0
 11
12.0
 21
9.0
 12
0.0
 22
0.0
 32
0.0
 14
1.000000E+20
 24
1.000000E+20
 34
0.0
 15
-1.000000E+20
 25
-1.000000E+20
 35
0.0
146
0.0
 13
0.0
 23
0.0
 33
0.0
 16
1.0
 26
0.0
 36
0.0
 17
0.0
 27
1.0
 37
0.0
 76
     0
330
1B
  0
LAYOUT
  5
26
102
{ACAD_REACTORS
330
1A
102
}
330
1A
100
AcDbPlotSettings
  1

  2
none_device
  4

  6

 40
0.0
 41
0.0
 42
0.0
 43
0.0
 44
0.0
 45
0.0
 46
0.0
 47
0.0
 48
0.0
 49
0.0
140
0.0
141
0.0
142
1.0
143
1.0
 70
   688
 72
     0
 73
     0
 74
     5
  7

 75
    16
147
1.0
148
0.0
149
0.0
100
AcDbLayout
  1
Layout2
 70
     1
 71
     2
 10
0.0
 20
0.0
 11
0.0
 21
0.0
 12
0.0
 22
0.0
 32
0.0
 14
0.0
 24
0.0
 34
0.0
 15
0.0
 25
0.0
 35
0.0
146
0.0
 13
0.0
 23
0.0
 33
0.0
 16
1.0
 26
0.0
 36
0.0
 17
0.0
 27
1.0
 37
0.0
 76
     0
330
23
  0
LAYOUT
  5
22
102
{ACAD_REACTORS
330
1A
102
}
330
1A
100
AcDbPlotSettings
  1

  2
none_device
  4

  6

 40
0.0
 41
0.0
 42
0.0
 43
0.0
 44
0.0
 45
0.0
 46
0.0
 47
0.0
 48
0.0
 49
0.0
140
0.0
141
0.0
142
1.0
143
1.0
 70
  1712
 72
     0
 73
     0
 74
     0
  7

 75
     0
147
1.0
148
0.0
149
0.0
100
AcDbLayout
  1
Model
 70
     1
 71
     0
 10
0.0
 20
0.0
 11
12.0
 21
9.0
 12
0.0
 22
0.0
 32
0.0
 14
86.794479
 24
45.551636
 34
0.0
 15
446.913269
 25
409.048553
 35
0.0
146
0.0
 13
0.0
 23
0.0
 33
0.0
 16
1.0
 26
0.0
 36
0.0
 17
0.0
 27
1.0
 37
0.0
 76
     0
330
1F
331
29
  0
MLINESTYLE
  5
18
102
{ACAD_REACTORS
330
17
102
}
330
17
100
AcDbMlineStyle
  2
Standard
 70
     0
  3

 62
   256
 51
90.0
 52
90.0
 71
     2
 49
0.5
 62
   256
  6
BYLAYER
 49
-0.5
 62
   256
  6
BYLAYER
  0
ACDBPLACEHOLDER
  5
F
102
{ACAD_REACTORS
330
E
102
}
330
E
  0
SCALE
  5
3C
102
{ACAD_REACTORS
330
3B
102
}
330
3B
100
AcDbScale
 70
     0
300
1:1
140
1.0
141
1.0
290
     1
  0
SCALE
  5
3D
102
{ACAD_REACTORS
330
3B
102
}
330
3B
100
AcDbScale
 70
     0
300
1:2
140
1.0
141
2.0
290
     0
  0
SCALE
  5
3E
102
{ACAD_REACTORS
330
3B
102
}
330
3B
100
AcDbScale
 70
     0
300
1:4
140
1.0
141
4.0
290
     0
  0
SCALE
  5
3F
102
{ACAD_REACTORS
330
3B
102
}
330
3B
100
AcDbScale
 70
     0
300
1:5
140
1.0
141
5.0
290
     0
  0
SCALE
  5
40
102
{ACAD_REACTORS
330
3B
102
}
330
3B
100
AcDbScale
 70
     0
300
1:8
140
1.0
141
8.0
290
     0
  0
SCALE
  5
41
102
{ACAD_REACTORS
330
3B
102
}
330
3B
100
AcDbScale
 70
     0
300
1:10
140
1.0
141
10.0
290
     0
  0
SCALE
  5
42
102
{ACAD_REACTORS
330
3B
102
}
330
3B
100
AcDbScale
 70
     0
300
1:16
140
1.0
141
16.0
290
     0
  0
SCALE
  5
43
102
{ACAD_REACTORS
330
3B
102
}
330
3B
100
AcDbScale
 70
     0
300
1:20
140
1.0
141
20.0
290
     0
  0
SCALE
  5
44
102
{ACAD_REACTORS
330
3B
102
}
330
3B
100
AcDbScale
 70
     0
300
1:30
140
1.0
141
30.0
290
     0
  0
SCALE
  5
45
102
{ACAD_REACTORS
330
3B
102
}
330
3B
100
AcDbScale
 70
     0
300
1:40
140
1.0
141
40.0
290
     0
  0
SCALE
  5
46
102
{ACAD_REACTORS
330
3B
102
}
330
3B
100
AcDbScale
 70
     0
300
1:50
140
1.0
141
50.0
290
     0
  0
SCALE
  5
47
102
{ACAD_REACTORS
330
3B
102
}
330
3B
100
AcDbScale
 70
     0
300
1:100
140
1.0
141
100.0
290
     0
  0
SCALE
  5
48
102
{ACAD_REACTORS
330
3B
102
}
330
3B
100
AcDbScale
 70
     0
300
2:1
140
2.0
141
1.0
290
     0
  0
SCALE
  5
49
102
{ACAD_REACTORS
330
3B
102
}
330
3B
100
AcDbScale
 70
     0
300
4:1
140
4.0
141
1.0
290
     0
  0
SCALE
  5
4A
102
{ACAD_REACTORS
330
3B
102
}
330
3B
100
AcDbScale
 70
     0
300
8:1
140
8.0
141
1.0
290
     0
  0
SCALE
  5
4B
102
{ACAD_REACTORS
330
3B
102
}
330
3B
100
AcDbScale
 70
     0
300
10:1
140
10.0
141
1.0
290
     0
  0
SCALE
  5
4C
102
{ACAD_REACTORS
330
3B
102
}
330
3B
100
AcDbScale
 70
     0
300
100:1
140
100.0
141
1.0
290
     0
  0
SCALE
  5
4D
102
{ACAD_REACTORS
330
3B
102
}
330
3B
100
AcDbScale
 70
     0
300
1/128" = 1'-0"
140
0.007812
141
12.0
290
     0
  0
SCALE
  5
4E
102
{ACAD_REACTORS
330
3B
102
}
330
3B
100
AcDbScale
 70
     0
300
1/64" = 1'-0"
140
0.015625
141
12.0
290
     0
  0
SCALE
  5
4F
102
{ACAD_REACTORS
330
3B
102
}
330
3B
100
AcDbScale
 70
     0
300
1/32" = 1'-0"
140
0.03125
141
12.0
290
     0
  0
SCALE
  5
50
102
{ACAD_REACTORS
330
3B
102
}
330
3B
100
AcDbScale
 70
     0
300
1/16" = 1'-0"
140
0.0625
141
12.0
290
     0
  0
SCALE
  5
51
102
{ACAD_REACTORS
330
3B
102
}
330
3B
100
AcDbScale
 70
     0
300
3/32" = 1'-0"
140
0.09375
141
12.0
290
     0
  0
SCALE
  5
52
102
{ACAD_REACTORS
330
3B
102
}
330
3B
100
AcDbScale
 70
     0
300
1/8" = 1'-0"
140
0.125
141
12.0
290
     0
  0
SCALE
  5
53
102
{ACAD_REACTORS
330
3B
102
}
330
3B
100
AcDbScale
 70
     0
300
3/16" = 1'-0"
140
0.1875
141
12.0
290
     0
  0
SCALE
  5
54
102
{ACAD_REACTORS
330
3B
102
}
330
3B
100
AcDbScale
 70
     0
300
1/4" = 1'-0"
140
0.25
141
12.0
290
     0
  0
SCALE
  5
55
102
{ACAD_REACTORS
330
3B
102
}
330
3B
100
AcDbScale
 70
     0
300
3/8" = 1'-0"
140
0.375
141
12.0
290
     0
  0
SCALE
  5
56
102
{ACAD_REACTORS
330
3B
102
}
330
3B
100
AcDbScale
 70
     0
300
1/2" = 1'-0"
140
0.5
141
12.0
290
     0
  0
SCALE
  5
57
102
{ACAD_REACTORS
330
3B
102
}
330
3B
100
AcDbScale
 70
     0
300
3/4" = 1'-0"
140
0.75
141
12.0
290
     0
  0
SCALE
  5
58
102
{ACAD_REACTORS
330
3B
102
}
330
3B
100
AcDbScale
 70
     0
300
1" = 1'-0"
140
1.0
141
12.0
290
     0
  0
SCALE
  5
59
102
{ACAD_REACTORS
330
3B
102
}
330
3B
100
AcDbScale
 70
     0
300
1-1/2" = 1'-0"
140
1.5
141
12.0
290
     0
  0
SCALE
  5
5A
102
{ACAD_REACTORS
330
3B
102
}
330
3B
100
AcDbScale
 70
     0
300
3" = 1'-0"
140
3.0
141
12.0
290
     0
  0
SCALE
  5
5B
102
{ACAD_REACTORS
330
3B
102
}
330
3B
100
AcDbScale
 70
     0
300
6" = 1'-0"
140
6.0
141
12.0
290
     0
  0
SCALE
  5
5C
102
{ACAD_REACTORS
330
3B
102
}
330
3B
100
AcDbScale
 70
     0
300
1'-0" = 1'-0"
140
12.0
141
12.0
290
     0
  0
VISUALSTYLE
  5
2F
102
{ACAD_REACTORS
330
2A
102
}
330
2A
100
AcDbVisualStyle
  2
2dWireframe
 70
     4
 71
     0
 72
     2
 73
     0
 90
        0
 40
-0.6
 41
-30.0
 62
     5
 63
     7
 74
     1
 91
        4
 64
     7
 65
   257
 75
     1
175
     1
 42
1.0
 92
        0
 66
   257
 43
1.0
 76
     1
 77
     6
 78
     2
 67
     7
 79
     5
170
     0
171
     0
290
     0
174
     0
 93
        1
 44
0.0
173
     0
291
     0
 45
0.0
1001
ACAD
1000
AcDbSavedByObjectVersion
1070
     0
  0
VISUALSTYLE
  5
31
102
{ACAD_REACTORS
330
2A
102
}
330
2A
100
AcDbVisualStyle
  2
3D Hidden
 70
     6
 71
     1
 72
     2
 73
     2
 90
        0
 40
-0.6
 41
-30.0
 62
     5
 63
     7
 74
     2
 91
        2
 64
     7
 65
   257
 75
     2
175
     1
 42
40.0
 92
        0
 66
   257
 43
1.0
 76
     1
 77
     6
 78
     2
 67
     7
 79
     3
170
     0
171
     0
290
     0
174
     0
 93
        1
 44
0.0
173
     0
291
     0
 45
0.0
1001
ACAD
1000
AcDbSavedByObjectVersion
1070
     0
  0
VISUALSTYLE
  5
30
102
{ACAD_REACTORS
330
2A
102
}
330
2A
100
AcDbVisualStyle
  2
3dWireframe
 70
     5
 71
     0
 72
     2
 73
     0
 90
        0
 40
-0.6
 41
-30.0
 62
     5
 63
     7
 74
     1
 91
        4
 64
     7
 65
   257
 75
     1
175
     1
 42
1.0
 92
        0
 66
   257
 43
1.0
 76
     1
 77
     6
 78
     2
 67
     7
 79
     5
170
     0
171
     0
290
     0
174
     0
 93
        1
 44
0.0
173
     0
291
     0
 45
0.0
1001
ACAD
1000
AcDbSavedByObjectVersion
1070
     0
  0
VISUALSTYLE
  5
32
102
{ACAD_REACTORS
330
2A
102
}
330
2A
100
AcDbVisualStyle
  2
Basic
 70
     7
 71
     1
 72
     0
 73
     1
 90
        0
 40
-0.6
 41
-30.0
 62
     5
 63
     7
 74
     0
 91
        4
 64
     7
 65
   257
 75
     1
175
     1
 42
1.0
 92
        8
 66
     7
 43
1.0
 76
     1
 77
     6
 78
     2
 67
     7
 79
     5
170
     0
171
     0
290
     0
174
     0
 93
        1
 44
0.0
173
     0
291
     1
 45
0.0
1001
ACAD
1000
AcDbSavedByObjectVersion
1070
     0
  0
VISUALSTYLE
  5
36
102
{ACAD_REACTORS
330
2A
102
}
330
2A
100
AcDbVisualStyle
  2
Brighten
 70
    12
 71
     2
 72
     2
 73
     0
 90
        0
 40
-0.6
 41
-30.0
 62
     5
 63
     7
 74
     1
 91
        4
 64
     7
 65
   257
 75
     1
175
     1
 42
1.0
 92
        8
 66
     7
 43
1.0
 76
     1
 77
     6
 78
     2
 67
     7
 79
     5
170
     0
171
     0
290
     0
174
     0
 93
        1
 44
50.0
173
     0
291
     1
 45
0.0
1001
ACAD
1000
AcDbSavedByObjectVersion
1070
     0
  0
VISUALSTYLE
  5
3A
102
{ACAD_REACTORS
330
2A
102
}
330
2A
100
AcDbVisualStyle
  2
ColorChange
 70
    16
 71
     2
 72
     2
 73
     3
 90
        0
 40
-0.6
 41
-30.0
 62
     5
 63
     8
 74
     1
 91
        4
 64
     7
 65
   257
 75
     1
175
     1
 42
1.0
 92
        8
 66
     8
 43
1.0
 76
     1
 77
     6
 78
     2
 67
     7
 79
     5
170
     0
171
     0
290
     0
174
     0
 93
        1
 44
0.0
173
     0
291
     1
 45
0.0
1001
ACAD
1000
AcDbSavedByObjectVersion
1070
     0
  0
VISUALSTYLE
  5
34
102
{ACAD_REACTORS
330
2A
102
}
330
2A
100
AcDbVisualStyle
  2
Conceptual
 70
     9
 71
     3
 72
     2
 73
     0
 90
        0
 40
-0.6
 41
-30.0
 62
     5
 63
     7
 74
     2
 91
        2
 64
     7
 65
   257
 75
     1
175
     1
 42
40.0
 92
        8
 66
     7
 43
1.0
 76
     1
 77
     6
 78
     2
 67
     7
 79
     3
170
     0
171
     0
290
     0
174
     0
 93
        1
 44
0.0
173
     0
291
     0
 45
0.0
1001
ACAD
1000
AcDbSavedByObjectVersion
1070
     0
  0
VISUALSTYLE
  5
35
102
{ACAD_REACTORS
330
2A
102
}
330
2A
100
AcDbVisualStyle
  2
Dim
 70
    11
 71
     2
 72
     2
 73
     0
 90
        0
 40
-0.6
 41
-30.0
 62
     5
 63
     7
 74
     1
 91
        4
 64
     7
 65
   257
 75
     1
175
     1
 42
1.0
 92
        8
 66
     7
 43
1.0
 76
     1
 77
     6
 78
     2
 67
     7
 79
     5
170
     0
171
     0
290
     0
174
     0
 93
        1
 44
-50.0
173
     0
291
     1
 45
0.0
1001
ACAD
1000
AcDbSavedByObjectVersion
1070
     0
  0
VISUALSTYLE
  5
39
102
{ACAD_REACTORS
330
2A
102
}
330
2A
100
AcDbVisualStyle
  2
Facepattern
 70
    15
 71
     2
 72
     2
 73
     0
 90
        0
 40
-0.6
 41
-30.0
 62
     5
 63
     7
 74
     1
 91
        4
 64
     7
 65
   257
 75
     1
175
     1
 42
1.0
 92
        8
 66
     7
 43
1.0
 76
     1
 77
     6
 78
     2
 67
     7
 79
     5
170
     0
171
     0
290
     0
174
     0
 93
        1
 44
0.0
173
     0
291
     1
 45
0.0
1001
ACAD
1000
AcDbSavedByObjectVersion
1070
     0
  0
VISUALSTYLE
  5
2B
102
{ACAD_REACTORS
330
2A
102
}
330
2A
100
AcDbVisualStyle
  2
Flat
 70
     0
 71
     2
 72
     1
 73
     1
 90
        2
 40
-0.6
 41
30.0
 62
     5
 63
     7
 74
     0
 91
        4
 64
     7
 65
   257
 75
     1
175
     1
 42
1.0
 92
        8
 66
     7
 43
1.0
 76
     1
 77
     6
 78
     2
 67
     7
 79
     5
170
     0
171
     0
290
     0
174
     0
 93
       13
 44
0.0
173
     0
291
     1
 45
0.0
1001
ACAD
1000
AcDbSavedByObjectVersion
1070
     0
  0
VISUALSTYLE
  5
2C
102
{ACAD_REACTORS
330
2A
102
}
330
2A
100
AcDbVisualStyle
  2
FlatWithEdges
 70
     1
 71
     2
 72
     1
 73
     1
 90
        2
 40
-0.6
 41
30.0
 62
     5
 63
     7
 74
     1
 91
        4
 64
     7
 65
   257
 75
     1
175
     1
 42
1.0
 92
        0
 66
   257
 43
1.0
 76
     1
 77
     6
 78
     2
 67
     7
 79
     5
170
     0
171
     0
290
     0
174
     0
 93
       13
 44
0.0
173
     0
291
     1
 45
0.0
1001
ACAD
1000
AcDbSavedByObjectVersion
1070
     0
  0
VISUALSTYLE
  5
2D
102
{ACAD_REACTORS
330
2A
102
}
330
2A
100
AcDbVisualStyle
  2
Gouraud
 70
     2
 71
     2
 72
     2
 73
     1
 90
        2
 40
-0.6
 41
30.0
 62
     5
 63
     7
 74
     0
 91
        4
 64
     7
 65
   257
 75
     1
175
     1
 42
1.0
 92
        0
 66
     7
 43
1.0
 76
     1
 77
     6
 78
     2
 67
     7
 79
     5
170
     0
171
     0
290
     0
174
     0
 93
       13
 44
0.0
173
     0
291
     1
 45
0.0
1001
ACAD
1000
AcDbSavedByObjectVersion
1070
     0
  0
VISUALSTYLE
  5
2E
102
{ACAD_REACTORS
330
2A
102
}
330
2A
100
AcDbVisualStyle
  2
GouraudWithEdges
 70
     3
 71
     2
 72
     2
 73
     1
 90
        2
 40
-0.6
 41
30.0
 62
     5
 63
     7
 74
     1
 91
        4
 64
     7
 65
   257
 75
     1
175
     1
 42
1.0
 92
        0
 66
   257
 43
1.0
 76
     1
 77
     6
 78
     2
 67
     7
 79
     5
170
     0
171
     0
290
     0
174
     0
 93
       13
 44
0.0
173
     0
291
     1
 45
0.0
1001
ACAD
1000
AcDbSavedByObjectVersion
1070
     0
  0
VISUALSTYLE
  5
38
102
{ACAD_REACTORS
330
2A
102
}
330
2A
100
AcDbVisualStyle
  2
Linepattern
 70
    14
 71
     2
 72
     2
 73
     0
 90
        0
 40
-0.6
 41
-30.0
 62
     5
 63
     7
 74
     1
 91
        4
 64
     7
 65
   257
 75
     7
175
     7
 42
1.0
 92
        8
 66
     7
 43
1.0
 76
     1
 77
     6
 78
     2
 67
     7
 79
     5
170
     0
171
     0
290
     0
174
     0
 93
        1
 44
0.0
173
     0
291
     1
 45
0.0
1001
ACAD
1000
AcDbSavedByObjectVersion
1070
     0
  0
VISUALSTYLE
  5
33
102
{ACAD_REACTORS
330
2A
102
}
330
2A
100
AcDbVisualStyle
  2
Realistic
 70
     8
 71
     2
 72
     2
 73
     0
 90
        0
 40
-0.6
 41
-30.0
 62
     5
 63
     7
 74
     1
 91
        0
 64
     7
 65
   257
 75
     1
175
     1
 42
1.0
 92
        8
 66
     8
 43
1.0
 76
     1
 77
     6
 78
     2
 67
     7
 79
     5
170
     0
171
     0
290
     0
174
     0
 93
       13
 44
0.0
173
     0
291
     0
 45
0.0
1001
ACAD
1000
AcDbSavedByObjectVersion
1070
     0
  0
VISUALSTYLE
  5
37
102
{ACAD_REACTORS
330
2A
102
}
330
2A
100
AcDbVisualStyle
  2
Thicken
 70
    13
 71
     2
 72
     2
 73
     0
 90
        0
 40
-0.6
 41
-30.0
 62
     5
 63
     7
 74
     1
 91
        4
 64
     7
 65
   257
 75
     1
175
     1
 42
1.0
 92
       12
 66
     7
 43
1.0
 76
     1
 77
     6
 78
     2
 67
     7
 79
     5
170
     0
171
     0
290
     0
174
     0
 93
        1
 44
0.0
173
     0
291
     1
 45
0.0
1001
ACAD
1000
AcDbSavedByObjectVersion
1070
     0
  0
DICTIONARYVAR
  5
7E9
102
{ACAD_REACTORS
330
7E8
102
}
330
7E8
100
DictionaryVariables
280
     0
  1
1:1
  0
DICTIONARYVAR
  5
7ED
102
{ACAD_REACTORS
330
7E8
102
}
330
7E8
100
DictionaryVariables
280
     0
  1
80.000000
  0
DICTIONARYVAR
  5
7EC
102
{ACAD_REACTORS
330
7E8
102
}
330
7E8
100
DictionaryVariables
280
     0
  1
5.000000
  0
ENDSEC
  0
EOF
