  0
SECTION
  2
HEADER
  9
$ACADVER
  1
AC1014
  9
$ACADMAINTVER
 70
     9
  9
$DWGCODEPAGE
  3
ANSI_932
  9
$INSBASE
 10
0.0
 20
0.0
 30
0.0
  9
$EXTMIN
 10
9.681671142578125
 20
11.66297948701889
 30
0.0
  9
$EXTMAX
 10
243.5227237360938
 20
112.4516807556152
 30
0.0
  9
$LIMMIN
 10
9.681671142578125
 20
11.66297948701889
  9
$LIMMAX
 10
243.5227237360938
 20
112.6016807556152
  9
$ORTHOMODE
 70
     0
  9
$REGENMODE
 70
     1
  9
$FILLMODE
 70
     1
  9
$QTEXTMODE
 70
     0
  9
$MIRRTEXT
 70
     1
  9
$DRAGMODE
 70
     2
  9
$LTSCALE
 40
0.1012697471861682
  9
$OSMODE
 70
   511
  9
$ATTMODE
 70
     1
  9
$TEXTSIZE
 40
2.5
  9
$TRACEWID
 40
1.0
  9
$TEXTSTYLE
  7
STANDARD
  9
$CLAYER
  8
0
  9
$CELTYPE
  6
BYLAYER
  9
$CECOLOR
 62
   256
  9
$CELTSCALE
 40
1.0
  9
$DELOBJ
 70
     1
  9
$DISPSILH
 70
     0
  9
$DIMSCALE
 40
1.0
  9
$DIMASZ
 40
2.5
  9
$DIMEXO
 40
0.625
  9
$DIMDLI
 40
3.75
  9
$DIMRND
 40
0.0
  9
$DIMDLE
 40
0.0
  9
$DIMEXE
 40
1.25
  9
$DIMTP
 40
0.0
  9
$DIMTM
 40
0.0
  9
$DIMTXT
 40
2.5
  9
$DIMCEN
 40
2.5
  9
$DIMTSZ
 40
0.0
  9
$DIMTOL
 70
     0
  9
$DIMLIM
 70
     0
  9
$DIMTIH
 70
     0
  9
$DIMTOH
 70
     0
  9
$DIMSE1
 70
     0
  9
$DIMSE2
 70
     0
  9
$DIMTAD
 70
     1
  9
$DIMZIN
 70
     0
  9
$DIMBLK
  1

  9
$DIMASO
 70
     1
  9
$DIMSHO
 70
     1
  9
$DIMPOST
  1

  9
$DIMAPOST
  1

  9
$DIMALT
 70
     0
  9
$DIMALTD
 70
     3
  9
$DIMALTF
 40
0.03937007874016
  9
$DIMLFAC
 40
1.0
  9
$DIMTOFL
 70
     1
  9
$DIMTVP
 40
0.0
  9
$DIMTIX
 70
     0
  9
$DIMSOXD
 70
     0
  9
$DIMSAH
 70
     0
  9
$DIMBLK1
  1

  9
$DIMBLK2
  1

  9
$DIMSTYLE
  2
STANDARD
  9
$DIMCLRD
 70
     0
  9
$DIMCLRE
 70
     0
  9
$DIMCLRT
 70
     0
  9
$DIMTFAC
 40
0.75
  9
$DIMGAP
 40
0.625
  9
$DIMJUST
 70
     0
  9
$DIMSD1
 70
     0
  9
$DIMSD2
 70
     0
  9
$DIMTOLJ
 70
     0
  9
$DIMTZIN
 70
     8
  9
$DIMALTZ
 70
     0
  9
$DIMALTTZ
 70
     0
  9
$DIMFIT
 70
     3
  9
$DIMUPT
 70
     0
  9
$DIMUNIT
 70
     2
  9
$DIMDEC
 70
     2
  9
$DIMTDEC
 70
     2
  9
$DIMALTU
 70
     2
  9
$DIMALTTD
 70
     3
  9
$DIMTXSTY
  7
STANDARD
  9
$DIMAUNIT
 70
     0
  9
$LUNITS
 70
     2
  9
$LUPREC
 70
     4
  9
$SKETCHINC
 40
1.0
  9
$FILLETRAD
 40
10.0
  9
$AUNITS
 70
     0
  9
$AUPREC
 70
     0
  9
$MENU
  1
.
  9
$ELEVATION
 40
0.0
  9
$PELEVATION
 40
0.0
  9
$THICKNESS
 40
0.0
  9
$LIMCHECK
 70
     0
  9
$CHAMFERA
 40
10.0
  9
$CHAMFERB
 40
10.0
  9
$CHAMFERC
 40
20.0
  9
$CHAMFERD
 40
0.0
  9
$SKPOLY
 70
     0
  9
$TDCREATE
 40
2455188.75
  9
$TDUPDATE
 40
2457855.597573623
  9
$TDINDWG
 40
0.0005395718
  9
$TDUSRTIMER
 40
2457855.222034236
  9
$USRTIMER
 70
     1
  9
$ANGBASE
 50
0.0
  9
$ANGDIR
 70
     0
  9
$PDMODE
 70
     0
  9
$PDSIZE
 40
0.0
  9
$PLINEWID
 40
0.0
  9
$COORDS
 70
     1
  9
$SPLFRAME
 70
     0
  9
$SPLINETYPE
 70
     6
  9
$SPLINESEGS
 70
     8
  9
$ATTDIA
 70
     0
  9
$ATTREQ
 70
     1
  9
$HANDLING
 70
     1
  9
$HANDSEED
  5
1D2
  9
$SURFTAB1
 70
     6
  9
$SURFTAB2
 70
     6
  9
$SURFTYPE
 70
     6
  9
$SURFU
 70
     6
  9
$SURFV
 70
     6
  9
$UCSNAME
  2

  9
$UCSORG
 10
0.0
 20
0.0
 30
0.0
  9
$UCSXDIR
 10
1.0
 20
0.0
 30
0.0
  9
$UCSYDIR
 10
0.0
 20
1.0
 30
0.0
  9
$PUCSNAME
  2

  9
$PUCSORG
 10
0.0
 20
0.0
 30
0.0
  9
$PUCSXDIR
 10
1.0
 20
0.0
 30
0.0
  9
$PUCSYDIR
 10
0.0
 20
1.0
 30
0.0
  9
$USERI1
 70
     0
  9
$USERI2
 70
     0
  9
$USERI3
 70
     0
  9
$USERI4
 70
     0
  9
$USERI5
 70
     0
  9
$USERR1
 40
0.0
  9
$USERR2
 40
0.0
  9
$USERR3
 40
0.0
  9
$USERR4
 40
0.0
  9
$USERR5
 40
0.0
  9
$WORLDVIEW
 70
     1
  9
$SHADEDGE
 70
     3
  9
$SHADEDIF
 70
    70
  9
$TILEMODE
 70
     1
  9
$MAXACTVP
 70
    64
  9
$PINSBASE
 10
0.0
 20
0.0
 30
0.0
  9
$PLIMCHECK
 70
     0
  9
$PEXTMIN
 10
1.000000000000000E+20
 20
1.000000000000000E+20
 30
1.000000000000000E+20
  9
$PEXTMAX
 10
-1.000000000000000E+20
 20
-1.000000000000000E+20
 30
-1.000000000000000E+20
  9
$PLIMMIN
 10
0.0
 20
0.0
  9
$PLIMMAX
 10
0.0
 20
0.0
  9
$UNITMODE
 70
     0
  9
$VISRETAIN
 70
     1
  9
$PLINEGEN
 70
     0
  9
$PSLTSCALE
 70
     0
  9
$TREEDEPTH
 70
  3020
  9
$PICKSTYLE
 70
     1
  9
$CMLSTYLE
  2
STANDARD
  9
$CMLJUST
 70
     0
  9
$CMLSCALE
 40
20.0
  9
$PROXYGRAPHICS
 70
     1
  9
$MEASUREMENT
 70
     1
  0
ENDSEC
  0
SECTION
  2
CLASSES
  0
CLASS
  1
ACDBDICTIONARYWDFLT
  2
AcDbDictionaryWithDefault
  3
ObjectDBX Classes
 90
        0
280
     0
281
     0
  0
CLASS
  1
VISUALSTYLE
  2
AcDbVisualStyle
  3
ObjectDBX Classes
 90
     4095
280
     0
281
     0
  0
CLASS
  1
MATERIAL
  2
AcDbMaterial
  3
ObjectDBX Classes
 90
     1153
280
     0
281
     0
  0
CLASS
  1
SCALE
  2
AcDbScale
  3
ObjectDBX Classes
 90
     1153
280
     0
281
     0
  0
CLASS
  1
TABLESTYLE
  2
AcDbTableStyle
  3
ObjectDBX Classes
 90
     4095
280
     0
281
     0
  0
CLASS
  1
MLEADERSTYLE
  2
AcDbMLeaderStyle
  3
ACDB_MLEADERSTYLE_CLASS
 90
     4095
280
     0
281
     0
  0
CLASS
  1
SUN
  2
AcDbSun
  3
SCENEOE
 90
     1153
280
     0
281
     0
  0
CLASS
  1
DICTIONARYVAR
  2
AcDbDictionaryVar
  3
ObjectDBX Classes
 90
        0
280
     0
281
     0
  0
CLASS
  1
ACDBPLACEHOLDER
  2
AcDbPlaceHolder
  3
ObjectDBX Classes
 90
        0
280
     0
281
     0
  0
CLASS
  1
LAYOUT
  2
AcDbLayout
  3
ObjectDBX Classes
 90
        0
280
     0
281
     0
  0
CLASS
  1
RASTERVARIABLES
  2
AcDbRasterVariables
  3
ISM
 90
        0
280
     0
281
     0
  0
CLASS
  1
XRECORD
  2
AcDbXrecord
  3
ObjectDBX Classes
 90
        0
280
     0
281
     0
  0
CLASS
  1
LWPOLYLINE
  2
AcDbPolyline
  3
ObjectDBX Classes
 90
        0
280
     0
281
     1
  0
CLASS
  1
HATCH
  2
AcDbHatch
  3
ObjectDBX Classes
 90
        0
280
     0
281
     1
  0
ENDSEC
  0
SECTION
  2
TABLES
  0
TABLE
  2
VPORT
  5
8
330
0
100
AcDbSymbolTable
 70
     1
  0
VPORT
  5
29
330
8
100
AcDbSymbolTableRecord
100
AcDbViewportTableRecord
  2
*ACTIVE
 70
     0
 10
0.0
 20
0.0
 11
1.0
 21
1.0
 12
128.4649459109365
 22
63.62649191239547
 13
0.0
 23
0.0
 14
10.0
 24
10.0
 15
10.0
 25
10.0
 16
0.0
 26
0.0
 36
1.0
 17
0.0
 27
0.0
 37
0.0
 40
121.6512
 41
2.08803611738149
 42
50.0
 43
0.0
 44
0.0
 50
0.0
 51
0.0
 71
    16
 72
   100
 73
     1
 74
     3
 75
     0
 76
     0
 77
     0
 78
     0
  0
ENDTAB
  0
TABLE
  2
LTYPE
  5
5
330
0
100
AcDbSymbolTable
 70
     7
  0
LTYPE
  5
14
330
5
100
AcDbSymbolTableRecord
100
AcDbLinetypeTableRecord
  2
BYBLOCK
 70
     0
  3

 72
    65
 73
     0
 40
0.0
  0
LTYPE
  5
15
330
5
100
AcDbSymbolTableRecord
100
AcDbLinetypeTableRecord
  2
BYLAYER
 70
     0
  3

 72
    65
 73
     0
 40
0.0
  0
LTYPE
  5
16
330
5
100
AcDbSymbolTableRecord
100
AcDbLinetypeTableRecord
  2
CONTINUOUS
 70
     0
  3
Solid line
 72
    65
 73
     0
 40
0.0
  0
LTYPE
  5
6F
330
5
100
AcDbSymbolTableRecord
100
AcDbLinetypeTableRecord
  2
DASHED
 70
     0
  3
ICAD/SX(2) Dashed __ __ __ __ __ __ __ __ __ __ __ __ __ _
 72
    65
 73
     2
 40
19.05
 49
12.7
 74
     0
 49
-6.35
 74
     0
  0
LTYPE
  5
70
330
5
100
AcDbSymbolTableRecord
100
AcDbLinetypeTableRecord
  2
CENTER
 70
     0
  3
ICAD/SX(3) Center ____ _ ____ _ ____ _ ____ _ ____ _ ____
 72
    65
 73
     4
 40
50.8
 49
31.75
 74
     0
 49
-6.35
 74
     0
 49
6.35
 74
     0
 49
-6.35
 74
     0
  0
LTYPE
  5
71
330
5
100
AcDbSymbolTableRecord
100
AcDbLinetypeTableRecord
  2
PHANTOM
 70
     0
  3
ICAD/SX(4) Phantom ______  __  __  ______  __  __  ______
 72
    65
 73
     6
 40
63.5
 49
31.75
 74
     0
 49
-6.35
 74
     0
 49
6.35
 74
     0
 49
-6.35
 74
     0
 49
6.35
 74
     0
 49
-6.35
 74
     0
  0
LTYPE
  5
72
330
5
100
AcDbSymbolTableRecord
100
AcDbLinetypeTableRecord
  2
DOT
 70
     0
  3
ICAD/SX(5) Dot . . . . . . . . . . . . . . . . . . . . . . . .
 72
    65
 73
     2
 40
6.35
 49
0.0
 74
     0
 49
-6.35
 74
     0
  0
LTYPE
  5
73
330
5
100
AcDbSymbolTableRecord
100
AcDbLinetypeTableRecord
  2
HIDDEN
 70
     0
  3
ICAD/SX(6) Hidden __ __ __ __ __ __ __ __ __ __ __ __ __ __
 72
    65
 73
     2
 40
9.525
 49
6.35
 74
     0
 49
-3.175
 74
     0
  0
LTYPE
  5
74
330
5
100
AcDbSymbolTableRecord
100
AcDbLinetypeTableRecord
  2
DOTSX
 70
     0
  3
ICAD/SX(5) Dot . . . . . . . . . . . . . . . . . . . . . . . .
 72
    65
 73
     2
 40
6.35
 49
3.175
 74
     0
 49
-3.175
 74
     0
  0
ENDTAB
  0
TABLE
  2
LAYER
  5
2
330
0
100
AcDbSymbolTable
 70
     3
  0
LAYER
  5
10
330
2
100
AcDbSymbolTableRecord
100
AcDbLayerTableRecord
  2
0
 70
     0
 62
     7
  6
CONTINUOUS
  0
LAYER
  5
75
330
2
100
AcDbSymbolTableRecord
100
AcDbLayerTableRecord
  2
NOLAYERNAME_001
 70
     0
 62
     7
  6
CONTINUOUS
  0
LAYER
  5
76
330
2
100
AcDbSymbolTableRecord
100
AcDbLayerTableRecord
  2
DEFPOINTS
 70
     0
 62
     7
  6
CONTINUOUS
  0
ENDTAB
  0
TABLE
  2
STYLE
  5
3
330
0
100
AcDbSymbolTable
 70
     2
  0
STYLE
  5
11
330
3
100
AcDbSymbolTableRecord
100
AcDbTextStyleTableRecord
  2
STANDARD
 70
     0
 40
0.0
 41
1.0
 50
0.0
 71
     0
 42
2.5
  3
txt
  4
extfont2
  0
STYLE
  5
6E
330
3
100
AcDbSymbolTableRecord
100
AcDbTextStyleTableRecord
  2

 70
     1
 40
0.0
 41
1.0
 50
0.0
 71
     0
 42
2.5
  3
ltypeshp.shx
  4

  0
ENDTAB
  0
TABLE
  2
VIEW
  5
6
330
0
100
AcDbSymbolTable
 70
     0
  0
ENDTAB
  0
TABLE
  2
UCS
  5
7
330
0
100
AcDbSymbolTable
 70
     0
  0
ENDTAB
  0
TABLE
  2
APPID
  5
9
330
0
100
AcDbSymbolTable
 70
     5
  0
APPID
  5
12
330
9
100
AcDbSymbolTableRecord
100
AcDbRegAppTableRecord
  2
ACAD
 70
     0
  0
APPID
  5
18D
330
9
100
AcDbSymbolTableRecord
100
AcDbRegAppTableRecord
  2
ACAD_DSTYLE_DIM_LINETYPE
 70
     0
  0
APPID
  5
18E
330
9
100
AcDbSymbolTableRecord
100
AcDbRegAppTableRecord
  2
ACAD_DSTYLE_DIM_EXT1_LINET
 70
     0
  0
APPID
  5
18F
330
9
100
AcDbSymbolTableRecord
100
AcDbRegAppTableRecord
  2
ACAD_DSTYLE_DIM_EXT2_LINET
 70
     0
  0
APPID
  5
1CA
330
9
100
AcDbSymbolTableRecord
100
AcDbRegAppTableRecord
  2
ACAD_MLEADERVER
 70
     0
  0
ENDTAB
  0
TABLE
  2
DIMSTYLE
  5
A
330
0
100
AcDbSymbolTable
 70
     1
  0
DIMSTYLE
105
27
102
{ACAD_REACTORS
330
D4
330
E2
330
F4
330
102
330
110
330
11E
330
12C
330
13A
330
148
330
157
330
165
330
173
102
}
330
A
100
AcDbSymbolTableRecord
100
AcDbDimStyleTableRecord
  2
STANDARD
 70
     0
  3

  4

  5

  6

  7

 40
1.0
 41
2.5
 42
0.625
 43
3.75
 44
1.25
 45
0.0
 46
0.0
 47
0.0
 48
0.0
140
2.5
141
2.5
142
0.0
143
0.03937007874016
144
1.0
145
0.0
146
0.75
147
0.625
 71
     0
 72
     0
 73
     0
 74
     0
 75
     0
 76
     0
 77
     1
 78
     0
170
     0
171
     3
172
     1
173
     0
174
     0
175
     0
176
     0
177
     0
178
     0
270
     2
271
     2
272
     2
273
     2
274
     3
340
11
275
     0
280
     0
281
     0
282
     0
283
     0
284
     8
285
     0
286
     0
287
     3
288
     0
  0
ENDTAB
  0
TABLE
  2
BLOCK_RECORD
  5
1
330
0
100
AcDbSymbolTable
 70
    14
  0
BLOCK_RECORD
  5
1F
330
1
100
AcDbSymbolTableRecord
100
AcDbBlockTableRecord
  2
*MODEL_SPACE
  0
BLOCK_RECORD
  5
1B
330
1
100
AcDbSymbolTableRecord
100
AcDbBlockTableRecord
  2
*PAPER_SPACE
  0
BLOCK_RECORD
  5
23
330
1
100
AcDbSymbolTableRecord
100
AcDbBlockTableRecord
  2
*PAPER_SPACE0
  0
BLOCK_RECORD
  5
CB
330
1
100
AcDbSymbolTableRecord
100
AcDbBlockTableRecord
  2
_OPEN30
  0
BLOCK_RECORD
  5
D6
330
1
100
AcDbSymbolTableRecord
100
AcDbBlockTableRecord
  2
*D2
  0
BLOCK_RECORD
  5
E4
330
1
100
AcDbSymbolTableRecord
100
AcDbBlockTableRecord
  2
*D3
  0
BLOCK_RECORD
  5
F6
330
1
100
AcDbSymbolTableRecord
100
AcDbBlockTableRecord
  2
*D4
  0
BLOCK_RECORD
  5
104
330
1
100
AcDbSymbolTableRecord
100
AcDbBlockTableRecord
  2
*D5
  0
BLOCK_RECORD
  5
112
330
1
100
AcDbSymbolTableRecord
100
AcDbBlockTableRecord
  2
*D6
  0
BLOCK_RECORD
  5
120
330
1
100
AcDbSymbolTableRecord
100
AcDbBlockTableRecord
  2
*D7
  0
BLOCK_RECORD
  5
12E
330
1
100
AcDbSymbolTableRecord
100
AcDbBlockTableRecord
  2
*D8
  0
BLOCK_RECORD
  5
13C
330
1
100
AcDbSymbolTableRecord
100
AcDbBlockTableRecord
  2
*D9
  0
BLOCK_RECORD
  5
14A
330
1
100
AcDbSymbolTableRecord
100
AcDbBlockTableRecord
  2
*D10
  0
BLOCK_RECORD
  5
159
330
1
100
AcDbSymbolTableRecord
100
AcDbBlockTableRecord
  2
*D11
  0
BLOCK_RECORD
  5
167
330
1
100
AcDbSymbolTableRecord
100
AcDbBlockTableRecord
  2
*D12
  0
BLOCK_RECORD
  5
175
330
1
100
AcDbSymbolTableRecord
100
AcDbBlockTableRecord
  2
*D13
  0
ENDTAB
  0
ENDSEC
  0
SECTION
  2
BLOCKS
  0
BLOCK
  5
20
330
1F
100
AcDbEntity
  8
0
100
AcDbBlockBegin
  2
*MODEL_SPACE
 70
     0
 10
0.0
 20
0.0
 30
0.0
  3
*MODEL_SPACE
  1

  0
ENDBLK
  5
21
330
1F
100
AcDbEntity
  8
0
100
AcDbBlockEnd
  0
BLOCK
  5
1C
330
1B
100
AcDbEntity
 67
     1
  8
0
100
AcDbBlockBegin
  2
*PAPER_SPACE
 70
     0
 10
0.0
 20
0.0
 30
0.0
  3
*PAPER_SPACE
  1

  0
ENDBLK
  5
1D
330
1B
100
AcDbEntity
 67
     1
  8
0
100
AcDbBlockEnd
  0
BLOCK
  5
24
330
23
100
AcDbEntity
  8
0
100
AcDbBlockBegin
  2
*PAPER_SPACE0
 70
     0
 10
0.0
 20
0.0
 30
0.0
  3
*PAPER_SPACE0
  1
*Paper_Space0
  0
ENDBLK
  5
25
330
23
100
AcDbEntity
  8
0
100
AcDbBlockEnd
  0
BLOCK
  5
CF
330
CB
100
AcDbEntity
  8
0
100
AcDbBlockBegin
  2
_OPEN30
 70
     0
 10
0.0
 20
0.0
 30
0.0
  3
_OPEN30
  1
_OPEN30
  0
LINE
  5
CC
330
CB
100
AcDbEntity
  8
0
  6
BYBLOCK
 62
     0
100
AcDbLine
 10
-1.0
 20
0.267949
 30
0.0
 11
0.0
 21
0.0
 31
0.0
  0
LINE
  5
CD
330
CB
100
AcDbEntity
  8
0
  6
BYBLOCK
 62
     0
100
AcDbLine
 10
0.0
 20
0.0
 30
0.0
 11
-1.0
 21
-0.267949
 31
0.0
  0
LINE
  5
CE
330
CB
100
AcDbEntity
  8
0
  6
BYBLOCK
 62
     0
100
AcDbLine
 10
0.0
 20
0.0
 30
0.0
 11
-1.0
 21
0.0
 31
0.0
  0
ENDBLK
  5
D0
330
CB
100
AcDbEntity
  8
0
100
AcDbBlockEnd
  0
BLOCK
  5
D7
330
D6
100
AcDbEntity
  8
0
100
AcDbBlockBegin
  2
*D2
 70
     1
 10
0.0
 20
0.0
 30
0.0
  3
*D2
  1
*D2
  0
LINE
  5
D9
330
D6
100
AcDbEntity
  8
NOLAYERNAME_001
  6
CONTINUOUS
 62
     0
100
AcDbLine
 10
241.5037369622031
 20
67.03226080882712
 30
0.0
 11
241.5037369622031
 21
41.29563629569236
 31
0.0
  0
LINE
  5
DA
330
D6
100
AcDbEntity
  8
NOLAYERNAME_001
  6
CONTINUOUS
 62
     0
100
AcDbLine
 10
217.5037369622031
 20
62.1332813232608
 30
0.0
 11
217.5037369622031
 21
41.29563629569236
 31
0.0
  0
LINE
  5
DB
330
D6
100
AcDbEntity
  8
NOLAYERNAME_001
  6
CONTINUOUS
 62
     0
100
AcDbLine
 10
240.0037369622031
 20
44.04563629569236
 30
0.0
 11
219.0037369622031
 21
44.04563629569236
 31
0.0
  0
INSERT
  5
DC
330
D6
100
AcDbEntity
  8
NOLAYERNAME_001
 62
     0
100
AcDbBlockReference
  2
_OPEN30
 10
241.5037369622031
 20
44.04563629569236
 30
0.0
 41
1.5
 42
1.5
 43
1.5
  0
INSERT
  5
DD
330
D6
100
AcDbEntity
  8
NOLAYERNAME_001
 62
     0
100
AcDbBlockReference
  2
_OPEN30
 10
217.5037369622031
 20
44.04563629569236
 30
0.0
 41
1.5
 42
1.5
 43
1.5
 50
180.0
  0
MTEXT
  5
DE
330
D6
100
AcDbEntity
  8
NOLAYERNAME_001
 62
     0
100
AcDbMText
 10
229.5037369622031
 20
47.04563629569236
 30
0.0
 40
4.0
 41
0.0
 71
     5
 72
     1
  1
24
  0
POINT
  5
DF
330
D6
100
AcDbEntity
  8
DEFPOINTS
 62
     0
100
AcDbPoint
 10
241.5037369622031
 20
67.65726080882712
 30
0.0
  0
POINT
  5
E0
330
D6
100
AcDbEntity
  8
DEFPOINTS
 62
     0
100
AcDbPoint
 10
217.5037369622031
 20
62.7582813232608
 30
0.0
  0
POINT
  5
E1
330
D6
100
AcDbEntity
  8
DEFPOINTS
 62
     0
100
AcDbPoint
 10
217.5037369622031
 20
44.04563629569236
 30
0.0
  0
ENDBLK
  5
D8
330
D6
100
AcDbEntity
  8
0
100
AcDbBlockEnd
  0
BLOCK
  5
E5
330
E4
100
AcDbEntity
  8
0
100
AcDbBlockBegin
  2
*D3
 70
     1
 10
0.0
 20
0.0
 30
0.0
  3
*D3
  1
*D3
  0
LINE
  5
E7
330
E4
100
AcDbEntity
  8
NOLAYERNAME_001
  6
CONTINUOUS
 62
     0
100
AcDbLine
 10
49.57973176448394
 20
54.09742412644107
 30
0.0
 11
49.57973176448394
 21
44.52802083154093
 31
0.0
  0
LINE
  5
E8
330
E4
100
AcDbEntity
  8
NOLAYERNAME_001
  6
CONTINUOUS
 62
     0
100
AcDbLine
 10
49.59609235717637
 20
54.09763829833135
 30
0.0
 11
49.84659013256434
 21
44.5315141989392
 31
0.0
  0
ARC
  5
E9
330
E4
100
AcDbEntity
  8
NOLAYERNAME_001
  6
CONTINUOUS
 62
     0
100
AcDbCircle
 10
49.57973176448394
 20
54.72242412644107
 30
0.0
 40
7.444403294900138
100
AcDbArc
 50
246.8712895085217
 51
258.435644754261
  0
ARC
  5
EA
330
E4
100
AcDbEntity
  8
NOLAYERNAME_001
  6
CONTINUOUS
 62
     0
100
AcDbCircle
 10
49.57973176448394
 20
54.72242412644107
 30
0.0
 40
7.444403294900138
100
AcDbArc
 50
283.0643552457402
 51
294.6287104914795
  0
ARC
  5
EB
330
E4
100
AcDbEntity
  8
NOLAYERNAME_001
  6
CONTINUOUS
 62
     0
100
AcDbCircle
 10
49.57973176448394
 20
54.72242412644107
 30
0.0
 40
7.444403294900138
100
AcDbArc
 50
270.0
 51
271.500000000001
  0
INSERT
  5
EC
330
E4
100
AcDbEntity
  8
NOLAYERNAME_001
 62
     0
100
AcDbBlockReference
  2
_OPEN30
 10
49.57973176448394
 20
47.27802083154093
 30
0.0
 41
1.5
 42
1.5
 43
1.5
 50
354.2178223771306
  0
INSERT
  5
ED
330
E4
100
AcDbEntity
  8
NOLAYERNAME_001
 62
     0
100
AcDbBlockReference
  2
_OPEN30
 10
49.77460352471763
 20
47.28057184262197
 30
0.0
 41
1.5
 42
1.5
 43
1.5
 50
187.2821776228706
  0
MTEXT
  5
EE
330
E4
100
AcDbEntity
  8
NOLAYERNAME_001
 62
     0
100
AcDbMText
 10
52.91874374652084
 20
51.93562723435055
 30
0.0
 40
4.0
 41
0.0
 71
     5
 72
     1
  1
０°
 11
0.640765931886669
 21
0.7677362962198729
 31
0.0
  0
POINT
  5
EF
330
E4
100
AcDbEntity
  8
DEFPOINTS
 62
     0
100
AcDbPoint
 10
49.64469561410114
 20
47.27830429160748
 30
0.0
  0
POINT
  5
F0
330
E4
100
AcDbEntity
  8
DEFPOINTS
 62
     0
100
AcDbPoint
 10
49.57973176448394
 20
55.32242412644109
 30
0.0
  0
POINT
  5
F1
330
E4
100
AcDbEntity
  8
DEFPOINTS
 62
     0
100
AcDbPoint
 10
49.57973176448394
 20
54.72242412644107
 30
0.0
  0
POINT
  5
F2
330
E4
100
AcDbEntity
  8
DEFPOINTS
 62
     0
100
AcDbPoint
 10
49.57711406965315
 20
54.82238985893863
 30
0.0
  0
POINT
  5
F3
330
E4
100
AcDbEntity
  8
DEFPOINTS
 62
     0
100
AcDbPoint
 10
49.57973176448394
 20
55.42242412644109
 30
0.0
  0
ENDBLK
  5
E6
330
E4
100
AcDbEntity
  8
0
100
AcDbBlockEnd
  0
BLOCK
  5
F7
330
F6
100
AcDbEntity
  8
0
100
AcDbBlockBegin
  2
*D4
 70
     1
 10
0.0
 20
0.0
 30
0.0
  3
*D4
  1
*D4
  0
LINE
  5
F9
330
F6
100
AcDbEntity
  8
NOLAYERNAME_001
  6
CONTINUOUS
 62
     0
100
AcDbLine
 10
100.5797317644839
 20
53.46904779027085
 30
0.0
 11
100.5797317644839
 21
36.96342127415949
 31
0.0
  0
LINE
  5
FA
330
F6
100
AcDbEntity
  8
NOLAYERNAME_001
  6
CONTINUOUS
 62
     0
100
AcDbLine
 10
49.57973176448394
 20
54.69742412644109
 30
0.0
 11
49.57973176448394
 21
36.96342127415949
 31
0.0
  0
LINE
  5
FB
330
F6
100
AcDbEntity
  8
NOLAYERNAME_001
  6
CONTINUOUS
 62
     0
100
AcDbLine
 10
99.07973176448394
 20
39.71342127415949
 30
0.0
 11
51.07973176448394
 21
39.71342127415949
 31
0.0
  0
INSERT
  5
FC
330
F6
100
AcDbEntity
  8
NOLAYERNAME_001
 62
     0
100
AcDbBlockReference
  2
_OPEN30
 10
100.5797317644839
 20
39.71342127415949
 30
0.0
 41
1.5
 42
1.5
 43
1.5
 50
360.0
  0
INSERT
  5
FD
330
F6
100
AcDbEntity
  8
NOLAYERNAME_001
 62
     0
100
AcDbBlockReference
  2
_OPEN30
 10
49.57973176448394
 20
39.71342127415949
 30
0.0
 41
1.5
 42
1.5
 43
1.5
 50
180.0
  0
MTEXT
  5
FE
330
F6
100
AcDbEntity
  8
NOLAYERNAME_001
 62
     0
100
AcDbMText
 10
75.07973176448394
 20
42.71342127415949
 30
0.0
 40
4.0
 41
0.0
 71
     5
 72
     1
  1
51
  0
POINT
  5
FF
330
F6
100
AcDbEntity
  8
DEFPOINTS
 62
     0
100
AcDbPoint
 10
100.5797317644839
 20
54.09404779027085
 30
0.0
  0
POINT
  5
100
330
F6
100
AcDbEntity
  8
DEFPOINTS
 62
     0
100
AcDbPoint
 10
49.57973176448394
 20
55.32242412644109
 30
0.0
  0
POINT
  5
101
330
F6
100
AcDbEntity
  8
DEFPOINTS
 62
     0
100
AcDbPoint
 10
49.57973176448394
 20
39.71342127415949
 30
0.0
  0
ENDBLK
  5
F8
330
F6
100
AcDbEntity
  8
0
100
AcDbBlockEnd
  0
BLOCK
  5
105
330
104
100
AcDbEntity
  8
0
100
AcDbBlockBegin
  2
*D5
 70
     1
 10
0.0
 20
0.0
 30
0.0
  3
*D5
  1
*D5
  0
LINE
  5
107
330
104
100
AcDbEntity
  8
NOLAYERNAME_001
  6
CONTINUOUS
 62
     0
100
AcDbLine
 10
38.57973176448394
 20
54.53226080882712
 30
0.0
 11
38.57973176448394
 21
27.68813158448648
 31
0.0
  0
LINE
  5
108
330
104
100
AcDbEntity
  8
NOLAYERNAME_001
  6
CONTINUOUS
 62
     0
100
AcDbLine
 10
49.57973176448394
 20
54.69742412644109
 30
0.0
 11
49.57973176448394
 21
27.68813158448648
 31
0.0
  0
LINE
  5
109
330
104
100
AcDbEntity
  8
NOLAYERNAME_001
  6
CONTINUOUS
 62
     0
100
AcDbLine
 10
40.07973176448394
 20
30.43813158448648
 30
0.0
 11
48.07973176448394
 21
30.43813158448648
 31
0.0
  0
INSERT
  5
10A
330
104
100
AcDbEntity
  8
NOLAYERNAME_001
 62
     0
100
AcDbBlockReference
  2
_OPEN30
 10
38.57973176448394
 20
30.43813158448648
 30
0.0
 41
1.5
 42
1.5
 43
1.5
 50
180.0
  0
INSERT
  5
10B
330
104
100
AcDbEntity
  8
NOLAYERNAME_001
 62
     0
100
AcDbBlockReference
  2
_OPEN30
 10
49.57973176448394
 20
30.43813158448648
 30
0.0
 41
1.5
 42
1.5
 43
1.5
  0
MTEXT
  5
10C
330
104
100
AcDbEntity
  8
NOLAYERNAME_001
 62
     0
100
AcDbMText
 10
44.07973176448394
 20
33.43813158448648
 30
0.0
 40
4.0
 41
0.0
 71
     5
 72
     1
  1
11
  0
POINT
  5
10D
330
104
100
AcDbEntity
  8
DEFPOINTS
 62
     0
100
AcDbPoint
 10
38.57973176448394
 20
55.15726080882712
 30
0.0
  0
POINT
  5
10E
330
104
100
AcDbEntity
  8
DEFPOINTS
 62
     0
100
AcDbPoint
 10
49.57973176448394
 20
55.32242412644109
 30
0.0
  0
POINT
  5
10F
330
104
100
AcDbEntity
  8
DEFPOINTS
 62
     0
100
AcDbPoint
 10
49.57973176448394
 20
30.43813158448648
 30
0.0
  0
ENDBLK
  5
106
330
104
100
AcDbEntity
  8
0
100
AcDbBlockEnd
  0
BLOCK
  5
113
330
112
100
AcDbEntity
  8
0
100
AcDbBlockBegin
  2
*D6
 70
     1
 10
0.0
 20
0.0
 30
0.0
  3
*D6
  1
*D6
  0
LINE
  5
115
330
112
100
AcDbEntity
  8
NOLAYERNAME_001
  6
CONTINUOUS
 62
     0
100
AcDbLine
 10
104.5797317644839
 20
59.53226080882712
 30
0.0
 11
104.5797317644839
 21
27.68813158448648
 31
0.0
  0
LINE
  5
116
330
112
100
AcDbEntity
  8
NOLAYERNAME_001
  6
CONTINUOUS
 62
     0
100
AcDbLine
 10
49.57973176448394
 20
54.69742412644109
 30
0.0
 11
49.57973176448394
 21
27.68813158448648
 31
0.0
  0
LINE
  5
117
330
112
100
AcDbEntity
  8
NOLAYERNAME_001
  6
CONTINUOUS
 62
     0
100
AcDbLine
 10
103.0797317644839
 20
30.43813158448648
 30
0.0
 11
51.07973176448394
 21
30.43813158448649
 31
0.0
  0
INSERT
  5
118
330
112
100
AcDbEntity
  8
NOLAYERNAME_001
 62
     0
100
AcDbBlockReference
  2
_OPEN30
 10
104.5797317644839
 20
30.43813158448648
 30
0.0
 41
1.5
 42
1.5
 43
1.5
 50
360.0
  0
INSERT
  5
119
330
112
100
AcDbEntity
  8
NOLAYERNAME_001
 62
     0
100
AcDbBlockReference
  2
_OPEN30
 10
49.57973176448394
 20
30.43813158448649
 30
0.0
 41
1.5
 42
1.5
 43
1.5
 50
180.0
  0
MTEXT
  5
11A
330
112
100
AcDbEntity
  8
NOLAYERNAME_001
 62
     0
100
AcDbMText
 10
77.07973176448392
 20
33.43813158448648
 30
0.0
 40
4.0
 41
0.0
 71
     5
 72
     1
  1
55
  0
POINT
  5
11B
330
112
100
AcDbEntity
  8
DEFPOINTS
 62
     0
100
AcDbPoint
 10
104.5797317644839
 20
60.15726080882712
 30
0.0
  0
POINT
  5
11C
330
112
100
AcDbEntity
  8
DEFPOINTS
 62
     0
100
AcDbPoint
 10
49.57973176448394
 20
55.32242412644109
 30
0.0
  0
POINT
  5
11D
330
112
100
AcDbEntity
  8
DEFPOINTS
 62
     0
100
AcDbPoint
 10
49.57973176448394
 20
30.43813158448648
 30
0.0
  0
ENDBLK
  5
114
330
112
100
AcDbEntity
  8
0
100
AcDbBlockEnd
  0
BLOCK
  5
121
330
120
100
AcDbEntity
  8
0
100
AcDbBlockBegin
  2
*D7
 70
     1
 10
0.0
 20
0.0
 30
0.0
  3
*D7
  1
*D7
  0
LINE
  5
123
330
120
100
AcDbEntity
  8
NOLAYERNAME_001
  6
CONTINUOUS
 62
     0
100
AcDbLine
 10
104.5797317644839
 20
59.53226080882712
 30
0.0
 11
104.5797317644839
 21
19.33889837518779
 31
0.0
  0
LINE
  5
124
330
120
100
AcDbEntity
  8
NOLAYERNAME_001
  6
CONTINUOUS
 62
     0
100
AcDbLine
 10
38.57973176448394
 20
54.53226080882712
 30
0.0
 11
38.57973176448394
 21
19.3388983751878
 31
0.0
  0
LINE
  5
125
330
120
100
AcDbEntity
  8
NOLAYERNAME_001
  6
CONTINUOUS
 62
     0
100
AcDbLine
 10
103.0797317644839
 20
22.08889837518779
 30
0.0
 11
40.07973176448394
 21
22.0888983751878
 31
0.0
  0
INSERT
  5
126
330
120
100
AcDbEntity
  8
NOLAYERNAME_001
 62
     0
100
AcDbBlockReference
  2
_OPEN30
 10
104.5797317644839
 20
22.08889837518779
 30
0.0
 41
1.5
 42
1.5
 43
1.5
 50
360.0
  0
INSERT
  5
127
330
120
100
AcDbEntity
  8
NOLAYERNAME_001
 62
     0
100
AcDbBlockReference
  2
_OPEN30
 10
38.57973176448394
 20
22.0888983751878
 30
0.0
 41
1.5
 42
1.5
 43
1.5
 50
180.0
  0
MTEXT
  5
128
330
120
100
AcDbEntity
  8
NOLAYERNAME_001
 62
     0
100
AcDbMText
 10
71.57973176448392
 20
25.0888983751878
 30
0.0
 40
4.0
 41
0.0
 71
     5
 72
     1
  1
66
  0
POINT
  5
129
330
120
100
AcDbEntity
  8
DEFPOINTS
 62
     0
100
AcDbPoint
 10
104.5797317644839
 20
60.15726080882712
 30
0.0
  0
POINT
  5
12A
330
120
100
AcDbEntity
  8
DEFPOINTS
 62
     0
100
AcDbPoint
 10
38.57973176448394
 20
55.15726080882712
 30
0.0
  0
POINT
  5
12B
330
120
100
AcDbEntity
  8
DEFPOINTS
 62
     0
100
AcDbPoint
 10
38.57973176448393
 20
22.0888983751878
 30
0.0
  0
ENDBLK
  5
122
330
120
100
AcDbEntity
  8
0
100
AcDbBlockEnd
  0
BLOCK
  5
12F
330
12E
100
AcDbEntity
  8
0
100
AcDbBlockBegin
  2
*D8
 70
     1
 10
0.0
 20
0.0
 30
0.0
  3
*D8
  1
*D8
  0
LINE
  5
131
330
12E
100
AcDbEntity
  8
NOLAYERNAME_001
  6
CONTINUOUS
 62
     0
100
AcDbLine
 10
184.5797317644839
 20
57.53226080882712
 30
0.0
 11
184.5797317644839
 21
19.33889837518779
 31
0.0
  0
LINE
  5
132
330
12E
100
AcDbEntity
  8
NOLAYERNAME_001
  6
CONTINUOUS
 62
     0
100
AcDbLine
 10
104.5797317644839
 20
59.53226080882712
 30
0.0
 11
104.5797317644839
 21
19.3388983751878
 31
0.0
  0
LINE
  5
133
330
12E
100
AcDbEntity
  8
NOLAYERNAME_001
  6
CONTINUOUS
 62
     0
100
AcDbLine
 10
183.0797317644839
 20
22.08889837518779
 30
0.0
 11
106.0797317644839
 21
22.0888983751878
 31
0.0
  0
INSERT
  5
134
330
12E
100
AcDbEntity
  8
NOLAYERNAME_001
 62
     0
100
AcDbBlockReference
  2
_OPEN30
 10
184.5797317644839
 20
22.08889837518779
 30
0.0
 41
1.5
 42
1.5
 43
1.5
 50
360.0
  0
INSERT
  5
135
330
12E
100
AcDbEntity
  8
NOLAYERNAME_001
 62
     0
100
AcDbBlockReference
  2
_OPEN30
 10
104.5797317644839
 20
22.0888983751878
 30
0.0
 41
1.5
 42
1.5
 43
1.5
 50
180.0
  0
MTEXT
  5
136
330
12E
100
AcDbEntity
  8
NOLAYERNAME_001
 62
     0
100
AcDbMText
 10
144.5797317644839
 20
25.0888983751878
 30
0.0
 40
4.0
 41
0.0
 71
     5
 72
     1
  1
80
  0
POINT
  5
137
330
12E
100
AcDbEntity
  8
DEFPOINTS
 62
     0
100
AcDbPoint
 10
184.5797317644839
 20
58.15726080882712
 30
0.0
  0
POINT
  5
138
330
12E
100
AcDbEntity
  8
DEFPOINTS
 62
     0
100
AcDbPoint
 10
104.5797317644839
 20
60.15726080882712
 30
0.0
  0
POINT
  5
139
330
12E
100
AcDbEntity
  8
DEFPOINTS
 62
     0
100
AcDbPoint
 10
104.5797317644839
 20
22.0888983751878
 30
0.0
  0
ENDBLK
  5
130
330
12E
100
AcDbEntity
  8
0
100
AcDbBlockEnd
  0
BLOCK
  5
13D
330
13C
100
AcDbEntity
  8
0
100
AcDbBlockBegin
  2
*D9
 70
     1
 10
0.0
 20
0.0
 30
0.0
  3
*D9
  1
*D9
  0
LINE
  5
13F
330
13C
100
AcDbEntity
  8
NOLAYERNAME_001
  6
CONTINUOUS
 62
     0
100
AcDbLine
 10
184.5797317644839
 20
57.53226080882712
 30
0.0
 11
184.5797317644839
 21
11.66297948701889
 31
0.0
  0
LINE
  5
140
330
13C
100
AcDbEntity
  8
NOLAYERNAME_001
  6
CONTINUOUS
 62
     0
100
AcDbLine
 10
38.57973176448394
 20
54.53226080882712
 30
0.0
 11
38.57973176448394
 21
11.66297948701891
 31
0.0
  0
LINE
  5
141
330
13C
100
AcDbEntity
  8
NOLAYERNAME_001
  6
CONTINUOUS
 62
     0
100
AcDbLine
 10
183.0797317644839
 20
14.41297948701889
 30
0.0
 11
40.07973176448394
 21
14.41297948701891
 31
0.0
  0
INSERT
  5
142
330
13C
100
AcDbEntity
  8
NOLAYERNAME_001
 62
     0
100
AcDbBlockReference
  2
_OPEN30
 10
184.5797317644839
 20
14.41297948701889
 30
0.0
 41
1.5
 42
1.5
 43
1.5
 50
360.0
  0
INSERT
  5
143
330
13C
100
AcDbEntity
  8
NOLAYERNAME_001
 62
     0
100
AcDbBlockReference
  2
_OPEN30
 10
38.57973176448394
 20
14.41297948701891
 30
0.0
 41
1.5
 42
1.5
 43
1.5
 50
180.0
  0
MTEXT
  5
144
330
13C
100
AcDbEntity
  8
NOLAYERNAME_001
 62
     0
100
AcDbMText
 10
111.5797317644839
 20
17.4129794870189
 30
0.0
 40
4.0
 41
0.0
 71
     5
 72
     1
  1
146
  0
POINT
  5
145
330
13C
100
AcDbEntity
  8
DEFPOINTS
 62
     0
100
AcDbPoint
 10
184.5797317644839
 20
58.15726080882712
 30
0.0
  0
POINT
  5
146
330
13C
100
AcDbEntity
  8
DEFPOINTS
 62
     0
100
AcDbPoint
 10
38.57973176448394
 20
55.15726080882712
 30
0.0
  0
POINT
  5
147
330
13C
100
AcDbEntity
  8
DEFPOINTS
 62
     0
100
AcDbPoint
 10
38.57973176448393
 20
14.4129794870189
 30
0.0
  0
ENDBLK
  5
13E
330
13C
100
AcDbEntity
  8
0
100
AcDbBlockEnd
  0
BLOCK
  5
14B
330
14A
100
AcDbEntity
  8
0
100
AcDbBlockBegin
  2
*D10
 70
     1
 10
0.0
 20
0.0
 30
0.0
  3
*D10
  1
*D10
  0
LINE
  5
14D
330
14A
100
AcDbEntity
  8
NOLAYERNAME_001
  6
CONTINUOUS
 62
     0
100
AcDbLine
 10
34.53521433489482
 20
67.65726080882712
 30
0.0
 11
29.84825897216796
 21
67.65726080882712
 31
0.0
  0
LINE
  5
14E
330
14A
100
AcDbEntity
  8
NOLAYERNAME_001
  6
CONTINUOUS
 62
     0
100
AcDbLine
 10
35.31122655702222
 20
62.61609247518743
 30
0.0
 11
29.84825897216796
 21
62.61609247518743
 31
0.0
  0
LINE
  5
14F
330
14A
100
AcDbEntity
  8
NOLAYERNAME_001
  6
CONTINUOUS
 62
     0
100
AcDbLine
 10
32.59825897216797
 20
67.65726080882712
 30
0.0
 11
32.59825897216797
 21
86.3477368641968
 31
0.0
  0
LINE
  5
150
330
14A
100
AcDbEntity
  8
NOLAYERNAME_001
  6
CONTINUOUS
 62
     0
100
AcDbLine
 10
32.59825897216797
 20
66.15726080882712
 30
0.0
 11
32.59825897216797
 21
64.11609247518743
 31
0.0
  0
INSERT
  5
151
330
14A
100
AcDbEntity
  8
NOLAYERNAME_001
 62
     0
100
AcDbBlockReference
  2
_OPEN30
 10
32.59825897216797
 20
67.65726080882712
 30
0.0
 41
1.5
 42
1.5
 43
1.5
 50
90.0
  0
INSERT
  5
152
330
14A
100
AcDbEntity
  8
NOLAYERNAME_001
 62
     0
100
AcDbBlockReference
  2
_OPEN30
 10
32.59825897216797
 20
62.61609247518743
 30
0.0
 41
1.5
 42
1.5
 43
1.5
 50
270.0
  0
MTEXT
  5
153
330
14A
100
AcDbEntity
  8
NOLAYERNAME_001
 62
     0
100
AcDbMText
 10
29.59825897216797
 20
79.15726067372061
 30
0.0
 40
4.0
 41
0.0
 71
     5
 72
     1
  1
5.04
 11
0.0
 21
1.0
 31
0.0
  0
POINT
  5
154
330
14A
100
AcDbEntity
  8
DEFPOINTS
 62
     0
100
AcDbPoint
 10
35.16021433489482
 20
67.65726080882712
 30
0.0
  0
POINT
  5
155
330
14A
100
AcDbEntity
  8
DEFPOINTS
 62
     0
100
AcDbPoint
 10
35.93622655702222
 20
62.61609247518743
 30
0.0
  0
POINT
  5
156
330
14A
100
AcDbEntity
  8
DEFPOINTS
 62
     0
100
AcDbPoint
 10
32.59825897216797
 20
62.61609247518743
 30
0.0
  0
ENDBLK
  5
14C
330
14A
100
AcDbEntity
  8
0
100
AcDbBlockEnd
  0
BLOCK
  5
15A
330
159
100
AcDbEntity
  8
0
100
AcDbBlockBegin
  2
*D11
 70
     1
 10
0.0
 20
0.0
 30
0.0
  3
*D11
  1
*D11
  0
LINE
  5
15C
330
159
100
AcDbEntity
  8
NOLAYERNAME_001
  6
CONTINUOUS
 62
     0
100
AcDbLine
 10
34.53521433489482
 20
54.65726080882712
 30
0.0
 11
11.93167114257811
 21
54.65726080882712
 31
0.0
  0
LINE
  5
15D
330
159
100
AcDbEntity
  8
NOLAYERNAME_001
  6
CONTINUOUS
 62
     0
100
AcDbLine
 10
14.68167114257812
 20
56.15726080882712
 30
0.0
 11
14.68167114257812
 21
73.99059405473766
 31
0.0
  0
INSERT
  5
15E
330
159
100
AcDbEntity
  8
NOLAYERNAME_001
 62
     0
100
AcDbBlockReference
  2
_OPEN30
 10
14.68167114257812
 20
54.65726080882712
 30
0.0
 41
1.5
 42
1.5
 43
1.5
 50
270.0
  0
MTEXT
  5
15F
330
159
100
AcDbEntity
  8
NOLAYERNAME_001
 62
     0
100
AcDbMText
 10
11.68167114257812
 20
67.65726072140433
 30
0.0
 40
4.0
 41
0.0
 71
     5
 72
     1
  1
%%c26
 11
-6.832141690000964E-17
 21
1.0
 31
0.0
  0
POINT
  5
160
330
159
100
AcDbEntity
  8
DEFPOINTS
 62
     0
100
AcDbPoint
 10
35.16021433489482
 20
80.65726080882712
 30
0.0
  0
POINT
  5
161
330
159
100
AcDbEntity
  8
DEFPOINTS
 62
     0
100
AcDbPoint
 10
35.16021433489482
 20
54.65726080882712
 30
0.0
  0
POINT
  5
162
330
159
100
AcDbEntity
  8
DEFPOINTS
 62
     0
100
AcDbPoint
 10
14.68167114257812
 20
54.65726080882712
 30
0.0
  0
ENDBLK
  5
15B
330
159
100
AcDbEntity
  8
0
100
AcDbBlockEnd
  0
BLOCK
  5
168
330
167
100
AcDbEntity
  8
0
100
AcDbBlockBegin
  2
*D12
 70
     1
 10
0.0
 20
0.0
 30
0.0
  3
*D12
  1
*D12
  0
LINE
  5
16A
330
167
100
AcDbEntity
  8
NOLAYERNAME_001
  6
CONTINUOUS
 62
     0
100
AcDbLine
 10
34.53521433489482
 20
54.65726080882712
 30
0.0
 11
20.80087280273437
 21
54.65726080882712
 31
0.0
  0
LINE
  5
16B
330
167
100
AcDbEntity
  8
NOLAYERNAME_001
  6
CONTINUOUS
 62
     0
100
AcDbLine
 10
37.95473176448394
 20
70.61609247518743
 30
0.0
 11
20.80087280273437
 21
70.61609247518743
 31
0.0
  0
LINE
  5
16C
330
167
100
AcDbEntity
  8
NOLAYERNAME_001
  6
CONTINUOUS
 62
     0
100
AcDbLine
 10
23.55087280273438
 20
56.15726080882712
 30
0.0
 11
23.55087280273438
 21
69.11609247518743
 31
0.0
  0
INSERT
  5
16D
330
167
100
AcDbEntity
  8
NOLAYERNAME_001
 62
     0
100
AcDbBlockReference
  2
_OPEN30
 10
23.55087280273438
 20
54.65726080882712
 30
0.0
 41
1.5
 42
1.5
 43
1.5
 50
270.0
  0
INSERT
  5
16E
330
167
100
AcDbEntity
  8
NOLAYERNAME_001
 62
     0
100
AcDbBlockReference
  2
_OPEN30
 10
23.55087280273438
 20
70.61609247518743
 30
0.0
 41
1.5
 42
1.5
 43
1.5
 50
90.0
  0
MTEXT
  5
16F
330
167
100
AcDbEntity
  8
NOLAYERNAME_001
 62
     0
100
AcDbMText
 10
20.55087280273438
 20
62.63667655458448
 30
0.0
 40
4.0
 41
0.0
 71
     5
 72
     1
  1
%%c16
 11
0.0
 21
1.0
 31
0.0
  0
POINT
  5
170
330
167
100
AcDbEntity
  8
DEFPOINTS
 62
     0
100
AcDbPoint
 10
35.16021433489482
 20
54.65726080882712
 30
0.0
  0
POINT
  5
171
330
167
100
AcDbEntity
  8
DEFPOINTS
 62
     0
100
AcDbPoint
 10
38.57973176448394
 20
70.61609247518743
 30
0.0
  0
POINT
  5
172
330
167
100
AcDbEntity
  8
DEFPOINTS
 62
     0
100
AcDbPoint
 10
23.55087280273438
 20
70.61609247518743
 30
0.0
  0
ENDBLK
  5
169
330
167
100
AcDbEntity
  8
0
100
AcDbBlockEnd
  0
BLOCK
  5
176
330
175
100
AcDbEntity
  8
0
100
AcDbBlockBegin
  2
*D13
 70
     1
 10
0.0
 20
0.0
 30
0.0
  3
*D13
  1
*D13
  0
LINE
  5
178
330
175
100
AcDbEntity
  8
NOLAYERNAME_001
  6
CONTINUOUS
 62
     0
100
AcDbLine
 10
182.2047317644839
 20
55.15726080882712
 30
0.0
 11
203.0319698017393
 21
55.15726080882712
 31
0.0
  0
LINE
  5
179
330
175
100
AcDbEntity
  8
NOLAYERNAME_001
  6
CONTINUOUS
 62
     0
100
AcDbLine
 10
182.2047317644839
 20
80.15726080882712
 30
0.0
 11
203.0319698017393
 21
80.15726080882712
 31
0.0
  0
LINE
  5
17A
330
175
100
AcDbEntity
  8
NOLAYERNAME_001
  6
CONTINUOUS
 62
     0
100
AcDbLine
 10
200.2819698017393
 20
56.65726080882712
 30
0.0
 11
200.2819698017393
 21
78.65726080882712
 31
0.0
  0
INSERT
  5
17B
330
175
100
AcDbEntity
  8
NOLAYERNAME_001
 62
     0
100
AcDbBlockReference
  2
_OPEN30
 10
200.2819698017393
 20
55.15726080882712
 30
0.0
 41
1.5
 42
1.5
 43
1.5
 50
270.0
  0
INSERT
  5
17C
330
175
100
AcDbEntity
  8
NOLAYERNAME_001
 62
     0
100
AcDbBlockReference
  2
_OPEN30
 10
200.2819698017393
 20
80.15726080882712
 30
0.0
 41
1.5
 42
1.5
 43
1.5
 50
90.0
  0
MTEXT
  5
17D
330
175
100
AcDbEntity
  8
NOLAYERNAME_001
 62
     0
100
AcDbMText
 10
197.2819698017393
 20
67.65726072140433
 30
0.0
 40
4.0
 41
0.0
 71
     5
 72
     1
  1
%%c25
 11
0.0
 21
1.0
 31
0.0
  0
POINT
  5
17E
330
175
100
AcDbEntity
  8
DEFPOINTS
 62
     0
100
AcDbPoint
 10
181.5797317644839
 20
55.15726080882712
 30
0.0
  0
POINT
  5
17F
330
175
100
AcDbEntity
  8
DEFPOINTS
 62
     0
100
AcDbPoint
 10
181.5797317644839
 20
80.15726080882712
 30
0.0
  0
POINT
  5
180
330
175
100
AcDbEntity
  8
DEFPOINTS
 62
     0
100
AcDbPoint
 10
200.2819698017393
 20
80.15726080882712
 30
0.0
  0
ENDBLK
  5
177
330
175
100
AcDbEntity
  8
0
100
AcDbBlockEnd
  0
ENDSEC
  0
SECTION
  2
ENTITIES
  0
LINE
  5
77
330
1F
100
AcDbEntity
  8
NOLAYERNAME_001
  6
PHANTOM
 62
     7
100
AcDbLine
 10
147.0797317644839
 20
91.02479744186036
 30
0.0
 11
147.0797317644839
 21
41.07303261280094
 31
0.0
  0
LINE
  5
78
330
1F
100
AcDbEntity
  8
NOLAYERNAME_001
  6
CONTINUOUS
 62
     7
100
AcDbLine
 10
49.57973176448394
 20
55.25726080882711
 30
0.0
 11
49.57973176448394
 21
64.17732246780682
 31
0.0
  0
ARC
  5
79
330
1F
100
AcDbEntity
  8
NOLAYERNAME_001
  6
CONTINUOUS
 62
     7
100
AcDbCircle
 10
48.97973176448392
 20
55.25726080882711
 30
0.0
 40
0.5999999999999998
100
AcDbArc
 50
240.0000000000001
 51
0.0
  0
LINE
  5
7A
330
1F
100
AcDbEntity
  8
NOLAYERNAME_001
  6
CONTINUOUS
 62
     7
100
AcDbLine
 10
40.95473176448394
 20
59.19767639604626
 30
0.0
 11
48.67973176448393
 21
54.73764556655641
 31
0.0
  0
ARC
  5
7B
330
1F
100
AcDbEntity
  8
NOLAYERNAME_001
  6
CONTINUOUS
 62
     7
100
AcDbCircle
 10
41.25473176448395
 20
59.71729163831694
 30
0.0
 40
0.5999999999999998
100
AcDbArc
 50
119.9999999999999
 51
240.0000000000001
  0
ARC
  5
7C
330
1F
100
AcDbEntity
  8
NOLAYERNAME_001
  6
CONTINUOUS
 62
     7
100
AcDbCircle
 10
48.97973176448397
 20
64.17732246780682
 30
0.0
 40
0.5999999999999998
100
AcDbArc
 50
0.0
 51
120.0000000000004
  0
CIRCLE
  5
7D
330
1F
100
AcDbEntity
  8
NOLAYERNAME_001
  6
CONTINUOUS
 62
     7
100
AcDbCircle
 10
46.40473176448393
 20
59.78245495593092
 30
0.0
 40
1.9
  0
LINE
  5
7E
330
1F
100
AcDbEntity
  8
NOLAYERNAME_001
  6
CONTINUOUS
 62
     7
100
AcDbLine
 10
48.6797317644839
 20
64.69693771007749
 30
0.0
 11
40.95473176448391
 21
60.23690688058763
 31
0.0
  0
LINE
  5
7F
330
1F
100
AcDbEntity
  8
NOLAYERNAME_001
  6
CONTINUOUS
 62
     7
100
AcDbLine
 10
109.5797317644839
 20
55.15726080882712
 30
0.0
 11
181.5797317644839
 21
55.15726080882712
 31
0.0
  0
LINE
  5
80
330
1F
100
AcDbEntity
  8
NOLAYERNAME_001
  6
CONTINUOUS
 62
     7
100
AcDbLine
 10
181.5797317644839
 20
80.15726080882712
 30
0.0
 11
109.5797317644839
 21
80.15726080882712
 31
0.0
  0
LINE
  5
81
330
1F
100
AcDbEntity
  8
NOLAYERNAME_001
  6
CONTINUOUS
 62
     7
100
AcDbLine
 10
109.5797317644839
 20
55.15726080882712
 30
0.0
 11
109.5797317644839
 21
80.15726080882712
 31
0.0
  0
LINE
  5
82
330
1F
100
AcDbEntity
  8
NOLAYERNAME_001
  6
CONTINUOUS
 62
     7
100
AcDbLine
 10
109.5797317644839
 20
80.15726080882712
 30
0.0
 11
104.5797317644839
 21
75.15726080882712
 31
0.0
  0
LINE
  5
83
330
1F
100
AcDbEntity
  8
NOLAYERNAME_001
  6
CONTINUOUS
 62
     7
100
AcDbLine
 10
104.5797317644839
 20
60.15726080882712
 30
0.0
 11
109.5797317644839
 21
55.15726080882712
 31
0.0
  0
ARC
  5
84
330
1F
100
AcDbEntity
  8
NOLAYERNAME_001
  6
CONTINUOUS
 62
     7
100
AcDbCircle
 10
181.5797317644839
 20
77.15726080882712
 30
0.0
 40
3.0
100
AcDbArc
 50
0.0
 51
90.0
  0
ARC
  5
85
330
1F
100
AcDbEntity
  8
NOLAYERNAME_001
  6
CONTINUOUS
 62
     7
100
AcDbCircle
 10
181.5797317644839
 20
58.15726080882712
 30
0.0
 40
3.0
100
AcDbArc
 50
270.0
 51
0.0
  0
LINE
  5
86
330
1F
100
AcDbEntity
  8
NOLAYERNAME_001
  6
CONTINUOUS
 62
     7
100
AcDbLine
 10
184.5797317644839
 20
77.15726080882712
 30
0.0
 11
184.5797317644839
 21
58.15726080882712
 31
0.0
  0
ARC
  5
87
330
1F
100
AcDbEntity
  8
NOLAYERNAME_001
  6
CONTINUOUS
 62
     7
100
AcDbCircle
 10
100.5797317644839
 20
74.11609247518743
 30
0.0
 40
4.0
100
AcDbArc
 50
270.0
 51
0.0
  0
LINE
  5
88
330
1F
100
AcDbEntity
  8
NOLAYERNAME_001
  6
CONTINUOUS
 62
     7
100
AcDbLine
 10
104.5797238616615
 20
72.65647951815288
 30
0.0
 11
104.579731764484
 21
72.67461179613095
 31
0.0
  0
SPLINE
  5
89
330
1F
100
AcDbEntity
  8
NOLAYERNAME_001
  6
CONTINUOUS
 62
     7
100
AcDbSpline
210
0.0
220
0.0
230
1.0
 70
  1064
 71
     3
 72
    32
 73
    28
 74
    26
 42
0.000000001
 43
0.0000000001
 44
0.0
 12
0.9989823419868505
 22
0.04510299766608759
 32
0.0
 13
0.008367239437608552
 23
0.9999649940393882
 33
0.0
 40
0.0
 40
0.0
 40
0.0
 40
0.0
 40
0.241937624750208
 40
0.4836472085216887
 40
0.7337963377636469
 40
0.983380377712379
 40
1.223180918742692
 40
1.462500299271347
 40
1.952017668172183
 40
2.280472933860568
 40
2.609392474298595
 40
2.948292956771744
 40
3.288171211023165
 40
3.725475460736248
 40
4.163919193573117
 40
4.614971627160941
 40
5.065123512085338
 40
5.510606095904988
 40
5.952233731248563
 40
6.397358013902573
 40
6.835073564079855
 40
7.329229196820702
 40
7.808693757295391
 40
8.281821555091867
 40
8.734509357757807
 40
9.074357775336662
 40
9.381994677299602
 40
9.381994677299602
 40
9.381994677299602
 40
9.381994677299602
 10
100.5797317644839
 20
65.13667664200727
 30
0.0
 10
100.6602955694798
 20
65.14031401271542
 30
0.0
 10
100.8217206908079
 20
65.14232634410665
 30
0.0
 10
101.0643718202513
 20
65.17728044304354
 30
0.0
 10
101.3056262420605
 20
65.23197587356879
 30
0.0
 10
101.5403515327319
 20
65.30847242674982
 30
0.0
 10
101.7642880037159
 20
65.40326445683289
 30
0.0
 10
102.0507842225445
 20
65.55277816740927
 30
0.0
 10
102.3431090413465
 20
65.75241538585325
 30
0.0
 10
102.6313040342858
 20
66.00425481575516
 30
0.0
 10
102.8617124417496
 20
66.24397721678012
 30
0.0
 10
103.0743225098564
 20
66.50446247846114
 30
0.0
 10
103.2878588764667
 20
66.80946501145269
 30
0.0
 10
103.4945487320492
 20
67.15852307550831
 30
0.0
 10
103.6911565991634
 20
67.5550723274041
 30
0.0
 10
103.8628273501429
 20
67.96762155214435
 30
0.0
 10
104.0109910645723
 20
68.39159235499706
 30
0.0
 10
104.1365681598848
 20
68.8194657823141
 30
0.0
 10
104.242593758549
 20
69.25083302042427
 30
0.0
 10
104.3309168527404
 20
69.68350463243664
 30
0.0
 10
104.4067051530821
 20
70.13628747630548
 30
0.0
 10
104.4685885254537
 20
70.6027409838482
 30
0.0
 10
104.5165985892137
 20
71.08266545044442
 30
0.0
 10
104.5498974269147
 20
71.54996991212242
 30
0.0
 10
104.5687343517594
 20
71.97147248105556
 30
0.0
 10
104.5782404601266
 20
72.33810144799776
 30
0.0
 10
104.5788658377886
 20
72.55393747387366
 30
0.0
 10
104.5797238616614
 20
72.65647951815288
 30
0.0
 11
100.5797317644839
 21
65.13667664200727
 31
0.0
 11
100.8214231794716
 21
65.14758875413172
 31
0.0
 11
101.0609522084355
 21
65.17998269138228
 31
0.0
 11
101.30480979319
 21
65.23573271576082
 31
0.0
 11
101.542172652387
 21
65.31287586886567
 31
0.0
 11
101.7630513770162
 21
65.40624014728418
 31
0.0
 11
101.9752668557952
 21
65.51686725274762
 31
0.0
 11
102.3802574987876
 21
65.79183967599074
 31
0.0
 11
102.6279029043368
 21
66.00760486008863
 31
0.0
 11
102.8561181092188
 21
66.2444716672665
 31
0.0
 11
103.0707897499594
 21
66.50671129753292
 31
0.0
 11
103.2660528759435
 21
66.78490105173661
 31
0.0
 11
103.4895846329724
 21
67.1607581527959
 31
0.0
 11
103.6849581956827
 21
67.55326557674839
 31
0.0
 11
103.8588509479394
 21
67.96945016146782
 31
0.0
 11
104.0078588251248
 21
68.39422465698007
 31
0.0
 11
104.1337263489313
 21
68.82155602598714
 31
0.0
 11
104.2394784224244
 21
69.25033506844498
 31
0.0
 11
104.3287970081191
 21
69.68640595403326
 31
0.0
 11
104.4012977528335
 21
70.11807543973136
 31
0.0
 11
104.4665584554338
 21
70.607902786932
 31
0.0
 11
104.51451884933
 21
71.08496260013
 31
0.0
 11
104.5482510230098
 21
71.55688637947003
 31
0.0
 11
104.5687996251204
 21
72.00910756609646
 31
0.0
 11
104.5771497900429
 21
72.34885338531521
 31
0.0
 11
104.5797238616614
 21
72.65647951815288
 31
0.0
  0
ELLIPSE
  5
8A
330
1F
100
AcDbEntity
  8
NOLAYERNAME_001
  6
CONTINUOUS
 62
     7
100
AcDbEllipse
 10
49.82011183531017
 20
67.65726080882712
 30
0.0
 11
0.0
 21
7.5
 31
0.0
210
0.0
220
0.0
230
1.0
 40
0.1227845609029046
 41
2.888912398447745
 42
3.141592653589792
  0
LINE
  5
8B
330
1F
100
AcDbEntity
  8
NOLAYERNAME_001
  6
CONTINUOUS
 62
     7
100
AcDbLine
 10
49.82011183531017
 20
60.15726080882712
 30
0.0
 11
104.5797317644839
 21
60.15726080882712
 31
0.0
  0
LINE
  5
8C
330
1F
100
AcDbEntity
  8
NOLAYERNAME_001
  6
CONTINUOUS
 62
     7
100
AcDbLine
 10
49.57973176448394
 20
60.39541703468825
 30
0.0
 11
49.58989078361722
 21
60.39541703468825
 31
0.0
  0
ELLIPSE
  5
8D
330
1F
100
AcDbEntity
  8
NOLAYERNAME_001
  6
CONTINUOUS
 62
     7
100
AcDbEllipse
 10
49.82011183531017
 20
67.65726080882712
 30
0.0
 11
0.0
 21
7.5
 31
0.0
210
0.0
220
0.0
230
1.0
 40
0.1227845609029046
 41
3.141592653589792
 42
3.288790303566981
  0
LINE
  5
8E
330
1F
100
AcDbEntity
  8
NOLAYERNAME_001
  6
CONTINUOUS
 62
     7
100
AcDbLine
 10
52.57973176448394
 20
60.23836601243056
 30
0.0
 11
49.95517485230336
 21
60.23836601243056
 31
0.0
  0
LINE
  5
8F
330
1F
100
AcDbEntity
  8
NOLAYERNAME_001
  6
CONTINUOUS
 62
     7
100
AcDbLine
 10
52.57973176448394
 20
63.65726080882712
 30
0.0
 11
52.57973176448394
 21
60.23836601243055
 31
0.0
  0
LINE
  5
90
330
1F
100
AcDbEntity
  8
NOLAYERNAME_001
  6
CONTINUOUS
 62
     7
100
AcDbLine
 10
100.5797317644839
 20
65.13667664200727
 30
0.0
 11
52.29609138009394
 21
65.13667664200727
 31
0.0
  0
LINE
  5
91
330
1F
100
AcDbEntity
  8
NOLAYERNAME_001
  6
CONTINUOUS
 62
     7
100
AcDbLine
 10
100.5797317644839
 20
70.11609247518743
 30
0.0
 11
38.57973176448397
 21
70.11609247518743
 31
0.0
  0
LINE
  5
92
330
1F
100
AcDbEntity
  8
NOLAYERNAME_001
  6
CONTINUOUS
 62
     7
100
AcDbLine
 10
48.57973176448394
 20
67.65726080882712
 30
0.0
 11
38.57973176448395
 21
67.65726080882712
 31
0.0
  0
LINE
  5
93
330
1F
100
AcDbEntity
  8
NOLAYERNAME_001
  6
CONTINUOUS
 62
     7
100
AcDbLine
 10
49.58989078361719
 20
60.39541703468825
 30
0.0
 11
49.58989078361719
 21
62.53732747259151
 31
0.0
  0
ARC
  5
94
330
1F
100
AcDbEntity
  8
NOLAYERNAME_001
  6
CONTINUOUS
 62
     7
100
AcDbCircle
 10
49.18575188200424
 20
64.28119124235684
 30
0.0
 40
1.75
100
AcDbArc
 50
283.3522145719231
 51
296.0828448817255
  0
LINE
  5
95
330
1F
100
AcDbEntity
  8
NOLAYERNAME_001
  6
CONTINUOUS
 62
     7
100
AcDbLine
 10
49.95517485230334
 20
60.23836601243056
 30
0.0
 11
49.95517485230334
 21
62.66824420521714
 31
0.0
  0
ARC
  5
96
330
1F
100
AcDbEntity
  8
NOLAYERNAME_001
  6
CONTINUOUS
 62
     7
100
AcDbCircle
 10
49.18575188200424
 20
64.28119124235684
 30
0.0
 40
1.75
100
AcDbArc
 50
296.0828448817255
 51
186.237971325021
  0
LINE
  5
97
330
1F
100
AcDbEntity
  8
NOLAYERNAME_001
  6
CONTINUOUS
 62
     7
100
AcDbLine
 10
38.57973176448394
 20
55.15726080882712
 30
0.0
 11
38.57973176448394
 21
70.11609247518743
 31
0.0
  0
ARC
  5
98
330
1F
100
AcDbEntity
  8
NOLAYERNAME_001
  6
CONTINUOUS
 62
     7
100
AcDbCircle
 10
46.40473176448393
 20
60.74245495593095
 30
0.0
 40
0.24
100
AcDbArc
 50
15.49770896877726
 51
164.5022910312227
  0
ARC
  5
99
330
1F
100
AcDbEntity
  8
NOLAYERNAME_001
  6
CONTINUOUS
 62
     7
100
AcDbCircle
 10
45.74483332977667
 20
60.92543257267909
 30
0.0
 40
0.4447968694145122
100
AcDbArc
 50
255.4977089687773
 51
344.5022910312226
  0
ARC
  5
9A
330
1F
100
AcDbEntity
  8
NOLAYERNAME_001
  6
CONTINUOUS
 62
     7
100
AcDbCircle
 10
45.57334737685085
 20
60.26245495593093
 30
0.0
 40
0.24
100
AcDbArc
 50
75.49770896877726
 51
224.5022910312227
  0
ARC
  5
9B
330
1F
100
AcDbEntity
  8
NOLAYERNAME_001
  6
CONTINUOUS
 62
     7
100
AcDbCircle
 10
45.08493489506941
 20
59.78245495593092
 30
0.0
 40
0.4447968694145122
100
AcDbArc
 50
315.4977089687773
 51
44.50229103122272
  0
ARC
  5
9C
330
1F
100
AcDbEntity
  8
NOLAYERNAME_001
  6
CONTINUOUS
 62
     7
100
AcDbCircle
 10
45.57334737685085
 20
59.3024549559309
 30
0.0
 40
0.24
100
AcDbArc
 50
135.4977089687772
 51
284.5022910312226
  0
ARC
  5
9D
330
1F
100
AcDbEntity
  8
NOLAYERNAME_001
  6
CONTINUOUS
 62
     7
100
AcDbCircle
 10
45.74483332977667
 20
58.6394773391828
 30
0.0
 40
0.4447968694145122
100
AcDbArc
 50
15.49770896877726
 51
104.5022910312227
  0
ARC
  5
9E
330
1F
100
AcDbEntity
  8
NOLAYERNAME_001
  6
CONTINUOUS
 62
     7
100
AcDbCircle
 10
46.40473176448393
 20
58.82245495593094
 30
0.0
 40
0.24
100
AcDbArc
 50
195.4977089687773
 51
344.5022910312226
  0
ARC
  5
9F
330
1F
100
AcDbEntity
  8
NOLAYERNAME_001
  6
CONTINUOUS
 62
     7
100
AcDbCircle
 10
47.06463019919119
 20
58.6394773391828
 30
0.0
 40
0.4447968694145122
100
AcDbArc
 50
75.49770896877726
 51
164.5022910312227
  0
ARC
  5
A0
330
1F
100
AcDbEntity
  8
NOLAYERNAME_001
  6
CONTINUOUS
 62
     7
100
AcDbCircle
 10
47.23611615211701
 20
59.3024549559309
 30
0.0
 40
0.24
100
AcDbArc
 50
255.4977089687772
 51
44.50229103122267
  0
ARC
  5
A1
330
1F
100
AcDbEntity
  8
NOLAYERNAME_001
  6
CONTINUOUS
 62
     7
100
AcDbCircle
 10
47.72452863389844
 20
59.78245495593092
 30
0.0
 40
0.4447968694145122
100
AcDbArc
 50
135.4977089687772
 51
224.5022910312227
  0
ARC
  5
A2
330
1F
100
AcDbEntity
  8
NOLAYERNAME_001
  6
CONTINUOUS
 62
     7
100
AcDbCircle
 10
47.23611615211701
 20
60.26245495593093
 30
0.0
 40
0.24
100
AcDbArc
 50
315.4977089687772
 51
104.5022910312227
  0
ARC
  5
A3
330
1F
100
AcDbEntity
  8
NOLAYERNAME_001
  6
CONTINUOUS
 62
     7
100
AcDbCircle
 10
47.06463019919119
 20
60.92543257267909
 30
0.0
 40
0.4447968694145122
100
AcDbArc
 50
195.4977089687773
 51
284.5022910312226
  0
CIRCLE
  5
A4
330
1F
100
AcDbEntity
  8
NOLAYERNAME_001
  6
CONTINUOUS
 62
     7
100
AcDbCircle
 10
46.40473176448393
 20
59.78245495593092
 30
0.0
 40
1.55
  0
LINE
  5
A5
330
1F
100
AcDbEntity
  8
NOLAYERNAME_001
  6
CONTINUOUS
 62
     7
100
AcDbLine
 10
38.57973176448394
 20
67.65726080882712
 30
0.0
 11
35.98165555313062
 21
69.15726080882712
 31
0.0
  0
LINE
  5
A6
330
1F
100
AcDbEntity
  8
NOLAYERNAME_001
  6
CONTINUOUS
 62
     7
100
AcDbLine
 10
38.57973176448394
 20
67.65726080882712
 30
0.0
 11
35.98165555313062
 21
66.15726080882712
 31
0.0
  0
LINE
  5
A7
330
1F
100
AcDbEntity
  8
NOLAYERNAME_001
  6
CONTINUOUS
 62
     7
100
AcDbLine
 10
38.57973176448394
 20
62.61609247518743
 30
0.0
 11
35.98165555313062
 21
64.11609247518743
 31
0.0
  0
LINE
  5
A8
330
1F
100
AcDbEntity
  8
NOLAYERNAME_001
  6
CONTINUOUS
 62
     7
100
AcDbLine
 10
38.57973176448394
 20
62.61609247518743
 30
0.0
 11
35.98165555313062
 21
61.11609247518743
 31
0.0
  0
LINE
  5
A9
330
1F
100
AcDbEntity
  8
NOLAYERNAME_001
  6
CENTER
 62
     7
100
AcDbLine
 10
35.93622655702222
 20
62.61609247518743
 30
0.0
 11
53.14458778563505
 21
62.61609247518743
 31
0.0
  0
LINE
  5
AA
330
1F
100
AcDbEntity
  8
NOLAYERNAME_001
  6
CONTINUOUS
 62
     7
100
AcDbLine
 10
104.5797317644839
 20
60.15726080882712
 30
0.0
 11
104.5797317644839
 21
75.15726080882712
 31
0.0
  0
LINE
  5
AB
330
1F
100
AcDbEntity
  8
NOLAYERNAME_001
  6
CENTER
 62
     7
100
AcDbLine
 10
35.16021433489482
 20
67.65726080882712
 30
0.0
 11
187.1763455634824
 21
67.65726080882712
 31
0.0
  0
LINE
  5
AC
330
1F
100
AcDbEntity
  8
NOLAYERNAME_001
  6
CONTINUOUS
 62
     7
100
AcDbLine
 10
184.5797317644839
 20
67.65726080882712
 30
0.0
 11
187.1778079758372
 21
69.15726080882712
 31
0.0
  0
LINE
  5
AD
330
1F
100
AcDbEntity
  8
NOLAYERNAME_001
  6
CONTINUOUS
 62
     7
100
AcDbLine
 10
184.5797317644839
 20
67.65726080882712
 30
0.0
 11
187.1778079758372
 21
66.15726080882712
 31
0.0
  0
LINE
  5
AE
330
1F
100
AcDbEntity
  8
NOLAYERNAME_001
  6
CENTER
 62
     7
100
AcDbLine
 10
229.0037369622031
 20
81.64817807495297
 30
0.0
 11
229.0037369622031
 21
53.29614091019016
 31
0.0
  0
LINE
  5
AF
330
1F
100
AcDbEntity
  8
NOLAYERNAME_001
  6
CENTER
 62
     7
100
AcDbLine
 10
243.5227237360938
 20
67.65726080882712
 30
0.0
 11
214.7133956493187
 21
67.65726080882712
 31
0.0
  0
LINE
  5
B0
330
1F
100
AcDbEntity
  8
NOLAYERNAME_001
  6
CONTINUOUS
 62
     7
100
AcDbLine
 10
217.5037369622031
 20
62.7582813232608
 30
0.0
 11
217.5037369622031
 21
72.55624029439352
 31
0.0
  0
ARC
  5
B1
330
1F
100
AcDbEntity
  8
NOLAYERNAME_001
  6
CONTINUOUS
 62
     7
100
AcDbCircle
 10
229.0037369622031
 20
67.65726080882712
 30
0.0
 40
12.5
100
AcDbArc
 50
203.073918065631
 51
156.926081934369
  0
LINE
  5
B2
330
1F
100
AcDbEntity
  8
NOLAYERNAME_001
  6
CONTINUOUS
 62
     7
100
AcDbLine
 10
119.5797317644839
 20
72.55624029439349
 30
0.0
 11
174.5797317644839
 21
72.55624029439349
 31
0.0
  0
LINE
  5
B3
330
1F
100
AcDbEntity
  8
NOLAYERNAME_001
  6
CONTINUOUS
 62
     7
100
AcDbLine
 10
174.5797317644839
 20
62.7582813232608
 30
0.0
 11
119.5797317644839
 21
62.7582813232608
 31
0.0
  0
LINE
  5
B4
330
1F
100
AcDbEntity
  8
NOLAYERNAME_001
  6
CONTINUOUS
 62
     7
100
AcDbLine
 10
174.5797317644839
 20
62.7582813232608
 30
0.0
 11
174.5797317644839
 21
72.55624029439352
 31
0.0
  0
LINE
  5
B5
330
1F
100
AcDbEntity
  8
NOLAYERNAME_001
  6
CONTINUOUS
 62
     7
100
AcDbLine
 10
119.5797317644839
 20
62.7582813232608
 30
0.0
 11
119.5797317644839
 21
72.55624029439352
 31
0.0
  0
LINE
  5
B6
330
1F
100
AcDbEntity
  8
NOLAYERNAME_001
  6
CONTINUOUS
 62
     7
100
AcDbLine
 10
174.5797317644839
 20
72.55624029439349
 30
0.0
 11
119.5797317644839
 21
62.75828132326077
 31
0.0
  0
LINE
  5
B7
330
1F
100
AcDbEntity
  8
NOLAYERNAME_001
  6
CONTINUOUS
 62
     7
100
AcDbLine
 10
119.5797317644839
 20
72.55624029439349
 30
0.0
 11
174.5797317644839
 21
62.75828132326077
 31
0.0
  0
ARC
  5
B8
330
1F
100
AcDbEntity
  8
NOLAYERNAME_001
  6
CONTINUOUS
 62
     7
100
AcDbCircle
 10
48.57973176448394
 20
63.65726080882712
 30
0.0
 40
4.000000000000001
100
AcDbArc
 50
0.0
 51
90.0
  0
LINE
  5
B9
330
1F
100
AcDbEntity
  8
NOLAYERNAME_001
  6
PHANTOM
 62
     7
100
AcDbLine
 10
100.5797317644839
 20
54.09404779027085
 30
0.0
 11
100.5797317644839
 21
80.50879562429822
 31
0.0
  0
LINE
  5
BA
330
1F
100
AcDbEntity
  8
NOLAYERNAME_001
  6
CONTINUOUS
 62
     7
100
AcDbLine
 10
47.79763701183653
 20
55.20575487580845
 30
0.0
 11
38.57973176448392
 21
55.20575487580845
 31
0.0
  0
LINE
  5
BB
330
1F
100
AcDbEntity
  8
NOLAYERNAME_001
  6
CONTINUOUS
 62
     7
100
AcDbLine
 10
38.57973176448394
 20
55.15726080882712
 30
0.0
 11
47.88163119971385
 21
55.15726080882712
 31
0.0
  0
ARC
  5
BC
330
1F
100
AcDbEntity
  8
NOLAYERNAME_001
  6
CONTINUOUS
 62
     7
100
AcDbCircle
 10
41.5547317644839
 20
59.82362328957061
 30
0.0
 40
1.75
100
AcDbArc
 50
52.08309694445136
 51
301.2367209294097
  0
LINE
  5
C3
330
1F
100
AcDbEntity
  8
NOLAYERNAME_001
  6
PHANTOM
 62
     7
100
AcDbLine
 10
48.97973176448392
 20
70.61609247518743
 30
0.0
 11
38.57973176448394
 21
70.61609247518743
 31
0.0
  0
LINE
  5
C6
330
1F
100
AcDbEntity
  8
NOLAYERNAME_001
  6
CONTINUOUS
 62
     7
100
AcDbLine
 10
35.16021433489482
 20
54.65726080882712
 30
0.0
 11
48.97242736816406
 21
54.65726080882712
 31
0.0
  0
LWPOLYLINE
  5
C8
330
1F
100
AcDbEntity
  8
NOLAYERNAME_001
  6
CONTINUOUS
 62
     7
100
AcDbPolyline
 90
        2
 70
     0
 43
0.992
 10
147.0797318124501
 20
45.74706943929088
 10
147.0797318124501
 20
41.17906943929088
  0
LWPOLYLINE
  5
C9
330
1F
100
AcDbEntity
  8
NOLAYERNAME_001
  6
CONTINUOUS
 62
     7
100
AcDbPolyline
 90
        2
 70
     0
 43
0.992
 10
147.0797318124501
 20
87.54577937631248
 10
147.0797318124501
 20
92.1137793763125
  0
LEADER
  5
CA
330
1F
100
AcDbEntity
  8
NOLAYERNAME_001
  6
CONTINUOUS
 62
     7
100
AcDbLeader
  3
STANDARD
 76
     2
 10
147.5757318124502
 20
43.46306944520562
 30
0.0
 10
153.5757318124502
 20
43.4630695167549
 30
0.0
1001
ACAD
1000
DSTYLE
1002
{
1070
     5
1000
OPEN30
1070
    41
1040
2.992
1070
   341
1005
CB
1002
}
  0
MTEXT
  5
D1
330
1F
100
AcDbEntity
  8
NOLAYERNAME_001
  6
CONTINUOUS
 62
     7
100
AcDbMText
 10
154.679731764484
 20
40.26306920749278
 30
0.0
 40
8.0
 41
0.0
 71
     7
 72
     5
  1
\W0.8333;Ａ
1001
ACAD
1000
MTEXTBEGIN
1070
    44
1040
0.6
1000
MTEXTEND
1000
ACAD_MTEXT_DEFINED_HEIGHT_BEGIN
1070
    46
1040
8.0
1000
ACAD_MTEXT_DEFINED_HEIGHT_END
  0
LEADER
  5
D2
330
1F
100
AcDbEntity
  8
NOLAYERNAME_001
  6
CONTINUOUS
 62
     7
100
AcDbLeader
  3
STANDARD
 76
     2
 10
147.5757318124502
 20
89.82977938222723
 30
0.0
 10
153.5757318124502
 20
89.82977945377651
 30
0.0
1001
ACAD
1000
DSTYLE
1002
{
1070
     5
1000
OPEN30
1070
    41
1040
2.992
1070
   341
1005
CB
1002
}
  0
MTEXT
  5
D3
330
1F
100
AcDbEntity
  8
NOLAYERNAME_001
  6
CONTINUOUS
 62
     7
100
AcDbMText
 10
154.679731764484
 20
86.62977914451437
 30
0.0
 40
8.0
 41
0.0
 71
     7
 72
     5
  1
\W0.8333;Ａ
1001
ACAD
1000
MTEXTBEGIN
1070
    44
1040
0.6
1000
MTEXTEND
1000
ACAD_MTEXT_DEFINED_HEIGHT_BEGIN
1070
    46
1040
8.0
1000
ACAD_MTEXT_DEFINED_HEIGHT_END
  0
DIMENSION
  5
D4
330
1F
100
AcDbEntity
  8
NOLAYERNAME_001
  6
CONTINUOUS
 62
     7
100
AcDbDimension
  2
*D2
 10
217.5037369622031
 20
44.04563629569236
 30
0.0
 11
229.5037369622031
 21
44.04563629569236
 31
0.0
 70
   160
  3
STANDARD
100
AcDbAlignedDimension
 13
241.5037369622031
 23
67.65726080882712
 33
0.0
 14
217.5037369622031
 24
62.7582813232608
 34
0.0
 50
180.0
100
AcDbRotatedDimension
1001
ACAD
1000
DSTYLE
1002
{
1070
     5
1000
OPEN30
1070
   347
1005
16
1070
   372
1070
    25
1070
   346
1005
16
1070
   371
1070
    25
1070
   345
1005
16
1070
   178
1070
     0
1070
   177
1070
     0
1070
   176
1070
     0
1070
    47
1040
0.0
1070
    48
1040
0.0
1070
    78
1070
     8
1070
   271
1070
     1
1070
    41
1040
1.5
1070
    44
1040
2.75
1070
   147
1040
1.0
1070
   140
1040
4.0
1002
}
  0
DIMENSION
  5
E2
330
1F
100
AcDbEntity
  8
NOLAYERNAME_001
  6
CONTINUOUS
 62
     7
100
AcDbDimension
  2
*D3
 10
49.57973176448394
 20
55.42242412644109
 30
0.0
 11
55.29507037767759
 21
49.95230411184419
 31
0.0
 70
   162
  1
０°
  3
STANDARD
100
AcDb2LineAngularDimension
 13
49.57973176448394
 23
54.72242412644107
 33
0.0
 14
49.57711406965315
 24
54.82238985893863
 34
0.0
 15
49.57973176448394
 25
55.32242412644109
 35
0.0
 16
49.64469561410114
 26
47.27830429160748
 36
0.0
1001
ACAD
1000
DSTYLE
1002
{
1070
     5
1000
OPEN30
1070
   347
1005
16
1070
   372
1070
    25
1070
   346
1005
16
1070
   371
1070
    25
1070
   345
1005
16
1070
   178
1070
     0
1070
   177
1070
     0
1070
   176
1070
     0
1070
    47
1040
0.0
1070
    48
1040
0.0
1070
    79
1070
     2
1070
   179
1070
     1
1070
    41
1040
1.5
1070
    44
1040
2.749999999999997
1070
   147
1040
1.0
1070
   140
1040
4.0
1002
}
  0
DIMENSION
  5
F4
330
1F
100
AcDbEntity
  8
NOLAYERNAME_001
  6
CONTINUOUS
 62
     7
100
AcDbDimension
  2
*D4
 10
49.57973176448394
 20
39.71342127415949
 30
0.0
 11
75.07973176448394
 21
39.71342127415949
 31
0.0
 70
   160
  3
STANDARD
100
AcDbAlignedDimension
 13
100.5797317644839
 23
54.09404779027085
 33
0.0
 14
49.57973176448394
 24
55.32242412644109
 34
0.0
 50
180.0
100
AcDbRotatedDimension
1001
ACAD
1000
DSTYLE
1002
{
1070
     5
1000
OPEN30
1070
   347
1005
16
1070
   372
1070
    25
1070
   346
1005
16
1070
   371
1070
    25
1070
   345
1005
16
1070
   178
1070
     0
1070
   177
1070
     0
1070
   176
1070
     0
1070
    47
1040
0.0
1070
    48
1040
0.0
1070
    78
1070
     8
1070
   271
1070
     1
1070
    41
1040
1.5
1070
    44
1040
2.75
1070
   147
1040
1.0
1070
   140
1040
4.0
1002
}
  0
DIMENSION
  5
102
330
1F
100
AcDbEntity
  8
NOLAYERNAME_001
  6
CONTINUOUS
 62
     7
100
AcDbDimension
  2
*D5
 10
49.57973176448394
 20
30.43813158448648
 30
0.0
 11
44.07973176448394
 21
30.43813158448648
 31
0.0
 70
   160
  3
STANDARD
100
AcDbAlignedDimension
 13
38.57973176448394
 23
55.15726080882712
 33
0.0
 14
49.57973176448394
 24
55.32242412644109
 34
0.0
100
AcDbRotatedDimension
1001
ACAD
1000
DSTYLE
1002
{
1070
     5
1000
OPEN30
1070
   347
1005
16
1070
   372
1070
    25
1070
   346
1005
16
1070
   371
1070
    25
1070
   345
1005
16
1070
   178
1070
     0
1070
   177
1070
     0
1070
   176
1070
     0
1070
    47
1040
0.0
1070
    48
1040
0.0
1070
    78
1070
     8
1070
   271
1070
     1
1070
    41
1040
1.5
1070
    44
1040
2.750000000000004
1070
   147
1040
1.0
1070
   140
1040
4.0
1002
}
  0
DIMENSION
  5
110
330
1F
100
AcDbEntity
  8
NOLAYERNAME_001
  6
CONTINUOUS
 62
     7
100
AcDbDimension
  2
*D6
 10
49.57973176448394
 20
30.43813158448649
 30
0.0
 11
77.07973176448392
 21
30.43813158448648
 31
0.0
 70
   160
  3
STANDARD
100
AcDbAlignedDimension
 13
104.5797317644839
 23
60.15726080882712
 33
0.0
 14
49.57973176448394
 24
55.32242412644109
 34
0.0
 50
180.0
100
AcDbRotatedDimension
1001
ACAD
1000
DSTYLE
1002
{
1070
     5
1000
OPEN30
1070
   347
1005
16
1070
   372
1070
    25
1070
   346
1005
16
1070
   371
1070
    25
1070
   345
1005
16
1070
   178
1070
     0
1070
   177
1070
     0
1070
   176
1070
     0
1070
    47
1040
0.0
1070
    48
1040
0.0
1070
    78
1070
     8
1070
   271
1070
     1
1070
    41
1040
1.5
1070
    44
1040
2.750000000000002
1070
   147
1040
1.0
1070
   140
1040
4.0
1002
}
  0
DIMENSION
  5
11E
330
1F
100
AcDbEntity
  8
NOLAYERNAME_001
  6
CONTINUOUS
 62
     7
100
AcDbDimension
  2
*D7
 10
38.57973176448394
 20
22.0888983751878
 30
0.0
 11
71.57973176448392
 21
22.0888983751878
 31
0.0
 70
   160
  3
STANDARD
100
AcDbAlignedDimension
 13
104.5797317644839
 23
60.15726080882712
 33
0.0
 14
38.57973176448394
 24
55.15726080882712
 34
0.0
 50
180.0
100
AcDbRotatedDimension
1001
ACAD
1000
DSTYLE
1002
{
1070
     5
1000
OPEN30
1070
   347
1005
16
1070
   372
1070
    25
1070
   346
1005
16
1070
   371
1070
    25
1070
   345
1005
16
1070
   178
1070
     0
1070
   177
1070
     0
1070
   176
1070
     0
1070
    47
1040
0.0
1070
    48
1040
0.0
1070
    78
1070
     8
1070
   271
1070
     1
1070
    41
1040
1.5
1070
    44
1040
2.75
1070
   147
1040
1.0
1070
   140
1040
4.0
1002
}
  0
DIMENSION
  5
12C
330
1F
100
AcDbEntity
  8
NOLAYERNAME_001
  6
CONTINUOUS
 62
     7
100
AcDbDimension
  2
*D8
 10
104.5797317644839
 20
22.0888983751878
 30
0.0
 11
144.5797317644839
 21
22.0888983751878
 31
0.0
 70
   160
  3
STANDARD
100
AcDbAlignedDimension
 13
184.5797317644839
 23
58.15726080882712
 33
0.0
 14
104.5797317644839
 24
60.15726080882712
 34
0.0
 50
180.0
100
AcDbRotatedDimension
1001
ACAD
1000
DSTYLE
1002
{
1070
     5
1000
OPEN30
1070
   347
1005
16
1070
   372
1070
    25
1070
   346
1005
16
1070
   371
1070
    25
1070
   345
1005
16
1070
   178
1070
     0
1070
   177
1070
     0
1070
   176
1070
     0
1070
    47
1040
0.0
1070
    48
1040
0.0
1070
    78
1070
     8
1070
   271
1070
     1
1070
    41
1040
1.5
1070
    44
1040
2.75
1070
   147
1040
1.0
1070
   140
1040
4.0
1002
}
  0
DIMENSION
  5
13A
330
1F
100
AcDbEntity
  8
NOLAYERNAME_001
  6
CONTINUOUS
 62
     7
100
AcDbDimension
  2
*D9
 10
38.57973176448394
 20
14.41297948701891
 30
0.0
 11
111.5797317644839
 21
14.4129794870189
 31
0.0
 70
   160
  3
STANDARD
100
AcDbAlignedDimension
 13
184.5797317644839
 23
58.15726080882712
 33
0.0
 14
38.57973176448394
 24
55.15726080882712
 34
0.0
 50
180.0
100
AcDbRotatedDimension
1001
ACAD
1000
DSTYLE
1002
{
1070
     5
1000
OPEN30
1070
   347
1005
16
1070
   372
1070
    25
1070
   346
1005
16
1070
   371
1070
    25
1070
   345
1005
16
1070
   178
1070
     0
1070
   177
1070
     0
1070
   176
1070
     0
1070
    47
1040
0.0
1070
    48
1040
0.0
1070
    78
1070
     8
1070
   271
1070
     1
1070
    41
1040
1.5
1070
    44
1040
2.75
1070
   147
1040
1.0
1070
   140
1040
4.0
1002
}
  0
DIMENSION
  5
148
330
1F
100
AcDbEntity
  8
NOLAYERNAME_001
  6
CONTINUOUS
 62
     7
100
AcDbDimension
  2
*D10
 10
32.59825897216797
 20
62.61609247518743
 30
0.0
 11
32.59825897216797
 21
79.15726067372061
 31
0.0
 70
   160
  3
STANDARD
100
AcDbAlignedDimension
 13
35.16021433489482
 23
67.65726080882712
 33
0.0
 14
35.93622655702222
 24
62.61609247518743
 34
0.0
 50
-90.0
100
AcDbRotatedDimension
1001
ACAD
1000
DSTYLE
1002
{
1070
     5
1000
OPEN30
1070
   347
1005
16
1070
   372
1070
    25
1070
   346
1005
16
1070
   371
1070
    25
1070
   345
1005
16
1070
   178
1070
     0
1070
   177
1070
     0
1070
   176
1070
     0
1070
    47
1040
0.0
1070
    48
1040
0.0
1070
    78
1070
     8
1070
    41
1040
1.5
1070
    44
1040
2.750000000000007
1070
   147
1040
1.0
1070
   140
1040
4.0
1002
}
  0
DIMENSION
  5
157
330
1F
100
AcDbEntity
  8
NOLAYERNAME_001
  6
CONTINUOUS
 62
     7
100
AcDbDimension
  2
*D11
 10
14.68167114257812
 20
54.65726080882712
 30
0.0
 11
14.68167114257812
 21
67.65726072140433
 31
0.0
 70
   160
  3
STANDARD
100
AcDbAlignedDimension
 13
35.16021433489482
 23
80.65726080882712
 33
0.0
 14
35.16021433489482
 24
54.65726080882712
 34
0.0
 50
-90.0
100
AcDbRotatedDimension
1001
ACAD
1000
DSTYLE
1002
{
1070
     5
1000
OPEN30
1070
    75
1070
     1
1070
   281
1070
     1
1070
   282
1070
     0
1070
   347
1005
16
1070
   372
1070
    25
1070
   346
1005
16
1070
   371
1070
    25
1070
   345
1005
16
1070
   178
1070
     0
1070
   177
1070
     0
1070
   176
1070
     0
1070
     3
1000
%%c<>
1070
    47
1040
0.0
1070
    48
1040
0.0
1070
    78
1070
     8
1070
   271
1070
     1
1070
    41
1040
1.5
1070
    44
1040
2.750000000000007
1070
   147
1040
1.0
1070
   140
1040
4.0
1002
}
  0
DIMENSION
  5
165
330
1F
100
AcDbEntity
  8
NOLAYERNAME_001
  6
CONTINUOUS
 62
     7
100
AcDbDimension
  2
*D12
 10
23.55087280273438
 20
70.61609247518743
 30
0.0
 11
23.55087280273438
 21
62.63667655458448
 31
0.0
 70
   160
  3
STANDARD
100
AcDbAlignedDimension
 13
35.16021433489482
 23
54.65726080882712
 33
0.0
 14
38.57973176448394
 24
70.61609247518743
 34
0.0
 50
90.0
100
AcDbRotatedDimension
1001
ACAD
1000
DSTYLE
1002
{
1070
     5
1000
OPEN30
1070
   347
1005
16
1070
   372
1070
    25
1070
   346
1005
16
1070
   371
1070
    25
1070
   345
1005
16
1070
   178
1070
     0
1070
   177
1070
     0
1070
   176
1070
     0
1070
     3
1000
%%c<>
1070
    47
1040
0.0
1070
    48
1040
0.0
1070
    78
1070
     8
1070
   271
1070
     1
1070
    41
1040
1.5
1070
    44
1040
2.750000000000007
1070
   147
1040
1.0
1070
   140
1040
4.0
1002
}
  0
DIMENSION
  5
173
330
1F
100
AcDbEntity
  8
NOLAYERNAME_001
  6
CONTINUOUS
 62
     7
100
AcDbDimension
  2
*D13
 10
200.2819698017393
 20
80.15726080882712
 30
0.0
 11
200.2819698017393
 21
67.65726072140433
 31
0.0
 70
   160
  3
STANDARD
100
AcDbAlignedDimension
 13
181.5797317644839
 23
55.15726080882712
 33
0.0
 14
181.5797317644839
 24
80.15726080882712
 34
0.0
 50
90.0
100
AcDbRotatedDimension
1001
ACAD
1000
DSTYLE
1002
{
1070
     5
1000
OPEN30
1070
   347
1005
16
1070
   372
1070
    25
1070
   346
1005
16
1070
   371
1070
    25
1070
   345
1005
16
1070
   178
1070
     0
1070
   177
1070
     0
1070
   176
1070
     0
1070
     3
1000
%%c<>
1070
    47
1040
0.0
1070
    48
1040
0.0
1070
    78
1070
     8
1070
   271
1070
     1
1070
    41
1040
1.5
1070
    44
1040
2.75
1070
   147
1040
1.0
1070
   140
1040
4.0
1002
}
  0
MTEXT
  5
181
330
1F
100
AcDbEntity
  8
NOLAYERNAME_001
 62
     7
100
AcDbMText
 10
224.2037368906775
 20
35.07164793574918
 30
0.0
 40
4.0
 41
0.0
 71
     4
 72
     5
  1
\A1;\W0.8333;\LＡ－Ａ\l
1001
ACAD
1000
ACAD_MTEXT_DEFINED_HEIGHT_BEGIN
1070
    46
1040
4.0
1000
ACAD_MTEXT_DEFINED_HEIGHT_END
  0
MTEXT
  5
182
330
1F
100
AcDbEntity
  8
NOLAYERNAME_001
 62
     7
100
AcDbMText
 10
125.8982772827148
 20
110.3516807556152
 30
0.0
 40
4.5
 41
0.0
 71
     5
 72
     5
  1
\A1;\W0.8333;ウラザグル　ＵＺＨ２５－１８Ｔ－Ｍ１６ＣＳ
1001
ACAD
1000
ACAD_MTEXT_DEFINED_HEIGHT_BEGIN
1070
    46
1040
4.5
1000
ACAD_MTEXT_DEFINED_HEIGHT_END
  0
ENDSEC
  0
SECTION
  2
OBJECTS
  0
DICTIONARY
  5
C
330
0
100
AcDbDictionary
  3
ACAD_GROUP
350
D
  3
ACAD_IMAGE_VARS
350
1CF
  3
ACAD_MLINESTYLE
350
17
  3
ACAD_SCALELIST
350
47
  3
ACDBVARIABLEDICTIONARY
350
183
  3
APPDATA
350
1CD
  3
DWGPROPS
350
1D1
  0
DICTIONARY
  5
D
102
{ACAD_REACTORS
330
C
102
}
330
C
100
AcDbDictionary
  0
RASTERVARIABLES
  5
1CF
102
{ACAD_REACTORS
330
C
102
}
330
C
100
AcDbRasterVariables
 90
        0
 70
     1
 71
     1
 72
     1
  0
DICTIONARY
  5
17
102
{ACAD_REACTORS
330
C
102
}
330
C
100
AcDbDictionary
  3
STANDARD
350
18
  0
DICTIONARY
  5
47
102
{ACAD_REACTORS
330
C
102
}
330
C
100
AcDbDictionary
  0
DICTIONARY
  5
183
102
{ACAD_REACTORS
330
C
102
}
330
C
100
AcDbDictionary
  3
DIMASSOC
350
18A
  3
HIDETEXT
350
18B
  0
DICTIONARY
  5
1CD
102
{ACAD_REACTORS
330
C
102
}
330
C
100
AcDbDictionary
  0
XRECORD
  5
1D1
102
{ACAD_REACTORS
330
C
102
}
330
C
100
AcDbXrecord
  1
DWGPROPS COOKIE
  2

  3

  4

  6
File was created by TR2_DExp
  7

  8
kaihatu03
  9

300
=
301
=
302
=
303
=
304
=
305
=
306
=
307
=
308
=
309
=
 40
0.0
 41
2455188.375
 42
2457855.222573623
  1

 90
        0
  0
MLINESTYLE
  5
18
102
{ACAD_REACTORS
330
17
102
}
330
17
100
AcDbMlineStyle
  2
Standard
 70
     0
  3

 62
   256
 51
90.0
 52
90.0
 71
     2
 49
0.5
 62
   256
  6
BYLAYER
 49
-0.5
 62
   256
  6
BYLAYER
  0
DICTIONARYVAR
  5
18A
102
{ACAD_REACTORS
330
183
102
}
330
183
100
DictionaryVariables
280
     0
  1
2
  0
DICTIONARYVAR
  5
18B
102
{ACAD_REACTORS
330
183
102
}
330
183
100
DictionaryVariables
280
     0
  1
1
  0
ENDSEC
  0
EOF
