  0
SECTION
  2
HEADER
  9
$ACADVER
  1
AC1015
  9
$ACADMAINTVER
 70
     6
  9
$DWGCODEPAGE
  3
ANSI_932
  9
$INSBASE
 10
0.0
 20
0.0
 30
0.0
  9
$EXTMIN
 10
33.553314
 20
23.259811
 30
0.0
  9
$EXTMAX
 10
295.601196
 20
202.061325
 30
0.0
  9
$LIMMIN
 10
0.0
 20
0.0
  9
$LIMMAX
 10
12.0
 20
9.0
  9
$ORTHOMODE
 70
     0
  9
$REGENMODE
 70
     1
  9
$FILLMODE
 70
     1
  9
$QTEXTMODE
 70
     0
  9
$MIRRTEXT
 70
     1
  9
$LTSCALE
 40
3.172366
  9
$ATTMODE
 70
     1
  9
$TEXTSIZE
 40
3.2
  9
$TRACEWID
 40
1.0
  9
$TEXTSTYLE
  7
Standard
  9
$CLAYER
  8
0
  9
$CELTYPE
  6
ByLayer
  9
$CECOLOR
 62
   256
  9
$CELTSCALE
 40
1.0
  9
$DISPSILH
 70
     0
  9
$DIMSCALE
 40
1.0
  9
$DIMASZ
 40
2.5
  9
$DIMEXO
 40
0.625
  9
$DIMDLI
 40
3.75
  9
$DIMRND
 40
0.0
  9
$DIMDLE
 40
0.0
  9
$DIMEXE
 40
1.25
  9
$DIMTP
 40
0.0
  9
$DIMTM
 40
0.0
  9
$DIMTXT
 40
2.5
  9
$DIMCEN
 40
0.09
  9
$DIMTSZ
 40
0.0
  9
$DIMTOL
 70
     0
  9
$DIMLIM
 70
     0
  9
$DIMTIH
 70
     0
  9
$DIMTOH
 70
     0
  9
$DIMSE1
 70
     0
  9
$DIMSE2
 70
     0
  9
$DIMTAD
 70
     0
  9
$DIMZIN
 70
     8
  9
$DIMBLK
  1

  9
$DIMASO
 70
     1
  9
$DIMSHO
 70
     0
  9
$DIMPOST
  1

  9
$DIMAPOST
  1

  9
$DIMALT
 70
     0
  9
$DIMALTD
 70
     3
  9
$DIMALTF
 40
0.03937
  9
$DIMLFAC
 40
1.0
  9
$DIMTOFL
 70
     1
  9
$DIMTVP
 40
0.0
  9
$DIMTIX
 70
     0
  9
$DIMSOXD
 70
     0
  9
$DIMSAH
 70
     0
  9
$DIMBLK1
  1

  9
$DIMBLK2
  1

  9
$DIMSTYLE
  2
ISO-25
  9
$DIMCLRD
 70
     0
  9
$DIMCLRE
 70
     0
  9
$DIMCLRT
 70
     0
  9
$DIMTFAC
 40
1.0
  9
$DIMGAP
 40
0.625
  9
$DIMJUST
 70
     0
  9
$DIMSD1
 70
     0
  9
$DIMSD2
 70
     0
  9
$DIMTOLJ
 70
     0
  9
$DIMTZIN
 70
     8
  9
$DIMALTZ
 70
     0
  9
$DIMALTTZ
 70
     0
  9
$DIMUPT
 70
     0
  9
$DIMDEC
 70
     2
  9
$DIMTDEC
 70
     2
  9
$DIMALTU
 70
     2
  9
$DIMALTTD
 70
     3
  9
$DIMTXSTY
  7
Standard
  9
$DIMAUNIT
 70
     0
  9
$DIMADEC
 70
     0
  9
$DIMALTRND
 40
0.0
  9
$DIMAZIN
 70
     0
  9
$DIMDSEP
 70
    44
  9
$DIMATFIT
 70
     3
  9
$DIMFRAC
 70
     0
  9
$DIMLDRBLK
  1

  9
$DIMLUNIT
 70
     2
  9
$DIMLWD
 70
    -2
  9
$DIMLWE
 70
    -2
  9
$DIMTMOVE
 70
     0
  9
$LUNITS
 70
     2
  9
$LUPREC
 70
     4
  9
$SKETCHINC
 40
1.0
  9
$FILLETRAD
 40
0.0
  9
$AUNITS
 70
     0
  9
$AUPREC
 70
     0
  9
$MENU
  1
.
  9
$ELEVATION
 40
0.0
  9
$PELEVATION
 40
0.0
  9
$THICKNESS
 40
0.0
  9
$LIMCHECK
 70
     0
  9
$CHAMFERA
 40
10.0
  9
$CHAMFERB
 40
10.0
  9
$CHAMFERC
 40
20.0
  9
$CHAMFERD
 40
0.0
  9
$SKPOLY
 70
     0
  9
$TDCREATE
 40
2454798.606979167
  9
$TDUCREATE
 40
2454798.231979167
  9
$TDUPDATE
 40
2454798.606979178
  9
$TDUUPDATE
 40
2454798.231979178
  9
$TDINDWG
 40
0.0000000116
  9
$TDUSRTIMER
 40
0.0000000116
  9
$USRTIMER
 70
     1
  9
$ANGBASE
 50
0.0
  9
$ANGDIR
 70
     0
  9
$PDMODE
 70
     0
  9
$PDSIZE
 40
0.0
  9
$PLINEWID
 40
0.0
  9
$SPLFRAME
 70
     0
  9
$SPLINETYPE
 70
     6
  9
$SPLINESEGS
 70
     8
  9
$HANDSEED
  5
678
  9
$SURFTAB1
 70
     6
  9
$SURFTAB2
 70
     6
  9
$SURFTYPE
 70
     6
  9
$SURFU
 70
     6
  9
$SURFV
 70
     6
  9
$UCSBASE
  2

  9
$UCSNAME
  2

  9
$UCSORG
 10
0.0
 20
0.0
 30
0.0
  9
$UCSXDIR
 10
1.0
 20
0.0
 30
0.0
  9
$UCSYDIR
 10
0.0
 20
1.0
 30
0.0
  9
$UCSORTHOREF
  2

  9
$UCSORTHOVIEW
 70
     0
  9
$UCSORGTOP
 10
0.0
 20
0.0
 30
0.0
  9
$UCSORGBOTTOM
 10
0.0
 20
0.0
 30
0.0
  9
$UCSORGLEFT
 10
0.0
 20
0.0
 30
0.0
  9
$UCSORGRIGHT
 10
0.0
 20
0.0
 30
0.0
  9
$UCSORGFRONT
 10
0.0
 20
0.0
 30
0.0
  9
$UCSORGBACK
 10
0.0
 20
0.0
 30
0.0
  9
$PUCSBASE
  2

  9
$PUCSNAME
  2

  9
$PUCSORG
 10
0.0
 20
0.0
 30
0.0
  9
$PUCSXDIR
 10
1.0
 20
0.0
 30
0.0
  9
$PUCSYDIR
 10
0.0
 20
1.0
 30
0.0
  9
$PUCSORTHOREF
  2

  9
$PUCSORTHOVIEW
 70
     0
  9
$PUCSORGTOP
 10
0.0
 20
0.0
 30
0.0
  9
$PUCSORGBOTTOM
 10
0.0
 20
0.0
 30
0.0
  9
$PUCSORGLEFT
 10
0.0
 20
0.0
 30
0.0
  9
$PUCSORGRIGHT
 10
0.0
 20
0.0
 30
0.0
  9
$PUCSORGFRONT
 10
0.0
 20
0.0
 30
0.0
  9
$PUCSORGBACK
 10
0.0
 20
0.0
 30
0.0
  9
$USERI1
 70
     0
  9
$USERI2
 70
     0
  9
$USERI3
 70
     0
  9
$USERI4
 70
     0
  9
$USERI5
 70
     0
  9
$USERR1
 40
0.0
  9
$USERR2
 40
0.0
  9
$USERR3
 40
0.0
  9
$USERR4
 40
0.0
  9
$USERR5
 40
0.0
  9
$WORLDVIEW
 70
     1
  9
$SHADEDGE
 70
     3
  9
$SHADEDIF
 70
    70
  9
$TILEMODE
 70
     1
  9
$MAXACTVP
 70
    64
  9
$PINSBASE
 10
0.0
 20
0.0
 30
0.0
  9
$PLIMCHECK
 70
     0
  9
$PEXTMIN
 10
1.000000E+20
 20
1.000000E+20
 30
0.0
  9
$PEXTMAX
 10
-1.000000E+20
 20
-1.000000E+20
 30
0.0
  9
$PLIMMIN
 10
0.0
 20
0.0
  9
$PLIMMAX
 10
12.0
 20
9.0
  9
$UNITMODE
 70
     0
  9
$VISRETAIN
 70
     1
  9
$PLINEGEN
 70
     0
  9
$PSLTSCALE
 70
     1
  9
$TREEDEPTH
 70
  3020
  9
$CMLSTYLE
  2
Standard
  9
$CMLJUST
 70
     0
  9
$CMLSCALE
 40
20.0
  9
$PROXYGRAPHICS
 70
     1
  9
$MEASUREMENT
 70
     1
  9
$CELWEIGHT
370
    -1
  9
$ENDCAPS
280
     0
  9
$JOINSTYLE
280
     0
  9
$LWDISPLAY
290
     0
  9
$INSUNITS
 70
     4
  9
$HYPERLINKBASE
  1

  9
$STYLESHEET
  1

  9
$XEDIT
290
     1
  9
$CEPSNTYPE
380
     0
  9
$PSTYLEMODE
290
     1
  9
$FINGERPRINTGUID
  2
{DFFE59AB-6460-4B6B-B4C1-AF9AB14D2BFF}
  9
$VERSIONGUID
  2
{FAEB1C32-E019-11D5-929B-00C0DF256EC4}
  9
$EXTNAMES
290
     1
  9
$PSVPSCALE
 40
0.0
  9
$OLESTARTUP
290
     0
  0
ENDSEC
  0
SECTION
  2
CLASSES
  0
CLASS
  1
ACDBDICTIONARYWDFLT
  2
AcDbDictionaryWithDefault
  3
ObjectDBX Classes
 90
        0
280
     0
281
     0
  0
CLASS
  1
VISUALSTYLE
  2
AcDbVisualStyle
  3
ObjectDBX Classes
 90
     4095
280
     0
281
     0
  0
CLASS
  1
SCALE
  2
AcDbScale
  3
ObjectDBX Classes
 90
     1153
280
     0
281
     0
  0
CLASS
  1
DICTIONARYVAR
  2
AcDbDictionaryVar
  3
ObjectDBX Classes
 90
        0
280
     0
281
     0
  0
CLASS
  1
ACDBPLACEHOLDER
  2
AcDbPlaceHolder
  3
ObjectDBX Classes
 90
        0
280
     0
281
     0
  0
CLASS
  1
LAYOUT
  2
AcDbLayout
  3
ObjectDBX Classes
 90
        0
280
     0
281
     0
  0
ENDSEC
  0
SECTION
  2
TABLES
  0
TABLE
  2
VPORT
  5
8
330
0
100
AcDbSymbolTable
 70
     1
  0
VPORT
  5
29
330
8
100
AcDbSymbolTableRecord
100
AcDbViewportTableRecord
  2
*Active
 70
     0
 10
0.0
 20
0.0
 11
1.0
 21
1.0
 12
164.577255
 22
112.660568
 13
0.0
 23
0.0
 14
1.0
 24
1.0
 15
0.0
 25
0.0
 16
0.0
 26
0.0
 36
1.0
 17
0.0
 27
0.0
 37
0.0
 40
180.589529
 41
1.691288
 42
50.0
 43
0.0
 44
0.0
 50
0.0
 51
0.0
 71
     0
 72
   100
 73
     1
 74
     3
 75
     0
 76
     0
 77
     0
 78
     0
281
     0
 65
     1
110
0.0
120
0.0
130
0.0
111
1.0
121
0.0
131
0.0
112
0.0
122
1.0
132
0.0
 79
     0
146
0.0
  0
ENDTAB
  0
TABLE
  2
LTYPE
  5
5
330
0
100
AcDbSymbolTable
 70
     5
  0
LTYPE
  5
14
330
5
100
AcDbSymbolTableRecord
100
AcDbLinetypeTableRecord
  2
ByBlock
 70
     0
  3

 72
    65
 73
     0
 40
0.0
  0
LTYPE
  5
15
330
5
100
AcDbSymbolTableRecord
100
AcDbLinetypeTableRecord
  2
ByLayer
 70
     0
  3

 72
    65
 73
     0
 40
0.0
  0
LTYPE
  5
16
330
5
100
AcDbSymbolTableRecord
100
AcDbLinetypeTableRecord
  2
Continuous
 70
     0
  3
Solid line
 72
    65
 73
     0
 40
0.0
  0
LTYPE
  5
5D
330
5
100
AcDbSymbolTableRecord
100
AcDbLinetypeTableRecord
  2
DASHED
 70
     0
  3
DASHED
 72
    83
 73
     2
 40
0.75
 49
0.5
 74
     0
 49
-0.25
 74
     0
  0
LTYPE
  5
5E
330
5
100
AcDbSymbolTableRecord
100
AcDbLinetypeTableRecord
  2
HIDDEN
 70
     0
  3
HIDDEN
 72
    83
 73
     2
 40
0.375
 49
0.25
 74
     0
 49
-0.125
 74
     0
  0
LTYPE
  5
5F
330
5
100
AcDbSymbolTableRecord
100
AcDbLinetypeTableRecord
  2
CENTER
 70
     0
  3
CENTER
 72
    83
 73
     4
 40
2.0
 49
1.25
 74
     0
 49
-0.25
 74
     0
 49
0.25
 74
     0
 49
-0.25
 74
     0
  0
LTYPE
  5
60
330
5
100
AcDbSymbolTableRecord
100
AcDbLinetypeTableRecord
  2
PHANTOM
 70
     0
  3
PHANTOM
 72
    83
 73
     6
 40
2.5
 49
1.25
 74
     0
 49
-0.25
 74
     0
 49
0.25
 74
     0
 49
-0.25
 74
     0
 49
0.25
 74
     0
 49
-0.25
 74
     0
  0
ENDTAB
  0
TABLE
  2
LAYER
  5
2
330
0
100
AcDbSymbolTable
 70
     2
  0
LAYER
  5
10
330
2
100
AcDbSymbolTableRecord
100
AcDbLayerTableRecord
  2
0
 70
     0
 62
     7
  6
Continuous
370
    -3
390
F
  0
LAYER
  5
61
330
2
100
AcDbSymbolTableRecord
100
AcDbLayerTableRecord
  2
001
 70
     0
 62
     7
  6
Continuous
370
    -3
390
F
  0
ENDTAB
  0
TABLE
  2
STYLE
  5
3
330
0
100
AcDbSymbolTable
 70
     2
  0
STYLE
  5
11
330
3
100
AcDbSymbolTableRecord
100
AcDbTextStyleTableRecord
  2
Standard
 70
     0
 40
0.0
 41
1.0
 50
0.0
 71
     0
 42
0.2
  3
TXT
  4
BIGFONT
  0
STYLE
  5
62
330
3
100
AcDbSymbolTableRecord
100
AcDbTextStyleTableRecord
  2
TATEGAKI
 70
     4
 40
1.0
 41
1.0
 50
0.0
 71
     0
 42
0.2
  3
TXT
  4
BIGFONT
  0
ENDTAB
  0
TABLE
  2
VIEW
  5
6
330
0
100
AcDbSymbolTable
 70
     0
  0
ENDTAB
  0
TABLE
  2
UCS
  5
7
330
0
100
AcDbSymbolTable
 70
     0
  0
ENDTAB
  0
TABLE
  2
APPID
  5
9
330
0
100
AcDbSymbolTable
 70
     1
  0
APPID
  5
12
330
9
100
AcDbSymbolTableRecord
100
AcDbRegAppTableRecord
  2
ACAD
 70
     0
  0
ENDTAB
  0
TABLE
  2
DIMSTYLE
  5
A
330
0
100
AcDbSymbolTable
 70
     2
100
AcDbDimStyleTable
  0
DIMSTYLE
105
27
330
A
100
AcDbSymbolTableRecord
100
AcDbDimStyleTableRecord
  2
ISO-25
 70
     0
 41
2.5
 42
0.625
 43
3.75
 44
1.25
 73
     0
 74
     0
 77
     1
 78
     8
140
2.5
141
2.5
143
0.03937
147
0.625
171
     3
172
     1
271
     2
272
     2
274
     3
278
    44
283
     0
284
     8
340
11
  0
DIMSTYLE
105
63
102
{ACAD_REACTORS
330
17D
330
17E
330
17F
330
180
330
181
330
182
330
183
330
184
330
185
330
186
330
187
330
188
330
189
330
18A
102
}
330
A
100
AcDbSymbolTableRecord
100
AcDbDimStyleTableRecord
  2
Standard
 70
     0
 41
1.5
 42
0.0
 44
2.75
 73
     0
 74
     0
 77
     1
 78
     8
 79
     2
140
4.0
146
0.8
147
1.0
172
     1
179
     1
271
     1
340
11
  0
ENDTAB
  0
TABLE
  2
BLOCK_RECORD
  5
1
330
0
100
AcDbSymbolTable
 70
    15
  0
BLOCK_RECORD
  5
1F
330
1
100
AcDbSymbolTableRecord
100
AcDbBlockTableRecord
  2
*Model_Space
340
22
  0
BLOCK_RECORD
  5
1B
330
1
100
AcDbSymbolTableRecord
100
AcDbBlockTableRecord
  2
*Paper_Space
340
1E
  0
BLOCK_RECORD
  5
23
330
1
100
AcDbSymbolTableRecord
100
AcDbBlockTableRecord
  2
*Paper_Space0
340
26
  0
BLOCK_RECORD
  5
64
330
1
100
AcDbSymbolTableRecord
100
AcDbBlockTableRecord
  2
*D1
340
0
  0
BLOCK_RECORD
  5
78
330
1
100
AcDbSymbolTableRecord
100
AcDbBlockTableRecord
  2
*D2
340
0
  0
BLOCK_RECORD
  5
8C
330
1
100
AcDbSymbolTableRecord
100
AcDbBlockTableRecord
  2
*D3
340
0
  0
BLOCK_RECORD
  5
A0
330
1
100
AcDbSymbolTableRecord
100
AcDbBlockTableRecord
  2
*D4
340
0
  0
BLOCK_RECORD
  5
B4
330
1
100
AcDbSymbolTableRecord
100
AcDbBlockTableRecord
  2
*D5
340
0
  0
BLOCK_RECORD
  5
C8
330
1
100
AcDbSymbolTableRecord
100
AcDbBlockTableRecord
  2
*D6
340
0
  0
BLOCK_RECORD
  5
DC
330
1
100
AcDbSymbolTableRecord
100
AcDbBlockTableRecord
  2
*D7
340
0
  0
BLOCK_RECORD
  5
F0
330
1
100
AcDbSymbolTableRecord
100
AcDbBlockTableRecord
  2
*D8
340
0
  0
BLOCK_RECORD
  5
104
330
1
100
AcDbSymbolTableRecord
100
AcDbBlockTableRecord
  2
*D9
340
0
  0
BLOCK_RECORD
  5
118
330
1
100
AcDbSymbolTableRecord
100
AcDbBlockTableRecord
  2
*D10
340
0
  0
BLOCK_RECORD
  5
12D
330
1
100
AcDbSymbolTableRecord
100
AcDbBlockTableRecord
  2
*D11
340
0
  0
BLOCK_RECORD
  5
141
330
1
100
AcDbSymbolTableRecord
100
AcDbBlockTableRecord
  2
*D12
340
0
  0
BLOCK_RECORD
  5
155
330
1
100
AcDbSymbolTableRecord
100
AcDbBlockTableRecord
  2
*D13
340
0
  0
BLOCK_RECORD
  5
169
330
1
100
AcDbSymbolTableRecord
100
AcDbBlockTableRecord
  2
*D14
340
0
  0
ENDTAB
  0
ENDSEC
  0
SECTION
  2
BLOCKS
  0
BLOCK
  5
20
330
1F
100
AcDbEntity
  8
0
100
AcDbBlockBegin
  2
*Model_Space
 70
     0
 10
0.0
 20
0.0
 30
0.0
  3
*Model_Space
  1

  0
ENDBLK
  5
21
330
1F
100
AcDbEntity
  8
0
100
AcDbBlockEnd
  0
BLOCK
  5
1C
330
1B
100
AcDbEntity
 67
     1
  8
0
100
AcDbBlockBegin
  2
*Paper_Space
 70
     0
 10
0.0
 20
0.0
 30
0.0
  3
*Paper_Space
  1

  0
ENDBLK
  5
1D
330
1B
100
AcDbEntity
 67
     1
  8
0
100
AcDbBlockEnd
  0
BLOCK
  5
24
330
23
100
AcDbEntity
  8
0
100
AcDbBlockBegin
  2
*Paper_Space0
 70
     0
 10
0.0
 20
0.0
 30
0.0
  3
*Paper_Space0
  1

  0
ENDBLK
  5
25
330
23
100
AcDbEntity
  8
0
100
AcDbBlockEnd
  0
BLOCK
  5
65
330
64
100
AcDbEntity
  8
0
100
AcDbBlockBegin
  2
*D1
 70
     1
 10
0.0
 20
0.0
 30
0.0
  3
*D1
  1

  0
LINE
  5
67
330
64
100
AcDbEntity
  8
001
370
     9
100
AcDbLine
 10
124.713659
 20
120.069008
 30
0.0
 11
97.066885
 21
120.069008
 31
0.0
  0
LINE
  5
68
330
64
100
AcDbEntity
  8
001
370
     9
100
AcDbLine
 10
124.713659
 20
152.069008
 30
0.0
 11
97.066885
 21
152.069008
 31
0.0
  0
LINE
  5
69
330
64
100
AcDbEntity
  8
001
370
     9
100
AcDbLine
 10
99.816885
 20
120.069008
 30
0.0
 11
99.816885
 21
152.069008
 31
0.0
  0
POLYLINE
  5
6A
330
64
100
AcDbEntity
  8
001
370
     9
100
AcDb2dPolyline
 66
     1
 10
0.0
 20
0.0
 30
0.0
  0
VERTEX
  5
6C
330
6A
100
AcDbEntity
  8
001
370
     9
100
AcDbVertex
100
AcDb2dVertex
 10
100.218809
 20
121.569008
 30
0.0
  0
VERTEX
  5
6D
330
6A
100
AcDbEntity
  8
001
370
     9
100
AcDbVertex
100
AcDb2dVertex
 10
99.816885
 20
120.069008
 30
0.0
  0
VERTEX
  5
6E
330
6A
100
AcDbEntity
  8
001
370
     9
100
AcDbVertex
100
AcDb2dVertex
 10
99.414961
 20
121.569008
 30
0.0
  0
SEQEND
  5
6B
330
6A
100
AcDbEntity
  8
001
370
     9
  0
POLYLINE
  5
6F
330
64
100
AcDbEntity
  8
001
370
     9
100
AcDb2dPolyline
 66
     1
 10
0.0
 20
0.0
 30
0.0
  0
VERTEX
  5
71
330
6F
100
AcDbEntity
  8
001
370
     9
100
AcDbVertex
100
AcDb2dVertex
 10
99.414961
 20
150.569008
 30
0.0
  0
VERTEX
  5
72
330
6F
100
AcDbEntity
  8
001
370
     9
100
AcDbVertex
100
AcDb2dVertex
 10
99.816885
 20
152.069008
 30
0.0
  0
VERTEX
  5
73
330
6F
100
AcDbEntity
  8
001
370
     9
100
AcDbVertex
100
AcDb2dVertex
 10
100.218809
 20
150.569008
 30
0.0
  0
SEQEND
  5
70
330
6F
100
AcDbEntity
  8
001
370
     9
  0
TEXT
  5
74
330
64
100
AcDbEntity
  8
001
370
    30
100
AcDbText
 10
98.816885
 20
130.069008
 30
0.0
 40
4.0
  1
%%c３２
 50
90.000003
 41
0.882353
100
AcDbText
  0
POINT
  5
75
330
64
100
AcDbEntity
  8
001
370
     9
100
AcDbPoint
 10
124.713659
 20
120.069008
 30
0.0
  0
POINT
  5
76
330
64
100
AcDbEntity
  8
001
370
     9
100
AcDbPoint
 10
124.713659
 20
152.069008
 30
0.0
  0
POINT
  5
77
330
64
100
AcDbEntity
  8
001
370
     9
100
AcDbPoint
 10
99.816885
 20
152.069008
 30
0.0
  0
ENDBLK
  5
66
330
64
100
AcDbEntity
  8
0
100
AcDbBlockEnd
  0
BLOCK
  5
79
330
78
100
AcDbEntity
  8
0
100
AcDbBlockBegin
  2
*D2
 70
     1
 10
0.0
 20
0.0
 30
0.0
  3
*D2
  1

  0
LINE
  5
7B
330
78
100
AcDbEntity
  8
001
370
     9
100
AcDbLine
 10
147.213659
 20
118.069008
 30
0.0
 11
82.267943
 21
118.069008
 31
0.0
  0
LINE
  5
7C
330
78
100
AcDbEntity
  8
001
370
     9
100
AcDbLine
 10
143.452832
 20
154.069008
 30
0.0
 11
82.267943
 21
154.069008
 31
0.0
  0
LINE
  5
7D
330
78
100
AcDbEntity
  8
001
370
     9
100
AcDbLine
 10
85.017943
 20
118.069008
 30
0.0
 11
85.017943
 21
154.069008
 31
0.0
  0
POLYLINE
  5
7E
330
78
100
AcDbEntity
  8
001
370
     9
100
AcDb2dPolyline
 66
     1
 10
0.0
 20
0.0
 30
0.0
  0
VERTEX
  5
80
330
7E
100
AcDbEntity
  8
001
370
     9
100
AcDbVertex
100
AcDb2dVertex
 10
85.419867
 20
119.569008
 30
0.0
  0
VERTEX
  5
81
330
7E
100
AcDbEntity
  8
001
370
     9
100
AcDbVertex
100
AcDb2dVertex
 10
85.017943
 20
118.069008
 30
0.0
  0
VERTEX
  5
82
330
7E
100
AcDbEntity
  8
001
370
     9
100
AcDbVertex
100
AcDb2dVertex
 10
84.616019
 20
119.569008
 30
0.0
  0
SEQEND
  5
7F
330
7E
100
AcDbEntity
  8
001
370
     9
  0
POLYLINE
  5
83
330
78
100
AcDbEntity
  8
001
370
     9
100
AcDb2dPolyline
 66
     1
 10
0.0
 20
0.0
 30
0.0
  0
VERTEX
  5
85
330
83
100
AcDbEntity
  8
001
370
     9
100
AcDbVertex
100
AcDb2dVertex
 10
84.616019
 20
152.569008
 30
0.0
  0
VERTEX
  5
86
330
83
100
AcDbEntity
  8
001
370
     9
100
AcDbVertex
100
AcDb2dVertex
 10
85.017943
 20
154.069008
 30
0.0
  0
VERTEX
  5
87
330
83
100
AcDbEntity
  8
001
370
     9
100
AcDbVertex
100
AcDb2dVertex
 10
85.419867
 20
152.569008
 30
0.0
  0
SEQEND
  5
84
330
83
100
AcDbEntity
  8
001
370
     9
  0
TEXT
  5
88
330
78
100
AcDbEntity
  8
001
370
    30
100
AcDbText
 10
84.017943
 20
130.069008
 30
0.0
 40
4.0
  1
%%c３６
 50
90.000003
 41
0.882353
100
AcDbText
  0
POINT
  5
89
330
78
100
AcDbEntity
  8
001
370
     9
100
AcDbPoint
 10
147.213659
 20
118.069008
 30
0.0
  0
POINT
  5
8A
330
78
100
AcDbEntity
  8
001
370
     9
100
AcDbPoint
 10
143.452832
 20
154.069008
 30
0.0
  0
POINT
  5
8B
330
78
100
AcDbEntity
  8
001
370
     9
100
AcDbPoint
 10
85.017943
 20
154.069008
 30
0.0
  0
ENDBLK
  5
7A
330
78
100
AcDbEntity
  8
0
100
AcDbBlockEnd
  0
BLOCK
  5
8D
330
8C
100
AcDbEntity
  8
0
100
AcDbBlockBegin
  2
*D3
 70
     1
 10
0.0
 20
0.0
 30
0.0
  3
*D3
  1

  0
LINE
  5
8F
330
8C
100
AcDbEntity
  8
001
370
     9
100
AcDbLine
 10
144.350123
 20
115.219008
 30
0.0
 11
67.399536
 21
115.219008
 31
0.0
  0
LINE
  5
90
330
8C
100
AcDbEntity
  8
001
370
     9
100
AcDbLine
 10
143.452832
 20
156.919008
 30
0.0
 11
67.399536
 21
156.919008
 31
0.0
  0
LINE
  5
91
330
8C
100
AcDbEntity
  8
001
370
     9
100
AcDbLine
 10
70.149536
 20
115.219008
 30
0.0
 11
70.149536
 21
156.919008
 31
0.0
  0
POLYLINE
  5
92
330
8C
100
AcDbEntity
  8
001
370
     9
100
AcDb2dPolyline
 66
     1
 10
0.0
 20
0.0
 30
0.0
  0
VERTEX
  5
94
330
92
100
AcDbEntity
  8
001
370
     9
100
AcDbVertex
100
AcDb2dVertex
 10
70.55146
 20
116.719008
 30
0.0
  0
VERTEX
  5
95
330
92
100
AcDbEntity
  8
001
370
     9
100
AcDbVertex
100
AcDb2dVertex
 10
70.149536
 20
115.219008
 30
0.0
  0
VERTEX
  5
96
330
92
100
AcDbEntity
  8
001
370
     9
100
AcDbVertex
100
AcDb2dVertex
 10
69.747613
 20
116.719008
 30
0.0
  0
SEQEND
  5
93
330
92
100
AcDbEntity
  8
001
370
     9
  0
POLYLINE
  5
97
330
8C
100
AcDbEntity
  8
001
370
     9
100
AcDb2dPolyline
 66
     1
 10
0.0
 20
0.0
 30
0.0
  0
VERTEX
  5
99
330
97
100
AcDbEntity
  8
001
370
     9
100
AcDbVertex
100
AcDb2dVertex
 10
69.747613
 20
155.419008
 30
0.0
  0
VERTEX
  5
9A
330
97
100
AcDbEntity
  8
001
370
     9
100
AcDbVertex
100
AcDb2dVertex
 10
70.149536
 20
156.919008
 30
0.0
  0
VERTEX
  5
9B
330
97
100
AcDbEntity
  8
001
370
     9
100
AcDbVertex
100
AcDb2dVertex
 10
70.55146
 20
155.419008
 30
0.0
  0
SEQEND
  5
98
330
97
100
AcDbEntity
  8
001
370
     9
  0
TEXT
  5
9C
330
8C
100
AcDbEntity
  8
001
370
    30
100
AcDbText
 10
69.149536
 20
126.069008
 30
0.0
 40
4.0
  1
%%c４１．７
 50
90.000003
 41
0.862069
100
AcDbText
  0
POINT
  5
9D
330
8C
100
AcDbEntity
  8
001
370
     9
100
AcDbPoint
 10
144.350123
 20
115.219008
 30
0.0
  0
POINT
  5
9E
330
8C
100
AcDbEntity
  8
001
370
     9
100
AcDbPoint
 10
143.452832
 20
156.919008
 30
0.0
  0
POINT
  5
9F
330
8C
100
AcDbEntity
  8
001
370
     9
100
AcDbPoint
 10
70.149536
 20
156.919008
 30
0.0
  0
ENDBLK
  5
8E
330
8C
100
AcDbEntity
  8
0
100
AcDbBlockEnd
  0
BLOCK
  5
A1
330
A0
100
AcDbEntity
  8
0
100
AcDbBlockBegin
  2
*D4
 70
     1
 10
0.0
 20
0.0
 30
0.0
  3
*D4
  1

  0
LINE
  5
A3
330
A0
100
AcDbEntity
  8
001
370
     9
100
AcDbLine
 10
259.413658
 20
152.069008
 30
0.0
 11
295.601182
 21
152.069008
 31
0.0
  0
LINE
  5
A4
330
A0
100
AcDbEntity
  8
001
370
     9
100
AcDbLine
 10
259.413658
 20
120.069008
 30
0.0
 11
295.601182
 21
120.069008
 31
0.0
  0
LINE
  5
A5
330
A0
100
AcDbEntity
  8
001
370
     9
100
AcDbLine
 10
292.851182
 20
152.069008
 30
0.0
 11
292.851182
 21
120.069008
 31
0.0
  0
POLYLINE
  5
A6
330
A0
100
AcDbEntity
  8
001
370
     9
100
AcDb2dPolyline
 66
     1
 10
0.0
 20
0.0
 30
0.0
  0
VERTEX
  5
A8
330
A6
100
AcDbEntity
  8
001
370
     9
100
AcDbVertex
100
AcDb2dVertex
 10
292.449258
 20
150.569008
 30
0.0
  0
VERTEX
  5
A9
330
A6
100
AcDbEntity
  8
001
370
     9
100
AcDbVertex
100
AcDb2dVertex
 10
292.851182
 20
152.069008
 30
0.0
  0
VERTEX
  5
AA
330
A6
100
AcDbEntity
  8
001
370
     9
100
AcDbVertex
100
AcDb2dVertex
 10
293.253105
 20
150.569008
 30
0.0
  0
SEQEND
  5
A7
330
A6
100
AcDbEntity
  8
001
370
     9
  0
POLYLINE
  5
AB
330
A0
100
AcDbEntity
  8
001
370
     9
100
AcDb2dPolyline
 66
     1
 10
0.0
 20
0.0
 30
0.0
  0
VERTEX
  5
AD
330
AB
100
AcDbEntity
  8
001
370
     9
100
AcDbVertex
100
AcDb2dVertex
 10
293.253105
 20
121.569008
 30
0.0
  0
VERTEX
  5
AE
330
AB
100
AcDbEntity
  8
001
370
     9
100
AcDbVertex
100
AcDb2dVertex
 10
292.851182
 20
120.069008
 30
0.0
  0
VERTEX
  5
AF
330
AB
100
AcDbEntity
  8
001
370
     9
100
AcDbVertex
100
AcDb2dVertex
 10
292.449258
 20
121.569008
 30
0.0
  0
SEQEND
  5
AC
330
AB
100
AcDbEntity
  8
001
370
     9
  0
TEXT
  5
B0
330
A0
100
AcDbEntity
  8
001
370
    30
100
AcDbText
 10
291.851182
 20
130.069008
 30
0.0
 40
4.0
  1
%%c３２
 50
90.000003
 41
0.882353
100
AcDbText
  0
POINT
  5
B1
330
A0
100
AcDbEntity
  8
001
370
     9
100
AcDbPoint
 10
259.413658
 20
152.069008
 30
0.0
  0
POINT
  5
B2
330
A0
100
AcDbEntity
  8
001
370
     9
100
AcDbPoint
 10
259.413658
 20
120.069008
 30
0.0
  0
POINT
  5
B3
330
A0
100
AcDbEntity
  8
001
370
     9
100
AcDbPoint
 10
292.851182
 20
120.069008
 30
0.0
  0
ENDBLK
  5
A2
330
A0
100
AcDbEntity
  8
0
100
AcDbBlockEnd
  0
BLOCK
  5
B5
330
B4
100
AcDbEntity
  8
0
100
AcDbBlockBegin
  2
*D5
 70
     1
 10
0.0
 20
0.0
 30
0.0
  3
*D5
  1

  0
LINE
  5
B7
330
B4
100
AcDbEntity
  8
001
370
     9
100
AcDbLine
 10
187.413658
 20
118.069008
 30
0.0
 11
187.413658
 21
63.427383
 31
0.0
  0
LINE
  5
B8
330
B4
100
AcDbEntity
  8
001
370
     9
100
AcDbLine
 10
267.413658
 20
128.069008
 30
0.0
 11
267.413658
 21
63.427383
 31
0.0
  0
LINE
  5
B9
330
B4
100
AcDbEntity
  8
001
370
     9
100
AcDbLine
 10
187.413658
 20
66.177383
 30
0.0
 11
267.413658
 21
66.177383
 31
0.0
  0
POLYLINE
  5
BA
330
B4
100
AcDbEntity
  8
001
370
     9
100
AcDb2dPolyline
 66
     1
 10
0.0
 20
0.0
 30
0.0
  0
VERTEX
  5
BC
330
BA
100
AcDbEntity
  8
001
370
     9
100
AcDbVertex
100
AcDb2dVertex
 10
188.913658
 20
65.775459
 30
0.0
  0
VERTEX
  5
BD
330
BA
100
AcDbEntity
  8
001
370
     9
100
AcDbVertex
100
AcDb2dVertex
 10
187.413658
 20
66.177383
 30
0.0
  0
VERTEX
  5
BE
330
BA
100
AcDbEntity
  8
001
370
     9
100
AcDbVertex
100
AcDb2dVertex
 10
188.913658
 20
66.579306
 30
0.0
  0
SEQEND
  5
BB
330
BA
100
AcDbEntity
  8
001
370
     9
  0
POLYLINE
  5
BF
330
B4
100
AcDbEntity
  8
001
370
     9
100
AcDb2dPolyline
 66
     1
 10
0.0
 20
0.0
 30
0.0
  0
VERTEX
  5
C1
330
BF
100
AcDbEntity
  8
001
370
     9
100
AcDbVertex
100
AcDb2dVertex
 10
265.913658
 20
66.579306
 30
0.0
  0
VERTEX
  5
C2
330
BF
100
AcDbEntity
  8
001
370
     9
100
AcDbVertex
100
AcDb2dVertex
 10
267.413658
 20
66.177383
 30
0.0
  0
VERTEX
  5
C3
330
BF
100
AcDbEntity
  8
001
370
     9
100
AcDbVertex
100
AcDb2dVertex
 10
265.913658
 20
65.775459
 30
0.0
  0
SEQEND
  5
C0
330
BF
100
AcDbEntity
  8
001
370
     9
  0
TEXT
  5
C4
330
B4
100
AcDbEntity
  8
001
370
    30
100
AcDbText
 10
223.413658
 20
67.177383
 30
0.0
 40
4.0
  1
８０
 41
0.833333
100
AcDbText
  0
POINT
  5
C5
330
B4
100
AcDbEntity
  8
001
370
     9
100
AcDbPoint
 10
187.413658
 20
118.069008
 30
0.0
  0
POINT
  5
C6
330
B4
100
AcDbEntity
  8
001
370
     9
100
AcDbPoint
 10
267.413658
 20
128.069008
 30
0.0
  0
POINT
  5
C7
330
B4
100
AcDbEntity
  8
001
370
     9
100
AcDbPoint
 10
267.413658
 20
66.177383
 30
0.0
  0
ENDBLK
  5
B6
330
B4
100
AcDbEntity
  8
0
100
AcDbBlockEnd
  0
BLOCK
  5
C9
330
C8
100
AcDbEntity
  8
0
100
AcDbBlockBegin
  2
*D6
 70
     1
 10
0.0
 20
0.0
 30
0.0
  3
*D6
  1

  0
LINE
  5
CB
330
C8
100
AcDbEntity
  8
001
370
     9
100
AcDbLine
 10
123.413658
 20
125.869008
 30
0.0
 11
123.413658
 21
63.427383
 31
0.0
  0
LINE
  5
CC
330
C8
100
AcDbEntity
  8
001
370
     9
100
AcDbLine
 10
187.413658
 20
118.069008
 30
0.0
 11
187.413658
 21
63.427383
 31
0.0
  0
LINE
  5
CD
330
C8
100
AcDbEntity
  8
001
370
     9
100
AcDbLine
 10
123.413658
 20
66.177383
 30
0.0
 11
187.413658
 21
66.177383
 31
0.0
  0
POLYLINE
  5
CE
330
C8
100
AcDbEntity
  8
001
370
     9
100
AcDb2dPolyline
 66
     1
 10
0.0
 20
0.0
 30
0.0
  0
VERTEX
  5
D0
330
CE
100
AcDbEntity
  8
001
370
     9
100
AcDbVertex
100
AcDb2dVertex
 10
124.913658
 20
65.775459
 30
0.0
  0
VERTEX
  5
D1
330
CE
100
AcDbEntity
  8
001
370
     9
100
AcDbVertex
100
AcDb2dVertex
 10
123.413658
 20
66.177383
 30
0.0
  0
VERTEX
  5
D2
330
CE
100
AcDbEntity
  8
001
370
     9
100
AcDbVertex
100
AcDb2dVertex
 10
124.913658
 20
66.579306
 30
0.0
  0
SEQEND
  5
CF
330
CE
100
AcDbEntity
  8
001
370
     9
  0
POLYLINE
  5
D3
330
C8
100
AcDbEntity
  8
001
370
     9
100
AcDb2dPolyline
 66
     1
 10
0.0
 20
0.0
 30
0.0
  0
VERTEX
  5
D5
330
D3
100
AcDbEntity
  8
001
370
     9
100
AcDbVertex
100
AcDb2dVertex
 10
185.913658
 20
66.579306
 30
0.0
  0
VERTEX
  5
D6
330
D3
100
AcDbEntity
  8
001
370
     9
100
AcDbVertex
100
AcDb2dVertex
 10
187.413658
 20
66.177383
 30
0.0
  0
VERTEX
  5
D7
330
D3
100
AcDbEntity
  8
001
370
     9
100
AcDbVertex
100
AcDb2dVertex
 10
185.913658
 20
65.775459
 30
0.0
  0
SEQEND
  5
D4
330
D3
100
AcDbEntity
  8
001
370
     9
  0
TEXT
  5
D8
330
C8
100
AcDbEntity
  8
001
370
    30
100
AcDbText
 10
151.413658
 20
67.177383
 30
0.0
 40
4.0
  1
６４
 41
0.833333
100
AcDbText
  0
POINT
  5
D9
330
C8
100
AcDbEntity
  8
001
370
     9
100
AcDbPoint
 10
123.413658
 20
125.869008
 30
0.0
  0
POINT
  5
DA
330
C8
100
AcDbEntity
  8
001
370
     9
100
AcDbPoint
 10
187.413658
 20
118.069008
 30
0.0
  0
POINT
  5
DB
330
C8
100
AcDbEntity
  8
001
370
     9
100
AcDbPoint
 10
187.413658
 20
66.177383
 30
0.0
  0
ENDBLK
  5
CA
330
C8
100
AcDbEntity
  8
0
100
AcDbBlockEnd
  0
BLOCK
  5
DD
330
DC
100
AcDbEntity
  8
0
100
AcDbBlockBegin
  2
*D7
 70
     1
 10
0.0
 20
0.0
 30
0.0
  3
*D7
  1

  0
LINE
  5
DF
330
DC
100
AcDbEntity
  8
001
370
     9
100
AcDbLine
 10
123.413658
 20
125.869008
 30
0.0
 11
123.413658
 21
49.791202
 31
0.0
  0
LINE
  5
E0
330
DC
100
AcDbEntity
  8
001
370
     9
100
AcDbLine
 10
267.413658
 20
128.069008
 30
0.0
 11
267.413658
 21
49.791202
 31
0.0
  0
LINE
  5
E1
330
DC
100
AcDbEntity
  8
001
370
     9
100
AcDbLine
 10
123.413658
 20
52.541202
 30
0.0
 11
267.413658
 21
52.541202
 31
0.0
  0
POLYLINE
  5
E2
330
DC
100
AcDbEntity
  8
001
370
     9
100
AcDb2dPolyline
 66
     1
 10
0.0
 20
0.0
 30
0.0
  0
VERTEX
  5
E4
330
E2
100
AcDbEntity
  8
001
370
     9
100
AcDbVertex
100
AcDb2dVertex
 10
124.913658
 20
52.139279
 30
0.0
  0
VERTEX
  5
E5
330
E2
100
AcDbEntity
  8
001
370
     9
100
AcDbVertex
100
AcDb2dVertex
 10
123.413658
 20
52.541202
 30
0.0
  0
VERTEX
  5
E6
330
E2
100
AcDbEntity
  8
001
370
     9
100
AcDbVertex
100
AcDb2dVertex
 10
124.913658
 20
52.943126
 30
0.0
  0
SEQEND
  5
E3
330
E2
100
AcDbEntity
  8
001
370
     9
  0
POLYLINE
  5
E7
330
DC
100
AcDbEntity
  8
001
370
     9
100
AcDb2dPolyline
 66
     1
 10
0.0
 20
0.0
 30
0.0
  0
VERTEX
  5
E9
330
E7
100
AcDbEntity
  8
001
370
     9
100
AcDbVertex
100
AcDb2dVertex
 10
265.913658
 20
52.943126
 30
0.0
  0
VERTEX
  5
EA
330
E7
100
AcDbEntity
  8
001
370
     9
100
AcDbVertex
100
AcDb2dVertex
 10
267.413658
 20
52.541202
 30
0.0
  0
VERTEX
  5
EB
330
E7
100
AcDbEntity
  8
001
370
     9
100
AcDbVertex
100
AcDb2dVertex
 10
265.913658
 20
52.139279
 30
0.0
  0
SEQEND
  5
E8
330
E7
100
AcDbEntity
  8
001
370
     9
  0
TEXT
  5
EC
330
DC
100
AcDbEntity
  8
001
370
    30
100
AcDbText
 10
189.413658
 20
53.541202
 30
0.0
 40
4.0
  1
１４４
 41
0.833333
100
AcDbText
  0
POINT
  5
ED
330
DC
100
AcDbEntity
  8
001
370
     9
100
AcDbPoint
 10
123.413658
 20
125.869008
 30
0.0
  0
POINT
  5
EE
330
DC
100
AcDbEntity
  8
001
370
     9
100
AcDbPoint
 10
267.413658
 20
128.069008
 30
0.0
  0
POINT
  5
EF
330
DC
100
AcDbEntity
  8
001
370
     9
100
AcDbPoint
 10
267.413658
 20
52.541202
 30
0.0
  0
ENDBLK
  5
DE
330
DC
100
AcDbEntity
  8
0
100
AcDbBlockEnd
  0
BLOCK
  5
F1
330
F0
100
AcDbEntity
  8
0
100
AcDbBlockBegin
  2
*D8
 70
     1
 10
0.0
 20
0.0
 30
0.0
  3
*D8
  1

  0
LINE
  5
F3
330
F0
100
AcDbEntity
  8
001
370
     9
100
AcDbLine
 10
124.713659
 20
124.569008
 30
0.0
 11
190.166913
 21
59.115754
 31
0.0
  0
ARC
  5
F4
330
F0
100
AcDbEntity
  8
001
370
     9
100
AcDbCircle
 10
113.213659
 20
136.069008
 30
0.0
 40
106.0783357403
100
AcDbArc
 50
315.0
 51
0.0
  0
POLYLINE
  5
F5
330
F0
100
AcDbEntity
  8
001
370
     9
100
AcDb2dPolyline
 66
     1
 10
0.0
 20
0.0
 30
0.0
  0
VERTEX
  5
F7
330
F5
100
AcDbEntity
  8
001
370
     9
100
AcDbVertex
100
AcDb2dVertex
 10
218.879475
 20
134.571887
 30
0.0
  0
VERTEX
  5
F8
330
F5
100
AcDbEntity
  8
001
370
     9
100
AcDbVertex
100
AcDb2dVertex
 10
219.291994
 20
136.069008
 30
0.0
  0
VERTEX
  5
F9
330
F5
100
AcDbEntity
  8
001
370
     9
100
AcDbVertex
100
AcDb2dVertex
 10
219.683303
 20
134.566204
 30
0.0
  0
SEQEND
  5
F6
330
F5
100
AcDbEntity
  8
001
370
     9
  0
POLYLINE
  5
FA
330
F0
100
AcDbEntity
  8
001
370
     9
100
AcDb2dPolyline
 66
     1
 10
0.0
 20
0.0
 30
0.0
  0
VERTEX
  5
FC
330
FA
100
AcDbEntity
  8
001
370
     9
100
AcDbVertex
100
AcDb2dVertex
 10
189.561709
 20
61.846243
 30
0.0
  0
VERTEX
  5
FD
330
FA
100
AcDbEntity
  8
001
370
     9
100
AcDbVertex
100
AcDb2dVertex
 10
188.222369
 20
61.060297
 30
0.0
  0
VERTEX
  5
FE
330
FA
100
AcDbEntity
  8
001
370
     9
100
AcDbVertex
100
AcDb2dVertex
 10
188.989299
 20
62.410617
 30
0.0
  0
SEQEND
  5
FB
330
FA
100
AcDbEntity
  8
001
370
     9
  0
TEXT
  5
FF
330
F0
100
AcDbEntity
  8
001
370
    30
100
AcDbText
 10
207.997282
 20
90.313992
 30
0.0
 40
4.0
  1
４５%%d
 50
67.5
 41
0.978261
100
AcDbText
  0
POINT
  5
100
330
F0
100
AcDbEntity
  8
001
370
     9
100
AcDbPoint
 10
216.541994
 20
136.069008
 30
0.0
  0
POINT
  5
101
330
F0
100
AcDbEntity
  8
001
370
     9
100
AcDbPoint
 10
113.213659
 20
136.069008
 30
0.0
  0
POINT
  5
102
330
F0
100
AcDbEntity
  8
001
370
     9
100
AcDbPoint
 10
113.213659
 20
136.069008
 30
0.0
  0
POINT
  5
103
330
F0
100
AcDbEntity
  8
001
370
     9
100
AcDbPoint
 10
124.713659
 20
124.569008
 30
0.0
  0
ENDBLK
  5
F2
330
F0
100
AcDbEntity
  8
0
100
AcDbBlockEnd
  0
BLOCK
  5
105
330
104
100
AcDbEntity
  8
0
100
AcDbBlockBegin
  2
*D9
 70
     1
 10
0.0
 20
0.0
 30
0.0
  3
*D9
  1

  0
LINE
  5
107
330
104
100
AcDbEntity
  8
001
370
     9
100
AcDbLine
 10
147.213659
 20
118.069008
 30
0.0
 11
188.523818
 21
76.758848
 31
0.0
  0
ARC
  5
108
330
104
100
AcDbEntity
  8
001
370
     9
100
AcDbCircle
 10
129.213659
 20
136.069008
 30
0.0
 40
81.12723198081123
100
AcDbArc
 50
315.0
 51
0.0
  0
POLYLINE
  5
109
330
104
100
AcDbEntity
  8
001
370
     9
100
AcDb2dPolyline
 66
     1
 10
0.0
 20
0.0
 30
0.0
  0
VERTEX
  5
10B
330
109
100
AcDbEntity
  8
001
370
     9
100
AcDbVertex
100
AcDb2dVertex
 10
209.925117
 20
134.572788
 30
0.0
  0
VERTEX
  5
10C
330
109
100
AcDbEntity
  8
001
370
     9
100
AcDbVertex
100
AcDb2dVertex
 10
210.340891
 20
136.069008
 30
0.0
  0
VERTEX
  5
10D
330
109
100
AcDbEntity
  8
001
370
     9
100
AcDbVertex
100
AcDb2dVertex
 10
210.72893
 20
134.565356
 30
0.0
  0
SEQEND
  5
10A
330
109
100
AcDbEntity
  8
001
370
     9
  0
POLYLINE
  5
10E
330
104
100
AcDbEntity
  8
001
370
     9
100
AcDb2dPolyline
 66
     1
 10
0.0
 20
0.0
 30
0.0
  0
VERTEX
  5
110
330
10E
100
AcDbEntity
  8
001
370
     9
100
AcDbVertex
100
AcDb2dVertex
 10
187.916902
 20
79.492249
 30
0.0
  0
VERTEX
  5
111
330
10E
100
AcDbEntity
  8
001
370
     9
100
AcDbVertex
100
AcDb2dVertex
 10
186.579275
 20
78.703392
 30
0.0
  0
VERTEX
  5
112
330
10E
100
AcDbEntity
  8
001
370
     9
100
AcDbVertex
100
AcDb2dVertex
 10
187.343266
 20
80.055376
 30
0.0
  0
SEQEND
  5
10F
330
10E
100
AcDbEntity
  8
001
370
     9
  0
TEXT
  5
113
330
104
100
AcDbEntity
  8
001
370
    30
100
AcDbText
 10
200.945468
 20
99.862366
 30
0.0
 40
4.0
  1
４５%%d
 50
67.5
 41
0.978261
100
AcDbText
  0
POINT
  5
114
330
104
100
AcDbEntity
  8
001
370
     9
100
AcDbPoint
 10
207.590891
 20
136.069008
 30
0.0
  0
POINT
  5
115
330
104
100
AcDbEntity
  8
001
370
     9
100
AcDbPoint
 10
129.213659
 20
136.069008
 30
0.0
  0
POINT
  5
116
330
104
100
AcDbEntity
  8
001
370
     9
100
AcDbPoint
 10
129.213659
 20
136.069008
 30
0.0
  0
POINT
  5
117
330
104
100
AcDbEntity
  8
001
370
     9
100
AcDbPoint
 10
147.213659
 20
118.069008
 30
0.0
  0
ENDBLK
  5
106
330
104
100
AcDbEntity
  8
0
100
AcDbBlockEnd
  0
BLOCK
  5
119
330
118
100
AcDbEntity
  8
0
100
AcDbBlockBegin
  2
*D10
 70
     1
 10
0.0
 20
0.0
 30
0.0
  3
*D10
  1

  0
LINE
  5
11B
330
118
100
AcDbEntity
  8
001
370
     9
100
AcDbLine
 10
124.713659
 20
120.863008
 30
0.0
 11
124.713659
 21
76.053357
 31
0.0
  0
LINE
  5
11C
330
118
100
AcDbEntity
  8
001
370
     9
100
AcDbLine
 10
124.713659
 20
78.803357
 30
0.0
 11
123.413658
 21
78.803357
 31
0.0
  0
POLYLINE
  5
11D
330
118
100
AcDbEntity
  8
001
370
     9
100
AcDb2dPolyline
 66
     1
 10
0.0
 20
0.0
 30
0.0
  0
VERTEX
  5
11F
330
11D
100
AcDbEntity
  8
001
370
     9
100
AcDbVertex
100
AcDb2dVertex
 10
126.213659
 20
78.401433
 30
0.0
  0
VERTEX
  5
120
330
11D
100
AcDbEntity
  8
001
370
     9
100
AcDbVertex
100
AcDb2dVertex
 10
124.713659
 20
78.803357
 30
0.0
  0
VERTEX
  5
121
330
11D
100
AcDbEntity
  8
001
370
     9
100
AcDbVertex
100
AcDb2dVertex
 10
126.213659
 20
79.20528
 30
0.0
  0
SEQEND
  5
11E
330
11D
100
AcDbEntity
  8
001
370
     9
  0
POLYLINE
  5
122
330
118
100
AcDbEntity
  8
001
370
     9
100
AcDb2dPolyline
 66
     1
 10
0.0
 20
0.0
 30
0.0
  0
VERTEX
  5
124
330
122
100
AcDbEntity
  8
001
370
     9
100
AcDbVertex
100
AcDb2dVertex
 10
121.913658
 20
79.20528
 30
0.0
  0
VERTEX
  5
125
330
122
100
AcDbEntity
  8
001
370
     9
100
AcDbVertex
100
AcDb2dVertex
 10
123.413658
 20
78.803357
 30
0.0
  0
VERTEX
  5
126
330
122
100
AcDbEntity
  8
001
370
     9
100
AcDbVertex
100
AcDb2dVertex
 10
121.913658
 20
78.401433
 30
0.0
  0
SEQEND
  5
123
330
122
100
AcDbEntity
  8
001
370
     9
  0
TEXT
  5
127
330
118
100
AcDbEntity
  8
001
370
    30
100
AcDbText
 10
107.913658
 20
79.803357
 30
0.0
 40
4.0
  1
１．３
 41
0.833333
100
AcDbText
  0
POINT
  5
128
330
118
100
AcDbEntity
  8
001
370
     9
100
AcDbPoint
 10
124.713659
 20
120.863008
 30
0.0
  0
POINT
  5
129
330
118
100
AcDbEntity
  8
001
370
     9
100
AcDbPoint
 10
123.413658
 20
81.553357
 30
0.0
  0
POINT
  5
12A
330
118
100
AcDbEntity
  8
001
370
     9
100
AcDbPoint
 10
123.413658
 20
78.803357
 30
0.0
  0
LINE
  5
12B
330
118
100
AcDbEntity
  8
001
370
     9
100
AcDbLine
 10
124.713659
 20
78.803357
 30
0.0
 11
127.213659
 21
78.803357
 31
0.0
  0
LINE
  5
12C
330
118
100
AcDbEntity
  8
001
370
     9
100
AcDbLine
 10
123.413658
 20
78.803357
 30
0.0
 11
104.913658
 21
78.803357
 31
0.0
  0
ENDBLK
  5
11A
330
118
100
AcDbEntity
  8
0
100
AcDbBlockEnd
  0
BLOCK
  5
12E
330
12D
100
AcDbEntity
  8
0
100
AcDbBlockBegin
  2
*D11
 70
     1
 10
0.0
 20
0.0
 30
0.0
  3
*D11
  1

  0
LINE
  5
130
330
12D
100
AcDbEntity
  8
001
370
     9
100
AcDbLine
 10
146.213659
 20
111.069008
 30
0.0
 11
146.213659
 21
76.053357
 31
0.0
  0
LINE
  5
131
330
12D
100
AcDbEntity
  8
001
370
     9
100
AcDbLine
 10
124.713659
 20
120.863008
 30
0.0
 11
124.713659
 21
76.053357
 31
0.0
  0
LINE
  5
132
330
12D
100
AcDbEntity
  8
001
370
     9
100
AcDbLine
 10
146.213659
 20
78.803357
 30
0.0
 11
124.713659
 21
78.803357
 31
0.0
  0
POLYLINE
  5
133
330
12D
100
AcDbEntity
  8
001
370
     9
100
AcDb2dPolyline
 66
     1
 10
0.0
 20
0.0
 30
0.0
  0
VERTEX
  5
135
330
133
100
AcDbEntity
  8
001
370
     9
100
AcDbVertex
100
AcDb2dVertex
 10
144.713659
 20
79.20528
 30
0.0
  0
VERTEX
  5
136
330
133
100
AcDbEntity
  8
001
370
     9
100
AcDbVertex
100
AcDb2dVertex
 10
146.213659
 20
78.803357
 30
0.0
  0
VERTEX
  5
137
330
133
100
AcDbEntity
  8
001
370
     9
100
AcDbVertex
100
AcDb2dVertex
 10
144.713659
 20
78.401433
 30
0.0
  0
SEQEND
  5
134
330
133
100
AcDbEntity
  8
001
370
     9
  0
POLYLINE
  5
138
330
12D
100
AcDbEntity
  8
001
370
     9
100
AcDb2dPolyline
 66
     1
 10
0.0
 20
0.0
 30
0.0
  0
VERTEX
  5
13A
330
138
100
AcDbEntity
  8
001
370
     9
100
AcDbVertex
100
AcDb2dVertex
 10
126.213659
 20
78.401433
 30
0.0
  0
VERTEX
  5
13B
330
138
100
AcDbEntity
  8
001
370
     9
100
AcDbVertex
100
AcDb2dVertex
 10
124.713659
 20
78.803357
 30
0.0
  0
VERTEX
  5
13C
330
138
100
AcDbEntity
  8
001
370
     9
100
AcDbVertex
100
AcDb2dVertex
 10
126.213659
 20
79.20528
 30
0.0
  0
SEQEND
  5
139
330
138
100
AcDbEntity
  8
001
370
     9
  0
TEXT
  5
13D
330
12D
100
AcDbEntity
  8
001
370
    30
100
AcDbText
 10
127.463659
 20
79.803357
 30
0.0
 40
4.0
  1
２１．５
 41
0.833333
100
AcDbText
  0
POINT
  5
13E
330
12D
100
AcDbEntity
  8
001
370
     9
100
AcDbPoint
 10
146.213659
 20
111.069008
 30
0.0
  0
POINT
  5
13F
330
12D
100
AcDbEntity
  8
001
370
     9
100
AcDbPoint
 10
124.713659
 20
120.863008
 30
0.0
  0
POINT
  5
140
330
12D
100
AcDbEntity
  8
001
370
     9
100
AcDbPoint
 10
124.713659
 20
78.803357
 30
0.0
  0
ENDBLK
  5
12F
330
12D
100
AcDbEntity
  8
0
100
AcDbBlockEnd
  0
BLOCK
  5
142
330
141
100
AcDbEntity
  8
0
100
AcDbBlockBegin
  2
*D12
 70
     1
 10
0.0
 20
0.0
 30
0.0
  3
*D12
  1

  0
LINE
  5
144
330
141
100
AcDbEntity
  8
001
370
     9
100
AcDbLine
 10
69.55332
 20
36.103445
 30
0.0
 11
69.55332
 21
27.609733
 31
0.0
  0
LINE
  5
145
330
141
100
AcDbEntity
  8
001
370
     9
100
AcDbLine
 10
47.55332
 20
36.103445
 30
0.0
 11
47.55332
 21
27.609733
 31
0.0
  0
LINE
  5
146
330
141
100
AcDbEntity
  8
001
370
     9
100
AcDbLine
 10
69.55332
 20
29.443066
 30
0.0
 11
47.55332
 21
29.443066
 31
0.0
  0
POLYLINE
  5
147
330
141
100
AcDbEntity
  8
001
370
     9
100
AcDb2dPolyline
 66
     1
 10
0.0
 20
0.0
 30
0.0
  0
VERTEX
  5
149
330
147
100
AcDbEntity
  8
001
370
     9
100
AcDbVertex
100
AcDb2dVertex
 10
68.55332
 20
29.711015
 30
0.0
  0
VERTEX
  5
14A
330
147
100
AcDbEntity
  8
001
370
     9
100
AcDbVertex
100
AcDb2dVertex
 10
69.55332
 20
29.443066
 30
0.0
  0
VERTEX
  5
14B
330
147
100
AcDbEntity
  8
001
370
     9
100
AcDbVertex
100
AcDb2dVertex
 10
68.55332
 20
29.175117
 30
0.0
  0
SEQEND
  5
148
330
147
100
AcDbEntity
  8
001
370
     9
  0
POLYLINE
  5
14C
330
141
100
AcDbEntity
  8
001
370
     9
100
AcDb2dPolyline
 66
     1
 10
0.0
 20
0.0
 30
0.0
  0
VERTEX
  5
14E
330
14C
100
AcDbEntity
  8
001
370
     9
100
AcDbVertex
100
AcDb2dVertex
 10
48.55332
 20
29.175117
 30
0.0
  0
VERTEX
  5
14F
330
14C
100
AcDbEntity
  8
001
370
     9
100
AcDbVertex
100
AcDb2dVertex
 10
47.55332
 20
29.443066
 30
0.0
  0
VERTEX
  5
150
330
14C
100
AcDbEntity
  8
001
370
     9
100
AcDbVertex
100
AcDb2dVertex
 10
48.55332
 20
29.711015
 30
0.0
  0
SEQEND
  5
14D
330
14C
100
AcDbEntity
  8
001
370
     9
  0
TEXT
  5
151
330
141
100
AcDbEntity
  8
001
370
    30
100
AcDbText
 10
54.55332
 20
30.109733
 30
0.0
 40
2.666667
  1
%%c２２
 41
0.882353
100
AcDbText
  0
POINT
  5
152
330
141
100
AcDbEntity
  8
001
370
     9
100
AcDbPoint
 10
69.55332
 20
36.103445
 30
0.0
  0
POINT
  5
153
330
141
100
AcDbEntity
  8
001
370
     9
100
AcDbPoint
 10
47.55332
 20
36.103445
 30
0.0
  0
POINT
  5
154
330
141
100
AcDbEntity
  8
001
370
     9
100
AcDbPoint
 10
47.55332
 20
29.443066
 30
0.0
  0
ENDBLK
  5
143
330
141
100
AcDbEntity
  8
0
100
AcDbBlockEnd
  0
BLOCK
  5
156
330
155
100
AcDbEntity
  8
0
100
AcDbBlockBegin
  2
*D13
 70
     1
 10
0.0
 20
0.0
 30
0.0
  3
*D13
  1

  0
LINE
  5
158
330
155
100
AcDbEntity
  8
001
370
     9
100
AcDbLine
 10
42.55332
 20
70.103445
 30
0.0
 11
42.55332
 21
87.817587
 31
0.0
  0
LINE
  5
159
330
155
100
AcDbEntity
  8
001
370
     9
100
AcDbLine
 10
74.55332
 20
70.103445
 30
0.0
 11
74.55332
 21
87.817587
 31
0.0
  0
LINE
  5
15A
330
155
100
AcDbEntity
  8
001
370
     9
100
AcDbLine
 10
42.55332
 20
85.984253
 30
0.0
 11
74.55332
 21
85.984253
 31
0.0
  0
POLYLINE
  5
15B
330
155
100
AcDbEntity
  8
001
370
     9
100
AcDb2dPolyline
 66
     1
 10
0.0
 20
0.0
 30
0.0
  0
VERTEX
  5
15D
330
15B
100
AcDbEntity
  8
001
370
     9
100
AcDbVertex
100
AcDb2dVertex
 10
43.55332
 20
85.716304
 30
0.0
  0
VERTEX
  5
15E
330
15B
100
AcDbEntity
  8
001
370
     9
100
AcDbVertex
100
AcDb2dVertex
 10
42.55332
 20
85.984253
 30
0.0
  0
VERTEX
  5
15F
330
15B
100
AcDbEntity
  8
001
370
     9
100
AcDbVertex
100
AcDb2dVertex
 10
43.55332
 20
86.252202
 30
0.0
  0
SEQEND
  5
15C
330
15B
100
AcDbEntity
  8
001
370
     9
  0
POLYLINE
  5
160
330
155
100
AcDbEntity
  8
001
370
     9
100
AcDb2dPolyline
 66
     1
 10
0.0
 20
0.0
 30
0.0
  0
VERTEX
  5
162
330
160
100
AcDbEntity
  8
001
370
     9
100
AcDbVertex
100
AcDb2dVertex
 10
73.55332
 20
86.252202
 30
0.0
  0
VERTEX
  5
163
330
160
100
AcDbEntity
  8
001
370
     9
100
AcDbVertex
100
AcDb2dVertex
 10
74.55332
 20
85.984253
 30
0.0
  0
VERTEX
  5
164
330
160
100
AcDbEntity
  8
001
370
     9
100
AcDbVertex
100
AcDb2dVertex
 10
73.55332
 20
85.716304
 30
0.0
  0
SEQEND
  5
161
330
160
100
AcDbEntity
  8
001
370
     9
  0
TEXT
  5
165
330
155
100
AcDbEntity
  8
001
370
    30
100
AcDbText
 10
54.55332
 20
86.65092
 30
0.0
 40
2.666667
  1
%%c３２
 41
0.882353
100
AcDbText
  0
POINT
  5
166
330
155
100
AcDbEntity
  8
001
370
     9
100
AcDbPoint
 10
42.55332
 20
70.103445
 30
0.0
  0
POINT
  5
167
330
155
100
AcDbEntity
  8
001
370
     9
100
AcDbPoint
 10
74.55332
 20
70.103445
 30
0.0
  0
POINT
  5
168
330
155
100
AcDbEntity
  8
001
370
     9
100
AcDbPoint
 10
74.55332
 20
85.984253
 30
0.0
  0
ENDBLK
  5
157
330
155
100
AcDbEntity
  8
0
100
AcDbBlockEnd
  0
BLOCK
  5
16A
330
169
100
AcDbEntity
  8
0
100
AcDbBlockBegin
  2
*D14
 70
     1
 10
0.0
 20
0.0
 30
0.0
  3
*D14
  1

  0
LINE
  5
16C
330
169
100
AcDbEntity
  8
001
370
     9
100
AcDbLine
 10
83.55332
 20
71.103445
 30
0.0
 11
88.119144
 21
71.103445
 31
0.0
  0
LINE
  5
16D
330
169
100
AcDbEntity
  8
001
370
     9
100
AcDbLine
 10
74.55332
 20
49.603445
 30
0.0
 11
88.119144
 21
49.603445
 31
0.0
  0
LINE
  5
16E
330
169
100
AcDbEntity
  8
001
370
     9
100
AcDbLine
 10
86.28581
 20
71.103445
 30
0.0
 11
86.28581
 21
49.603445
 31
0.0
  0
POLYLINE
  5
16F
330
169
100
AcDbEntity
  8
001
370
     9
100
AcDb2dPolyline
 66
     1
 10
0.0
 20
0.0
 30
0.0
  0
VERTEX
  5
171
330
16F
100
AcDbEntity
  8
001
370
     9
100
AcDbVertex
100
AcDb2dVertex
 10
86.017861
 20
70.103445
 30
0.0
  0
VERTEX
  5
172
330
16F
100
AcDbEntity
  8
001
370
     9
100
AcDbVertex
100
AcDb2dVertex
 10
86.28581
 20
71.103445
 30
0.0
  0
VERTEX
  5
173
330
16F
100
AcDbEntity
  8
001
370
     9
100
AcDbVertex
100
AcDb2dVertex
 10
86.55376
 20
70.103445
 30
0.0
  0
SEQEND
  5
170
330
16F
100
AcDbEntity
  8
001
370
     9
  0
POLYLINE
  5
174
330
169
100
AcDbEntity
  8
001
370
     9
100
AcDb2dPolyline
 66
     1
 10
0.0
 20
0.0
 30
0.0
  0
VERTEX
  5
176
330
174
100
AcDbEntity
  8
001
370
     9
100
AcDbVertex
100
AcDb2dVertex
 10
86.55376
 20
50.603445
 30
0.0
  0
VERTEX
  5
177
330
174
100
AcDbEntity
  8
001
370
     9
100
AcDbVertex
100
AcDb2dVertex
 10
86.28581
 20
49.603445
 30
0.0
  0
VERTEX
  5
178
330
174
100
AcDbEntity
  8
001
370
     9
100
AcDbVertex
100
AcDb2dVertex
 10
86.017861
 20
50.603445
 30
0.0
  0
SEQEND
  5
175
330
174
100
AcDbEntity
  8
001
370
     9
  0
TEXT
  5
179
330
169
100
AcDbEntity
  8
001
370
    30
100
AcDbText
 10
85.619144
 20
55.020111
 30
0.0
 40
2.666667
  1
２１．５
 50
90.000003
 41
0.833333
100
AcDbText
  0
POINT
  5
17A
330
169
100
AcDbEntity
  8
001
370
     9
100
AcDbPoint
 10
83.55332
 20
71.103445
 30
0.0
  0
POINT
  5
17B
330
169
100
AcDbEntity
  8
001
370
     9
100
AcDbPoint
 10
74.55332
 20
49.603445
 30
0.0
  0
POINT
  5
17C
330
169
100
AcDbEntity
  8
001
370
     9
100
AcDbPoint
 10
86.28581
 20
49.603445
 30
0.0
  0
ENDBLK
  5
16B
330
169
100
AcDbEntity
  8
0
100
AcDbBlockEnd
  0
ENDSEC
  0
SECTION
  2
ENTITIES
  0
DIMENSION
  5
17D
330
1F
100
AcDbEntity
  8
001
370
     9
100
AcDbDimension
  2
*D1
 10
99.816885
 20
152.069008
 30
0.0
 11
96.816885
 21
136.069008
 31
0.0
 70
   160
 71
     5
 42
-1.0
  3
Standard
100
AcDbAlignedDimension
 13
124.713659
 23
120.069008
 33
0.0
 14
124.713659
 24
152.069008
 34
0.0
 50
90.0
100
AcDbRotatedDimension
  0
DIMENSION
  5
17E
330
1F
100
AcDbEntity
  8
001
370
     9
100
AcDbDimension
  2
*D2
 10
85.017943
 20
154.069008
 30
0.0
 11
82.017942
 21
136.069008
 31
0.0
 70
   160
 71
     5
 42
-1.0
  3
Standard
100
AcDbAlignedDimension
 13
147.213659
 23
118.069008
 33
0.0
 14
143.452832
 24
154.069008
 34
0.0
 50
90.0
100
AcDbRotatedDimension
  0
DIMENSION
  5
17F
330
1F
100
AcDbEntity
  8
001
370
     9
100
AcDbDimension
  2
*D3
 10
70.149536
 20
156.919008
 30
0.0
 11
67.149536
 21
136.069008
 31
0.0
 70
   160
 71
     5
 42
-1.0
  3
Standard
100
AcDbAlignedDimension
 13
144.350123
 23
115.219008
 33
0.0
 14
143.452832
 24
156.919008
 34
0.0
 50
90.0
100
AcDbRotatedDimension
  0
DIMENSION
  5
180
330
1F
100
AcDbEntity
  8
001
370
     9
100
AcDbDimension
  2
*D4
 10
292.851182
 20
120.069008
 30
0.0
 11
289.851181
 21
136.069008
 31
0.0
 70
   160
 71
     5
 42
-1.0
  3
Standard
100
AcDbAlignedDimension
 13
259.413658
 23
152.069008
 33
0.0
 14
259.413658
 24
120.069008
 34
0.0
 50
270.0
100
AcDbRotatedDimension
  0
DIMENSION
  5
181
330
1F
100
AcDbEntity
  8
001
370
     9
100
AcDbDimension
  2
*D5
 10
267.413658
 20
66.177383
 30
0.0
 11
227.413658
 21
69.177383
 31
0.0
 70
   160
 71
     5
 42
-1.0
  3
Standard
100
AcDbAlignedDimension
 13
187.413658
 23
118.069008
 33
0.0
 14
267.413658
 24
128.069008
 34
0.0
100
AcDbRotatedDimension
  0
DIMENSION
  5
182
330
1F
100
AcDbEntity
  8
001
370
     9
100
AcDbDimension
  2
*D6
 10
187.413658
 20
66.177383
 30
0.0
 11
155.413658
 21
69.177383
 31
0.0
 70
   160
 71
     5
 42
-1.0
  3
Standard
100
AcDbAlignedDimension
 13
123.413658
 23
125.869008
 33
0.0
 14
187.413658
 24
118.069008
 34
0.0
100
AcDbRotatedDimension
  0
DIMENSION
  5
183
330
1F
100
AcDbEntity
  8
001
370
     9
100
AcDbDimension
  2
*D7
 10
267.413658
 20
52.541202
 30
0.0
 11
195.413658
 21
55.541202
 31
0.0
 70
   160
 71
     5
 42
-1.0
  3
Standard
100
AcDbAlignedDimension
 13
123.413658
 23
125.869008
 33
0.0
 14
267.413658
 24
128.069008
 34
0.0
100
AcDbRotatedDimension
  0
DIMENSION
  5
184
330
1F
100
AcDbEntity
  8
001
370
     9
100
AcDbDimension
  2
*D8
 10
113.213659
 20
136.069008
 30
0.0
 11
208.445623
 21
96.622636
 31
0.0
 70
    34
 71
     5
 42
-1.0
  3
Standard
100
AcDb2LineAngularDimension
 13
216.541994
 23
136.069008
 33
0.0
 14
113.213659
 24
136.069008
 34
0.0
 15
124.713659
 25
124.569008
 35
0.0
 16
211.217262
 26
95.474586
 36
0.0
  0
DIMENSION
  5
185
330
1F
100
AcDbEntity
  8
001
370
     9
100
AcDbDimension
  2
*D9
 10
129.213659
 20
136.069008
 30
0.0
 11
201.393809
 21
106.171011
 31
0.0
 70
    34
 71
     5
 42
-1.0
  3
Standard
100
AcDb2LineAngularDimension
 13
207.590891
 23
136.069008
 33
0.0
 14
129.213659
 24
136.069008
 34
0.0
 15
147.213659
 25
118.069008
 35
0.0
 16
204.165448
 26
105.02296
 36
0.0
  0
DIMENSION
  5
186
330
1F
100
AcDbEntity
  8
001
370
     9
100
AcDbDimension
  2
*D10
 10
123.413658
 20
78.803357
 30
0.0
 11
113.913658
 21
81.803357
 31
0.0
 70
   160
 71
     5
 42
-1.0
  3
Standard
100
AcDbAlignedDimension
 13
124.713659
 23
120.863008
 33
0.0
 14
123.413658
 24
81.553357
 34
0.0
 50
180.0
100
AcDbRotatedDimension
  0
DIMENSION
  5
187
330
1F
100
AcDbEntity
  8
001
370
     9
100
AcDbDimension
  2
*D11
 10
124.713659
 20
78.803357
 30
0.0
 11
135.463659
 21
81.803357
 31
0.0
 70
   160
 71
     5
 42
-1.0
  3
Standard
100
AcDbAlignedDimension
 13
146.213659
 23
111.069008
 33
0.0
 14
124.713659
 24
120.863008
 34
0.0
 50
180.0
100
AcDbRotatedDimension
  0
DIMENSION
  5
188
330
1F
100
AcDbEntity
  8
001
370
     9
100
AcDbDimension
  2
*D12
 10
47.55332
 20
29.443066
 30
0.0
 11
58.55332
 21
31.443066
 31
0.0
 70
   160
 71
     5
 42
-1.0
  3
Standard
100
AcDbAlignedDimension
 13
69.55332
 23
36.103445
 33
0.0
 14
47.55332
 24
36.103445
 34
0.0
 50
180.0
100
AcDbRotatedDimension
  0
DIMENSION
  5
189
330
1F
100
AcDbEntity
  8
001
370
     9
100
AcDbDimension
  2
*D13
 10
74.55332
 20
85.984253
 30
0.0
 11
58.55332
 21
87.984253
 31
0.0
 70
   160
 71
     5
 42
-1.0
  3
Standard
100
AcDbAlignedDimension
 13
42.55332
 23
70.103445
 33
0.0
 14
74.55332
 24
70.103445
 34
0.0
100
AcDbRotatedDimension
  0
DIMENSION
  5
18A
330
1F
100
AcDbEntity
  8
001
370
     9
100
AcDbDimension
  2
*D14
 10
86.28581
 20
49.603445
 30
0.0
 11
84.28581
 21
60.353445
 31
0.0
 70
   160
 71
     5
 42
-1.0
  3
Standard
100
AcDbAlignedDimension
 13
83.55332
 23
71.103445
 33
0.0
 14
74.55332
 24
49.603445
 34
0.0
 50
270.0
100
AcDbRotatedDimension
  0
TEXT
  5
18B
330
1F
100
AcDbEntity
  8
001
370
    30
100
AcDbText
 10
68.372261
 20
78.227313
 30
0.0
 40
2.666667
  1
Ｃ１
 50
314.999992
 41
0.833333
100
AcDbText
  0
POLYLINE
  5
18C
330
1F
100
AcDbEntity
  8
001
370
     9
100
AcDb2dPolyline
 66
     1
 10
0.0
 20
0.0
 30
0.0
  0
VERTEX
  5
18E
330
18C
100
AcDbEntity
  8
001
370
     9
100
AcDbVertex
100
AcDb2dVertex
 10
74.535682
 20
71.50002
 30
0.0
  0
VERTEX
  5
18F
330
18C
100
AcDbEntity
  8
001
370
     9
100
AcDbVertex
100
AcDb2dVertex
 10
75.05332
 20
70.603445
 30
0.0
  0
VERTEX
  5
190
330
18C
100
AcDbEntity
  8
001
370
     9
100
AcDbVertex
100
AcDb2dVertex
 10
74.156745
 20
71.121083
 30
0.0
  0
SEQEND
  5
18D
330
18C
100
AcDbEntity
  8
001
370
     9
  0
LINE
  5
191
330
1F
100
AcDbEntity
  8
001
370
     9
100
AcDbLine
 10
75.05332
 20
70.603445
 30
0.0
 11
66.486643
 21
79.170122
 31
0.0
  0
TEXT
  5
192
330
1F
100
AcDbEntity
  8
001
370
    30
100
AcDbText
 10
62.165876
 20
57.933698
 30
0.0
 40
2.666667
  1
Ｃ０．５
 50
314.999992
 41
0.833333
100
AcDbText
  0
POLYLINE
  5
193
330
1F
100
AcDbEntity
  8
001
370
     9
100
AcDb2dPolyline
 66
     1
 10
0.0
 20
0.0
 30
0.0
  0
VERTEX
  5
195
330
193
100
AcDbEntity
  8
001
370
     9
100
AcDbVertex
100
AcDb2dVertex
 10
69.285682
 20
50.25002
 30
0.0
  0
VERTEX
  5
196
330
193
100
AcDbEntity
  8
001
370
     9
100
AcDbVertex
100
AcDb2dVertex
 10
69.80332
 20
49.353445
 30
0.0
  0
VERTEX
  5
197
330
193
100
AcDbEntity
  8
001
370
     9
100
AcDbVertex
100
AcDb2dVertex
 10
68.906745
 20
49.871083
 30
0.0
  0
SEQEND
  5
194
330
193
100
AcDbEntity
  8
001
370
     9
  0
LINE
  5
198
330
1F
100
AcDbEntity
  8
001
370
     9
100
AcDbLine
 10
69.80332
 20
49.353445
 30
0.0
 11
60.280257
 21
58.876507
 31
0.0
  0
TEXT
  5
199
330
1F
100
AcDbEntity
  8
001
370
    30
100
AcDbText
 10
61.370473
 20
192.061323
 30
0.0
 40
10.0
  1
イーグルカット　ＥＣ３２－３２ＸＳ－Ｍ２０
 41
0.833333
100
AcDbText
  0
CIRCLE
  5
19A
330
1F
100
AcDbEntity
  8
001
370
    50
100
AcDbCircle
 10
129.672966
 20
126.530219
 30
0.0
 40
3.25
  0
LINE
  5
19B
330
1F
100
AcDbEntity
  8
001
370
    50
100
AcDbLine
 10
130.409088
 20
127.805219
 30
0.0
 11
130.105979
 21
128.330219
 31
0.0
  0
LINE
  5
19C
330
1F
100
AcDbEntity
  8
001
370
    50
100
AcDbLine
 10
128.936844
 20
127.805219
 30
0.0
 11
129.239953
 21
128.330219
 31
0.0
  0
ARC
  5
19D
330
1F
100
AcDbEntity
  8
001
370
    50
100
AcDbCircle
 10
129.672966
 20
128.080219
 30
0.0
 40
0.5
100
AcDbArc
 50
30.0
 51
150.0
  0
LINE
  5
19E
330
1F
100
AcDbEntity
  8
001
370
    50
100
AcDbLine
 10
128.936844
 20
127.805219
 30
0.0
 11
128.330627
 21
127.805219
 31
0.0
  0
LINE
  5
19F
330
1F
100
AcDbEntity
  8
001
370
    50
100
AcDbLine
 10
128.200723
 20
126.530219
 30
0.0
 11
127.897614
 21
127.055219
 31
0.0
  0
ARC
  5
1A0
330
1F
100
AcDbEntity
  8
001
370
    50
100
AcDbCircle
 10
128.330627
 20
127.305219
 30
0.0
 40
0.5
100
AcDbArc
 50
90.0
 51
210.0
  0
LINE
  5
1A1
330
1F
100
AcDbEntity
  8
001
370
    50
100
AcDbLine
 10
128.200723
 20
126.530219
 30
0.0
 11
127.897614
 21
126.005219
 31
0.0
  0
LINE
  5
1A2
330
1F
100
AcDbEntity
  8
001
370
    50
100
AcDbLine
 10
128.936844
 20
125.255219
 30
0.0
 11
128.330627
 21
125.255219
 31
0.0
  0
ARC
  5
1A3
330
1F
100
AcDbEntity
  8
001
370
    50
100
AcDbCircle
 10
128.330627
 20
125.755219
 30
0.0
 40
0.5
100
AcDbArc
 50
150.0
 51
270.0
  0
LINE
  5
1A4
330
1F
100
AcDbEntity
  8
001
370
    50
100
AcDbLine
 10
128.936844
 20
125.255219
 30
0.0
 11
129.239953
 21
124.730219
 31
0.0
  0
LINE
  5
1A5
330
1F
100
AcDbEntity
  8
001
370
    50
100
AcDbLine
 10
130.409088
 20
125.255219
 30
0.0
 11
130.105979
 21
124.730219
 31
0.0
  0
ARC
  5
1A6
330
1F
100
AcDbEntity
  8
001
370
    50
100
AcDbCircle
 10
129.672966
 20
124.980219
 30
0.0
 40
0.5
100
AcDbArc
 50
210.0
 51
330.0
  0
LINE
  5
1A7
330
1F
100
AcDbEntity
  8
001
370
    50
100
AcDbLine
 10
130.409088
 20
125.255219
 30
0.0
 11
131.015305
 21
125.255219
 31
0.0
  0
LINE
  5
1A8
330
1F
100
AcDbEntity
  8
001
370
    50
100
AcDbLine
 10
131.145209
 20
126.530219
 30
0.0
 11
131.448318
 21
126.005219
 31
0.0
  0
ARC
  5
1A9
330
1F
100
AcDbEntity
  8
001
370
    50
100
AcDbCircle
 10
131.015305
 20
125.755219
 30
0.0
 40
0.5
100
AcDbArc
 50
270.0
 51
30.0
  0
LINE
  5
1AA
330
1F
100
AcDbEntity
  8
001
370
    50
100
AcDbLine
 10
131.145209
 20
126.530219
 30
0.0
 11
131.448318
 21
127.055219
 31
0.0
  0
LINE
  5
1AB
330
1F
100
AcDbEntity
  8
001
370
    50
100
AcDbLine
 10
130.409088
 20
127.805219
 30
0.0
 11
131.015305
 21
127.805219
 31
0.0
  0
ARC
  5
1AC
330
1F
100
AcDbEntity
  8
001
370
    50
100
AcDbCircle
 10
131.015305
 20
127.305219
 30
0.0
 40
0.5
100
AcDbArc
 50
330.0
 51
90.0
  0
POLYLINE
  5
1AD
330
1F
100
AcDbEntity
  8
001
370
    50
100
AcDb2dPolyline
 66
     1
 10
0.0
 20
0.0
 30
0.0
  0
VERTEX
  5
1AF
330
1AD
100
AcDbEntity
  8
001
370
    50
100
AcDbVertex
100
AcDb2dVertex
 10
129.667188
 20
130.302816
 30
0.0
  0
VERTEX
  5
1B0
330
1AD
100
AcDbEntity
  8
001
370
    50
100
AcDbVertex
100
AcDb2dVertex
 10
129.39644
 20
130.288532
 30
0.0
  0
VERTEX
  5
1B1
330
1AD
100
AcDbEntity
  8
001
370
    50
100
AcDbVertex
100
AcDb2dVertex
 10
129.0259
 20
130.245846
 30
0.0
  0
VERTEX
  5
1B2
330
1AD
100
AcDbEntity
  8
001
370
    50
100
AcDbVertex
100
AcDb2dVertex
 10
128.697531
 20
130.175005
 30
0.0
  0
VERTEX
  5
1B3
330
1AD
100
AcDbEntity
  8
001
370
    50
100
AcDbVertex
100
AcDb2dVertex
 10
128.404097
 20
130.076664
 30
0.0
  0
VERTEX
  5
1B4
330
1AD
100
AcDbEntity
  8
001
370
    50
100
AcDbVertex
100
AcDb2dVertex
 10
128.109988
 20
129.951372
 30
0.0
  0
VERTEX
  5
1B5
330
1AD
100
AcDbEntity
  8
001
370
    50
100
AcDbVertex
100
AcDb2dVertex
 10
127.820673
 20
129.800412
 30
0.0
  0
VERTEX
  5
1B6
330
1AD
100
AcDbEntity
  8
001
370
    50
100
AcDbVertex
100
AcDb2dVertex
 10
127.547801
 20
129.624582
 30
0.0
  0
VERTEX
  5
1B7
330
1AD
100
AcDbEntity
  8
001
370
    50
100
AcDbVertex
100
AcDb2dVertex
 10
127.293354
 20
129.425483
 30
0.0
  0
VERTEX
  5
1B8
330
1AD
100
AcDbEntity
  8
001
370
    50
100
AcDbVertex
100
AcDb2dVertex
 10
127.055943
 20
129.204042
 30
0.0
  0
VERTEX
  5
1B9
330
1AD
100
AcDbEntity
  8
001
370
    50
100
AcDbVertex
100
AcDb2dVertex
 10
126.838163
 20
128.96327
 30
0.0
  0
VERTEX
  5
1BA
330
1AD
100
AcDbEntity
  8
001
370
    50
100
AcDbVertex
100
AcDb2dVertex
 10
126.641856
 20
128.704548
 30
0.0
  0
VERTEX
  5
1BB
330
1AD
100
AcDbEntity
  8
001
370
    50
100
AcDbVertex
100
AcDb2dVertex
 10
126.468931
 20
128.427816
 30
0.0
  0
VERTEX
  5
1BC
330
1AD
100
AcDbEntity
  8
001
370
    50
100
AcDbVertex
100
AcDb2dVertex
 10
126.320125
 20
128.133769
 30
0.0
  0
VERTEX
  5
1BD
330
1AD
100
AcDbEntity
  8
001
370
    50
100
AcDbVertex
100
AcDb2dVertex
 10
126.196875
 20
127.835392
 30
0.0
  0
VERTEX
  5
1BE
330
1AD
100
AcDbEntity
  8
001
370
    50
100
AcDbVertex
100
AcDb2dVertex
 10
126.099971
 20
127.537173
 30
0.0
  0
VERTEX
  5
1BF
330
1AD
100
AcDbEntity
  8
001
370
    50
100
AcDbVertex
100
AcDb2dVertex
 10
126.030264
 20
127.203997
 30
0.0
  0
VERTEX
  5
1C0
330
1AD
100
AcDbEntity
  8
001
370
    50
100
AcDbVertex
100
AcDb2dVertex
 10
125.988217
 20
126.827695
 30
0.0
  0
VERTEX
  5
1C1
330
1AD
100
AcDbEntity
  8
001
370
    50
100
AcDbVertex
100
AcDb2dVertex
 10
125.974158
 20
126.552816
 30
0.0
  0
SEQEND
  5
1AE
330
1AD
100
AcDbEntity
  8
001
370
    50
  0
LINE
  5
1C2
330
1F
100
AcDbEntity
  8
001
370
    50
100
AcDbLine
 10
123.413658
 20
125.869008
 30
0.0
 11
123.413658
 21
130.788761
 31
0.0
  0
POLYLINE
  5
1C3
330
1F
100
AcDbEntity
  8
001
370
    50
100
AcDb2dPolyline
 66
     1
 10
0.0
 20
0.0
 30
0.0
  0
VERTEX
  5
1C5
330
1C3
100
AcDbEntity
  8
001
370
    50
100
AcDbVertex
100
AcDb2dVertex
 10
124.195596
 20
131.582761
 30
0.0
  0
VERTEX
  5
1C6
330
1C3
100
AcDbEntity
  8
001
370
    50
100
AcDbVertex
100
AcDb2dVertex
 10
124.131132
 20
131.578934
 30
0.0
  0
VERTEX
  5
1C7
330
1C3
100
AcDbEntity
  8
001
370
    50
100
AcDbVertex
100
AcDb2dVertex
 10
124.043047
 20
131.567505
 30
0.0
  0
VERTEX
  5
1C8
330
1C3
100
AcDbEntity
  8
001
370
    50
100
AcDbVertex
100
AcDb2dVertex
 10
123.965309
 20
131.548555
 30
0.0
  0
VERTEX
  5
1C9
330
1C3
100
AcDbEntity
  8
001
370
    50
100
AcDbVertex
100
AcDb2dVertex
 10
123.896361
 20
131.522322
 30
0.0
  0
VERTEX
  5
1CA
330
1C3
100
AcDbEntity
  8
001
370
    50
100
AcDbVertex
100
AcDb2dVertex
 10
123.827832
 20
131.488998
 30
0.0
  0
VERTEX
  5
1CB
330
1C3
100
AcDbEntity
  8
001
370
    50
100
AcDbVertex
100
AcDb2dVertex
 10
123.761174
 20
131.448948
 30
0.0
  0
VERTEX
  5
1CC
330
1C3
100
AcDbEntity
  8
001
370
    50
100
AcDbVertex
100
AcDb2dVertex
 10
123.699261
 20
131.40243
 30
0.0
  0
VERTEX
  5
1CD
330
1C3
100
AcDbEntity
  8
001
370
    50
100
AcDbVertex
100
AcDb2dVertex
 10
123.642682
 20
131.350204
 30
0.0
  0
VERTEX
  5
1CE
330
1C3
100
AcDbEntity
  8
001
370
    50
100
AcDbVertex
100
AcDb2dVertex
 10
123.59118
 20
131.29266
 30
0.0
  0
VERTEX
  5
1CF
330
1C3
100
AcDbEntity
  8
001
370
    50
100
AcDbVertex
100
AcDb2dVertex
 10
123.545438
 20
131.229884
 30
0.0
  0
VERTEX
  5
1D0
330
1C3
100
AcDbEntity
  8
001
370
    50
100
AcDbVertex
100
AcDb2dVertex
 10
123.505952
 20
131.162123
 30
0.0
  0
VERTEX
  5
1D1
330
1C3
100
AcDbEntity
  8
001
370
    50
100
AcDbVertex
100
AcDb2dVertex
 10
123.47318
 20
131.092612
 30
0.0
  0
VERTEX
  5
1D2
330
1C3
100
AcDbEntity
  8
001
370
    50
100
AcDbVertex
100
AcDb2dVertex
 10
123.447326
 20
131.022525
 30
0.0
  0
VERTEX
  5
1D3
330
1C3
100
AcDbEntity
  8
001
370
    50
100
AcDbVertex
100
AcDb2dVertex
 10
123.428683
 20
130.943663
 30
0.0
  0
VERTEX
  5
1D4
330
1C3
100
AcDbEntity
  8
001
370
    50
100
AcDbVertex
100
AcDb2dVertex
 10
123.417424
 20
130.854206
 30
0.0
  0
VERTEX
  5
1D5
330
1C3
100
AcDbEntity
  8
001
370
    50
100
AcDbVertex
100
AcDb2dVertex
 10
123.413658
 20
130.788761
 30
0.0
  0
SEQEND
  5
1C4
330
1C3
100
AcDbEntity
  8
001
370
    50
  0
LINE
  5
1D6
330
1F
100
AcDbEntity
  8
001
370
    50
100
AcDbLine
 10
127.848668
 20
131.582761
 30
0.0
 11
124.195596
 21
131.582761
 31
0.0
  0
LINE
  5
1D7
330
1F
100
AcDbEntity
  8
001
370
    50
100
AcDbLine
 10
129.18876
 20
132.902816
 30
0.0
 11
127.848668
 21
131.582761
 31
0.0
  0
LINE
  5
1D8
330
1F
100
AcDbEntity
  8
001
370
    50
100
AcDbLine
 10
133.838779
 20
132.902816
 30
0.0
 11
129.18876
 21
132.902816
 31
0.0
  0
POLYLINE
  5
1D9
330
1F
100
AcDbEntity
  8
001
370
    50
100
AcDb2dPolyline
 66
     1
 10
0.0
 20
0.0
 30
0.0
  0
VERTEX
  5
1DB
330
1D9
100
AcDbEntity
  8
001
370
    50
100
AcDbVertex
100
AcDb2dVertex
 10
134.620716
 20
132.108816
 30
0.0
  0
VERTEX
  5
1DC
330
1D9
100
AcDbEntity
  8
001
370
    50
100
AcDbVertex
100
AcDb2dVertex
 10
134.61774
 20
132.167018
 30
0.0
  0
VERTEX
  5
1DD
330
1D9
100
AcDbEntity
  8
001
370
    50
100
AcDbVertex
100
AcDb2dVertex
 10
134.608837
 20
132.246693
 30
0.0
  0
VERTEX
  5
1DE
330
1D9
100
AcDbEntity
  8
001
370
    50
100
AcDbVertex
100
AcDb2dVertex
 10
134.594078
 20
132.317238
 30
0.0
  0
VERTEX
  5
1DF
330
1D9
100
AcDbEntity
  8
001
370
    50
100
AcDbVertex
100
AcDb2dVertex
 10
134.57356
 20
132.38038
 30
0.0
  0
VERTEX
  5
1E0
330
1D9
100
AcDbEntity
  8
001
370
    50
100
AcDbVertex
100
AcDb2dVertex
 10
134.547464
 20
132.443557
 30
0.0
  0
VERTEX
  5
1E1
330
1D9
100
AcDbEntity
  8
001
370
    50
100
AcDbVertex
100
AcDb2dVertex
 10
134.515957
 20
132.505816
 30
0.0
  0
VERTEX
  5
1E2
330
1D9
100
AcDbEntity
  8
001
370
    50
100
AcDbVertex
100
AcDb2dVertex
 10
134.479343
 20
132.56441
 30
0.0
  0
VERTEX
  5
1E3
330
1D9
100
AcDbEntity
  8
001
370
    50
100
AcDbVertex
100
AcDb2dVertex
 10
134.437778
 20
132.61919
 30
0.0
  0
VERTEX
  5
1E4
330
1D9
100
AcDbEntity
  8
001
370
    50
100
AcDbVertex
100
AcDb2dVertex
 10
134.391667
 20
132.670169
 30
0.0
  0
VERTEX
  5
1E5
330
1D9
100
AcDbEntity
  8
001
370
    50
100
AcDbVertex
100
AcDb2dVertex
 10
134.341399
 20
132.717056
 30
0.0
  0
VERTEX
  5
1E6
330
1D9
100
AcDbEntity
  8
001
370
    50
100
AcDbVertex
100
AcDb2dVertex
 10
134.287524
 20
132.759212
 30
0.0
  0
VERTEX
  5
1E7
330
1D9
100
AcDbEntity
  8
001
370
    50
100
AcDbVertex
100
AcDb2dVertex
 10
134.229748
 20
132.796441
 30
0.0
  0
VERTEX
  5
1E8
330
1D9
100
AcDbEntity
  8
001
370
    50
100
AcDbVertex
100
AcDb2dVertex
 10
134.16849
 20
132.828404
 30
0.0
  0
VERTEX
  5
1E9
330
1D9
100
AcDbEntity
  8
001
370
    50
100
AcDbVertex
100
AcDb2dVertex
 10
134.106217
 20
132.854932
 30
0.0
  0
VERTEX
  5
1EA
330
1D9
100
AcDbEntity
  8
001
370
    50
100
AcDbVertex
100
AcDb2dVertex
 10
134.044088
 20
132.875754
 30
0.0
  0
VERTEX
  5
1EB
330
1D9
100
AcDbEntity
  8
001
370
    50
100
AcDbVertex
100
AcDb2dVertex
 10
133.974561
 20
132.890754
 30
0.0
  0
VERTEX
  5
1EC
330
1D9
100
AcDbEntity
  8
001
370
    50
100
AcDbVertex
100
AcDb2dVertex
 10
133.896105
 20
132.899792
 30
0.0
  0
VERTEX
  5
1ED
330
1D9
100
AcDbEntity
  8
001
370
    50
100
AcDbVertex
100
AcDb2dVertex
 10
133.838779
 20
132.902816
 30
0.0
  0
SEQEND
  5
1DA
330
1D9
100
AcDbEntity
  8
001
370
    50
  0
LINE
  5
1EE
330
1F
100
AcDbEntity
  8
001
370
    50
100
AcDbLine
 10
134.620716
 20
128.39939
 30
0.0
 11
134.620716
 21
132.108816
 31
0.0
  0
LINE
  5
1EF
330
1F
100
AcDbEntity
  8
001
370
    50
100
AcDbLine
 10
135.920717
 20
127.038625
 30
0.0
 11
134.620716
 21
128.39939
 31
0.0
  0
LINE
  5
1F0
330
1F
100
AcDbEntity
  8
001
370
    50
100
AcDbLine
 10
135.920717
 20
122.316871
 30
0.0
 11
135.920717
 21
127.038625
 31
0.0
  0
POLYLINE
  5
1F1
330
1F
100
AcDbEntity
  8
001
370
    50
100
AcDb2dPolyline
 66
     1
 10
0.0
 20
0.0
 30
0.0
  0
VERTEX
  5
1F3
330
1F1
100
AcDbEntity
  8
001
370
    50
100
AcDbVertex
100
AcDb2dVertex
 10
135.138779
 20
121.522871
 30
0.0
  0
VERTEX
  5
1F4
330
1F1
100
AcDbEntity
  8
001
370
    50
100
AcDbVertex
100
AcDb2dVertex
 10
135.196106
 20
121.525896
 30
0.0
  0
VERTEX
  5
1F5
330
1F1
100
AcDbEntity
  8
001
370
    50
100
AcDbVertex
100
AcDb2dVertex
 10
135.274561
 20
121.534934
 30
0.0
  0
VERTEX
  5
1F6
330
1F1
100
AcDbEntity
  8
001
370
    50
100
AcDbVertex
100
AcDb2dVertex
 10
135.344088
 20
121.549933
 30
0.0
  0
VERTEX
  5
1F7
330
1F1
100
AcDbEntity
  8
001
370
    50
100
AcDbVertex
100
AcDb2dVertex
 10
135.406218
 20
121.570756
 30
0.0
  0
VERTEX
  5
1F8
330
1F1
100
AcDbEntity
  8
001
370
    50
100
AcDbVertex
100
AcDb2dVertex
 10
135.46849
 20
121.597284
 30
0.0
  0
VERTEX
  5
1F9
330
1F1
100
AcDbEntity
  8
001
370
    50
100
AcDbVertex
100
AcDb2dVertex
 10
135.529748
 20
121.629247
 30
0.0
  0
VERTEX
  5
1FA
330
1F1
100
AcDbEntity
  8
001
370
    50
100
AcDbVertex
100
AcDb2dVertex
 10
135.587524
 20
121.666476
 30
0.0
  0
VERTEX
  5
1FB
330
1F1
100
AcDbEntity
  8
001
370
    50
100
AcDbVertex
100
AcDb2dVertex
 10
135.641399
 20
121.708632
 30
0.0
  0
VERTEX
  5
1FC
330
1F1
100
AcDbEntity
  8
001
370
    50
100
AcDbVertex
100
AcDb2dVertex
 10
135.691667
 20
121.755519
 30
0.0
  0
VERTEX
  5
1FD
330
1F1
100
AcDbEntity
  8
001
370
    50
100
AcDbVertex
100
AcDb2dVertex
 10
135.737778
 20
121.806498
 30
0.0
  0
VERTEX
  5
1FE
330
1F1
100
AcDbEntity
  8
001
370
    50
100
AcDbVertex
100
AcDb2dVertex
 10
135.779343
 20
121.861278
 30
0.0
  0
VERTEX
  5
1FF
330
1F1
100
AcDbEntity
  8
001
370
    50
100
AcDbVertex
100
AcDb2dVertex
 10
135.815957
 20
121.919871
 30
0.0
  0
VERTEX
  5
200
330
1F1
100
AcDbEntity
  8
001
370
    50
100
AcDbVertex
100
AcDb2dVertex
 10
135.847464
 20
121.982131
 30
0.0
  0
VERTEX
  5
201
330
1F1
100
AcDbEntity
  8
001
370
    50
100
AcDbVertex
100
AcDb2dVertex
 10
135.87356
 20
122.045307
 30
0.0
  0
VERTEX
  5
202
330
1F1
100
AcDbEntity
  8
001
370
    50
100
AcDbVertex
100
AcDb2dVertex
 10
135.894078
 20
122.10845
 30
0.0
  0
VERTEX
  5
203
330
1F1
100
AcDbEntity
  8
001
370
    50
100
AcDbVertex
100
AcDb2dVertex
 10
135.908837
 20
122.178995
 30
0.0
  0
VERTEX
  5
204
330
1F1
100
AcDbEntity
  8
001
370
    50
100
AcDbVertex
100
AcDb2dVertex
 10
135.91774
 20
122.25867
 30
0.0
  0
VERTEX
  5
205
330
1F1
100
AcDbEntity
  8
001
370
    50
100
AcDbVertex
100
AcDb2dVertex
 10
135.920717
 20
122.316871
 30
0.0
  0
SEQEND
  5
1F2
330
1F1
100
AcDbEntity
  8
001
370
    50
  0
LINE
  5
206
330
1F
100
AcDbEntity
  8
001
370
    50
100
AcDbLine
 10
131.485707
 20
121.522871
 30
0.0
 11
135.138779
 21
121.522871
 31
0.0
  0
LINE
  5
207
330
1F
100
AcDbEntity
  8
001
370
    50
100
AcDbLine
 10
130.009776
 20
120.069008
 30
0.0
 11
131.485707
 21
121.522871
 31
0.0
  0
LINE
  5
208
330
1F
100
AcDbEntity
  8
001
370
    50
100
AcDbLine
 10
130.009776
 20
120.069008
 30
0.0
 11
125.495596
 21
120.069008
 31
0.0
  0
POLYLINE
  5
209
330
1F
100
AcDbEntity
  8
001
370
    50
100
AcDb2dPolyline
 66
     1
 10
0.0
 20
0.0
 30
0.0
  0
VERTEX
  5
20B
330
209
100
AcDbEntity
  8
001
370
    50
100
AcDbVertex
100
AcDb2dVertex
 10
124.713659
 20
120.863008
 30
0.0
  0
VERTEX
  5
20C
330
209
100
AcDbEntity
  8
001
370
    50
100
AcDbVertex
100
AcDb2dVertex
 10
124.717425
 20
120.797563
 30
0.0
  0
VERTEX
  5
20D
330
209
100
AcDbEntity
  8
001
370
    50
100
AcDbVertex
100
AcDb2dVertex
 10
124.728683
 20
120.708106
 30
0.0
  0
VERTEX
  5
20E
330
209
100
AcDbEntity
  8
001
370
    50
100
AcDbVertex
100
AcDb2dVertex
 10
124.747327
 20
120.629245
 30
0.0
  0
VERTEX
  5
20F
330
209
100
AcDbEntity
  8
001
370
    50
100
AcDbVertex
100
AcDb2dVertex
 10
124.77318
 20
120.559157
 30
0.0
  0
VERTEX
  5
210
330
209
100
AcDbEntity
  8
001
370
    50
100
AcDbVertex
100
AcDb2dVertex
 10
124.805952
 20
120.489646
 30
0.0
  0
VERTEX
  5
211
330
209
100
AcDbEntity
  8
001
370
    50
100
AcDbVertex
100
AcDb2dVertex
 10
124.845439
 20
120.421885
 30
0.0
  0
VERTEX
  5
212
330
209
100
AcDbEntity
  8
001
370
    50
100
AcDbVertex
100
AcDb2dVertex
 10
124.891181
 20
120.35911
 30
0.0
  0
VERTEX
  5
213
330
209
100
AcDbEntity
  8
001
370
    50
100
AcDbVertex
100
AcDb2dVertex
 10
124.942683
 20
120.301565
 30
0.0
  0
VERTEX
  5
214
330
209
100
AcDbEntity
  8
001
370
    50
100
AcDbVertex
100
AcDb2dVertex
 10
124.999262
 20
120.249339
 30
0.0
  0
VERTEX
  5
215
330
209
100
AcDbEntity
  8
001
370
    50
100
AcDbVertex
100
AcDb2dVertex
 10
125.061175
 20
120.202821
 30
0.0
  0
VERTEX
  5
216
330
209
100
AcDbEntity
  8
001
370
    50
100
AcDbVertex
100
AcDb2dVertex
 10
125.127832
 20
120.162772
 30
0.0
  0
VERTEX
  5
217
330
209
100
AcDbEntity
  8
001
370
    50
100
AcDbVertex
100
AcDb2dVertex
 10
125.196362
 20
120.129447
 30
0.0
  0
VERTEX
  5
218
330
209
100
AcDbEntity
  8
001
370
    50
100
AcDbVertex
100
AcDb2dVertex
 10
125.265309
 20
120.103214
 30
0.0
  0
VERTEX
  5
219
330
209
100
AcDbEntity
  8
001
370
    50
100
AcDbVertex
100
AcDb2dVertex
 10
125.343048
 20
120.084264
 30
0.0
  0
VERTEX
  5
21A
330
209
100
AcDbEntity
  8
001
370
    50
100
AcDbVertex
100
AcDb2dVertex
 10
125.431133
 20
120.072835
 30
0.0
  0
VERTEX
  5
21B
330
209
100
AcDbEntity
  8
001
370
    50
100
AcDbVertex
100
AcDb2dVertex
 10
125.495596
 20
120.069008
 30
0.0
  0
SEQEND
  5
20A
330
209
100
AcDbEntity
  8
001
370
    50
  0
LINE
  5
21C
330
1F
100
AcDbEntity
  8
001
370
    50
100
AcDbLine
 10
124.713659
 20
124.572435
 30
0.0
 11
124.713659
 21
120.863008
 31
0.0
  0
POLYLINE
  5
21D
330
1F
100
AcDbEntity
  8
001
370
    50
100
AcDb2dPolyline
 66
     1
 10
0.0
 20
0.0
 30
0.0
  0
VERTEX
  5
21F
330
21D
100
AcDbEntity
  8
001
370
    50
100
AcDbVertex
100
AcDb2dVertex
 10
125.974158
 20
126.552816
 30
0.0
  0
VERTEX
  5
220
330
21D
100
AcDbEntity
  8
001
370
    50
100
AcDbVertex
100
AcDb2dVertex
 10
125.991945
 20
126.243728
 30
0.0
  0
VERTEX
  5
221
330
21D
100
AcDbEntity
  8
001
370
    50
100
AcDbVertex
100
AcDb2dVertex
 10
126.045119
 20
125.821228
 30
0.0
  0
VERTEX
  5
222
330
21D
100
AcDbEntity
  8
001
370
    50
100
AcDbVertex
100
AcDb2dVertex
 10
126.13317
 20
125.448772
 30
0.0
  0
VERTEX
  5
223
330
21D
100
AcDbEntity
  8
001
370
    50
100
AcDbVertex
100
AcDb2dVertex
 10
126.255274
 20
125.117754
 30
0.0
  0
VERTEX
  5
224
330
21D
100
AcDbEntity
  8
001
370
    50
100
AcDbVertex
100
AcDb2dVertex
 10
126.410052
 20
124.789459
 30
0.0
  0
VERTEX
  5
225
330
21D
100
AcDbEntity
  8
001
370
    50
100
AcDbVertex
100
AcDb2dVertex
 10
126.596546
 20
124.469428
 30
0.0
  0
VERTEX
  5
226
330
21D
100
AcDbEntity
  8
001
370
    50
100
AcDbVertex
100
AcDb2dVertex
 10
126.812581
 20
124.172945
 30
0.0
  0
VERTEX
  5
227
330
21D
100
AcDbEntity
  8
001
370
    50
100
AcDbVertex
100
AcDb2dVertex
 10
127.055822
 20
123.901166
 30
0.0
  0
VERTEX
  5
228
330
21D
100
AcDbEntity
  8
001
370
    50
100
AcDbVertex
100
AcDb2dVertex
 10
127.32304
 20
123.654508
 30
0.0
  0
VERTEX
  5
229
330
21D
100
AcDbEntity
  8
001
370
    50
100
AcDbVertex
100
AcDb2dVertex
 10
127.615451
 20
123.434805
 30
0.0
  0
VERTEX
  5
22A
330
21D
100
AcDbEntity
  8
001
370
    50
100
AcDbVertex
100
AcDb2dVertex
 10
127.930268
 20
123.245655
 30
0.0
  0
VERTEX
  5
22B
330
21D
100
AcDbEntity
  8
001
370
    50
100
AcDbVertex
100
AcDb2dVertex
 10
128.253927
 20
123.088268
 30
0.0
  0
VERTEX
  5
22C
330
21D
100
AcDbEntity
  8
001
370
    50
100
AcDbVertex
100
AcDb2dVertex
 10
128.57956
 20
122.964372
 30
0.0
  0
VERTEX
  5
22D
330
21D
100
AcDbEntity
  8
001
370
    50
100
AcDbVertex
100
AcDb2dVertex
 10
128.946713
 20
122.874872
 30
0.0
  0
VERTEX
  5
22E
330
21D
100
AcDbEntity
  8
001
370
    50
100
AcDbVertex
100
AcDb2dVertex
 10
129.362732
 20
122.820891
 30
0.0
  0
VERTEX
  5
22F
330
21D
100
AcDbEntity
  8
001
370
    50
100
AcDbVertex
100
AcDb2dVertex
 10
129.667188
 20
122.802816
 30
0.0
  0
SEQEND
  5
21E
330
21D
100
AcDbEntity
  8
001
370
    50
  0
POLYLINE
  5
230
330
1F
100
AcDbEntity
  8
001
370
    50
100
AcDb2dPolyline
 66
     1
 10
0.0
 20
0.0
 30
0.0
  0
VERTEX
  5
232
330
230
100
AcDbEntity
  8
001
370
    50
100
AcDbVertex
100
AcDb2dVertex
 10
129.667188
 20
122.802816
 30
0.0
  0
VERTEX
  5
233
330
230
100
AcDbEntity
  8
001
370
    50
100
AcDbVertex
100
AcDb2dVertex
 10
129.937935
 20
122.8171
 30
0.0
  0
VERTEX
  5
234
330
230
100
AcDbEntity
  8
001
370
    50
100
AcDbVertex
100
AcDb2dVertex
 10
130.308475
 20
122.859787
 30
0.0
  0
VERTEX
  5
235
330
230
100
AcDbEntity
  8
001
370
    50
100
AcDbVertex
100
AcDb2dVertex
 10
130.636844
 20
122.930633
 30
0.0
  0
VERTEX
  5
236
330
230
100
AcDbEntity
  8
001
370
    50
100
AcDbVertex
100
AcDb2dVertex
 10
130.930278
 20
123.028969
 30
0.0
  0
VERTEX
  5
237
330
230
100
AcDbEntity
  8
001
370
    50
100
AcDbVertex
100
AcDb2dVertex
 10
131.224387
 20
123.154242
 30
0.0
  0
VERTEX
  5
238
330
230
100
AcDbEntity
  8
001
370
    50
100
AcDbVertex
100
AcDb2dVertex
 10
131.513702
 20
123.305221
 30
0.0
  0
VERTEX
  5
239
330
230
100
AcDbEntity
  8
001
370
    50
100
AcDbVertex
100
AcDb2dVertex
 10
131.786574
 20
123.481122
 30
0.0
  0
VERTEX
  5
23A
330
230
100
AcDbEntity
  8
001
370
    50
100
AcDbVertex
100
AcDb2dVertex
 10
132.041021
 20
123.68015
 30
0.0
  0
VERTEX
  5
23B
330
230
100
AcDbEntity
  8
001
370
    50
100
AcDbVertex
100
AcDb2dVertex
 10
132.278432
 20
123.901326
 30
0.0
  0
VERTEX
  5
23C
330
230
100
AcDbEntity
  8
001
370
    50
100
AcDbVertex
100
AcDb2dVertex
 10
132.496212
 20
124.142363
 30
0.0
  0
VERTEX
  5
23D
330
230
100
AcDbEntity
  8
001
370
    50
100
AcDbVertex
100
AcDb2dVertex
 10
132.69252
 20
124.402076
 30
0.0
  0
VERTEX
  5
23E
330
230
100
AcDbEntity
  8
001
370
    50
100
AcDbVertex
100
AcDb2dVertex
 10
132.865445
 20
124.677816
 30
0.0
  0
VERTEX
  5
23F
330
230
100
AcDbEntity
  8
001
370
    50
100
AcDbVertex
100
AcDb2dVertex
 10
133.014251
 20
124.968151
 30
0.0
  0
VERTEX
  5
240
330
230
100
AcDbEntity
  8
001
370
    50
100
AcDbVertex
100
AcDb2dVertex
 10
133.1375
 20
125.270241
 30
0.0
  0
VERTEX
  5
241
330
230
100
AcDbEntity
  8
001
370
    50
100
AcDbVertex
100
AcDb2dVertex
 10
133.234404
 20
125.582351
 30
0.0
  0
VERTEX
  5
242
330
230
100
AcDbEntity
  8
001
370
    50
100
AcDbVertex
100
AcDb2dVertex
 10
133.304111
 20
125.901636
 30
0.0
  0
VERTEX
  5
243
330
230
100
AcDbEntity
  8
001
370
    50
100
AcDbVertex
100
AcDb2dVertex
 10
133.346158
 20
126.22602
 30
0.0
  0
VERTEX
  5
244
330
230
100
AcDbEntity
  8
001
370
    50
100
AcDbVertex
100
AcDb2dVertex
 10
133.360217
 20
126.552816
 30
0.0
  0
VERTEX
  5
245
330
230
100
AcDbEntity
  8
001
370
    50
100
AcDbVertex
100
AcDb2dVertex
 10
133.346158
 20
126.879613
 30
0.0
  0
VERTEX
  5
246
330
230
100
AcDbEntity
  8
001
370
    50
100
AcDbVertex
100
AcDb2dVertex
 10
133.304111
 20
127.203997
 30
0.0
  0
VERTEX
  5
247
330
230
100
AcDbEntity
  8
001
370
    50
100
AcDbVertex
100
AcDb2dVertex
 10
133.234404
 20
127.523282
 30
0.0
  0
VERTEX
  5
248
330
230
100
AcDbEntity
  8
001
370
    50
100
AcDbVertex
100
AcDb2dVertex
 10
133.1375
 20
127.835392
 30
0.0
  0
VERTEX
  5
249
330
230
100
AcDbEntity
  8
001
370
    50
100
AcDbVertex
100
AcDb2dVertex
 10
133.014251
 20
128.137482
 30
0.0
  0
VERTEX
  5
24A
330
230
100
AcDbEntity
  8
001
370
    50
100
AcDbVertex
100
AcDb2dVertex
 10
132.865445
 20
128.427816
 30
0.0
  0
VERTEX
  5
24B
330
230
100
AcDbEntity
  8
001
370
    50
100
AcDbVertex
100
AcDb2dVertex
 10
132.69252
 20
128.703556
 30
0.0
  0
VERTEX
  5
24C
330
230
100
AcDbEntity
  8
001
370
    50
100
AcDbVertex
100
AcDb2dVertex
 10
132.496212
 20
128.96327
 30
0.0
  0
VERTEX
  5
24D
330
230
100
AcDbEntity
  8
001
370
    50
100
AcDbVertex
100
AcDb2dVertex
 10
132.278432
 20
129.204307
 30
0.0
  0
VERTEX
  5
24E
330
230
100
AcDbEntity
  8
001
370
    50
100
AcDbVertex
100
AcDb2dVertex
 10
132.041021
 20
129.425483
 30
0.0
  0
VERTEX
  5
24F
330
230
100
AcDbEntity
  8
001
370
    50
100
AcDbVertex
100
AcDb2dVertex
 10
131.786574
 20
129.624511
 30
0.0
  0
VERTEX
  5
250
330
230
100
AcDbEntity
  8
001
370
    50
100
AcDbVertex
100
AcDb2dVertex
 10
131.513702
 20
129.800412
 30
0.0
  0
VERTEX
  5
251
330
230
100
AcDbEntity
  8
001
370
    50
100
AcDbVertex
100
AcDb2dVertex
 10
131.224387
 20
129.951391
 30
0.0
  0
VERTEX
  5
252
330
230
100
AcDbEntity
  8
001
370
    50
100
AcDbVertex
100
AcDb2dVertex
 10
130.930278
 20
130.076664
 30
0.0
  0
VERTEX
  5
253
330
230
100
AcDbEntity
  8
001
370
    50
100
AcDbVertex
100
AcDb2dVertex
 10
130.636844
 20
130.175
 30
0.0
  0
VERTEX
  5
254
330
230
100
AcDbEntity
  8
001
370
    50
100
AcDbVertex
100
AcDb2dVertex
 10
130.308475
 20
130.245846
 30
0.0
  0
VERTEX
  5
255
330
230
100
AcDbEntity
  8
001
370
    50
100
AcDbVertex
100
AcDb2dVertex
 10
129.937935
 20
130.288533
 30
0.0
  0
VERTEX
  5
256
330
230
100
AcDbEntity
  8
001
370
    50
100
AcDbVertex
100
AcDb2dVertex
 10
129.667188
 20
130.302816
 30
0.0
  0
SEQEND
  5
231
330
230
100
AcDbEntity
  8
001
370
    50
  0
LINE
  5
257
330
1F
100
AcDbEntity
  8
001
370
    50
100
AcDbLine
 10
185.413658
 20
156.069008
 30
0.0
 11
150.107449
 21
156.069008
 31
0.0
  0
LINE
  5
258
330
1F
100
AcDbEntity
  8
001
370
    50
100
AcDbLine
 10
184.956479
 20
116.069008
 30
0.0
 11
185.413658
 21
116.069008
 31
0.0
  0
POLYLINE
  5
259
330
1F
100
AcDbEntity
  8
001
370
    50
100
AcDb2dPolyline
 66
     1
 10
0.0
 20
0.0
 30
0.0
  0
VERTEX
  5
25B
330
259
100
AcDbEntity
  8
001
370
    50
100
AcDbVertex
100
AcDb2dVertex
 10
181.650044
 20
119.790413
 30
0.0
  0
VERTEX
  5
25C
330
259
100
AcDbEntity
  8
001
370
    50
100
AcDbVertex
100
AcDb2dVertex
 10
181.788426
 20
119.445514
 30
0.0
  0
VERTEX
  5
25D
330
259
100
AcDbEntity
  8
001
370
    50
100
AcDbVertex
100
AcDb2dVertex
 10
181.93544
 20
119.10443
 30
0.0
  0
VERTEX
  5
25E
330
259
100
AcDbEntity
  8
001
370
    50
100
AcDbVertex
100
AcDb2dVertex
 10
182.087085
 20
118.79143
 30
0.0
  0
VERTEX
  5
25F
330
259
100
AcDbEntity
  8
001
370
    50
100
AcDbVertex
100
AcDb2dVertex
 10
182.252142
 20
118.485132
 30
0.0
  0
VERTEX
  5
260
330
259
100
AcDbEntity
  8
001
370
    50
100
AcDbVertex
100
AcDb2dVertex
 10
182.416722
 20
118.206183
 30
0.0
  0
VERTEX
  5
261
330
259
100
AcDbEntity
  8
001
370
    50
100
AcDbVertex
100
AcDb2dVertex
 10
182.592274
 20
117.934083
 30
0.0
  0
VERTEX
  5
262
330
259
100
AcDbEntity
  8
001
370
    50
100
AcDbVertex
100
AcDb2dVertex
 10
182.764922
 20
117.689636
 30
0.0
  0
VERTEX
  5
263
330
259
100
AcDbEntity
  8
001
370
    50
100
AcDbVertex
100
AcDb2dVertex
 10
182.947962
 20
117.452846
 30
0.0
  0
VERTEX
  5
264
330
259
100
AcDbEntity
  8
001
370
    50
100
AcDbVertex
100
AcDb2dVertex
 10
183.124917
 20
117.243698
 30
0.0
  0
VERTEX
  5
265
330
259
100
AcDbEntity
  8
001
370
    50
100
AcDbVertex
100
AcDb2dVertex
 10
183.31133
 20
117.042984
 30
0.0
  0
VERTEX
  5
266
330
259
100
AcDbEntity
  8
001
370
    50
100
AcDbVertex
100
AcDb2dVertex
 10
183.505636
 20
116.853829
 30
0.0
  0
VERTEX
  5
267
330
259
100
AcDbEntity
  8
001
370
    50
100
AcDbVertex
100
AcDb2dVertex
 10
183.709981
 20
116.675441
 30
0.0
  0
VERTEX
  5
268
330
259
100
AcDbEntity
  8
001
370
    50
100
AcDbVertex
100
AcDb2dVertex
 10
183.899667
 20
116.527757
 30
0.0
  0
VERTEX
  5
269
330
259
100
AcDbEntity
  8
001
370
    50
100
AcDbVertex
100
AcDb2dVertex
 10
184.097981
 20
116.392301
 30
0.0
  0
VERTEX
  5
26A
330
259
100
AcDbEntity
  8
001
370
    50
100
AcDbVertex
100
AcDb2dVertex
 10
184.275445
 20
116.287906
 30
0.0
  0
VERTEX
  5
26B
330
259
100
AcDbEntity
  8
001
370
    50
100
AcDbVertex
100
AcDb2dVertex
 10
184.460333
 20
116.196084
 30
0.0
  0
VERTEX
  5
26C
330
259
100
AcDbEntity
  8
001
370
    50
100
AcDbVertex
100
AcDb2dVertex
 10
184.618413
 20
116.132669
 30
0.0
  0
VERTEX
  5
26D
330
259
100
AcDbEntity
  8
001
370
    50
100
AcDbVertex
100
AcDb2dVertex
 10
184.782038
 20
116.089312
 30
0.0
  0
VERTEX
  5
26E
330
259
100
AcDbEntity
  8
001
370
    50
100
AcDbVertex
100
AcDb2dVertex
 10
184.872378
 20
116.076942
 30
0.0
  0
VERTEX
  5
26F
330
259
100
AcDbEntity
  8
001
370
    50
100
AcDbVertex
100
AcDb2dVertex
 10
184.963531
 20
116.069008
 30
0.0
  0
SEQEND
  5
25A
330
259
100
AcDbEntity
  8
001
370
    50
  0
POLYLINE
  5
270
330
1F
100
AcDbEntity
  8
001
370
    50
100
AcDb2dPolyline
 66
     1
 10
0.0
 20
0.0
 30
0.0
  0
VERTEX
  5
272
330
270
100
AcDbEntity
  8
001
370
    50
100
AcDbVertex
100
AcDb2dVertex
 10
173.588029
 20
127.129559
 30
0.0
  0
VERTEX
  5
273
330
270
100
AcDbEntity
  8
001
370
    50
100
AcDbVertex
100
AcDb2dVertex
 10
174.091608
 20
126.963056
 30
0.0
  0
VERTEX
  5
274
330
270
100
AcDbEntity
  8
001
370
    50
100
AcDbVertex
100
AcDb2dVertex
 10
174.589616
 20
126.781833
 30
0.0
  0
VERTEX
  5
275
330
270
100
AcDbEntity
  8
001
370
    50
100
AcDbVertex
100
AcDb2dVertex
 10
175.072541
 20
126.576729
 30
0.0
  0
VERTEX
  5
276
330
270
100
AcDbEntity
  8
001
370
    50
100
AcDbVertex
100
AcDb2dVertex
 10
175.544987
 20
126.347741
 30
0.0
  0
VERTEX
  5
277
330
270
100
AcDbEntity
  8
001
370
    50
100
AcDbVertex
100
AcDb2dVertex
 10
176.017422
 20
126.093235
 30
0.0
  0
VERTEX
  5
278
330
270
100
AcDbEntity
  8
001
370
    50
100
AcDbVertex
100
AcDb2dVertex
 10
176.47856
 20
125.819078
 30
0.0
  0
VERTEX
  5
279
330
270
100
AcDbEntity
  8
001
370
    50
100
AcDbVertex
100
AcDb2dVertex
 10
176.920535
 20
125.530478
 30
0.0
  0
VERTEX
  5
27A
330
270
100
AcDbEntity
  8
001
370
    50
100
AcDbVertex
100
AcDb2dVertex
 10
177.350508
 20
125.224194
 30
0.0
  0
VERTEX
  5
27B
330
270
100
AcDbEntity
  8
001
370
    50
100
AcDbVertex
100
AcDb2dVertex
 10
177.757523
 20
124.909856
 30
0.0
  0
VERTEX
  5
27C
330
270
100
AcDbEntity
  8
001
370
    50
100
AcDbVertex
100
AcDb2dVertex
 10
178.15234
 20
124.580382
 30
0.0
  0
VERTEX
  5
27D
330
270
100
AcDbEntity
  8
001
370
    50
100
AcDbVertex
100
AcDb2dVertex
 10
178.471959
 20
124.294392
 30
0.0
  0
VERTEX
  5
27E
330
270
100
AcDbEntity
  8
001
370
    50
100
AcDbVertex
100
AcDb2dVertex
 10
178.782588
 20
123.998667
 30
0.0
  0
VERTEX
  5
27F
330
270
100
AcDbEntity
  8
001
370
    50
100
AcDbVertex
100
AcDb2dVertex
 10
179.076041
 20
123.70199
 30
0.0
  0
VERTEX
  5
280
330
270
100
AcDbEntity
  8
001
370
    50
100
AcDbVertex
100
AcDb2dVertex
 10
179.36061
 20
123.396783
 30
0.0
  0
VERTEX
  5
281
330
270
100
AcDbEntity
  8
001
370
    50
100
AcDbVertex
100
AcDb2dVertex
 10
179.626619
 20
123.094312
 30
0.0
  0
VERTEX
  5
282
330
270
100
AcDbEntity
  8
001
370
    50
100
AcDbVertex
100
AcDb2dVertex
 10
179.883764
 20
122.784276
 30
0.0
  0
VERTEX
  5
283
330
270
100
AcDbEntity
  8
001
370
    50
100
AcDbVertex
100
AcDb2dVertex
 10
180.121016
 20
122.480851
 30
0.0
  0
VERTEX
  5
284
330
270
100
AcDbEntity
  8
001
370
    50
100
AcDbVertex
100
AcDb2dVertex
 10
180.349407
 20
122.170693
 30
0.0
  0
VERTEX
  5
285
330
270
100
AcDbEntity
  8
001
370
    50
100
AcDbVertex
100
AcDb2dVertex
 10
180.560834
 20
121.865221
 30
0.0
  0
VERTEX
  5
286
330
270
100
AcDbEntity
  8
001
370
    50
100
AcDbVertex
100
AcDb2dVertex
 10
180.762912
 20
121.55352
 30
0.0
  0
VERTEX
  5
287
330
270
100
AcDbEntity
  8
001
370
    50
100
AcDbVertex
100
AcDb2dVertex
 10
180.945275
 20
121.252338
 30
0.0
  0
VERTEX
  5
288
330
270
100
AcDbEntity
  8
001
370
    50
100
AcDbVertex
100
AcDb2dVertex
 10
181.118556
 20
120.945765
 30
0.0
  0
VERTEX
  5
289
330
270
100
AcDbEntity
  8
001
370
    50
100
AcDbVertex
100
AcDb2dVertex
 10
181.272276
 20
120.653314
 30
0.0
  0
VERTEX
  5
28A
330
270
100
AcDbEntity
  8
001
370
    50
100
AcDbVertex
100
AcDb2dVertex
 10
181.414785
 20
120.355404
 30
0.0
  0
VERTEX
  5
28B
330
270
100
AcDbEntity
  8
001
370
    50
100
AcDbVertex
100
AcDb2dVertex
 10
181.535504
 20
120.074277
 30
0.0
  0
VERTEX
  5
28C
330
270
100
AcDbEntity
  8
001
370
    50
100
AcDbVertex
100
AcDb2dVertex
 10
181.650044
 20
119.790413
 30
0.0
  0
SEQEND
  5
271
330
270
100
AcDbEntity
  8
001
370
    50
  0
LINE
  5
28D
330
1F
100
AcDbEntity
  8
001
370
    50
100
AcDbLine
 10
172.679029
 20
127.44316
 30
0.0
 11
173.588029
 21
127.129559
 31
0.0
  0
LINE
  5
28E
330
1F
100
AcDbEntity
  8
001
370
    50
100
AcDbLine
 10
171.770029
 20
127.759389
 30
0.0
 11
172.679029
 21
127.44316
 31
0.0
  0
LINE
  5
28F
330
1F
100
AcDbEntity
  8
001
370
    50
100
AcDbLine
 10
170.861029
 20
128.07815
 30
0.0
 11
171.770029
 21
127.759389
 31
0.0
  0
LINE
  5
290
330
1F
100
AcDbEntity
  8
001
370
    50
100
AcDbLine
 10
169.952029
 20
128.399344
 30
0.0
 11
170.861029
 21
128.07815
 31
0.0
  0
LINE
  5
291
330
1F
100
AcDbEntity
  8
001
370
    50
100
AcDbLine
 10
169.043029
 20
128.722875
 30
0.0
 11
169.952029
 21
128.399344
 31
0.0
  0
LINE
  5
292
330
1F
100
AcDbEntity
  8
001
370
    50
100
AcDbLine
 10
168.134029
 20
129.048644
 30
0.0
 11
169.043029
 21
128.722875
 31
0.0
  0
LINE
  5
293
330
1F
100
AcDbEntity
  8
001
370
    50
100
AcDbLine
 10
167.225029
 20
129.376551
 30
0.0
 11
168.134029
 21
129.048644
 31
0.0
  0
LINE
  5
294
330
1F
100
AcDbEntity
  8
001
370
    50
100
AcDbLine
 10
166.316029
 20
129.706496
 30
0.0
 11
167.225029
 21
129.376551
 31
0.0
  0
LINE
  5
295
330
1F
100
AcDbEntity
  8
001
370
    50
100
AcDbLine
 10
165.407029
 20
130.03838
 30
0.0
 11
166.316029
 21
129.706496
 31
0.0
  0
LINE
  5
296
330
1F
100
AcDbEntity
  8
001
370
    50
100
AcDbLine
 10
164.498029
 20
130.3721
 30
0.0
 11
165.407029
 21
130.03838
 31
0.0
  0
LINE
  5
297
330
1F
100
AcDbEntity
  8
001
370
    50
100
AcDbLine
 10
163.589029
 20
130.707556
 30
0.0
 11
164.498029
 21
130.3721
 31
0.0
  0
LINE
  5
298
330
1F
100
AcDbEntity
  8
001
370
    50
100
AcDbLine
 10
162.680029
 20
131.044646
 30
0.0
 11
163.589029
 21
130.707556
 31
0.0
  0
LINE
  5
299
330
1F
100
AcDbEntity
  8
001
370
    50
100
AcDbLine
 10
161.771029
 20
131.383265
 30
0.0
 11
162.680029
 21
131.044646
 31
0.0
  0
LINE
  5
29A
330
1F
100
AcDbEntity
  8
001
370
    50
100
AcDbLine
 10
160.862029
 20
131.723312
 30
0.0
 11
161.771029
 21
131.383265
 31
0.0
  0
LINE
  5
29B
330
1F
100
AcDbEntity
  8
001
370
    50
100
AcDbLine
 10
159.953029
 20
132.064683
 30
0.0
 11
160.862029
 21
131.723312
 31
0.0
  0
LINE
  5
29C
330
1F
100
AcDbEntity
  8
001
370
    50
100
AcDbLine
 10
159.044029
 20
132.407273
 30
0.0
 11
159.953029
 21
132.064683
 31
0.0
  0
LINE
  5
29D
330
1F
100
AcDbEntity
  8
001
370
    50
100
AcDbLine
 10
158.135029
 20
132.750979
 30
0.0
 11
159.044029
 21
132.407273
 31
0.0
  0
LINE
  5
29E
330
1F
100
AcDbEntity
  8
001
370
    50
100
AcDbLine
 10
157.226029
 20
133.095695
 30
0.0
 11
158.135029
 21
132.750979
 31
0.0
  0
LINE
  5
29F
330
1F
100
AcDbEntity
  8
001
370
    50
100
AcDbLine
 10
156.317029
 20
133.441317
 30
0.0
 11
157.226029
 21
133.095695
 31
0.0
  0
LINE
  5
2A0
330
1F
100
AcDbEntity
  8
001
370
    50
100
AcDbLine
 10
155.408029
 20
133.78774
 30
0.0
 11
156.317029
 21
133.441317
 31
0.0
  0
LINE
  5
2A1
330
1F
100
AcDbEntity
  8
001
370
    50
100
AcDbLine
 10
154.499029
 20
134.134858
 30
0.0
 11
155.408029
 21
133.78774
 31
0.0
  0
LINE
  5
2A2
330
1F
100
AcDbEntity
  8
001
370
    50
100
AcDbLine
 10
153.590029
 20
134.482564
 30
0.0
 11
154.499029
 21
134.134858
 31
0.0
  0
LINE
  5
2A3
330
1F
100
AcDbEntity
  8
001
370
    50
100
AcDbLine
 10
152.681029
 20
134.830754
 30
0.0
 11
153.590029
 21
134.482564
 31
0.0
  0
LINE
  5
2A4
330
1F
100
AcDbEntity
  8
001
370
    50
100
AcDbLine
 10
151.772029
 20
135.179321
 30
0.0
 11
152.681029
 21
134.830754
 31
0.0
  0
LINE
  5
2A5
330
1F
100
AcDbEntity
  8
001
370
    50
100
AcDbLine
 10
150.863029
 20
135.528159
 30
0.0
 11
151.772029
 21
135.179321
 31
0.0
  0
LINE
  5
2A6
330
1F
100
AcDbEntity
  8
001
370
    50
100
AcDbLine
 10
150.107449
 20
135.825353
 30
0.0
 11
150.863029
 21
135.528159
 31
0.0
  0
ARC
  5
2A7
330
1F
100
AcDbEntity
  8
001
370
    50
100
AcDbCircle
 10
185.413658
 20
154.069008
 30
0.0
 40
2.000000000000002
100
AcDbArc
 50
0.0
 51
90.0
  0
ARC
  5
2A8
330
1F
100
AcDbEntity
  8
001
370
    50
100
AcDbCircle
 10
185.413658
 20
118.069008
 30
0.0
 40
2.000000000000002
100
AcDbArc
 50
270.0
 51
0.0
  0
LINE
  5
2A9
330
1F
100
AcDbEntity
  8
001
370
    50
100
AcDbLine
 10
187.413658
 20
154.069008
 30
0.0
 11
187.413658
 21
118.069008
 31
0.0
  0
LINE
  5
2AA
330
1F
100
AcDbEntity
  8
001
370
    50
100
AcDbLine
 10
150.107449
 20
156.069008
 30
0.0
 11
145.213658
 21
151.019008
 31
0.0
  0
LINE
  5
2AB
330
1F
100
AcDbEntity
  8
001
370
    50
100
AcDbLine
 10
149.95947
 20
136.016827
 30
0.0
 11
150.107449
 21
135.825353
 31
0.0
  0
POLYLINE
  5
2AC
330
1F
100
AcDbEntity
  8
001
370
    50
100
AcDb2dPolyline
 66
     1
 10
0.0
 20
0.0
 30
0.0
  0
VERTEX
  5
2AE
330
2AC
100
AcDbEntity
  8
001
370
    50
100
AcDbVertex
100
AcDb2dVertex
 10
149.063737
 20
137.119017
 30
0.0
  0
VERTEX
  5
2AF
330
2AC
100
AcDbEntity
  8
001
370
    50
100
AcDbVertex
100
AcDb2dVertex
 10
149.294636
 20
136.857563
 30
0.0
  0
VERTEX
  5
2B0
330
2AC
100
AcDbEntity
  8
001
370
    50
100
AcDbVertex
100
AcDb2dVertex
 10
149.519647
 20
136.59132
 30
0.0
  0
VERTEX
  5
2B1
330
2AC
100
AcDbEntity
  8
001
370
    50
100
AcDbVertex
100
AcDb2dVertex
 10
149.742727
 20
136.306651
 30
0.0
  0
VERTEX
  5
2B2
330
2AC
100
AcDbEntity
  8
001
370
    50
100
AcDbVertex
100
AcDb2dVertex
 10
149.95947
 20
136.016827
 30
0.0
  0
SEQEND
  5
2AD
330
2AC
100
AcDbEntity
  8
001
370
    50
  0
POLYLINE
  5
2B3
330
1F
100
AcDbEntity
  8
001
370
    50
100
AcDb2dPolyline
 66
     1
 10
0.0
 20
0.0
 30
0.0
  0
VERTEX
  5
2B5
330
2B3
100
AcDbEntity
  8
001
370
    50
100
AcDbVertex
100
AcDb2dVertex
 10
148.136128
 20
138.089526
 30
0.0
  0
VERTEX
  5
2B6
330
2B3
100
AcDbEntity
  8
001
370
    50
100
AcDbVertex
100
AcDb2dVertex
 10
148.374682
 20
137.862066
 30
0.0
  0
VERTEX
  5
2B7
330
2B3
100
AcDbEntity
  8
001
370
    50
100
AcDbVertex
100
AcDb2dVertex
 10
148.607376
 20
137.628998
 30
0.0
  0
VERTEX
  5
2B8
330
2B3
100
AcDbEntity
  8
001
370
    50
100
AcDbVertex
100
AcDb2dVertex
 10
148.838717
 20
137.377032
 30
0.0
  0
VERTEX
  5
2B9
330
2B3
100
AcDbEntity
  8
001
370
    50
100
AcDbVertex
100
AcDb2dVertex
 10
149.063737
 20
137.119017
 30
0.0
  0
SEQEND
  5
2B4
330
2B3
100
AcDbEntity
  8
001
370
    50
  0
POLYLINE
  5
2BA
330
1F
100
AcDbEntity
  8
001
370
    50
100
AcDb2dPolyline
 66
     1
 10
0.0
 20
0.0
 30
0.0
  0
VERTEX
  5
2BC
330
2BA
100
AcDbEntity
  8
001
370
    50
100
AcDbVertex
100
AcDb2dVertex
 10
147.177375
 20
138.922533
 30
0.0
  0
VERTEX
  5
2BD
330
2BA
100
AcDbEntity
  8
001
370
    50
100
AcDbVertex
100
AcDb2dVertex
 10
147.423336
 20
138.730479
 30
0.0
  0
VERTEX
  5
2BE
330
2BA
100
AcDbEntity
  8
001
370
    50
100
AcDbVertex
100
AcDb2dVertex
 10
147.663611
 20
138.531873
 30
0.0
  0
VERTEX
  5
2BF
330
2BA
100
AcDbEntity
  8
001
370
    50
100
AcDbVertex
100
AcDb2dVertex
 10
147.902931
 20
138.314228
 30
0.0
  0
VERTEX
  5
2C0
330
2BA
100
AcDbEntity
  8
001
370
    50
100
AcDbVertex
100
AcDb2dVertex
 10
148.136128
 20
138.089526
 30
0.0
  0
SEQEND
  5
2BB
330
2BA
100
AcDbEntity
  8
001
370
    50
  0
POLYLINE
  5
2C1
330
1F
100
AcDbEntity
  8
001
370
    50
100
AcDb2dPolyline
 66
     1
 10
0.0
 20
0.0
 30
0.0
  0
VERTEX
  5
2C3
330
2C1
100
AcDbEntity
  8
001
370
    50
100
AcDbVertex
100
AcDb2dVertex
 10
146.188153
 20
139.612728
 30
0.0
  0
VERTEX
  5
2C4
330
2C1
100
AcDbEntity
  8
001
370
    50
100
AcDbVertex
100
AcDb2dVertex
 10
146.441244
 20
139.45735
 30
0.0
  0
VERTEX
  5
2C5
330
2C1
100
AcDbEntity
  8
001
370
    50
100
AcDbVertex
100
AcDb2dVertex
 10
146.689044
 20
139.294377
 30
0.0
  0
VERTEX
  5
2C6
330
2C1
100
AcDbEntity
  8
001
370
    50
100
AcDbVertex
100
AcDb2dVertex
 10
146.936039
 20
139.112517
 30
0.0
  0
VERTEX
  5
2C7
330
2C1
100
AcDbEntity
  8
001
370
    50
100
AcDbVertex
100
AcDb2dVertex
 10
147.177375
 20
138.922533
 30
0.0
  0
SEQEND
  5
2C2
330
2C1
100
AcDbEntity
  8
001
370
    50
  0
POLYLINE
  5
2C8
330
1F
100
AcDbEntity
  8
001
370
    50
100
AcDb2dPolyline
 66
     1
 10
0.0
 20
0.0
 30
0.0
  0
VERTEX
  5
2CA
330
2C8
100
AcDbEntity
  8
001
370
    50
100
AcDbVertex
100
AcDb2dVertex
 10
145.213658
 20
140.136705
 30
0.0
  0
VERTEX
  5
2CB
330
2C8
100
AcDbEntity
  8
001
370
    50
100
AcDbVertex
100
AcDb2dVertex
 10
145.462049
 20
140.022219
 30
0.0
  0
VERTEX
  5
2CC
330
2C8
100
AcDbEntity
  8
001
370
    50
100
AcDbVertex
100
AcDb2dVertex
 10
145.706187
 20
139.899814
 30
0.0
  0
VERTEX
  5
2CD
330
2C8
100
AcDbEntity
  8
001
370
    50
100
AcDbVertex
100
AcDb2dVertex
 10
145.94941
 20
139.760443
 30
0.0
  0
VERTEX
  5
2CE
330
2C8
100
AcDbEntity
  8
001
370
    50
100
AcDbVertex
100
AcDb2dVertex
 10
146.188153
 20
139.612728
 30
0.0
  0
SEQEND
  5
2C9
330
2C8
100
AcDbEntity
  8
001
370
    50
  0
LINE
  5
2CF
330
1F
100
AcDbEntity
  8
001
370
    50
100
AcDbLine
 10
190.413658
 20
152.069008
 30
0.0
 11
259.413658
 21
152.069008
 31
0.0
  0
LINE
  5
2D0
330
1F
100
AcDbEntity
  8
001
370
    50
100
AcDbLine
 10
190.413658
 20
120.069008
 30
0.0
 11
259.413658
 21
120.069008
 31
0.0
  0
ARC
  5
2D1
330
1F
100
AcDbEntity
  8
001
370
    50
100
AcDbCircle
 10
259.413658
 20
144.069008
 30
0.0
 40
7.99999999999998
100
AcDbArc
 50
0.0
 51
90.0
  0
ARC
  5
2D2
330
1F
100
AcDbEntity
  8
001
370
    50
100
AcDbCircle
 10
259.413658
 20
128.069008
 30
0.0
 40
7.99999999999998
100
AcDbArc
 50
270.0
 51
0.0
  0
LINE
  5
2D3
330
1F
100
AcDbEntity
  8
001
370
    50
100
AcDbLine
 10
267.413658
 20
144.069008
 30
0.0
 11
267.413658
 21
128.069008
 31
0.0
  0
LINE
  5
2D4
330
1F
100
AcDbEntity
  8
001
370
    50
100
AcDbLine
 10
145.174477
 20
140.14596
 30
0.0
 11
145.213658
 21
140.136705
 31
0.0
  0
LINE
  5
2D5
330
1F
100
AcDbEntity
  8
001
370
    50
100
AcDbLine
 10
145.213658
 20
151.019008
 30
0.0
 11
125.213658
 21
151.019008
 31
0.0
  0
LINE
  5
2D6
330
1F
100
AcDbEntity
  8
001
370
    50
100
AcDbLine
 10
144.265477
 20
140.396363
 30
0.0
 11
145.174477
 21
140.14596
 31
0.0
  0
LINE
  5
2D7
330
1F
100
AcDbEntity
  8
001
370
    50
100
AcDbLine
 10
143.356477
 20
140.645448
 30
0.0
 11
144.265477
 21
140.396363
 31
0.0
  0
LINE
  5
2D8
330
1F
100
AcDbEntity
  8
001
370
    50
100
AcDbLine
 10
142.447477
 20
140.893139
 30
0.0
 11
143.356477
 21
140.645448
 31
0.0
  0
LINE
  5
2D9
330
1F
100
AcDbEntity
  8
001
370
    50
100
AcDbLine
 10
141.538477
 20
141.139361
 30
0.0
 11
142.447477
 21
140.893139
 31
0.0
  0
LINE
  5
2DA
330
1F
100
AcDbEntity
  8
001
370
    50
100
AcDbLine
 10
140.629477
 20
141.384038
 30
0.0
 11
141.538477
 21
141.139361
 31
0.0
  0
LINE
  5
2DB
330
1F
100
AcDbEntity
  8
001
370
    50
100
AcDbLine
 10
139.720477
 20
141.627096
 30
0.0
 11
140.629477
 21
141.384038
 31
0.0
  0
LINE
  5
2DC
330
1F
100
AcDbEntity
  8
001
370
    50
100
AcDbLine
 10
138.811477
 20
141.868461
 30
0.0
 11
139.720477
 21
141.627096
 31
0.0
  0
LINE
  5
2DD
330
1F
100
AcDbEntity
  8
001
370
    50
100
AcDbLine
 10
137.902477
 20
142.108059
 30
0.0
 11
138.811477
 21
141.868461
 31
0.0
  0
LINE
  5
2DE
330
1F
100
AcDbEntity
  8
001
370
    50
100
AcDbLine
 10
136.993477
 20
142.345818
 30
0.0
 11
137.902477
 21
142.108059
 31
0.0
  0
LINE
  5
2DF
330
1F
100
AcDbEntity
  8
001
370
    50
100
AcDbLine
 10
136.084477
 20
142.581665
 30
0.0
 11
136.993477
 21
142.345818
 31
0.0
  0
LINE
  5
2E0
330
1F
100
AcDbEntity
  8
001
370
    50
100
AcDbLine
 10
135.175477
 20
142.815529
 30
0.0
 11
136.084477
 21
142.581665
 31
0.0
  0
LINE
  5
2E1
330
1F
100
AcDbEntity
  8
001
370
    50
100
AcDbLine
 10
134.266477
 20
143.047337
 30
0.0
 11
135.175477
 21
142.815529
 31
0.0
  0
LINE
  5
2E2
330
1F
100
AcDbEntity
  8
001
370
    50
100
AcDbLine
 10
133.357477
 20
143.277019
 30
0.0
 11
134.266477
 21
143.047337
 31
0.0
  0
LINE
  5
2E3
330
1F
100
AcDbEntity
  8
001
370
    50
100
AcDbLine
 10
132.448477
 20
143.504506
 30
0.0
 11
133.357477
 21
143.277019
 31
0.0
  0
LINE
  5
2E4
330
1F
100
AcDbEntity
  8
001
370
    50
100
AcDbLine
 10
131.539477
 20
143.729728
 30
0.0
 11
132.448477
 21
143.504506
 31
0.0
  0
LINE
  5
2E5
330
1F
100
AcDbEntity
  8
001
370
    50
100
AcDbLine
 10
130.630477
 20
143.952616
 30
0.0
 11
131.539477
 21
143.729728
 31
0.0
  0
LINE
  5
2E6
330
1F
100
AcDbEntity
  8
001
370
    50
100
AcDbLine
 10
129.721477
 20
144.173103
 30
0.0
 11
130.630477
 21
143.952616
 31
0.0
  0
LINE
  5
2E7
330
1F
100
AcDbEntity
  8
001
370
    50
100
AcDbLine
 10
128.812477
 20
144.391121
 30
0.0
 11
129.721477
 21
144.173103
 31
0.0
  0
LINE
  5
2E8
330
1F
100
AcDbEntity
  8
001
370
    50
100
AcDbLine
 10
127.903477
 20
144.606605
 30
0.0
 11
128.812477
 21
144.391121
 31
0.0
  0
LINE
  5
2E9
330
1F
100
AcDbEntity
  8
001
370
    50
100
AcDbLine
 10
126.994477
 20
144.819487
 30
0.0
 11
127.903477
 21
144.606605
 31
0.0
  0
LINE
  5
2EA
330
1F
100
AcDbEntity
  8
001
370
    50
100
AcDbLine
 10
126.085477
 20
145.029704
 30
0.0
 11
126.994477
 21
144.819487
 31
0.0
  0
LINE
  5
2EB
330
1F
100
AcDbEntity
  8
001
370
    50
100
AcDbLine
 10
125.213658
 20
145.229983
 30
0.0
 11
126.085477
 21
145.029704
 31
0.0
  0
POLYLINE
  5
2EC
330
1F
100
AcDbEntity
  8
001
370
    50
100
AcDb2dPolyline
 66
     1
 10
0.0
 20
0.0
 30
0.0
  0
VERTEX
  5
2EE
330
2EC
100
AcDbEntity
  8
001
370
    50
100
AcDbVertex
100
AcDb2dVertex
 10
134.53157
 20
121.462081
 30
0.0
  0
VERTEX
  5
2EF
330
2EC
100
AcDbEntity
  8
001
370
    50
100
AcDbVertex
100
AcDb2dVertex
 10
134.725889
 20
121.378072
 30
0.0
  0
VERTEX
  5
2F0
330
2EC
100
AcDbEntity
  8
001
370
    50
100
AcDbVertex
100
AcDb2dVertex
 10
135.016456
 20
121.27362
 30
0.0
  0
VERTEX
  5
2F1
330
2EC
100
AcDbEntity
  8
001
370
    50
100
AcDbVertex
100
AcDb2dVertex
 10
135.30536
 20
121.198039
 30
0.0
  0
VERTEX
  5
2F2
330
2EC
100
AcDbEntity
  8
001
370
    50
100
AcDbVertex
100
AcDb2dVertex
 10
135.506339
 20
121.159087
 30
0.0
  0
SEQEND
  5
2ED
330
2EC
100
AcDbEntity
  8
001
370
    50
  0
LINE
  5
2F3
330
1F
100
AcDbEntity
  8
001
370
    50
100
AcDbLine
 10
135.936808
 20
121.16791
 30
0.0
 11
135.506339
 21
121.159087
 31
0.0
  0
LINE
  5
2F4
330
1F
100
AcDbEntity
  8
001
370
    50
100
AcDbLine
 10
136.845808
 20
121.191266
 30
0.0
 11
135.936808
 21
121.16791
 31
0.0
  0
POLYLINE
  5
2F5
330
1F
100
AcDbEntity
  8
001
370
    50
100
AcDb2dPolyline
 66
     1
 10
0.0
 20
0.0
 30
0.0
  0
VERTEX
  5
2F7
330
2F5
100
AcDbEntity
  8
001
370
    50
100
AcDbVertex
100
AcDb2dVertex
 10
137.754808
 20
121.219153
 30
0.0
  0
VERTEX
  5
2F8
330
2F5
100
AcDbEntity
  8
001
370
    50
100
AcDbVertex
100
AcDb2dVertex
 10
137.310911
 20
121.205787
 30
0.0
  0
VERTEX
  5
2F9
330
2F5
100
AcDbEntity
  8
001
370
    50
100
AcDbVertex
100
AcDb2dVertex
 10
136.867028
 20
121.191947
 30
0.0
  0
VERTEX
  5
2FA
330
2F5
100
AcDbEntity
  8
001
370
    50
100
AcDbVertex
100
AcDb2dVertex
 10
136.856418
 20
121.191607
 30
0.0
  0
VERTEX
  5
2FB
330
2F5
100
AcDbEntity
  8
001
370
    50
100
AcDbVertex
100
AcDb2dVertex
 10
136.845808
 20
121.191266
 30
0.0
  0
SEQEND
  5
2F6
330
2F5
100
AcDbEntity
  8
001
370
    50
  0
LINE
  5
2FC
330
1F
100
AcDbEntity
  8
001
370
    50
100
AcDbLine
 10
138.663808
 20
121.251565
 30
0.0
 11
137.754808
 21
121.219153
 31
0.0
  0
LINE
  5
2FD
330
1F
100
AcDbEntity
  8
001
370
    50
100
AcDbLine
 10
139.572808
 20
121.288489
 30
0.0
 11
138.663808
 21
121.251565
 31
0.0
  0
LINE
  5
2FE
330
1F
100
AcDbEntity
  8
001
370
    50
100
AcDbLine
 10
140.481808
 20
121.329916
 30
0.0
 11
139.572808
 21
121.288489
 31
0.0
  0
POLYLINE
  5
2FF
330
1F
100
AcDbEntity
  8
001
370
    50
100
AcDb2dPolyline
 66
     1
 10
0.0
 20
0.0
 30
0.0
  0
VERTEX
  5
301
330
2FF
100
AcDbEntity
  8
001
370
    50
100
AcDbVertex
100
AcDb2dVertex
 10
141.390808
 20
121.375833
 30
0.0
  0
VERTEX
  5
302
330
2FF
100
AcDbEntity
  8
001
370
    50
100
AcDbVertex
100
AcDb2dVertex
 10
141.154143
 20
121.364598
 30
0.0
  0
VERTEX
  5
303
330
2FF
100
AcDbEntity
  8
001
370
    50
100
AcDbVertex
100
AcDb2dVertex
 10
140.917498
 20
121.352947
 30
0.0
  0
VERTEX
  5
304
330
2FF
100
AcDbEntity
  8
001
370
    50
100
AcDbVertex
100
AcDb2dVertex
 10
140.699644
 20
121.341608
 30
0.0
  0
VERTEX
  5
305
330
2FF
100
AcDbEntity
  8
001
370
    50
100
AcDbVertex
100
AcDb2dVertex
 10
140.481808
 20
121.329916
 30
0.0
  0
SEQEND
  5
300
330
2FF
100
AcDbEntity
  8
001
370
    50
  0
POLYLINE
  5
306
330
1F
100
AcDbEntity
  8
001
370
    50
100
AcDb2dPolyline
 66
     1
 10
0.0
 20
0.0
 30
0.0
  0
VERTEX
  5
308
330
306
100
AcDbEntity
  8
001
370
    50
100
AcDbVertex
100
AcDb2dVertex
 10
137.03654
 20
132.07485
 30
0.0
  0
VERTEX
  5
309
330
306
100
AcDbEntity
  8
001
370
    50
100
AcDbVertex
100
AcDb2dVertex
 10
136.989276
 20
132.240923
 30
0.0
  0
VERTEX
  5
30A
330
306
100
AcDbEntity
  8
001
370
    50
100
AcDbVertex
100
AcDb2dVertex
 10
136.933602
 20
132.403698
 30
0.0
  0
VERTEX
  5
30B
330
306
100
AcDbEntity
  8
001
370
    50
100
AcDbVertex
100
AcDb2dVertex
 10
136.862993
 20
132.562825
 30
0.0
  0
VERTEX
  5
30C
330
306
100
AcDbEntity
  8
001
370
    50
100
AcDbVertex
100
AcDb2dVertex
 10
136.783772
 20
132.718575
 30
0.0
  0
SEQEND
  5
307
330
306
100
AcDbEntity
  8
001
370
    50
  0
LINE
  5
30D
330
1F
100
AcDbEntity
  8
001
370
    50
100
AcDbLine
 10
136.297554
 20
133.313187
 30
0.0
 11
136.088436
 21
133.47773
 31
0.0
  0
POLYLINE
  5
30E
330
1F
100
AcDbEntity
  8
001
370
    50
100
AcDb2dPolyline
 66
     1
 10
0.0
 20
0.0
 30
0.0
  0
VERTEX
  5
310
330
30E
100
AcDbEntity
  8
001
370
    50
100
AcDbVertex
100
AcDb2dVertex
 10
136.783772
 20
132.718575
 30
0.0
  0
VERTEX
  5
311
330
30E
100
AcDbEntity
  8
001
370
    50
100
AcDbVertex
100
AcDb2dVertex
 10
136.709082
 20
132.837488
 30
0.0
  0
VERTEX
  5
312
330
30E
100
AcDbEntity
  8
001
370
    50
100
AcDbVertex
100
AcDb2dVertex
 10
136.629393
 20
132.952814
 30
0.0
  0
VERTEX
  5
313
330
30E
100
AcDbEntity
  8
001
370
    50
100
AcDbVertex
100
AcDb2dVertex
 10
136.598793
 20
132.992705
 30
0.0
  0
VERTEX
  5
314
330
30E
100
AcDbEntity
  8
001
370
    50
100
AcDbVertex
100
AcDb2dVertex
 10
136.56755
 20
133.032136
 30
0.0
  0
SEQEND
  5
30F
330
30E
100
AcDbEntity
  8
001
370
    50
  0
POLYLINE
  5
315
330
1F
100
AcDbEntity
  8
001
370
    50
100
AcDb2dPolyline
 66
     1
 10
0.0
 20
0.0
 30
0.0
  0
VERTEX
  5
317
330
315
100
AcDbEntity
  8
001
370
    50
100
AcDbVertex
100
AcDb2dVertex
 10
136.088436
 20
133.47773
 30
0.0
  0
VERTEX
  5
318
330
315
100
AcDbEntity
  8
001
370
    50
100
AcDbVertex
100
AcDb2dVertex
 10
135.936635
 20
133.571021
 30
0.0
  0
VERTEX
  5
319
330
315
100
AcDbEntity
  8
001
370
    50
100
AcDbVertex
100
AcDb2dVertex
 10
135.780964
 20
133.657177
 30
0.0
  0
VERTEX
  5
31A
330
315
100
AcDbEntity
  8
001
370
    50
100
AcDbVertex
100
AcDb2dVertex
 10
135.614505
 20
133.731896
 30
0.0
  0
VERTEX
  5
31B
330
315
100
AcDbEntity
  8
001
370
    50
100
AcDbVertex
100
AcDb2dVertex
 10
135.442096
 20
133.791902
 30
0.0
  0
VERTEX
  5
31C
330
315
100
AcDbEntity
  8
001
370
    50
100
AcDbVertex
100
AcDb2dVertex
 10
135.360212
 20
133.815211
 30
0.0
  0
VERTEX
  5
31D
330
315
100
AcDbEntity
  8
001
370
    50
100
AcDbVertex
100
AcDb2dVertex
 10
135.277916
 20
133.836945
 30
0.0
  0
SEQEND
  5
316
330
315
100
AcDbEntity
  8
001
370
    50
  0
POLYLINE
  5
31E
330
1F
100
AcDbEntity
  8
001
370
    50
100
AcDb2dPolyline
 66
     1
 10
0.0
 20
0.0
 30
0.0
  0
VERTEX
  5
320
330
31E
100
AcDbEntity
  8
001
370
    50
100
AcDbVertex
100
AcDb2dVertex
 10
135.277916
 20
133.836945
 30
0.0
  0
VERTEX
  5
321
330
31E
100
AcDbEntity
  8
001
370
    50
100
AcDbVertex
100
AcDb2dVertex
 10
135.127
 20
133.866121
 30
0.0
  0
VERTEX
  5
322
330
31E
100
AcDbEntity
  8
001
370
    50
100
AcDbVertex
100
AcDb2dVertex
 10
134.975309
 20
133.888331
 30
0.0
  0
VERTEX
  5
323
330
31E
100
AcDbEntity
  8
001
370
    50
100
AcDbVertex
100
AcDb2dVertex
 10
134.840283
 20
133.89829
 30
0.0
  0
VERTEX
  5
324
330
31E
100
AcDbEntity
  8
001
370
    50
100
AcDbVertex
100
AcDb2dVertex
 10
134.704653
 20
133.902816
 30
0.0
  0
SEQEND
  5
31F
330
31E
100
AcDbEntity
  8
001
370
    50
  0
POLYLINE
  5
325
330
1F
100
AcDbEntity
  8
001
370
    50
100
AcDb2dPolyline
 66
     1
 10
0.0
 20
0.0
 30
0.0
  0
VERTEX
  5
327
330
325
100
AcDbEntity
  8
001
370
    50
100
AcDbVertex
100
AcDb2dVertex
 10
136.993477
 20
142.345818
 30
0.0
  0
VERTEX
  5
328
330
325
100
AcDbEntity
  8
001
370
    50
100
AcDbVertex
100
AcDb2dVertex
 10
136.991504
 20
142.346382
 30
0.0
  0
VERTEX
  5
329
330
325
100
AcDbEntity
  8
001
370
    50
100
AcDbVertex
100
AcDb2dVertex
 10
136.988607
 20
142.347159
 30
0.0
  0
VERTEX
  5
32A
330
325
100
AcDbEntity
  8
001
370
    50
100
AcDbVertex
100
AcDb2dVertex
 10
136.985694
 20
142.347872
 30
0.0
  0
VERTEX
  5
32B
330
325
100
AcDbEntity
  8
001
370
    50
100
AcDbVertex
100
AcDb2dVertex
 10
136.983693
 20
142.348328
 30
0.0
  0
SEQEND
  5
326
330
325
100
AcDbEntity
  8
001
370
    50
  0
POLYLINE
  5
32C
330
1F
100
AcDbEntity
  8
001
370
    50
100
AcDb2dPolyline
 66
     1
 10
0.0
 20
0.0
 30
0.0
  0
VERTEX
  5
32E
330
32C
100
AcDbEntity
  8
001
370
    50
100
AcDbVertex
100
AcDb2dVertex
 10
134.374129
 20
133.881253
 30
0.0
  0
VERTEX
  5
32F
330
32C
100
AcDbEntity
  8
001
370
    50
100
AcDbVertex
100
AcDb2dVertex
 10
134.09987
 20
133.827022
 30
0.0
  0
VERTEX
  5
330
330
32C
100
AcDbEntity
  8
001
370
    50
100
AcDbVertex
100
AcDb2dVertex
 10
133.832929
 20
133.751964
 30
0.0
  0
VERTEX
  5
331
330
32C
100
AcDbEntity
  8
001
370
    50
100
AcDbVertex
100
AcDb2dVertex
 10
133.590028
 20
133.648202
 30
0.0
  0
VERTEX
  5
332
330
32C
100
AcDbEntity
  8
001
370
    50
100
AcDbVertex
100
AcDb2dVertex
 10
133.353767
 20
133.525547
 30
0.0
  0
SEQEND
  5
32D
330
32C
100
AcDbEntity
  8
001
370
    50
  0
POLYLINE
  5
333
330
1F
100
AcDbEntity
  8
001
370
    50
100
AcDb2dPolyline
 66
     1
 10
0.0
 20
0.0
 30
0.0
  0
VERTEX
  5
335
330
333
100
AcDbEntity
  8
001
370
    50
100
AcDbVertex
100
AcDb2dVertex
 10
133.353767
 20
133.525547
 30
0.0
  0
VERTEX
  5
336
330
333
100
AcDbEntity
  8
001
370
    50
100
AcDbVertex
100
AcDb2dVertex
 10
133.310124
 20
133.498807
 30
0.0
  0
VERTEX
  5
337
330
333
100
AcDbEntity
  8
001
370
    50
100
AcDbVertex
100
AcDb2dVertex
 10
133.266909
 20
133.471454
 30
0.0
  0
VERTEX
  5
338
330
333
100
AcDbEntity
  8
001
370
    50
100
AcDbVertex
100
AcDb2dVertex
 10
133.081416
 20
133.335865
 30
0.0
  0
VERTEX
  5
339
330
333
100
AcDbEntity
  8
001
370
    50
100
AcDbVertex
100
AcDb2dVertex
 10
132.904579
 20
133.187906
 30
0.0
  0
SEQEND
  5
334
330
333
100
AcDbEntity
  8
001
370
    50
  0
POLYLINE
  5
33A
330
1F
100
AcDbEntity
  8
001
370
    50
100
AcDb2dPolyline
 66
     1
 10
0.0
 20
0.0
 30
0.0
  0
VERTEX
  5
33C
330
33A
100
AcDbEntity
  8
001
370
    50
100
AcDbVertex
100
AcDb2dVertex
 10
132.335746
 20
133.169908
 30
0.0
  0
VERTEX
  5
33D
330
33A
100
AcDbEntity
  8
001
370
    50
100
AcDbVertex
100
AcDb2dVertex
 10
132.451227
 20
133.172975
 30
0.0
  0
VERTEX
  5
33E
330
33A
100
AcDbEntity
  8
001
370
    50
100
AcDbVertex
100
AcDb2dVertex
 10
132.619992
 20
133.177963
 30
0.0
  0
VERTEX
  5
33F
330
33A
100
AcDbEntity
  8
001
370
    50
100
AcDbVertex
100
AcDb2dVertex
 10
132.788972
 20
133.183661
 30
0.0
  0
VERTEX
  5
340
330
33A
100
AcDbEntity
  8
001
370
    50
100
AcDbVertex
100
AcDb2dVertex
 10
132.904579
 20
133.187906
 30
0.0
  0
SEQEND
  5
33B
330
33A
100
AcDbEntity
  8
001
370
    50
  0
POLYLINE
  5
341
330
1F
100
AcDbEntity
  8
001
370
    50
100
AcDb2dPolyline
 66
     1
 10
0.0
 20
0.0
 30
0.0
  0
VERTEX
  5
343
330
341
100
AcDbEntity
  8
001
370
    50
100
AcDbVertex
100
AcDb2dVertex
 10
131.410324
 20
133.137308
 30
0.0
  0
VERTEX
  5
344
330
341
100
AcDbEntity
  8
001
370
    50
100
AcDbVertex
100
AcDb2dVertex
 10
131.598191
 20
133.142393
 30
0.0
  0
VERTEX
  5
345
330
341
100
AcDbEntity
  8
001
370
    50
100
AcDbVertex
100
AcDb2dVertex
 10
131.872724
 20
133.151144
 30
0.0
  0
VERTEX
  5
346
330
341
100
AcDbEntity
  8
001
370
    50
100
AcDbVertex
100
AcDb2dVertex
 10
132.147664
 20
133.161749
 30
0.0
  0
VERTEX
  5
347
330
341
100
AcDbEntity
  8
001
370
    50
100
AcDbVertex
100
AcDb2dVertex
 10
132.335746
 20
133.169908
 30
0.0
  0
SEQEND
  5
342
330
341
100
AcDbEntity
  8
001
370
    50
  0
POLYLINE
  5
348
330
1F
100
AcDbEntity
  8
001
370
    50
100
AcDb2dPolyline
 66
     1
 10
0.0
 20
0.0
 30
0.0
  0
VERTEX
  5
34A
330
348
100
AcDbEntity
  8
001
370
    50
100
AcDbVertex
100
AcDb2dVertex
 10
130.484926
 20
133.105205
 30
0.0
  0
VERTEX
  5
34B
330
348
100
AcDbEntity
  8
001
370
    50
100
AcDbVertex
100
AcDb2dVertex
 10
130.672781
 20
133.110204
 30
0.0
  0
VERTEX
  5
34C
330
348
100
AcDbEntity
  8
001
370
    50
100
AcDbVertex
100
AcDb2dVertex
 10
130.947298
 20
133.118817
 30
0.0
  0
VERTEX
  5
34D
330
348
100
AcDbEntity
  8
001
370
    50
100
AcDbVertex
100
AcDb2dVertex
 10
131.22224
 20
133.129265
 30
0.0
  0
VERTEX
  5
34E
330
348
100
AcDbEntity
  8
001
370
    50
100
AcDbVertex
100
AcDb2dVertex
 10
131.410324
 20
133.137308
 30
0.0
  0
SEQEND
  5
349
330
348
100
AcDbEntity
  8
001
370
    50
  0
POLYLINE
  5
34F
330
1F
100
AcDbEntity
  8
001
370
    50
100
AcDb2dPolyline
 66
     1
 10
0.0
 20
0.0
 30
0.0
  0
VERTEX
  5
351
330
34F
100
AcDbEntity
  8
001
370
    50
100
AcDbVertex
100
AcDb2dVertex
 10
129.559534
 20
133.073594
 30
0.0
  0
VERTEX
  5
352
330
34F
100
AcDbEntity
  8
001
370
    50
100
AcDbVertex
100
AcDb2dVertex
 10
129.747381
 20
133.078509
 30
0.0
  0
VERTEX
  5
353
330
34F
100
AcDbEntity
  8
001
370
    50
100
AcDbVertex
100
AcDb2dVertex
 10
130.021886
 20
133.086984
 30
0.0
  0
VERTEX
  5
354
330
34F
100
AcDbEntity
  8
001
370
    50
100
AcDbVertex
100
AcDb2dVertex
 10
130.296836
 20
133.097277
 30
0.0
  0
VERTEX
  5
355
330
34F
100
AcDbEntity
  8
001
370
    50
100
AcDbVertex
100
AcDb2dVertex
 10
130.484926
 20
133.105205
 30
0.0
  0
SEQEND
  5
350
330
34F
100
AcDbEntity
  8
001
370
    50
  0
POLYLINE
  5
356
330
1F
100
AcDbEntity
  8
001
370
    50
100
AcDb2dPolyline
 66
     1
 10
0.0
 20
0.0
 30
0.0
  0
VERTEX
  5
358
330
356
100
AcDbEntity
  8
001
370
    50
100
AcDbVertex
100
AcDb2dVertex
 10
128.834341
 20
133.04759
 30
0.0
  0
VERTEX
  5
359
330
356
100
AcDbEntity
  8
001
370
    50
100
AcDbVertex
100
AcDb2dVertex
 10
128.981587
 20
133.051957
 30
0.0
  0
VERTEX
  5
35A
330
356
100
AcDbEntity
  8
001
370
    50
100
AcDbVertex
100
AcDb2dVertex
 10
129.196766
 20
133.059125
 30
0.0
  0
VERTEX
  5
35B
330
356
100
AcDbEntity
  8
001
370
    50
100
AcDbVertex
100
AcDb2dVertex
 10
129.412172
 20
133.067397
 30
0.0
  0
VERTEX
  5
35C
330
356
100
AcDbEntity
  8
001
370
    50
100
AcDbVertex
100
AcDb2dVertex
 10
129.559534
 20
133.073594
 30
0.0
  0
SEQEND
  5
357
330
356
100
AcDbEntity
  8
001
370
    50
  0
LINE
  5
35D
330
1F
100
AcDbEntity
  8
001
370
    50
100
AcDbLine
 10
128.834341
 20
133.04759
 30
0.0
 11
128.632148
 21
133.035355
 31
0.0
  0
POLYLINE
  5
35E
330
1F
100
AcDbEntity
  8
001
370
    50
100
AcDb2dPolyline
 66
     1
 10
0.0
 20
0.0
 30
0.0
  0
VERTEX
  5
360
330
35E
100
AcDbEntity
  8
001
370
    50
100
AcDbVertex
100
AcDb2dVertex
 10
128.632148
 20
133.035355
 30
0.0
  0
VERTEX
  5
361
330
35E
100
AcDbEntity
  8
001
370
    50
100
AcDbVertex
100
AcDb2dVertex
 10
128.443352
 20
133.006193
 30
0.0
  0
VERTEX
  5
362
330
35E
100
AcDbEntity
  8
001
370
    50
100
AcDbVertex
100
AcDb2dVertex
 10
128.255899
 20
132.970189
 30
0.0
  0
VERTEX
  5
363
330
35E
100
AcDbEntity
  8
001
370
    50
100
AcDbVertex
100
AcDb2dVertex
 10
128.068401
 20
132.920935
 30
0.0
  0
VERTEX
  5
364
330
35E
100
AcDbEntity
  8
001
370
    50
100
AcDbVertex
100
AcDb2dVertex
 10
127.88492
 20
132.858263
 30
0.0
  0
VERTEX
  5
365
330
35E
100
AcDbEntity
  8
001
370
    50
100
AcDbVertex
100
AcDb2dVertex
 10
127.760564
 20
132.807814
 30
0.0
  0
VERTEX
  5
366
330
35E
100
AcDbEntity
  8
001
370
    50
100
AcDbVertex
100
AcDb2dVertex
 10
127.63747
 20
132.754307
 30
0.0
  0
SEQEND
  5
35F
330
35E
100
AcDbEntity
  8
001
370
    50
  0
POLYLINE
  5
367
330
1F
100
AcDbEntity
  8
001
370
    50
100
AcDb2dPolyline
 66
     1
 10
0.0
 20
0.0
 30
0.0
  0
VERTEX
  5
369
330
367
100
AcDbEntity
  8
001
370
    50
100
AcDbVertex
100
AcDb2dVertex
 10
127.63747
 20
132.754307
 30
0.0
  0
VERTEX
  5
36A
330
367
100
AcDbEntity
  8
001
370
    50
100
AcDbVertex
100
AcDb2dVertex
 10
127.457629
 20
132.657931
 30
0.0
  0
VERTEX
  5
36B
330
367
100
AcDbEntity
  8
001
370
    50
100
AcDbVertex
100
AcDb2dVertex
 10
127.283223
 20
132.553287
 30
0.0
  0
VERTEX
  5
36C
330
367
100
AcDbEntity
  8
001
370
    50
100
AcDbVertex
100
AcDb2dVertex
 10
127.115071
 20
132.432671
 30
0.0
  0
VERTEX
  5
36D
330
367
100
AcDbEntity
  8
001
370
    50
100
AcDbVertex
100
AcDb2dVertex
 10
126.952546
 20
132.303497
 30
0.0
  0
SEQEND
  5
368
330
367
100
AcDbEntity
  8
001
370
    50
  0
LINE
  5
36E
330
1F
100
AcDbEntity
  8
001
370
    50
100
AcDbLine
 10
124.399548
 20
143.284856
 30
0.0
 11
125.213658
 21
143.665697
 31
0.0
  0
LINE
  5
36F
330
1F
100
AcDbEntity
  8
001
370
    50
100
AcDbLine
 10
125.213658
 20
147.098534
 30
0.0
 11
123.913658
 21
145.719008
 31
0.0
  0
LINE
  5
370
330
1F
100
AcDbEntity
  8
001
370
    50
100
AcDbLine
 10
123.913658
 20
143.034293
 30
0.0
 11
124.399548
 21
143.284856
 31
0.0
  0
POLYLINE
  5
371
330
1F
100
AcDbEntity
  8
001
370
    50
100
AcDb2dPolyline
 66
     1
 10
0.0
 20
0.0
 30
0.0
  0
VERTEX
  5
373
330
371
100
AcDbEntity
  8
001
370
    50
100
AcDbVertex
100
AcDb2dVertex
 10
124.731851
 20
131.595694
 30
0.0
  0
VERTEX
  5
374
330
371
100
AcDbEntity
  8
001
370
    50
100
AcDbVertex
100
AcDb2dVertex
 10
124.917125
 20
131.598772
 30
0.0
  0
VERTEX
  5
375
330
371
100
AcDbEntity
  8
001
370
    50
100
AcDbVertex
100
AcDb2dVertex
 10
125.187885
 20
131.604443
 30
0.0
  0
VERTEX
  5
376
330
371
100
AcDbEntity
  8
001
370
    50
100
AcDbVertex
100
AcDb2dVertex
 10
125.459039
 20
131.611754
 30
0.0
  0
VERTEX
  5
377
330
371
100
AcDbEntity
  8
001
370
    50
100
AcDbVertex
100
AcDb2dVertex
 10
125.644543
 20
131.617557
 30
0.0
  0
SEQEND
  5
372
330
371
100
AcDbEntity
  8
001
370
    50
  0
POLYLINE
  5
378
330
1F
100
AcDbEntity
  8
001
370
    50
100
AcDb2dPolyline
 66
     1
 10
0.0
 20
0.0
 30
0.0
  0
VERTEX
  5
37A
330
378
100
AcDbEntity
  8
001
370
    50
100
AcDbVertex
100
AcDb2dVertex
 10
125.644543
 20
131.617557
 30
0.0
  0
VERTEX
  5
37B
330
378
100
AcDbEntity
  8
001
370
    50
100
AcDbVertex
100
AcDb2dVertex
 10
125.772427
 20
131.619639
 30
0.0
  0
VERTEX
  5
37C
330
378
100
AcDbEntity
  8
001
370
    50
100
AcDbVertex
100
AcDb2dVertex
 10
125.959323
 20
131.623241
 30
0.0
  0
VERTEX
  5
37D
330
378
100
AcDbEntity
  8
001
370
    50
100
AcDbVertex
100
AcDb2dVertex
 10
126.146438
 20
131.62763
 30
0.0
  0
VERTEX
  5
37E
330
378
100
AcDbEntity
  8
001
370
    50
100
AcDbVertex
100
AcDb2dVertex
 10
126.274455
 20
131.631016
 30
0.0
  0
SEQEND
  5
379
330
378
100
AcDbEntity
  8
001
370
    50
  0
LINE
  5
37F
330
1F
100
AcDbEntity
  8
001
370
    50
100
AcDbLine
 10
126.952546
 20
132.303497
 30
0.0
 11
126.783268
 21
132.145306
 31
0.0
  0
POLYLINE
  5
380
330
1F
100
AcDbEntity
  8
001
370
    50
100
AcDb2dPolyline
 66
     1
 10
0.0
 20
0.0
 30
0.0
  0
VERTEX
  5
382
330
380
100
AcDbEntity
  8
001
370
    50
100
AcDbVertex
100
AcDb2dVertex
 10
126.274455
 20
131.631016
 30
0.0
  0
VERTEX
  5
383
330
380
100
AcDbEntity
  8
001
370
    50
100
AcDbVertex
100
AcDb2dVertex
 10
126.33616
 20
131.69342
 30
0.0
  0
VERTEX
  5
384
330
380
100
AcDbEntity
  8
001
370
    50
100
AcDbVertex
100
AcDb2dVertex
 10
126.426279
 20
131.784692
 30
0.0
  0
VERTEX
  5
385
330
380
100
AcDbEntity
  8
001
370
    50
100
AcDbVertex
100
AcDb2dVertex
 10
126.516473
 20
131.876229
 30
0.0
  0
VERTEX
  5
386
330
380
100
AcDbEntity
  8
001
370
    50
100
AcDbVertex
100
AcDb2dVertex
 10
126.578139
 20
131.938905
 30
0.0
  0
SEQEND
  5
381
330
380
100
AcDbEntity
  8
001
370
    50
  0
POLYLINE
  5
387
330
1F
100
AcDbEntity
  8
001
370
    50
100
AcDb2dPolyline
 66
     1
 10
0.0
 20
0.0
 30
0.0
  0
VERTEX
  5
389
330
387
100
AcDbEntity
  8
001
370
    50
100
AcDbVertex
100
AcDb2dVertex
 10
126.578139
 20
131.938905
 30
0.0
  0
VERTEX
  5
38A
330
387
100
AcDbEntity
  8
001
370
    50
100
AcDbVertex
100
AcDb2dVertex
 10
126.619806
 20
131.980759
 30
0.0
  0
VERTEX
  5
38B
330
387
100
AcDbEntity
  8
001
370
    50
100
AcDbVertex
100
AcDb2dVertex
 10
126.680673
 20
132.04196
 30
0.0
  0
VERTEX
  5
38C
330
387
100
AcDbEntity
  8
001
370
    50
100
AcDbVertex
100
AcDb2dVertex
 10
126.741601
 20
132.103309
 30
0.0
  0
VERTEX
  5
38D
330
387
100
AcDbEntity
  8
001
370
    50
100
AcDbVertex
100
AcDb2dVertex
 10
126.783268
 20
132.145306
 30
0.0
  0
SEQEND
  5
388
330
387
100
AcDbEntity
  8
001
370
    50
  0
POLYLINE
  5
38E
330
1F
100
AcDbEntity
  8
001
370
    50
100
AcDb2dPolyline
 66
     1
 10
0.0
 20
0.0
 30
0.0
  0
VERTEX
  5
390
330
38E
100
AcDbEntity
  8
001
370
    50
100
AcDbVertex
100
AcDb2dVertex
 10
134.704653
 20
133.902816
 30
0.0
  0
VERTEX
  5
391
330
38E
100
AcDbEntity
  8
001
370
    50
100
AcDbVertex
100
AcDb2dVertex
 10
134.684174
 20
133.902712
 30
0.0
  0
VERTEX
  5
392
330
38E
100
AcDbEntity
  8
001
370
    50
100
AcDbVertex
100
AcDb2dVertex
 10
134.6637
 20
133.902484
 30
0.0
  0
VERTEX
  5
393
330
38E
100
AcDbEntity
  8
001
370
    50
100
AcDbVertex
100
AcDb2dVertex
 10
134.518788
 20
133.89497
 30
0.0
  0
VERTEX
  5
394
330
38E
100
AcDbEntity
  8
001
370
    50
100
AcDbVertex
100
AcDb2dVertex
 10
134.374129
 20
133.881253
 30
0.0
  0
SEQEND
  5
38F
330
38E
100
AcDbEntity
  8
001
370
    50
  0
POLYLINE
  5
395
330
1F
100
AcDbEntity
  8
001
370
    50
100
AcDb2dPolyline
 66
     1
 10
0.0
 20
0.0
 30
0.0
  0
VERTEX
  5
397
330
395
100
AcDbEntity
  8
001
370
    50
100
AcDbVertex
100
AcDb2dVertex
 10
136.441871
 20
129.779778
 30
0.0
  0
VERTEX
  5
398
330
395
100
AcDbEntity
  8
001
370
    50
100
AcDbVertex
100
AcDb2dVertex
 10
136.485971
 20
129.831667
 30
0.0
  0
VERTEX
  5
399
330
395
100
AcDbEntity
  8
001
370
    50
100
AcDbVertex
100
AcDb2dVertex
 10
136.529303
 20
129.884188
 30
0.0
  0
VERTEX
  5
39A
330
395
100
AcDbEntity
  8
001
370
    50
100
AcDbVertex
100
AcDb2dVertex
 10
136.650758
 20
130.049023
 30
0.0
  0
VERTEX
  5
39B
330
395
100
AcDbEntity
  8
001
370
    50
100
AcDbVertex
100
AcDb2dVertex
 10
136.758735
 20
130.223208
 30
0.0
  0
VERTEX
  5
39C
330
395
100
AcDbEntity
  8
001
370
    50
100
AcDbVertex
100
AcDb2dVertex
 10
136.852858
 20
130.403777
 30
0.0
  0
VERTEX
  5
39D
330
395
100
AcDbEntity
  8
001
370
    50
100
AcDbVertex
100
AcDb2dVertex
 10
136.933006
 20
130.590879
 30
0.0
  0
VERTEX
  5
39E
330
395
100
AcDbEntity
  8
001
370
    50
100
AcDbVertex
100
AcDb2dVertex
 10
137.001242
 20
130.794049
 30
0.0
  0
VERTEX
  5
39F
330
395
100
AcDbEntity
  8
001
370
    50
100
AcDbVertex
100
AcDb2dVertex
 10
137.052367
 20
131.002204
 30
0.0
  0
VERTEX
  5
3A0
330
395
100
AcDbEntity
  8
001
370
    50
100
AcDbVertex
100
AcDb2dVertex
 10
137.08587
 20
131.212676
 30
0.0
  0
VERTEX
  5
3A1
330
395
100
AcDbEntity
  8
001
370
    50
100
AcDbVertex
100
AcDb2dVertex
 10
137.102028
 20
131.425254
 30
0.0
  0
VERTEX
  5
3A2
330
395
100
AcDbEntity
  8
001
370
    50
100
AcDbVertex
100
AcDb2dVertex
 10
137.10239
 20
131.589196
 30
0.0
  0
VERTEX
  5
3A3
330
395
100
AcDbEntity
  8
001
370
    50
100
AcDbVertex
100
AcDb2dVertex
 10
137.090817
 20
131.752501
 30
0.0
  0
VERTEX
  5
3A4
330
395
100
AcDbEntity
  8
001
370
    50
100
AcDbVertex
100
AcDb2dVertex
 10
137.067076
 20
131.914113
 30
0.0
  0
VERTEX
  5
3A5
330
395
100
AcDbEntity
  8
001
370
    50
100
AcDbVertex
100
AcDb2dVertex
 10
137.03654
 20
132.07485
 30
0.0
  0
SEQEND
  5
396
330
395
100
AcDbEntity
  8
001
370
    50
  0
LINE
  5
3A6
330
1F
100
AcDbEntity
  8
001
370
    50
100
AcDbLine
 10
136.207775
 20
129.547636
 30
0.0
 11
136.434733
 21
129.771806
 31
0.0
  0
LINE
  5
3A7
330
1F
100
AcDbEntity
  8
001
  6
DASHED
370
    50
100
AcDbLine
 10
168.103014
 20
129.050343
 30
0.0
 11
168.10405
 21
129.061683
 31
0.0
  0
LINE
  5
3A8
330
1F
100
AcDbEntity
  8
001
370
    50
100
AcDbLine
 10
123.913658
 20
131.529674
 30
0.0
 11
123.913658
 21
145.719008
 31
0.0
  0
LINE
  5
3A9
330
1F
100
AcDbEntity
  8
001
370
    50
100
AcDbLine
 10
125.213658
 20
143.665697
 30
0.0
 11
125.213658
 21
151.019008
 31
0.0
  0
POLYLINE
  5
3AA
330
1F
100
AcDbEntity
  8
001
370
    50
100
AcDb2dPolyline
 66
     1
 10
0.0
 20
0.0
 30
0.0
  0
VERTEX
  5
3AC
330
3AA
100
AcDbEntity
  8
001
370
    50
100
AcDbVertex
100
AcDb2dVertex
 10
123.913658
 20
131.575602
 30
0.0
  0
VERTEX
  5
3AD
330
3AA
100
AcDbEntity
  8
001
370
    50
100
AcDbVertex
100
AcDb2dVertex
 10
124.006377
 20
131.577206
 30
0.0
  0
VERTEX
  5
3AE
330
3AA
100
AcDbEntity
  8
001
370
    50
100
AcDbVertex
100
AcDb2dVertex
 10
124.14138
 20
131.579832
 30
0.0
  0
SEQEND
  5
3AB
330
3AA
100
AcDbEntity
  8
001
370
    50
  0
POLYLINE
  5
3AF
330
1F
100
AcDbEntity
  8
001
370
    50
100
AcDb2dPolyline
 66
     1
 10
0.0
 20
0.0
 30
0.0
  0
VERTEX
  5
3B1
330
3AF
100
AcDbEntity
  8
001
370
    50
100
AcDbVertex
100
AcDb2dVertex
 10
124.274891
 20
131.582761
 30
0.0
  0
VERTEX
  5
3B2
330
3AF
100
AcDbEntity
  8
001
370
    50
100
AcDbVertex
100
AcDb2dVertex
 10
124.298665
 20
131.583324
 30
0.0
  0
VERTEX
  5
3B3
330
3AF
100
AcDbEntity
  8
001
370
    50
100
AcDbVertex
100
AcDb2dVertex
 10
124.3225
 20
131.583902
 30
0.0
  0
VERTEX
  5
3B4
330
3AF
100
AcDbEntity
  8
001
370
    50
100
AcDbVertex
100
AcDb2dVertex
 10
124.565563
 20
131.590522
 30
0.0
  0
VERTEX
  5
3B5
330
3AF
100
AcDbEntity
  8
001
370
    50
100
AcDbVertex
100
AcDb2dVertex
 10
124.731851
 20
131.595694
 30
0.0
  0
SEQEND
  5
3B0
330
3AF
100
AcDbEntity
  8
001
370
    50
  0
LINE
  5
3B6
330
1F
100
AcDbEntity
  8
001
370
    50
100
AcDbLine
 10
126.274455
 20
131.631016
 30
0.0
 11
126.262445
 21
131.582761
 31
0.0
  0
POLYLINE
  5
3B7
330
1F
100
AcDbEntity
  8
001
370
    50
100
AcDb2dPolyline
 66
     1
 10
0.0
 20
0.0
 30
0.0
  0
VERTEX
  5
3B9
330
3B7
100
AcDbEntity
  8
001
370
    50
100
AcDbVertex
100
AcDb2dVertex
 10
128.189185
 20
132.052078
 30
0.0
  0
VERTEX
  5
3BA
330
3B7
100
AcDbEntity
  8
001
370
    50
100
AcDbVertex
100
AcDb2dVertex
 10
128.030234
 20
132.043102
 30
0.0
  0
VERTEX
  5
3BB
330
3B7
100
AcDbEntity
  8
001
370
    50
100
AcDbVertex
100
AcDb2dVertex
 10
127.812268
 20
132.015115
 30
0.0
  0
VERTEX
  5
3BC
330
3B7
100
AcDbEntity
  8
001
370
    50
100
AcDbVertex
100
AcDb2dVertex
 10
127.618526
 20
131.967718
 30
0.0
  0
VERTEX
  5
3BD
330
3B7
100
AcDbEntity
  8
001
370
    50
100
AcDbVertex
100
AcDb2dVertex
 10
127.449283
 20
131.905594
 30
0.0
  0
VERTEX
  5
3BE
330
3B7
100
AcDbEntity
  8
001
370
    50
100
AcDbVertex
100
AcDb2dVertex
 10
127.285023
 20
131.830389
 30
0.0
  0
VERTEX
  5
3BF
330
3B7
100
AcDbEntity
  8
001
370
    50
100
AcDbVertex
100
AcDb2dVertex
 10
127.113646
 20
131.727563
 30
0.0
  0
VERTEX
  5
3C0
330
3B7
100
AcDbEntity
  8
001
370
    50
100
AcDbVertex
100
AcDb2dVertex
 10
127.016143
 20
131.656064
 30
0.0
  0
VERTEX
  5
3C1
330
3B7
100
AcDbEntity
  8
001
370
    50
100
AcDbVertex
100
AcDb2dVertex
 10
126.925019
 20
131.582761
 30
0.0
  0
SEQEND
  5
3B8
330
3B7
100
AcDbEntity
  8
001
370
    50
  0
LINE
  5
3C2
330
1F
100
AcDbEntity
  8
001
370
    50
100
AcDbLine
 10
128.325108
 20
132.052078
 30
0.0
 11
128.189185
 21
132.052078
 31
0.0
  0
POLYLINE
  5
3C3
330
1F
100
AcDbEntity
  8
001
370
    50
100
AcDb2dPolyline
 66
     1
 10
0.0
 20
0.0
 30
0.0
  0
VERTEX
  5
3C5
330
3C3
100
AcDbEntity
  8
001
370
    50
100
AcDbVertex
100
AcDb2dVertex
 10
132.904579
 20
133.187906
 30
0.0
  0
VERTEX
  5
3C6
330
3C3
100
AcDbEntity
  8
001
370
    50
100
AcDbVertex
100
AcDb2dVertex
 10
132.724662
 20
133.071958
 30
0.0
  0
VERTEX
  5
3C7
330
3C3
100
AcDbEntity
  8
001
370
    50
100
AcDbVertex
100
AcDb2dVertex
 10
132.47633
 20
132.902816
 30
0.0
  0
SEQEND
  5
3C4
330
3C3
100
AcDbEntity
  8
001
370
    50
  0
ARC
  5
3C8
330
1F
100
AcDbEntity
  8
001
370
    50
100
AcDbCircle
 10
135.441443
 20
132.220538
 30
0.0
 40
1.388095316089365
100
AcDbArc
 50
35.780697
 51
51.685349
  0
POLYLINE
  5
3C9
330
1F
100
AcDbEntity
  8
001
370
    50
100
AcDb2dPolyline
 66
     1
 10
0.0
 20
0.0
 30
0.0
  0
VERTEX
  5
3CB
330
3C9
100
AcDbEntity
  8
001
370
    50
100
AcDbVertex
100
AcDb2dVertex
 10
136.207775
 20
129.547636
 30
0.0
  0
VERTEX
  5
3CC
330
3C9
100
AcDbEntity
  8
001
370
    50
100
AcDbVertex
100
AcDb2dVertex
 10
136.08899
 20
128.258401
 30
0.0
  0
VERTEX
  5
3CD
330
3C9
100
AcDbEntity
  8
001
370
    50
100
AcDbVertex
100
AcDb2dVertex
 10
135.920717
 20
126.357502
 30
0.0
  0
SEQEND
  5
3CA
330
3C9
100
AcDbEntity
  8
001
370
    50
  0
POLYLINE
  5
3CE
330
1F
100
AcDbEntity
  8
001
370
    50
100
AcDb2dPolyline
 66
     1
 10
0.0
 20
0.0
 30
0.0
  0
VERTEX
  5
3D0
330
3CE
100
AcDbEntity
  8
001
370
    50
100
AcDbVertex
100
AcDb2dVertex
 10
135.541805
 20
121.636392
 30
0.0
  0
VERTEX
  5
3D1
330
3CE
100
AcDbEntity
  8
001
370
    50
100
AcDbVertex
100
AcDb2dVertex
 10
135.522256
 20
121.374425
 30
0.0
  0
VERTEX
  5
3D2
330
3CE
100
AcDbEntity
  8
001
370
    50
100
AcDbVertex
100
AcDb2dVertex
 10
135.506339
 20
121.159087
 30
0.0
  0
SEQEND
  5
3CF
330
3CE
100
AcDbEntity
  8
001
370
    50
  0
LINE
  5
3D3
330
1F
100
AcDbEntity
  8
001
370
    50
100
AcDbLine
 10
134.53157
 20
121.462081
 30
0.0
 11
134.53157
 21
121.522871
 31
0.0
  0
POLYLINE
  5
3D4
330
1F
100
AcDbEntity
  8
001
370
    50
100
AcDb2dPolyline
 66
     1
 10
0.0
 20
0.0
 30
0.0
  0
VERTEX
  5
3D6
330
3D4
100
AcDbEntity
  8
001
370
    50
100
AcDbVertex
100
AcDb2dVertex
 10
131.310302
 20
121.350089
 30
0.0
  0
VERTEX
  5
3D7
330
3D4
100
AcDbEntity
  8
001
370
    50
100
AcDbVertex
100
AcDb2dVertex
 10
133.22823
 20
121.414332
 30
0.0
  0
VERTEX
  5
3D8
330
3D4
100
AcDbEntity
  8
001
370
    50
100
AcDbVertex
100
AcDb2dVertex
 10
134.53157
 20
121.462081
 30
0.0
  0
SEQEND
  5
3D5
330
3D4
100
AcDbEntity
  8
001
370
    50
  0
POLYLINE
  5
3D9
330
1F
100
AcDbEntity
  8
001
370
    50
100
AcDb2dPolyline
 66
     1
 10
0.0
 20
0.0
 30
0.0
  0
VERTEX
  5
3DB
330
3D9
100
AcDbEntity
  8
001
370
    50
100
AcDbVertex
100
AcDb2dVertex
 10
134.620716
 20
129.016525
 30
0.0
  0
VERTEX
  5
3DC
330
3D9
100
AcDbEntity
  8
001
370
    50
100
AcDbVertex
100
AcDb2dVertex
 10
134.777912
 20
129.073463
 30
0.0
  0
VERTEX
  5
3DD
330
3D9
100
AcDbEntity
  8
001
370
    50
100
AcDbVertex
100
AcDb2dVertex
 10
134.948303
 20
129.144519
 30
0.0
  0
VERTEX
  5
3DE
330
3D9
100
AcDbEntity
  8
001
370
    50
100
AcDbVertex
100
AcDb2dVertex
 10
135.153875
 20
129.253031
 30
0.0
  0
VERTEX
  5
3DF
330
3D9
100
AcDbEntity
  8
001
370
    50
100
AcDbVertex
100
AcDb2dVertex
 10
135.330669
 20
129.373927
 30
0.0
  0
VERTEX
  5
3E0
330
3D9
100
AcDbEntity
  8
001
370
    50
100
AcDbVertex
100
AcDb2dVertex
 10
135.502664
 20
129.513376
 30
0.0
  0
VERTEX
  5
3E1
330
3D9
100
AcDbEntity
  8
001
370
    50
100
AcDbVertex
100
AcDb2dVertex
 10
135.666225
 20
129.669357
 30
0.0
  0
VERTEX
  5
3E2
330
3D9
100
AcDbEntity
  8
001
370
    50
100
AcDbVertex
100
AcDb2dVertex
 10
135.81372
 20
129.839204
 30
0.0
  0
VERTEX
  5
3E3
330
3D9
100
AcDbEntity
  8
001
370
    50
100
AcDbVertex
100
AcDb2dVertex
 10
135.944054
 20
130.021194
 30
0.0
  0
VERTEX
  5
3E4
330
3D9
100
AcDbEntity
  8
001
370
    50
100
AcDbVertex
100
AcDb2dVertex
 10
136.058289
 20
130.214817
 30
0.0
  0
VERTEX
  5
3E5
330
3D9
100
AcDbEntity
  8
001
370
    50
100
AcDbVertex
100
AcDb2dVertex
 10
136.155113
 20
130.417989
 30
0.0
  0
VERTEX
  5
3E6
330
3D9
100
AcDbEntity
  8
001
370
    50
100
AcDbVertex
100
AcDb2dVertex
 10
136.233436
 20
130.629358
 30
0.0
  0
VERTEX
  5
3E7
330
3D9
100
AcDbEntity
  8
001
370
    50
100
AcDbVertex
100
AcDb2dVertex
 10
136.292535
 20
130.846831
 30
0.0
  0
VERTEX
  5
3E8
330
3D9
100
AcDbEntity
  8
001
370
    50
100
AcDbVertex
100
AcDb2dVertex
 10
136.332122
 20
131.068975
 30
0.0
  0
VERTEX
  5
3E9
330
3D9
100
AcDbEntity
  8
001
370
    50
100
AcDbVertex
100
AcDb2dVertex
 10
136.351848
 20
131.293766
 30
0.0
  0
VERTEX
  5
3EA
330
3D9
100
AcDbEntity
  8
001
370
    50
100
AcDbVertex
100
AcDb2dVertex
 10
136.351511
 20
131.519468
 30
0.0
  0
VERTEX
  5
3EB
330
3D9
100
AcDbEntity
  8
001
370
    50
100
AcDbVertex
100
AcDb2dVertex
 10
136.331123
 20
131.744248
 30
0.0
  0
VERTEX
  5
3EC
330
3D9
100
AcDbEntity
  8
001
370
    50
100
AcDbVertex
100
AcDb2dVertex
 10
136.290849
 20
131.966166
 30
0.0
  0
VERTEX
  5
3ED
330
3D9
100
AcDbEntity
  8
001
370
    50
100
AcDbVertex
100
AcDb2dVertex
 10
136.231032
 20
132.183621
 30
0.0
  0
VERTEX
  5
3EE
330
3D9
100
AcDbEntity
  8
001
370
    50
100
AcDbVertex
100
AcDb2dVertex
 10
136.152232
 20
132.394532
 30
0.0
  0
VERTEX
  5
3EF
330
3D9
100
AcDbEntity
  8
001
370
    50
100
AcDbVertex
100
AcDb2dVertex
 10
136.054835
 20
132.597586
 30
0.0
  0
VERTEX
  5
3F0
330
3D9
100
AcDbEntity
  8
001
370
    50
100
AcDbVertex
100
AcDb2dVertex
 10
135.939786
 20
132.790695
 30
0.0
  0
VERTEX
  5
3F1
330
3D9
100
AcDbEntity
  8
001
370
    50
100
AcDbVertex
100
AcDb2dVertex
 10
135.808263
 20
132.972672
 30
0.0
  0
VERTEX
  5
3F2
330
3D9
100
AcDbEntity
  8
001
370
    50
100
AcDbVertex
100
AcDb2dVertex
 10
135.66179
 20
133.141527
 30
0.0
  0
VERTEX
  5
3F3
330
3D9
100
AcDbEntity
  8
001
370
    50
100
AcDbVertex
100
AcDb2dVertex
 10
135.499341
 20
133.296675
 30
0.0
  0
VERTEX
  5
3F4
330
3D9
100
AcDbEntity
  8
001
370
    50
100
AcDbVertex
100
AcDb2dVertex
 10
135.322168
 20
133.436495
 30
0.0
  0
VERTEX
  5
3F5
330
3D9
100
AcDbEntity
  8
001
370
    50
100
AcDbVertex
100
AcDb2dVertex
 10
135.138121
 20
133.55905
 30
0.0
  0
VERTEX
  5
3F6
330
3D9
100
AcDbEntity
  8
001
370
    50
100
AcDbVertex
100
AcDb2dVertex
 10
134.950976
 20
133.662691
 30
0.0
  0
VERTEX
  5
3F7
330
3D9
100
AcDbEntity
  8
001
370
    50
100
AcDbVertex
100
AcDb2dVertex
 10
134.736358
 20
133.751261
 30
0.0
  0
VERTEX
  5
3F8
330
3D9
100
AcDbEntity
  8
001
370
    50
100
AcDbVertex
100
AcDb2dVertex
 10
134.489574
 20
133.825022
 30
0.0
  0
VERTEX
  5
3F9
330
3D9
100
AcDbEntity
  8
001
370
    50
100
AcDbVertex
100
AcDb2dVertex
 10
134.307124
 20
133.867053
 30
0.0
  0
SEQEND
  5
3DA
330
3D9
100
AcDbEntity
  8
001
370
    50
  0
POLYLINE
  5
3FA
330
1F
100
AcDbEntity
  8
001
370
    50
100
AcDb2dPolyline
 66
     1
 10
0.0
 20
0.0
 30
0.0
  0
VERTEX
  5
3FC
330
3FA
100
AcDbEntity
  8
001
370
    50
100
AcDbVertex
100
AcDb2dVertex
 10
134.620716
 20
129.004164
 30
0.0
  0
VERTEX
  5
3FD
330
3FA
100
AcDbEntity
  8
001
370
    50
100
AcDbVertex
100
AcDb2dVertex
 10
134.976786
 20
129.079796
 30
0.0
  0
VERTEX
  5
3FE
330
3FA
100
AcDbEntity
  8
001
370
    50
100
AcDbVertex
100
AcDb2dVertex
 10
135.423772
 20
129.207277
 30
0.0
  0
VERTEX
  5
3FF
330
3FA
100
AcDbEntity
  8
001
370
    50
100
AcDbVertex
100
AcDb2dVertex
 10
135.89539
 20
129.394255
 30
0.0
  0
VERTEX
  5
400
330
3FA
100
AcDbEntity
  8
001
370
    50
100
AcDbVertex
100
AcDb2dVertex
 10
136.207775
 20
129.547636
 30
0.0
  0
SEQEND
  5
3FB
330
3FA
100
AcDbEntity
  8
001
370
    50
  0
LINE
  5
401
330
1F
100
AcDbEntity
  8
001
370
    50
100
AcDbLine
 10
145.213658
 20
140.14596
 30
0.0
 11
145.213658
 21
151.019008
 31
0.0
  0
LINE
  5
402
330
1F
100
AcDbEntity
  8
001
370
    50
100
AcDbLine
 10
150.107449
 20
135.825353
 30
0.0
 11
150.107449
 21
156.069008
 31
0.0
  0
LINE
  5
403
330
1F
100
AcDbEntity
  8
001
  6
CENTER
370
     9
100
AcDbLine
 10
121.664859
 20
136.069008
 30
0.0
 11
270.969422
 21
136.069008
 31
0.0
  0
LINE
  5
404
330
1F
100
AcDbEntity
  8
001
370
    50
100
AcDbLine
 10
190.413658
 20
120.069008
 30
0.0
 11
190.413658
 21
152.069008
 31
0.0
  0
LINE
  5
405
330
1F
100
AcDbEntity
  8
001
370
    50
100
AcDbLine
 10
190.413658
 20
151.569008
 30
0.0
 11
187.413658
 21
151.569008
 31
0.0
  0
LINE
  5
406
330
1F
100
AcDbEntity
  8
001
370
    50
100
AcDbLine
 10
187.413658
 20
120.569008
 30
0.0
 11
190.413658
 21
120.569008
 31
0.0
  0
LINE
  5
407
330
1F
100
AcDbEntity
  8
001
370
    50
100
AcDbLine
 10
267.413658
 20
136.069008
 30
0.0
 11
270.87776
 21
138.069008
 31
0.0
  0
LINE
  5
408
330
1F
100
AcDbEntity
  8
001
370
    50
100
AcDbLine
 10
267.413658
 20
136.069008
 30
0.0
 11
270.87776
 21
134.069008
 31
0.0
  0
CIRCLE
  5
409
330
1F
100
AcDbEntity
  8
001
370
    50
100
AcDbCircle
 10
151.347304
 20
122.947361
 30
0.0
 40
3.25
  0
LINE
  5
40A
330
1F
100
AcDbEntity
  8
001
370
    50
100
AcDbLine
 10
152.083426
 20
124.222361
 30
0.0
 11
151.780317
 21
124.747361
 31
0.0
  0
LINE
  5
40B
330
1F
100
AcDbEntity
  8
001
370
    50
100
AcDbLine
 10
150.611183
 20
124.222361
 30
0.0
 11
150.914292
 21
124.747361
 31
0.0
  0
ARC
  5
40C
330
1F
100
AcDbEntity
  8
001
370
    50
100
AcDbCircle
 10
151.347304
 20
124.497361
 30
0.0
 40
0.5
100
AcDbArc
 50
30.0
 51
150.0
  0
LINE
  5
40D
330
1F
100
AcDbEntity
  8
001
370
    50
100
AcDbLine
 10
150.611183
 20
124.222361
 30
0.0
 11
150.004965
 21
124.222361
 31
0.0
  0
LINE
  5
40E
330
1F
100
AcDbEntity
  8
001
370
    50
100
AcDbLine
 10
149.875061
 20
122.947361
 30
0.0
 11
149.571952
 21
123.472361
 31
0.0
  0
ARC
  5
40F
330
1F
100
AcDbEntity
  8
001
370
    50
100
AcDbCircle
 10
150.004965
 20
123.722361
 30
0.0
 40
0.5
100
AcDbArc
 50
90.0
 51
210.0
  0
LINE
  5
410
330
1F
100
AcDbEntity
  8
001
370
    50
100
AcDbLine
 10
149.875061
 20
122.947361
 30
0.0
 11
149.571952
 21
122.422361
 31
0.0
  0
LINE
  5
411
330
1F
100
AcDbEntity
  8
001
370
    50
100
AcDbLine
 10
150.611183
 20
121.672361
 30
0.0
 11
150.004965
 21
121.672361
 31
0.0
  0
ARC
  5
412
330
1F
100
AcDbEntity
  8
001
370
    50
100
AcDbCircle
 10
150.004965
 20
122.172361
 30
0.0
 40
0.5
100
AcDbArc
 50
150.0
 51
270.0
  0
LINE
  5
413
330
1F
100
AcDbEntity
  8
001
370
    50
100
AcDbLine
 10
150.611183
 20
121.672361
 30
0.0
 11
150.914292
 21
121.147361
 31
0.0
  0
LINE
  5
414
330
1F
100
AcDbEntity
  8
001
370
    50
100
AcDbLine
 10
152.083426
 20
121.672361
 30
0.0
 11
151.780317
 21
121.147361
 31
0.0
  0
ARC
  5
415
330
1F
100
AcDbEntity
  8
001
370
    50
100
AcDbCircle
 10
151.347304
 20
121.397361
 30
0.0
 40
0.5
100
AcDbArc
 50
210.0
 51
330.0
  0
LINE
  5
416
330
1F
100
AcDbEntity
  8
001
370
    50
100
AcDbLine
 10
152.083426
 20
121.672361
 30
0.0
 11
152.689644
 21
121.672361
 31
0.0
  0
LINE
  5
417
330
1F
100
AcDbEntity
  8
001
370
    50
100
AcDbLine
 10
152.819548
 20
122.947361
 30
0.0
 11
153.122656
 21
122.422361
 31
0.0
  0
ARC
  5
418
330
1F
100
AcDbEntity
  8
001
370
    50
100
AcDbCircle
 10
152.689644
 20
122.172361
 30
0.0
 40
0.5
100
AcDbArc
 50
270.0
 51
30.0
  0
LINE
  5
419
330
1F
100
AcDbEntity
  8
001
370
    50
100
AcDbLine
 10
152.819548
 20
122.947361
 30
0.0
 11
153.122656
 21
123.472361
 31
0.0
  0
LINE
  5
41A
330
1F
100
AcDbEntity
  8
001
370
    50
100
AcDbLine
 10
152.083426
 20
124.222361
 30
0.0
 11
152.689644
 21
124.222361
 31
0.0
  0
ARC
  5
41B
330
1F
100
AcDbEntity
  8
001
370
    50
100
AcDbCircle
 10
152.689644
 20
123.722361
 30
0.0
 40
0.5
100
AcDbArc
 50
330.0
 51
90.0
  0
POLYLINE
  5
41C
330
1F
100
AcDbEntity
  8
001
370
    50
100
AcDb2dPolyline
 66
     1
 10
0.0
 20
0.0
 30
0.0
  0
VERTEX
  5
41E
330
41C
100
AcDbEntity
  8
001
370
    50
100
AcDbVertex
100
AcDb2dVertex
 10
151.359603
 20
126.69488
 30
0.0
  0
VERTEX
  5
41F
330
41C
100
AcDbEntity
  8
001
370
    50
100
AcDbVertex
100
AcDb2dVertex
 10
151.088856
 20
126.680596
 30
0.0
  0
VERTEX
  5
420
330
41C
100
AcDbEntity
  8
001
370
    50
100
AcDbVertex
100
AcDb2dVertex
 10
150.718315
 20
126.63791
 30
0.0
  0
VERTEX
  5
421
330
41C
100
AcDbEntity
  8
001
370
    50
100
AcDbVertex
100
AcDb2dVertex
 10
150.389946
 20
126.567069
 30
0.0
  0
VERTEX
  5
422
330
41C
100
AcDbEntity
  8
001
370
    50
100
AcDbVertex
100
AcDb2dVertex
 10
150.096513
 20
126.468728
 30
0.0
  0
VERTEX
  5
423
330
41C
100
AcDbEntity
  8
001
370
    50
100
AcDbVertex
100
AcDb2dVertex
 10
149.802404
 20
126.343436
 30
0.0
  0
VERTEX
  5
424
330
41C
100
AcDbEntity
  8
001
370
    50
100
AcDbVertex
100
AcDb2dVertex
 10
149.513089
 20
126.192476
 30
0.0
  0
VERTEX
  5
425
330
41C
100
AcDbEntity
  8
001
370
    50
100
AcDbVertex
100
AcDb2dVertex
 10
149.240216
 20
126.016646
 30
0.0
  0
VERTEX
  5
426
330
41C
100
AcDbEntity
  8
001
370
    50
100
AcDbVertex
100
AcDb2dVertex
 10
148.98577
 20
125.817547
 30
0.0
  0
VERTEX
  5
427
330
41C
100
AcDbEntity
  8
001
370
    50
100
AcDbVertex
100
AcDb2dVertex
 10
148.748359
 20
125.596106
 30
0.0
  0
VERTEX
  5
428
330
41C
100
AcDbEntity
  8
001
370
    50
100
AcDbVertex
100
AcDb2dVertex
 10
148.530579
 20
125.355334
 30
0.0
  0
VERTEX
  5
429
330
41C
100
AcDbEntity
  8
001
370
    50
100
AcDbVertex
100
AcDb2dVertex
 10
148.334271
 20
125.096612
 30
0.0
  0
VERTEX
  5
42A
330
41C
100
AcDbEntity
  8
001
370
    50
100
AcDbVertex
100
AcDb2dVertex
 10
148.161346
 20
124.81988
 30
0.0
  0
VERTEX
  5
42B
330
41C
100
AcDbEntity
  8
001
370
    50
100
AcDbVertex
100
AcDb2dVertex
 10
148.01254
 20
124.525833
 30
0.0
  0
VERTEX
  5
42C
330
41C
100
AcDbEntity
  8
001
370
    50
100
AcDbVertex
100
AcDb2dVertex
 10
147.889291
 20
124.227456
 30
0.0
  0
VERTEX
  5
42D
330
41C
100
AcDbEntity
  8
001
370
    50
100
AcDbVertex
100
AcDb2dVertex
 10
147.792386
 20
123.929237
 30
0.0
  0
VERTEX
  5
42E
330
41C
100
AcDbEntity
  8
001
370
    50
100
AcDbVertex
100
AcDb2dVertex
 10
147.722679
 20
123.596061
 30
0.0
  0
VERTEX
  5
42F
330
41C
100
AcDbEntity
  8
001
370
    50
100
AcDbVertex
100
AcDb2dVertex
 10
147.680633
 20
123.219759
 30
0.0
  0
VERTEX
  5
430
330
41C
100
AcDbEntity
  8
001
370
    50
100
AcDbVertex
100
AcDb2dVertex
 10
147.666574
 20
122.94488
 30
0.0
  0
SEQEND
  5
41D
330
41C
100
AcDbEntity
  8
001
370
    50
  0
LINE
  5
431
330
1F
100
AcDbEntity
  8
001
370
    50
100
AcDbLine
 10
146.573808
 20
125.034448
 30
0.0
 11
146.610098
 21
127.10413
 31
0.0
  0
LINE
  5
432
330
1F
100
AcDbEntity
  8
001
370
    50
100
AcDbLine
 10
149.906755
 20
130.434162
 30
0.0
 11
146.610098
 21
127.10413
 31
0.0
  0
POLYLINE
  5
433
330
1F
100
AcDbEntity
  8
001
370
    50
100
AcDb2dPolyline
 66
     1
 10
0.0
 20
0.0
 30
0.0
  0
VERTEX
  5
435
330
433
100
AcDbEntity
  8
001
370
    50
100
AcDbVertex
100
AcDb2dVertex
 10
151.012577
 20
130.431222
 30
0.0
  0
VERTEX
  5
436
330
433
100
AcDbEntity
  8
001
370
    50
100
AcDbVertex
100
AcDb2dVertex
 10
150.970062
 20
130.470338
 30
0.0
  0
VERTEX
  5
437
330
433
100
AcDbEntity
  8
001
370
    50
100
AcDbVertex
100
AcDb2dVertex
 10
150.908395
 20
130.520463
 30
0.0
  0
VERTEX
  5
438
330
433
100
AcDbEntity
  8
001
370
    50
100
AcDbVertex
100
AcDb2dVertex
 10
150.848957
 20
130.55989
 30
0.0
  0
VERTEX
  5
439
330
433
100
AcDbEntity
  8
001
370
    50
100
AcDbVertex
100
AcDb2dVertex
 10
150.790534
 20
130.589979
 30
0.0
  0
VERTEX
  5
43A
330
433
100
AcDbEntity
  8
001
370
    50
100
AcDbVertex
100
AcDb2dVertex
 10
150.728148
 20
130.616083
 30
0.0
  0
VERTEX
  5
43B
330
433
100
AcDbEntity
  8
001
370
    50
100
AcDbVertex
100
AcDb2dVertex
 10
150.662576
 20
130.637656
 30
0.0
  0
VERTEX
  5
43C
330
433
100
AcDbEntity
  8
001
370
    50
100
AcDbVertex
100
AcDb2dVertex
 10
150.595897
 20
130.652979
 30
0.0
  0
VERTEX
  5
43D
330
433
100
AcDbEntity
  8
001
370
    50
100
AcDbVertex
100
AcDb2dVertex
 10
150.528408
 20
130.662046
 30
0.0
  0
VERTEX
  5
43E
330
433
100
AcDbEntity
  8
001
370
    50
100
AcDbVertex
100
AcDb2dVertex
 10
150.460266
 20
130.665167
 30
0.0
  0
VERTEX
  5
43F
330
433
100
AcDbEntity
  8
001
370
    50
100
AcDbVertex
100
AcDb2dVertex
 10
150.392108
 20
130.662408
 30
0.0
  0
VERTEX
  5
440
330
433
100
AcDbEntity
  8
001
370
    50
100
AcDbVertex
100
AcDb2dVertex
 10
150.324574
 20
130.6537
 30
0.0
  0
VERTEX
  5
441
330
433
100
AcDbEntity
  8
001
370
    50
100
AcDbVertex
100
AcDb2dVertex
 10
150.257816
 20
130.638732
 30
0.0
  0
VERTEX
  5
442
330
433
100
AcDbEntity
  8
001
370
    50
100
AcDbVertex
100
AcDb2dVertex
 10
150.192134
 20
130.617508
 30
0.0
  0
VERTEX
  5
443
330
433
100
AcDbEntity
  8
001
370
    50
100
AcDbVertex
100
AcDb2dVertex
 10
150.129614
 20
130.591736
 30
0.0
  0
VERTEX
  5
444
330
433
100
AcDbEntity
  8
001
370
    50
100
AcDbVertex
100
AcDb2dVertex
 10
150.071036
 20
130.561958
 30
0.0
  0
VERTEX
  5
445
330
433
100
AcDbEntity
  8
001
370
    50
100
AcDbVertex
100
AcDb2dVertex
 10
150.011396
 20
130.522848
 30
0.0
  0
VERTEX
  5
446
330
433
100
AcDbEntity
  8
001
370
    50
100
AcDbVertex
100
AcDb2dVertex
 10
149.949471
 20
130.473051
 30
0.0
  0
VERTEX
  5
447
330
433
100
AcDbEntity
  8
001
370
    50
100
AcDbVertex
100
AcDb2dVertex
 10
149.906755
 20
130.434162
 30
0.0
  0
SEQEND
  5
434
330
433
100
AcDbEntity
  8
001
370
    50
  0
LINE
  5
448
330
1F
100
AcDbEntity
  8
001
370
    50
100
AcDbLine
 10
153.588918
 20
127.801403
 30
0.0
 11
151.012577
 21
130.431222
 31
0.0
  0
LINE
  5
449
330
1F
100
AcDbEntity
  8
001
370
    50
100
AcDbLine
 10
155.455665
 20
127.767655
 30
0.0
 11
153.588918
 21
127.801403
 31
0.0
  0
LINE
  5
44A
330
1F
100
AcDbEntity
  8
001
370
    50
100
AcDbLine
 10
158.735105
 20
124.420141
 30
0.0
 11
155.455665
 21
127.767655
 31
0.0
  0
POLYLINE
  5
44B
330
1F
100
AcDbEntity
  8
001
370
    50
100
AcDb2dPolyline
 66
     1
 10
0.0
 20
0.0
 30
0.0
  0
VERTEX
  5
44D
330
44B
100
AcDbEntity
  8
001
370
    50
100
AcDbVertex
100
AcDb2dVertex
 10
158.73221
 20
123.29726
 30
0.0
  0
VERTEX
  5
44E
330
44B
100
AcDbEntity
  8
001
370
    50
100
AcDbVertex
100
AcDb2dVertex
 10
158.775271
 20
123.34616
 30
0.0
  0
VERTEX
  5
44F
330
44B
100
AcDbEntity
  8
001
370
    50
100
AcDbVertex
100
AcDb2dVertex
 10
158.829764
 20
123.417321
 30
0.0
  0
VERTEX
  5
450
330
44B
100
AcDbEntity
  8
001
370
    50
100
AcDbVertex
100
AcDb2dVertex
 10
158.871732
 20
123.486448
 30
0.0
  0
VERTEX
  5
451
330
44B
100
AcDbEntity
  8
001
370
    50
100
AcDbVertex
100
AcDb2dVertex
 10
158.902377
 20
123.5544
 30
0.0
  0
VERTEX
  5
452
330
44B
100
AcDbEntity
  8
001
370
    50
100
AcDbVertex
100
AcDb2dVertex
 10
158.92781
 20
123.627083
 30
0.0
  0
VERTEX
  5
453
330
44B
100
AcDbEntity
  8
001
370
    50
100
AcDbVertex
100
AcDb2dVertex
 10
158.947257
 20
123.70323
 30
0.0
  0
VERTEX
  5
454
330
44B
100
AcDbEntity
  8
001
370
    50
100
AcDbVertex
100
AcDb2dVertex
 10
158.958837
 20
123.780503
 30
0.0
  0
VERTEX
  5
455
330
44B
100
AcDbEntity
  8
001
370
    50
100
AcDbVertex
100
AcDb2dVertex
 10
158.962681
 20
123.858092
 30
0.0
  0
VERTEX
  5
456
330
44B
100
AcDbEntity
  8
001
370
    50
100
AcDbVertex
100
AcDb2dVertex
 10
158.959237
 20
123.9357
 30
0.0
  0
VERTEX
  5
457
330
44B
100
AcDbEntity
  8
001
370
    50
100
AcDbVertex
100
AcDb2dVertex
 10
158.948056
 20
124.013033
 30
0.0
  0
VERTEX
  5
458
330
44B
100
AcDbEntity
  8
001
370
    50
100
AcDbVertex
100
AcDb2dVertex
 10
158.929002
 20
124.089283
 30
0.0
  0
VERTEX
  5
459
330
44B
100
AcDbEntity
  8
001
370
    50
100
AcDbVertex
100
AcDb2dVertex
 10
158.903943
 20
124.162099
 30
0.0
  0
VERTEX
  5
45A
330
44B
100
AcDbEntity
  8
001
370
    50
100
AcDbVertex
100
AcDb2dVertex
 10
158.873649
 20
124.230214
 30
0.0
  0
VERTEX
  5
45B
330
44B
100
AcDbEntity
  8
001
370
    50
100
AcDbVertex
100
AcDb2dVertex
 10
158.832039
 20
124.299563
 30
0.0
  0
VERTEX
  5
45C
330
44B
100
AcDbEntity
  8
001
370
    50
100
AcDbVertex
100
AcDb2dVertex
 10
158.777913
 20
124.371013
 30
0.0
  0
VERTEX
  5
45D
330
44B
100
AcDbEntity
  8
001
370
    50
100
AcDbVertex
100
AcDb2dVertex
 10
158.735105
 20
124.420141
 30
0.0
  0
SEQEND
  5
44C
330
44B
100
AcDbEntity
  8
001
370
    50
  0
LINE
  5
45E
330
1F
100
AcDbEntity
  8
001
370
    50
100
AcDbLine
 10
156.142345
 20
120.681175
 30
0.0
 11
158.73221
 21
123.29726
 31
0.0
  0
LINE
  5
45F
330
1F
100
AcDbEntity
  8
001
370
    50
100
AcDbLine
 10
156.109109
 20
118.785631
 30
0.0
 11
156.142345
 21
120.681175
 31
0.0
  0
LINE
  5
460
330
1F
100
AcDbEntity
  8
001
370
    50
100
AcDbLine
 10
152.812451
 20
115.455599
 30
0.0
 11
156.109109
 21
118.785631
 31
0.0
  0
LINE
  5
461
330
1F
100
AcDbEntity
  8
001
370
    50
100
AcDbLine
 10
149.149244
 20
118.069008
 30
0.0
 11
151.706629
 21
115.458539
 31
0.0
  0
POLYLINE
  5
462
330
1F
100
AcDbEntity
  8
001
370
    50
100
AcDb2dPolyline
 66
     1
 10
0.0
 20
0.0
 30
0.0
  0
VERTEX
  5
464
330
462
100
AcDbEntity
  8
001
370
    50
100
AcDbVertex
100
AcDb2dVertex
 10
143.986996
 20
122.421447
 30
0.0
  0
VERTEX
  5
465
330
462
100
AcDbEntity
  8
001
370
    50
100
AcDbVertex
100
AcDb2dVertex
 10
143.943936
 20
122.372547
 30
0.0
  0
VERTEX
  5
466
330
462
100
AcDbEntity
  8
001
370
    50
100
AcDbVertex
100
AcDb2dVertex
 10
143.889442
 20
122.301386
 30
0.0
  0
VERTEX
  5
467
330
462
100
AcDbEntity
  8
001
370
    50
100
AcDbVertex
100
AcDb2dVertex
 10
143.847474
 20
122.232259
 30
0.0
  0
VERTEX
  5
468
330
462
100
AcDbEntity
  8
001
370
    50
100
AcDbVertex
100
AcDb2dVertex
 10
143.81683
 20
122.164307
 30
0.0
  0
VERTEX
  5
469
330
462
100
AcDbEntity
  8
001
370
    50
100
AcDbVertex
100
AcDb2dVertex
 10
143.791396
 20
122.091624
 30
0.0
  0
VERTEX
  5
46A
330
462
100
AcDbEntity
  8
001
370
    50
100
AcDbVertex
100
AcDb2dVertex
 10
143.771949
 20
122.015477
 30
0.0
  0
VERTEX
  5
46B
330
462
100
AcDbEntity
  8
001
370
    50
100
AcDbVertex
100
AcDb2dVertex
 10
143.760369
 20
121.938204
 30
0.0
  0
VERTEX
  5
46C
330
462
100
AcDbEntity
  8
001
370
    50
100
AcDbVertex
100
AcDb2dVertex
 10
143.756525
 20
121.860615
 30
0.0
  0
VERTEX
  5
46D
330
462
100
AcDbEntity
  8
001
370
    50
100
AcDbVertex
100
AcDb2dVertex
 10
143.759969
 20
121.783007
 30
0.0
  0
VERTEX
  5
46E
330
462
100
AcDbEntity
  8
001
370
    50
100
AcDbVertex
100
AcDb2dVertex
 10
143.77115
 20
121.705674
 30
0.0
  0
VERTEX
  5
46F
330
462
100
AcDbEntity
  8
001
370
    50
100
AcDbVertex
100
AcDb2dVertex
 10
143.790205
 20
121.629424
 30
0.0
  0
VERTEX
  5
470
330
462
100
AcDbEntity
  8
001
370
    50
100
AcDbVertex
100
AcDb2dVertex
 10
143.815263
 20
121.556608
 30
0.0
  0
VERTEX
  5
471
330
462
100
AcDbEntity
  8
001
370
    50
100
AcDbVertex
100
AcDb2dVertex
 10
143.845557
 20
121.488493
 30
0.0
  0
VERTEX
  5
472
330
462
100
AcDbEntity
  8
001
370
    50
100
AcDbVertex
100
AcDb2dVertex
 10
143.887167
 20
121.419144
 30
0.0
  0
VERTEX
  5
473
330
462
100
AcDbEntity
  8
001
370
    50
100
AcDbVertex
100
AcDb2dVertex
 10
143.941293
 20
121.347694
 30
0.0
  0
VERTEX
  5
474
330
462
100
AcDbEntity
  8
001
370
    50
100
AcDbVertex
100
AcDb2dVertex
 10
143.984101
 20
121.298566
 30
0.0
  0
SEQEND
  5
463
330
462
100
AcDbEntity
  8
001
370
    50
  0
LINE
  5
475
330
1F
100
AcDbEntity
  8
001
370
    50
100
AcDbLine
 10
146.573808
 20
125.034448
 30
0.0
 11
143.986996
 21
122.421447
 31
0.0
  0
POLYLINE
  5
476
330
1F
100
AcDbEntity
  8
001
370
    50
100
AcDb2dPolyline
 66
     1
 10
0.0
 20
0.0
 30
0.0
  0
VERTEX
  5
478
330
476
100
AcDbEntity
  8
001
370
    50
100
AcDbVertex
100
AcDb2dVertex
 10
147.666574
 20
122.94488
 30
0.0
  0
VERTEX
  5
479
330
476
100
AcDbEntity
  8
001
370
    50
100
AcDbVertex
100
AcDb2dVertex
 10
147.68436
 20
122.635792
 30
0.0
  0
VERTEX
  5
47A
330
476
100
AcDbEntity
  8
001
370
    50
100
AcDbVertex
100
AcDb2dVertex
 10
147.737535
 20
122.213292
 30
0.0
  0
VERTEX
  5
47B
330
476
100
AcDbEntity
  8
001
370
    50
100
AcDbVertex
100
AcDb2dVertex
 10
147.825585
 20
121.840836
 30
0.0
  0
VERTEX
  5
47C
330
476
100
AcDbEntity
  8
001
370
    50
100
AcDbVertex
100
AcDb2dVertex
 10
147.947689
 20
121.509818
 30
0.0
  0
VERTEX
  5
47D
330
476
100
AcDbEntity
  8
001
370
    50
100
AcDbVertex
100
AcDb2dVertex
 10
148.102468
 20
121.181523
 30
0.0
  0
VERTEX
  5
47E
330
476
100
AcDbEntity
  8
001
370
    50
100
AcDbVertex
100
AcDb2dVertex
 10
148.288962
 20
120.861492
 30
0.0
  0
VERTEX
  5
47F
330
476
100
AcDbEntity
  8
001
370
    50
100
AcDbVertex
100
AcDb2dVertex
 10
148.504997
 20
120.565009
 30
0.0
  0
VERTEX
  5
480
330
476
100
AcDbEntity
  8
001
370
    50
100
AcDbVertex
100
AcDb2dVertex
 10
148.748237
 20
120.29323
 30
0.0
  0
VERTEX
  5
481
330
476
100
AcDbEntity
  8
001
370
    50
100
AcDbVertex
100
AcDb2dVertex
 10
149.015456
 20
120.046572
 30
0.0
  0
VERTEX
  5
482
330
476
100
AcDbEntity
  8
001
370
    50
100
AcDbVertex
100
AcDb2dVertex
 10
149.307866
 20
119.826869
 30
0.0
  0
VERTEX
  5
483
330
476
100
AcDbEntity
  8
001
370
    50
100
AcDbVertex
100
AcDb2dVertex
 10
149.622683
 20
119.637719
 30
0.0
  0
VERTEX
  5
484
330
476
100
AcDbEntity
  8
001
370
    50
100
AcDbVertex
100
AcDb2dVertex
 10
149.946342
 20
119.480332
 30
0.0
  0
VERTEX
  5
485
330
476
100
AcDbEntity
  8
001
370
    50
100
AcDbVertex
100
AcDb2dVertex
 10
150.271976
 20
119.356436
 30
0.0
  0
VERTEX
  5
486
330
476
100
AcDbEntity
  8
001
370
    50
100
AcDbVertex
100
AcDb2dVertex
 10
150.639129
 20
119.266936
 30
0.0
  0
VERTEX
  5
487
330
476
100
AcDbEntity
  8
001
370
    50
100
AcDbVertex
100
AcDb2dVertex
 10
151.055148
 20
119.212955
 30
0.0
  0
VERTEX
  5
488
330
476
100
AcDbEntity
  8
001
370
    50
100
AcDbVertex
100
AcDb2dVertex
 10
151.359603
 20
119.19488
 30
0.0
  0
SEQEND
  5
477
330
476
100
AcDbEntity
  8
001
370
    50
  0
POLYLINE
  5
489
330
1F
100
AcDbEntity
  8
001
370
    50
100
AcDb2dPolyline
 66
     1
 10
0.0
 20
0.0
 30
0.0
  0
VERTEX
  5
48B
330
489
100
AcDbEntity
  8
001
370
    50
100
AcDbVertex
100
AcDb2dVertex
 10
151.359603
 20
119.19488
 30
0.0
  0
VERTEX
  5
48C
330
489
100
AcDbEntity
  8
001
370
    50
100
AcDbVertex
100
AcDb2dVertex
 10
151.63035
 20
119.209164
 30
0.0
  0
VERTEX
  5
48D
330
489
100
AcDbEntity
  8
001
370
    50
100
AcDbVertex
100
AcDb2dVertex
 10
152.000891
 20
119.251851
 30
0.0
  0
VERTEX
  5
48E
330
489
100
AcDbEntity
  8
001
370
    50
100
AcDbVertex
100
AcDb2dVertex
 10
152.32926
 20
119.322697
 30
0.0
  0
VERTEX
  5
48F
330
489
100
AcDbEntity
  8
001
370
    50
100
AcDbVertex
100
AcDb2dVertex
 10
152.622693
 20
119.421033
 30
0.0
  0
VERTEX
  5
490
330
489
100
AcDbEntity
  8
001
370
    50
100
AcDbVertex
100
AcDb2dVertex
 10
152.916802
 20
119.546306
 30
0.0
  0
VERTEX
  5
491
330
489
100
AcDbEntity
  8
001
370
    50
100
AcDbVertex
100
AcDb2dVertex
 10
153.206118
 20
119.697285
 30
0.0
  0
VERTEX
  5
492
330
489
100
AcDbEntity
  8
001
370
    50
100
AcDbVertex
100
AcDb2dVertex
 10
153.47899
 20
119.873186
 30
0.0
  0
VERTEX
  5
493
330
489
100
AcDbEntity
  8
001
370
    50
100
AcDbVertex
100
AcDb2dVertex
 10
153.733436
 20
120.072214
 30
0.0
  0
VERTEX
  5
494
330
489
100
AcDbEntity
  8
001
370
    50
100
AcDbVertex
100
AcDb2dVertex
 10
153.970847
 20
120.29339
 30
0.0
  0
VERTEX
  5
495
330
489
100
AcDbEntity
  8
001
370
    50
100
AcDbVertex
100
AcDb2dVertex
 10
154.188628
 20
120.534427
 30
0.0
  0
VERTEX
  5
496
330
489
100
AcDbEntity
  8
001
370
    50
100
AcDbVertex
100
AcDb2dVertex
 10
154.384935
 20
120.79414
 30
0.0
  0
VERTEX
  5
497
330
489
100
AcDbEntity
  8
001
370
    50
100
AcDbVertex
100
AcDb2dVertex
 10
154.55786
 20
121.06988
 30
0.0
  0
VERTEX
  5
498
330
489
100
AcDbEntity
  8
001
370
    50
100
AcDbVertex
100
AcDb2dVertex
 10
154.706666
 20
121.360215
 30
0.0
  0
VERTEX
  5
499
330
489
100
AcDbEntity
  8
001
370
    50
100
AcDbVertex
100
AcDb2dVertex
 10
154.829915
 20
121.662305
 30
0.0
  0
VERTEX
  5
49A
330
489
100
AcDbEntity
  8
001
370
    50
100
AcDbVertex
100
AcDb2dVertex
 10
154.92682
 20
121.974415
 30
0.0
  0
VERTEX
  5
49B
330
489
100
AcDbEntity
  8
001
370
    50
100
AcDbVertex
100
AcDb2dVertex
 10
154.996527
 20
122.2937
 30
0.0
  0
VERTEX
  5
49C
330
489
100
AcDbEntity
  8
001
370
    50
100
AcDbVertex
100
AcDb2dVertex
 10
155.038573
 20
122.618084
 30
0.0
  0
VERTEX
  5
49D
330
489
100
AcDbEntity
  8
001
370
    50
100
AcDbVertex
100
AcDb2dVertex
 10
155.052632
 20
122.94488
 30
0.0
  0
VERTEX
  5
49E
330
489
100
AcDbEntity
  8
001
370
    50
100
AcDbVertex
100
AcDb2dVertex
 10
155.038573
 20
123.271677
 30
0.0
  0
VERTEX
  5
49F
330
489
100
AcDbEntity
  8
001
370
    50
100
AcDbVertex
100
AcDb2dVertex
 10
154.996527
 20
123.596061
 30
0.0
  0
VERTEX
  5
4A0
330
489
100
AcDbEntity
  8
001
370
    50
100
AcDbVertex
100
AcDb2dVertex
 10
154.92682
 20
123.915346
 30
0.0
  0
VERTEX
  5
4A1
330
489
100
AcDbEntity
  8
001
370
    50
100
AcDbVertex
100
AcDb2dVertex
 10
154.829915
 20
124.227456
 30
0.0
  0
VERTEX
  5
4A2
330
489
100
AcDbEntity
  8
001
370
    50
100
AcDbVertex
100
AcDb2dVertex
 10
154.706666
 20
124.529546
 30
0.0
  0
VERTEX
  5
4A3
330
489
100
AcDbEntity
  8
001
370
    50
100
AcDbVertex
100
AcDb2dVertex
 10
154.55786
 20
124.81988
 30
0.0
  0
VERTEX
  5
4A4
330
489
100
AcDbEntity
  8
001
370
    50
100
AcDbVertex
100
AcDb2dVertex
 10
154.384935
 20
125.09562
 30
0.0
  0
VERTEX
  5
4A5
330
489
100
AcDbEntity
  8
001
370
    50
100
AcDbVertex
100
AcDb2dVertex
 10
154.188628
 20
125.355334
 30
0.0
  0
VERTEX
  5
4A6
330
489
100
AcDbEntity
  8
001
370
    50
100
AcDbVertex
100
AcDb2dVertex
 10
153.970847
 20
125.596371
 30
0.0
  0
VERTEX
  5
4A7
330
489
100
AcDbEntity
  8
001
370
    50
100
AcDbVertex
100
AcDb2dVertex
 10
153.733436
 20
125.817547
 30
0.0
  0
VERTEX
  5
4A8
330
489
100
AcDbEntity
  8
001
370
    50
100
AcDbVertex
100
AcDb2dVertex
 10
153.47899
 20
126.016575
 30
0.0
  0
VERTEX
  5
4A9
330
489
100
AcDbEntity
  8
001
370
    50
100
AcDbVertex
100
AcDb2dVertex
 10
153.206118
 20
126.192476
 30
0.0
  0
VERTEX
  5
4AA
330
489
100
AcDbEntity
  8
001
370
    50
100
AcDbVertex
100
AcDb2dVertex
 10
152.916802
 20
126.343455
 30
0.0
  0
VERTEX
  5
4AB
330
489
100
AcDbEntity
  8
001
370
    50
100
AcDbVertex
100
AcDb2dVertex
 10
152.622693
 20
126.468728
 30
0.0
  0
VERTEX
  5
4AC
330
489
100
AcDbEntity
  8
001
370
    50
100
AcDbVertex
100
AcDb2dVertex
 10
152.32926
 20
126.567064
 30
0.0
  0
VERTEX
  5
4AD
330
489
100
AcDbEntity
  8
001
370
    50
100
AcDbVertex
100
AcDb2dVertex
 10
152.000891
 20
126.63791
 30
0.0
  0
VERTEX
  5
4AE
330
489
100
AcDbEntity
  8
001
370
    50
100
AcDbVertex
100
AcDb2dVertex
 10
151.63035
 20
126.680597
 30
0.0
  0
VERTEX
  5
4AF
330
489
100
AcDbEntity
  8
001
370
    50
100
AcDbVertex
100
AcDb2dVertex
 10
151.359603
 20
126.69488
 30
0.0
  0
SEQEND
  5
48A
330
489
100
AcDbEntity
  8
001
370
    50
  0
POLYLINE
  5
4B0
330
1F
100
AcDbEntity
  8
001
370
    50
100
AcDb2dPolyline
 66
     1
 10
0.0
 20
0.0
 30
0.0
  0
VERTEX
  5
4B2
330
4B0
100
AcDbEntity
  8
001
370
    50
100
AcDbVertex
100
AcDb2dVertex
 10
161.206757
 20
116.569818
 30
0.0
  0
VERTEX
  5
4B3
330
4B0
100
AcDbEntity
  8
001
370
    50
100
AcDbVertex
100
AcDb2dVertex
 10
161.09086
 20
116.560891
 30
0.0
  0
VERTEX
  5
4B4
330
4B0
100
AcDbEntity
  8
001
370
    50
100
AcDbVertex
100
AcDb2dVertex
 10
160.974974
 20
116.55183
 30
0.0
  0
VERTEX
  5
4B5
330
4B0
100
AcDbEntity
  8
001
370
    50
100
AcDbVertex
100
AcDb2dVertex
 10
160.63632
 20
116.524068
 30
0.0
  0
VERTEX
  5
4B6
330
4B0
100
AcDbEntity
  8
001
370
    50
100
AcDbVertex
100
AcDb2dVertex
 10
160.297757
 20
116.495166
 30
0.0
  0
SEQEND
  5
4B1
330
4B0
100
AcDbEntity
  8
001
370
    50
  0
POLYLINE
  5
4B7
330
1F
100
AcDbEntity
  8
001
370
    50
100
AcDb2dPolyline
 66
     1
 10
0.0
 20
0.0
 30
0.0
  0
VERTEX
  5
4B9
330
4B7
100
AcDbEntity
  8
001
370
    50
100
AcDbVertex
100
AcDb2dVertex
 10
159.512716
 20
116.473543
 30
0.0
  0
VERTEX
  5
4BA
330
4B7
100
AcDbEntity
  8
001
370
    50
100
AcDbVertex
100
AcDb2dVertex
 10
159.527558
 20
116.467073
 30
0.0
  0
VERTEX
  5
4BB
330
4B7
100
AcDbEntity
  8
001
370
    50
100
AcDbVertex
100
AcDb2dVertex
 10
159.549282
 20
116.457691
 30
0.0
  0
VERTEX
  5
4BC
330
4B7
100
AcDbEntity
  8
001
370
    50
100
AcDbVertex
100
AcDb2dVertex
 10
159.570998
 20
116.448434
 30
0.0
  0
VERTEX
  5
4BD
330
4B7
100
AcDbEntity
  8
001
370
    50
100
AcDbVertex
100
AcDb2dVertex
 10
159.585878
 20
116.442152
 30
0.0
  0
SEQEND
  5
4B8
330
4B7
100
AcDbEntity
  8
001
370
    50
  0
POLYLINE
  5
4BE
330
1F
100
AcDbEntity
  8
001
370
    50
100
AcDb2dPolyline
 66
     1
 10
0.0
 20
0.0
 30
0.0
  0
VERTEX
  5
4C0
330
4BE
100
AcDbEntity
  8
001
370
    50
100
AcDbVertex
100
AcDb2dVertex
 10
160.297757
 20
116.495166
 30
0.0
  0
VERTEX
  5
4C1
330
4BE
100
AcDbEntity
  8
001
370
    50
100
AcDbVertex
100
AcDb2dVertex
 10
160.181861
 20
116.486927
 30
0.0
  0
VERTEX
  5
4C2
330
4BE
100
AcDbEntity
  8
001
370
    50
100
AcDbVertex
100
AcDb2dVertex
 10
160.065974
 20
116.478569
 30
0.0
  0
VERTEX
  5
4C3
330
4BE
100
AcDbEntity
  8
001
370
    50
100
AcDbVertex
100
AcDb2dVertex
 10
159.825907
 20
116.460617
 30
0.0
  0
VERTEX
  5
4C4
330
4BE
100
AcDbEntity
  8
001
370
    50
100
AcDbVertex
100
AcDb2dVertex
 10
159.585878
 20
116.442152
 30
0.0
  0
SEQEND
  5
4BF
330
4BE
100
AcDbEntity
  8
001
370
    50
  0
LINE
  5
4C5
330
1F
100
AcDbEntity
  8
001
370
    50
100
AcDbLine
 10
152.398798
 20
132.129946
 30
0.0
 11
152.078541
 21
132.232594
 31
0.0
  0
POLYLINE
  5
4C6
330
1F
100
AcDbEntity
  8
001
370
    50
100
AcDb2dPolyline
 66
     1
 10
0.0
 20
0.0
 30
0.0
  0
VERTEX
  5
4C8
330
4C6
100
AcDbEntity
  8
001
370
    50
100
AcDbVertex
100
AcDb2dVertex
 10
152.014233
 20
132.247341
 30
0.0
  0
VERTEX
  5
4C9
330
4C6
100
AcDbEntity
  8
001
370
    50
100
AcDbVertex
100
AcDb2dVertex
 10
151.898615
 20
132.268751
 30
0.0
  0
VERTEX
  5
4CA
330
4C6
100
AcDbEntity
  8
001
370
    50
100
AcDbVertex
100
AcDb2dVertex
 10
151.782535
 20
132.28607
 30
0.0
  0
VERTEX
  5
4CB
330
4C6
100
AcDbEntity
  8
001
370
    50
100
AcDbVertex
100
AcDb2dVertex
 10
151.634086
 20
132.298228
 30
0.0
  0
VERTEX
  5
4CC
330
4C6
100
AcDbEntity
  8
001
370
    50
100
AcDbVertex
100
AcDb2dVertex
 10
151.484893
 20
132.303793
 30
0.0
  0
SEQEND
  5
4C7
330
4C6
100
AcDbEntity
  8
001
370
    50
  0
LINE
  5
4CD
330
1F
100
AcDbEntity
  8
001
370
    50
100
AcDbLine
 10
151.177511
 20
132.284845
 30
0.0
 11
150.851746
 21
132.223327
 31
0.0
  0
POLYLINE
  5
4CE
330
1F
100
AcDbEntity
  8
001
370
    50
100
AcDb2dPolyline
 66
     1
 10
0.0
 20
0.0
 30
0.0
  0
VERTEX
  5
4D0
330
4CE
100
AcDbEntity
  8
001
370
    50
100
AcDbVertex
100
AcDb2dVertex
 10
142.681976
 20
121.299426
 30
0.0
  0
VERTEX
  5
4D1
330
4CE
100
AcDbEntity
  8
001
370
    50
100
AcDbVertex
100
AcDb2dVertex
 10
142.710108
 20
121.236306
 30
0.0
  0
VERTEX
  5
4D2
330
4CE
100
AcDbEntity
  8
001
370
    50
100
AcDbVertex
100
AcDb2dVertex
 10
142.772855
 20
121.16418
 30
0.0
  0
VERTEX
  5
4D3
330
4CE
100
AcDbEntity
  8
001
370
    50
100
AcDbVertex
100
AcDb2dVertex
 10
142.872993
 20
121.125379
 30
0.0
  0
VERTEX
  5
4D4
330
4CE
100
AcDbEntity
  8
001
370
    50
100
AcDbVertex
100
AcDb2dVertex
 10
142.951243
 20
121.119008
 30
0.0
  0
SEQEND
  5
4CF
330
4CE
100
AcDbEntity
  8
001
370
    50
  0
LINE
  5
4D5
330
1F
100
AcDbEntity
  8
001
370
    50
100
AcDbLine
 10
142.299808
 20
121.318243
 30
0.0
 11
141.390808
 21
121.362943
 31
0.0
  0
LINE
  5
4D6
330
1F
100
AcDbEntity
  8
001
370
    50
100
AcDbLine
 10
142.681976
 20
121.299426
 30
0.0
 11
142.299808
 21
121.318243
 31
0.0
  0
POLYLINE
  5
4D7
330
1F
100
AcDbEntity
  8
001
370
    50
100
AcDb2dPolyline
 66
     1
 10
0.0
 20
0.0
 30
0.0
  0
VERTEX
  5
4D9
330
4D7
100
AcDbEntity
  8
001
370
    50
100
AcDbVertex
100
AcDb2dVertex
 10
142.951243
 20
121.119008
 30
0.0
  0
VERTEX
  5
4DA
330
4D7
100
AcDbEntity
  8
001
370
    50
100
AcDbVertex
100
AcDb2dVertex
 10
142.999294
 20
121.121432
 30
0.0
  0
VERTEX
  5
4DB
330
4D7
100
AcDbEntity
  8
001
370
    50
100
AcDbVertex
100
AcDb2dVertex
 10
143.069035
 20
121.129648
 30
0.0
  0
VERTEX
  5
4DC
330
4D7
100
AcDbEntity
  8
001
370
    50
100
AcDbVertex
100
AcDb2dVertex
 10
143.151358
 20
121.146625
 30
0.0
  0
VERTEX
  5
4DD
330
4D7
100
AcDbEntity
  8
001
370
    50
100
AcDbVertex
100
AcDb2dVertex
 10
143.207019
 20
121.161554
 30
0.0
  0
SEQEND
  5
4D8
330
4D7
100
AcDbEntity
  8
001
370
    50
  0
POLYLINE
  5
4DE
330
1F
100
AcDbEntity
  8
001
370
    50
100
AcDb2dPolyline
 66
     1
 10
0.0
 20
0.0
 30
0.0
  0
VERTEX
  5
4E0
330
4DE
100
AcDbEntity
  8
001
370
    50
100
AcDbVertex
100
AcDb2dVertex
 10
142.681976
 20
121.299426
 30
0.0
  0
VERTEX
  5
4E1
330
4DE
100
AcDbEntity
  8
001
370
    50
100
AcDbVertex
100
AcDb2dVertex
 10
142.794029
 20
121.409075
 30
0.0
  0
VERTEX
  5
4E2
330
4DE
100
AcDbEntity
  8
001
370
    50
100
AcDbVertex
100
AcDb2dVertex
 10
142.957558
 20
121.569577
 30
0.0
  0
VERTEX
  5
4E3
330
4DE
100
AcDbEntity
  8
001
370
    50
100
AcDbVertex
100
AcDb2dVertex
 10
143.122287
 20
121.73193
 30
0.0
  0
VERTEX
  5
4E4
330
4DE
100
AcDbEntity
  8
001
370
    50
100
AcDbVertex
100
AcDb2dVertex
 10
143.23483
 20
121.843182
 30
0.0
  0
SEQEND
  5
4DF
330
4DE
100
AcDbEntity
  8
001
370
    50
  0
POLYLINE
  5
4E5
330
1F
100
AcDbEntity
  8
001
370
    50
100
AcDb2dPolyline
 66
     1
 10
0.0
 20
0.0
 30
0.0
  0
VERTEX
  5
4E7
330
4E5
100
AcDbEntity
  8
001
370
    50
100
AcDbVertex
100
AcDb2dVertex
 10
146.23061
 20
126.694077
 30
0.0
  0
VERTEX
  5
4E8
330
4E5
100
AcDbEntity
  8
001
370
    50
100
AcDbVertex
100
AcDb2dVertex
 10
146.074977
 20
126.502969
 30
0.0
  0
VERTEX
  5
4E9
330
4E5
100
AcDbEntity
  8
001
370
    50
100
AcDbVertex
100
AcDb2dVertex
 10
145.930318
 20
126.304217
 30
0.0
  0
VERTEX
  5
4EA
330
4E5
100
AcDbEntity
  8
001
370
    50
100
AcDbVertex
100
AcDb2dVertex
 10
145.80192
 20
126.085222
 30
0.0
  0
VERTEX
  5
4EB
330
4E5
100
AcDbEntity
  8
001
370
    50
100
AcDbVertex
100
AcDb2dVertex
 10
145.695169
 20
125.854337
 30
0.0
  0
VERTEX
  5
4EC
330
4E5
100
AcDbEntity
  8
001
370
    50
100
AcDbVertex
100
AcDb2dVertex
 10
145.613275
 20
125.629471
 30
0.0
  0
VERTEX
  5
4ED
330
4E5
100
AcDbEntity
  8
001
370
    50
100
AcDbVertex
100
AcDb2dVertex
 10
145.549938
 20
125.398829
 30
0.0
  0
VERTEX
  5
4EE
330
4E5
100
AcDbEntity
  8
001
370
    50
100
AcDbVertex
100
AcDb2dVertex
 10
145.505034
 20
125.156032
 30
0.0
  0
VERTEX
  5
4EF
330
4E5
100
AcDbEntity
  8
001
370
    50
100
AcDbVertex
100
AcDb2dVertex
 10
145.482137
 20
124.910344
 30
0.0
  0
VERTEX
  5
4F0
330
4E5
100
AcDbEntity
  8
001
370
    50
100
AcDbVertex
100
AcDb2dVertex
 10
145.480241
 20
124.861235
 30
0.0
  0
VERTEX
  5
4F1
330
4E5
100
AcDbEntity
  8
001
370
    50
100
AcDbVertex
100
AcDb2dVertex
 10
145.478808
 20
124.812115
 30
0.0
  0
SEQEND
  5
4E6
330
4E5
100
AcDbEntity
  8
001
370
    50
  0
LINE
  5
4F2
330
1F
100
AcDbEntity
  8
001
370
    50
100
AcDbLine
 10
146.29383
 20
126.760019
 30
0.0
 11
146.23061
 21
126.694077
 31
0.0
  0
POLYLINE
  5
4F3
330
1F
100
AcDbEntity
  8
001
370
    50
100
AcDb2dPolyline
 66
     1
 10
0.0
 20
0.0
 30
0.0
  0
VERTEX
  5
4F5
330
4F3
100
AcDbEntity
  8
001
370
    50
100
AcDbVertex
100
AcDb2dVertex
 10
146.331853
 20
126.179994
 30
0.0
  0
VERTEX
  5
4F6
330
4F3
100
AcDbEntity
  8
001
370
    50
100
AcDbVertex
100
AcDb2dVertex
 10
146.225357
 20
126.059746
 30
0.0
  0
VERTEX
  5
4F7
330
4F3
100
AcDbEntity
  8
001
370
    50
100
AcDbVertex
100
AcDb2dVertex
 10
146.090307
 20
125.883867
 30
0.0
  0
VERTEX
  5
4F8
330
4F3
100
AcDbEntity
  8
001
370
    50
100
AcDbVertex
100
AcDb2dVertex
 10
145.985832
 20
125.711457
 30
0.0
  0
VERTEX
  5
4F9
330
4F3
100
AcDbEntity
  8
001
370
    50
100
AcDbVertex
100
AcDb2dVertex
 10
145.909033
 20
125.546276
 30
0.0
  0
VERTEX
  5
4FA
330
4F3
100
AcDbEntity
  8
001
370
    50
100
AcDbVertex
100
AcDb2dVertex
 10
145.844828
 20
125.375394
 30
0.0
  0
VERTEX
  5
4FB
330
4F3
100
AcDbEntity
  8
001
370
    50
100
AcDbVertex
100
AcDb2dVertex
 10
145.794732
 20
125.179699
 30
0.0
  0
VERTEX
  5
4FC
330
4F3
100
AcDbEntity
  8
001
370
    50
100
AcDbVertex
100
AcDb2dVertex
 10
145.763281
 20
124.958862
 30
0.0
  0
VERTEX
  5
4FD
330
4F3
100
AcDbEntity
  8
001
370
    50
100
AcDbVertex
100
AcDb2dVertex
 10
145.751627
 20
124.797686
 30
0.0
  0
SEQEND
  5
4F4
330
4F3
100
AcDbEntity
  8
001
370
    50
  0
POLYLINE
  5
4FE
330
1F
100
AcDbEntity
  8
001
370
    50
100
AcDb2dPolyline
 66
     1
 10
0.0
 20
0.0
 30
0.0
  0
VERTEX
  5
500
330
4FE
100
AcDbEntity
  8
001
370
    50
100
AcDbVertex
100
AcDb2dVertex
 10
148.178048
 20
128.689943
 30
0.0
  0
VERTEX
  5
501
330
4FE
100
AcDbEntity
  8
001
370
    50
100
AcDbVertex
100
AcDb2dVertex
 10
148.335243
 20
128.851424
 30
0.0
  0
VERTEX
  5
502
330
4FE
100
AcDbEntity
  8
001
370
    50
100
AcDbVertex
100
AcDb2dVertex
 10
148.564534
 20
129.087876
 30
0.0
  0
VERTEX
  5
503
330
4FE
100
AcDbEntity
  8
001
370
    50
100
AcDbVertex
100
AcDb2dVertex
 10
148.79492
 20
129.326734
 30
0.0
  0
VERTEX
  5
504
330
4FE
100
AcDbEntity
  8
001
370
    50
100
AcDbVertex
100
AcDb2dVertex
 10
148.95224
 20
129.490464
 30
0.0
  0
SEQEND
  5
4FF
330
4FE
100
AcDbEntity
  8
001
370
    50
  0
POLYLINE
  5
505
330
1F
100
AcDbEntity
  8
001
370
    50
100
AcDb2dPolyline
 66
     1
 10
0.0
 20
0.0
 30
0.0
  0
VERTEX
  5
507
330
505
100
AcDbEntity
  8
001
370
    50
100
AcDbVertex
100
AcDb2dVertex
 10
149.242425
 20
130.965644
 30
0.0
  0
VERTEX
  5
508
330
505
100
AcDbEntity
  8
001
370
    50
100
AcDbVertex
100
AcDb2dVertex
 10
149.173628
 20
130.825154
 30
0.0
  0
VERTEX
  5
509
330
505
100
AcDbEntity
  8
001
370
    50
100
AcDbVertex
100
AcDb2dVertex
 10
149.110441
 20
130.682333
 30
0.0
  0
VERTEX
  5
50A
330
505
100
AcDbEntity
  8
001
370
    50
100
AcDbVertex
100
AcDb2dVertex
 10
149.041726
 20
130.484728
 30
0.0
  0
VERTEX
  5
50B
330
505
100
AcDbEntity
  8
001
370
    50
100
AcDbVertex
100
AcDb2dVertex
 10
148.990592
 20
130.281329
 30
0.0
  0
VERTEX
  5
50C
330
505
100
AcDbEntity
  8
001
370
    50
100
AcDbVertex
100
AcDb2dVertex
 10
148.954755
 20
130.068636
 30
0.0
  0
VERTEX
  5
50D
330
505
100
AcDbEntity
  8
001
370
    50
100
AcDbVertex
100
AcDb2dVertex
 10
148.93857
 20
129.854118
 30
0.0
  0
VERTEX
  5
50E
330
505
100
AcDbEntity
  8
001
370
    50
100
AcDbVertex
100
AcDb2dVertex
 10
148.941222
 20
129.672333
 30
0.0
  0
VERTEX
  5
50F
330
505
100
AcDbEntity
  8
001
370
    50
100
AcDbVertex
100
AcDb2dVertex
 10
148.95224
 20
129.490464
 30
0.0
  0
SEQEND
  5
506
330
505
100
AcDbEntity
  8
001
370
    50
  0
LINE
  5
510
330
1F
100
AcDbEntity
  8
001
370
    50
100
AcDbLine
 10
151.484893
 20
132.303793
 30
0.0
 11
151.177511
 21
132.284845
 31
0.0
  0
POLYLINE
  5
511
330
1F
100
AcDbEntity
  8
001
370
    50
100
AcDb2dPolyline
 66
     1
 10
0.0
 20
0.0
 30
0.0
  0
VERTEX
  5
513
330
511
100
AcDbEntity
  8
001
370
    50
100
AcDbVertex
100
AcDb2dVertex
 10
150.223372
 20
131.967876
 30
0.0
  0
VERTEX
  5
514
330
511
100
AcDbEntity
  8
001
370
    50
100
AcDbVertex
100
AcDb2dVertex
 10
150.072767
 20
131.872753
 30
0.0
  0
VERTEX
  5
515
330
511
100
AcDbEntity
  8
001
370
    50
100
AcDbVertex
100
AcDb2dVertex
 10
149.926892
 20
131.77117
 30
0.0
  0
VERTEX
  5
516
330
511
100
AcDbEntity
  8
001
370
    50
100
AcDbVertex
100
AcDb2dVertex
 10
149.786836
 20
131.655755
 30
0.0
  0
VERTEX
  5
517
330
511
100
AcDbEntity
  8
001
370
    50
100
AcDbVertex
100
AcDb2dVertex
 10
149.655767
 20
131.529682
 30
0.0
  0
VERTEX
  5
518
330
511
100
AcDbEntity
  8
001
370
    50
100
AcDbVertex
100
AcDb2dVertex
 10
149.538624
 20
131.401221
 30
0.0
  0
VERTEX
  5
519
330
511
100
AcDbEntity
  8
001
370
    50
100
AcDbVertex
100
AcDb2dVertex
 10
149.431484
 20
131.264764
 30
0.0
  0
VERTEX
  5
51A
330
511
100
AcDbEntity
  8
001
370
    50
100
AcDbVertex
100
AcDb2dVertex
 10
149.333685
 20
131.117491
 30
0.0
  0
VERTEX
  5
51B
330
511
100
AcDbEntity
  8
001
370
    50
100
AcDbVertex
100
AcDb2dVertex
 10
149.242425
 20
130.965644
 30
0.0
  0
SEQEND
  5
512
330
511
100
AcDbEntity
  8
001
370
    50
  0
POLYLINE
  5
51C
330
1F
100
AcDbEntity
  8
001
370
    50
100
AcDb2dPolyline
 66
     1
 10
0.0
 20
0.0
 30
0.0
  0
VERTEX
  5
51E
330
51C
100
AcDbEntity
  8
001
370
    50
100
AcDbVertex
100
AcDb2dVertex
 10
150.851746
 20
132.223327
 30
0.0
  0
VERTEX
  5
51F
330
51C
100
AcDbEntity
  8
001
370
    50
100
AcDbVertex
100
AcDb2dVertex
 10
150.690183
 20
132.174532
 30
0.0
  0
VERTEX
  5
520
330
51C
100
AcDbEntity
  8
001
370
    50
100
AcDbVertex
100
AcDb2dVertex
 10
150.531786
 20
132.117933
 30
0.0
  0
VERTEX
  5
521
330
51C
100
AcDbEntity
  8
001
370
    50
100
AcDbVertex
100
AcDb2dVertex
 10
150.375938
 20
132.046949
 30
0.0
  0
VERTEX
  5
522
330
51C
100
AcDbEntity
  8
001
370
    50
100
AcDbVertex
100
AcDb2dVertex
 10
150.223372
 20
131.967876
 30
0.0
  0
SEQEND
  5
51D
330
51C
100
AcDbEntity
  8
001
370
    50
  0
LINE
  5
523
330
1F
100
AcDbEntity
  8
001
370
    50
100
AcDbLine
 10
152.078541
 20
132.232594
 30
0.0
 11
152.014233
 21
132.247341
 31
0.0
  0
POLYLINE
  5
524
330
1F
100
AcDbEntity
  8
001
370
    50
100
AcDb2dPolyline
 66
     1
 10
0.0
 20
0.0
 30
0.0
  0
VERTEX
  5
526
330
524
100
AcDbEntity
  8
001
370
    50
100
AcDbVertex
100
AcDb2dVertex
 10
152.944865
 20
131.827208
 30
0.0
  0
VERTEX
  5
527
330
524
100
AcDbEntity
  8
001
370
    50
100
AcDbVertex
100
AcDb2dVertex
 10
152.816079
 20
131.914241
 30
0.0
  0
VERTEX
  5
528
330
524
100
AcDbEntity
  8
001
370
    50
100
AcDbVertex
100
AcDb2dVertex
 10
152.683716
 20
131.994829
 30
0.0
  0
VERTEX
  5
529
330
524
100
AcDbEntity
  8
001
370
    50
100
AcDbVertex
100
AcDb2dVertex
 10
152.543104
 20
132.065715
 30
0.0
  0
VERTEX
  5
52A
330
524
100
AcDbEntity
  8
001
370
    50
100
AcDbVertex
100
AcDb2dVertex
 10
152.398798
 20
132.129946
 30
0.0
  0
SEQEND
  5
525
330
524
100
AcDbEntity
  8
001
370
    50
  0
POLYLINE
  5
52B
330
1F
100
AcDbEntity
  8
001
370
    50
100
AcDb2dPolyline
 66
     1
 10
0.0
 20
0.0
 30
0.0
  0
VERTEX
  5
52D
330
52B
100
AcDbEntity
  8
001
370
    50
100
AcDbVertex
100
AcDb2dVertex
 10
153.775346
 20
130.699908
 30
0.0
  0
VERTEX
  5
52E
330
52B
100
AcDbEntity
  8
001
370
    50
100
AcDbVertex
100
AcDb2dVertex
 10
153.728807
 20
130.817712
 30
0.0
  0
VERTEX
  5
52F
330
52B
100
AcDbEntity
  8
001
370
    50
100
AcDbVertex
100
AcDb2dVertex
 10
153.678555
 20
130.933822
 30
0.0
  0
VERTEX
  5
530
330
52B
100
AcDbEntity
  8
001
370
    50
100
AcDbVertex
100
AcDb2dVertex
 10
153.582674
 20
131.115643
 30
0.0
  0
VERTEX
  5
531
330
52B
100
AcDbEntity
  8
001
370
    50
100
AcDbVertex
100
AcDb2dVertex
 10
153.47057
 20
131.288504
 30
0.0
  0
VERTEX
  5
532
330
52B
100
AcDbEntity
  8
001
370
    50
100
AcDbVertex
100
AcDb2dVertex
 10
153.340924
 20
131.456493
 30
0.0
  0
VERTEX
  5
533
330
52B
100
AcDbEntity
  8
001
370
    50
100
AcDbVertex
100
AcDb2dVertex
 10
153.196463
 20
131.611194
 30
0.0
  0
VERTEX
  5
534
330
52B
100
AcDbEntity
  8
001
370
    50
100
AcDbVertex
100
AcDb2dVertex
 10
153.073118
 20
131.721816
 30
0.0
  0
VERTEX
  5
535
330
52B
100
AcDbEntity
  8
001
370
    50
100
AcDbVertex
100
AcDb2dVertex
 10
152.944865
 20
131.827208
 30
0.0
  0
SEQEND
  5
52C
330
52B
100
AcDbEntity
  8
001
370
    50
  0
POLYLINE
  5
536
330
1F
100
AcDbEntity
  8
001
370
    50
100
AcDb2dPolyline
 66
     1
 10
0.0
 20
0.0
 30
0.0
  0
VERTEX
  5
538
330
536
100
AcDbEntity
  8
001
370
    50
100
AcDbVertex
100
AcDb2dVertex
 10
153.892567
 20
129.56901
 30
0.0
  0
VERTEX
  5
539
330
536
100
AcDbEntity
  8
001
370
    50
100
AcDbVertex
100
AcDb2dVertex
 10
153.906106
 20
129.747863
 30
0.0
  0
VERTEX
  5
53A
330
536
100
AcDbEntity
  8
001
370
    50
100
AcDbVertex
100
AcDb2dVertex
 10
153.912043
 20
129.926976
 30
0.0
  0
VERTEX
  5
53B
330
536
100
AcDbEntity
  8
001
370
    50
100
AcDbVertex
100
AcDb2dVertex
 10
153.903739
 20
130.109262
 30
0.0
  0
VERTEX
  5
53C
330
536
100
AcDbEntity
  8
001
370
    50
100
AcDbVertex
100
AcDb2dVertex
 10
153.879466
 20
130.290059
 30
0.0
  0
VERTEX
  5
53D
330
536
100
AcDbEntity
  8
001
370
    50
100
AcDbVertex
100
AcDb2dVertex
 10
153.832861
 20
130.496166
 30
0.0
  0
VERTEX
  5
53E
330
536
100
AcDbEntity
  8
001
370
    50
100
AcDbVertex
100
AcDb2dVertex
 10
153.775346
 20
130.699908
 30
0.0
  0
SEQEND
  5
537
330
536
100
AcDbEntity
  8
001
370
    50
  0
POLYLINE
  5
53F
330
1F
100
AcDbEntity
  8
001
370
    50
100
AcDb2dPolyline
 66
     1
 10
0.0
 20
0.0
 30
0.0
  0
VERTEX
  5
541
330
53F
100
AcDbEntity
  8
001
370
    50
100
AcDbVertex
100
AcDb2dVertex
 10
152.956028
 20
128.550111
 30
0.0
  0
VERTEX
  5
542
330
53F
100
AcDbEntity
  8
001
370
    50
100
AcDbVertex
100
AcDb2dVertex
 10
153.185453
 20
128.739611
 30
0.0
  0
VERTEX
  5
543
330
53F
100
AcDbEntity
  8
001
370
    50
100
AcDbVertex
100
AcDb2dVertex
 10
153.495868
 20
129.041918
 30
0.0
  0
VERTEX
  5
544
330
53F
100
AcDbEntity
  8
001
370
    50
100
AcDbVertex
100
AcDb2dVertex
 10
153.742387
 20
129.346166
 30
0.0
  0
VERTEX
  5
545
330
53F
100
AcDbEntity
  8
001
370
    50
100
AcDbVertex
100
AcDb2dVertex
 10
153.892567
 20
129.56901
 30
0.0
  0
SEQEND
  5
540
330
53F
100
AcDbEntity
  8
001
370
    50
  0
POLYLINE
  5
546
330
1F
100
AcDbEntity
  8
001
370
    50
100
AcDb2dPolyline
 66
     1
 10
0.0
 20
0.0
 30
0.0
  0
VERTEX
  5
548
330
546
100
AcDbEntity
  8
001
370
    50
100
AcDbVertex
100
AcDb2dVertex
 10
152.956028
 20
128.550111
 30
0.0
  0
VERTEX
  5
549
330
546
100
AcDbEntity
  8
001
370
    50
100
AcDbVertex
100
AcDb2dVertex
 10
153.039401
 20
128.715663
 30
0.0
  0
VERTEX
  5
54A
330
546
100
AcDbEntity
  8
001
370
    50
100
AcDbVertex
100
AcDb2dVertex
 10
153.139953
 20
128.950019
 30
0.0
  0
VERTEX
  5
54B
330
546
100
AcDbEntity
  8
001
370
    50
100
AcDbVertex
100
AcDb2dVertex
 10
153.209811
 20
129.169
 30
0.0
  0
VERTEX
  5
54C
330
546
100
AcDbEntity
  8
001
370
    50
100
AcDbVertex
100
AcDb2dVertex
 10
153.251752
 20
129.376538
 30
0.0
  0
VERTEX
  5
54D
330
546
100
AcDbEntity
  8
001
370
    50
100
AcDbVertex
100
AcDb2dVertex
 10
153.278171
 20
129.593479
 30
0.0
  0
VERTEX
  5
54E
330
546
100
AcDbEntity
  8
001
370
    50
100
AcDbVertex
100
AcDb2dVertex
 10
153.287942
 20
129.816374
 30
0.0
  0
VERTEX
  5
54F
330
546
100
AcDbEntity
  8
001
370
    50
100
AcDbVertex
100
AcDb2dVertex
 10
153.277573
 20
130.037564
 30
0.0
  0
VERTEX
  5
550
330
546
100
AcDbEntity
  8
001
370
    50
100
AcDbVertex
100
AcDb2dVertex
 10
153.247395
 20
130.255817
 30
0.0
  0
VERTEX
  5
551
330
546
100
AcDbEntity
  8
001
370
    50
100
AcDbVertex
100
AcDb2dVertex
 10
153.198558
 20
130.47087
 30
0.0
  0
VERTEX
  5
552
330
546
100
AcDbEntity
  8
001
370
    50
100
AcDbVertex
100
AcDb2dVertex
 10
153.131373
 20
130.681172
 30
0.0
  0
VERTEX
  5
553
330
546
100
AcDbEntity
  8
001
370
    50
100
AcDbVertex
100
AcDb2dVertex
 10
153.046216
 20
130.884323
 30
0.0
  0
VERTEX
  5
554
330
546
100
AcDbEntity
  8
001
370
    50
100
AcDbVertex
100
AcDb2dVertex
 10
152.943494
 20
131.07918
 30
0.0
  0
VERTEX
  5
555
330
546
100
AcDbEntity
  8
001
370
    50
100
AcDbVertex
100
AcDb2dVertex
 10
152.824246
 20
131.263906
 30
0.0
  0
VERTEX
  5
556
330
546
100
AcDbEntity
  8
001
370
    50
100
AcDbVertex
100
AcDb2dVertex
 10
152.689614
 20
131.437435
 30
0.0
  0
VERTEX
  5
557
330
546
100
AcDbEntity
  8
001
370
    50
100
AcDbVertex
100
AcDb2dVertex
 10
152.541088
 20
131.597899
 30
0.0
  0
VERTEX
  5
558
330
546
100
AcDbEntity
  8
001
370
    50
100
AcDbVertex
100
AcDb2dVertex
 10
152.377645
 20
131.744771
 30
0.0
  0
VERTEX
  5
559
330
546
100
AcDbEntity
  8
001
370
    50
100
AcDbVertex
100
AcDb2dVertex
 10
152.200494
 20
131.876579
 30
0.0
  0
VERTEX
  5
55A
330
546
100
AcDbEntity
  8
001
370
    50
100
AcDbVertex
100
AcDb2dVertex
 10
152.017311
 20
131.991609
 30
0.0
  0
VERTEX
  5
55B
330
546
100
AcDbEntity
  8
001
370
    50
100
AcDbVertex
100
AcDb2dVertex
 10
151.831744
 20
132.088381
 30
0.0
  0
VERTEX
  5
55C
330
546
100
AcDbEntity
  8
001
370
    50
100
AcDbVertex
100
AcDb2dVertex
 10
151.619844
 20
132.170255
 30
0.0
  0
VERTEX
  5
55D
330
546
100
AcDbEntity
  8
001
370
    50
100
AcDbVertex
100
AcDb2dVertex
 10
151.376922
 20
132.237452
 30
0.0
  0
VERTEX
  5
55E
330
546
100
AcDbEntity
  8
001
370
    50
100
AcDbVertex
100
AcDb2dVertex
 10
151.197633
 20
132.275141
 30
0.0
  0
SEQEND
  5
547
330
546
100
AcDbEntity
  8
001
370
    50
  0
POLYLINE
  5
55F
330
1F
100
AcDbEntity
  8
001
370
    50
100
AcDb2dPolyline
 66
     1
 10
0.0
 20
0.0
 30
0.0
  0
VERTEX
  5
561
330
55F
100
AcDbEntity
  8
001
370
    50
100
AcDbVertex
100
AcDb2dVertex
 10
153.892567
 20
129.56901
 30
0.0
  0
VERTEX
  5
562
330
55F
100
AcDbEntity
  8
001
370
    50
100
AcDbVertex
100
AcDb2dVertex
 10
154.027378
 20
129.418722
 30
0.0
  0
VERTEX
  5
563
330
55F
100
AcDbEntity
  8
001
370
    50
100
AcDbVertex
100
AcDb2dVertex
 10
154.224875
 20
129.19949
 30
0.0
  0
VERTEX
  5
564
330
55F
100
AcDbEntity
  8
001
370
    50
100
AcDbVertex
100
AcDb2dVertex
 10
154.421882
 20
128.982101
 30
0.0
  0
VERTEX
  5
565
330
55F
100
AcDbEntity
  8
001
370
    50
100
AcDbVertex
100
AcDb2dVertex
 10
154.556993
 20
128.833648
 30
0.0
  0
SEQEND
  5
560
330
55F
100
AcDbEntity
  8
001
370
    50
  0
POLYLINE
  5
566
330
1F
100
AcDbEntity
  8
001
370
    50
100
AcDb2dPolyline
 66
     1
 10
0.0
 20
0.0
 30
0.0
  0
VERTEX
  5
568
330
566
100
AcDbEntity
  8
001
370
    50
100
AcDbVertex
100
AcDb2dVertex
 10
154.556993
 20
128.833648
 30
0.0
  0
VERTEX
  5
569
330
566
100
AcDbEntity
  8
001
370
    50
100
AcDbVertex
100
AcDb2dVertex
 10
154.728526
 20
128.637774
 30
0.0
  0
VERTEX
  5
56A
330
566
100
AcDbEntity
  8
001
370
    50
100
AcDbVertex
100
AcDb2dVertex
 10
154.979985
 20
128.352163
 30
0.0
  0
VERTEX
  5
56B
330
566
100
AcDbEntity
  8
001
370
    50
100
AcDbVertex
100
AcDb2dVertex
 10
155.230775
 20
128.069425
 30
0.0
  0
VERTEX
  5
56C
330
566
100
AcDbEntity
  8
001
370
    50
100
AcDbVertex
100
AcDb2dVertex
 10
155.402884
 20
127.87643
 30
0.0
  0
SEQEND
  5
567
330
566
100
AcDbEntity
  8
001
370
    50
  0
LINE
  5
56D
330
1F
100
AcDbEntity
  8
001
370
    50
100
AcDbLine
 10
159.641787
 20
122.773228
 30
0.0
 11
159.620964
 21
122.799481
 31
0.0
  0
POLYLINE
  5
56E
330
1F
100
AcDbEntity
  8
001
370
    50
100
AcDb2dPolyline
 66
     1
 10
0.0
 20
0.0
 30
0.0
  0
VERTEX
  5
570
330
56E
100
AcDbEntity
  8
001
370
    50
100
AcDbVertex
100
AcDb2dVertex
 10
160.095028
 20
121.031963
 30
0.0
  0
VERTEX
  5
571
330
56E
100
AcDbEntity
  8
001
370
    50
100
AcDbVertex
100
AcDb2dVertex
 10
159.98676
 20
120.104122
 30
0.0
  0
VERTEX
  5
572
330
56E
100
AcDbEntity
  8
001
370
    50
100
AcDbVertex
100
AcDb2dVertex
 10
159.833066
 20
118.747531
 30
0.0
  0
VERTEX
  5
573
330
56E
100
AcDbEntity
  8
001
370
    50
100
AcDbVertex
100
AcDb2dVertex
 10
159.684448
 20
117.378913
 30
0.0
  0
VERTEX
  5
574
330
56E
100
AcDbEntity
  8
001
370
    50
100
AcDbVertex
100
AcDb2dVertex
 10
159.585878
 20
116.442152
 30
0.0
  0
SEQEND
  5
56F
330
56E
100
AcDbEntity
  8
001
370
    50
  0
POLYLINE
  5
575
330
1F
100
AcDbEntity
  8
001
370
    50
100
AcDb2dPolyline
 66
     1
 10
0.0
 20
0.0
 30
0.0
  0
VERTEX
  5
577
330
575
100
AcDbEntity
  8
001
370
    50
100
AcDbVertex
100
AcDb2dVertex
 10
160.095028
 20
121.031963
 30
0.0
  0
VERTEX
  5
578
330
575
100
AcDbEntity
  8
001
370
    50
100
AcDbVertex
100
AcDb2dVertex
 10
160.100195
 20
121.08141
 30
0.0
  0
VERTEX
  5
579
330
575
100
AcDbEntity
  8
001
370
    50
100
AcDbVertex
100
AcDb2dVertex
 10
160.104823
 20
121.13091
 30
0.0
  0
VERTEX
  5
57A
330
575
100
AcDbEntity
  8
001
370
    50
100
AcDbVertex
100
AcDb2dVertex
 10
160.113058
 20
121.338419
 30
0.0
  0
VERTEX
  5
57B
330
575
100
AcDbEntity
  8
001
370
    50
100
AcDbVertex
100
AcDb2dVertex
 10
160.10363
 20
121.546086
 30
0.0
  0
VERTEX
  5
57C
330
575
100
AcDbEntity
  8
001
370
    50
100
AcDbVertex
100
AcDb2dVertex
 10
160.077797
 20
121.749723
 30
0.0
  0
VERTEX
  5
57D
330
575
100
AcDbEntity
  8
001
370
    50
100
AcDbVertex
100
AcDb2dVertex
 10
160.035155
 20
121.950377
 30
0.0
  0
VERTEX
  5
57E
330
575
100
AcDbEntity
  8
001
370
    50
100
AcDbVertex
100
AcDb2dVertex
 10
159.973905
 20
122.150482
 30
0.0
  0
VERTEX
  5
57F
330
575
100
AcDbEntity
  8
001
370
    50
100
AcDbVertex
100
AcDb2dVertex
 10
159.895404
 20
122.344631
 30
0.0
  0
VERTEX
  5
580
330
575
100
AcDbEntity
  8
001
370
    50
100
AcDbVertex
100
AcDb2dVertex
 10
159.801344
 20
122.529624
 30
0.0
  0
VERTEX
  5
581
330
575
100
AcDbEntity
  8
001
370
    50
100
AcDbVertex
100
AcDb2dVertex
 10
159.69089
 20
122.705026
 30
0.0
  0
VERTEX
  5
582
330
575
100
AcDbEntity
  8
001
370
    50
100
AcDbVertex
100
AcDb2dVertex
 10
159.666511
 20
122.739251
 30
0.0
  0
VERTEX
  5
583
330
575
100
AcDbEntity
  8
001
370
    50
100
AcDbVertex
100
AcDb2dVertex
 10
159.641787
 20
122.773228
 30
0.0
  0
SEQEND
  5
576
330
575
100
AcDbEntity
  8
001
370
    50
  0
POLYLINE
  5
584
330
1F
100
AcDbEntity
  8
001
370
    50
100
AcDb2dPolyline
 66
     1
 10
0.0
 20
0.0
 30
0.0
  0
VERTEX
  5
586
330
584
100
AcDbEntity
  8
001
370
    50
100
AcDbVertex
100
AcDb2dVertex
 10
159.512716
 20
121.031963
 30
0.0
  0
VERTEX
  5
587
330
584
100
AcDbEntity
  8
001
370
    50
100
AcDbVertex
100
AcDb2dVertex
 10
159.503598
 20
121.195952
 30
0.0
  0
VERTEX
  5
588
330
584
100
AcDbEntity
  8
001
370
    50
100
AcDbVertex
100
AcDb2dVertex
 10
159.475121
 20
121.42086
 30
0.0
  0
VERTEX
  5
589
330
584
100
AcDbEntity
  8
001
370
    50
100
AcDbVertex
100
AcDb2dVertex
 10
159.426949
 20
121.620434
 30
0.0
  0
VERTEX
  5
58A
330
584
100
AcDbEntity
  8
001
370
    50
100
AcDbVertex
100
AcDb2dVertex
 10
159.363773
 20
121.79491
 30
0.0
  0
VERTEX
  5
58B
330
584
100
AcDbEntity
  8
001
370
    50
100
AcDbVertex
100
AcDb2dVertex
 10
159.287519
 20
121.963657
 30
0.0
  0
VERTEX
  5
58C
330
584
100
AcDbEntity
  8
001
370
    50
100
AcDbVertex
100
AcDb2dVertex
 10
159.182921
 20
122.139836
 30
0.0
  0
VERTEX
  5
58D
330
584
100
AcDbEntity
  8
001
370
    50
100
AcDbVertex
100
AcDb2dVertex
 10
159.046962
 20
122.319584
 30
0.0
  0
VERTEX
  5
58E
330
584
100
AcDbEntity
  8
001
370
    50
100
AcDbVertex
100
AcDb2dVertex
 10
158.93947
 20
122.442469
 30
0.0
  0
SEQEND
  5
585
330
584
100
AcDbEntity
  8
001
370
    50
  0
LINE
  5
58F
330
1F
100
AcDbEntity
  8
001
370
    50
100
AcDbLine
 10
159.512716
 20
116.473543
 30
0.0
 11
159.512716
 21
121.031963
 31
0.0
  0
POLYLINE
  5
590
330
1F
100
AcDbEntity
  8
001
370
    50
100
AcDb2dPolyline
 66
     1
 10
0.0
 20
0.0
 30
0.0
  0
VERTEX
  5
592
330
590
100
AcDbEntity
  8
001
370
    50
100
AcDbVertex
100
AcDb2dVertex
 10
143.23483
 20
121.843182
 30
0.0
  0
VERTEX
  5
593
330
590
100
AcDbEntity
  8
001
370
    50
100
AcDbVertex
100
AcDb2dVertex
 10
143.428394
 20
122.032473
 30
0.0
  0
VERTEX
  5
594
330
590
100
AcDbEntity
  8
001
370
    50
100
AcDbVertex
100
AcDb2dVertex
 10
143.710574
 20
122.309864
 30
0.0
  0
VERTEX
  5
595
330
590
100
AcDbEntity
  8
001
370
    50
100
AcDbVertex
100
AcDb2dVertex
 10
143.823819
 20
122.421764
 30
0.0
  0
VERTEX
  5
596
330
590
100
AcDbEntity
  8
001
370
    50
100
AcDbVertex
100
AcDb2dVertex
 10
143.93201
 20
122.528957
 30
0.0
  0
SEQEND
  5
591
330
590
100
AcDbEntity
  8
001
370
    50
  0
POLYLINE
  5
597
330
1F
100
AcDbEntity
  8
001
370
    50
100
AcDb2dPolyline
 66
     1
 10
0.0
 20
0.0
 30
0.0
  0
VERTEX
  5
599
330
597
100
AcDbEntity
  8
001
370
    50
100
AcDbVertex
100
AcDb2dVertex
 10
145.466714
 20
124.0872
 30
0.0
  0
VERTEX
  5
59A
330
597
100
AcDbEntity
  8
001
370
    50
100
AcDbVertex
100
AcDb2dVertex
 10
145.469238
 20
124.237773
 30
0.0
  0
VERTEX
  5
59B
330
597
100
AcDbEntity
  8
001
370
    50
100
AcDbVertex
100
AcDb2dVertex
 10
145.472503
 20
124.433109
 30
0.0
  0
VERTEX
  5
59C
330
597
100
AcDbEntity
  8
001
370
    50
100
AcDbVertex
100
AcDb2dVertex
 10
145.476251
 20
124.658143
 30
0.0
  0
VERTEX
  5
59D
330
597
100
AcDbEntity
  8
001
370
    50
100
AcDbVertex
100
AcDb2dVertex
 10
145.478808
 20
124.812115
 30
0.0
  0
SEQEND
  5
598
330
597
100
AcDbEntity
  8
001
370
    50
  0
POLYLINE
  5
59E
330
1F
100
AcDbEntity
  8
001
370
    50
100
AcDb2dPolyline
 66
     1
 10
0.0
 20
0.0
 30
0.0
  0
VERTEX
  5
5A0
330
59E
100
AcDbEntity
  8
001
370
    50
100
AcDbVertex
100
AcDb2dVertex
 10
146.29383
 20
126.760019
 30
0.0
  0
VERTEX
  5
5A1
330
59E
100
AcDbEntity
  8
001
370
    50
100
AcDbVertex
100
AcDb2dVertex
 10
146.421748
 20
126.889453
 30
0.0
  0
VERTEX
  5
5A2
330
59E
100
AcDbEntity
  8
001
370
    50
100
AcDbVertex
100
AcDb2dVertex
 10
146.609678
 20
127.080209
 30
0.0
  0
SEQEND
  5
59F
330
59E
100
AcDbEntity
  8
001
370
    50
  0
LINE
  5
5A3
330
1F
100
AcDbEntity
  8
001
370
    50
100
AcDbLine
 10
146.598619
 20
126.449461
 30
0.0
 11
146.331853
 21
126.179994
 31
0.0
  0
POLYLINE
  5
5A4
330
1F
100
AcDbEntity
  8
001
370
    50
100
AcDb2dPolyline
 66
     1
 10
0.0
 20
0.0
 30
0.0
  0
VERTEX
  5
5A6
330
5A4
100
AcDbEntity
  8
001
370
    50
100
AcDbVertex
100
AcDb2dVertex
 10
148.95224
 20
129.490464
 30
0.0
  0
VERTEX
  5
5A7
330
5A4
100
AcDbEntity
  8
001
370
    50
100
AcDbVertex
100
AcDb2dVertex
 10
148.946145
 20
129.47486
 30
0.0
  0
VERTEX
  5
5A8
330
5A4
100
AcDbEntity
  8
001
370
    50
100
AcDbVertex
100
AcDb2dVertex
 10
148.939159
 20
129.45677
 30
0.0
  0
SEQEND
  5
5A5
330
5A4
100
AcDbEntity
  8
001
370
    50
  0
POLYLINE
  5
5A9
330
1F
100
AcDbEntity
  8
001
370
    50
100
AcDb2dPolyline
 66
     1
 10
0.0
 20
0.0
 30
0.0
  0
VERTEX
  5
5AB
330
5A9
100
AcDbEntity
  8
001
370
    50
100
AcDbVertex
100
AcDb2dVertex
 10
151.197633
 20
132.275141
 30
0.0
  0
VERTEX
  5
5AC
330
5A9
100
AcDbEntity
  8
001
370
    50
100
AcDbVertex
100
AcDb2dVertex
 10
151.181781
 20
132.277538
 30
0.0
  0
VERTEX
  5
5AD
330
5A9
100
AcDbEntity
  8
001
370
    50
100
AcDbVertex
100
AcDb2dVertex
 10
151.158589
 20
132.28087
 30
0.0
  0
VERTEX
  5
5AE
330
5A9
100
AcDbEntity
  8
001
370
    50
100
AcDbVertex
100
AcDb2dVertex
 10
151.157974
 20
132.280955
 30
0.0
  0
VERTEX
  5
5AF
330
5A9
100
AcDbEntity
  8
001
370
    50
100
AcDbVertex
100
AcDb2dVertex
 10
151.15736
 20
132.28104
 30
0.0
  0
SEQEND
  5
5AA
330
5A9
100
AcDbEntity
  8
001
370
    50
  0
POLYLINE
  5
5B0
330
1F
100
AcDbEntity
  8
001
370
    50
100
AcDb2dPolyline
 66
     1
 10
0.0
 20
0.0
 30
0.0
  0
VERTEX
  5
5B2
330
5B0
100
AcDbEntity
  8
001
370
    50
100
AcDbVertex
100
AcDb2dVertex
 10
158.936438
 20
123.65727
 30
0.0
  0
VERTEX
  5
5B3
330
5B0
100
AcDbEntity
  8
001
370
    50
100
AcDbVertex
100
AcDb2dVertex
 10
159.064443
 20
123.495697
 30
0.0
  0
VERTEX
  5
5B4
330
5B0
100
AcDbEntity
  8
001
370
    50
100
AcDbVertex
100
AcDb2dVertex
 10
159.205927
 20
123.31771
 30
0.0
  0
VERTEX
  5
5B5
330
5B0
100
AcDbEntity
  8
001
370
    50
100
AcDbVertex
100
AcDb2dVertex
 10
159.452056
 20
123.009772
 30
0.0
  0
VERTEX
  5
5B6
330
5B0
100
AcDbEntity
  8
001
370
    50
100
AcDbVertex
100
AcDb2dVertex
 10
159.620964
 20
122.799481
 30
0.0
  0
SEQEND
  5
5B1
330
5B0
100
AcDbEntity
  8
001
370
    50
  0
POLYLINE
  5
5B7
330
1F
100
AcDbEntity
  8
001
370
    50
100
AcDb2dPolyline
 66
     1
 10
0.0
 20
0.0
 30
0.0
  0
VERTEX
  5
5B9
330
5B7
100
AcDbEntity
  8
001
370
    50
100
AcDbVertex
100
AcDb2dVertex
 10
155.402884
 20
127.87643
 30
0.0
  0
VERTEX
  5
5BA
330
5B7
100
AcDbEntity
  8
001
370
    50
100
AcDbVertex
100
AcDb2dVertex
 10
155.560434
 20
127.692887
 30
0.0
  0
VERTEX
  5
5BB
330
5B7
100
AcDbEntity
  8
001
370
    50
100
AcDbVertex
100
AcDb2dVertex
 10
155.792504
 20
127.423824
 30
0.0
  0
SEQEND
  5
5B8
330
5B7
100
AcDbEntity
  8
001
370
    50
  0
LINE
  5
5BC
330
1F
100
AcDbEntity
  8
001
370
    50
100
AcDbLine
 10
158.93947
 20
122.442469
 30
0.0
 11
158.415486
 21
122.977329
 31
0.0
  0
LINE
  5
5BD
330
1F
100
AcDbEntity
  8
001
370
    50
100
AcDbLine
 10
153.691325
 20
127.799552
 30
0.0
 11
152.956028
 21
128.550111
 31
0.0
  0
POLYLINE
  5
5BE
330
1F
100
AcDbEntity
  8
001
370
    50
100
AcDb2dPolyline
 66
     1
 10
0.0
 20
0.0
 30
0.0
  0
VERTEX
  5
5C0
330
5BE
100
AcDbEntity
  8
001
370
    50
100
AcDbVertex
100
AcDb2dVertex
 10
153.638898
 20
116.290412
 30
0.0
  0
VERTEX
  5
5C1
330
5BE
100
AcDbEntity
  8
001
370
    50
100
AcDbVertex
100
AcDb2dVertex
 10
154.228745
 20
116.30617
 30
0.0
  0
VERTEX
  5
5C2
330
5BE
100
AcDbEntity
  8
001
370
    50
100
AcDbVertex
100
AcDb2dVertex
 10
154.825969
 20
116.322764
 30
0.0
  0
VERTEX
  5
5C3
330
5BE
100
AcDbEntity
  8
001
370
    50
100
AcDbVertex
100
AcDb2dVertex
 10
157.608845
 20
116.408386
 30
0.0
  0
VERTEX
  5
5C4
330
5BE
100
AcDbEntity
  8
001
370
    50
100
AcDbVertex
100
AcDb2dVertex
 10
159.512716
 20
116.473543
 30
0.0
  0
SEQEND
  5
5BF
330
5BE
100
AcDbEntity
  8
001
370
    50
  0
POLYLINE
  5
5C5
330
1F
100
AcDbEntity
  8
001
370
    50
100
AcDb2dPolyline
 66
     1
 10
0.0
 20
0.0
 30
0.0
  0
VERTEX
  5
5C7
330
5C5
100
AcDbEntity
  8
001
370
    50
100
AcDbVertex
100
AcDb2dVertex
 10
150.107449
 20
116.20682
 30
0.0
  0
VERTEX
  5
5C8
330
5C5
100
AcDbEntity
  8
001
370
    50
100
AcDbVertex
100
AcDb2dVertex
 10
150.47794
 20
116.214701
 30
0.0
  0
VERTEX
  5
5C9
330
5C5
100
AcDbEntity
  8
001
370
    50
100
AcDbVertex
100
AcDb2dVertex
 10
150.955521
 20
116.225238
 30
0.0
  0
SEQEND
  5
5C6
330
5C5
100
AcDbEntity
  8
001
370
    50
  0
POLYLINE
  5
5CA
330
1F
100
AcDbEntity
  8
001
370
    50
100
AcDb2dPolyline
 66
     1
 10
0.0
 20
0.0
 30
0.0
  0
VERTEX
  5
5CC
330
5CA
100
AcDbEntity
  8
001
370
    50
100
AcDbVertex
100
AcDb2dVertex
 10
184.931368
 20
116.069008
 30
0.0
  0
VERTEX
  5
5CD
330
5CA
100
AcDbEntity
  8
001
370
    50
100
AcDbVertex
100
AcDb2dVertex
 10
184.795764
 20
116.07666
 30
0.0
  0
VERTEX
  5
5CE
330
5CA
100
AcDbEntity
  8
001
370
    50
100
AcDbVertex
100
AcDb2dVertex
 10
184.660573
 20
116.088156
 30
0.0
  0
VERTEX
  5
5CF
330
5CA
100
AcDbEntity
  8
001
370
    50
100
AcDbVertex
100
AcDb2dVertex
 10
184.493232
 20
116.111608
 30
0.0
  0
VERTEX
  5
5D0
330
5CA
100
AcDbEntity
  8
001
370
    50
100
AcDbVertex
100
AcDb2dVertex
 10
184.326835
 20
116.1421
 30
0.0
  0
VERTEX
  5
5D1
330
5CA
100
AcDbEntity
  8
001
370
    50
100
AcDbVertex
100
AcDb2dVertex
 10
184.125148
 20
116.18305
 30
0.0
  0
VERTEX
  5
5D2
330
5CA
100
AcDbEntity
  8
001
370
    50
100
AcDbVertex
100
AcDb2dVertex
 10
183.92415
 20
116.226798
 30
0.0
  0
VERTEX
  5
5D3
330
5CA
100
AcDbEntity
  8
001
370
    50
100
AcDbVertex
100
AcDb2dVertex
 10
183.690167
 20
116.280776
 30
0.0
  0
VERTEX
  5
5D4
330
5CA
100
AcDbEntity
  8
001
370
    50
100
AcDbVertex
100
AcDb2dVertex
 10
183.456637
 20
116.336834
 30
0.0
  0
VERTEX
  5
5D5
330
5CA
100
AcDbEntity
  8
001
370
    50
100
AcDbVertex
100
AcDb2dVertex
 10
183.192451
 20
116.40153
 30
0.0
  0
VERTEX
  5
5D6
330
5CA
100
AcDbEntity
  8
001
370
    50
100
AcDbVertex
100
AcDb2dVertex
 10
182.928416
 20
116.466789
 30
0.0
  0
VERTEX
  5
5D7
330
5CA
100
AcDbEntity
  8
001
370
    50
100
AcDbVertex
100
AcDb2dVertex
 10
182.558494
 20
116.558168
 30
0.0
  0
VERTEX
  5
5D8
330
5CA
100
AcDbEntity
  8
001
370
    50
100
AcDbVertex
100
AcDb2dVertex
 10
182.188339
 20
116.648623
 30
0.0
  0
VERTEX
  5
5D9
330
5CA
100
AcDbEntity
  8
001
370
    50
100
AcDbVertex
100
AcDb2dVertex
 10
181.777179
 20
116.746938
 30
0.0
  0
VERTEX
  5
5DA
330
5CA
100
AcDbEntity
  8
001
370
    50
100
AcDbVertex
100
AcDb2dVertex
 10
181.365369
 20
116.842495
 30
0.0
  0
VERTEX
  5
5DB
330
5CA
100
AcDbEntity
  8
001
370
    50
100
AcDbVertex
100
AcDb2dVertex
 10
180.920271
 20
116.941879
 30
0.0
  0
VERTEX
  5
5DC
330
5CA
100
AcDbEntity
  8
001
370
    50
100
AcDbVertex
100
AcDb2dVertex
 10
180.474203
 20
117.036807
 30
0.0
  0
VERTEX
  5
5DD
330
5CA
100
AcDbEntity
  8
001
370
    50
100
AcDbVertex
100
AcDb2dVertex
 10
180.092336
 20
117.113951
 30
0.0
  0
VERTEX
  5
5DE
330
5CA
100
AcDbEntity
  8
001
370
    50
100
AcDbVertex
100
AcDb2dVertex
 10
179.709725
 20
117.187324
 30
0.0
  0
VERTEX
  5
5DF
330
5CA
100
AcDbEntity
  8
001
370
    50
100
AcDbVertex
100
AcDb2dVertex
 10
179.309808
 20
117.259776
 30
0.0
  0
VERTEX
  5
5E0
330
5CA
100
AcDbEntity
  8
001
370
    50
100
AcDbVertex
100
AcDb2dVertex
 10
178.909139
 20
117.327953
 30
0.0
  0
VERTEX
  5
5E1
330
5CA
100
AcDbEntity
  8
001
370
    50
100
AcDbVertex
100
AcDb2dVertex
 10
178.494855
 20
117.393723
 30
0.0
  0
VERTEX
  5
5E2
330
5CA
100
AcDbEntity
  8
001
370
    50
100
AcDbVertex
100
AcDb2dVertex
 10
178.079834
 20
117.45467
 30
0.0
  0
VERTEX
  5
5E3
330
5CA
100
AcDbEntity
  8
001
370
    50
100
AcDbVertex
100
AcDb2dVertex
 10
177.654868
 20
117.5118
 30
0.0
  0
VERTEX
  5
5E4
330
5CA
100
AcDbEntity
  8
001
370
    50
100
AcDbVertex
100
AcDb2dVertex
 10
177.229202
 20
117.56345
 30
0.0
  0
VERTEX
  5
5E5
330
5CA
100
AcDbEntity
  8
001
370
    50
100
AcDbVertex
100
AcDb2dVertex
 10
176.743631
 20
117.615338
 30
0.0
  0
VERTEX
  5
5E6
330
5CA
100
AcDbEntity
  8
001
370
    50
100
AcDbVertex
100
AcDb2dVertex
 10
176.257327
 20
117.659877
 30
0.0
  0
VERTEX
  5
5E7
330
5CA
100
AcDbEntity
  8
001
370
    50
100
AcDbVertex
100
AcDb2dVertex
 10
175.761621
 20
117.697768
 30
0.0
  0
VERTEX
  5
5E8
330
5CA
100
AcDbEntity
  8
001
370
    50
100
AcDbVertex
100
AcDb2dVertex
 10
175.265401
 20
117.728173
 30
0.0
  0
VERTEX
  5
5E9
330
5CA
100
AcDbEntity
  8
001
370
    50
100
AcDbVertex
100
AcDb2dVertex
 10
174.764265
 20
117.751261
 30
0.0
  0
VERTEX
  5
5EA
330
5CA
100
AcDbEntity
  8
001
370
    50
100
AcDbVertex
100
AcDb2dVertex
 10
174.262832
 20
117.766628
 30
0.0
  0
VERTEX
  5
5EB
330
5CA
100
AcDbEntity
  8
001
370
    50
100
AcDbVertex
100
AcDb2dVertex
 10
173.760956
 20
117.774136
 30
0.0
  0
VERTEX
  5
5EC
330
5CA
100
AcDbEntity
  8
001
370
    50
100
AcDbVertex
100
AcDb2dVertex
 10
173.259026
 20
117.773531
 30
0.0
  0
VERTEX
  5
5ED
330
5CA
100
AcDbEntity
  8
001
370
    50
100
AcDbVertex
100
AcDb2dVertex
 10
172.726238
 20
117.763827
 30
0.0
  0
VERTEX
  5
5EE
330
5CA
100
AcDbEntity
  8
001
370
    50
100
AcDbVertex
100
AcDb2dVertex
 10
172.193686
 20
117.745056
 30
0.0
  0
VERTEX
  5
5EF
330
5CA
100
AcDbEntity
  8
001
370
    50
100
AcDbVertex
100
AcDb2dVertex
 10
171.663659
 20
117.717693
 30
0.0
  0
VERTEX
  5
5F0
330
5CA
100
AcDbEntity
  8
001
370
    50
100
AcDbVertex
100
AcDb2dVertex
 10
171.134139
 20
117.681889
 30
0.0
  0
VERTEX
  5
5F1
330
5CA
100
AcDbEntity
  8
001
370
    50
100
AcDbVertex
100
AcDb2dVertex
 10
170.612268
 20
117.638477
 30
0.0
  0
VERTEX
  5
5F2
330
5CA
100
AcDbEntity
  8
001
370
    50
100
AcDbVertex
100
AcDb2dVertex
 10
170.091093
 20
117.587297
 30
0.0
  0
VERTEX
  5
5F3
330
5CA
100
AcDbEntity
  8
001
370
    50
100
AcDbVertex
100
AcDb2dVertex
 10
169.582683
 20
117.529888
 30
0.0
  0
VERTEX
  5
5F4
330
5CA
100
AcDbEntity
  8
001
370
    50
100
AcDbVertex
100
AcDb2dVertex
 10
169.075252
 20
117.464549
 30
0.0
  0
VERTEX
  5
5F5
330
5CA
100
AcDbEntity
  8
001
370
    50
100
AcDbVertex
100
AcDb2dVertex
 10
168.776899
 20
117.422319
 30
0.0
  0
VERTEX
  5
5F6
330
5CA
100
AcDbEntity
  8
001
370
    50
100
AcDbVertex
100
AcDb2dVertex
 10
168.478757
 20
117.378577
 30
0.0
  0
SEQEND
  5
5CB
330
5CA
100
AcDbEntity
  8
001
370
    50
  0
LINE
  5
5F7
330
1F
100
AcDbEntity
  8
001
370
    50
100
AcDbLine
 10
184.92978
 20
116.069008
 30
0.0
 11
185.413658
 21
116.069008
 31
0.0
  0
POLYLINE
  5
5F8
330
1F
100
AcDbEntity
  8
001
370
    50
100
AcDb2dPolyline
 66
     1
 10
0.0
 20
0.0
 30
0.0
  0
VERTEX
  5
5FA
330
5F8
100
AcDbEntity
  8
001
370
    50
100
AcDbVertex
100
AcDb2dVertex
 10
166.660757
 20
117.141543
 30
0.0
  0
VERTEX
  5
5FB
330
5F8
100
AcDbEntity
  8
001
370
    50
100
AcDbVertex
100
AcDb2dVertex
 10
166.544852
 20
117.128551
 30
0.0
  0
VERTEX
  5
5FC
330
5F8
100
AcDbEntity
  8
001
370
    50
100
AcDbVertex
100
AcDb2dVertex
 10
166.428974
 20
117.115331
 30
0.0
  0
VERTEX
  5
5FD
330
5F8
100
AcDbEntity
  8
001
370
    50
100
AcDbVertex
100
AcDb2dVertex
 10
166.09025
 20
117.074471
 30
0.0
  0
VERTEX
  5
5FE
330
5F8
100
AcDbEntity
  8
001
370
    50
100
AcDbVertex
100
AcDb2dVertex
 10
165.751757
 20
117.031657
 30
0.0
  0
SEQEND
  5
5F9
330
5F8
100
AcDbEntity
  8
001
370
    50
  0
POLYLINE
  5
5FF
330
1F
100
AcDbEntity
  8
001
370
    50
100
AcDb2dPolyline
 66
     1
 10
0.0
 20
0.0
 30
0.0
  0
VERTEX
  5
601
330
5FF
100
AcDbEntity
  8
001
370
    50
100
AcDbVertex
100
AcDb2dVertex
 10
167.569757
 20
117.257195
 30
0.0
  0
VERTEX
  5
602
330
5FF
100
AcDbEntity
  8
001
370
    50
100
AcDbVertex
100
AcDb2dVertex
 10
167.45385
 20
117.243538
 30
0.0
  0
VERTEX
  5
603
330
5FF
100
AcDbEntity
  8
001
370
    50
100
AcDbVertex
100
AcDb2dVertex
 10
167.337974
 20
117.229637
 30
0.0
  0
VERTEX
  5
604
330
5FF
100
AcDbEntity
  8
001
370
    50
100
AcDbVertex
100
AcDb2dVertex
 10
166.999236
 20
117.186634
 30
0.0
  0
VERTEX
  5
605
330
5FF
100
AcDbEntity
  8
001
370
    50
100
AcDbVertex
100
AcDb2dVertex
 10
166.660757
 20
117.141543
 30
0.0
  0
SEQEND
  5
600
330
5FF
100
AcDbEntity
  8
001
370
    50
  0
POLYLINE
  5
606
330
1F
100
AcDbEntity
  8
001
370
    50
100
AcDb2dPolyline
 66
     1
 10
0.0
 20
0.0
 30
0.0
  0
VERTEX
  5
608
330
606
100
AcDbEntity
  8
001
370
    50
100
AcDbVertex
100
AcDb2dVertex
 10
168.478757
 20
117.378577
 30
0.0
  0
VERTEX
  5
609
330
606
100
AcDbEntity
  8
001
370
    50
100
AcDbVertex
100
AcDb2dVertex
 10
168.362849
 20
117.364259
 30
0.0
  0
VERTEX
  5
60A
330
606
100
AcDbEntity
  8
001
370
    50
100
AcDbVertex
100
AcDb2dVertex
 10
168.246974
 20
117.349683
 30
0.0
  0
VERTEX
  5
60B
330
606
100
AcDbEntity
  8
001
370
    50
100
AcDbVertex
100
AcDb2dVertex
 10
167.908221
 20
117.304548
 30
0.0
  0
VERTEX
  5
60C
330
606
100
AcDbEntity
  8
001
370
    50
100
AcDbVertex
100
AcDb2dVertex
 10
167.569757
 20
117.257195
 30
0.0
  0
SEQEND
  5
607
330
606
100
AcDbEntity
  8
001
370
    50
  0
POLYLINE
  5
60D
330
1F
100
AcDbEntity
  8
001
370
    50
100
AcDb2dPolyline
 66
     1
 10
0.0
 20
0.0
 30
0.0
  0
VERTEX
  5
60F
330
60D
100
AcDbEntity
  8
001
370
    50
100
AcDbVertex
100
AcDb2dVertex
 10
161.206757
 20
116.569818
 30
0.0
  0
VERTEX
  5
610
330
60D
100
AcDbEntity
  8
001
370
    50
100
AcDbVertex
100
AcDb2dVertex
 10
161.09086
 20
116.560891
 30
0.0
  0
VERTEX
  5
611
330
60D
100
AcDbEntity
  8
001
370
    50
100
AcDbVertex
100
AcDb2dVertex
 10
160.974974
 20
116.55183
 30
0.0
  0
VERTEX
  5
612
330
60D
100
AcDbEntity
  8
001
370
    50
100
AcDbVertex
100
AcDb2dVertex
 10
160.63632
 20
116.524068
 30
0.0
  0
VERTEX
  5
613
330
60D
100
AcDbEntity
  8
001
370
    50
100
AcDbVertex
100
AcDb2dVertex
 10
160.297757
 20
116.495166
 30
0.0
  0
SEQEND
  5
60E
330
60D
100
AcDbEntity
  8
001
370
    50
  0
POLYLINE
  5
614
330
1F
100
AcDbEntity
  8
001
370
    50
100
AcDb2dPolyline
 66
     1
 10
0.0
 20
0.0
 30
0.0
  0
VERTEX
  5
616
330
614
100
AcDbEntity
  8
001
370
    50
100
AcDbVertex
100
AcDb2dVertex
 10
162.115757
 20
116.650411
 30
0.0
  0
VERTEX
  5
617
330
614
100
AcDbEntity
  8
001
370
    50
100
AcDbVertex
100
AcDb2dVertex
 10
161.999859
 20
116.640797
 30
0.0
  0
VERTEX
  5
618
330
614
100
AcDbEntity
  8
001
370
    50
100
AcDbVertex
100
AcDb2dVertex
 10
161.883974
 20
116.631035
 30
0.0
  0
VERTEX
  5
619
330
614
100
AcDbEntity
  8
001
370
    50
100
AcDbVertex
100
AcDb2dVertex
 10
161.54531
 20
116.601065
 30
0.0
  0
VERTEX
  5
61A
330
614
100
AcDbEntity
  8
001
370
    50
100
AcDbVertex
100
AcDb2dVertex
 10
161.206757
 20
116.569818
 30
0.0
  0
SEQEND
  5
615
330
614
100
AcDbEntity
  8
001
370
    50
  0
POLYLINE
  5
61B
330
1F
100
AcDbEntity
  8
001
370
    50
100
AcDb2dPolyline
 66
     1
 10
0.0
 20
0.0
 30
0.0
  0
VERTEX
  5
61D
330
61B
100
AcDbEntity
  8
001
370
    50
100
AcDbVertex
100
AcDb2dVertex
 10
163.024757
 20
116.736918
 30
0.0
  0
VERTEX
  5
61E
330
61B
100
AcDbEntity
  8
001
370
    50
100
AcDbVertex
100
AcDb2dVertex
 10
162.908858
 20
116.726622
 30
0.0
  0
VERTEX
  5
61F
330
61B
100
AcDbEntity
  8
001
370
    50
100
AcDbVertex
100
AcDb2dVertex
 10
162.792974
 20
116.716161
 30
0.0
  0
VERTEX
  5
620
330
61B
100
AcDbEntity
  8
001
370
    50
100
AcDbVertex
100
AcDb2dVertex
 10
162.4543
 20
116.683993
 30
0.0
  0
VERTEX
  5
621
330
61B
100
AcDbEntity
  8
001
370
    50
100
AcDbVertex
100
AcDb2dVertex
 10
162.115757
 20
116.650411
 30
0.0
  0
SEQEND
  5
61C
330
61B
100
AcDbEntity
  8
001
370
    50
  0
POLYLINE
  5
622
330
1F
100
AcDbEntity
  8
001
370
    50
100
AcDb2dPolyline
 66
     1
 10
0.0
 20
0.0
 30
0.0
  0
VERTEX
  5
624
330
622
100
AcDbEntity
  8
001
370
    50
100
AcDbVertex
100
AcDb2dVertex
 10
163.933757
 20
116.829314
 30
0.0
  0
VERTEX
  5
625
330
622
100
AcDbEntity
  8
001
370
    50
100
AcDbVertex
100
AcDb2dVertex
 10
163.817857
 20
116.818339
 30
0.0
  0
VERTEX
  5
626
330
622
100
AcDbEntity
  8
001
370
    50
100
AcDbVertex
100
AcDb2dVertex
 10
163.701974
 20
116.807183
 30
0.0
  0
VERTEX
  5
627
330
622
100
AcDbEntity
  8
001
370
    50
100
AcDbVertex
100
AcDb2dVertex
 10
163.363288
 20
116.772826
 30
0.0
  0
VERTEX
  5
628
330
622
100
AcDbEntity
  8
001
370
    50
100
AcDbVertex
100
AcDb2dVertex
 10
163.024757
 20
116.736918
 30
0.0
  0
SEQEND
  5
623
330
622
100
AcDbEntity
  8
001
370
    50
  0
POLYLINE
  5
629
330
1F
100
AcDbEntity
  8
001
370
    50
100
AcDb2dPolyline
 66
     1
 10
0.0
 20
0.0
 30
0.0
  0
VERTEX
  5
62B
330
629
100
AcDbEntity
  8
001
370
    50
100
AcDbVertex
100
AcDb2dVertex
 10
164.842757
 20
116.92757
 30
0.0
  0
VERTEX
  5
62C
330
629
100
AcDbEntity
  8
001
370
    50
100
AcDbVertex
100
AcDb2dVertex
 10
164.726855
 20
116.915919
 30
0.0
  0
VERTEX
  5
62D
330
629
100
AcDbEntity
  8
001
370
    50
100
AcDbVertex
100
AcDb2dVertex
 10
164.610974
 20
116.904071
 30
0.0
  0
VERTEX
  5
62E
330
629
100
AcDbEntity
  8
001
370
    50
100
AcDbVertex
100
AcDb2dVertex
 10
164.272276
 20
116.867536
 30
0.0
  0
VERTEX
  5
62F
330
629
100
AcDbEntity
  8
001
370
    50
100
AcDbVertex
100
AcDb2dVertex
 10
163.933757
 20
116.829314
 30
0.0
  0
SEQEND
  5
62A
330
629
100
AcDbEntity
  8
001
370
    50
  0
POLYLINE
  5
630
330
1F
100
AcDbEntity
  8
001
370
    50
100
AcDb2dPolyline
 66
     1
 10
0.0
 20
0.0
 30
0.0
  0
VERTEX
  5
632
330
630
100
AcDbEntity
  8
001
370
    50
100
AcDbVertex
100
AcDb2dVertex
 10
165.751757
 20
117.031657
 30
0.0
  0
VERTEX
  5
633
330
630
100
AcDbEntity
  8
001
370
    50
100
AcDbVertex
100
AcDb2dVertex
 10
165.635854
 20
117.019334
 30
0.0
  0
VERTEX
  5
634
330
630
100
AcDbEntity
  8
001
370
    50
100
AcDbVertex
100
AcDb2dVertex
 10
165.519974
 20
117.006798
 30
0.0
  0
VERTEX
  5
635
330
630
100
AcDbEntity
  8
001
370
    50
100
AcDbVertex
100
AcDb2dVertex
 10
165.181263
 20
116.968094
 30
0.0
  0
VERTEX
  5
636
330
630
100
AcDbEntity
  8
001
370
    50
100
AcDbVertex
100
AcDb2dVertex
 10
164.842757
 20
116.92757
 30
0.0
  0
SEQEND
  5
631
330
630
100
AcDbEntity
  8
001
370
    50
  0
POLYLINE
  5
637
330
1F
100
AcDbEntity
  8
001
370
    50
100
AcDb2dPolyline
 66
     1
 10
0.0
 20
0.0
 30
0.0
  0
VERTEX
  5
639
330
637
100
AcDbEntity
  8
001
370
    50
100
AcDbVertex
100
AcDb2dVertex
 10
166.660757
 20
117.141543
 30
0.0
  0
VERTEX
  5
63A
330
637
100
AcDbEntity
  8
001
370
    50
100
AcDbVertex
100
AcDb2dVertex
 10
166.544852
 20
117.128551
 30
0.0
  0
VERTEX
  5
63B
330
637
100
AcDbEntity
  8
001
370
    50
100
AcDbVertex
100
AcDb2dVertex
 10
166.428974
 20
117.115331
 30
0.0
  0
VERTEX
  5
63C
330
637
100
AcDbEntity
  8
001
370
    50
100
AcDbVertex
100
AcDb2dVertex
 10
166.09025
 20
117.074471
 30
0.0
  0
VERTEX
  5
63D
330
637
100
AcDbEntity
  8
001
370
    50
100
AcDbVertex
100
AcDb2dVertex
 10
165.751757
 20
117.031657
 30
0.0
  0
SEQEND
  5
638
330
637
100
AcDbEntity
  8
001
370
    50
  0
POLYLINE
  5
63E
330
1F
100
AcDbEntity
  8
001
370
    50
100
AcDb2dPolyline
 66
     1
 10
0.0
 20
0.0
 30
0.0
  0
VERTEX
  5
640
330
63E
100
AcDbEntity
  8
001
370
    50
100
AcDbVertex
100
AcDb2dVertex
 10
167.569757
 20
117.257195
 30
0.0
  0
VERTEX
  5
641
330
63E
100
AcDbEntity
  8
001
370
    50
100
AcDbVertex
100
AcDb2dVertex
 10
167.45385
 20
117.243538
 30
0.0
  0
VERTEX
  5
642
330
63E
100
AcDbEntity
  8
001
370
    50
100
AcDbVertex
100
AcDb2dVertex
 10
167.337974
 20
117.229637
 30
0.0
  0
VERTEX
  5
643
330
63E
100
AcDbEntity
  8
001
370
    50
100
AcDbVertex
100
AcDb2dVertex
 10
166.999236
 20
117.186634
 30
0.0
  0
VERTEX
  5
644
330
63E
100
AcDbEntity
  8
001
370
    50
100
AcDbVertex
100
AcDb2dVertex
 10
166.660757
 20
117.141543
 30
0.0
  0
SEQEND
  5
63F
330
63E
100
AcDbEntity
  8
001
370
    50
  0
LINE
  5
645
330
1F
100
AcDbEntity
  8
001
  6
PHANTOM
370
     9
100
AcDbLine
 10
146.213659
 20
153.069008
 30
0.0
 11
146.213659
 21
161.069008
 31
0.0
  0
LINE
  5
646
330
1F
100
AcDbEntity
  8
001
  6
PHANTOM
370
     9
100
AcDbLine
 10
145.213659
 20
152.069008
 30
0.0
 11
124.713659
 21
152.069008
 31
0.0
  0
LINE
  5
647
330
1F
100
AcDbEntity
  8
001
  6
PHANTOM
370
     9
100
AcDbLine
 10
124.713659
 20
147.569008
 30
0.0
 11
124.713659
 21
152.069008
 31
0.0
  0
LINE
  5
648
330
1F
100
AcDbEntity
  8
001
  6
PHANTOM
370
     9
100
AcDbLine
 10
124.713659
 20
147.569008
 30
0.0
 11
124.213659
 21
147.069008
 31
0.0
  0
LINE
  5
649
330
1F
100
AcDbEntity
  8
001
  6
PHANTOM
370
     9
100
AcDbLine
 10
146.213659
 20
153.069008
 30
0.0
 11
145.213659
 21
152.069008
 31
0.0
  0
LINE
  5
64A
330
1F
100
AcDbEntity
  8
001
  6
PHANTOM
370
     9
100
AcDbLine
 10
124.213659
 20
147.069008
 30
0.0
 11
111.213659
 21
147.069008
 31
0.0
  0
LINE
  5
64B
330
1F
100
AcDbEntity
  8
001
  6
PHANTOM
370
     9
100
AcDbLine
 10
146.213659
 20
119.069008
 30
0.0
 11
146.213659
 21
111.069008
 31
0.0
  0
LINE
  5
64C
330
1F
100
AcDbEntity
  8
001
  6
PHANTOM
370
     9
100
AcDbLine
 10
145.213659
 20
120.069008
 30
0.0
 11
124.713659
 21
120.069008
 31
0.0
  0
LINE
  5
64D
330
1F
100
AcDbEntity
  8
001
  6
PHANTOM
370
     9
100
AcDbLine
 10
124.713659
 20
124.569008
 30
0.0
 11
124.713659
 21
120.069008
 31
0.0
  0
LINE
  5
64E
330
1F
100
AcDbEntity
  8
001
  6
PHANTOM
370
     9
100
AcDbLine
 10
124.713659
 20
124.569008
 30
0.0
 11
124.213659
 21
125.069008
 31
0.0
  0
LINE
  5
64F
330
1F
100
AcDbEntity
  8
001
  6
PHANTOM
370
     9
100
AcDbLine
 10
146.213659
 20
119.069008
 30
0.0
 11
145.213659
 21
120.069008
 31
0.0
  0
LINE
  5
650
330
1F
100
AcDbEntity
  8
001
  6
PHANTOM
370
     9
100
AcDbLine
 10
124.213659
 20
125.069008
 30
0.0
 11
111.213659
 21
125.069008
 31
0.0
  0
LINE
  5
651
330
1F
100
AcDbEntity
  8
001
370
    50
100
AcDbLine
 10
123.413658
 20
125.869008
 30
0.0
 11
124.713659
 21
124.569008
 31
0.0
  0
LINE
  5
652
330
1F
100
AcDbEntity
  8
001
370
    50
100
AcDbLine
 10
147.213659
 20
118.069008
 30
0.0
 11
149.149244
 21
118.069008
 31
0.0
  0
LINE
  5
653
330
1F
100
AcDbEntity
  8
001
370
    50
100
AcDbLine
 10
148.279596
 20
118.069008
 30
0.0
 11
150.107449
 21
116.20682
 31
0.0
  0
LINE
  5
654
330
1F
100
AcDbEntity
  8
001
370
    50
100
AcDbLine
 10
147.213659
 20
118.069008
 30
0.0
 11
143.984101
 21
121.298566
 31
0.0
  0
LINE
  5
655
330
1F
100
AcDbEntity
  8
001
370
    50
100
AcDbLine
 10
145.466714
 20
124.0872
 30
0.0
 11
143.93201
 21
122.528957
 31
0.0
  0
LINE
  5
656
330
1F
100
AcDbEntity
  8
001
370
    50
100
AcDbLine
 10
145.751627
 20
124.797686
 30
0.0
 11
145.741029
 21
124.193238
 31
0.0
  0
LINE
  5
657
330
1F
100
AcDbEntity
  8
001
370
    50
100
AcDbLine
 10
145.466714
 20
124.0872
 30
0.0
 11
145.566431
 21
124.016872
 31
0.0
  0
LINE
  5
658
330
1F
100
AcDbEntity
  8
001
370
    50
100
AcDbLine
 10
143.767183
 20
121.727389
 30
0.0
 11
143.207019
 21
121.161554
 31
0.0
  0
POLYLINE
  5
659
330
1F
100
AcDbEntity
  8
001
370
    50
100
AcDb2dPolyline
 66
     1
 10
0.0
 20
0.0
 30
0.0
  0
VERTEX
  5
65B
330
659
100
AcDbEntity
  8
001
370
    50
100
AcDbVertex
100
AcDb2dVertex
 10
143.207019
 20
121.161554
 30
0.0
  0
VERTEX
  5
65C
330
659
100
AcDbEntity
  8
001
370
    50
100
AcDbVertex
100
AcDb2dVertex
 10
143.57181
 20
121.16658
 30
0.0
  0
VERTEX
  5
65D
330
659
100
AcDbEntity
  8
001
370
    50
100
AcDbVertex
100
AcDb2dVertex
 10
144.108243
 20
121.174424
 30
0.0
  0
SEQEND
  5
65A
330
659
100
AcDbEntity
  8
001
370
    50
  0
ARC
  5
65E
330
1F
100
AcDbEntity
  8
001
370
    50
100
AcDbCircle
 10
152.26093
 20
115.979618
 30
0.0
 40
0.7606097685453501
100
AcDbArc
 50
223.23048
 51
316.4648
  0
LINE
  5
65F
330
1F
100
AcDbEntity
  8
001
  6
PHANTOM
370
     9
100
AcDbLine
 10
143.452832
 20
156.919008
 30
0.0
 11
152.26093
 21
156.919008
 31
0.0
  0
LINE
  5
660
330
1F
100
AcDbEntity
  8
001
  6
PHANTOM
370
     9
100
AcDbLine
 10
143.452832
 20
154.069008
 30
0.0
 11
149.149244
 21
154.069008
 31
0.0
  0
LINE
  5
661
330
1F
100
AcDbEntity
  8
001
  6
CENTER
370
     9
100
AcDbLine
 10
144.350123
 20
115.219008
 30
0.0
 11
152.26093
 21
115.219008
 31
0.0
  0
LINE
  5
662
330
1F
100
AcDbEntity
  8
001
370
     9
100
AcDbLine
 10
64.354027
 20
23.259803
 30
0.0
 11
53.036814
 21
23.259803
 31
0.0
  0
LINE
  5
663
330
1F
100
AcDbEntity
  8
001
370
    50
100
AcDbLine
 10
33.55332
 20
71.103445
 30
0.0
 11
83.55332
 21
71.103445
 31
0.0
  0
LINE
  5
664
330
1F
100
AcDbEntity
  8
001
370
    50
100
AcDbLine
 10
74.55332
 20
70.103445
 30
0.0
 11
74.55332
 21
49.603445
 31
0.0
  0
LINE
  5
665
330
1F
100
AcDbEntity
  8
001
370
    50
100
AcDbLine
 10
42.55332
 20
70.103445
 30
0.0
 11
42.55332
 21
49.603445
 31
0.0
  0
LINE
  5
666
330
1F
100
AcDbEntity
  8
001
370
    50
100
AcDbLine
 10
42.55332
 20
49.603445
 30
0.0
 11
74.55332
 21
49.603445
 31
0.0
  0
LINE
  5
667
330
1F
100
AcDbEntity
  8
001
370
    50
100
AcDbLine
 10
83.55332
 20
36.103445
 30
0.0
 11
33.55332
 21
36.103445
 31
0.0
  0
LINE
  5
668
330
1F
100
AcDbEntity
  8
001
370
    50
100
AcDbLine
 10
69.55332
 20
49.103445
 30
0.0
 11
70.05332
 21
49.603445
 31
0.0
  0
LINE
  5
669
330
1F
100
AcDbEntity
  8
001
370
    50
100
AcDbLine
 10
47.55332
 20
49.103445
 30
0.0
 11
47.05332
 21
49.603445
 31
0.0
  0
LINE
  5
66A
330
1F
100
AcDbEntity
  8
001
370
    50
100
AcDbLine
 10
42.55332
 20
70.103445
 30
0.0
 11
41.55332
 21
71.103445
 31
0.0
  0
LINE
  5
66B
330
1F
100
AcDbEntity
  8
001
370
    50
100
AcDbLine
 10
69.55332
 20
49.103445
 30
0.0
 11
69.55332
 21
36.103445
 31
0.0
  0
LINE
  5
66C
330
1F
100
AcDbEntity
  8
001
370
    50
100
AcDbLine
 10
47.55332
 20
49.103445
 30
0.0
 11
47.55332
 21
36.103445
 31
0.0
  0
LINE
  5
66D
330
1F
100
AcDbEntity
  8
001
  6
CENTER
370
     9
100
AcDbLine
 10
58.55332
 20
73.126048
 30
0.0
 11
58.55332
 21
33.86579
 31
0.0
  0
LINE
  5
66E
330
1F
100
AcDbEntity
  8
001
370
    50
100
AcDbLine
 10
42.55332
 20
70.103445
 30
0.0
 11
74.55332
 21
70.103445
 31
0.0
  0
LINE
  5
66F
330
1F
100
AcDbEntity
  8
001
370
    50
100
AcDbLine
 10
47.55332
 20
49.103445
 30
0.0
 11
69.55332
 21
49.103445
 31
0.0
  0
LINE
  5
670
330
1F
100
AcDbEntity
  8
001
370
    50
100
AcDbLine
 10
74.55332
 20
70.103445
 30
0.0
 11
75.55332
 21
71.103445
 31
0.0
  0
TEXT
  5
671
330
1F
100
AcDbEntity
  8
001
370
    30
100
AcDbText
 10
53.426732
 20
23.501915
 30
0.0
 40
2.666667
  1
加工形状
 41
0.833333
100
AcDbText
  0
ENDSEC
  0
SECTION
  2
OBJECTS
  0
DICTIONARY
  5
C
330
0
100
AcDbDictionary
281
     1
  3
ACAD_GROUP
350
D
  3
ACAD_LAYOUT
350
1A
  3
ACAD_MLEADERSTYLE
350
675
  3
ACAD_MLINESTYLE
350
17
  3
ACAD_PLOTSETTINGS
350
19
  3
ACAD_PLOTSTYLENAME
350
E
  3
ACAD_SCALELIST
350
3B
  3
ACAD_TABLESTYLE
350
674
  3
ACAD_VISUALSTYLE
350
2A
  3
AcDbVariableDictionary
350
672
  0
DICTIONARY
  5
D
102
{ACAD_REACTORS
330
C
102
}
330
C
100
AcDbDictionary
281
     1
  0
DICTIONARY
  5
1A
102
{ACAD_REACTORS
330
C
102
}
330
C
100
AcDbDictionary
281
     1
  3
Layout1
350
1E
  3
Layout2
350
26
  3
Model
350
22
  0
DICTIONARY
  5
675
102
{ACAD_REACTORS
330
C
102
}
330
C
100
AcDbDictionary
281
     1
  0
DICTIONARY
  5
17
102
{ACAD_REACTORS
330
C
102
}
330
C
100
AcDbDictionary
281
     1
  3
Standard
350
18
  0
DICTIONARY
  5
19
102
{ACAD_REACTORS
330
C
102
}
330
C
100
AcDbDictionary
281
     1
  0
ACDBDICTIONARYWDFLT
  5
E
102
{ACAD_REACTORS
330
C
102
}
330
C
100
AcDbDictionary
281
     1
  3
Normal
350
F
100
AcDbDictionaryWithDefault
340
F
  0
DICTIONARY
  5
3B
102
{ACAD_REACTORS
330
C
102
}
330
C
100
AcDbDictionary
281
     1
  3
A0
350
3C
  3
A1
350
3D
  3
A2
350
3E
  3
A3
350
3F
  3
A4
350
40
  3
A5
350
41
  3
A6
350
42
  3
A7
350
43
  3
A8
350
44
  3
A9
350
45
  3
B0
350
46
  3
B1
350
47
  3
B2
350
48
  3
B3
350
49
  3
B4
350
4A
  3
B5
350
4B
  3
B6
350
4C
  3
B7
350
4D
  3
B8
350
4E
  3
B9
350
4F
  3
C0
350
50
  3
C1
350
51
  3
C2
350
52
  3
C3
350
53
  3
C4
350
54
  3
C5
350
55
  3
C6
350
56
  3
C7
350
57
  3
C8
350
58
  3
C9
350
59
  3
D0
350
5A
  3
D1
350
5B
  3
D2
350
5C
  0
DICTIONARY
  5
674
102
{ACAD_REACTORS
330
C
102
}
330
C
100
AcDbDictionary
281
     1
  0
DICTIONARY
  5
2A
102
{ACAD_REACTORS
330
C
102
}
330
C
100
AcDbDictionary
281
     1
  3
2dWireframe
350
2F
  3
3D Hidden
350
31
  3
3dWireframe
350
30
  3
Basic
350
32
  3
Brighten
350
36
  3
ColorChange
350
3A
  3
Conceptual
350
34
  3
Dim
350
35
  3
Facepattern
350
39
  3
Flat
350
2B
  3
FlatWithEdges
350
2C
  3
Gouraud
350
2D
  3
GouraudWithEdges
350
2E
  3
Linepattern
350
38
  3
Realistic
350
33
  3
Thicken
350
37
  0
DICTIONARY
  5
672
102
{ACAD_REACTORS
330
C
102
}
330
C
100
AcDbDictionary
281
     1
  3
CANNOSCALE
350
673
  3
PSOLHEIGHT
350
677
  3
PSOLWIDTH
350
676
  0
LAYOUT
  5
1E
102
{ACAD_REACTORS
330
1A
102
}
330
1A
100
AcDbPlotSettings
  1

  2
none_device
  4

  6

 40
0.0
 41
0.0
 42
0.0
 43
0.0
 44
0.0
 45
0.0
 46
0.0
 47
0.0
 48
0.0
 49
0.0
140
0.0
141
0.0
142
1.0
143
1.0
 70
   688
 72
     0
 73
     0
 74
     5
  7

 75
    16
147
1.0
148
0.0
149
0.0
100
AcDbLayout
  1
Layout1
 70
     1
 71
     1
 10
0.0
 20
0.0
 11
12.0
 21
9.0
 12
0.0
 22
0.0
 32
0.0
 14
1.000000E+20
 24
1.000000E+20
 34
0.0
 15
-1.000000E+20
 25
-1.000000E+20
 35
0.0
146
0.0
 13
0.0
 23
0.0
 33
0.0
 16
1.0
 26
0.0
 36
0.0
 17
0.0
 27
1.0
 37
0.0
 76
     0
330
1B
  0
LAYOUT
  5
26
102
{ACAD_REACTORS
330
1A
102
}
330
1A
100
AcDbPlotSettings
  1

  2
none_device
  4

  6

 40
0.0
 41
0.0
 42
0.0
 43
0.0
 44
0.0
 45
0.0
 46
0.0
 47
0.0
 48
0.0
 49
0.0
140
0.0
141
0.0
142
1.0
143
1.0
 70
   688
 72
     0
 73
     0
 74
     5
  7

 75
    16
147
1.0
148
0.0
149
0.0
100
AcDbLayout
  1
Layout2
 70
     1
 71
     2
 10
0.0
 20
0.0
 11
0.0
 21
0.0
 12
0.0
 22
0.0
 32
0.0
 14
0.0
 24
0.0
 34
0.0
 15
0.0
 25
0.0
 35
0.0
146
0.0
 13
0.0
 23
0.0
 33
0.0
 16
1.0
 26
0.0
 36
0.0
 17
0.0
 27
1.0
 37
0.0
 76
     0
330
23
  0
LAYOUT
  5
22
102
{ACAD_REACTORS
330
1A
102
}
330
1A
100
AcDbPlotSettings
  1

  2
none_device
  4

  6

 40
0.0
 41
0.0
 42
0.0
 43
0.0
 44
0.0
 45
0.0
 46
0.0
 47
0.0
 48
0.0
 49
0.0
140
0.0
141
0.0
142
1.0
143
1.0
 70
  1712
 72
     0
 73
     0
 74
     0
  7

 75
     0
147
1.0
148
0.0
149
0.0
100
AcDbLayout
  1
Model
 70
     1
 71
     0
 10
0.0
 20
0.0
 11
12.0
 21
9.0
 12
0.0
 22
0.0
 32
0.0
 14
33.553314
 24
23.259811
 34
0.0
 15
295.601196
 25
202.061325
 35
0.0
146
0.0
 13
0.0
 23
0.0
 33
0.0
 16
1.0
 26
0.0
 36
0.0
 17
0.0
 27
1.0
 37
0.0
 76
     0
330
1F
331
29
  0
MLINESTYLE
  5
18
102
{ACAD_REACTORS
330
17
102
}
330
17
100
AcDbMlineStyle
  2
Standard
 70
     0
  3

 62
   256
 51
90.0
 52
90.0
 71
     2
 49
0.5
 62
   256
  6
BYLAYER
 49
-0.5
 62
   256
  6
BYLAYER
  0
ACDBPLACEHOLDER
  5
F
102
{ACAD_REACTORS
330
E
102
}
330
E
  0
SCALE
  5
3C
102
{ACAD_REACTORS
330
3B
102
}
330
3B
100
AcDbScale
 70
     0
300
1:1
140
1.0
141
1.0
290
     1
  0
SCALE
  5
3D
102
{ACAD_REACTORS
330
3B
102
}
330
3B
100
AcDbScale
 70
     0
300
1:2
140
1.0
141
2.0
290
     0
  0
SCALE
  5
3E
102
{ACAD_REACTORS
330
3B
102
}
330
3B
100
AcDbScale
 70
     0
300
1:4
140
1.0
141
4.0
290
     0
  0
SCALE
  5
3F
102
{ACAD_REACTORS
330
3B
102
}
330
3B
100
AcDbScale
 70
     0
300
1:5
140
1.0
141
5.0
290
     0
  0
SCALE
  5
40
102
{ACAD_REACTORS
330
3B
102
}
330
3B
100
AcDbScale
 70
     0
300
1:8
140
1.0
141
8.0
290
     0
  0
SCALE
  5
41
102
{ACAD_REACTORS
330
3B
102
}
330
3B
100
AcDbScale
 70
     0
300
1:10
140
1.0
141
10.0
290
     0
  0
SCALE
  5
42
102
{ACAD_REACTORS
330
3B
102
}
330
3B
100
AcDbScale
 70
     0
300
1:16
140
1.0
141
16.0
290
     0
  0
SCALE
  5
43
102
{ACAD_REACTORS
330
3B
102
}
330
3B
100
AcDbScale
 70
     0
300
1:20
140
1.0
141
20.0
290
     0
  0
SCALE
  5
44
102
{ACAD_REACTORS
330
3B
102
}
330
3B
100
AcDbScale
 70
     0
300
1:30
140
1.0
141
30.0
290
     0
  0
SCALE
  5
45
102
{ACAD_REACTORS
330
3B
102
}
330
3B
100
AcDbScale
 70
     0
300
1:40
140
1.0
141
40.0
290
     0
  0
SCALE
  5
46
102
{ACAD_REACTORS
330
3B
102
}
330
3B
100
AcDbScale
 70
     0
300
1:50
140
1.0
141
50.0
290
     0
  0
SCALE
  5
47
102
{ACAD_REACTORS
330
3B
102
}
330
3B
100
AcDbScale
 70
     0
300
1:100
140
1.0
141
100.0
290
     0
  0
SCALE
  5
48
102
{ACAD_REACTORS
330
3B
102
}
330
3B
100
AcDbScale
 70
     0
300
2:1
140
2.0
141
1.0
290
     0
  0
SCALE
  5
49
102
{ACAD_REACTORS
330
3B
102
}
330
3B
100
AcDbScale
 70
     0
300
4:1
140
4.0
141
1.0
290
     0
  0
SCALE
  5
4A
102
{ACAD_REACTORS
330
3B
102
}
330
3B
100
AcDbScale
 70
     0
300
8:1
140
8.0
141
1.0
290
     0
  0
SCALE
  5
4B
102
{ACAD_REACTORS
330
3B
102
}
330
3B
100
AcDbScale
 70
     0
300
10:1
140
10.0
141
1.0
290
     0
  0
SCALE
  5
4C
102
{ACAD_REACTORS
330
3B
102
}
330
3B
100
AcDbScale
 70
     0
300
100:1
140
100.0
141
1.0
290
     0
  0
SCALE
  5
4D
102
{ACAD_REACTORS
330
3B
102
}
330
3B
100
AcDbScale
 70
     0
300
1/128" = 1'-0"
140
0.007812
141
12.0
290
     0
  0
SCALE
  5
4E
102
{ACAD_REACTORS
330
3B
102
}
330
3B
100
AcDbScale
 70
     0
300
1/64" = 1'-0"
140
0.015625
141
12.0
290
     0
  0
SCALE
  5
4F
102
{ACAD_REACTORS
330
3B
102
}
330
3B
100
AcDbScale
 70
     0
300
1/32" = 1'-0"
140
0.03125
141
12.0
290
     0
  0
SCALE
  5
50
102
{ACAD_REACTORS
330
3B
102
}
330
3B
100
AcDbScale
 70
     0
300
1/16" = 1'-0"
140
0.0625
141
12.0
290
     0
  0
SCALE
  5
51
102
{ACAD_REACTORS
330
3B
102
}
330
3B
100
AcDbScale
 70
     0
300
3/32" = 1'-0"
140
0.09375
141
12.0
290
     0
  0
SCALE
  5
52
102
{ACAD_REACTORS
330
3B
102
}
330
3B
100
AcDbScale
 70
     0
300
1/8" = 1'-0"
140
0.125
141
12.0
290
     0
  0
SCALE
  5
53
102
{ACAD_REACTORS
330
3B
102
}
330
3B
100
AcDbScale
 70
     0
300
3/16" = 1'-0"
140
0.1875
141
12.0
290
     0
  0
SCALE
  5
54
102
{ACAD_REACTORS
330
3B
102
}
330
3B
100
AcDbScale
 70
     0
300
1/4" = 1'-0"
140
0.25
141
12.0
290
     0
  0
SCALE
  5
55
102
{ACAD_REACTORS
330
3B
102
}
330
3B
100
AcDbScale
 70
     0
300
3/8" = 1'-0"
140
0.375
141
12.0
290
     0
  0
SCALE
  5
56
102
{ACAD_REACTORS
330
3B
102
}
330
3B
100
AcDbScale
 70
     0
300
1/2" = 1'-0"
140
0.5
141
12.0
290
     0
  0
SCALE
  5
57
102
{ACAD_REACTORS
330
3B
102
}
330
3B
100
AcDbScale
 70
     0
300
3/4" = 1'-0"
140
0.75
141
12.0
290
     0
  0
SCALE
  5
58
102
{ACAD_REACTORS
330
3B
102
}
330
3B
100
AcDbScale
 70
     0
300
1" = 1'-0"
140
1.0
141
12.0
290
     0
  0
SCALE
  5
59
102
{ACAD_REACTORS
330
3B
102
}
330
3B
100
AcDbScale
 70
     0
300
1-1/2" = 1'-0"
140
1.5
141
12.0
290
     0
  0
SCALE
  5
5A
102
{ACAD_REACTORS
330
3B
102
}
330
3B
100
AcDbScale
 70
     0
300
3" = 1'-0"
140
3.0
141
12.0
290
     0
  0
SCALE
  5
5B
102
{ACAD_REACTORS
330
3B
102
}
330
3B
100
AcDbScale
 70
     0
300
6" = 1'-0"
140
6.0
141
12.0
290
     0
  0
SCALE
  5
5C
102
{ACAD_REACTORS
330
3B
102
}
330
3B
100
AcDbScale
 70
     0
300
1'-0" = 1'-0"
140
12.0
141
12.0
290
     0
  0
VISUALSTYLE
  5
2F
102
{ACAD_REACTORS
330
2A
102
}
330
2A
100
AcDbVisualStyle
  2
2dWireframe
 70
     4
 71
     0
 72
     2
 73
     0
 90
        0
 40
-0.6
 41
-30.0
 62
     5
 63
     7
 74
     1
 91
        4
 64
     7
 65
   257
 75
     1
175
     1
 42
1.0
 92
        0
 66
   257
 43
1.0
 76
     1
 77
     6
 78
     2
 67
     7
 79
     5
170
     0
171
     0
290
     0
174
     0
 93
        1
 44
0.0
173
     0
291
     0
 45
0.0
1001
ACAD
1000
AcDbSavedByObjectVersion
1070
     0
  0
VISUALSTYLE
  5
31
102
{ACAD_REACTORS
330
2A
102
}
330
2A
100
AcDbVisualStyle
  2
3D Hidden
 70
     6
 71
     1
 72
     2
 73
     2
 90
        0
 40
-0.6
 41
-30.0
 62
     5
 63
     7
 74
     2
 91
        2
 64
     7
 65
   257
 75
     2
175
     1
 42
40.0
 92
        0
 66
   257
 43
1.0
 76
     1
 77
     6
 78
     2
 67
     7
 79
     3
170
     0
171
     0
290
     0
174
     0
 93
        1
 44
0.0
173
     0
291
     0
 45
0.0
1001
ACAD
1000
AcDbSavedByObjectVersion
1070
     0
  0
VISUALSTYLE
  5
30
102
{ACAD_REACTORS
330
2A
102
}
330
2A
100
AcDbVisualStyle
  2
3dWireframe
 70
     5
 71
     0
 72
     2
 73
     0
 90
        0
 40
-0.6
 41
-30.0
 62
     5
 63
     7
 74
     1
 91
        4
 64
     7
 65
   257
 75
     1
175
     1
 42
1.0
 92
        0
 66
   257
 43
1.0
 76
     1
 77
     6
 78
     2
 67
     7
 79
     5
170
     0
171
     0
290
     0
174
     0
 93
        1
 44
0.0
173
     0
291
     0
 45
0.0
1001
ACAD
1000
AcDbSavedByObjectVersion
1070
     0
  0
VISUALSTYLE
  5
32
102
{ACAD_REACTORS
330
2A
102
}
330
2A
100
AcDbVisualStyle
  2
Basic
 70
     7
 71
     1
 72
     0
 73
     1
 90
        0
 40
-0.6
 41
-30.0
 62
     5
 63
     7
 74
     0
 91
        4
 64
     7
 65
   257
 75
     1
175
     1
 42
1.0
 92
        8
 66
     7
 43
1.0
 76
     1
 77
     6
 78
     2
 67
     7
 79
     5
170
     0
171
     0
290
     0
174
     0
 93
        1
 44
0.0
173
     0
291
     1
 45
0.0
1001
ACAD
1000
AcDbSavedByObjectVersion
1070
     0
  0
VISUALSTYLE
  5
36
102
{ACAD_REACTORS
330
2A
102
}
330
2A
100
AcDbVisualStyle
  2
Brighten
 70
    12
 71
     2
 72
     2
 73
     0
 90
        0
 40
-0.6
 41
-30.0
 62
     5
 63
     7
 74
     1
 91
        4
 64
     7
 65
   257
 75
     1
175
     1
 42
1.0
 92
        8
 66
     7
 43
1.0
 76
     1
 77
     6
 78
     2
 67
     7
 79
     5
170
     0
171
     0
290
     0
174
     0
 93
        1
 44
50.0
173
     0
291
     1
 45
0.0
1001
ACAD
1000
AcDbSavedByObjectVersion
1070
     0
  0
VISUALSTYLE
  5
3A
102
{ACAD_REACTORS
330
2A
102
}
330
2A
100
AcDbVisualStyle
  2
ColorChange
 70
    16
 71
     2
 72
     2
 73
     3
 90
        0
 40
-0.6
 41
-30.0
 62
     5
 63
     8
 74
     1
 91
        4
 64
     7
 65
   257
 75
     1
175
     1
 42
1.0
 92
        8
 66
     8
 43
1.0
 76
     1
 77
     6
 78
     2
 67
     7
 79
     5
170
     0
171
     0
290
     0
174
     0
 93
        1
 44
0.0
173
     0
291
     1
 45
0.0
1001
ACAD
1000
AcDbSavedByObjectVersion
1070
     0
  0
VISUALSTYLE
  5
34
102
{ACAD_REACTORS
330
2A
102
}
330
2A
100
AcDbVisualStyle
  2
Conceptual
 70
     9
 71
     3
 72
     2
 73
     0
 90
        0
 40
-0.6
 41
-30.0
 62
     5
 63
     7
 74
     2
 91
        2
 64
     7
 65
   257
 75
     1
175
     1
 42
40.0
 92
        8
 66
     7
 43
1.0
 76
     1
 77
     6
 78
     2
 67
     7
 79
     3
170
     0
171
     0
290
     0
174
     0
 93
        1
 44
0.0
173
     0
291
     0
 45
0.0
1001
ACAD
1000
AcDbSavedByObjectVersion
1070
     0
  0
VISUALSTYLE
  5
35
102
{ACAD_REACTORS
330
2A
102
}
330
2A
100
AcDbVisualStyle
  2
Dim
 70
    11
 71
     2
 72
     2
 73
     0
 90
        0
 40
-0.6
 41
-30.0
 62
     5
 63
     7
 74
     1
 91
        4
 64
     7
 65
   257
 75
     1
175
     1
 42
1.0
 92
        8
 66
     7
 43
1.0
 76
     1
 77
     6
 78
     2
 67
     7
 79
     5
170
     0
171
     0
290
     0
174
     0
 93
        1
 44
-50.0
173
     0
291
     1
 45
0.0
1001
ACAD
1000
AcDbSavedByObjectVersion
1070
     0
  0
VISUALSTYLE
  5
39
102
{ACAD_REACTORS
330
2A
102
}
330
2A
100
AcDbVisualStyle
  2
Facepattern
 70
    15
 71
     2
 72
     2
 73
     0
 90
        0
 40
-0.6
 41
-30.0
 62
     5
 63
     7
 74
     1
 91
        4
 64
     7
 65
   257
 75
     1
175
     1
 42
1.0
 92
        8
 66
     7
 43
1.0
 76
     1
 77
     6
 78
     2
 67
     7
 79
     5
170
     0
171
     0
290
     0
174
     0
 93
        1
 44
0.0
173
     0
291
     1
 45
0.0
1001
ACAD
1000
AcDbSavedByObjectVersion
1070
     0
  0
VISUALSTYLE
  5
2B
102
{ACAD_REACTORS
330
2A
102
}
330
2A
100
AcDbVisualStyle
  2
Flat
 70
     0
 71
     2
 72
     1
 73
     1
 90
        2
 40
-0.6
 41
30.0
 62
     5
 63
     7
 74
     0
 91
        4
 64
     7
 65
   257
 75
     1
175
     1
 42
1.0
 92
        8
 66
     7
 43
1.0
 76
     1
 77
     6
 78
     2
 67
     7
 79
     5
170
     0
171
     0
290
     0
174
     0
 93
       13
 44
0.0
173
     0
291
     1
 45
0.0
1001
ACAD
1000
AcDbSavedByObjectVersion
1070
     0
  0
VISUALSTYLE
  5
2C
102
{ACAD_REACTORS
330
2A
102
}
330
2A
100
AcDbVisualStyle
  2
FlatWithEdges
 70
     1
 71
     2
 72
     1
 73
     1
 90
        2
 40
-0.6
 41
30.0
 62
     5
 63
     7
 74
     1
 91
        4
 64
     7
 65
   257
 75
     1
175
     1
 42
1.0
 92
        0
 66
   257
 43
1.0
 76
     1
 77
     6
 78
     2
 67
     7
 79
     5
170
     0
171
     0
290
     0
174
     0
 93
       13
 44
0.0
173
     0
291
     1
 45
0.0
1001
ACAD
1000
AcDbSavedByObjectVersion
1070
     0
  0
VISUALSTYLE
  5
2D
102
{ACAD_REACTORS
330
2A
102
}
330
2A
100
AcDbVisualStyle
  2
Gouraud
 70
     2
 71
     2
 72
     2
 73
     1
 90
        2
 40
-0.6
 41
30.0
 62
     5
 63
     7
 74
     0
 91
        4
 64
     7
 65
   257
 75
     1
175
     1
 42
1.0
 92
        0
 66
     7
 43
1.0
 76
     1
 77
     6
 78
     2
 67
     7
 79
     5
170
     0
171
     0
290
     0
174
     0
 93
       13
 44
0.0
173
     0
291
     1
 45
0.0
1001
ACAD
1000
AcDbSavedByObjectVersion
1070
     0
  0
VISUALSTYLE
  5
2E
102
{ACAD_REACTORS
330
2A
102
}
330
2A
100
AcDbVisualStyle
  2
GouraudWithEdges
 70
     3
 71
     2
 72
     2
 73
     1
 90
        2
 40
-0.6
 41
30.0
 62
     5
 63
     7
 74
     1
 91
        4
 64
     7
 65
   257
 75
     1
175
     1
 42
1.0
 92
        0
 66
   257
 43
1.0
 76
     1
 77
     6
 78
     2
 67
     7
 79
     5
170
     0
171
     0
290
     0
174
     0
 93
       13
 44
0.0
173
     0
291
     1
 45
0.0
1001
ACAD
1000
AcDbSavedByObjectVersion
1070
     0
  0
VISUALSTYLE
  5
38
102
{ACAD_REACTORS
330
2A
102
}
330
2A
100
AcDbVisualStyle
  2
Linepattern
 70
    14
 71
     2
 72
     2
 73
     0
 90
        0
 40
-0.6
 41
-30.0
 62
     5
 63
     7
 74
     1
 91
        4
 64
     7
 65
   257
 75
     7
175
     7
 42
1.0
 92
        8
 66
     7
 43
1.0
 76
     1
 77
     6
 78
     2
 67
     7
 79
     5
170
     0
171
     0
290
     0
174
     0
 93
        1
 44
0.0
173
     0
291
     1
 45
0.0
1001
ACAD
1000
AcDbSavedByObjectVersion
1070
     0
  0
VISUALSTYLE
  5
33
102
{ACAD_REACTORS
330
2A
102
}
330
2A
100
AcDbVisualStyle
  2
Realistic
 70
     8
 71
     2
 72
     2
 73
     0
 90
        0
 40
-0.6
 41
-30.0
 62
     5
 63
     7
 74
     1
 91
        0
 64
     7
 65
   257
 75
     1
175
     1
 42
1.0
 92
        8
 66
     8
 43
1.0
 76
     1
 77
     6
 78
     2
 67
     7
 79
     5
170
     0
171
     0
290
     0
174
     0
 93
       13
 44
0.0
173
     0
291
     0
 45
0.0
1001
ACAD
1000
AcDbSavedByObjectVersion
1070
     0
  0
VISUALSTYLE
  5
37
102
{ACAD_REACTORS
330
2A
102
}
330
2A
100
AcDbVisualStyle
  2
Thicken
 70
    13
 71
     2
 72
     2
 73
     0
 90
        0
 40
-0.6
 41
-30.0
 62
     5
 63
     7
 74
     1
 91
        4
 64
     7
 65
   257
 75
     1
175
     1
 42
1.0
 92
       12
 66
     7
 43
1.0
 76
     1
 77
     6
 78
     2
 67
     7
 79
     5
170
     0
171
     0
290
     0
174
     0
 93
        1
 44
0.0
173
     0
291
     1
 45
0.0
1001
ACAD
1000
AcDbSavedByObjectVersion
1070
     0
  0
DICTIONARYVAR
  5
673
102
{ACAD_REACTORS
330
672
102
}
330
672
100
DictionaryVariables
280
     0
  1
1:1
  0
DICTIONARYVAR
  5
677
102
{ACAD_REACTORS
330
672
102
}
330
672
100
DictionaryVariables
280
     0
  1
80.000000
  0
DICTIONARYVAR
  5
676
102
{ACAD_REACTORS
330
672
102
}
330
672
100
DictionaryVariables
280
     0
  1
5.000000
  0
ENDSEC
  0
EOF
