  0
SECTION
  2
HEADER
  9
$ACADVER
  1
AC1015
  9
$ACADMAINTVER
 70
     6
  9
$DWGCODEPAGE
  3
ANSI_932
  9
$INSBASE
 10
0.0
 20
0.0
 30
0.0
  9
$EXTMIN
 10
24.203247
 20
-10.852905
 30
0.0
  9
$EXTMAX
 10
253.126495
 20
116.489799
 30
0.0
  9
$LIMMIN
 10
0.0
 20
0.0
  9
$LIMMAX
 10
12.0
 20
9.0
  9
$ORTHOMODE
 70
     0
  9
$REGENMODE
 70
     1
  9
$FILLMODE
 70
     1
  9
$QTEXTMODE
 70
     0
  9
$MIRRTEXT
 70
     1
  9
$LTSCALE
 40
2.61958
  9
$ATTMODE
 70
     1
  9
$TEXTSIZE
 40
3.2
  9
$TRACEWID
 40
1.0
  9
$TEXTSTYLE
  7
Standard
  9
$CLAYER
  8
0
  9
$CELTYPE
  6
ByLayer
  9
$CECOLOR
 62
   256
  9
$CELTSCALE
 40
1.0
  9
$DISPSILH
 70
     0
  9
$DIMSCALE
 40
1.0
  9
$DIMASZ
 40
2.5
  9
$DIMEXO
 40
0.625
  9
$DIMDLI
 40
3.75
  9
$DIMRND
 40
0.0
  9
$DIMDLE
 40
0.0
  9
$DIMEXE
 40
1.25
  9
$DIMTP
 40
0.0
  9
$DIMTM
 40
0.0
  9
$DIMTXT
 40
2.5
  9
$DIMCEN
 40
0.09
  9
$DIMTSZ
 40
0.0
  9
$DIMTOL
 70
     0
  9
$DIMLIM
 70
     0
  9
$DIMTIH
 70
     0
  9
$DIMTOH
 70
     0
  9
$DIMSE1
 70
     0
  9
$DIMSE2
 70
     0
  9
$DIMTAD
 70
     0
  9
$DIMZIN
 70
     8
  9
$DIMBLK
  1

  9
$DIMASO
 70
     1
  9
$DIMSHO
 70
     0
  9
$DIMPOST
  1

  9
$DIMAPOST
  1

  9
$DIMALT
 70
     0
  9
$DIMALTD
 70
     3
  9
$DIMALTF
 40
0.03937
  9
$DIMLFAC
 40
1.0
  9
$DIMTOFL
 70
     1
  9
$DIMTVP
 40
0.0
  9
$DIMTIX
 70
     0
  9
$DIMSOXD
 70
     0
  9
$DIMSAH
 70
     0
  9
$DIMBLK1
  1

  9
$DIMBLK2
  1

  9
$DIMSTYLE
  2
ISO-25
  9
$DIMCLRD
 70
     0
  9
$DIMCLRE
 70
     0
  9
$DIMCLRT
 70
     0
  9
$DIMTFAC
 40
1.0
  9
$DIMGAP
 40
0.625
  9
$DIMJUST
 70
     0
  9
$DIMSD1
 70
     0
  9
$DIMSD2
 70
     0
  9
$DIMTOLJ
 70
     0
  9
$DIMTZIN
 70
     8
  9
$DIMALTZ
 70
     0
  9
$DIMALTTZ
 70
     0
  9
$DIMUPT
 70
     0
  9
$DIMDEC
 70
     2
  9
$DIMTDEC
 70
     2
  9
$DIMALTU
 70
     2
  9
$DIMALTTD
 70
     3
  9
$DIMTXSTY
  7
Standard
  9
$DIMAUNIT
 70
     0
  9
$DIMADEC
 70
     0
  9
$DIMALTRND
 40
0.0
  9
$DIMAZIN
 70
     0
  9
$DIMDSEP
 70
    44
  9
$DIMATFIT
 70
     3
  9
$DIMFRAC
 70
     0
  9
$DIMLDRBLK
  1

  9
$DIMLUNIT
 70
     2
  9
$DIMLWD
 70
    -2
  9
$DIMLWE
 70
    -2
  9
$DIMTMOVE
 70
     0
  9
$LUNITS
 70
     2
  9
$LUPREC
 70
     4
  9
$SKETCHINC
 40
1.0
  9
$FILLETRAD
 40
0.0
  9
$AUNITS
 70
     0
  9
$AUPREC
 70
     0
  9
$MENU
  1
.
  9
$ELEVATION
 40
0.0
  9
$PELEVATION
 40
0.0
  9
$THICKNESS
 40
0.0
  9
$LIMCHECK
 70
     0
  9
$CHAMFERA
 40
10.0
  9
$CHAMFERB
 40
10.0
  9
$CHAMFERC
 40
20.0
  9
$CHAMFERD
 40
0.0
  9
$SKPOLY
 70
     0
  9
$TDCREATE
 40
2454798.496741713
  9
$TDUCREATE
 40
2454798.121741713
  9
$TDUPDATE
 40
2454798.496741725
  9
$TDUUPDATE
 40
2454798.121741725
  9
$TDINDWG
 40
0.0000000116
  9
$TDUSRTIMER
 40
0.0000000116
  9
$USRTIMER
 70
     1
  9
$ANGBASE
 50
0.0
  9
$ANGDIR
 70
     0
  9
$PDMODE
 70
     0
  9
$PDSIZE
 40
0.0
  9
$PLINEWID
 40
0.0
  9
$SPLFRAME
 70
     0
  9
$SPLINETYPE
 70
     6
  9
$SPLINESEGS
 70
     8
  9
$HANDSEED
  5
6BA
  9
$SURFTAB1
 70
     6
  9
$SURFTAB2
 70
     6
  9
$SURFTYPE
 70
     6
  9
$SURFU
 70
     6
  9
$SURFV
 70
     6
  9
$UCSBASE
  2

  9
$UCSNAME
  2

  9
$UCSORG
 10
0.0
 20
0.0
 30
0.0
  9
$UCSXDIR
 10
1.0
 20
0.0
 30
0.0
  9
$UCSYDIR
 10
0.0
 20
1.0
 30
0.0
  9
$UCSORTHOREF
  2

  9
$UCSORTHOVIEW
 70
     0
  9
$UCSORGTOP
 10
0.0
 20
0.0
 30
0.0
  9
$UCSORGBOTTOM
 10
0.0
 20
0.0
 30
0.0
  9
$UCSORGLEFT
 10
0.0
 20
0.0
 30
0.0
  9
$UCSORGRIGHT
 10
0.0
 20
0.0
 30
0.0
  9
$UCSORGFRONT
 10
0.0
 20
0.0
 30
0.0
  9
$UCSORGBACK
 10
0.0
 20
0.0
 30
0.0
  9
$PUCSBASE
  2

  9
$PUCSNAME
  2

  9
$PUCSORG
 10
0.0
 20
0.0
 30
0.0
  9
$PUCSXDIR
 10
1.0
 20
0.0
 30
0.0
  9
$PUCSYDIR
 10
0.0
 20
1.0
 30
0.0
  9
$PUCSORTHOREF
  2

  9
$PUCSORTHOVIEW
 70
     0
  9
$PUCSORGTOP
 10
0.0
 20
0.0
 30
0.0
  9
$PUCSORGBOTTOM
 10
0.0
 20
0.0
 30
0.0
  9
$PUCSORGLEFT
 10
0.0
 20
0.0
 30
0.0
  9
$PUCSORGRIGHT
 10
0.0
 20
0.0
 30
0.0
  9
$PUCSORGFRONT
 10
0.0
 20
0.0
 30
0.0
  9
$PUCSORGBACK
 10
0.0
 20
0.0
 30
0.0
  9
$USERI1
 70
     0
  9
$USERI2
 70
     0
  9
$USERI3
 70
     0
  9
$USERI4
 70
     0
  9
$USERI5
 70
     0
  9
$USERR1
 40
0.0
  9
$USERR2
 40
0.0
  9
$USERR3
 40
0.0
  9
$USERR4
 40
0.0
  9
$USERR5
 40
0.0
  9
$WORLDVIEW
 70
     1
  9
$SHADEDGE
 70
     3
  9
$SHADEDIF
 70
    70
  9
$TILEMODE
 70
     1
  9
$MAXACTVP
 70
    64
  9
$PINSBASE
 10
0.0
 20
0.0
 30
0.0
  9
$PLIMCHECK
 70
     0
  9
$PEXTMIN
 10
1.000000E+20
 20
1.000000E+20
 30
0.0
  9
$PEXTMAX
 10
-1.000000E+20
 20
-1.000000E+20
 30
0.0
  9
$PLIMMIN
 10
0.0
 20
0.0
  9
$PLIMMAX
 10
12.0
 20
9.0
  9
$UNITMODE
 70
     0
  9
$VISRETAIN
 70
     1
  9
$PLINEGEN
 70
     0
  9
$PSLTSCALE
 70
     1
  9
$TREEDEPTH
 70
  3020
  9
$CMLSTYLE
  2
Standard
  9
$CMLJUST
 70
     0
  9
$CMLSCALE
 40
20.0
  9
$PROXYGRAPHICS
 70
     1
  9
$MEASUREMENT
 70
     1
  9
$CELWEIGHT
370
    -1
  9
$ENDCAPS
280
     0
  9
$JOINSTYLE
280
     0
  9
$LWDISPLAY
290
     0
  9
$INSUNITS
 70
     4
  9
$HYPERLINKBASE
  1

  9
$STYLESHEET
  1

  9
$XEDIT
290
     1
  9
$CEPSNTYPE
380
     0
  9
$PSTYLEMODE
290
     1
  9
$FINGERPRINTGUID
  2
{8E10F426-5743-4975-93F7-587CCBA70D2B}
  9
$VERSIONGUID
  2
{FAEB1C32-E019-11D5-929B-00C0DF256EC4}
  9
$EXTNAMES
290
     1
  9
$PSVPSCALE
 40
0.0
  9
$OLESTARTUP
290
     0
  0
ENDSEC
  0
SECTION
  2
CLASSES
  0
CLASS
  1
ACDBDICTIONARYWDFLT
  2
AcDbDictionaryWithDefault
  3
ObjectDBX Classes
 90
        0
280
     0
281
     0
  0
CLASS
  1
VISUALSTYLE
  2
AcDbVisualStyle
  3
ObjectDBX Classes
 90
     4095
280
     0
281
     0
  0
CLASS
  1
SCALE
  2
AcDbScale
  3
ObjectDBX Classes
 90
     1153
280
     0
281
     0
  0
CLASS
  1
DICTIONARYVAR
  2
AcDbDictionaryVar
  3
ObjectDBX Classes
 90
        0
280
     0
281
     0
  0
CLASS
  1
ACDBPLACEHOLDER
  2
AcDbPlaceHolder
  3
ObjectDBX Classes
 90
        0
280
     0
281
     0
  0
CLASS
  1
LAYOUT
  2
AcDbLayout
  3
ObjectDBX Classes
 90
        0
280
     0
281
     0
  0
ENDSEC
  0
SECTION
  2
TABLES
  0
TABLE
  2
VPORT
  5
8
330
0
100
AcDbSymbolTable
 70
     1
  0
VPORT
  5
29
330
8
100
AcDbSymbolTableRecord
100
AcDbViewportTableRecord
  2
*Active
 70
     0
 10
0.0
 20
0.0
 11
1.0
 21
1.0
 12
138.664871
 22
52.818447
 13
0.0
 23
0.0
 14
1.0
 24
1.0
 15
0.0
 25
0.0
 16
0.0
 26
0.0
 36
1.0
 17
0.0
 27
0.0
 37
0.0
 40
136.70793
 41
1.691288
 42
50.0
 43
0.0
 44
0.0
 50
0.0
 51
0.0
 71
     0
 72
   100
 73
     1
 74
     3
 75
     0
 76
     0
 77
     0
 78
     0
281
     0
 65
     1
110
0.0
120
0.0
130
0.0
111
1.0
121
0.0
131
0.0
112
0.0
122
1.0
132
0.0
 79
     0
146
0.0
  0
ENDTAB
  0
TABLE
  2
LTYPE
  5
5
330
0
100
AcDbSymbolTable
 70
     5
  0
LTYPE
  5
14
330
5
100
AcDbSymbolTableRecord
100
AcDbLinetypeTableRecord
  2
ByBlock
 70
     0
  3

 72
    65
 73
     0
 40
0.0
  0
LTYPE
  5
15
330
5
100
AcDbSymbolTableRecord
100
AcDbLinetypeTableRecord
  2
ByLayer
 70
     0
  3

 72
    65
 73
     0
 40
0.0
  0
LTYPE
  5
16
330
5
100
AcDbSymbolTableRecord
100
AcDbLinetypeTableRecord
  2
Continuous
 70
     0
  3
Solid line
 72
    65
 73
     0
 40
0.0
  0
LTYPE
  5
5D
330
5
100
AcDbSymbolTableRecord
100
AcDbLinetypeTableRecord
  2
DASHED
 70
     0
  3
DASHED
 72
    83
 73
     2
 40
0.75
 49
0.5
 74
     0
 49
-0.25
 74
     0
  0
LTYPE
  5
5E
330
5
100
AcDbSymbolTableRecord
100
AcDbLinetypeTableRecord
  2
HIDDEN
 70
     0
  3
HIDDEN
 72
    83
 73
     2
 40
0.375
 49
0.25
 74
     0
 49
-0.125
 74
     0
  0
LTYPE
  5
5F
330
5
100
AcDbSymbolTableRecord
100
AcDbLinetypeTableRecord
  2
CENTER
 70
     0
  3
CENTER
 72
    83
 73
     4
 40
2.0
 49
1.25
 74
     0
 49
-0.25
 74
     0
 49
0.25
 74
     0
 49
-0.25
 74
     0
  0
LTYPE
  5
60
330
5
100
AcDbSymbolTableRecord
100
AcDbLinetypeTableRecord
  2
PHANTOM
 70
     0
  3
PHANTOM
 72
    83
 73
     6
 40
2.5
 49
1.25
 74
     0
 49
-0.25
 74
     0
 49
0.25
 74
     0
 49
-0.25
 74
     0
 49
0.25
 74
     0
 49
-0.25
 74
     0
  0
ENDTAB
  0
TABLE
  2
LAYER
  5
2
330
0
100
AcDbSymbolTable
 70
     2
  0
LAYER
  5
10
330
2
100
AcDbSymbolTableRecord
100
AcDbLayerTableRecord
  2
0
 70
     0
 62
     7
  6
Continuous
370
    -3
390
F
  0
LAYER
  5
61
330
2
100
AcDbSymbolTableRecord
100
AcDbLayerTableRecord
  2
001
 70
     0
 62
     7
  6
Continuous
370
    -3
390
F
  0
ENDTAB
  0
TABLE
  2
STYLE
  5
3
330
0
100
AcDbSymbolTable
 70
     2
  0
STYLE
  5
11
330
3
100
AcDbSymbolTableRecord
100
AcDbTextStyleTableRecord
  2
Standard
 70
     0
 40
0.0
 41
1.0
 50
0.0
 71
     0
 42
0.2
  3
TXT
  4
BIGFONT
  0
STYLE
  5
62
330
3
100
AcDbSymbolTableRecord
100
AcDbTextStyleTableRecord
  2
TATEGAKI
 70
     4
 40
1.0
 41
1.0
 50
0.0
 71
     0
 42
0.2
  3
TXT
  4
BIGFONT
  0
ENDTAB
  0
TABLE
  2
VIEW
  5
6
330
0
100
AcDbSymbolTable
 70
     0
  0
ENDTAB
  0
TABLE
  2
UCS
  5
7
330
0
100
AcDbSymbolTable
 70
     0
  0
ENDTAB
  0
TABLE
  2
APPID
  5
9
330
0
100
AcDbSymbolTable
 70
     1
  0
APPID
  5
12
330
9
100
AcDbSymbolTableRecord
100
AcDbRegAppTableRecord
  2
ACAD
 70
     0
  0
ENDTAB
  0
TABLE
  2
DIMSTYLE
  5
A
330
0
100
AcDbSymbolTable
 70
     2
100
AcDbDimStyleTable
  0
DIMSTYLE
105
27
330
A
100
AcDbSymbolTableRecord
100
AcDbDimStyleTableRecord
  2
ISO-25
 70
     0
 41
2.5
 42
0.625
 43
3.75
 44
1.25
 73
     0
 74
     0
 77
     1
 78
     8
140
2.5
141
2.5
143
0.03937
147
0.625
171
     3
172
     1
271
     2
272
     2
274
     3
278
    44
283
     0
284
     8
340
11
  0
DIMSTYLE
105
63
102
{ACAD_REACTORS
330
17F
330
180
330
181
330
190
330
191
330
192
330
193
330
194
330
195
330
196
330
197
330
198
330
199
330
19A
102
}
330
A
100
AcDbSymbolTableRecord
100
AcDbDimStyleTableRecord
  2
Standard
 70
     0
 41
1.5
 42
0.0
 44
2.75
 73
     0
 74
     0
 77
     1
 78
     8
 79
     2
140
4.0
146
0.8
147
1.0
172
     1
179
     1
271
     1
340
11
  0
ENDTAB
  0
TABLE
  2
BLOCK_RECORD
  5
1
330
0
100
AcDbSymbolTable
 70
    15
  0
BLOCK_RECORD
  5
1F
330
1
100
AcDbSymbolTableRecord
100
AcDbBlockTableRecord
  2
*Model_Space
340
22
  0
BLOCK_RECORD
  5
1B
330
1
100
AcDbSymbolTableRecord
100
AcDbBlockTableRecord
  2
*Paper_Space
340
1E
  0
BLOCK_RECORD
  5
23
330
1
100
AcDbSymbolTableRecord
100
AcDbBlockTableRecord
  2
*Paper_Space0
340
26
  0
BLOCK_RECORD
  5
64
330
1
100
AcDbSymbolTableRecord
100
AcDbBlockTableRecord
  2
*D1
340
0
  0
BLOCK_RECORD
  5
78
330
1
100
AcDbSymbolTableRecord
100
AcDbBlockTableRecord
  2
*D2
340
0
  0
BLOCK_RECORD
  5
8C
330
1
100
AcDbSymbolTableRecord
100
AcDbBlockTableRecord
  2
*D3
340
0
  0
BLOCK_RECORD
  5
A0
330
1
100
AcDbSymbolTableRecord
100
AcDbBlockTableRecord
  2
*D4
340
0
  0
BLOCK_RECORD
  5
B4
330
1
100
AcDbSymbolTableRecord
100
AcDbBlockTableRecord
  2
*D5
340
0
  0
BLOCK_RECORD
  5
CA
330
1
100
AcDbSymbolTableRecord
100
AcDbBlockTableRecord
  2
*D6
340
0
  0
BLOCK_RECORD
  5
DE
330
1
100
AcDbSymbolTableRecord
100
AcDbBlockTableRecord
  2
*D7
340
0
  0
BLOCK_RECORD
  5
F2
330
1
100
AcDbSymbolTableRecord
100
AcDbBlockTableRecord
  2
*D8
340
0
  0
BLOCK_RECORD
  5
106
330
1
100
AcDbSymbolTableRecord
100
AcDbBlockTableRecord
  2
*D9
340
0
  0
BLOCK_RECORD
  5
11A
330
1
100
AcDbSymbolTableRecord
100
AcDbBlockTableRecord
  2
*D10
340
0
  0
BLOCK_RECORD
  5
12E
330
1
100
AcDbSymbolTableRecord
100
AcDbBlockTableRecord
  2
*D11
340
0
  0
BLOCK_RECORD
  5
142
330
1
100
AcDbSymbolTableRecord
100
AcDbBlockTableRecord
  2
*D12
340
0
  0
BLOCK_RECORD
  5
156
330
1
100
AcDbSymbolTableRecord
100
AcDbBlockTableRecord
  2
*D13
340
0
  0
BLOCK_RECORD
  5
16B
330
1
100
AcDbSymbolTableRecord
100
AcDbBlockTableRecord
  2
*D14
340
0
  0
ENDTAB
  0
ENDSEC
  0
SECTION
  2
BLOCKS
  0
BLOCK
  5
20
330
1F
100
AcDbEntity
  8
0
100
AcDbBlockBegin
  2
*Model_Space
 70
     0
 10
0.0
 20
0.0
 30
0.0
  3
*Model_Space
  1

  0
ENDBLK
  5
21
330
1F
100
AcDbEntity
  8
0
100
AcDbBlockEnd
  0
BLOCK
  5
1C
330
1B
100
AcDbEntity
 67
     1
  8
0
100
AcDbBlockBegin
  2
*Paper_Space
 70
     0
 10
0.0
 20
0.0
 30
0.0
  3
*Paper_Space
  1

  0
ENDBLK
  5
1D
330
1B
100
AcDbEntity
 67
     1
  8
0
100
AcDbBlockEnd
  0
BLOCK
  5
24
330
23
100
AcDbEntity
  8
0
100
AcDbBlockBegin
  2
*Paper_Space0
 70
     0
 10
0.0
 20
0.0
 30
0.0
  3
*Paper_Space0
  1

  0
ENDBLK
  5
25
330
23
100
AcDbEntity
  8
0
100
AcDbBlockEnd
  0
BLOCK
  5
65
330
64
100
AcDbEntity
  8
0
100
AcDbBlockBegin
  2
*D1
 70
     1
 10
0.0
 20
0.0
 30
0.0
  3
*D1
  1

  0
LINE
  5
67
330
64
100
AcDbEntity
  8
001
370
     9
100
AcDbLine
 10
47.628982
 20
0.762957
 30
0.0
 11
47.628982
 21
-6.853385
 31
0.0
  0
LINE
  5
68
330
64
100
AcDbEntity
  8
001
370
     9
100
AcDbLine
 10
33.628982
 20
0.762957
 30
0.0
 11
33.628982
 21
-6.853385
 31
0.0
  0
LINE
  5
69
330
64
100
AcDbEntity
  8
001
370
     9
100
AcDbLine
 10
47.628982
 20
-5.281956
 30
0.0
 11
33.628982
 21
-5.281956
 31
0.0
  0
POLYLINE
  5
6A
330
64
100
AcDbEntity
  8
001
370
     9
100
AcDb2dPolyline
 66
     1
 10
0.0
 20
0.0
 30
0.0
  0
VERTEX
  5
6C
330
6A
100
AcDbEntity
  8
001
370
     9
100
AcDbVertex
100
AcDb2dVertex
 10
46.771839
 20
-5.052285
 30
0.0
  0
VERTEX
  5
6D
330
6A
100
AcDbEntity
  8
001
370
     9
100
AcDbVertex
100
AcDb2dVertex
 10
47.628982
 20
-5.281956
 30
0.0
  0
VERTEX
  5
6E
330
6A
100
AcDbEntity
  8
001
370
     9
100
AcDbVertex
100
AcDb2dVertex
 10
46.771839
 20
-5.511627
 30
0.0
  0
SEQEND
  5
6B
330
6A
100
AcDbEntity
  8
001
370
     9
  0
POLYLINE
  5
6F
330
64
100
AcDbEntity
  8
001
370
     9
100
AcDb2dPolyline
 66
     1
 10
0.0
 20
0.0
 30
0.0
  0
VERTEX
  5
71
330
6F
100
AcDbEntity
  8
001
370
     9
100
AcDbVertex
100
AcDb2dVertex
 10
34.486125
 20
-5.511627
 30
0.0
  0
VERTEX
  5
72
330
6F
100
AcDbEntity
  8
001
370
     9
100
AcDbVertex
100
AcDb2dVertex
 10
33.628982
 20
-5.281956
 30
0.0
  0
VERTEX
  5
73
330
6F
100
AcDbEntity
  8
001
370
     9
100
AcDbVertex
100
AcDb2dVertex
 10
34.486125
 20
-5.052285
 30
0.0
  0
SEQEND
  5
70
330
6F
100
AcDbEntity
  8
001
370
     9
  0
TEXT
  5
74
330
64
100
AcDbEntity
  8
001
370
    30
100
AcDbText
 10
37.20041
 20
-4.710527
 30
0.0
 40
2.285714
  1
%%c１４
 41
0.882353
100
AcDbText
  0
POINT
  5
75
330
64
100
AcDbEntity
  8
001
370
     9
100
AcDbPoint
 10
47.628982
 20
0.762957
 30
0.0
  0
POINT
  5
76
330
64
100
AcDbEntity
  8
001
370
     9
100
AcDbPoint
 10
33.628982
 20
0.762957
 30
0.0
  0
POINT
  5
77
330
64
100
AcDbEntity
  8
001
370
     9
100
AcDbPoint
 10
33.628982
 20
-5.281956
 30
0.0
  0
ENDBLK
  5
66
330
64
100
AcDbEntity
  8
0
100
AcDbBlockEnd
  0
BLOCK
  5
79
330
78
100
AcDbEntity
  8
0
100
AcDbBlockBegin
  2
*D2
 70
     1
 10
0.0
 20
0.0
 30
0.0
  3
*D2
  1

  0
LINE
  5
7B
330
78
100
AcDbEntity
  8
001
370
     9
100
AcDbLine
 10
50.628982
 20
21.762957
 30
0.0
 11
50.628982
 21
36.061239
 31
0.0
  0
LINE
  5
7C
330
78
100
AcDbEntity
  8
001
370
     9
100
AcDbLine
 10
30.628982
 20
21.762957
 30
0.0
 11
30.628982
 21
36.061239
 31
0.0
  0
LINE
  5
7D
330
78
100
AcDbEntity
  8
001
370
     9
100
AcDbLine
 10
50.628982
 20
34.48981
 30
0.0
 11
30.628982
 21
34.48981
 31
0.0
  0
POLYLINE
  5
7E
330
78
100
AcDbEntity
  8
001
370
     9
100
AcDb2dPolyline
 66
     1
 10
0.0
 20
0.0
 30
0.0
  0
VERTEX
  5
80
330
7E
100
AcDbEntity
  8
001
370
     9
100
AcDbVertex
100
AcDb2dVertex
 10
49.771839
 20
34.719481
 30
0.0
  0
VERTEX
  5
81
330
7E
100
AcDbEntity
  8
001
370
     9
100
AcDbVertex
100
AcDb2dVertex
 10
50.628982
 20
34.48981
 30
0.0
  0
VERTEX
  5
82
330
7E
100
AcDbEntity
  8
001
370
     9
100
AcDbVertex
100
AcDb2dVertex
 10
49.771839
 20
34.260139
 30
0.0
  0
SEQEND
  5
7F
330
7E
100
AcDbEntity
  8
001
370
     9
  0
POLYLINE
  5
83
330
78
100
AcDbEntity
  8
001
370
     9
100
AcDb2dPolyline
 66
     1
 10
0.0
 20
0.0
 30
0.0
  0
VERTEX
  5
85
330
83
100
AcDbEntity
  8
001
370
     9
100
AcDbVertex
100
AcDb2dVertex
 10
31.486125
 20
34.260139
 30
0.0
  0
VERTEX
  5
86
330
83
100
AcDbEntity
  8
001
370
     9
100
AcDbVertex
100
AcDb2dVertex
 10
30.628982
 20
34.48981
 30
0.0
  0
VERTEX
  5
87
330
83
100
AcDbEntity
  8
001
370
     9
100
AcDbVertex
100
AcDb2dVertex
 10
31.486125
 20
34.719481
 30
0.0
  0
SEQEND
  5
84
330
83
100
AcDbEntity
  8
001
370
     9
  0
TEXT
  5
88
330
78
100
AcDbEntity
  8
001
370
    30
100
AcDbText
 10
37.20041
 20
35.061239
 30
0.0
 40
2.285714
  1
%%c２０
 41
0.882353
100
AcDbText
  0
POINT
  5
89
330
78
100
AcDbEntity
  8
001
370
     9
100
AcDbPoint
 10
50.628982
 20
21.762957
 30
0.0
  0
POINT
  5
8A
330
78
100
AcDbEntity
  8
001
370
     9
100
AcDbPoint
 10
30.628982
 20
21.762957
 30
0.0
  0
POINT
  5
8B
330
78
100
AcDbEntity
  8
001
370
     9
100
AcDbPoint
 10
30.628982
 20
34.48981
 30
0.0
  0
ENDBLK
  5
7A
330
78
100
AcDbEntity
  8
0
100
AcDbBlockEnd
  0
BLOCK
  5
8D
330
8C
100
AcDbEntity
  8
0
100
AcDbBlockBegin
  2
*D3
 70
     1
 10
0.0
 20
0.0
 30
0.0
  3
*D3
  1

  0
LINE
  5
8F
330
8C
100
AcDbEntity
  8
001
370
     9
100
AcDbLine
 10
55.628982
 20
22.762957
 30
0.0
 11
61.592489
 21
22.762957
 31
0.0
  0
LINE
  5
90
330
8C
100
AcDbEntity
  8
001
370
     9
100
AcDbLine
 10
50.628982
 20
9.762957
 30
0.0
 11
61.592489
 21
9.762957
 31
0.0
  0
LINE
  5
91
330
8C
100
AcDbEntity
  8
001
370
     9
100
AcDbLine
 10
60.021061
 20
22.762957
 30
0.0
 11
60.021061
 21
9.762957
 31
0.0
  0
POLYLINE
  5
92
330
8C
100
AcDbEntity
  8
001
370
     9
100
AcDb2dPolyline
 66
     1
 10
0.0
 20
0.0
 30
0.0
  0
VERTEX
  5
94
330
92
100
AcDbEntity
  8
001
370
     9
100
AcDbVertex
100
AcDb2dVertex
 10
59.79139
 20
21.905814
 30
0.0
  0
VERTEX
  5
95
330
92
100
AcDbEntity
  8
001
370
     9
100
AcDbVertex
100
AcDb2dVertex
 10
60.021061
 20
22.762957
 30
0.0
  0
VERTEX
  5
96
330
92
100
AcDbEntity
  8
001
370
     9
100
AcDbVertex
100
AcDb2dVertex
 10
60.250731
 20
21.905814
 30
0.0
  0
SEQEND
  5
93
330
92
100
AcDbEntity
  8
001
370
     9
  0
POLYLINE
  5
97
330
8C
100
AcDbEntity
  8
001
370
     9
100
AcDb2dPolyline
 66
     1
 10
0.0
 20
0.0
 30
0.0
  0
VERTEX
  5
99
330
97
100
AcDbEntity
  8
001
370
     9
100
AcDbVertex
100
AcDb2dVertex
 10
60.250731
 20
10.6201
 30
0.0
  0
VERTEX
  5
9A
330
97
100
AcDbEntity
  8
001
370
     9
100
AcDbVertex
100
AcDb2dVertex
 10
60.021061
 20
9.762957
 30
0.0
  0
VERTEX
  5
9B
330
97
100
AcDbEntity
  8
001
370
     9
100
AcDbVertex
100
AcDb2dVertex
 10
59.79139
 20
10.6201
 30
0.0
  0
SEQEND
  5
98
330
97
100
AcDbEntity
  8
001
370
     9
  0
TEXT
  5
9C
330
8C
100
AcDbEntity
  8
001
370
    30
100
AcDbText
 10
59.449632
 20
13.977243
 30
0.0
 40
2.285714
  1
１３
 50
90.000003
 41
0.833333
100
AcDbText
  0
POINT
  5
9D
330
8C
100
AcDbEntity
  8
001
370
     9
100
AcDbPoint
 10
55.628982
 20
22.762957
 30
0.0
  0
POINT
  5
9E
330
8C
100
AcDbEntity
  8
001
370
     9
100
AcDbPoint
 10
50.628982
 20
9.762957
 30
0.0
  0
POINT
  5
9F
330
8C
100
AcDbEntity
  8
001
370
     9
100
AcDbPoint
 10
60.021061
 20
9.762957
 30
0.0
  0
ENDBLK
  5
8E
330
8C
100
AcDbEntity
  8
0
100
AcDbBlockEnd
  0
BLOCK
  5
A1
330
A0
100
AcDbEntity
  8
0
100
AcDbBlockBegin
  2
*D4
 70
     1
 10
0.0
 20
0.0
 30
0.0
  3
*D4
  1

  0
LINE
  5
A3
330
A0
100
AcDbEntity
  8
001
370
     9
100
AcDbLine
 10
96.114103
 20
61.516382
 30
0.0
 11
78.063323
 21
61.516382
 31
0.0
  0
LINE
  5
A4
330
A0
100
AcDbEntity
  8
001
370
     9
100
AcDbLine
 10
96.114103
 20
81.516382
 30
0.0
 11
78.063323
 21
81.516382
 31
0.0
  0
LINE
  5
A5
330
A0
100
AcDbEntity
  8
001
370
     9
100
AcDbLine
 10
80.813323
 20
61.516382
 30
0.0
 11
80.813323
 21
81.516382
 31
0.0
  0
POLYLINE
  5
A6
330
A0
100
AcDbEntity
  8
001
370
     9
100
AcDb2dPolyline
 66
     1
 10
0.0
 20
0.0
 30
0.0
  0
VERTEX
  5
A8
330
A6
100
AcDbEntity
  8
001
370
     9
100
AcDbVertex
100
AcDb2dVertex
 10
81.215247
 20
63.016382
 30
0.0
  0
VERTEX
  5
A9
330
A6
100
AcDbEntity
  8
001
370
     9
100
AcDbVertex
100
AcDb2dVertex
 10
80.813323
 20
61.516382
 30
0.0
  0
VERTEX
  5
AA
330
A6
100
AcDbEntity
  8
001
370
     9
100
AcDbVertex
100
AcDb2dVertex
 10
80.411399
 20
63.016382
 30
0.0
  0
SEQEND
  5
A7
330
A6
100
AcDbEntity
  8
001
370
     9
  0
POLYLINE
  5
AB
330
A0
100
AcDbEntity
  8
001
370
     9
100
AcDb2dPolyline
 66
     1
 10
0.0
 20
0.0
 30
0.0
  0
VERTEX
  5
AD
330
AB
100
AcDbEntity
  8
001
370
     9
100
AcDbVertex
100
AcDb2dVertex
 10
80.411399
 20
80.016382
 30
0.0
  0
VERTEX
  5
AE
330
AB
100
AcDbEntity
  8
001
370
     9
100
AcDbVertex
100
AcDb2dVertex
 10
80.813323
 20
81.516382
 30
0.0
  0
VERTEX
  5
AF
330
AB
100
AcDbEntity
  8
001
370
     9
100
AcDbVertex
100
AcDb2dVertex
 10
81.215247
 20
80.016382
 30
0.0
  0
SEQEND
  5
AC
330
AB
100
AcDbEntity
  8
001
370
     9
  0
TEXT
  5
B0
330
A0
100
AcDbEntity
  8
001
370
    30
100
AcDbText
 10
79.813323
 20
65.516382
 30
0.0
 40
4.0
  1
%%c２０
 50
90.000003
 41
0.882353
100
AcDbText
  0
POINT
  5
B1
330
A0
100
AcDbEntity
  8
001
370
     9
100
AcDbPoint
 10
96.114103
 20
61.516382
 30
0.0
  0
POINT
  5
B2
330
A0
100
AcDbEntity
  8
001
370
     9
100
AcDbPoint
 10
96.114103
 20
81.516382
 30
0.0
  0
POINT
  5
B3
330
A0
100
AcDbEntity
  8
001
370
     9
100
AcDbPoint
 10
80.813323
 20
81.516382
 30
0.0
  0
ENDBLK
  5
A2
330
A0
100
AcDbEntity
  8
0
100
AcDbBlockEnd
  0
BLOCK
  5
B5
330
B4
100
AcDbEntity
  8
0
100
AcDbBlockBegin
  2
*D5
 70
     1
 10
0.0
 20
0.0
 30
0.0
  3
*D5
  1

  0
LINE
  5
B7
330
B4
100
AcDbEntity
  8
001
370
     9
100
AcDbLine
 10
109.864103
 20
83.266382
 30
0.0
 11
67.545096
 21
83.266382
 31
0.0
  0
LINE
  5
B8
330
B4
100
AcDbEntity
  8
001
370
     9
100
AcDbLine
 10
109.864103
 20
59.766382
 30
0.0
 11
67.545096
 21
59.766382
 31
0.0
  0
LINE
  5
B9
330
B4
100
AcDbEntity
  8
001
370
     9
100
AcDbLine
 10
70.295096
 20
83.266382
 30
0.0
 11
70.295096
 21
59.766382
 31
0.0
  0
POLYLINE
  5
BA
330
B4
100
AcDbEntity
  8
001
370
     9
100
AcDb2dPolyline
 66
     1
 10
0.0
 20
0.0
 30
0.0
  0
VERTEX
  5
BC
330
BA
100
AcDbEntity
  8
001
370
     9
100
AcDbVertex
100
AcDb2dVertex
 10
70.697019
 20
84.766382
 30
0.0
  0
VERTEX
  5
BD
330
BA
100
AcDbEntity
  8
001
370
     9
100
AcDbVertex
100
AcDb2dVertex
 10
70.295096
 20
83.266382
 30
0.0
  0
VERTEX
  5
BE
330
BA
100
AcDbEntity
  8
001
370
     9
100
AcDbVertex
100
AcDb2dVertex
 10
69.893172
 20
84.766382
 30
0.0
  0
SEQEND
  5
BB
330
BA
100
AcDbEntity
  8
001
370
     9
  0
POLYLINE
  5
BF
330
B4
100
AcDbEntity
  8
001
370
     9
100
AcDb2dPolyline
 66
     1
 10
0.0
 20
0.0
 30
0.0
  0
VERTEX
  5
C1
330
BF
100
AcDbEntity
  8
001
370
     9
100
AcDbVertex
100
AcDb2dVertex
 10
69.893172
 20
58.266382
 30
0.0
  0
VERTEX
  5
C2
330
BF
100
AcDbEntity
  8
001
370
     9
100
AcDbVertex
100
AcDb2dVertex
 10
70.295096
 20
59.766382
 30
0.0
  0
VERTEX
  5
C3
330
BF
100
AcDbEntity
  8
001
370
     9
100
AcDbVertex
100
AcDb2dVertex
 10
70.697019
 20
58.266382
 30
0.0
  0
SEQEND
  5
C0
330
BF
100
AcDbEntity
  8
001
370
     9
  0
TEXT
  5
C4
330
B4
100
AcDbEntity
  8
001
370
    30
100
AcDbText
 10
69.295096
 20
61.516382
 30
0.0
 40
4.0
  1
%%c２３．５
 50
90.000003
 41
0.862069
100
AcDbText
  0
POINT
  5
C5
330
B4
100
AcDbEntity
  8
001
370
     9
100
AcDbPoint
 10
109.864103
 20
83.266382
 30
0.0
  0
POINT
  5
C6
330
B4
100
AcDbEntity
  8
001
370
     9
100
AcDbPoint
 10
109.864103
 20
59.766382
 30
0.0
  0
POINT
  5
C7
330
B4
100
AcDbEntity
  8
001
370
     9
100
AcDbPoint
 10
70.295096
 20
59.766382
 30
0.0
  0
LINE
  5
C8
330
B4
100
AcDbEntity
  8
001
370
     9
100
AcDbLine
 10
70.295096
 20
83.266382
 30
0.0
 11
70.295096
 21
85.766382
 31
0.0
  0
LINE
  5
C9
330
B4
100
AcDbEntity
  8
001
370
     9
100
AcDbLine
 10
70.295096
 20
59.766382
 30
0.0
 11
70.295096
 21
57.266382
 31
0.0
  0
ENDBLK
  5
B6
330
B4
100
AcDbEntity
  8
0
100
AcDbBlockEnd
  0
BLOCK
  5
CB
330
CA
100
AcDbEntity
  8
0
100
AcDbBlockBegin
  2
*D6
 70
     1
 10
0.0
 20
0.0
 30
0.0
  3
*D6
  1

  0
LINE
  5
CD
330
CA
100
AcDbEntity
  8
001
370
     9
100
AcDbLine
 10
111.488421
 20
84.841382
 30
0.0
 11
55.821381
 21
84.841382
 31
0.0
  0
LINE
  5
CE
330
CA
100
AcDbEntity
  8
001
370
     9
100
AcDbLine
 10
111.488421
 20
58.191382
 30
0.0
 11
55.821381
 21
58.191382
 31
0.0
  0
LINE
  5
CF
330
CA
100
AcDbEntity
  8
001
370
     9
100
AcDbLine
 10
58.571381
 20
84.841382
 30
0.0
 11
58.571381
 21
58.191382
 31
0.0
  0
POLYLINE
  5
D0
330
CA
100
AcDbEntity
  8
001
370
     9
100
AcDb2dPolyline
 66
     1
 10
0.0
 20
0.0
 30
0.0
  0
VERTEX
  5
D2
330
D0
100
AcDbEntity
  8
001
370
     9
100
AcDbVertex
100
AcDb2dVertex
 10
58.169457
 20
83.341382
 30
0.0
  0
VERTEX
  5
D3
330
D0
100
AcDbEntity
  8
001
370
     9
100
AcDbVertex
100
AcDb2dVertex
 10
58.571381
 20
84.841382
 30
0.0
  0
VERTEX
  5
D4
330
D0
100
AcDbEntity
  8
001
370
     9
100
AcDbVertex
100
AcDb2dVertex
 10
58.973305
 20
83.341382
 30
0.0
  0
SEQEND
  5
D1
330
D0
100
AcDbEntity
  8
001
370
     9
  0
POLYLINE
  5
D5
330
CA
100
AcDbEntity
  8
001
370
     9
100
AcDb2dPolyline
 66
     1
 10
0.0
 20
0.0
 30
0.0
  0
VERTEX
  5
D7
330
D5
100
AcDbEntity
  8
001
370
     9
100
AcDbVertex
100
AcDb2dVertex
 10
58.973305
 20
59.691382
 30
0.0
  0
VERTEX
  5
D8
330
D5
100
AcDbEntity
  8
001
370
     9
100
AcDbVertex
100
AcDb2dVertex
 10
58.571381
 20
58.191382
 30
0.0
  0
VERTEX
  5
D9
330
D5
100
AcDbEntity
  8
001
370
     9
100
AcDbVertex
100
AcDb2dVertex
 10
58.169457
 20
59.691382
 30
0.0
  0
SEQEND
  5
D6
330
D5
100
AcDbEntity
  8
001
370
     9
  0
TEXT
  5
DA
330
CA
100
AcDbEntity
  8
001
370
    30
100
AcDbText
 10
57.571381
 20
61.516382
 30
0.0
 40
4.0
  1
%%c２６．７
 50
90.000003
 41
0.862069
100
AcDbText
  0
POINT
  5
DB
330
CA
100
AcDbEntity
  8
001
370
     9
100
AcDbPoint
 10
111.488421
 20
84.841382
 30
0.0
  0
POINT
  5
DC
330
CA
100
AcDbEntity
  8
001
370
     9
100
AcDbPoint
 10
111.488421
 20
58.191382
 30
0.0
  0
POINT
  5
DD
330
CA
100
AcDbEntity
  8
001
370
     9
100
AcDbPoint
 10
58.571381
 20
58.191382
 30
0.0
  0
ENDBLK
  5
CC
330
CA
100
AcDbEntity
  8
0
100
AcDbBlockEnd
  0
BLOCK
  5
DF
330
DE
100
AcDbEntity
  8
0
100
AcDbBlockBegin
  2
*D7
 70
     1
 10
0.0
 20
0.0
 30
0.0
  3
*D7
  1

  0
LINE
  5
E1
330
DE
100
AcDbEntity
  8
001
370
     9
100
AcDbLine
 10
135.114103
 20
58.866382
 30
0.0
 11
135.114103
 21
16.460557
 31
0.0
  0
LINE
  5
E2
330
DE
100
AcDbEntity
  8
001
370
     9
100
AcDbLine
 10
95.114103
 20
65.016382
 30
0.0
 11
95.114103
 21
16.460557
 31
0.0
  0
LINE
  5
E3
330
DE
100
AcDbEntity
  8
001
370
     9
100
AcDbLine
 10
135.114103
 20
19.210557
 30
0.0
 11
95.114103
 21
19.210557
 31
0.0
  0
POLYLINE
  5
E4
330
DE
100
AcDbEntity
  8
001
370
     9
100
AcDb2dPolyline
 66
     1
 10
0.0
 20
0.0
 30
0.0
  0
VERTEX
  5
E6
330
E4
100
AcDbEntity
  8
001
370
     9
100
AcDbVertex
100
AcDb2dVertex
 10
133.614103
 20
19.612481
 30
0.0
  0
VERTEX
  5
E7
330
E4
100
AcDbEntity
  8
001
370
     9
100
AcDbVertex
100
AcDb2dVertex
 10
135.114103
 20
19.210557
 30
0.0
  0
VERTEX
  5
E8
330
E4
100
AcDbEntity
  8
001
370
     9
100
AcDbVertex
100
AcDb2dVertex
 10
133.614103
 20
18.808633
 30
0.0
  0
SEQEND
  5
E5
330
E4
100
AcDbEntity
  8
001
370
     9
  0
POLYLINE
  5
E9
330
DE
100
AcDbEntity
  8
001
370
     9
100
AcDb2dPolyline
 66
     1
 10
0.0
 20
0.0
 30
0.0
  0
VERTEX
  5
EB
330
E9
100
AcDbEntity
  8
001
370
     9
100
AcDbVertex
100
AcDb2dVertex
 10
96.614103
 20
18.808633
 30
0.0
  0
VERTEX
  5
EC
330
E9
100
AcDbEntity
  8
001
370
     9
100
AcDbVertex
100
AcDb2dVertex
 10
95.114103
 20
19.210557
 30
0.0
  0
VERTEX
  5
ED
330
E9
100
AcDbEntity
  8
001
370
     9
100
AcDbVertex
100
AcDb2dVertex
 10
96.614103
 20
19.612481
 30
0.0
  0
SEQEND
  5
EA
330
E9
100
AcDbEntity
  8
001
370
     9
  0
TEXT
  5
EE
330
DE
100
AcDbEntity
  8
001
370
    30
100
AcDbText
 10
111.114103
 20
20.210557
 30
0.0
 40
4.0
  1
４０
 41
0.833333
100
AcDbText
  0
POINT
  5
EF
330
DE
100
AcDbEntity
  8
001
370
     9
100
AcDbPoint
 10
135.114103
 20
58.866382
 30
0.0
  0
POINT
  5
F0
330
DE
100
AcDbEntity
  8
001
370
     9
100
AcDbPoint
 10
95.114103
 20
65.016382
 30
0.0
  0
POINT
  5
F1
330
DE
100
AcDbEntity
  8
001
370
     9
100
AcDbPoint
 10
95.114103
 20
19.210557
 30
0.0
  0
ENDBLK
  5
E0
330
DE
100
AcDbEntity
  8
0
100
AcDbBlockEnd
  0
BLOCK
  5
F3
330
F2
100
AcDbEntity
  8
0
100
AcDbBlockBegin
  2
*D8
 70
     1
 10
0.0
 20
0.0
 30
0.0
  3
*D8
  1

  0
LINE
  5
F5
330
F2
100
AcDbEntity
  8
001
370
     9
100
AcDbLine
 10
215.114103
 20
65.016382
 30
0.0
 11
215.114103
 21
16.460557
 31
0.0
  0
LINE
  5
F6
330
F2
100
AcDbEntity
  8
001
370
     9
100
AcDbLine
 10
135.114103
 20
58.866382
 30
0.0
 11
135.114103
 21
16.460557
 31
0.0
  0
LINE
  5
F7
330
F2
100
AcDbEntity
  8
001
370
     9
100
AcDbLine
 10
215.114103
 20
19.210557
 30
0.0
 11
135.114103
 21
19.210557
 31
0.0
  0
POLYLINE
  5
F8
330
F2
100
AcDbEntity
  8
001
370
     9
100
AcDb2dPolyline
 66
     1
 10
0.0
 20
0.0
 30
0.0
  0
VERTEX
  5
FA
330
F8
100
AcDbEntity
  8
001
370
     9
100
AcDbVertex
100
AcDb2dVertex
 10
213.614103
 20
19.612481
 30
0.0
  0
VERTEX
  5
FB
330
F8
100
AcDbEntity
  8
001
370
     9
100
AcDbVertex
100
AcDb2dVertex
 10
215.114103
 20
19.210557
 30
0.0
  0
VERTEX
  5
FC
330
F8
100
AcDbEntity
  8
001
370
     9
100
AcDbVertex
100
AcDb2dVertex
 10
213.614103
 20
18.808633
 30
0.0
  0
SEQEND
  5
F9
330
F8
100
AcDbEntity
  8
001
370
     9
  0
POLYLINE
  5
FD
330
F2
100
AcDbEntity
  8
001
370
     9
100
AcDb2dPolyline
 66
     1
 10
0.0
 20
0.0
 30
0.0
  0
VERTEX
  5
FF
330
FD
100
AcDbEntity
  8
001
370
     9
100
AcDbVertex
100
AcDb2dVertex
 10
136.614103
 20
18.808633
 30
0.0
  0
VERTEX
  5
100
330
FD
100
AcDbEntity
  8
001
370
     9
100
AcDbVertex
100
AcDb2dVertex
 10
135.114103
 20
19.210557
 30
0.0
  0
VERTEX
  5
101
330
FD
100
AcDbEntity
  8
001
370
     9
100
AcDbVertex
100
AcDb2dVertex
 10
136.614103
 20
19.612481
 30
0.0
  0
SEQEND
  5
FE
330
FD
100
AcDbEntity
  8
001
370
     9
  0
TEXT
  5
102
330
F2
100
AcDbEntity
  8
001
370
    30
100
AcDbText
 10
171.114103
 20
20.210557
 30
0.0
 40
4.0
  1
８０
 41
0.833333
100
AcDbText
  0
POINT
  5
103
330
F2
100
AcDbEntity
  8
001
370
     9
100
AcDbPoint
 10
215.114103
 20
65.016382
 30
0.0
  0
POINT
  5
104
330
F2
100
AcDbEntity
  8
001
370
     9
100
AcDbPoint
 10
135.114103
 20
58.866382
 30
0.0
  0
POINT
  5
105
330
F2
100
AcDbEntity
  8
001
370
     9
100
AcDbPoint
 10
135.114103
 20
19.210557
 30
0.0
  0
ENDBLK
  5
F4
330
F2
100
AcDbEntity
  8
0
100
AcDbBlockEnd
  0
BLOCK
  5
107
330
106
100
AcDbEntity
  8
0
100
AcDbBlockBegin
  2
*D9
 70
     1
 10
0.0
 20
0.0
 30
0.0
  3
*D9
  1

  0
LINE
  5
109
330
106
100
AcDbEntity
  8
001
370
     9
100
AcDbLine
 10
215.114103
 20
19.210557
 30
0.0
 11
215.114103
 21
6.668021
 31
0.0
  0
LINE
  5
10A
330
106
100
AcDbEntity
  8
001
370
     9
100
AcDbLine
 10
95.114103
 20
19.210557
 30
0.0
 11
95.114103
 21
6.668021
 31
0.0
  0
LINE
  5
10B
330
106
100
AcDbEntity
  8
001
370
     9
100
AcDbLine
 10
215.114103
 20
9.418021
 30
0.0
 11
95.114103
 21
9.418021
 31
0.0
  0
POLYLINE
  5
10C
330
106
100
AcDbEntity
  8
001
370
     9
100
AcDb2dPolyline
 66
     1
 10
0.0
 20
0.0
 30
0.0
  0
VERTEX
  5
10E
330
10C
100
AcDbEntity
  8
001
370
     9
100
AcDbVertex
100
AcDb2dVertex
 10
213.614103
 20
9.819945
 30
0.0
  0
VERTEX
  5
10F
330
10C
100
AcDbEntity
  8
001
370
     9
100
AcDbVertex
100
AcDb2dVertex
 10
215.114103
 20
9.418021
 30
0.0
  0
VERTEX
  5
110
330
10C
100
AcDbEntity
  8
001
370
     9
100
AcDbVertex
100
AcDb2dVertex
 10
213.614103
 20
9.016097
 30
0.0
  0
SEQEND
  5
10D
330
10C
100
AcDbEntity
  8
001
370
     9
  0
POLYLINE
  5
111
330
106
100
AcDbEntity
  8
001
370
     9
100
AcDb2dPolyline
 66
     1
 10
0.0
 20
0.0
 30
0.0
  0
VERTEX
  5
113
330
111
100
AcDbEntity
  8
001
370
     9
100
AcDbVertex
100
AcDb2dVertex
 10
96.614103
 20
9.016097
 30
0.0
  0
VERTEX
  5
114
330
111
100
AcDbEntity
  8
001
370
     9
100
AcDbVertex
100
AcDb2dVertex
 10
95.114103
 20
9.418021
 30
0.0
  0
VERTEX
  5
115
330
111
100
AcDbEntity
  8
001
370
     9
100
AcDbVertex
100
AcDb2dVertex
 10
96.614103
 20
9.819945
 30
0.0
  0
SEQEND
  5
112
330
111
100
AcDbEntity
  8
001
370
     9
  0
TEXT
  5
116
330
106
100
AcDbEntity
  8
001
370
    30
100
AcDbText
 10
149.114103
 20
10.418021
 30
0.0
 40
4.0
  1
１２０
 41
0.833333
100
AcDbText
  0
POINT
  5
117
330
106
100
AcDbEntity
  8
001
370
     9
100
AcDbPoint
 10
215.114103
 20
19.210557
 30
0.0
  0
POINT
  5
118
330
106
100
AcDbEntity
  8
001
370
     9
100
AcDbPoint
 10
95.114103
 20
19.210557
 30
0.0
  0
POINT
  5
119
330
106
100
AcDbEntity
  8
001
370
     9
100
AcDbPoint
 10
95.114103
 20
9.418021
 30
0.0
  0
ENDBLK
  5
108
330
106
100
AcDbEntity
  8
0
100
AcDbBlockEnd
  0
BLOCK
  5
11B
330
11A
100
AcDbEntity
  8
0
100
AcDbBlockBegin
  2
*D10
 70
     1
 10
0.0
 20
0.0
 30
0.0
  3
*D10
  1

  0
LINE
  5
11D
330
11A
100
AcDbEntity
  8
001
370
     9
100
AcDbLine
 10
209.114103
 20
59.016382
 30
0.0
 11
241.580246
 21
59.016382
 31
0.0
  0
LINE
  5
11E
330
11A
100
AcDbEntity
  8
001
370
     9
100
AcDbLine
 10
209.114103
 20
84.016382
 30
0.0
 11
241.580246
 21
84.016382
 31
0.0
  0
LINE
  5
11F
330
11A
100
AcDbEntity
  8
001
370
     9
100
AcDbLine
 10
238.830246
 20
59.016382
 30
0.0
 11
238.830246
 21
84.016382
 31
0.0
  0
POLYLINE
  5
120
330
11A
100
AcDbEntity
  8
001
370
     9
100
AcDb2dPolyline
 66
     1
 10
0.0
 20
0.0
 30
0.0
  0
VERTEX
  5
122
330
120
100
AcDbEntity
  8
001
370
     9
100
AcDbVertex
100
AcDb2dVertex
 10
239.23217
 20
60.516382
 30
0.0
  0
VERTEX
  5
123
330
120
100
AcDbEntity
  8
001
370
     9
100
AcDbVertex
100
AcDb2dVertex
 10
238.830246
 20
59.016382
 30
0.0
  0
VERTEX
  5
124
330
120
100
AcDbEntity
  8
001
370
     9
100
AcDbVertex
100
AcDb2dVertex
 10
238.428322
 20
60.516382
 30
0.0
  0
SEQEND
  5
121
330
120
100
AcDbEntity
  8
001
370
     9
  0
POLYLINE
  5
125
330
11A
100
AcDbEntity
  8
001
370
     9
100
AcDb2dPolyline
 66
     1
 10
0.0
 20
0.0
 30
0.0
  0
VERTEX
  5
127
330
125
100
AcDbEntity
  8
001
370
     9
100
AcDbVertex
100
AcDb2dVertex
 10
238.428322
 20
82.516382
 30
0.0
  0
VERTEX
  5
128
330
125
100
AcDbEntity
  8
001
370
     9
100
AcDbVertex
100
AcDb2dVertex
 10
238.830246
 20
84.016382
 30
0.0
  0
VERTEX
  5
129
330
125
100
AcDbEntity
  8
001
370
     9
100
AcDbVertex
100
AcDb2dVertex
 10
239.23217
 20
82.516382
 30
0.0
  0
SEQEND
  5
126
330
125
100
AcDbEntity
  8
001
370
     9
  0
TEXT
  5
12A
330
11A
100
AcDbEntity
  8
001
370
    30
100
AcDbText
 10
237.830246
 20
65.516382
 30
0.0
 40
4.0
  1
%%c２５
 50
90.000003
 41
0.882353
100
AcDbText
  0
POINT
  5
12B
330
11A
100
AcDbEntity
  8
001
370
     9
100
AcDbPoint
 10
209.114103
 20
59.016382
 30
0.0
  0
POINT
  5
12C
330
11A
100
AcDbEntity
  8
001
370
     9
100
AcDbPoint
 10
209.114103
 20
84.016382
 30
0.0
  0
POINT
  5
12D
330
11A
100
AcDbEntity
  8
001
370
     9
100
AcDbPoint
 10
238.830246
 20
84.016382
 30
0.0
  0
ENDBLK
  5
11C
330
11A
100
AcDbEntity
  8
0
100
AcDbBlockEnd
  0
BLOCK
  5
12F
330
12E
100
AcDbEntity
  8
0
100
AcDbBlockBegin
  2
*D11
 70
     1
 10
0.0
 20
0.0
 30
0.0
  3
*D11
  1

  0
LINE
  5
131
330
12E
100
AcDbEntity
  8
001
370
     9
100
AcDbLine
 10
96.114103
 20
64.016382
 30
0.0
 11
145.591593
 21
14.538892
 31
0.0
  0
ARC
  5
132
330
12E
100
AcDbEntity
  8
001
370
     9
100
AcDbCircle
 10
88.614103
 20
71.516382
 30
0.0
 40
77.82833835534981
100
AcDbArc
 50
315.0
 51
0.0
  0
POLYLINE
  5
133
330
12E
100
AcDbEntity
  8
001
370
     9
100
AcDb2dPolyline
 66
     1
 10
0.0
 20
0.0
 30
0.0
  0
VERTEX
  5
135
330
133
100
AcDbEntity
  8
001
370
     9
100
AcDbVertex
100
AcDb2dVertex
 10
166.026082
 20
70.020325
 30
0.0
  0
VERTEX
  5
136
330
133
100
AcDbEntity
  8
001
370
     9
100
AcDbVertex
100
AcDb2dVertex
 10
166.442442
 20
71.516382
 30
0.0
  0
VERTEX
  5
137
330
133
100
AcDbEntity
  8
001
370
     9
100
AcDbVertex
100
AcDb2dVertex
 10
166.829892
 20
70.012578
 30
0.0
  0
SEQEND
  5
134
330
133
100
AcDbEntity
  8
001
370
     9
  0
POLYLINE
  5
138
330
12E
100
AcDbEntity
  8
001
370
     9
100
AcDb2dPolyline
 66
     1
 10
0.0
 20
0.0
 30
0.0
  0
VERTEX
  5
13A
330
138
100
AcDbEntity
  8
001
370
     9
100
AcDbVertex
100
AcDb2dVertex
 10
144.984368
 20
17.272817
 30
0.0
  0
VERTEX
  5
13B
330
138
100
AcDbEntity
  8
001
370
     9
100
AcDbVertex
100
AcDb2dVertex
 10
143.647049
 20
16.483436
 30
0.0
  0
VERTEX
  5
13C
330
138
100
AcDbEntity
  8
001
370
     9
100
AcDbVertex
100
AcDb2dVertex
 10
144.410511
 20
17.835719
 30
0.0
  0
SEQEND
  5
139
330
138
100
AcDbEntity
  8
001
370
     9
  0
TEXT
  5
13D
330
12E
100
AcDbEntity
  8
001
370
    30
100
AcDbText
 10
157.298132
 20
36.572172
 30
0.0
 40
4.0
  1
４５%%d
 50
67.5
 41
0.978261
100
AcDbText
  0
POINT
  5
13E
330
12E
100
AcDbEntity
  8
001
370
     9
100
AcDbPoint
 10
94.049387
 20
71.516382
 30
0.0
  0
POINT
  5
13F
330
12E
100
AcDbEntity
  8
001
370
     9
100
AcDbPoint
 10
88.614103
 20
71.516382
 30
0.0
  0
POINT
  5
140
330
12E
100
AcDbEntity
  8
001
370
     9
100
AcDbPoint
 10
88.614103
 20
71.516382
 30
0.0
  0
POINT
  5
141
330
12E
100
AcDbEntity
  8
001
370
     9
100
AcDbPoint
 10
96.114103
 20
64.016382
 30
0.0
  0
ENDBLK
  5
130
330
12E
100
AcDbEntity
  8
0
100
AcDbBlockEnd
  0
BLOCK
  5
143
330
142
100
AcDbEntity
  8
0
100
AcDbBlockBegin
  2
*D12
 70
     1
 10
0.0
 20
0.0
 30
0.0
  3
*D12
  1

  0
LINE
  5
145
330
142
100
AcDbEntity
  8
001
370
     9
100
AcDbLine
 10
109.864103
 20
59.766382
 30
0.0
 11
141.514969
 21
28.115516
 31
0.0
  0
ARC
  5
146
330
142
100
AcDbEntity
  8
001
370
     9
100
AcDbCircle
 10
98.114103
 20
71.516382
 30
0.0
 40
58.62809293815675
100
AcDbArc
 50
315.0
 51
0.0
  0
POLYLINE
  5
147
330
142
100
AcDbEntity
  8
001
370
     9
100
AcDb2dPolyline
 66
     1
 10
0.0
 20
0.0
 30
0.0
  0
VERTEX
  5
149
330
147
100
AcDbEntity
  8
001
370
     9
100
AcDbVertex
100
AcDb2dVertex
 10
156.321117
 20
70.021646
 30
0.0
  0
VERTEX
  5
14A
330
147
100
AcDbEntity
  8
001
370
     9
100
AcDbVertex
100
AcDb2dVertex
 10
156.742196
 20
71.516382
 30
0.0
  0
VERTEX
  5
14B
330
147
100
AcDbEntity
  8
001
370
     9
100
AcDbVertex
100
AcDb2dVertex
 10
157.124899
 20
70.011363
 30
0.0
  0
SEQEND
  5
148
330
147
100
AcDbEntity
  8
001
370
     9
  0
POLYLINE
  5
14C
330
142
100
AcDbEntity
  8
001
370
     9
100
AcDb2dPolyline
 66
     1
 10
0.0
 20
0.0
 30
0.0
  0
VERTEX
  5
14E
330
14C
100
AcDbEntity
  8
001
370
     9
100
AcDbVertex
100
AcDb2dVertex
 10
140.905246
 20
30.853657
 30
0.0
  0
VERTEX
  5
14F
330
14C
100
AcDbEntity
  8
001
370
     9
100
AcDbVertex
100
AcDb2dVertex
 10
139.570425
 20
30.06006
 30
0.0
  0
VERTEX
  5
150
330
14C
100
AcDbEntity
  8
001
370
     9
100
AcDbVertex
100
AcDb2dVertex
 10
140.329615
 20
31.414745
 30
0.0
  0
SEQEND
  5
14D
330
14C
100
AcDbEntity
  8
001
370
     9
  0
TEXT
  5
151
330
142
100
AcDbEntity
  8
001
370
    30
100
AcDbText
 10
146.449068
 20
39.567543
 30
0.0
 40
4.0
  1
４５%%d
 50
62.47975
 41
0.978261
100
AcDbText
  0
POINT
  5
152
330
142
100
AcDbEntity
  8
001
370
     9
100
AcDbPoint
 10
94.049387
 20
71.516382
 30
0.0
  0
POINT
  5
153
330
142
100
AcDbEntity
  8
001
370
     9
100
AcDbPoint
 10
98.114103
 20
71.516382
 30
0.0
  0
POINT
  5
154
330
142
100
AcDbEntity
  8
001
370
     9
100
AcDbPoint
 10
98.114103
 20
71.516382
 30
0.0
  0
POINT
  5
155
330
142
100
AcDbEntity
  8
001
370
     9
100
AcDbPoint
 10
109.864103
 20
59.766382
 30
0.0
  0
ENDBLK
  5
144
330
142
100
AcDbEntity
  8
0
100
AcDbBlockEnd
  0
BLOCK
  5
157
330
156
100
AcDbEntity
  8
0
100
AcDbBlockBegin
  2
*D13
 70
     1
 10
0.0
 20
0.0
 30
0.0
  3
*D13
  1

  0
LINE
  5
159
330
156
100
AcDbEntity
  8
001
370
     9
100
AcDbLine
 10
96.114103
 20
61.913143
 30
0.0
 11
96.114103
 21
26.063268
 31
0.0
  0
LINE
  5
15A
330
156
100
AcDbEntity
  8
001
370
     9
100
AcDbLine
 10
96.114103
 20
28.813268
 30
0.0
 11
95.114103
 21
28.813268
 31
0.0
  0
POLYLINE
  5
15B
330
156
100
AcDbEntity
  8
001
370
     9
100
AcDb2dPolyline
 66
     1
 10
0.0
 20
0.0
 30
0.0
  0
VERTEX
  5
15D
330
15B
100
AcDbEntity
  8
001
370
     9
100
AcDbVertex
100
AcDb2dVertex
 10
97.614103
 20
28.411344
 30
0.0
  0
VERTEX
  5
15E
330
15B
100
AcDbEntity
  8
001
370
     9
100
AcDbVertex
100
AcDb2dVertex
 10
96.114103
 20
28.813268
 30
0.0
  0
VERTEX
  5
15F
330
15B
100
AcDbEntity
  8
001
370
     9
100
AcDbVertex
100
AcDb2dVertex
 10
97.614103
 20
29.215191
 30
0.0
  0
SEQEND
  5
15C
330
15B
100
AcDbEntity
  8
001
370
     9
  0
POLYLINE
  5
160
330
156
100
AcDbEntity
  8
001
370
     9
100
AcDb2dPolyline
 66
     1
 10
0.0
 20
0.0
 30
0.0
  0
VERTEX
  5
162
330
160
100
AcDbEntity
  8
001
370
     9
100
AcDbVertex
100
AcDb2dVertex
 10
93.614103
 20
29.215191
 30
0.0
  0
VERTEX
  5
163
330
160
100
AcDbEntity
  8
001
370
     9
100
AcDbVertex
100
AcDb2dVertex
 10
95.114103
 20
28.813268
 30
0.0
  0
VERTEX
  5
164
330
160
100
AcDbEntity
  8
001
370
     9
100
AcDbVertex
100
AcDb2dVertex
 10
93.614103
 20
28.411344
 30
0.0
  0
SEQEND
  5
161
330
160
100
AcDbEntity
  8
001
370
     9
  0
TEXT
  5
165
330
156
100
AcDbEntity
  8
001
370
    30
100
AcDbText
 10
87.614103
 20
29.813268
 30
0.0
 40
4.0
  1
１
 41
0.833333
100
AcDbText
  0
POINT
  5
166
330
156
100
AcDbEntity
  8
001
370
     9
100
AcDbPoint
 10
96.114103
 20
61.913143
 30
0.0
  0
POINT
  5
167
330
156
100
AcDbEntity
  8
001
370
     9
100
AcDbPoint
 10
95.114103
 20
31.563268
 30
0.0
  0
POINT
  5
168
330
156
100
AcDbEntity
  8
001
370
     9
100
AcDbPoint
 10
95.114103
 20
28.813268
 30
0.0
  0
LINE
  5
169
330
156
100
AcDbEntity
  8
001
370
     9
100
AcDbLine
 10
96.114103
 20
28.813268
 30
0.0
 11
98.614103
 21
28.813268
 31
0.0
  0
LINE
  5
16A
330
156
100
AcDbEntity
  8
001
370
     9
100
AcDbLine
 10
95.114103
 20
28.813268
 30
0.0
 11
84.614103
 21
28.813268
 31
0.0
  0
ENDBLK
  5
158
330
156
100
AcDbEntity
  8
0
100
AcDbBlockEnd
  0
BLOCK
  5
16C
330
16B
100
AcDbEntity
  8
0
100
AcDbBlockBegin
  2
*D14
 70
     1
 10
0.0
 20
0.0
 30
0.0
  3
*D14
  1

  0
LINE
  5
16E
330
16B
100
AcDbEntity
  8
001
370
     9
100
AcDbLine
 10
109.114103
 20
56.516382
 30
0.0
 11
109.114103
 21
26.063268
 31
0.0
  0
LINE
  5
16F
330
16B
100
AcDbEntity
  8
001
370
     9
100
AcDbLine
 10
96.114103
 20
61.913143
 30
0.0
 11
96.114103
 21
26.063268
 31
0.0
  0
LINE
  5
170
330
16B
100
AcDbEntity
  8
001
370
     9
100
AcDbLine
 10
109.114103
 20
28.813268
 30
0.0
 11
96.114103
 21
28.813268
 31
0.0
  0
POLYLINE
  5
171
330
16B
100
AcDbEntity
  8
001
370
     9
100
AcDb2dPolyline
 66
     1
 10
0.0
 20
0.0
 30
0.0
  0
VERTEX
  5
173
330
171
100
AcDbEntity
  8
001
370
     9
100
AcDbVertex
100
AcDb2dVertex
 10
107.614103
 20
29.215191
 30
0.0
  0
VERTEX
  5
174
330
171
100
AcDbEntity
  8
001
370
     9
100
AcDbVertex
100
AcDb2dVertex
 10
109.114103
 20
28.813268
 30
0.0
  0
VERTEX
  5
175
330
171
100
AcDbEntity
  8
001
370
     9
100
AcDbVertex
100
AcDb2dVertex
 10
107.614103
 20
28.411344
 30
0.0
  0
SEQEND
  5
172
330
171
100
AcDbEntity
  8
001
370
     9
  0
POLYLINE
  5
176
330
16B
100
AcDbEntity
  8
001
370
     9
100
AcDb2dPolyline
 66
     1
 10
0.0
 20
0.0
 30
0.0
  0
VERTEX
  5
178
330
176
100
AcDbEntity
  8
001
370
     9
100
AcDbVertex
100
AcDb2dVertex
 10
97.614103
 20
28.411344
 30
0.0
  0
VERTEX
  5
179
330
176
100
AcDbEntity
  8
001
370
     9
100
AcDbVertex
100
AcDb2dVertex
 10
96.114103
 20
28.813268
 30
0.0
  0
VERTEX
  5
17A
330
176
100
AcDbEntity
  8
001
370
     9
100
AcDbVertex
100
AcDb2dVertex
 10
97.614103
 20
29.215191
 30
0.0
  0
SEQEND
  5
177
330
176
100
AcDbEntity
  8
001
370
     9
  0
TEXT
  5
17B
330
16B
100
AcDbEntity
  8
001
370
    30
100
AcDbText
 10
98.614103
 20
29.813268
 30
0.0
 40
4.0
  1
１３
 41
0.833333
100
AcDbText
  0
POINT
  5
17C
330
16B
100
AcDbEntity
  8
001
370
     9
100
AcDbPoint
 10
109.114103
 20
56.516382
 30
0.0
  0
POINT
  5
17D
330
16B
100
AcDbEntity
  8
001
370
     9
100
AcDbPoint
 10
96.114103
 20
61.913143
 30
0.0
  0
POINT
  5
17E
330
16B
100
AcDbEntity
  8
001
370
     9
100
AcDbPoint
 10
96.114103
 20
28.813268
 30
0.0
  0
ENDBLK
  5
16D
330
16B
100
AcDbEntity
  8
0
100
AcDbBlockEnd
  0
ENDSEC
  0
SECTION
  2
ENTITIES
  0
DIMENSION
  5
17F
330
1F
100
AcDbEntity
  8
001
370
     9
100
AcDbDimension
  2
*D1
 10
33.628982
 20
-5.281956
 30
0.0
 11
40.628982
 21
-3.56767
 31
0.0
 70
   160
 71
     5
 42
-1.0
  3
Standard
100
AcDbAlignedDimension
 13
47.628982
 23
0.762957
 33
0.0
 14
33.628982
 24
0.762957
 34
0.0
 50
180.0
100
AcDbRotatedDimension
  0
DIMENSION
  5
180
330
1F
100
AcDbEntity
  8
001
370
     9
100
AcDbDimension
  2
*D2
 10
30.628982
 20
34.48981
 30
0.0
 11
40.628982
 21
36.204096
 31
0.0
 70
   160
 71
     5
 42
-1.0
  3
Standard
100
AcDbAlignedDimension
 13
50.628982
 23
21.762957
 33
0.0
 14
30.628982
 24
21.762957
 34
0.0
 50
180.0
100
AcDbRotatedDimension
  0
DIMENSION
  5
181
330
1F
100
AcDbEntity
  8
001
370
     9
100
AcDbDimension
  2
*D3
 10
60.021061
 20
9.762957
 30
0.0
 11
58.306775
 21
16.262957
 31
0.0
 70
   160
 71
     5
 42
-1.0
  3
Standard
100
AcDbAlignedDimension
 13
55.628982
 23
22.762957
 33
0.0
 14
50.628982
 24
9.762957
 34
0.0
 50
270.0
100
AcDbRotatedDimension
  0
TEXT
  5
182
330
1F
100
AcDbEntity
  8
001
370
    30
100
AcDbText
 10
41.915779
 20
32.284282
 30
0.0
 40
2.285714
  1
Ｃ１
 50
314.999992
 41
0.833333
100
AcDbText
  0
POLYLINE
  5
183
330
1F
100
AcDbEntity
  8
001
370
     9
100
AcDb2dPolyline
 66
     1
 10
0.0
 20
0.0
 30
0.0
  0
VERTEX
  5
185
330
183
100
AcDbEntity
  8
001
370
     9
100
AcDbVertex
100
AcDb2dVertex
 10
50.685292
 20
23.03145
 30
0.0
  0
VERTEX
  5
186
330
183
100
AcDbEntity
  8
001
370
     9
100
AcDbVertex
100
AcDb2dVertex
 10
51.128982
 20
22.262957
 30
0.0
  0
VERTEX
  5
187
330
183
100
AcDbEntity
  8
001
370
     9
100
AcDbVertex
100
AcDb2dVertex
 10
50.360489
 20
22.706647
 30
0.0
  0
SEQEND
  5
184
330
183
100
AcDbEntity
  8
001
370
     9
  0
LINE
  5
188
330
1F
100
AcDbEntity
  8
001
370
     9
100
AcDbLine
 10
51.128982
 20
22.262957
 30
0.0
 11
40.299535
 21
33.092404
 31
0.0
  0
TEXT
  5
189
330
1F
100
AcDbEntity
  8
001
370
    30
100
AcDbText
 10
25.819492
 20
32.380569
 30
0.0
 40
2.285714
  1
Ｃ０．５
 50
314.999992
 41
0.833333
100
AcDbText
  0
POLYLINE
  5
18A
330
1F
100
AcDbEntity
  8
001
370
     9
100
AcDb2dPolyline
 66
     1
 10
0.0
 20
0.0
 30
0.0
  0
VERTEX
  5
18C
330
18A
100
AcDbEntity
  8
001
370
     9
100
AcDbVertex
100
AcDb2dVertex
 10
47.435292
 20
10.28145
 30
0.0
  0
VERTEX
  5
18D
330
18A
100
AcDbEntity
  8
001
370
     9
100
AcDbVertex
100
AcDb2dVertex
 10
47.878982
 20
9.512957
 30
0.0
  0
VERTEX
  5
18E
330
18A
100
AcDbEntity
  8
001
370
     9
100
AcDbVertex
100
AcDb2dVertex
 10
47.110489
 20
9.956647
 30
0.0
  0
SEQEND
  5
18B
330
18A
100
AcDbEntity
  8
001
370
     9
  0
LINE
  5
18F
330
1F
100
AcDbEntity
  8
001
370
     9
100
AcDbLine
 10
47.878982
 20
9.512957
 30
0.0
 11
24.203248
 21
33.188691
 31
0.0
  0
DIMENSION
  5
190
330
1F
100
AcDbEntity
  8
001
370
     9
100
AcDbDimension
  2
*D4
 10
80.813323
 20
81.516382
 30
0.0
 11
77.813323
 21
71.516382
 31
0.0
 70
   160
 71
     5
 42
-1.0
  3
Standard
100
AcDbAlignedDimension
 13
96.114103
 23
61.516382
 33
0.0
 14
96.114103
 24
81.516382
 34
0.0
 50
90.0
100
AcDbRotatedDimension
  0
DIMENSION
  5
191
330
1F
100
AcDbEntity
  8
001
370
     9
100
AcDbDimension
  2
*D5
 10
70.295096
 20
59.766382
 30
0.0
 11
67.295095
 21
71.516382
 31
0.0
 70
   160
 71
     5
 42
-1.0
  3
Standard
100
AcDbAlignedDimension
 13
109.864103
 23
83.266382
 33
0.0
 14
109.864103
 24
59.766382
 34
0.0
 50
270.0
100
AcDbRotatedDimension
  0
DIMENSION
  5
192
330
1F
100
AcDbEntity
  8
001
370
     9
100
AcDbDimension
  2
*D6
 10
58.571381
 20
58.191382
 30
0.0
 11
55.571381
 21
71.516382
 31
0.0
 70
   160
 71
     5
 42
-1.0
  3
Standard
100
AcDbAlignedDimension
 13
111.488421
 23
84.841382
 33
0.0
 14
111.488421
 24
58.191382
 34
0.0
 50
270.0
100
AcDbRotatedDimension
  0
DIMENSION
  5
193
330
1F
100
AcDbEntity
  8
001
370
     9
100
AcDbDimension
  2
*D7
 10
95.114103
 20
19.210557
 30
0.0
 11
115.114103
 21
22.210557
 31
0.0
 70
   160
 71
     5
 42
-1.0
  3
Standard
100
AcDbAlignedDimension
 13
135.114103
 23
58.866382
 33
0.0
 14
95.114103
 24
65.016382
 34
0.0
 50
180.0
100
AcDbRotatedDimension
  0
DIMENSION
  5
194
330
1F
100
AcDbEntity
  8
001
370
     9
100
AcDbDimension
  2
*D8
 10
135.114103
 20
19.210557
 30
0.0
 11
175.114103
 21
22.210557
 31
0.0
 70
   160
 71
     5
 42
-1.0
  3
Standard
100
AcDbAlignedDimension
 13
215.114103
 23
65.016382
 33
0.0
 14
135.114103
 24
58.866382
 34
0.0
 50
180.0
100
AcDbRotatedDimension
  0
DIMENSION
  5
195
330
1F
100
AcDbEntity
  8
001
370
     9
100
AcDbDimension
  2
*D9
 10
95.114103
 20
9.418021
 30
0.0
 11
155.114103
 21
12.418021
 31
0.0
 70
   160
 71
     5
 42
-1.0
  3
Standard
100
AcDbAlignedDimension
 13
215.114103
 23
19.210557
 33
0.0
 14
95.114103
 24
19.210557
 34
0.0
 50
180.0
100
AcDbRotatedDimension
  0
DIMENSION
  5
196
330
1F
100
AcDbEntity
  8
001
370
     9
100
AcDbDimension
  2
*D10
 10
238.830246
 20
84.016382
 30
0.0
 11
235.830246
 21
71.516382
 31
0.0
 70
   160
 71
     5
 42
-1.0
  3
Standard
100
AcDbAlignedDimension
 13
209.114103
 23
59.016382
 33
0.0
 14
209.114103
 24
84.016382
 34
0.0
 50
90.0
100
AcDbRotatedDimension
  0
DIMENSION
  5
197
330
1F
100
AcDbEntity
  8
001
370
     9
100
AcDbDimension
  2
*D11
 10
88.614103
 20
71.516382
 30
0.0
 11
157.746474
 21
42.880816
 31
0.0
 70
    34
 71
     5
 42
-1.0
  3
Standard
100
AcDb2LineAngularDimension
 13
94.049387
 23
71.516382
 33
0.0
 14
88.614103
 24
71.516382
 34
0.0
 15
96.114103
 25
64.016382
 35
0.0
 16
160.518112
 26
41.732766
 36
0.0
  0
DIMENSION
  5
198
330
1F
100
AcDbEntity
  8
001
370
     9
100
AcDbDimension
  2
*D12
 10
98.114103
 20
71.516382
 30
0.0
 11
147.447745
 21
45.812752
 31
0.0
 70
    34
 71
     5
 42
-1.0
  3
Standard
100
AcDb2LineAngularDimension
 13
94.049387
 23
71.516382
 33
0.0
 14
98.114103
 24
71.516382
 34
0.0
 15
109.864103
 25
59.766382
 35
0.0
 16
152.279398
 26
49.080382
 36
0.0
  0
DIMENSION
  5
199
330
1F
100
AcDbEntity
  8
001
370
     9
100
AcDbDimension
  2
*D13
 10
95.114103
 20
28.813268
 30
0.0
 11
89.614103
 21
31.813268
 31
0.0
 70
   160
 71
     5
 42
-1.0
  3
Standard
100
AcDbAlignedDimension
 13
96.114103
 23
61.913143
 33
0.0
 14
95.114103
 24
31.563268
 34
0.0
 50
180.0
100
AcDbRotatedDimension
  0
DIMENSION
  5
19A
330
1F
100
AcDbEntity
  8
001
370
     9
100
AcDbDimension
  2
*D14
 10
96.114103
 20
28.813268
 30
0.0
 11
102.614103
 21
31.813268
 31
0.0
 70
   160
 71
     5
 42
-1.0
  3
Standard
100
AcDbAlignedDimension
 13
109.114103
 23
56.516382
 33
0.0
 14
96.114103
 24
61.913143
 34
0.0
 50
180.0
100
AcDbRotatedDimension
  0
TEXT
  5
19B
330
1F
100
AcDbEntity
  8
001
370
    30
100
AcDbText
 10
43.126488
 20
106.489797
 30
0.0
 40
10.0
  1
イーグルカット　ＥＣ２５－２０ＸＳ－Ｍ１２
 41
0.833333
100
AcDbText
  0
CIRCLE
  5
19C
330
1F
100
AcDbEntity
  8
001
370
    50
100
AcDbCircle
 10
99.01357
 20
65.564206
 30
0.0
 40
1.9
  0
LINE
  5
19D
330
1F
100
AcDbEntity
  8
001
370
    50
100
AcDbLine
 10
99.446583
 20
66.314206
 30
0.0
 11
99.186775
 21
66.764206
 31
0.0
  0
LINE
  5
19E
330
1F
100
AcDbEntity
  8
001
370
    50
100
AcDbLine
 10
98.580557
 20
66.314206
 30
0.0
 11
98.840365
 21
66.764206
 31
0.0
  0
ARC
  5
19F
330
1F
100
AcDbEntity
  8
001
370
    50
100
AcDbCircle
 10
99.01357
 20
66.664206
 30
0.0
 40
0.2
100
AcDbArc
 50
30.0
 51
150.0
  0
LINE
  5
1A0
330
1F
100
AcDbEntity
  8
001
370
    50
100
AcDbLine
 10
98.580557
 20
66.314206
 30
0.0
 11
98.060942
 21
66.314206
 31
0.0
  0
LINE
  5
1A1
330
1F
100
AcDbEntity
  8
001
370
    50
100
AcDbLine
 10
98.147545
 20
65.564206
 30
0.0
 11
97.887737
 21
66.014206
 31
0.0
  0
ARC
  5
1A2
330
1F
100
AcDbEntity
  8
001
370
    50
100
AcDbCircle
 10
98.060942
 20
66.114206
 30
0.0
 40
0.2
100
AcDbArc
 50
90.0
 51
210.0
  0
LINE
  5
1A3
330
1F
100
AcDbEntity
  8
001
370
    50
100
AcDbLine
 10
98.147545
 20
65.564206
 30
0.0
 11
97.887737
 21
65.114206
 31
0.0
  0
LINE
  5
1A4
330
1F
100
AcDbEntity
  8
001
370
    50
100
AcDbLine
 10
98.580557
 20
64.814206
 30
0.0
 11
98.060942
 21
64.814206
 31
0.0
  0
ARC
  5
1A5
330
1F
100
AcDbEntity
  8
001
370
    50
100
AcDbCircle
 10
98.060942
 20
65.014206
 30
0.0
 40
0.2
100
AcDbArc
 50
150.0
 51
270.0
  0
LINE
  5
1A6
330
1F
100
AcDbEntity
  8
001
370
    50
100
AcDbLine
 10
98.580557
 20
64.814206
 30
0.0
 11
98.840365
 21
64.364206
 31
0.0
  0
LINE
  5
1A7
330
1F
100
AcDbEntity
  8
001
370
    50
100
AcDbLine
 10
99.446583
 20
64.814206
 30
0.0
 11
99.186775
 21
64.364206
 31
0.0
  0
ARC
  5
1A8
330
1F
100
AcDbEntity
  8
001
370
    50
100
AcDbCircle
 10
99.01357
 20
64.464206
 30
0.0
 40
0.2
100
AcDbArc
 50
210.0
 51
330.0
  0
LINE
  5
1A9
330
1F
100
AcDbEntity
  8
001
370
    50
100
AcDbLine
 10
99.446583
 20
64.814206
 30
0.0
 11
99.966198
 21
64.814206
 31
0.0
  0
LINE
  5
1AA
330
1F
100
AcDbEntity
  8
001
370
    50
100
AcDbLine
 10
99.879595
 20
65.564206
 30
0.0
 11
100.139403
 21
65.114206
 31
0.0
  0
ARC
  5
1AB
330
1F
100
AcDbEntity
  8
001
370
    50
100
AcDbCircle
 10
99.966198
 20
65.014206
 30
0.0
 40
0.2
100
AcDbArc
 50
270.0
 51
30.0
  0
LINE
  5
1AC
330
1F
100
AcDbEntity
  8
001
370
    50
100
AcDbLine
 10
99.879595
 20
65.564206
 30
0.0
 11
100.139403
 21
66.014206
 31
0.0
  0
LINE
  5
1AD
330
1F
100
AcDbEntity
  8
001
370
    50
100
AcDbLine
 10
99.446583
 20
66.314206
 30
0.0
 11
99.966198
 21
66.314206
 31
0.0
  0
ARC
  5
1AE
330
1F
100
AcDbEntity
  8
001
370
    50
100
AcDbCircle
 10
99.966198
 20
66.114206
 30
0.0
 40
0.2
100
AcDbArc
 50
330.0
 51
90.0
  0
LINE
  5
1AF
330
1F
100
AcDbEntity
  8
001
370
    50
100
AcDbLine
 10
50.628982
 20
21.762957
 30
0.0
 11
50.628982
 21
9.762957
 31
0.0
  0
LINE
  5
1B0
330
1F
100
AcDbEntity
  8
001
370
    50
100
AcDbLine
 10
30.628982
 20
21.762957
 30
0.0
 11
30.628982
 21
9.762957
 31
0.0
  0
LINE
  5
1B1
330
1F
100
AcDbEntity
  8
001
370
    50
100
AcDbLine
 10
25.628982
 20
22.762957
 30
0.0
 11
55.628982
 21
22.762957
 31
0.0
  0
LINE
  5
1B2
330
1F
100
AcDbEntity
  8
001
370
    50
100
AcDbLine
 10
30.628982
 20
9.762957
 30
0.0
 11
50.628982
 21
9.762957
 31
0.0
  0
LINE
  5
1B3
330
1F
100
AcDbEntity
  8
001
370
    50
100
AcDbLine
 10
55.628982
 20
0.762957
 30
0.0
 11
25.628982
 21
0.762957
 31
0.0
  0
LINE
  5
1B4
330
1F
100
AcDbEntity
  8
001
370
    50
100
AcDbLine
 10
47.628982
 20
9.262957
 30
0.0
 11
47.628982
 21
0.762957
 31
0.0
  0
LINE
  5
1B5
330
1F
100
AcDbEntity
  8
001
370
    50
100
AcDbLine
 10
33.628982
 20
9.262957
 30
0.0
 11
33.628982
 21
0.762957
 31
0.0
  0
LINE
  5
1B6
330
1F
100
AcDbEntity
  8
001
  6
CENTER
370
     9
100
AcDbLine
 10
40.628982
 20
24.269622
 30
0.0
 11
40.628982
 21
-1.111896
 31
0.0
  0
LINE
  5
1B7
330
1F
100
AcDbEntity
  8
001
370
    50
100
AcDbLine
 10
30.628982
 20
21.762957
 30
0.0
 11
29.628982
 21
22.762957
 31
0.0
  0
LINE
  5
1B8
330
1F
100
AcDbEntity
  8
001
370
    50
100
AcDbLine
 10
47.628982
 20
9.262957
 30
0.0
 11
48.128982
 21
9.762957
 31
0.0
  0
LINE
  5
1B9
330
1F
100
AcDbEntity
  8
001
370
    50
100
AcDbLine
 10
33.628982
 20
9.262957
 30
0.0
 11
33.128982
 21
9.762957
 31
0.0
  0
LINE
  5
1BA
330
1F
100
AcDbEntity
  8
001
370
    50
100
AcDbLine
 10
30.628982
 20
21.762957
 30
0.0
 11
50.628982
 21
21.762957
 31
0.0
  0
LINE
  5
1BB
330
1F
100
AcDbEntity
  8
001
370
    50
100
AcDbLine
 10
33.628982
 20
9.262957
 30
0.0
 11
47.628982
 21
9.262957
 31
0.0
  0
LINE
  5
1BC
330
1F
100
AcDbEntity
  8
001
370
    50
100
AcDbLine
 10
50.628982
 20
21.762957
 30
0.0
 11
51.628982
 21
22.762957
 31
0.0
  0
LINE
  5
1BD
330
1F
100
AcDbEntity
  8
001
370
     9
100
AcDbLine
 10
46.198561
 20
-10.852903
 30
0.0
 11
36.347383
 21
-10.852903
 31
0.0
  0
LINE
  5
1BE
330
1F
100
AcDbEntity
  8
001
370
    50
100
AcDbLine
 10
99.407218
 20
61.516382
 30
0.0
 11
100.502133
 21
62.610478
 31
0.0
  0
LINE
  5
1BF
330
1F
100
AcDbEntity
  8
001
370
    50
100
AcDbLine
 10
99.407218
 20
61.516382
 30
0.0
 11
96.505072
 21
61.516382
 31
0.0
  0
LINE
  5
1C0
330
1F
100
AcDbEntity
  8
001
370
    50
100
AcDbLine
 10
96.114103
 20
61.913143
 30
0.0
 11
96.114103
 21
64.016382
 31
0.0
  0
LINE
  5
1C1
330
1F
100
AcDbEntity
  8
001
370
    50
100
AcDbLine
 10
95.114103
 20
65.016382
 30
0.0
 11
95.114103
 21
68.120624
 31
0.0
  0
POLYLINE
  5
1C2
330
1F
100
AcDbEntity
  8
001
370
    50
100
AcDb2dPolyline
 66
     1
 10
0.0
 20
0.0
 30
0.0
  0
VERTEX
  5
1C4
330
1C2
100
AcDbEntity
  8
001
370
    50
100
AcDbVertex
100
AcDb2dVertex
 10
95.505072
 20
68.517624
 30
0.0
  0
VERTEX
  5
1C5
330
1C2
100
AcDbEntity
  8
001
370
    50
100
AcDbVertex
100
AcDb2dVertex
 10
95.47284
 20
68.51571
 30
0.0
  0
VERTEX
  5
1C6
330
1C2
100
AcDbEntity
  8
001
370
    50
100
AcDbVertex
100
AcDb2dVertex
 10
95.428797
 20
68.509995
 30
0.0
  0
VERTEX
  5
1C7
330
1C2
100
AcDbEntity
  8
001
370
    50
100
AcDbVertex
100
AcDb2dVertex
 10
95.389928
 20
68.50052
 30
0.0
  0
VERTEX
  5
1C8
330
1C2
100
AcDbEntity
  8
001
370
    50
100
AcDbVertex
100
AcDb2dVertex
 10
95.355454
 20
68.487404
 30
0.0
  0
VERTEX
  5
1C9
330
1C2
100
AcDbEntity
  8
001
370
    50
100
AcDbVertex
100
AcDb2dVertex
 10
95.32119
 20
68.470742
 30
0.0
  0
VERTEX
  5
1CA
330
1C2
100
AcDbEntity
  8
001
370
    50
100
AcDbVertex
100
AcDb2dVertex
 10
95.287861
 20
68.450717
 30
0.0
  0
VERTEX
  5
1CB
330
1C2
100
AcDbEntity
  8
001
370
    50
100
AcDbVertex
100
AcDb2dVertex
 10
95.256905
 20
68.427458
 30
0.0
  0
VERTEX
  5
1CC
330
1C2
100
AcDbEntity
  8
001
370
    50
100
AcDbVertex
100
AcDb2dVertex
 10
95.228615
 20
68.401345
 30
0.0
  0
VERTEX
  5
1CD
330
1C2
100
AcDbEntity
  8
001
370
    50
100
AcDbVertex
100
AcDb2dVertex
 10
95.202864
 20
68.372573
 30
0.0
  0
VERTEX
  5
1CE
330
1C2
100
AcDbEntity
  8
001
370
    50
100
AcDbVertex
100
AcDb2dVertex
 10
95.179993
 20
68.341185
 30
0.0
  0
VERTEX
  5
1CF
330
1C2
100
AcDbEntity
  8
001
370
    50
100
AcDbVertex
100
AcDb2dVertex
 10
95.16025
 20
68.307304
 30
0.0
  0
VERTEX
  5
1D0
330
1C2
100
AcDbEntity
  8
001
370
    50
100
AcDbVertex
100
AcDb2dVertex
 10
95.143864
 20
68.272549
 30
0.0
  0
VERTEX
  5
1D1
330
1C2
100
AcDbEntity
  8
001
370
    50
100
AcDbVertex
100
AcDb2dVertex
 10
95.130937
 20
68.237505
 30
0.0
  0
VERTEX
  5
1D2
330
1C2
100
AcDbEntity
  8
001
370
    50
100
AcDbVertex
100
AcDb2dVertex
 10
95.121615
 20
68.198074
 30
0.0
  0
VERTEX
  5
1D3
330
1C2
100
AcDbEntity
  8
001
370
    50
100
AcDbVertex
100
AcDb2dVertex
 10
95.115986
 20
68.153346
 30
0.0
  0
VERTEX
  5
1D4
330
1C2
100
AcDbEntity
  8
001
370
    50
100
AcDbVertex
100
AcDb2dVertex
 10
95.114103
 20
68.120624
 30
0.0
  0
SEQEND
  5
1C3
330
1C2
100
AcDbEntity
  8
001
370
    50
  0
LINE
  5
1D5
330
1F
100
AcDbEntity
  8
001
370
    50
100
AcDbLine
 10
97.543477
 20
68.517624
 30
0.0
 11
95.505072
 21
68.517624
 31
0.0
  0
LINE
  5
1D6
330
1F
100
AcDbEntity
  8
001
370
    50
100
AcDbLine
 10
98.559665
 20
69.533051
 30
0.0
 11
97.543477
 21
68.517624
 31
0.0
  0
LINE
  5
1D7
330
1F
100
AcDbEntity
  8
001
370
    50
100
AcDbLine
 10
101.540538
 20
69.533051
 30
0.0
 11
98.559665
 21
69.533051
 31
0.0
  0
POLYLINE
  5
1D8
330
1F
100
AcDbEntity
  8
001
370
    50
100
AcDb2dPolyline
 66
     1
 10
0.0
 20
0.0
 30
0.0
  0
VERTEX
  5
1DA
330
1D8
100
AcDbEntity
  8
001
370
    50
100
AcDbVertex
100
AcDb2dVertex
 10
101.931507
 20
69.136051
 30
0.0
  0
VERTEX
  5
1DB
330
1D8
100
AcDbEntity
  8
001
370
    50
100
AcDbVertex
100
AcDb2dVertex
 10
101.930018
 20
69.165151
 30
0.0
  0
VERTEX
  5
1DC
330
1D8
100
AcDbEntity
  8
001
370
    50
100
AcDbVertex
100
AcDb2dVertex
 10
101.925567
 20
69.204989
 30
0.0
  0
VERTEX
  5
1DD
330
1D8
100
AcDbEntity
  8
001
370
    50
100
AcDbVertex
100
AcDb2dVertex
 10
101.918187
 20
69.240261
 30
0.0
  0
VERTEX
  5
1DE
330
1D8
100
AcDbEntity
  8
001
370
    50
100
AcDbVertex
100
AcDb2dVertex
 10
101.907928
 20
69.271833
 30
0.0
  0
VERTEX
  5
1DF
330
1D8
100
AcDbEntity
  8
001
370
    50
100
AcDbVertex
100
AcDb2dVertex
 10
101.89488
 20
69.303421
 30
0.0
  0
VERTEX
  5
1E0
330
1D8
100
AcDbEntity
  8
001
370
    50
100
AcDbVertex
100
AcDb2dVertex
 10
101.879127
 20
69.334551
 30
0.0
  0
VERTEX
  5
1E1
330
1D8
100
AcDbEntity
  8
001
370
    50
100
AcDbVertex
100
AcDb2dVertex
 10
101.86082
 20
69.363847
 30
0.0
  0
VERTEX
  5
1E2
330
1D8
100
AcDbEntity
  8
001
370
    50
100
AcDbVertex
100
AcDb2dVertex
 10
101.840037
 20
69.391237
 30
0.0
  0
VERTEX
  5
1E3
330
1D8
100
AcDbEntity
  8
001
370
    50
100
AcDbVertex
100
AcDb2dVertex
 10
101.816982
 20
69.416727
 30
0.0
  0
VERTEX
  5
1E4
330
1D8
100
AcDbEntity
  8
001
370
    50
100
AcDbVertex
100
AcDb2dVertex
 10
101.791848
 20
69.44017
 30
0.0
  0
VERTEX
  5
1E5
330
1D8
100
AcDbEntity
  8
001
370
    50
100
AcDbVertex
100
AcDb2dVertex
 10
101.76491
 20
69.461248
 30
0.0
  0
VERTEX
  5
1E6
330
1D8
100
AcDbEntity
  8
001
370
    50
100
AcDbVertex
100
AcDb2dVertex
 10
101.736022
 20
69.479863
 30
0.0
  0
VERTEX
  5
1E7
330
1D8
100
AcDbEntity
  8
001
370
    50
100
AcDbVertex
100
AcDb2dVertex
 10
101.705393
 20
69.495844
 30
0.0
  0
VERTEX
  5
1E8
330
1D8
100
AcDbEntity
  8
001
370
    50
100
AcDbVertex
100
AcDb2dVertex
 10
101.674257
 20
69.509109
 30
0.0
  0
VERTEX
  5
1E9
330
1D8
100
AcDbEntity
  8
001
370
    50
100
AcDbVertex
100
AcDb2dVertex
 10
101.643192
 20
69.51952
 30
0.0
  0
VERTEX
  5
1EA
330
1D8
100
AcDbEntity
  8
001
370
    50
100
AcDbVertex
100
AcDb2dVertex
 10
101.608429
 20
69.527019
 30
0.0
  0
VERTEX
  5
1EB
330
1D8
100
AcDbEntity
  8
001
370
    50
100
AcDbVertex
100
AcDb2dVertex
 10
101.569201
 20
69.531538
 30
0.0
  0
VERTEX
  5
1EC
330
1D8
100
AcDbEntity
  8
001
370
    50
100
AcDbVertex
100
AcDb2dVertex
 10
101.540538
 20
69.533051
 30
0.0
  0
SEQEND
  5
1D9
330
1D8
100
AcDbEntity
  8
001
370
    50
  0
LINE
  5
1ED
330
1F
100
AcDbEntity
  8
001
370
    50
100
AcDbLine
 10
101.931507
 20
67.0662
 30
0.0
 11
101.931507
 21
69.136051
 31
0.0
  0
LINE
  5
1EE
330
1F
100
AcDbEntity
  8
001
370
    50
100
AcDbLine
 10
102.931507
 20
66.034336
 30
0.0
 11
101.931507
 21
67.0662
 31
0.0
  0
LINE
  5
1EF
330
1F
100
AcDbEntity
  8
001
370
    50
100
AcDbLine
 10
102.931507
 20
63.007478
 30
0.0
 11
102.931507
 21
66.034336
 31
0.0
  0
POLYLINE
  5
1F0
330
1F
100
AcDbEntity
  8
001
370
    50
100
AcDb2dPolyline
 66
     1
 10
0.0
 20
0.0
 30
0.0
  0
VERTEX
  5
1F2
330
1F0
100
AcDbEntity
  8
001
370
    50
100
AcDbVertex
100
AcDb2dVertex
 10
102.540538
 20
62.610478
 30
0.0
  0
VERTEX
  5
1F3
330
1F0
100
AcDbEntity
  8
001
370
    50
100
AcDbVertex
100
AcDb2dVertex
 10
102.569201
 20
62.61199
 30
0.0
  0
VERTEX
  5
1F4
330
1F0
100
AcDbEntity
  8
001
370
    50
100
AcDbVertex
100
AcDb2dVertex
 10
102.608429
 20
62.616509
 30
0.0
  0
VERTEX
  5
1F5
330
1F0
100
AcDbEntity
  8
001
370
    50
100
AcDbVertex
100
AcDb2dVertex
 10
102.643193
 20
62.624009
 30
0.0
  0
VERTEX
  5
1F6
330
1F0
100
AcDbEntity
  8
001
370
    50
100
AcDbVertex
100
AcDb2dVertex
 10
102.674257
 20
62.63442
 30
0.0
  0
VERTEX
  5
1F7
330
1F0
100
AcDbEntity
  8
001
370
    50
100
AcDbVertex
100
AcDb2dVertex
 10
102.705394
 20
62.647684
 30
0.0
  0
VERTEX
  5
1F8
330
1F0
100
AcDbEntity
  8
001
370
    50
100
AcDbVertex
100
AcDb2dVertex
 10
102.736023
 20
62.663666
 30
0.0
  0
VERTEX
  5
1F9
330
1F0
100
AcDbEntity
  8
001
370
    50
100
AcDbVertex
100
AcDb2dVertex
 10
102.764911
 20
62.68228
 30
0.0
  0
VERTEX
  5
1FA
330
1F0
100
AcDbEntity
  8
001
370
    50
100
AcDbVertex
100
AcDb2dVertex
 10
102.791848
 20
62.703358
 30
0.0
  0
VERTEX
  5
1FB
330
1F0
100
AcDbEntity
  8
001
370
    50
100
AcDbVertex
100
AcDb2dVertex
 10
102.816982
 20
62.726801
 30
0.0
  0
VERTEX
  5
1FC
330
1F0
100
AcDbEntity
  8
001
370
    50
100
AcDbVertex
100
AcDb2dVertex
 10
102.840038
 20
62.752291
 30
0.0
  0
VERTEX
  5
1FD
330
1F0
100
AcDbEntity
  8
001
370
    50
100
AcDbVertex
100
AcDb2dVertex
 10
102.86082
 20
62.779681
 30
0.0
  0
VERTEX
  5
1FE
330
1F0
100
AcDbEntity
  8
001
370
    50
100
AcDbVertex
100
AcDb2dVertex
 10
102.879127
 20
62.808978
 30
0.0
  0
VERTEX
  5
1FF
330
1F0
100
AcDbEntity
  8
001
370
    50
100
AcDbVertex
100
AcDb2dVertex
 10
102.894881
 20
62.840107
 30
0.0
  0
VERTEX
  5
200
330
1F0
100
AcDbEntity
  8
001
370
    50
100
AcDbVertex
100
AcDb2dVertex
 10
102.907929
 20
62.871696
 30
0.0
  0
VERTEX
  5
201
330
1F0
100
AcDbEntity
  8
001
370
    50
100
AcDbVertex
100
AcDb2dVertex
 10
102.918188
 20
62.903267
 30
0.0
  0
VERTEX
  5
202
330
1F0
100
AcDbEntity
  8
001
370
    50
100
AcDbVertex
100
AcDb2dVertex
 10
102.925567
 20
62.938539
 30
0.0
  0
VERTEX
  5
203
330
1F0
100
AcDbEntity
  8
001
370
    50
100
AcDbVertex
100
AcDb2dVertex
 10
102.930019
 20
62.978377
 30
0.0
  0
VERTEX
  5
204
330
1F0
100
AcDbEntity
  8
001
370
    50
100
AcDbVertex
100
AcDb2dVertex
 10
102.931507
 20
63.007478
 30
0.0
  0
SEQEND
  5
1F1
330
1F0
100
AcDbEntity
  8
001
370
    50
  0
LINE
  5
205
330
1F
100
AcDbEntity
  8
001
370
    50
100
AcDbLine
 10
100.502133
 20
62.610478
 30
0.0
 11
102.540538
 21
62.610478
 31
0.0
  0
POLYLINE
  5
206
330
1F
100
AcDbEntity
  8
001
370
    50
100
AcDb2dPolyline
 66
     1
 10
0.0
 20
0.0
 30
0.0
  0
VERTEX
  5
208
330
206
100
AcDbEntity
  8
001
370
    50
100
AcDbVertex
100
AcDb2dVertex
 10
99.022805
 20
67.814051
 30
0.0
  0
VERTEX
  5
209
330
206
100
AcDbEntity
  8
001
370
    50
100
AcDbVertex
100
AcDb2dVertex
 10
98.860357
 20
67.805481
 30
0.0
  0
VERTEX
  5
20A
330
206
100
AcDbEntity
  8
001
370
    50
100
AcDbVertex
100
AcDb2dVertex
 10
98.638032
 20
67.779868
 30
0.0
  0
VERTEX
  5
20B
330
206
100
AcDbEntity
  8
001
370
    50
100
AcDbVertex
100
AcDb2dVertex
 10
98.441011
 20
67.737361
 30
0.0
  0
VERTEX
  5
20C
330
206
100
AcDbEntity
  8
001
370
    50
100
AcDbVertex
100
AcDb2dVertex
 10
98.264951
 20
67.678359
 30
0.0
  0
VERTEX
  5
20D
330
206
100
AcDbEntity
  8
001
370
    50
100
AcDbVertex
100
AcDb2dVertex
 10
98.088485
 20
67.603195
 30
0.0
  0
VERTEX
  5
20E
330
206
100
AcDbEntity
  8
001
370
    50
100
AcDbVertex
100
AcDb2dVertex
 10
97.914896
 20
67.512608
 30
0.0
  0
VERTEX
  5
20F
330
206
100
AcDbEntity
  8
001
370
    50
100
AcDbVertex
100
AcDb2dVertex
 10
97.751173
 20
67.407067
 30
0.0
  0
VERTEX
  5
210
330
206
100
AcDbEntity
  8
001
370
    50
100
AcDbVertex
100
AcDb2dVertex
 10
97.598505
 20
67.287651
 30
0.0
  0
VERTEX
  5
211
330
206
100
AcDbEntity
  8
001
370
    50
100
AcDbVertex
100
AcDb2dVertex
 10
97.456058
 20
67.154945
 30
0.0
  0
VERTEX
  5
212
330
206
100
AcDbEntity
  8
001
370
    50
100
AcDbVertex
100
AcDb2dVertex
 10
97.32539
 20
67.010323
 30
0.0
  0
VERTEX
  5
213
330
206
100
AcDbEntity
  8
001
370
    50
100
AcDbVertex
100
AcDb2dVertex
 10
97.207606
 20
66.854495
 30
0.0
  0
VERTEX
  5
214
330
206
100
AcDbEntity
  8
001
370
    50
100
AcDbVertex
100
AcDb2dVertex
 10
97.103851
 20
66.689051
 30
0.0
  0
VERTEX
  5
215
330
206
100
AcDbEntity
  8
001
370
    50
100
AcDbVertex
100
AcDb2dVertex
 10
97.014567
 20
66.51485
 30
0.0
  0
VERTEX
  5
216
330
206
100
AcDbEntity
  8
001
370
    50
100
AcDbVertex
100
AcDb2dVertex
 10
96.940618
 20
66.333596
 30
0.0
  0
VERTEX
  5
217
330
206
100
AcDbEntity
  8
001
370
    50
100
AcDbVertex
100
AcDb2dVertex
 10
96.882475
 20
66.14633
 30
0.0
  0
VERTEX
  5
218
330
206
100
AcDbEntity
  8
001
370
    50
100
AcDbVertex
100
AcDb2dVertex
 10
96.840651
 20
65.954759
 30
0.0
  0
VERTEX
  5
219
330
206
100
AcDbEntity
  8
001
370
    50
100
AcDbVertex
100
AcDb2dVertex
 10
96.815423
 20
65.760128
 30
0.0
  0
VERTEX
  5
21A
330
206
100
AcDbEntity
  8
001
370
    50
100
AcDbVertex
100
AcDb2dVertex
 10
96.806987
 20
65.564051
 30
0.0
  0
VERTEX
  5
21B
330
206
100
AcDbEntity
  8
001
370
    50
100
AcDbVertex
100
AcDb2dVertex
 10
96.815423
 20
65.367973
 30
0.0
  0
VERTEX
  5
21C
330
206
100
AcDbEntity
  8
001
370
    50
100
AcDbVertex
100
AcDb2dVertex
 10
96.840651
 20
65.173342
 30
0.0
  0
VERTEX
  5
21D
330
206
100
AcDbEntity
  8
001
370
    50
100
AcDbVertex
100
AcDb2dVertex
 10
96.882475
 20
64.981771
 30
0.0
  0
VERTEX
  5
21E
330
206
100
AcDbEntity
  8
001
370
    50
100
AcDbVertex
100
AcDb2dVertex
 10
96.940618
 20
64.794505
 30
0.0
  0
VERTEX
  5
21F
330
206
100
AcDbEntity
  8
001
370
    50
100
AcDbVertex
100
AcDb2dVertex
 10
97.014567
 20
64.613251
 30
0.0
  0
VERTEX
  5
220
330
206
100
AcDbEntity
  8
001
370
    50
100
AcDbVertex
100
AcDb2dVertex
 10
97.103851
 20
64.439051
 30
0.0
  0
VERTEX
  5
221
330
206
100
AcDbEntity
  8
001
370
    50
100
AcDbVertex
100
AcDb2dVertex
 10
97.207606
 20
64.273607
 30
0.0
  0
VERTEX
  5
222
330
206
100
AcDbEntity
  8
001
370
    50
100
AcDbVertex
100
AcDb2dVertex
 10
97.32539
 20
64.117779
 30
0.0
  0
VERTEX
  5
223
330
206
100
AcDbEntity
  8
001
370
    50
100
AcDbVertex
100
AcDb2dVertex
 10
97.456058
 20
63.973157
 30
0.0
  0
VERTEX
  5
224
330
206
100
AcDbEntity
  8
001
370
    50
100
AcDbVertex
100
AcDb2dVertex
 10
97.598505
 20
63.840451
 30
0.0
  0
VERTEX
  5
225
330
206
100
AcDbEntity
  8
001
370
    50
100
AcDbVertex
100
AcDb2dVertex
 10
97.751173
 20
63.721034
 30
0.0
  0
VERTEX
  5
226
330
206
100
AcDbEntity
  8
001
370
    50
100
AcDbVertex
100
AcDb2dVertex
 10
97.914896
 20
63.615493
 30
0.0
  0
VERTEX
  5
227
330
206
100
AcDbEntity
  8
001
370
    50
100
AcDbVertex
100
AcDb2dVertex
 10
98.088485
 20
63.524906
 30
0.0
  0
VERTEX
  5
228
330
206
100
AcDbEntity
  8
001
370
    50
100
AcDbVertex
100
AcDb2dVertex
 10
98.264951
 20
63.449742
 30
0.0
  0
VERTEX
  5
229
330
206
100
AcDbEntity
  8
001
370
    50
100
AcDbVertex
100
AcDb2dVertex
 10
98.441011
 20
63.390741
 30
0.0
  0
VERTEX
  5
22A
330
206
100
AcDbEntity
  8
001
370
    50
100
AcDbVertex
100
AcDb2dVertex
 10
98.638032
 20
63.348233
 30
0.0
  0
VERTEX
  5
22B
330
206
100
AcDbEntity
  8
001
370
    50
100
AcDbVertex
100
AcDb2dVertex
 10
98.860357
 20
63.322621
 30
0.0
  0
VERTEX
  5
22C
330
206
100
AcDbEntity
  8
001
370
    50
100
AcDbVertex
100
AcDb2dVertex
 10
99.022805
 20
63.314051
 30
0.0
  0
SEQEND
  5
207
330
206
100
AcDbEntity
  8
001
370
    50
  0
POLYLINE
  5
22D
330
1F
100
AcDbEntity
  8
001
370
    50
100
AcDb2dPolyline
 66
     1
 10
0.0
 20
0.0
 30
0.0
  0
VERTEX
  5
22F
330
22D
100
AcDbEntity
  8
001
370
    50
100
AcDbVertex
100
AcDb2dVertex
 10
99.022805
 20
63.314051
 30
0.0
  0
VERTEX
  5
230
330
22D
100
AcDbEntity
  8
001
370
    50
100
AcDbVertex
100
AcDb2dVertex
 10
99.185253
 20
63.322621
 30
0.0
  0
VERTEX
  5
231
330
22D
100
AcDbEntity
  8
001
370
    50
100
AcDbVertex
100
AcDb2dVertex
 10
99.407578
 20
63.348233
 30
0.0
  0
VERTEX
  5
232
330
22D
100
AcDbEntity
  8
001
370
    50
100
AcDbVertex
100
AcDb2dVertex
 10
99.604599
 20
63.390741
 30
0.0
  0
VERTEX
  5
233
330
22D
100
AcDbEntity
  8
001
370
    50
100
AcDbVertex
100
AcDb2dVertex
 10
99.780659
 20
63.449742
 30
0.0
  0
VERTEX
  5
234
330
22D
100
AcDbEntity
  8
001
370
    50
100
AcDbVertex
100
AcDb2dVertex
 10
99.957125
 20
63.524906
 30
0.0
  0
VERTEX
  5
235
330
22D
100
AcDbEntity
  8
001
370
    50
100
AcDbVertex
100
AcDb2dVertex
 10
100.130714
 20
63.615493
 30
0.0
  0
VERTEX
  5
236
330
22D
100
AcDbEntity
  8
001
370
    50
100
AcDbVertex
100
AcDb2dVertex
 10
100.294437
 20
63.721034
 30
0.0
  0
VERTEX
  5
237
330
22D
100
AcDbEntity
  8
001
370
    50
100
AcDbVertex
100
AcDb2dVertex
 10
100.447105
 20
63.840451
 30
0.0
  0
VERTEX
  5
238
330
22D
100
AcDbEntity
  8
001
370
    50
100
AcDbVertex
100
AcDb2dVertex
 10
100.589552
 20
63.973157
 30
0.0
  0
VERTEX
  5
239
330
22D
100
AcDbEntity
  8
001
370
    50
100
AcDbVertex
100
AcDb2dVertex
 10
100.72022
 20
64.117779
 30
0.0
  0
VERTEX
  5
23A
330
22D
100
AcDbEntity
  8
001
370
    50
100
AcDbVertex
100
AcDb2dVertex
 10
100.838004
 20
64.273607
 30
0.0
  0
VERTEX
  5
23B
330
22D
100
AcDbEntity
  8
001
370
    50
100
AcDbVertex
100
AcDb2dVertex
 10
100.941759
 20
64.439051
 30
0.0
  0
VERTEX
  5
23C
330
22D
100
AcDbEntity
  8
001
370
    50
100
AcDbVertex
100
AcDb2dVertex
 10
101.031043
 20
64.613251
 30
0.0
  0
VERTEX
  5
23D
330
22D
100
AcDbEntity
  8
001
370
    50
100
AcDbVertex
100
AcDb2dVertex
 10
101.104992
 20
64.794505
 30
0.0
  0
VERTEX
  5
23E
330
22D
100
AcDbEntity
  8
001
370
    50
100
AcDbVertex
100
AcDb2dVertex
 10
101.163135
 20
64.981771
 30
0.0
  0
VERTEX
  5
23F
330
22D
100
AcDbEntity
  8
001
370
    50
100
AcDbVertex
100
AcDb2dVertex
 10
101.204959
 20
65.173342
 30
0.0
  0
VERTEX
  5
240
330
22D
100
AcDbEntity
  8
001
370
    50
100
AcDbVertex
100
AcDb2dVertex
 10
101.230187
 20
65.367973
 30
0.0
  0
VERTEX
  5
241
330
22D
100
AcDbEntity
  8
001
370
    50
100
AcDbVertex
100
AcDb2dVertex
 10
101.238622
 20
65.564051
 30
0.0
  0
VERTEX
  5
242
330
22D
100
AcDbEntity
  8
001
370
    50
100
AcDbVertex
100
AcDb2dVertex
 10
101.230187
 20
65.760128
 30
0.0
  0
VERTEX
  5
243
330
22D
100
AcDbEntity
  8
001
370
    50
100
AcDbVertex
100
AcDb2dVertex
 10
101.204959
 20
65.954759
 30
0.0
  0
VERTEX
  5
244
330
22D
100
AcDbEntity
  8
001
370
    50
100
AcDbVertex
100
AcDb2dVertex
 10
101.163135
 20
66.14633
 30
0.0
  0
VERTEX
  5
245
330
22D
100
AcDbEntity
  8
001
370
    50
100
AcDbVertex
100
AcDb2dVertex
 10
101.104992
 20
66.333596
 30
0.0
  0
VERTEX
  5
246
330
22D
100
AcDbEntity
  8
001
370
    50
100
AcDbVertex
100
AcDb2dVertex
 10
101.031043
 20
66.51485
 30
0.0
  0
VERTEX
  5
247
330
22D
100
AcDbEntity
  8
001
370
    50
100
AcDbVertex
100
AcDb2dVertex
 10
100.941759
 20
66.689051
 30
0.0
  0
VERTEX
  5
248
330
22D
100
AcDbEntity
  8
001
370
    50
100
AcDbVertex
100
AcDb2dVertex
 10
100.838004
 20
66.854495
 30
0.0
  0
VERTEX
  5
249
330
22D
100
AcDbEntity
  8
001
370
    50
100
AcDbVertex
100
AcDb2dVertex
 10
100.72022
 20
67.010323
 30
0.0
  0
VERTEX
  5
24A
330
22D
100
AcDbEntity
  8
001
370
    50
100
AcDbVertex
100
AcDb2dVertex
 10
100.589552
 20
67.154945
 30
0.0
  0
VERTEX
  5
24B
330
22D
100
AcDbEntity
  8
001
370
    50
100
AcDbVertex
100
AcDb2dVertex
 10
100.447105
 20
67.287651
 30
0.0
  0
VERTEX
  5
24C
330
22D
100
AcDbEntity
  8
001
370
    50
100
AcDbVertex
100
AcDb2dVertex
 10
100.294437
 20
67.407067
 30
0.0
  0
VERTEX
  5
24D
330
22D
100
AcDbEntity
  8
001
370
    50
100
AcDbVertex
100
AcDb2dVertex
 10
100.130714
 20
67.512608
 30
0.0
  0
VERTEX
  5
24E
330
22D
100
AcDbEntity
  8
001
370
    50
100
AcDbVertex
100
AcDb2dVertex
 10
99.957125
 20
67.603195
 30
0.0
  0
VERTEX
  5
24F
330
22D
100
AcDbEntity
  8
001
370
    50
100
AcDbVertex
100
AcDb2dVertex
 10
99.780659
 20
67.678359
 30
0.0
  0
VERTEX
  5
250
330
22D
100
AcDbEntity
  8
001
370
    50
100
AcDbVertex
100
AcDb2dVertex
 10
99.604599
 20
67.737361
 30
0.0
  0
VERTEX
  5
251
330
22D
100
AcDbEntity
  8
001
370
    50
100
AcDbVertex
100
AcDb2dVertex
 10
99.407578
 20
67.779868
 30
0.0
  0
VERTEX
  5
252
330
22D
100
AcDbEntity
  8
001
370
    50
100
AcDbVertex
100
AcDb2dVertex
 10
99.185253
 20
67.805481
 30
0.0
  0
VERTEX
  5
253
330
22D
100
AcDbEntity
  8
001
370
    50
100
AcDbVertex
100
AcDb2dVertex
 10
99.022805
 20
67.814051
 30
0.0
  0
SEQEND
  5
22E
330
22D
100
AcDbEntity
  8
001
370
    50
  0
LINE
  5
254
330
1F
100
AcDbEntity
  8
001
370
    50
100
AcDbLine
 10
135.114103
 20
84.166382
 30
0.0
 11
135.114103
 21
58.866382
 31
0.0
  0
LINE
  5
255
330
1F
100
AcDbEntity
  8
001
370
    50
100
AcDbLine
 10
135.114103
 20
84.166382
 30
0.0
 11
111.408932
 21
84.166382
 31
0.0
  0
LINE
  5
256
330
1F
100
AcDbEntity
  8
001
370
    50
100
AcDbLine
 10
133.429976
 20
58.866382
 30
0.0
 11
135.114103
 21
58.866382
 31
0.0
  0
POLYLINE
  5
257
330
1F
100
AcDbEntity
  8
001
370
    50
100
AcDb2dPolyline
 66
     1
 10
0.0
 20
0.0
 30
0.0
  0
VERTEX
  5
259
330
257
100
AcDbEntity
  8
001
370
    50
100
AcDbVertex
100
AcDb2dVertex
 10
130.226872
 20
62.264193
 30
0.0
  0
VERTEX
  5
25A
330
257
100
AcDbEntity
  8
001
370
    50
100
AcDbVertex
100
AcDb2dVertex
 10
130.278293
 20
61.999174
 30
0.0
  0
VERTEX
  5
25B
330
257
100
AcDbEntity
  8
001
370
    50
100
AcDbVertex
100
AcDb2dVertex
 10
130.33875
 20
61.736333
 30
0.0
  0
VERTEX
  5
25C
330
257
100
AcDbEntity
  8
001
370
    50
100
AcDbVertex
100
AcDb2dVertex
 10
130.410805
 20
61.491954
 30
0.0
  0
VERTEX
  5
25D
330
257
100
AcDbEntity
  8
001
370
    50
100
AcDbVertex
100
AcDb2dVertex
 10
130.497796
 20
61.25231
 30
0.0
  0
VERTEX
  5
25E
330
257
100
AcDbEntity
  8
001
370
    50
100
AcDbVertex
100
AcDb2dVertex
 10
130.593185
 20
61.030338
 30
0.0
  0
VERTEX
  5
25F
330
257
100
AcDbEntity
  8
001
370
    50
100
AcDbVertex
100
AcDb2dVertex
 10
130.701216
 20
60.814322
 30
0.0
  0
VERTEX
  5
260
330
257
100
AcDbEntity
  8
001
370
    50
100
AcDbVertex
100
AcDb2dVertex
 10
130.816281
 20
60.614474
 30
0.0
  0
VERTEX
  5
261
330
257
100
AcDbEntity
  8
001
370
    50
100
AcDbVertex
100
AcDb2dVertex
 10
130.942612
 20
60.421521
 30
0.0
  0
VERTEX
  5
262
330
257
100
AcDbEntity
  8
001
370
    50
100
AcDbVertex
100
AcDb2dVertex
 10
131.073444
 20
60.244101
 30
0.0
  0
VERTEX
  5
263
330
257
100
AcDbEntity
  8
001
370
    50
100
AcDbVertex
100
AcDb2dVertex
 10
131.213773
 20
60.07412
 30
0.0
  0
VERTEX
  5
264
330
257
100
AcDbEntity
  8
001
370
    50
100
AcDbVertex
100
AcDb2dVertex
 10
131.356174
 20
59.919398
 30
0.0
  0
VERTEX
  5
265
330
257
100
AcDbEntity
  8
001
370
    50
100
AcDbVertex
100
AcDb2dVertex
 10
131.506487
 20
59.772331
 30
0.0
  0
VERTEX
  5
266
330
257
100
AcDbEntity
  8
001
370
    50
100
AcDbVertex
100
AcDb2dVertex
 10
131.689009
 20
59.612792
 30
0.0
  0
VERTEX
  5
267
330
257
100
AcDbEntity
  8
001
370
    50
100
AcDbVertex
100
AcDb2dVertex
 10
131.88084
 20
59.464568
 30
0.0
  0
VERTEX
  5
268
330
257
100
AcDbEntity
  8
001
370
    50
100
AcDbVertex
100
AcDb2dVertex
 10
132.069356
 20
59.336069
 30
0.0
  0
VERTEX
  5
269
330
257
100
AcDbEntity
  8
001
370
    50
100
AcDbVertex
100
AcDb2dVertex
 10
132.265261
 20
59.219138
 30
0.0
  0
VERTEX
  5
26A
330
257
100
AcDbEntity
  8
001
370
    50
100
AcDbVertex
100
AcDb2dVertex
 10
132.453192
 20
59.122038
 30
0.0
  0
VERTEX
  5
26B
330
257
100
AcDbEntity
  8
001
370
    50
100
AcDbVertex
100
AcDb2dVertex
 10
132.646914
 20
59.03723
 30
0.0
  0
VERTEX
  5
26C
330
257
100
AcDbEntity
  8
001
370
    50
100
AcDbVertex
100
AcDb2dVertex
 10
132.827791
 20
58.972154
 30
0.0
  0
VERTEX
  5
26D
330
257
100
AcDbEntity
  8
001
370
    50
100
AcDbVertex
100
AcDb2dVertex
 10
133.012961
 20
58.920036
 30
0.0
  0
VERTEX
  5
26E
330
257
100
AcDbEntity
  8
001
370
    50
100
AcDbVertex
100
AcDb2dVertex
 10
133.180722
 20
58.886416
 30
0.0
  0
VERTEX
  5
26F
330
257
100
AcDbEntity
  8
001
370
    50
100
AcDbVertex
100
AcDb2dVertex
 10
133.350566
 20
58.868746
 30
0.0
  0
VERTEX
  5
270
330
257
100
AcDbEntity
  8
001
370
    50
100
AcDbVertex
100
AcDb2dVertex
 10
133.391651
 20
58.867267
 30
0.0
  0
VERTEX
  5
271
330
257
100
AcDbEntity
  8
001
370
    50
100
AcDbVertex
100
AcDb2dVertex
 10
133.432764
 20
58.866382
 30
0.0
  0
SEQEND
  5
258
330
257
100
AcDbEntity
  8
001
370
    50
  0
POLYLINE
  5
272
330
1F
100
AcDbEntity
  8
001
370
    50
100
AcDb2dPolyline
 66
     1
 10
0.0
 20
0.0
 30
0.0
  0
VERTEX
  5
274
330
272
100
AcDbEntity
  8
001
370
    50
100
AcDbVertex
100
AcDb2dVertex
 10
126.387795
 20
66.70221
 30
0.0
  0
VERTEX
  5
275
330
272
100
AcDbEntity
  8
001
370
    50
100
AcDbVertex
100
AcDb2dVertex
 10
126.620206
 20
66.625589
 30
0.0
  0
VERTEX
  5
276
330
272
100
AcDbEntity
  8
001
370
    50
100
AcDbVertex
100
AcDb2dVertex
 10
126.84964
 20
66.541232
 30
0.0
  0
VERTEX
  5
277
330
272
100
AcDbEntity
  8
001
370
    50
100
AcDbVertex
100
AcDb2dVertex
 10
127.070833
 20
66.44452
 30
0.0
  0
VERTEX
  5
278
330
272
100
AcDbEntity
  8
001
370
    50
100
AcDbVertex
100
AcDb2dVertex
 10
127.28649
 20
66.335561
 30
0.0
  0
VERTEX
  5
279
330
272
100
AcDbEntity
  8
001
370
    50
100
AcDbVertex
100
AcDb2dVertex
 10
127.494131
 20
66.218242
 30
0.0
  0
VERTEX
  5
27A
330
272
100
AcDbEntity
  8
001
370
    50
100
AcDbVertex
100
AcDb2dVertex
 10
127.696099
 20
66.091584
 30
0.0
  0
VERTEX
  5
27B
330
272
100
AcDbEntity
  8
001
370
    50
100
AcDbVertex
100
AcDb2dVertex
 10
127.891919
 20
65.955602
 30
0.0
  0
VERTEX
  5
27C
330
272
100
AcDbEntity
  8
001
370
    50
100
AcDbVertex
100
AcDb2dVertex
 10
128.081473
 20
65.81095
 30
0.0
  0
VERTEX
  5
27D
330
272
100
AcDbEntity
  8
001
370
    50
100
AcDbVertex
100
AcDb2dVertex
 10
128.262364
 20
65.660409
 30
0.0
  0
VERTEX
  5
27E
330
272
100
AcDbEntity
  8
001
370
    50
100
AcDbVertex
100
AcDb2dVertex
 10
128.43695
 20
65.502624
 30
0.0
  0
VERTEX
  5
27F
330
272
100
AcDbEntity
  8
001
370
    50
100
AcDbVertex
100
AcDb2dVertex
 10
128.601781
 20
65.341347
 30
0.0
  0
VERTEX
  5
280
330
272
100
AcDbEntity
  8
001
370
    50
100
AcDbVertex
100
AcDb2dVertex
 10
128.760282
 20
65.173834
 30
0.0
  0
VERTEX
  5
281
330
272
100
AcDbEntity
  8
001
370
    50
100
AcDbVertex
100
AcDb2dVertex
 10
128.939065
 20
64.968535
 30
0.0
  0
VERTEX
  5
282
330
272
100
AcDbEntity
  8
001
370
    50
100
AcDbVertex
100
AcDb2dVertex
 10
129.108686
 20
64.75559
 30
0.0
  0
VERTEX
  5
283
330
272
100
AcDbEntity
  8
001
370
    50
100
AcDbVertex
100
AcDb2dVertex
 10
129.264629
 20
64.541769
 30
0.0
  0
VERTEX
  5
284
330
272
100
AcDbEntity
  8
001
370
    50
100
AcDbVertex
100
AcDb2dVertex
 10
129.411522
 20
64.321644
 30
0.0
  0
VERTEX
  5
285
330
272
100
AcDbEntity
  8
001
370
    50
100
AcDbVertex
100
AcDb2dVertex
 10
129.54413
 20
64.104119
 30
0.0
  0
VERTEX
  5
286
330
272
100
AcDbEntity
  8
001
370
    50
100
AcDbVertex
100
AcDb2dVertex
 10
129.66777
 20
63.881363
 30
0.0
  0
VERTEX
  5
287
330
272
100
AcDbEntity
  8
001
370
    50
100
AcDbVertex
100
AcDb2dVertex
 10
129.794311
 20
63.627709
 30
0.0
  0
VERTEX
  5
288
330
272
100
AcDbEntity
  8
001
370
    50
100
AcDbVertex
100
AcDb2dVertex
 10
129.908557
 20
63.3683
 30
0.0
  0
VERTEX
  5
289
330
272
100
AcDbEntity
  8
001
370
    50
100
AcDbVertex
100
AcDb2dVertex
 10
130.004919
 20
63.117161
 30
0.0
  0
VERTEX
  5
28A
330
272
100
AcDbEntity
  8
001
370
    50
100
AcDbVertex
100
AcDb2dVertex
 10
130.088879
 20
62.861561
 30
0.0
  0
VERTEX
  5
28B
330
272
100
AcDbEntity
  8
001
370
    50
100
AcDbVertex
100
AcDb2dVertex
 10
130.15548
 20
62.618149
 30
0.0
  0
VERTEX
  5
28C
330
272
100
AcDbEntity
  8
001
370
    50
100
AcDbVertex
100
AcDb2dVertex
 10
130.208335
 20
62.37152
 30
0.0
  0
VERTEX
  5
28D
330
272
100
AcDbEntity
  8
001
370
    50
100
AcDbVertex
100
AcDb2dVertex
 10
130.21779
 20
62.31789
 30
0.0
  0
VERTEX
  5
28E
330
272
100
AcDbEntity
  8
001
370
    50
100
AcDbVertex
100
AcDb2dVertex
 10
130.226872
 20
62.264193
 30
0.0
  0
SEQEND
  5
273
330
272
100
AcDbEntity
  8
001
370
    50
  0
POLYLINE
  5
28F
330
1F
100
AcDbEntity
  8
001
370
    50
100
AcDb2dPolyline
 66
     1
 10
0.0
 20
0.0
 30
0.0
  0
VERTEX
  5
291
330
28F
100
AcDbEntity
  8
001
370
    50
100
AcDbVertex
100
AcDb2dVertex
 10
125.824795
 20
66.907103
 30
0.0
  0
VERTEX
  5
292
330
28F
100
AcDbEntity
  8
001
370
    50
100
AcDbVertex
100
AcDb2dVertex
 10
125.967799
 20
66.862377
 30
0.0
  0
VERTEX
  5
293
330
28F
100
AcDbEntity
  8
001
370
    50
100
AcDbVertex
100
AcDb2dVertex
 10
126.109523
 20
66.81413
 30
0.0
  0
VERTEX
  5
294
330
28F
100
AcDbEntity
  8
001
370
    50
100
AcDbVertex
100
AcDb2dVertex
 10
126.249301
 20
66.759935
 30
0.0
  0
VERTEX
  5
295
330
28F
100
AcDbEntity
  8
001
370
    50
100
AcDbVertex
100
AcDb2dVertex
 10
126.387795
 20
66.70221
 30
0.0
  0
SEQEND
  5
290
330
28F
100
AcDbEntity
  8
001
370
    50
  0
POLYLINE
  5
296
330
1F
100
AcDbEntity
  8
001
370
    50
100
AcDb2dPolyline
 66
     1
 10
0.0
 20
0.0
 30
0.0
  0
VERTEX
  5
298
330
296
100
AcDbEntity
  8
001
370
    50
100
AcDbVertex
100
AcDb2dVertex
 10
125.261795
 20
67.113401
 30
0.0
  0
VERTEX
  5
299
330
296
100
AcDbEntity
  8
001
370
    50
100
AcDbVertex
100
AcDb2dVertex
 10
125.404807
 20
67.068371
 30
0.0
  0
VERTEX
  5
29A
330
296
100
AcDbEntity
  8
001
370
    50
100
AcDbVertex
100
AcDb2dVertex
 10
125.546523
 20
67.019799
 30
0.0
  0
VERTEX
  5
29B
330
296
100
AcDbEntity
  8
001
370
    50
100
AcDbVertex
100
AcDb2dVertex
 10
125.68631
 20
66.965228
 30
0.0
  0
VERTEX
  5
29C
330
296
100
AcDbEntity
  8
001
370
    50
100
AcDbVertex
100
AcDb2dVertex
 10
125.824795
 20
66.907103
 30
0.0
  0
SEQEND
  5
297
330
296
100
AcDbEntity
  8
001
370
    50
  0
POLYLINE
  5
29D
330
1F
100
AcDbEntity
  8
001
370
    50
100
AcDb2dPolyline
 66
     1
 10
0.0
 20
0.0
 30
0.0
  0
VERTEX
  5
29F
330
29D
100
AcDbEntity
  8
001
370
    50
100
AcDbVertex
100
AcDb2dVertex
 10
124.698795
 20
67.32104
 30
0.0
  0
VERTEX
  5
2A0
330
29D
100
AcDbEntity
  8
001
370
    50
100
AcDbVertex
100
AcDb2dVertex
 10
124.841815
 20
67.27572
 30
0.0
  0
VERTEX
  5
2A1
330
29D
100
AcDbEntity
  8
001
370
    50
100
AcDbVertex
100
AcDb2dVertex
 10
124.983523
 20
67.226839
 30
0.0
  0
VERTEX
  5
2A2
330
29D
100
AcDbEntity
  8
001
370
    50
100
AcDbVertex
100
AcDb2dVertex
 10
125.123318
 20
67.171907
 30
0.0
  0
VERTEX
  5
2A3
330
29D
100
AcDbEntity
  8
001
370
    50
100
AcDbVertex
100
AcDb2dVertex
 10
125.261795
 20
67.113401
 30
0.0
  0
SEQEND
  5
29E
330
29D
100
AcDbEntity
  8
001
370
    50
  0
POLYLINE
  5
2A4
330
1F
100
AcDbEntity
  8
001
370
    50
100
AcDb2dPolyline
 66
     1
 10
0.0
 20
0.0
 30
0.0
  0
VERTEX
  5
2A6
330
2A4
100
AcDbEntity
  8
001
370
    50
100
AcDbVertex
100
AcDb2dVertex
 10
124.135795
 20
67.529957
 30
0.0
  0
VERTEX
  5
2A7
330
2A4
100
AcDbEntity
  8
001
370
    50
100
AcDbVertex
100
AcDb2dVertex
 10
124.278823
 20
67.48436
 30
0.0
  0
VERTEX
  5
2A8
330
2A4
100
AcDbEntity
  8
001
370
    50
100
AcDbVertex
100
AcDb2dVertex
 10
124.420523
 20
67.435185
 30
0.0
  0
VERTEX
  5
2A9
330
2A4
100
AcDbEntity
  8
001
370
    50
100
AcDbVertex
100
AcDb2dVertex
 10
124.560326
 20
67.37991
 30
0.0
  0
VERTEX
  5
2AA
330
2A4
100
AcDbEntity
  8
001
370
    50
100
AcDbVertex
100
AcDb2dVertex
 10
124.698795
 20
67.32104
 30
0.0
  0
SEQEND
  5
2A5
330
2A4
100
AcDbEntity
  8
001
370
    50
  0
POLYLINE
  5
2AB
330
1F
100
AcDbEntity
  8
001
370
    50
100
AcDb2dPolyline
 66
     1
 10
0.0
 20
0.0
 30
0.0
  0
VERTEX
  5
2AD
330
2AB
100
AcDbEntity
  8
001
370
    50
100
AcDbVertex
100
AcDb2dVertex
 10
123.572795
 20
67.740088
 30
0.0
  0
VERTEX
  5
2AE
330
2AB
100
AcDbEntity
  8
001
370
    50
100
AcDbVertex
100
AcDb2dVertex
 10
123.71583
 20
67.694229
 30
0.0
  0
VERTEX
  5
2AF
330
2AB
100
AcDbEntity
  8
001
370
    50
100
AcDbVertex
100
AcDb2dVertex
 10
123.857523
 20
67.644774
 30
0.0
  0
VERTEX
  5
2B0
330
2AB
100
AcDbEntity
  8
001
370
    50
100
AcDbVertex
100
AcDb2dVertex
 10
123.997333
 20
67.589173
 30
0.0
  0
VERTEX
  5
2B1
330
2AB
100
AcDbEntity
  8
001
370
    50
100
AcDbVertex
100
AcDb2dVertex
 10
124.135795
 20
67.529957
 30
0.0
  0
SEQEND
  5
2AC
330
2AB
100
AcDbEntity
  8
001
370
    50
  0
POLYLINE
  5
2B2
330
1F
100
AcDbEntity
  8
001
370
    50
100
AcDb2dPolyline
 66
     1
 10
0.0
 20
0.0
 30
0.0
  0
VERTEX
  5
2B4
330
2B2
100
AcDbEntity
  8
001
370
    50
100
AcDbVertex
100
AcDb2dVertex
 10
123.009795
 20
67.95137
 30
0.0
  0
VERTEX
  5
2B5
330
2B2
100
AcDbEntity
  8
001
370
    50
100
AcDbVertex
100
AcDb2dVertex
 10
123.152837
 20
67.905263
 30
0.0
  0
VERTEX
  5
2B6
330
2B2
100
AcDbEntity
  8
001
370
    50
100
AcDbVertex
100
AcDb2dVertex
 10
123.294523
 20
67.855542
 30
0.0
  0
VERTEX
  5
2B7
330
2B2
100
AcDbEntity
  8
001
370
    50
100
AcDbVertex
100
AcDb2dVertex
 10
123.43434
 20
67.799632
 30
0.0
  0
VERTEX
  5
2B8
330
2B2
100
AcDbEntity
  8
001
370
    50
100
AcDbVertex
100
AcDb2dVertex
 10
123.572795
 20
67.740088
 30
0.0
  0
SEQEND
  5
2B3
330
2B2
100
AcDbEntity
  8
001
370
    50
  0
POLYLINE
  5
2B9
330
1F
100
AcDbEntity
  8
001
370
    50
100
AcDb2dPolyline
 66
     1
 10
0.0
 20
0.0
 30
0.0
  0
VERTEX
  5
2BB
330
2B9
100
AcDbEntity
  8
001
370
    50
100
AcDbVertex
100
AcDb2dVertex
 10
122.446795
 20
68.163737
 30
0.0
  0
VERTEX
  5
2BC
330
2B9
100
AcDbEntity
  8
001
370
    50
100
AcDbVertex
100
AcDb2dVertex
 10
122.589843
 20
68.117396
 30
0.0
  0
VERTEX
  5
2BD
330
2B9
100
AcDbEntity
  8
001
370
    50
100
AcDbVertex
100
AcDb2dVertex
 10
122.731523
 20
68.067426
 30
0.0
  0
VERTEX
  5
2BE
330
2B9
100
AcDbEntity
  8
001
370
    50
100
AcDbVertex
100
AcDb2dVertex
 10
122.871347
 20
68.011224
 30
0.0
  0
VERTEX
  5
2BF
330
2B9
100
AcDbEntity
  8
001
370
    50
100
AcDbVertex
100
AcDb2dVertex
 10
123.009795
 20
67.95137
 30
0.0
  0
SEQEND
  5
2BA
330
2B9
100
AcDbEntity
  8
001
370
    50
  0
POLYLINE
  5
2C0
330
1F
100
AcDbEntity
  8
001
370
    50
100
AcDb2dPolyline
 66
     1
 10
0.0
 20
0.0
 30
0.0
  0
VERTEX
  5
2C2
330
2C0
100
AcDbEntity
  8
001
370
    50
100
AcDbVertex
100
AcDb2dVertex
 10
121.883795
 20
68.377126
 30
0.0
  0
VERTEX
  5
2C3
330
2C0
100
AcDbEntity
  8
001
370
    50
100
AcDbVertex
100
AcDb2dVertex
 10
122.026849
 20
68.330565
 30
0.0
  0
VERTEX
  5
2C4
330
2C0
100
AcDbEntity
  8
001
370
    50
100
AcDbVertex
100
AcDb2dVertex
 10
122.168523
 20
68.28036
 30
0.0
  0
VERTEX
  5
2C5
330
2C0
100
AcDbEntity
  8
001
370
    50
100
AcDbVertex
100
AcDb2dVertex
 10
122.308354
 20
68.223883
 30
0.0
  0
VERTEX
  5
2C6
330
2C0
100
AcDbEntity
  8
001
370
    50
100
AcDbVertex
100
AcDb2dVertex
 10
122.446795
 20
68.163737
 30
0.0
  0
SEQEND
  5
2C1
330
2C0
100
AcDbEntity
  8
001
370
    50
  0
POLYLINE
  5
2C7
330
1F
100
AcDbEntity
  8
001
370
    50
100
AcDb2dPolyline
 66
     1
 10
0.0
 20
0.0
 30
0.0
  0
VERTEX
  5
2C9
330
2C7
100
AcDbEntity
  8
001
370
    50
100
AcDbVertex
100
AcDb2dVertex
 10
121.320795
 20
68.591471
 30
0.0
  0
VERTEX
  5
2CA
330
2C7
100
AcDbEntity
  8
001
370
    50
100
AcDbVertex
100
AcDb2dVertex
 10
121.463855
 20
68.544705
 30
0.0
  0
VERTEX
  5
2CB
330
2C7
100
AcDbEntity
  8
001
370
    50
100
AcDbVertex
100
AcDb2dVertex
 10
121.605523
 20
68.49428
 30
0.0
  0
VERTEX
  5
2CC
330
2C7
100
AcDbEntity
  8
001
370
    50
100
AcDbVertex
100
AcDb2dVertex
 10
121.74536
 20
68.437545
 30
0.0
  0
VERTEX
  5
2CD
330
2C7
100
AcDbEntity
  8
001
370
    50
100
AcDbVertex
100
AcDb2dVertex
 10
121.883795
 20
68.377126
 30
0.0
  0
SEQEND
  5
2C8
330
2C7
100
AcDbEntity
  8
001
370
    50
  0
POLYLINE
  5
2CE
330
1F
100
AcDbEntity
  8
001
370
    50
100
AcDb2dPolyline
 66
     1
 10
0.0
 20
0.0
 30
0.0
  0
VERTEX
  5
2D0
330
2CE
100
AcDbEntity
  8
001
370
    50
100
AcDbVertex
100
AcDb2dVertex
 10
120.757795
 20
68.806707
 30
0.0
  0
VERTEX
  5
2D1
330
2CE
100
AcDbEntity
  8
001
370
    50
100
AcDbVertex
100
AcDb2dVertex
 10
120.90086
 20
68.75975
 30
0.0
  0
VERTEX
  5
2D2
330
2CE
100
AcDbEntity
  8
001
370
    50
100
AcDbVertex
100
AcDb2dVertex
 10
121.042523
 20
68.70912
 30
0.0
  0
VERTEX
  5
2D3
330
2CE
100
AcDbEntity
  8
001
370
    50
100
AcDbVertex
100
AcDb2dVertex
 10
121.182366
 20
68.652146
 30
0.0
  0
VERTEX
  5
2D4
330
2CE
100
AcDbEntity
  8
001
370
    50
100
AcDbVertex
100
AcDb2dVertex
 10
121.320795
 20
68.591471
 30
0.0
  0
SEQEND
  5
2CF
330
2CE
100
AcDbEntity
  8
001
370
    50
  0
POLYLINE
  5
2D5
330
1F
100
AcDbEntity
  8
001
370
    50
100
AcDb2dPolyline
 66
     1
 10
0.0
 20
0.0
 30
0.0
  0
VERTEX
  5
2D7
330
2D5
100
AcDbEntity
  8
001
370
    50
100
AcDbVertex
100
AcDb2dVertex
 10
120.194795
 20
69.022768
 30
0.0
  0
VERTEX
  5
2D8
330
2D5
100
AcDbEntity
  8
001
370
    50
100
AcDbVertex
100
AcDb2dVertex
 10
120.337866
 20
68.975634
 30
0.0
  0
VERTEX
  5
2D9
330
2D5
100
AcDbEntity
  8
001
370
    50
100
AcDbVertex
100
AcDb2dVertex
 10
120.479523
 20
68.924816
 30
0.0
  0
VERTEX
  5
2DA
330
2D5
100
AcDbEntity
  8
001
370
    50
100
AcDbVertex
100
AcDb2dVertex
 10
120.619371
 20
68.867618
 30
0.0
  0
VERTEX
  5
2DB
330
2D5
100
AcDbEntity
  8
001
370
    50
100
AcDbVertex
100
AcDb2dVertex
 10
120.757795
 20
68.806707
 30
0.0
  0
SEQEND
  5
2D6
330
2D5
100
AcDbEntity
  8
001
370
    50
  0
POLYLINE
  5
2DC
330
1F
100
AcDbEntity
  8
001
370
    50
100
AcDb2dPolyline
 66
     1
 10
0.0
 20
0.0
 30
0.0
  0
VERTEX
  5
2DE
330
2DC
100
AcDbEntity
  8
001
370
    50
100
AcDbVertex
100
AcDb2dVertex
 10
119.631795
 20
69.239589
 30
0.0
  0
VERTEX
  5
2DF
330
2DC
100
AcDbEntity
  8
001
370
    50
100
AcDbVertex
100
AcDb2dVertex
 10
119.77487
 20
69.192293
 30
0.0
  0
VERTEX
  5
2E0
330
2DC
100
AcDbEntity
  8
001
370
    50
100
AcDbVertex
100
AcDb2dVertex
 10
119.916523
 20
69.141301
 30
0.0
  0
VERTEX
  5
2E1
330
2DC
100
AcDbEntity
  8
001
370
    50
100
AcDbVertex
100
AcDb2dVertex
 10
120.056376
 20
69.083898
 30
0.0
  0
VERTEX
  5
2E2
330
2DC
100
AcDbEntity
  8
001
370
    50
100
AcDbVertex
100
AcDb2dVertex
 10
120.194795
 20
69.022768
 30
0.0
  0
SEQEND
  5
2DD
330
2DC
100
AcDbEntity
  8
001
370
    50
  0
POLYLINE
  5
2E3
330
1F
100
AcDbEntity
  8
001
370
    50
100
AcDb2dPolyline
 66
     1
 10
0.0
 20
0.0
 30
0.0
  0
VERTEX
  5
2E5
330
2E3
100
AcDbEntity
  8
001
370
    50
100
AcDbVertex
100
AcDb2dVertex
 10
119.068795
 20
69.457103
 30
0.0
  0
VERTEX
  5
2E6
330
2E3
100
AcDbEntity
  8
001
370
    50
100
AcDbVertex
100
AcDb2dVertex
 10
119.211875
 20
69.40966
 30
0.0
  0
VERTEX
  5
2E7
330
2E3
100
AcDbEntity
  8
001
370
    50
100
AcDbVertex
100
AcDb2dVertex
 10
119.353523
 20
69.35851
 30
0.0
  0
VERTEX
  5
2E8
330
2E3
100
AcDbEntity
  8
001
370
    50
100
AcDbVertex
100
AcDb2dVertex
 10
119.493381
 20
69.300919
 30
0.0
  0
VERTEX
  5
2E9
330
2E3
100
AcDbEntity
  8
001
370
    50
100
AcDbVertex
100
AcDb2dVertex
 10
119.631795
 20
69.239589
 30
0.0
  0
SEQEND
  5
2E4
330
2E3
100
AcDbEntity
  8
001
370
    50
  0
POLYLINE
  5
2EA
330
1F
100
AcDbEntity
  8
001
370
    50
100
AcDb2dPolyline
 66
     1
 10
0.0
 20
0.0
 30
0.0
  0
VERTEX
  5
2EC
330
2EA
100
AcDbEntity
  8
001
370
    50
100
AcDbVertex
100
AcDb2dVertex
 10
118.505795
 20
69.675245
 30
0.0
  0
VERTEX
  5
2ED
330
2EA
100
AcDbEntity
  8
001
370
    50
100
AcDbVertex
100
AcDb2dVertex
 10
118.648879
 20
69.627669
 30
0.0
  0
VERTEX
  5
2EE
330
2EA
100
AcDbEntity
  8
001
370
    50
100
AcDbVertex
100
AcDb2dVertex
 10
118.790523
 20
69.576375
 30
0.0
  0
VERTEX
  5
2EF
330
2EA
100
AcDbEntity
  8
001
370
    50
100
AcDbVertex
100
AcDb2dVertex
 10
118.930385
 20
69.518615
 30
0.0
  0
VERTEX
  5
2F0
330
2EA
100
AcDbEntity
  8
001
370
    50
100
AcDbVertex
100
AcDb2dVertex
 10
119.068795
 20
69.457103
 30
0.0
  0
SEQEND
  5
2EB
330
2EA
100
AcDbEntity
  8
001
370
    50
  0
POLYLINE
  5
2F1
330
1F
100
AcDbEntity
  8
001
370
    50
100
AcDb2dPolyline
 66
     1
 10
0.0
 20
0.0
 30
0.0
  0
VERTEX
  5
2F3
330
2F1
100
AcDbEntity
  8
001
370
    50
100
AcDbVertex
100
AcDb2dVertex
 10
117.942795
 20
69.893947
 30
0.0
  0
VERTEX
  5
2F4
330
2F1
100
AcDbEntity
  8
001
370
    50
100
AcDbVertex
100
AcDb2dVertex
 10
118.085882
 20
69.846253
 30
0.0
  0
VERTEX
  5
2F5
330
2F1
100
AcDbEntity
  8
001
370
    50
100
AcDbVertex
100
AcDb2dVertex
 10
118.227523
 20
69.794832
 30
0.0
  0
VERTEX
  5
2F6
330
2F1
100
AcDbEntity
  8
001
370
    50
100
AcDbVertex
100
AcDb2dVertex
 10
118.367389
 20
69.736919
 30
0.0
  0
VERTEX
  5
2F7
330
2F1
100
AcDbEntity
  8
001
370
    50
100
AcDbVertex
100
AcDb2dVertex
 10
118.505795
 20
69.675245
 30
0.0
  0
SEQEND
  5
2F2
330
2F1
100
AcDbEntity
  8
001
370
    50
  0
POLYLINE
  5
2F8
330
1F
100
AcDbEntity
  8
001
370
    50
100
AcDb2dPolyline
 66
     1
 10
0.0
 20
0.0
 30
0.0
  0
VERTEX
  5
2FA
330
2F8
100
AcDbEntity
  8
001
370
    50
100
AcDbVertex
100
AcDb2dVertex
 10
117.379795
 20
70.113144
 30
0.0
  0
VERTEX
  5
2FB
330
2F8
100
AcDbEntity
  8
001
370
    50
100
AcDbVertex
100
AcDb2dVertex
 10
117.522886
 20
70.065346
 30
0.0
  0
VERTEX
  5
2FC
330
2F8
100
AcDbEntity
  8
001
370
    50
100
AcDbVertex
100
AcDb2dVertex
 10
117.664523
 20
70.013813
 30
0.0
  0
VERTEX
  5
2FD
330
2F8
100
AcDbEntity
  8
001
370
    50
100
AcDbVertex
100
AcDb2dVertex
 10
117.804392
 20
69.955766
 30
0.0
  0
VERTEX
  5
2FE
330
2F8
100
AcDbEntity
  8
001
370
    50
100
AcDbVertex
100
AcDb2dVertex
 10
117.942795
 20
69.893947
 30
0.0
  0
SEQEND
  5
2F9
330
2F8
100
AcDbEntity
  8
001
370
    50
  0
POLYLINE
  5
2FF
330
1F
100
AcDbEntity
  8
001
370
    50
100
AcDb2dPolyline
 66
     1
 10
0.0
 20
0.0
 30
0.0
  0
VERTEX
  5
301
330
2FF
100
AcDbEntity
  8
001
370
    50
100
AcDbVertex
100
AcDb2dVertex
 10
116.816795
 20
70.332768
 30
0.0
  0
VERTEX
  5
302
330
2FF
100
AcDbEntity
  8
001
370
    50
100
AcDbVertex
100
AcDb2dVertex
 10
116.959888
 20
70.284882
 30
0.0
  0
VERTEX
  5
303
330
2FF
100
AcDbEntity
  8
001
370
    50
100
AcDbVertex
100
AcDb2dVertex
 10
117.101523
 20
70.233252
 30
0.0
  0
VERTEX
  5
304
330
2FF
100
AcDbEntity
  8
001
370
    50
100
AcDbVertex
100
AcDb2dVertex
 10
117.241396
 20
70.175088
 30
0.0
  0
VERTEX
  5
305
330
2FF
100
AcDbEntity
  8
001
370
    50
100
AcDbVertex
100
AcDb2dVertex
 10
117.379795
 20
70.113144
 30
0.0
  0
SEQEND
  5
300
330
2FF
100
AcDbEntity
  8
001
370
    50
  0
POLYLINE
  5
306
330
1F
100
AcDbEntity
  8
001
370
    50
100
AcDb2dPolyline
 66
     1
 10
0.0
 20
0.0
 30
0.0
  0
VERTEX
  5
308
330
306
100
AcDbEntity
  8
001
370
    50
100
AcDbVertex
100
AcDb2dVertex
 10
116.253795
 20
70.552753
 30
0.0
  0
VERTEX
  5
309
330
306
100
AcDbEntity
  8
001
370
    50
100
AcDbVertex
100
AcDb2dVertex
 10
116.396891
 20
70.504792
 30
0.0
  0
VERTEX
  5
30A
330
306
100
AcDbEntity
  8
001
370
    50
100
AcDbVertex
100
AcDb2dVertex
 10
116.538523
 20
70.453082
 30
0.0
  0
VERTEX
  5
30B
330
306
100
AcDbEntity
  8
001
370
    50
100
AcDbVertex
100
AcDb2dVertex
 10
116.678398
 20
70.394819
 30
0.0
  0
VERTEX
  5
30C
330
306
100
AcDbEntity
  8
001
370
    50
100
AcDbVertex
100
AcDb2dVertex
 10
116.816795
 20
70.332768
 30
0.0
  0
SEQEND
  5
307
330
306
100
AcDbEntity
  8
001
370
    50
  0
POLYLINE
  5
30D
330
1F
100
AcDbEntity
  8
001
370
    50
100
AcDb2dPolyline
 66
     1
 10
0.0
 20
0.0
 30
0.0
  0
VERTEX
  5
30F
330
30D
100
AcDbEntity
  8
001
370
    50
100
AcDbVertex
100
AcDb2dVertex
 10
115.690795
 20
70.773031
 30
0.0
  0
VERTEX
  5
310
330
30D
100
AcDbEntity
  8
001
370
    50
100
AcDbVertex
100
AcDb2dVertex
 10
115.833893
 20
70.725011
 30
0.0
  0
VERTEX
  5
311
330
30D
100
AcDbEntity
  8
001
370
    50
100
AcDbVertex
100
AcDb2dVertex
 10
115.975523
 20
70.673235
 30
0.0
  0
VERTEX
  5
312
330
30D
100
AcDbEntity
  8
001
370
    50
100
AcDbVertex
100
AcDb2dVertex
 10
116.115401
 20
70.614891
 30
0.0
  0
VERTEX
  5
313
330
30D
100
AcDbEntity
  8
001
370
    50
100
AcDbVertex
100
AcDb2dVertex
 10
116.253795
 20
70.552753
 30
0.0
  0
SEQEND
  5
30E
330
30D
100
AcDbEntity
  8
001
370
    50
  0
POLYLINE
  5
314
330
1F
100
AcDbEntity
  8
001
370
    50
100
AcDb2dPolyline
 66
     1
 10
0.0
 20
0.0
 30
0.0
  0
VERTEX
  5
316
330
314
100
AcDbEntity
  8
001
370
    50
100
AcDbVertex
100
AcDb2dVertex
 10
115.127795
 20
70.993536
 30
0.0
  0
VERTEX
  5
317
330
314
100
AcDbEntity
  8
001
370
    50
100
AcDbVertex
100
AcDb2dVertex
 10
115.270895
 20
70.945471
 30
0.0
  0
VERTEX
  5
318
330
314
100
AcDbEntity
  8
001
370
    50
100
AcDbVertex
100
AcDb2dVertex
 10
115.412523
 20
70.893646
 30
0.0
  0
VERTEX
  5
319
330
314
100
AcDbEntity
  8
001
370
    50
100
AcDbVertex
100
AcDb2dVertex
 10
115.552403
 20
70.835238
 30
0.0
  0
VERTEX
  5
31A
330
314
100
AcDbEntity
  8
001
370
    50
100
AcDbVertex
100
AcDb2dVertex
 10
115.690795
 20
70.773031
 30
0.0
  0
SEQEND
  5
315
330
314
100
AcDbEntity
  8
001
370
    50
  0
POLYLINE
  5
31B
330
1F
100
AcDbEntity
  8
001
370
    50
100
AcDb2dPolyline
 66
     1
 10
0.0
 20
0.0
 30
0.0
  0
VERTEX
  5
31D
330
31B
100
AcDbEntity
  8
001
370
    50
100
AcDbVertex
100
AcDb2dVertex
 10
114.564795
 20
71.2142
 30
0.0
  0
VERTEX
  5
31E
330
31B
100
AcDbEntity
  8
001
370
    50
100
AcDbVertex
100
AcDb2dVertex
 10
114.707896
 20
71.166106
 30
0.0
  0
VERTEX
  5
31F
330
31B
100
AcDbEntity
  8
001
370
    50
100
AcDbVertex
100
AcDb2dVertex
 10
114.849523
 20
71.114246
 30
0.0
  0
VERTEX
  5
320
330
31B
100
AcDbEntity
  8
001
370
    50
100
AcDbVertex
100
AcDb2dVertex
 10
114.989404
 20
71.055793
 30
0.0
  0
VERTEX
  5
321
330
31B
100
AcDbEntity
  8
001
370
    50
100
AcDbVertex
100
AcDb2dVertex
 10
115.127795
 20
70.993536
 30
0.0
  0
SEQEND
  5
31C
330
31B
100
AcDbEntity
  8
001
370
    50
  0
POLYLINE
  5
322
330
1F
100
AcDbEntity
  8
001
370
    50
100
AcDb2dPolyline
 66
     1
 10
0.0
 20
0.0
 30
0.0
  0
VERTEX
  5
324
330
322
100
AcDbEntity
  8
001
370
    50
100
AcDbVertex
100
AcDb2dVertex
 10
114.001795
 20
71.434956
 30
0.0
  0
VERTEX
  5
325
330
322
100
AcDbEntity
  8
001
370
    50
100
AcDbVertex
100
AcDb2dVertex
 10
114.144897
 20
71.386847
 30
0.0
  0
VERTEX
  5
326
330
322
100
AcDbEntity
  8
001
370
    50
100
AcDbVertex
100
AcDb2dVertex
 10
114.286523
 20
71.334968
 30
0.0
  0
VERTEX
  5
327
330
322
100
AcDbEntity
  8
001
370
    50
100
AcDbVertex
100
AcDb2dVertex
 10
114.426405
 20
71.276488
 30
0.0
  0
VERTEX
  5
328
330
322
100
AcDbEntity
  8
001
370
    50
100
AcDbVertex
100
AcDb2dVertex
 10
114.564795
 20
71.2142
 30
0.0
  0
SEQEND
  5
323
330
322
100
AcDbEntity
  8
001
370
    50
  0
POLYLINE
  5
329
330
1F
100
AcDbEntity
  8
001
370
    50
100
AcDb2dPolyline
 66
     1
 10
0.0
 20
0.0
 30
0.0
  0
VERTEX
  5
32B
330
329
100
AcDbEntity
  8
001
370
    50
100
AcDbVertex
100
AcDb2dVertex
 10
113.438795
 20
71.655737
 30
0.0
  0
VERTEX
  5
32C
330
329
100
AcDbEntity
  8
001
370
    50
100
AcDbVertex
100
AcDb2dVertex
 10
113.581898
 20
71.607627
 30
0.0
  0
VERTEX
  5
32D
330
329
100
AcDbEntity
  8
001
370
    50
100
AcDbVertex
100
AcDb2dVertex
 10
113.723523
 20
71.555746
 30
0.0
  0
VERTEX
  5
32E
330
329
100
AcDbEntity
  8
001
370
    50
100
AcDbVertex
100
AcDb2dVertex
 10
113.863406
 20
71.497257
 30
0.0
  0
VERTEX
  5
32F
330
329
100
AcDbEntity
  8
001
370
    50
100
AcDbVertex
100
AcDb2dVertex
 10
114.001795
 20
71.434956
 30
0.0
  0
SEQEND
  5
32A
330
329
100
AcDbEntity
  8
001
370
    50
  0
POLYLINE
  5
330
330
1F
100
AcDbEntity
  8
001
370
    50
100
AcDb2dPolyline
 66
     1
 10
0.0
 20
0.0
 30
0.0
  0
VERTEX
  5
332
330
330
100
AcDbEntity
  8
001
370
    50
100
AcDbVertex
100
AcDb2dVertex
 10
112.875795
 20
71.876475
 30
0.0
  0
VERTEX
  5
333
330
330
100
AcDbEntity
  8
001
370
    50
100
AcDbVertex
100
AcDb2dVertex
 10
113.018898
 20
71.828381
 30
0.0
  0
VERTEX
  5
334
330
330
100
AcDbEntity
  8
001
370
    50
100
AcDbVertex
100
AcDb2dVertex
 10
113.160523
 20
71.776512
 30
0.0
  0
VERTEX
  5
335
330
330
100
AcDbEntity
  8
001
370
    50
100
AcDbVertex
100
AcDb2dVertex
 10
113.300406
 20
71.718031
 30
0.0
  0
VERTEX
  5
336
330
330
100
AcDbEntity
  8
001
370
    50
100
AcDbVertex
100
AcDb2dVertex
 10
113.438795
 20
71.655737
 30
0.0
  0
SEQEND
  5
331
330
330
100
AcDbEntity
  8
001
370
    50
  0
POLYLINE
  5
337
330
1F
100
AcDbEntity
  8
001
370
    50
100
AcDb2dPolyline
 66
     1
 10
0.0
 20
0.0
 30
0.0
  0
VERTEX
  5
339
330
337
100
AcDbEntity
  8
001
370
    50
100
AcDbVertex
100
AcDb2dVertex
 10
112.312795
 20
72.097103
 30
0.0
  0
VERTEX
  5
33A
330
337
100
AcDbEntity
  8
001
370
    50
100
AcDbVertex
100
AcDb2dVertex
 10
112.528854
 20
72.021686
 30
0.0
  0
VERTEX
  5
33B
330
337
100
AcDbEntity
  8
001
370
    50
100
AcDbVertex
100
AcDb2dVertex
 10
112.741378
 20
71.937713
 30
0.0
  0
VERTEX
  5
33C
330
337
100
AcDbEntity
  8
001
370
    50
100
AcDbVertex
100
AcDb2dVertex
 10
112.808771
 20
71.907541
 30
0.0
  0
VERTEX
  5
33D
330
337
100
AcDbEntity
  8
001
370
    50
100
AcDbVertex
100
AcDb2dVertex
 10
112.875795
 20
71.876475
 30
0.0
  0
SEQEND
  5
338
330
337
100
AcDbEntity
  8
001
370
    50
  0
POLYLINE
  5
33E
330
1F
100
AcDbEntity
  8
001
370
    50
100
AcDb2dPolyline
 66
     1
 10
0.0
 20
0.0
 30
0.0
  0
VERTEX
  5
340
330
33E
100
AcDbEntity
  8
001
370
    50
100
AcDbVertex
100
AcDb2dVertex
 10
111.749795
 20
72.317555
 30
0.0
  0
VERTEX
  5
341
330
33E
100
AcDbEntity
  8
001
370
    50
100
AcDbVertex
100
AcDb2dVertex
 10
111.892898
 20
72.269535
 30
0.0
  0
VERTEX
  5
342
330
33E
100
AcDbEntity
  8
001
370
    50
100
AcDbVertex
100
AcDb2dVertex
 10
112.034523
 20
72.217739
 30
0.0
  0
VERTEX
  5
343
330
33E
100
AcDbEntity
  8
001
370
    50
100
AcDbVertex
100
AcDb2dVertex
 10
112.174405
 20
72.159329
 30
0.0
  0
VERTEX
  5
344
330
33E
100
AcDbEntity
  8
001
370
    50
100
AcDbVertex
100
AcDb2dVertex
 10
112.312795
 20
72.097103
 30
0.0
  0
SEQEND
  5
33F
330
33E
100
AcDbEntity
  8
001
370
    50
  0
LINE
  5
345
330
1F
100
AcDbEntity
  8
001
370
    50
100
AcDbLine
 10
111.408932
 20
72.461988
 30
0.0
 11
111.749795
 21
72.317555
 31
0.0
  0
LINE
  5
346
330
1F
100
AcDbEntity
  8
001
370
    50
100
AcDbLine
 10
111.223336
 20
72.796544
 30
0.0
 11
111.408932
 21
72.461988
 31
0.0
  0
LINE
  5
347
330
1F
100
AcDbEntity
  8
001
370
    50
100
AcDbLine
 10
111.408932
 20
84.166382
 30
0.0
 11
108.114103
 21
80.766382
 31
0.0
  0
POLYLINE
  5
348
330
1F
100
AcDbEntity
  8
001
370
    50
100
AcDb2dPolyline
 66
     1
 10
0.0
 20
0.0
 30
0.0
  0
VERTEX
  5
34A
330
348
100
AcDbEntity
  8
001
370
    50
100
AcDbVertex
100
AcDb2dVertex
 10
110.735489
 20
73.595687
 30
0.0
  0
VERTEX
  5
34B
330
348
100
AcDbEntity
  8
001
370
    50
100
AcDbVertex
100
AcDb2dVertex
 10
110.863433
 20
73.405968
 30
0.0
  0
VERTEX
  5
34C
330
348
100
AcDbEntity
  8
001
370
    50
100
AcDbVertex
100
AcDb2dVertex
 10
110.986722
 20
73.213402
 30
0.0
  0
VERTEX
  5
34D
330
348
100
AcDbEntity
  8
001
370
    50
100
AcDbVertex
100
AcDb2dVertex
 10
111.107585
 20
73.006536
 30
0.0
  0
VERTEX
  5
34E
330
348
100
AcDbEntity
  8
001
370
    50
100
AcDbVertex
100
AcDb2dVertex
 10
111.223336
 20
72.796544
 30
0.0
  0
SEQEND
  5
349
330
348
100
AcDbEntity
  8
001
370
    50
  0
POLYLINE
  5
34F
330
1F
100
AcDbEntity
  8
001
370
    50
100
AcDb2dPolyline
 66
     1
 10
0.0
 20
0.0
 30
0.0
  0
VERTEX
  5
351
330
34F
100
AcDbEntity
  8
001
370
    50
100
AcDbVertex
100
AcDb2dVertex
 10
110.224102
 20
74.285505
 30
0.0
  0
VERTEX
  5
352
330
34F
100
AcDbEntity
  8
001
370
    50
100
AcDbVertex
100
AcDb2dVertex
 10
110.357556
 20
74.123786
 30
0.0
  0
VERTEX
  5
353
330
34F
100
AcDbEntity
  8
001
370
    50
100
AcDbVertex
100
AcDb2dVertex
 10
110.486407
 20
73.958647
 30
0.0
  0
VERTEX
  5
354
330
34F
100
AcDbEntity
  8
001
370
    50
100
AcDbVertex
100
AcDb2dVertex
 10
110.613487
 20
73.779053
 30
0.0
  0
VERTEX
  5
355
330
34F
100
AcDbEntity
  8
001
370
    50
100
AcDbVertex
100
AcDb2dVertex
 10
110.735489
 20
73.595687
 30
0.0
  0
SEQEND
  5
350
330
34F
100
AcDbEntity
  8
001
370
    50
  0
POLYLINE
  5
356
330
1F
100
AcDbEntity
  8
001
370
    50
100
AcDb2dPolyline
 66
     1
 10
0.0
 20
0.0
 30
0.0
  0
VERTEX
  5
358
330
356
100
AcDbEntity
  8
001
370
    50
100
AcDbVertex
100
AcDb2dVertex
 10
109.69066
 20
74.866563
 30
0.0
  0
VERTEX
  5
359
330
356
100
AcDbEntity
  8
001
370
    50
100
AcDbVertex
100
AcDb2dVertex
 10
109.82926
 20
74.732655
 30
0.0
  0
VERTEX
  5
35A
330
356
100
AcDbEntity
  8
001
370
    50
100
AcDbVertex
100
AcDb2dVertex
 10
109.96339
 20
74.594634
 30
0.0
  0
VERTEX
  5
35B
330
356
100
AcDbEntity
  8
001
370
    50
100
AcDbVertex
100
AcDb2dVertex
 10
110.09621
 20
74.442337
 30
0.0
  0
VERTEX
  5
35C
330
356
100
AcDbEntity
  8
001
370
    50
100
AcDbVertex
100
AcDb2dVertex
 10
110.224102
 20
74.285505
 30
0.0
  0
SEQEND
  5
357
330
356
100
AcDbEntity
  8
001
370
    50
  0
POLYLINE
  5
35D
330
1F
100
AcDbEntity
  8
001
370
    50
100
AcDb2dPolyline
 66
     1
 10
0.0
 20
0.0
 30
0.0
  0
VERTEX
  5
35F
330
35D
100
AcDbEntity
  8
001
370
    50
100
AcDbVertex
100
AcDb2dVertex
 10
109.136338
 20
75.339145
 30
0.0
  0
VERTEX
  5
360
330
35D
100
AcDbEntity
  8
001
370
    50
100
AcDbVertex
100
AcDb2dVertex
 10
109.279742
 20
75.232931
 30
0.0
  0
VERTEX
  5
361
330
35D
100
AcDbEntity
  8
001
370
    50
100
AcDbVertex
100
AcDb2dVertex
 10
109.41897
 20
75.121808
 30
0.0
  0
VERTEX
  5
362
330
35D
100
AcDbEntity
  8
001
370
    50
100
AcDbVertex
100
AcDb2dVertex
 10
109.557098
 20
74.996869
 30
0.0
  0
VERTEX
  5
363
330
35D
100
AcDbEntity
  8
001
370
    50
100
AcDbVertex
100
AcDb2dVertex
 10
109.69066
 20
74.866563
 30
0.0
  0
SEQEND
  5
35E
330
35D
100
AcDbEntity
  8
001
370
    50
  0
POLYLINE
  5
364
330
1F
100
AcDbEntity
  8
001
370
    50
100
AcDb2dPolyline
 66
     1
 10
0.0
 20
0.0
 30
0.0
  0
VERTEX
  5
366
330
364
100
AcDbEntity
  8
001
370
    50
100
AcDbVertex
100
AcDb2dVertex
 10
108.562113
 20
75.703566
 30
0.0
  0
VERTEX
  5
367
330
364
100
AcDbEntity
  8
001
370
    50
100
AcDbVertex
100
AcDb2dVertex
 10
108.709978
 20
75.624896
 30
0.0
  0
VERTEX
  5
368
330
364
100
AcDbEntity
  8
001
370
    50
100
AcDbVertex
100
AcDb2dVertex
 10
108.854201
 20
75.540474
 30
0.0
  0
VERTEX
  5
369
330
364
100
AcDbEntity
  8
001
370
    50
100
AcDbVertex
100
AcDb2dVertex
 10
108.997224
 20
75.442897
 30
0.0
  0
VERTEX
  5
36A
330
364
100
AcDbEntity
  8
001
370
    50
100
AcDbVertex
100
AcDb2dVertex
 10
109.136338
 20
75.339145
 30
0.0
  0
SEQEND
  5
365
330
364
100
AcDbEntity
  8
001
370
    50
  0
POLYLINE
  5
36B
330
1F
100
AcDbEntity
  8
001
370
    50
100
AcDb2dPolyline
 66
     1
 10
0.0
 20
0.0
 30
0.0
  0
VERTEX
  5
36D
330
36B
100
AcDbEntity
  8
001
370
    50
100
AcDbVertex
100
AcDb2dVertex
 10
108.114103
 20
75.912825
 30
0.0
  0
VERTEX
  5
36E
330
36B
100
AcDbEntity
  8
001
370
    50
100
AcDbVertex
100
AcDb2dVertex
 10
108.228357
 20
75.867871
 30
0.0
  0
VERTEX
  5
36F
330
36B
100
AcDbEntity
  8
001
370
    50
100
AcDbVertex
100
AcDb2dVertex
 10
108.340875
 20
75.819198
 30
0.0
  0
VERTEX
  5
370
330
36B
100
AcDbEntity
  8
001
370
    50
100
AcDbVertex
100
AcDb2dVertex
 10
108.452393
 20
75.763308
 30
0.0
  0
VERTEX
  5
371
330
36B
100
AcDbEntity
  8
001
370
    50
100
AcDbVertex
100
AcDb2dVertex
 10
108.562113
 20
75.703566
 30
0.0
  0
SEQEND
  5
36C
330
36B
100
AcDbEntity
  8
001
370
    50
  0
LINE
  5
372
330
1F
100
AcDbEntity
  8
001
370
    50
100
AcDbLine
 10
138.114103
 20
84.016382
 30
0.0
 11
209.114103
 21
84.016382
 31
0.0
  0
LINE
  5
373
330
1F
100
AcDbEntity
  8
001
370
    50
100
AcDbLine
 10
138.114103
 20
59.016382
 30
0.0
 11
209.114103
 21
59.016382
 31
0.0
  0
ARC
  5
374
330
1F
100
AcDbEntity
  8
001
370
    50
100
AcDbCircle
 10
209.114103
 20
78.016382
 30
0.0
 40
5.999999999999991
100
AcDbArc
 50
0.0
 51
90.0
  0
ARC
  5
375
330
1F
100
AcDbEntity
  8
001
370
    50
100
AcDbCircle
 10
209.114103
 20
65.016382
 30
0.0
 40
5.999999999999991
100
AcDbArc
 50
270.0
 51
0.0
  0
LINE
  5
376
330
1F
100
AcDbEntity
  8
001
370
    50
100
AcDbLine
 10
215.114103
 20
78.016382
 30
0.0
 11
215.114103
 21
65.016382
 31
0.0
  0
LINE
  5
377
330
1F
100
AcDbEntity
  8
001
370
    50
100
AcDbLine
 10
107.977874
 20
75.942417
 30
0.0
 11
108.114103
 21
75.912825
 31
0.0
  0
LINE
  5
378
330
1F
100
AcDbEntity
  8
001
370
    50
100
AcDbLine
 10
108.114103
 20
80.766382
 30
0.0
 11
96.514103
 21
80.766382
 31
0.0
  0
LINE
  5
379
330
1F
100
AcDbEntity
  8
001
370
    50
100
AcDbLine
 10
107.414874
 20
76.083498
 30
0.0
 11
107.977874
 21
75.942417
 31
0.0
  0
LINE
  5
37A
330
1F
100
AcDbEntity
  8
001
370
    50
100
AcDbLine
 10
106.851874
 20
76.223187
 30
0.0
 11
107.414874
 21
76.083498
 31
0.0
  0
LINE
  5
37B
330
1F
100
AcDbEntity
  8
001
370
    50
100
AcDbLine
 10
106.288874
 20
76.361443
 30
0.0
 11
106.851874
 21
76.223187
 31
0.0
  0
LINE
  5
37C
330
1F
100
AcDbEntity
  8
001
370
    50
100
AcDbLine
 10
105.725874
 20
76.498223
 30
0.0
 11
106.288874
 21
76.361443
 31
0.0
  0
LINE
  5
37D
330
1F
100
AcDbEntity
  8
001
370
    50
100
AcDbLine
 10
105.162874
 20
76.633485
 30
0.0
 11
105.725874
 21
76.498223
 31
0.0
  0
LINE
  5
37E
330
1F
100
AcDbEntity
  8
001
370
    50
100
AcDbLine
 10
104.599874
 20
76.767189
 30
0.0
 11
104.812524
 21
76.722604
 31
0.0
  0
LINE
  5
37F
330
1F
100
AcDbEntity
  8
001
370
    50
100
AcDbLine
 10
104.036874
 20
76.899293
 30
0.0
 11
104.599874
 21
76.767189
 31
0.0
  0
LINE
  5
380
330
1F
100
AcDbEntity
  8
001
370
    50
100
AcDbLine
 10
103.473874
 20
77.029757
 30
0.0
 11
104.036874
 21
76.899293
 31
0.0
  0
LINE
  5
381
330
1F
100
AcDbEntity
  8
001
370
    50
100
AcDbLine
 10
102.910874
 20
77.158542
 30
0.0
 11
103.473874
 21
77.029757
 31
0.0
  0
LINE
  5
382
330
1F
100
AcDbEntity
  8
001
370
    50
100
AcDbLine
 10
102.347874
 20
77.285609
 30
0.0
 11
102.910874
 21
77.158542
 31
0.0
  0
LINE
  5
383
330
1F
100
AcDbEntity
  8
001
370
    50
100
AcDbLine
 10
101.784874
 20
77.410918
 30
0.0
 11
102.347874
 21
77.285609
 31
0.0
  0
LINE
  5
384
330
1F
100
AcDbEntity
  8
001
370
    50
100
AcDbLine
 10
101.221874
 20
77.534431
 30
0.0
 11
101.784874
 21
77.410918
 31
0.0
  0
LINE
  5
385
330
1F
100
AcDbEntity
  8
001
370
    50
100
AcDbLine
 10
100.658874
 20
77.656111
 30
0.0
 11
101.221874
 21
77.534431
 31
0.0
  0
LINE
  5
386
330
1F
100
AcDbEntity
  8
001
370
    50
100
AcDbLine
 10
100.095874
 20
77.775921
 30
0.0
 11
100.658874
 21
77.656111
 31
0.0
  0
LINE
  5
387
330
1F
100
AcDbEntity
  8
001
370
    50
100
AcDbLine
 10
99.532874
 20
77.893825
 30
0.0
 11
100.095874
 21
77.775921
 31
0.0
  0
LINE
  5
388
330
1F
100
AcDbEntity
  8
001
370
    50
100
AcDbLine
 10
98.969874
 20
78.009786
 30
0.0
 11
99.532874
 21
77.893825
 31
0.0
  0
LINE
  5
389
330
1F
100
AcDbEntity
  8
001
370
    50
100
AcDbLine
 10
98.406874
 20
78.123768
 30
0.0
 11
98.969874
 21
78.009786
 31
0.0
  0
LINE
  5
38A
330
1F
100
AcDbEntity
  8
001
370
    50
100
AcDbLine
 10
97.843874
 20
78.235738
 30
0.0
 11
98.406874
 21
78.123768
 31
0.0
  0
LINE
  5
38B
330
1F
100
AcDbEntity
  8
001
370
    50
100
AcDbLine
 10
97.280874
 20
78.345662
 30
0.0
 11
97.843874
 21
78.235738
 31
0.0
  0
LINE
  5
38C
330
1F
100
AcDbEntity
  8
001
370
    50
100
AcDbLine
 10
96.717874
 20
78.453505
 30
0.0
 11
97.280874
 21
78.345662
 31
0.0
  0
LINE
  5
38D
330
1F
100
AcDbEntity
  8
001
370
    50
100
AcDbLine
 10
96.514103
 20
78.496509
 30
0.0
 11
96.717874
 21
78.453505
 31
0.0
  0
LINE
  5
38E
330
1F
100
AcDbEntity
  8
001
370
    50
100
AcDbLine
 10
103.187631
 20
62.313219
 30
0.0
 11
102.733163
 21
62.301369
 31
0.0
  0
LINE
  5
38F
330
1F
100
AcDbEntity
  8
001
370
    50
100
AcDbLine
 10
104.812524
 20
76.722604
 30
0.0
 11
105.162874
 21
76.633485
 31
0.0
  0
POLYLINE
  5
390
330
1F
100
AcDbEntity
  8
001
370
    50
100
AcDb2dPolyline
 66
     1
 10
0.0
 20
0.0
 30
0.0
  0
VERTEX
  5
392
330
390
100
AcDbEntity
  8
001
370
    50
100
AcDbVertex
100
AcDb2dVertex
 10
95.874123
 20
77.234093
 30
0.0
  0
VERTEX
  5
393
330
390
100
AcDbEntity
  8
001
370
    50
100
AcDbVertex
100
AcDb2dVertex
 10
96.034422
 20
77.332064
 30
0.0
  0
VERTEX
  5
394
330
390
100
AcDbEntity
  8
001
370
    50
100
AcDbVertex
100
AcDb2dVertex
 10
96.196789
 20
77.426317
 30
0.0
  0
VERTEX
  5
395
330
390
100
AcDbEntity
  8
001
370
    50
100
AcDbVertex
100
AcDb2dVertex
 10
96.354509
 20
77.510258
 30
0.0
  0
VERTEX
  5
396
330
390
100
AcDbEntity
  8
001
370
    50
100
AcDbVertex
100
AcDb2dVertex
 10
96.514103
 20
77.590833
 30
0.0
  0
SEQEND
  5
391
330
390
100
AcDbEntity
  8
001
370
    50
  0
LINE
  5
397
330
1F
100
AcDbEntity
  8
001
370
    50
100
AcDbLine
 10
96.514103
 20
78.812822
 30
0.0
 11
95.514103
 21
77.766382
 31
0.0
  0
LINE
  5
398
330
1F
100
AcDbEntity
  8
001
370
    50
100
AcDbLine
 10
95.514103
 20
77.005964
 30
0.0
 11
95.874123
 21
77.234093
 31
0.0
  0
POLYLINE
  5
399
330
1F
100
AcDbEntity
  8
001
370
    50
100
AcDb2dPolyline
 66
     1
 10
0.0
 20
0.0
 30
0.0
  0
VERTEX
  5
39B
330
399
100
AcDbEntity
  8
001
370
    50
100
AcDbVertex
100
AcDb2dVertex
 10
95.514103
 20
68.514309
 30
0.0
  0
VERTEX
  5
39C
330
399
100
AcDbEntity
  8
001
370
    50
100
AcDbVertex
100
AcDb2dVertex
 10
95.516654
 20
68.514389
 30
0.0
  0
VERTEX
  5
39D
330
399
100
AcDbEntity
  8
001
370
    50
100
AcDbVertex
100
AcDb2dVertex
 10
95.520382
 20
68.514506
 30
0.0
  0
VERTEX
  5
39E
330
399
100
AcDbEntity
  8
001
370
    50
100
AcDbVertex
100
AcDb2dVertex
 10
95.52411
 20
68.514623
 30
0.0
  0
VERTEX
  5
39F
330
399
100
AcDbEntity
  8
001
370
    50
100
AcDbVertex
100
AcDb2dVertex
 10
95.52666
 20
68.514704
 30
0.0
  0
SEQEND
  5
39A
330
399
100
AcDbEntity
  8
001
370
    50
  0
POLYLINE
  5
3A0
330
1F
100
AcDbEntity
  8
001
370
    50
100
AcDb2dPolyline
 66
     1
 10
0.0
 20
0.0
 30
0.0
  0
VERTEX
  5
3A2
330
3A0
100
AcDbEntity
  8
001
370
    50
100
AcDbVertex
100
AcDb2dVertex
 10
96.090917
 20
68.526881
 30
0.0
  0
VERTEX
  5
3A3
330
3A0
100
AcDbEntity
  8
001
370
    50
100
AcDbVertex
100
AcDb2dVertex
 10
96.123623
 20
68.527277
 30
0.0
  0
VERTEX
  5
3A4
330
3A0
100
AcDbEntity
  8
001
370
    50
100
AcDbVertex
100
AcDb2dVertex
 10
96.171423
 20
68.52792
 30
0.0
  0
VERTEX
  5
3A5
330
3A0
100
AcDbEntity
  8
001
370
    50
100
AcDbVertex
100
AcDb2dVertex
 10
96.219266
 20
68.528655
 30
0.0
  0
VERTEX
  5
3A6
330
3A0
100
AcDbEntity
  8
001
370
    50
100
AcDbVertex
100
AcDb2dVertex
 10
96.252
 20
68.529203
 30
0.0
  0
SEQEND
  5
3A1
330
3A0
100
AcDbEntity
  8
001
370
    50
  0
POLYLINE
  5
3A7
330
1F
100
AcDbEntity
  8
001
370
    50
100
AcDb2dPolyline
 66
     1
 10
0.0
 20
0.0
 30
0.0
  0
VERTEX
  5
3A9
330
3A7
100
AcDbEntity
  8
001
370
    50
100
AcDbVertex
100
AcDb2dVertex
 10
97.257187
 20
69.371999
 30
0.0
  0
VERTEX
  5
3AA
330
3A7
100
AcDbEntity
  8
001
370
    50
100
AcDbVertex
100
AcDb2dVertex
 10
97.113414
 20
69.291413
 30
0.0
  0
VERTEX
  5
3AB
330
3A7
100
AcDbEntity
  8
001
370
    50
100
AcDbVertex
100
AcDb2dVertex
 10
96.973587
 20
69.20461
 30
0.0
  0
VERTEX
  5
3AC
330
3A7
100
AcDbEntity
  8
001
370
    50
100
AcDbVertex
100
AcDb2dVertex
 10
96.838443
 20
69.104671
 30
0.0
  0
VERTEX
  5
3AD
330
3A7
100
AcDbEntity
  8
001
370
    50
100
AcDbVertex
100
AcDb2dVertex
 10
96.711791
 20
68.994041
 30
0.0
  0
VERTEX
  5
3AE
330
3A7
100
AcDbEntity
  8
001
370
    50
100
AcDbVertex
100
AcDb2dVertex
 10
96.693004
 20
68.976178
 30
0.0
  0
VERTEX
  5
3AF
330
3A7
100
AcDbEntity
  8
001
370
    50
100
AcDbVertex
100
AcDb2dVertex
 10
96.674322
 20
68.958214
 30
0.0
  0
SEQEND
  5
3A8
330
3A7
100
AcDbEntity
  8
001
370
    50
  0
POLYLINE
  5
3B0
330
1F
100
AcDbEntity
  8
001
370
    50
100
AcDb2dPolyline
 66
     1
 10
0.0
 20
0.0
 30
0.0
  0
VERTEX
  5
3B2
330
3B0
100
AcDbEntity
  8
001
370
    50
100
AcDbVertex
100
AcDb2dVertex
 10
97.829753
 20
69.562765
 30
0.0
  0
VERTEX
  5
3B3
330
3B0
100
AcDbEntity
  8
001
370
    50
100
AcDbVertex
100
AcDb2dVertex
 10
97.683567
 20
69.527957
 30
0.0
  0
VERTEX
  5
3B4
330
3B0
100
AcDbEntity
  8
001
370
    50
100
AcDbVertex
100
AcDb2dVertex
 10
97.539625
 20
69.486402
 30
0.0
  0
VERTEX
  5
3B5
330
3B0
100
AcDbEntity
  8
001
370
    50
100
AcDbVertex
100
AcDb2dVertex
 10
97.397248
 20
69.432681
 30
0.0
  0
VERTEX
  5
3B6
330
3B0
100
AcDbEntity
  8
001
370
    50
100
AcDbVertex
100
AcDb2dVertex
 10
97.257187
 20
69.371999
 30
0.0
  0
SEQEND
  5
3B1
330
3B0
100
AcDbEntity
  8
001
370
    50
  0
LINE
  5
3B7
330
1F
100
AcDbEntity
  8
001
370
    50
100
AcDbLine
 10
98.17012
 20
69.598666
 30
0.0
 11
97.829753
 21
69.562765
 31
0.0
  0
LINE
  5
3B8
330
1F
100
AcDbEntity
  8
001
370
    50
100
AcDbLine
 10
96.674322
 20
68.958214
 30
0.0
 11
96.649903
 21
68.933586
 31
0.0
  0
POLYLINE
  5
3B9
330
1F
100
AcDbEntity
  8
001
370
    50
100
AcDb2dPolyline
 66
     1
 10
0.0
 20
0.0
 30
0.0
  0
VERTEX
  5
3BB
330
3B9
100
AcDbEntity
  8
001
370
    50
100
AcDbVertex
100
AcDb2dVertex
 10
96.252
 20
68.529203
 30
0.0
  0
VERTEX
  5
3BC
330
3B9
100
AcDbEntity
  8
001
370
    50
100
AcDbVertex
100
AcDb2dVertex
 10
96.33285
 20
68.610891
 30
0.0
  0
VERTEX
  5
3BD
330
3B9
100
AcDbEntity
  8
001
370
    50
100
AcDbVertex
100
AcDb2dVertex
 10
96.450808
 20
68.730483
 30
0.0
  0
VERTEX
  5
3BE
330
3B9
100
AcDbEntity
  8
001
370
    50
100
AcDbVertex
100
AcDb2dVertex
 10
96.569105
 20
68.850993
 30
0.0
  0
VERTEX
  5
3BF
330
3B9
100
AcDbEntity
  8
001
370
    50
100
AcDbVertex
100
AcDb2dVertex
 10
96.649903
 20
68.933586
 30
0.0
  0
SEQEND
  5
3BA
330
3B9
100
AcDbEntity
  8
001
370
    50
  0
POLYLINE
  5
3C0
330
1F
100
AcDbEntity
  8
001
370
    50
100
AcDb2dPolyline
 66
     1
 10
0.0
 20
0.0
 30
0.0
  0
VERTEX
  5
3C2
330
3C0
100
AcDbEntity
  8
001
370
    50
100
AcDbVertex
100
AcDb2dVertex
 10
98.395436
 20
69.607184
 30
0.0
  0
VERTEX
  5
3C3
330
3C0
100
AcDbEntity
  8
001
370
    50
100
AcDbVertex
100
AcDb2dVertex
 10
98.510094
 20
69.609892
 30
0.0
  0
VERTEX
  5
3C4
330
3C0
100
AcDbEntity
  8
001
370
    50
100
AcDbVertex
100
AcDb2dVertex
 10
98.677647
 20
69.61466
 30
0.0
  0
VERTEX
  5
3C5
330
3C0
100
AcDbEntity
  8
001
370
    50
100
AcDbVertex
100
AcDb2dVertex
 10
98.845217
 20
69.620556
 30
0.0
  0
VERTEX
  5
3C6
330
3C0
100
AcDbEntity
  8
001
370
    50
100
AcDbVertex
100
AcDb2dVertex
 10
98.95985
 20
69.625144
 30
0.0
  0
SEQEND
  5
3C1
330
3C0
100
AcDbEntity
  8
001
370
    50
  0
POLYLINE
  5
3C7
330
1F
100
AcDbEntity
  8
001
370
    50
100
AcDb2dPolyline
 66
     1
 10
0.0
 20
0.0
 30
0.0
  0
VERTEX
  5
3C9
330
3C7
100
AcDbEntity
  8
001
370
    50
100
AcDbVertex
100
AcDb2dVertex
 10
98.17012
 20
69.598666
 30
0.0
  0
VERTEX
  5
3CA
330
3C7
100
AcDbEntity
  8
001
370
    50
100
AcDbVertex
100
AcDb2dVertex
 10
98.215897
 20
69.600247
 30
0.0
  0
VERTEX
  5
3CB
330
3C7
100
AcDbEntity
  8
001
370
    50
100
AcDbVertex
100
AcDb2dVertex
 10
98.282796
 20
69.602687
 30
0.0
  0
VERTEX
  5
3CC
330
3C7
100
AcDbEntity
  8
001
370
    50
100
AcDbVertex
100
AcDb2dVertex
 10
98.349678
 20
69.605305
 30
0.0
  0
VERTEX
  5
3CD
330
3C7
100
AcDbEntity
  8
001
370
    50
100
AcDbVertex
100
AcDb2dVertex
 10
98.395436
 20
69.607184
 30
0.0
  0
SEQEND
  5
3C8
330
3C7
100
AcDbEntity
  8
001
370
    50
  0
POLYLINE
  5
3CE
330
1F
100
AcDbEntity
  8
001
370
    50
100
AcDb2dPolyline
 66
     1
 10
0.0
 20
0.0
 30
0.0
  0
VERTEX
  5
3D0
330
3CE
100
AcDbEntity
  8
001
370
    50
100
AcDbVertex
100
AcDb2dVertex
 10
98.95985
 20
69.625144
 30
0.0
  0
VERTEX
  5
3D1
330
3CE
100
AcDbEntity
  8
001
370
    50
100
AcDbVertex
100
AcDb2dVertex
 10
99.074515
 20
69.627891
 30
0.0
  0
VERTEX
  5
3D2
330
3CE
100
AcDbEntity
  8
001
370
    50
100
AcDbVertex
100
AcDb2dVertex
 10
99.242079
 20
69.63272
 30
0.0
  0
VERTEX
  5
3D3
330
3CE
100
AcDbEntity
  8
001
370
    50
100
AcDbVertex
100
AcDb2dVertex
 10
99.40963
 20
69.638684
 30
0.0
  0
VERTEX
  5
3D4
330
3CE
100
AcDbEntity
  8
001
370
    50
100
AcDbVertex
100
AcDb2dVertex
 10
99.524251
 20
69.643321
 30
0.0
  0
SEQEND
  5
3CF
330
3CE
100
AcDbEntity
  8
001
370
    50
  0
POLYLINE
  5
3D5
330
1F
100
AcDbEntity
  8
001
370
    50
100
AcDb2dPolyline
 66
     1
 10
0.0
 20
0.0
 30
0.0
  0
VERTEX
  5
3D7
330
3D5
100
AcDbEntity
  8
001
370
    50
100
AcDbVertex
100
AcDb2dVertex
 10
99.524251
 20
69.643321
 30
0.0
  0
VERTEX
  5
3D8
330
3D5
100
AcDbEntity
  8
001
370
    50
100
AcDbVertex
100
AcDb2dVertex
 10
99.638924
 20
69.646106
 30
0.0
  0
VERTEX
  5
3D9
330
3D5
100
AcDbEntity
  8
001
370
    50
100
AcDbVertex
100
AcDb2dVertex
 10
99.806498
 20
69.650996
 30
0.0
  0
VERTEX
  5
3DA
330
3D5
100
AcDbEntity
  8
001
370
    50
100
AcDbVertex
100
AcDb2dVertex
 10
99.974032
 20
69.657026
 30
0.0
  0
VERTEX
  5
3DB
330
3D5
100
AcDbEntity
  8
001
370
    50
100
AcDbVertex
100
AcDb2dVertex
 10
100.08864
 20
69.661712
 30
0.0
  0
SEQEND
  5
3D6
330
3D5
100
AcDbEntity
  8
001
370
    50
  0
POLYLINE
  5
3DC
330
1F
100
AcDbEntity
  8
001
370
    50
100
AcDb2dPolyline
 66
     1
 10
0.0
 20
0.0
 30
0.0
  0
VERTEX
  5
3DE
330
3DC
100
AcDbEntity
  8
001
370
    50
100
AcDbVertex
100
AcDb2dVertex
 10
100.08864
 20
69.661712
 30
0.0
  0
VERTEX
  5
3DF
330
3DC
100
AcDbEntity
  8
001
370
    50
100
AcDbVertex
100
AcDb2dVertex
 10
100.203321
 20
69.664535
 30
0.0
  0
VERTEX
  5
3E0
330
3DC
100
AcDbEntity
  8
001
370
    50
100
AcDbVertex
100
AcDb2dVertex
 10
100.370907
 20
69.669486
 30
0.0
  0
VERTEX
  5
3E1
330
3DC
100
AcDbEntity
  8
001
370
    50
100
AcDbVertex
100
AcDb2dVertex
 10
100.538423
 20
69.675583
 30
0.0
  0
VERTEX
  5
3E2
330
3DC
100
AcDbEntity
  8
001
370
    50
100
AcDbVertex
100
AcDb2dVertex
 10
100.653019
 20
69.680318
 30
0.0
  0
SEQEND
  5
3DD
330
3DC
100
AcDbEntity
  8
001
370
    50
  0
POLYLINE
  5
3E3
330
1F
100
AcDbEntity
  8
001
370
    50
100
AcDb2dPolyline
 66
     1
 10
0.0
 20
0.0
 30
0.0
  0
VERTEX
  5
3E5
330
3E3
100
AcDbEntity
  8
001
370
    50
100
AcDbVertex
100
AcDb2dVertex
 10
101.232651
 20
70.017734
 30
0.0
  0
VERTEX
  5
3E6
330
3E3
100
AcDbEntity
  8
001
370
    50
100
AcDbVertex
100
AcDb2dVertex
 10
101.119988
 20
69.960195
 30
0.0
  0
VERTEX
  5
3E7
330
3E3
100
AcDbEntity
  8
001
370
    50
100
AcDbVertex
100
AcDb2dVertex
 10
101.011007
 20
69.89707
 30
0.0
  0
VERTEX
  5
3E8
330
3E3
100
AcDbEntity
  8
001
370
    50
100
AcDbVertex
100
AcDb2dVertex
 10
100.871099
 20
69.795005
 30
0.0
  0
VERTEX
  5
3E9
330
3E3
100
AcDbEntity
  8
001
370
    50
100
AcDbVertex
100
AcDb2dVertex
 10
100.73816
 20
69.682367
 30
0.0
  0
SEQEND
  5
3E4
330
3E3
100
AcDbEntity
  8
001
370
    50
  0
POLYLINE
  5
3EA
330
1F
100
AcDbEntity
  8
001
370
    50
100
AcDb2dPolyline
 66
     1
 10
0.0
 20
0.0
 30
0.0
  0
VERTEX
  5
3EC
330
3EA
100
AcDbEntity
  8
001
370
    50
100
AcDbVertex
100
AcDb2dVertex
 10
100.653019
 20
69.680318
 30
0.0
  0
VERTEX
  5
3ED
330
3EA
100
AcDbEntity
  8
001
370
    50
100
AcDbVertex
100
AcDb2dVertex
 10
100.670312
 20
69.680712
 30
0.0
  0
VERTEX
  5
3EE
330
3EA
100
AcDbEntity
  8
001
370
    50
100
AcDbVertex
100
AcDb2dVertex
 10
100.695587
 20
69.681307
 30
0.0
  0
VERTEX
  5
3EF
330
3EA
100
AcDbEntity
  8
001
370
    50
100
AcDbVertex
100
AcDb2dVertex
 10
100.720865
 20
69.681929
 30
0.0
  0
VERTEX
  5
3F0
330
3EA
100
AcDbEntity
  8
001
370
    50
100
AcDbVertex
100
AcDb2dVertex
 10
100.73816
 20
69.682367
 30
0.0
  0
SEQEND
  5
3EB
330
3EA
100
AcDbEntity
  8
001
370
    50
  0
POLYLINE
  5
3F1
330
1F
100
AcDbEntity
  8
001
370
    50
100
AcDb2dPolyline
 66
     1
 10
0.0
 20
0.0
 30
0.0
  0
VERTEX
  5
3F3
330
3F1
100
AcDbEntity
  8
001
370
    50
100
AcDbVertex
100
AcDb2dVertex
 10
101.803675
 20
70.173755
 30
0.0
  0
VERTEX
  5
3F4
330
3F1
100
AcDbEntity
  8
001
370
    50
100
AcDbVertex
100
AcDb2dVertex
 10
101.660147
 20
70.15185
 30
0.0
  0
VERTEX
  5
3F5
330
3F1
100
AcDbEntity
  8
001
370
    50
100
AcDbVertex
100
AcDb2dVertex
 10
101.518915
 20
70.121472
 30
0.0
  0
VERTEX
  5
3F6
330
3F1
100
AcDbEntity
  8
001
370
    50
100
AcDbVertex
100
AcDb2dVertex
 10
101.374513
 20
70.074289
 30
0.0
  0
VERTEX
  5
3F7
330
3F1
100
AcDbEntity
  8
001
370
    50
100
AcDbVertex
100
AcDb2dVertex
 10
101.232651
 20
70.017734
 30
0.0
  0
SEQEND
  5
3F2
330
3F1
100
AcDbEntity
  8
001
370
    50
  0
POLYLINE
  5
3F8
330
1F
100
AcDbEntity
  8
001
370
    50
100
AcDb2dPolyline
 66
     1
 10
0.0
 20
0.0
 30
0.0
  0
VERTEX
  5
3FA
330
3F8
100
AcDbEntity
  8
001
370
    50
100
AcDbVertex
100
AcDb2dVertex
 10
102.365618
 20
70.141734
 30
0.0
  0
VERTEX
  5
3FB
330
3F8
100
AcDbEntity
  8
001
370
    50
100
AcDbVertex
100
AcDb2dVertex
 10
102.247126
 20
70.162523
 30
0.0
  0
VERTEX
  5
3FC
330
3F8
100
AcDbEntity
  8
001
370
    50
100
AcDbVertex
100
AcDb2dVertex
 10
102.12806
 20
70.177252
 30
0.0
  0
VERTEX
  5
3FD
330
3F8
100
AcDbEntity
  8
001
370
    50
100
AcDbVertex
100
AcDb2dVertex
 10
102.056595
 20
70.181229
 30
0.0
  0
VERTEX
  5
3FE
330
3F8
100
AcDbEntity
  8
001
370
    50
100
AcDbVertex
100
AcDb2dVertex
 10
101.984927
 20
70.183051
 30
0.0
  0
SEQEND
  5
3F9
330
3F8
100
AcDbEntity
  8
001
370
    50
  0
POLYLINE
  5
3FF
330
1F
100
AcDbEntity
  8
001
370
    50
100
AcDb2dPolyline
 66
     1
 10
0.0
 20
0.0
 30
0.0
  0
VERTEX
  5
401
330
3FF
100
AcDbEntity
  8
001
370
    50
100
AcDbVertex
100
AcDb2dVertex
 10
102.918003
 20
69.913246
 30
0.0
  0
VERTEX
  5
402
330
3FF
100
AcDbEntity
  8
001
370
    50
100
AcDbVertex
100
AcDb2dVertex
 10
102.798618
 20
69.980262
 30
0.0
  0
VERTEX
  5
403
330
3FF
100
AcDbEntity
  8
001
370
    50
100
AcDbVertex
100
AcDb2dVertex
 10
102.676274
 20
70.041139
 30
0.0
  0
VERTEX
  5
404
330
3FF
100
AcDbEntity
  8
001
370
    50
100
AcDbVertex
100
AcDb2dVertex
 10
102.545517
 20
70.092044
 30
0.0
  0
VERTEX
  5
405
330
3FF
100
AcDbEntity
  8
001
370
    50
100
AcDbVertex
100
AcDb2dVertex
 10
102.410638
 20
70.131087
 30
0.0
  0
VERTEX
  5
406
330
3FF
100
AcDbEntity
  8
001
370
    50
100
AcDbVertex
100
AcDb2dVertex
 10
102.388142
 20
70.136484
 30
0.0
  0
VERTEX
  5
407
330
3FF
100
AcDbEntity
  8
001
370
    50
100
AcDbVertex
100
AcDb2dVertex
 10
102.365618
 20
70.141734
 30
0.0
  0
SEQEND
  5
400
330
3FF
100
AcDbEntity
  8
001
370
    50
  0
POLYLINE
  5
408
330
1F
100
AcDbEntity
  8
001
370
    50
100
AcDb2dPolyline
 66
     1
 10
0.0
 20
0.0
 30
0.0
  0
VERTEX
  5
40A
330
408
100
AcDbEntity
  8
001
370
    50
100
AcDbVertex
100
AcDb2dVertex
 10
103.117582
 20
69.762608
 30
0.0
  0
VERTEX
  5
40B
330
408
100
AcDbEntity
  8
001
370
    50
100
AcDbVertex
100
AcDb2dVertex
 10
103.02623
 20
69.836063
 30
0.0
  0
VERTEX
  5
40C
330
408
100
AcDbEntity
  8
001
370
    50
100
AcDbVertex
100
AcDb2dVertex
 10
102.931369
 20
69.904543
 30
0.0
  0
VERTEX
  5
40D
330
408
100
AcDbEntity
  8
001
370
    50
100
AcDbVertex
100
AcDb2dVertex
 10
102.924694
 20
69.908906
 30
0.0
  0
VERTEX
  5
40E
330
408
100
AcDbEntity
  8
001
370
    50
100
AcDbVertex
100
AcDb2dVertex
 10
102.918003
 20
69.913246
 30
0.0
  0
SEQEND
  5
409
330
408
100
AcDbEntity
  8
001
370
    50
  0
POLYLINE
  5
40F
330
1F
100
AcDbEntity
  8
001
370
    50
100
AcDb2dPolyline
 66
     1
 10
0.0
 20
0.0
 30
0.0
  0
VERTEX
  5
411
330
40F
100
AcDbEntity
  8
001
370
    50
100
AcDbVertex
100
AcDb2dVertex
 10
103.454533
 20
69.356207
 30
0.0
  0
VERTEX
  5
412
330
40F
100
AcDbEntity
  8
001
370
    50
100
AcDbVertex
100
AcDb2dVertex
 10
103.403713
 20
69.435624
 30
0.0
  0
VERTEX
  5
413
330
40F
100
AcDbEntity
  8
001
370
    50
100
AcDbVertex
100
AcDb2dVertex
 10
103.349682
 20
69.512697
 30
0.0
  0
VERTEX
  5
414
330
40F
100
AcDbEntity
  8
001
370
    50
100
AcDbVertex
100
AcDb2dVertex
 10
103.325015
 20
69.544375
 30
0.0
  0
VERTEX
  5
415
330
40F
100
AcDbEntity
  8
001
370
    50
100
AcDbVertex
100
AcDb2dVertex
 10
103.299764
 20
69.575626
 30
0.0
  0
SEQEND
  5
410
330
40F
100
AcDbEntity
  8
001
370
    50
  0
POLYLINE
  5
416
330
1F
100
AcDbEntity
  8
001
370
    50
100
AcDb2dPolyline
 66
     1
 10
0.0
 20
0.0
 30
0.0
  0
VERTEX
  5
418
330
416
100
AcDbEntity
  8
001
370
    50
100
AcDbVertex
100
AcDb2dVertex
 10
103.367825
 20
67.478249
 30
0.0
  0
VERTEX
  5
419
330
416
100
AcDbEntity
  8
001
370
    50
100
AcDbVertex
100
AcDb2dVertex
 10
103.418124
 20
67.558456
 30
0.0
  0
VERTEX
  5
41A
330
416
100
AcDbEntity
  8
001
370
    50
100
AcDbVertex
100
AcDb2dVertex
 10
103.465797
 20
67.640146
 30
0.0
  0
VERTEX
  5
41B
330
416
100
AcDbEntity
  8
001
370
    50
100
AcDbVertex
100
AcDb2dVertex
 10
103.508588
 20
67.724147
 30
0.0
  0
VERTEX
  5
41C
330
416
100
AcDbEntity
  8
001
370
    50
100
AcDbVertex
100
AcDb2dVertex
 10
103.546631
 20
67.810496
 30
0.0
  0
VERTEX
  5
41D
330
416
100
AcDbEntity
  8
001
370
    50
100
AcDbVertex
100
AcDb2dVertex
 10
103.597257
 20
67.948909
 30
0.0
  0
VERTEX
  5
41E
330
416
100
AcDbEntity
  8
001
370
    50
100
AcDbVertex
100
AcDb2dVertex
 10
103.636819
 20
68.09086
 30
0.0
  0
VERTEX
  5
41F
330
416
100
AcDbEntity
  8
001
370
    50
100
AcDbVertex
100
AcDb2dVertex
 10
103.664617
 20
68.234757
 30
0.0
  0
VERTEX
  5
420
330
416
100
AcDbEntity
  8
001
370
    50
100
AcDbVertex
100
AcDb2dVertex
 10
103.680488
 20
68.380462
 30
0.0
  0
VERTEX
  5
421
330
416
100
AcDbEntity
  8
001
370
    50
100
AcDbVertex
100
AcDb2dVertex
 10
103.684033
 20
68.531283
 30
0.0
  0
VERTEX
  5
422
330
416
100
AcDbEntity
  8
001
370
    50
100
AcDbVertex
100
AcDb2dVertex
 10
103.67451
 20
68.681836
 30
0.0
  0
VERTEX
  5
423
330
416
100
AcDbEntity
  8
001
370
    50
100
AcDbVertex
100
AcDb2dVertex
 10
103.652026
 20
68.830566
 30
0.0
  0
VERTEX
  5
424
330
416
100
AcDbEntity
  8
001
370
    50
100
AcDbVertex
100
AcDb2dVertex
 10
103.616857
 20
68.976855
 30
0.0
  0
VERTEX
  5
425
330
416
100
AcDbEntity
  8
001
370
    50
100
AcDbVertex
100
AcDb2dVertex
 10
103.585348
 20
69.075443
 30
0.0
  0
VERTEX
  5
426
330
416
100
AcDbEntity
  8
001
370
    50
100
AcDbVertex
100
AcDb2dVertex
 10
103.547291
 20
69.171553
 30
0.0
  0
VERTEX
  5
427
330
416
100
AcDbEntity
  8
001
370
    50
100
AcDbVertex
100
AcDb2dVertex
 10
103.502725
 20
69.264709
 30
0.0
  0
VERTEX
  5
428
330
416
100
AcDbEntity
  8
001
370
    50
100
AcDbVertex
100
AcDb2dVertex
 10
103.454533
 20
69.356207
 30
0.0
  0
SEQEND
  5
417
330
416
100
AcDbEntity
  8
001
370
    50
  0
LINE
  5
429
330
1F
100
AcDbEntity
  8
001
370
    50
100
AcDbLine
 10
101.984927
 20
70.183051
 30
0.0
 11
101.803675
 21
70.173755
 31
0.0
  0
POLYLINE
  5
42A
330
1F
100
AcDbEntity
  8
001
370
    50
100
AcDb2dPolyline
 66
     1
 10
0.0
 20
0.0
 30
0.0
  0
VERTEX
  5
42C
330
42A
100
AcDbEntity
  8
001
370
    50
100
AcDbVertex
100
AcDb2dVertex
 10
103.086177
 20
67.154326
 30
0.0
  0
VERTEX
  5
42D
330
42A
100
AcDbEntity
  8
001
370
    50
100
AcDbVertex
100
AcDb2dVertex
 10
103.169029
 20
67.236174
 30
0.0
  0
VERTEX
  5
42E
330
42A
100
AcDbEntity
  8
001
370
    50
100
AcDbVertex
100
AcDb2dVertex
 10
103.247786
 20
67.321549
 30
0.0
  0
VERTEX
  5
42F
330
42A
100
AcDbEntity
  8
001
370
    50
100
AcDbVertex
100
AcDb2dVertex
 10
103.309281
 20
67.398628
 30
0.0
  0
VERTEX
  5
430
330
42A
100
AcDbEntity
  8
001
370
    50
100
AcDbVertex
100
AcDb2dVertex
 10
103.367825
 20
67.478249
 30
0.0
  0
SEQEND
  5
42B
330
42A
100
AcDbEntity
  8
001
370
    50
  0
LINE
  5
431
330
1F
100
AcDbEntity
  8
001
370
    50
100
AcDbLine
 10
96.514103
 20
77.590833
 30
0.0
 11
96.514103
 21
80.766382
 31
0.0
  0
LINE
  5
432
330
1F
100
AcDbEntity
  8
001
370
    50
100
AcDbLine
 10
95.514103
 20
68.517624
 30
0.0
 11
95.514103
 21
77.766382
 31
0.0
  0
POLYLINE
  5
433
330
1F
100
AcDbEntity
  8
001
370
    50
100
AcDb2dPolyline
 66
     1
 10
0.0
 20
0.0
 30
0.0
  0
VERTEX
  5
435
330
433
100
AcDbEntity
  8
001
370
    50
100
AcDbVertex
100
AcDb2dVertex
 10
95.723072
 20
68.517624
 30
0.0
  0
VERTEX
  5
436
330
433
100
AcDbEntity
  8
001
370
    50
100
AcDbVertex
100
AcDb2dVertex
 10
95.765392
 20
68.518423
 30
0.0
  0
VERTEX
  5
437
330
433
100
AcDbEntity
  8
001
370
    50
100
AcDbVertex
100
AcDb2dVertex
 10
95.808493
 20
68.519311
 30
0.0
  0
VERTEX
  5
438
330
433
100
AcDbEntity
  8
001
370
    50
100
AcDbVertex
100
AcDb2dVertex
 10
95.97619
 20
68.523483
 30
0.0
  0
VERTEX
  5
439
330
433
100
AcDbEntity
  8
001
370
    50
100
AcDbVertex
100
AcDb2dVertex
 10
96.090917
 20
68.526881
 30
0.0
  0
SEQEND
  5
434
330
433
100
AcDbEntity
  8
001
370
    50
  0
POLYLINE
  5
43A
330
1F
100
AcDbEntity
  8
001
370
    50
100
AcDb2dPolyline
 66
     1
 10
0.0
 20
0.0
 30
0.0
  0
VERTEX
  5
43C
330
43A
100
AcDbEntity
  8
001
370
    50
100
AcDbVertex
100
AcDb2dVertex
 10
97.714141
 20
68.895064
 30
0.0
  0
VERTEX
  5
43D
330
43A
100
AcDbEntity
  8
001
370
    50
100
AcDbVertex
100
AcDb2dVertex
 10
97.593823
 20
68.888205
 30
0.0
  0
VERTEX
  5
43E
330
43A
100
AcDbEntity
  8
001
370
    50
100
AcDbVertex
100
AcDb2dVertex
 10
97.42886
 20
68.866826
 30
0.0
  0
VERTEX
  5
43F
330
43A
100
AcDbEntity
  8
001
370
    50
100
AcDbVertex
100
AcDb2dVertex
 10
97.282288
 20
68.830622
 30
0.0
  0
VERTEX
  5
440
330
43A
100
AcDbEntity
  8
001
370
    50
100
AcDbVertex
100
AcDb2dVertex
 10
97.15432
 20
68.783176
 30
0.0
  0
VERTEX
  5
441
330
43A
100
AcDbEntity
  8
001
370
    50
100
AcDbVertex
100
AcDb2dVertex
 10
97.030193
 20
68.725747
 30
0.0
  0
VERTEX
  5
442
330
43A
100
AcDbEntity
  8
001
370
    50
100
AcDbVertex
100
AcDb2dVertex
 10
96.900857
 20
68.647263
 30
0.0
  0
VERTEX
  5
443
330
43A
100
AcDbEntity
  8
001
370
    50
100
AcDbVertex
100
AcDb2dVertex
 10
96.814087
 20
68.582235
 30
0.0
  0
VERTEX
  5
444
330
43A
100
AcDbEntity
  8
001
370
    50
100
AcDbVertex
100
AcDb2dVertex
 10
96.736392
 20
68.517624
 30
0.0
  0
SEQEND
  5
43B
330
43A
100
AcDbEntity
  8
001
370
    50
  0
LINE
  5
445
330
1F
100
AcDbEntity
  8
001
370
    50
100
AcDbLine
 10
97.9212
 20
68.895064
 30
0.0
 11
97.714141
 21
68.895064
 31
0.0
  0
POLYLINE
  5
446
330
1F
100
AcDbEntity
  8
001
370
    50
100
AcDb2dPolyline
 66
     1
 10
0.0
 20
0.0
 30
0.0
  0
VERTEX
  5
448
330
446
100
AcDbEntity
  8
001
370
    50
100
AcDbVertex
100
AcDb2dVertex
 10
100.73816
 20
69.682367
 30
0.0
  0
VERTEX
  5
449
330
446
100
AcDbEntity
  8
001
370
    50
100
AcDbVertex
100
AcDb2dVertex
 10
100.64426
 20
69.622363
 30
0.0
  0
VERTEX
  5
44A
330
446
100
AcDbEntity
  8
001
370
    50
100
AcDbVertex
100
AcDb2dVertex
 10
100.511036
 20
69.533051
 30
0.0
  0
SEQEND
  5
447
330
446
100
AcDbEntity
  8
001
370
    50
  0
POLYLINE
  5
44B
330
1F
100
AcDbEntity
  8
001
370
    50
100
AcDb2dPolyline
 66
     1
 10
0.0
 20
0.0
 30
0.0
  0
VERTEX
  5
44D
330
44B
100
AcDbEntity
  8
001
370
    50
100
AcDbVertex
100
AcDb2dVertex
 10
103.117582
 20
69.762608
 30
0.0
  0
VERTEX
  5
44E
330
44B
100
AcDbEntity
  8
001
370
    50
100
AcDbVertex
100
AcDb2dVertex
 10
103.17229
 20
69.718656
 30
0.0
  0
VERTEX
  5
44F
330
44B
100
AcDbEntity
  8
001
370
    50
100
AcDbVertex
100
AcDb2dVertex
 10
103.223319
 20
69.671163
 30
0.0
  0
VERTEX
  5
450
330
44B
100
AcDbEntity
  8
001
370
    50
100
AcDbVertex
100
AcDb2dVertex
 10
103.262951
 20
69.624751
 30
0.0
  0
VERTEX
  5
451
330
44B
100
AcDbEntity
  8
001
370
    50
100
AcDbVertex
100
AcDb2dVertex
 10
103.299764
 20
69.575626
 30
0.0
  0
SEQEND
  5
44C
330
44B
100
AcDbEntity
  8
001
370
    50
  0
POLYLINE
  5
452
330
1F
100
AcDbEntity
  8
001
370
    50
100
AcDb2dPolyline
 66
     1
 10
0.0
 20
0.0
 30
0.0
  0
VERTEX
  5
454
330
452
100
AcDbEntity
  8
001
370
    50
100
AcDbVertex
100
AcDb2dVertex
 10
102.149333
 20
66.841433
 30
0.0
  0
VERTEX
  5
455
330
452
100
AcDbEntity
  8
001
370
    50
100
AcDbVertex
100
AcDb2dVertex
 10
102.165978
 20
66.84881
 30
0.0
  0
VERTEX
  5
456
330
452
100
AcDbEntity
  8
001
370
    50
100
AcDbVertex
100
AcDb2dVertex
 10
102.182294
 20
66.856243
 30
0.0
  0
VERTEX
  5
457
330
452
100
AcDbEntity
  8
001
370
    50
100
AcDbVertex
100
AcDb2dVertex
 10
102.326451
 20
66.933357
 30
0.0
  0
VERTEX
  5
458
330
452
100
AcDbEntity
  8
001
370
    50
100
AcDbVertex
100
AcDb2dVertex
 10
102.45028
 20
67.019134
 30
0.0
  0
VERTEX
  5
459
330
452
100
AcDbEntity
  8
001
370
    50
100
AcDbVertex
100
AcDb2dVertex
 10
102.57062
 20
67.117984
 30
0.0
  0
VERTEX
  5
45A
330
452
100
AcDbEntity
  8
001
370
    50
100
AcDbVertex
100
AcDb2dVertex
 10
102.684913
 20
67.228463
 30
0.0
  0
VERTEX
  5
45B
330
452
100
AcDbEntity
  8
001
370
    50
100
AcDbVertex
100
AcDb2dVertex
 10
102.787791
 20
67.348663
 30
0.0
  0
VERTEX
  5
45C
330
452
100
AcDbEntity
  8
001
370
    50
100
AcDbVertex
100
AcDb2dVertex
 10
102.878487
 20
67.477355
 30
0.0
  0
VERTEX
  5
45D
330
452
100
AcDbEntity
  8
001
370
    50
100
AcDbVertex
100
AcDb2dVertex
 10
102.957743
 20
67.614173
 30
0.0
  0
VERTEX
  5
45E
330
452
100
AcDbEntity
  8
001
370
    50
100
AcDbVertex
100
AcDb2dVertex
 10
103.024644
 20
67.757635
 30
0.0
  0
VERTEX
  5
45F
330
452
100
AcDbEntity
  8
001
370
    50
100
AcDbVertex
100
AcDb2dVertex
 10
103.078423
 20
67.906771
 30
0.0
  0
VERTEX
  5
460
330
452
100
AcDbEntity
  8
001
370
    50
100
AcDbVertex
100
AcDb2dVertex
 10
103.118584
 20
68.060098
 30
0.0
  0
VERTEX
  5
461
330
452
100
AcDbEntity
  8
001
370
    50
100
AcDbVertex
100
AcDb2dVertex
 10
103.144927
 20
68.216588
 30
0.0
  0
VERTEX
  5
462
330
452
100
AcDbEntity
  8
001
370
    50
100
AcDbVertex
100
AcDb2dVertex
 10
103.157221
 20
68.37481
 30
0.0
  0
VERTEX
  5
463
330
452
100
AcDbEntity
  8
001
370
    50
100
AcDbVertex
100
AcDb2dVertex
 10
103.155334
 20
68.533524
 30
0.0
  0
VERTEX
  5
464
330
452
100
AcDbEntity
  8
001
370
    50
100
AcDbVertex
100
AcDb2dVertex
 10
103.139287
 20
68.691435
 30
0.0
  0
VERTEX
  5
465
330
452
100
AcDbEntity
  8
001
370
    50
100
AcDbVertex
100
AcDb2dVertex
 10
103.109215
 20
68.84716
 30
0.0
  0
VERTEX
  5
466
330
452
100
AcDbEntity
  8
001
370
    50
100
AcDbVertex
100
AcDb2dVertex
 10
103.06537
 20
68.999574
 30
0.0
  0
VERTEX
  5
467
330
452
100
AcDbEntity
  8
001
370
    50
100
AcDbVertex
100
AcDb2dVertex
 10
103.00817
 20
69.147197
 30
0.0
  0
VERTEX
  5
468
330
452
100
AcDbEntity
  8
001
370
    50
100
AcDbVertex
100
AcDb2dVertex
 10
102.937899
 20
69.289106
 30
0.0
  0
VERTEX
  5
469
330
452
100
AcDbEntity
  8
001
370
    50
100
AcDbVertex
100
AcDb2dVertex
 10
102.855248
 20
69.423824
 30
0.0
  0
VERTEX
  5
46A
330
452
100
AcDbEntity
  8
001
370
    50
100
AcDbVertex
100
AcDb2dVertex
 10
102.76106
 20
69.550522
 30
0.0
  0
VERTEX
  5
46B
330
452
100
AcDbEntity
  8
001
370
    50
100
AcDbVertex
100
AcDb2dVertex
 10
102.656434
 20
69.667804
 30
0.0
  0
VERTEX
  5
46C
330
452
100
AcDbEntity
  8
001
370
    50
100
AcDbVertex
100
AcDb2dVertex
 10
102.54066
 20
69.775237
 30
0.0
  0
VERTEX
  5
46D
330
452
100
AcDbEntity
  8
001
370
    50
100
AcDbVertex
100
AcDb2dVertex
 10
102.414645
 20
69.871684
 30
0.0
  0
VERTEX
  5
46E
330
452
100
AcDbEntity
  8
001
370
    50
100
AcDbVertex
100
AcDb2dVertex
 10
102.283939
 20
69.95587
 30
0.0
  0
VERTEX
  5
46F
330
452
100
AcDbEntity
  8
001
370
    50
100
AcDbVertex
100
AcDb2dVertex
 10
102.151222
 20
70.026672
 30
0.0
  0
VERTEX
  5
470
330
452
100
AcDbEntity
  8
001
370
    50
100
AcDbVertex
100
AcDb2dVertex
 10
101.999328
 20
70.086488
 30
0.0
  0
VERTEX
  5
471
330
452
100
AcDbEntity
  8
001
370
    50
100
AcDbVertex
100
AcDb2dVertex
 10
101.824954
 20
70.13544
 30
0.0
  0
VERTEX
  5
472
330
452
100
AcDbEntity
  8
001
370
    50
100
AcDbVertex
100
AcDb2dVertex
 10
101.696175
 20
70.162802
 30
0.0
  0
SEQEND
  5
453
330
452
100
AcDbEntity
  8
001
370
    50
  0
POLYLINE
  5
473
330
1F
100
AcDbEntity
  8
001
370
    50
100
AcDb2dPolyline
 66
     1
 10
0.0
 20
0.0
 30
0.0
  0
VERTEX
  5
475
330
473
100
AcDbEntity
  8
001
370
    50
100
AcDbVertex
100
AcDb2dVertex
 10
102.183944
 20
66.805719
 30
0.0
  0
VERTEX
  5
476
330
473
100
AcDbEntity
  8
001
370
    50
100
AcDbVertex
100
AcDb2dVertex
 10
102.352039
 20
66.84974
 30
0.0
  0
VERTEX
  5
477
330
473
100
AcDbEntity
  8
001
370
    50
100
AcDbVertex
100
AcDb2dVertex
 10
102.528611
 20
66.905161
 30
0.0
  0
VERTEX
  5
478
330
473
100
AcDbEntity
  8
001
370
    50
100
AcDbVertex
100
AcDb2dVertex
 10
102.864301
 20
67.041978
 30
0.0
  0
VERTEX
  5
479
330
473
100
AcDbEntity
  8
001
370
    50
100
AcDbVertex
100
AcDb2dVertex
 10
103.086177
 20
67.154326
 30
0.0
  0
SEQEND
  5
474
330
473
100
AcDbEntity
  8
001
370
    50
  0
POLYLINE
  5
47A
330
1F
100
AcDbEntity
  8
001
370
    50
100
AcDb2dPolyline
 66
     1
 10
0.0
 20
0.0
 30
0.0
  0
VERTEX
  5
47C
330
47A
100
AcDbEntity
  8
001
370
    50
100
AcDbVertex
100
AcDb2dVertex
 10
103.086177
 20
67.154326
 30
0.0
  0
VERTEX
  5
47D
330
47A
100
AcDbEntity
  8
001
370
    50
100
AcDbVertex
100
AcDb2dVertex
 10
103.021943
 20
66.358173
 30
0.0
  0
VERTEX
  5
47E
330
47A
100
AcDbEntity
  8
001
370
    50
100
AcDbVertex
100
AcDb2dVertex
 10
102.931507
 20
65.184551
 30
0.0
  0
SEQEND
  5
47B
330
47A
100
AcDbEntity
  8
001
370
    50
  0
POLYLINE
  5
47F
330
1F
100
AcDbEntity
  8
001
370
    50
100
AcDb2dPolyline
 66
     1
 10
0.0
 20
0.0
 30
0.0
  0
VERTEX
  5
481
330
47F
100
AcDbEntity
  8
001
370
    50
100
AcDbVertex
100
AcDb2dVertex
 10
102.757254
 20
62.676968
 30
0.0
  0
VERTEX
  5
482
330
47F
100
AcDbEntity
  8
001
370
    50
100
AcDbVertex
100
AcDb2dVertex
 10
102.743727
 20
62.467323
 30
0.0
  0
VERTEX
  5
483
330
47F
100
AcDbEntity
  8
001
370
    50
100
AcDbVertex
100
AcDb2dVertex
 10
102.733163
 20
62.301369
 30
0.0
  0
SEQEND
  5
480
330
47F
100
AcDbEntity
  8
001
370
    50
  0
POLYLINE
  5
484
330
1F
100
AcDbEntity
  8
001
370
    50
100
AcDb2dPolyline
 66
     1
 10
0.0
 20
0.0
 30
0.0
  0
VERTEX
  5
486
330
484
100
AcDbEntity
  8
001
370
    50
100
AcDbVertex
100
AcDb2dVertex
 10
101.942824
 20
62.610478
 30
0.0
  0
VERTEX
  5
487
330
484
100
AcDbEntity
  8
001
370
    50
100
AcDbVertex
100
AcDb2dVertex
 10
102.102326
 20
62.521838
 30
0.0
  0
VERTEX
  5
488
330
484
100
AcDbEntity
  8
001
370
    50
100
AcDbVertex
100
AcDb2dVertex
 10
102.307487
 20
62.427066
 30
0.0
  0
VERTEX
  5
489
330
484
100
AcDbEntity
  8
001
370
    50
100
AcDbVertex
100
AcDb2dVertex
 10
102.557307
 20
62.343548
 30
0.0
  0
VERTEX
  5
48A
330
484
100
AcDbEntity
  8
001
370
    50
100
AcDbVertex
100
AcDb2dVertex
 10
102.733163
 20
62.301369
 30
0.0
  0
SEQEND
  5
485
330
484
100
AcDbEntity
  8
001
370
    50
  0
LINE
  5
48B
330
1F
100
AcDbEntity
  8
001
370
    50
100
AcDbLine
 10
108.114103
 20
75.912825
 30
0.0
 11
108.114103
 21
80.766382
 31
0.0
  0
LINE
  5
48C
330
1F
100
AcDbEntity
  8
001
370
    50
100
AcDbLine
 10
111.408932
 20
72.461988
 30
0.0
 11
111.408932
 21
84.166382
 31
0.0
  0
LINE
  5
48D
330
1F
100
AcDbEntity
  8
001
  6
CENTER
370
     9
100
AcDbLine
 10
218.111315
 20
71.516382
 30
0.0
 11
94.049387
 21
71.516382
 31
0.0
  0
LINE
  5
48E
330
1F
100
AcDbEntity
  8
001
370
    50
100
AcDbLine
 10
215.114103
 20
71.516382
 30
0.0
 11
218.578205
 21
73.516382
 31
0.0
  0
LINE
  5
48F
330
1F
100
AcDbEntity
  8
001
370
    50
100
AcDbLine
 10
215.114103
 20
71.516382
 30
0.0
 11
218.578205
 21
69.516382
 31
0.0
  0
LINE
  5
490
330
1F
100
AcDbEntity
  8
001
370
    50
100
AcDbLine
 10
138.114103
 20
59.016382
 30
0.0
 11
138.114103
 21
84.016382
 31
0.0
  0
LINE
  5
491
330
1F
100
AcDbEntity
  8
001
370
    50
100
AcDbLine
 10
138.114103
 20
83.516382
 30
0.0
 11
135.114103
 21
83.516382
 31
0.0
  0
LINE
  5
492
330
1F
100
AcDbEntity
  8
001
370
    50
100
AcDbLine
 10
135.114103
 20
59.516382
 30
0.0
 11
138.114103
 21
59.516382
 31
0.0
  0
TEXT
  5
493
330
1F
100
AcDbEntity
  8
001
370
    30
100
AcDbText
 10
36.708687
 20
-10.588483
 30
0.0
 40
2.285714
  1
加工形状
 41
0.833333
100
AcDbText
  0
CIRCLE
  5
494
330
1F
100
AcDbEntity
  8
001
370
    50
100
AcDbCircle
 10
112.343289
 20
62.906852
 30
0.0
 40
1.9
  0
LINE
  5
495
330
1F
100
AcDbEntity
  8
001
370
    50
100
AcDbLine
 10
112.776302
 20
63.656852
 30
0.0
 11
112.516494
 21
64.106852
 31
0.0
  0
LINE
  5
496
330
1F
100
AcDbEntity
  8
001
370
    50
100
AcDbLine
 10
111.910276
 20
63.656852
 30
0.0
 11
112.170084
 21
64.106852
 31
0.0
  0
ARC
  5
497
330
1F
100
AcDbEntity
  8
001
370
    50
100
AcDbCircle
 10
112.343289
 20
64.006852
 30
0.0
 40
0.2
100
AcDbArc
 50
30.0
 51
150.0
  0
LINE
  5
498
330
1F
100
AcDbEntity
  8
001
370
    50
100
AcDbLine
 10
111.910276
 20
63.656852
 30
0.0
 11
111.390661
 21
63.656852
 31
0.0
  0
LINE
  5
499
330
1F
100
AcDbEntity
  8
001
370
    50
100
AcDbLine
 10
111.477264
 20
62.906852
 30
0.0
 11
111.217456
 21
63.356852
 31
0.0
  0
ARC
  5
49A
330
1F
100
AcDbEntity
  8
001
370
    50
100
AcDbCircle
 10
111.390661
 20
63.456852
 30
0.0
 40
0.2
100
AcDbArc
 50
90.0
 51
210.0
  0
LINE
  5
49B
330
1F
100
AcDbEntity
  8
001
370
    50
100
AcDbLine
 10
111.477264
 20
62.906852
 30
0.0
 11
111.217456
 21
62.456852
 31
0.0
  0
LINE
  5
49C
330
1F
100
AcDbEntity
  8
001
370
    50
100
AcDbLine
 10
111.910276
 20
62.156852
 30
0.0
 11
111.390661
 21
62.156852
 31
0.0
  0
ARC
  5
49D
330
1F
100
AcDbEntity
  8
001
370
    50
100
AcDbCircle
 10
111.390661
 20
62.356852
 30
0.0
 40
0.2
100
AcDbArc
 50
150.0
 51
270.0
  0
LINE
  5
49E
330
1F
100
AcDbEntity
  8
001
370
    50
100
AcDbLine
 10
111.910276
 20
62.156852
 30
0.0
 11
112.170084
 21
61.706852
 31
0.0
  0
LINE
  5
49F
330
1F
100
AcDbEntity
  8
001
370
    50
100
AcDbLine
 10
112.776302
 20
62.156852
 30
0.0
 11
112.516494
 21
61.706852
 31
0.0
  0
ARC
  5
4A0
330
1F
100
AcDbEntity
  8
001
370
    50
100
AcDbCircle
 10
112.343289
 20
61.806852
 30
0.0
 40
0.2
100
AcDbArc
 50
210.0
 51
330.0
  0
LINE
  5
4A1
330
1F
100
AcDbEntity
  8
001
370
    50
100
AcDbLine
 10
112.776302
 20
62.156852
 30
0.0
 11
113.295917
 21
62.156852
 31
0.0
  0
LINE
  5
4A2
330
1F
100
AcDbEntity
  8
001
370
    50
100
AcDbLine
 10
113.209314
 20
62.906852
 30
0.0
 11
113.469122
 21
62.456852
 31
0.0
  0
ARC
  5
4A3
330
1F
100
AcDbEntity
  8
001
370
    50
100
AcDbCircle
 10
113.295917
 20
62.356852
 30
0.0
 40
0.2
100
AcDbArc
 50
270.0
 51
30.0
  0
LINE
  5
4A4
330
1F
100
AcDbEntity
  8
001
370
    50
100
AcDbLine
 10
113.209314
 20
62.906852
 30
0.0
 11
113.469122
 21
63.356852
 31
0.0
  0
LINE
  5
4A5
330
1F
100
AcDbEntity
  8
001
370
    50
100
AcDbLine
 10
112.776302
 20
63.656852
 30
0.0
 11
113.295917
 21
63.656852
 31
0.0
  0
ARC
  5
4A6
330
1F
100
AcDbEntity
  8
001
370
    50
100
AcDbCircle
 10
113.295917
 20
63.456852
 30
0.0
 40
0.2
100
AcDbArc
 50
330.0
 51
90.0
  0
LINE
  5
4A7
330
1F
100
AcDbEntity
  8
001
370
    50
100
AcDbLine
 10
109.24652
 20
63.848811
 30
0.0
 11
107.80593
 21
62.385998
 31
0.0
  0
LINE
  5
4A8
330
1F
100
AcDbEntity
  8
001
370
    50
100
AcDbLine
 10
109.24652
 20
63.848811
 30
0.0
 11
109.258746
 21
65.395146
 31
0.0
  0
LINE
  5
4A9
330
1F
100
AcDbEntity
  8
001
370
    50
100
AcDbLine
 10
111.366542
 20
67.535458
 30
0.0
 11
109.258746
 21
65.395146
 31
0.0
  0
POLYLINE
  5
4AA
330
1F
100
AcDbEntity
  8
001
370
    50
100
AcDb2dPolyline
 66
     1
 10
0.0
 20
0.0
 30
0.0
  0
VERTEX
  5
4AC
330
4AA
100
AcDbEntity
  8
001
370
    50
100
AcDbVertex
100
AcDb2dVertex
 10
111.919455
 20
67.535458
 30
0.0
  0
VERTEX
  5
4AD
330
4AA
100
AcDbEntity
  8
001
370
    50
100
AcDbVertex
100
AcDb2dVertex
 10
111.898147
 20
67.554959
 30
0.0
  0
VERTEX
  5
4AE
330
4AA
100
AcDbEntity
  8
001
370
    50
100
AcDbVertex
100
AcDb2dVertex
 10
111.867249
 20
67.57994
 30
0.0
  0
VERTEX
  5
4AF
330
4AA
100
AcDbEntity
  8
001
370
    50
100
AcDbVertex
100
AcDb2dVertex
 10
111.837479
 20
67.599574
 30
0.0
  0
VERTEX
  5
4B0
330
4AA
100
AcDbEntity
  8
001
370
    50
100
AcDbVertex
100
AcDb2dVertex
 10
111.808229
 20
67.614541
 30
0.0
  0
VERTEX
  5
4B1
330
4AA
100
AcDbEntity
  8
001
370
    50
100
AcDbVertex
100
AcDb2dVertex
 10
111.777002
 20
67.62751
 30
0.0
  0
VERTEX
  5
4B2
330
4AA
100
AcDbEntity
  8
001
370
    50
100
AcDbVertex
100
AcDb2dVertex
 10
111.744189
 20
67.638209
 30
0.0
  0
VERTEX
  5
4B3
330
4AA
100
AcDbEntity
  8
001
370
    50
100
AcDbVertex
100
AcDb2dVertex
 10
111.710829
 20
67.645782
 30
0.0
  0
VERTEX
  5
4B4
330
4AA
100
AcDbEntity
  8
001
370
    50
100
AcDbVertex
100
AcDb2dVertex
 10
111.677074
 20
67.650226
 30
0.0
  0
VERTEX
  5
4B5
330
4AA
100
AcDbEntity
  8
001
370
    50
100
AcDbVertex
100
AcDb2dVertex
 10
111.642998
 20
67.651696
 30
0.0
  0
VERTEX
  5
4B6
330
4AA
100
AcDbEntity
  8
001
370
    50
100
AcDbVertex
100
AcDb2dVertex
 10
111.608923
 20
67.650226
 30
0.0
  0
VERTEX
  5
4B7
330
4AA
100
AcDbEntity
  8
001
370
    50
100
AcDbVertex
100
AcDb2dVertex
 10
111.575168
 20
67.645782
 30
0.0
  0
VERTEX
  5
4B8
330
4AA
100
AcDbEntity
  8
001
370
    50
100
AcDbVertex
100
AcDb2dVertex
 10
111.541808
 20
67.638209
 30
0.0
  0
VERTEX
  5
4B9
330
4AA
100
AcDbEntity
  8
001
370
    50
100
AcDbVertex
100
AcDb2dVertex
 10
111.508995
 20
67.62751
 30
0.0
  0
VERTEX
  5
4BA
330
4AA
100
AcDbEntity
  8
001
370
    50
100
AcDbVertex
100
AcDb2dVertex
 10
111.477768
 20
67.614541
 30
0.0
  0
VERTEX
  5
4BB
330
4AA
100
AcDbEntity
  8
001
370
    50
100
AcDbVertex
100
AcDb2dVertex
 10
111.448518
 20
67.599574
 30
0.0
  0
VERTEX
  5
4BC
330
4AA
100
AcDbEntity
  8
001
370
    50
100
AcDbVertex
100
AcDb2dVertex
 10
111.418748
 20
67.57994
 30
0.0
  0
VERTEX
  5
4BD
330
4AA
100
AcDbEntity
  8
001
370
    50
100
AcDbVertex
100
AcDb2dVertex
 10
111.38785
 20
67.554959
 30
0.0
  0
VERTEX
  5
4BE
330
4AA
100
AcDbEntity
  8
001
370
    50
100
AcDbVertex
100
AcDb2dVertex
 10
111.366542
 20
67.535458
 30
0.0
  0
SEQEND
  5
4AB
330
4AA
100
AcDbEntity
  8
001
370
    50
  0
LINE
  5
4BF
330
1F
100
AcDbEntity
  8
001
370
    50
100
AcDbLine
 10
113.360825
 20
66.071852
 30
0.0
 11
111.919455
 21
67.535458
 31
0.0
  0
LINE
  5
4C0
330
1F
100
AcDbEntity
  8
001
370
    50
100
AcDbLine
 10
114.786485
 20
66.06023
 30
0.0
 11
113.360825
 21
66.071852
 31
0.0
  0
LINE
  5
4C1
330
1F
100
AcDbEntity
  8
001
370
    50
100
AcDbLine
 10
116.894281
 20
63.919918
 30
0.0
 11
114.786485
 21
66.06023
 31
0.0
  0
POLYLINE
  5
4C2
330
1F
100
AcDbEntity
  8
001
370
    50
100
AcDb2dPolyline
 66
     1
 10
0.0
 20
0.0
 30
0.0
  0
VERTEX
  5
4C4
330
4C2
100
AcDbEntity
  8
001
370
    50
100
AcDbVertex
100
AcDb2dVertex
 10
116.894281
 20
63.358475
 30
0.0
  0
VERTEX
  5
4C5
330
4C2
100
AcDbEntity
  8
001
370
    50
100
AcDbVertex
100
AcDb2dVertex
 10
116.915748
 20
63.382982
 30
0.0
  0
VERTEX
  5
4C6
330
4C2
100
AcDbEntity
  8
001
370
    50
100
AcDbVertex
100
AcDb2dVertex
 10
116.942903
 20
63.418635
 30
0.0
  0
VERTEX
  5
4C7
330
4C2
100
AcDbEntity
  8
001
370
    50
100
AcDbVertex
100
AcDb2dVertex
 10
116.963798
 20
63.453254
 30
0.0
  0
VERTEX
  5
4C8
330
4C2
100
AcDbEntity
  8
001
370
    50
100
AcDbVertex
100
AcDb2dVertex
 10
116.979033
 20
63.487271
 30
0.0
  0
VERTEX
  5
4C9
330
4C2
100
AcDbEntity
  8
001
370
    50
100
AcDbVertex
100
AcDb2dVertex
 10
116.991655
 20
63.523646
 30
0.0
  0
VERTEX
  5
4CA
330
4C2
100
AcDbEntity
  8
001
370
    50
100
AcDbVertex
100
AcDb2dVertex
 10
117.001281
 20
63.561745
 30
0.0
  0
VERTEX
  5
4CB
330
4C2
100
AcDbEntity
  8
001
370
    50
100
AcDbVertex
100
AcDb2dVertex
 10
117.006971
 20
63.600397
 30
0.0
  0
VERTEX
  5
4CC
330
4C2
100
AcDbEntity
  8
001
370
    50
100
AcDbVertex
100
AcDb2dVertex
 10
117.008793
 20
63.639196
 30
0.0
  0
VERTEX
  5
4CD
330
4C2
100
AcDbEntity
  8
001
370
    50
100
AcDbVertex
100
AcDb2dVertex
 10
117.006971
 20
63.677996
 30
0.0
  0
VERTEX
  5
4CE
330
4C2
100
AcDbEntity
  8
001
370
    50
100
AcDbVertex
100
AcDb2dVertex
 10
117.001281
 20
63.716647
 30
0.0
  0
VERTEX
  5
4CF
330
4C2
100
AcDbEntity
  8
001
370
    50
100
AcDbVertex
100
AcDb2dVertex
 10
116.991655
 20
63.754747
 30
0.0
  0
VERTEX
  5
4D0
330
4C2
100
AcDbEntity
  8
001
370
    50
100
AcDbVertex
100
AcDb2dVertex
 10
116.979033
 20
63.791122
 30
0.0
  0
VERTEX
  5
4D1
330
4C2
100
AcDbEntity
  8
001
370
    50
100
AcDbVertex
100
AcDb2dVertex
 10
116.963798
 20
63.825138
 30
0.0
  0
VERTEX
  5
4D2
330
4C2
100
AcDbEntity
  8
001
370
    50
100
AcDbVertex
100
AcDb2dVertex
 10
116.942903
 20
63.859758
 30
0.0
  0
VERTEX
  5
4D3
330
4C2
100
AcDbEntity
  8
001
370
    50
100
AcDbVertex
100
AcDb2dVertex
 10
116.915748
 20
63.89541
 30
0.0
  0
VERTEX
  5
4D4
330
4C2
100
AcDbEntity
  8
001
370
    50
100
AcDbVertex
100
AcDb2dVertex
 10
116.894281
 20
63.919918
 30
0.0
  0
SEQEND
  5
4C3
330
4C2
100
AcDbEntity
  8
001
370
    50
  0
LINE
  5
4D5
330
1F
100
AcDbEntity
  8
001
370
    50
100
AcDbLine
 10
115.452911
 20
61.894869
 30
0.0
 11
116.894281
 21
63.358475
 31
0.0
  0
LINE
  5
4D6
330
1F
100
AcDbEntity
  8
001
370
    50
100
AcDbLine
 10
115.441465
 20
60.447216
 30
0.0
 11
115.452911
 21
61.894869
 31
0.0
  0
LINE
  5
4D7
330
1F
100
AcDbEntity
  8
001
370
    50
100
AcDbLine
 10
113.334057
 20
58.307298
 30
0.0
 11
115.441465
 21
60.447216
 31
0.0
  0
LINE
  5
4D8
330
1F
100
AcDbEntity
  8
001
370
    50
100
AcDbLine
 10
111.343451
 20
59.766382
 30
0.0
 11
112.780368
 21
58.307298
 31
0.0
  0
POLYLINE
  5
4D9
330
1F
100
AcDbEntity
  8
001
370
    50
100
AcDb2dPolyline
 66
     1
 10
0.0
 20
0.0
 30
0.0
  0
VERTEX
  5
4DB
330
4D9
100
AcDbEntity
  8
001
370
    50
100
AcDbVertex
100
AcDb2dVertex
 10
112.350105
 20
65.171181
 30
0.0
  0
VERTEX
  5
4DC
330
4D9
100
AcDbEntity
  8
001
370
    50
100
AcDbVertex
100
AcDb2dVertex
 10
112.187657
 20
65.162611
 30
0.0
  0
VERTEX
  5
4DD
330
4D9
100
AcDbEntity
  8
001
370
    50
100
AcDbVertex
100
AcDb2dVertex
 10
111.965333
 20
65.136998
 30
0.0
  0
VERTEX
  5
4DE
330
4D9
100
AcDbEntity
  8
001
370
    50
100
AcDbVertex
100
AcDb2dVertex
 10
111.768311
 20
65.094491
 30
0.0
  0
VERTEX
  5
4DF
330
4D9
100
AcDbEntity
  8
001
370
    50
100
AcDbVertex
100
AcDb2dVertex
 10
111.592251
 20
65.035489
 30
0.0
  0
VERTEX
  5
4E0
330
4D9
100
AcDbEntity
  8
001
370
    50
100
AcDbVertex
100
AcDb2dVertex
 10
111.415786
 20
64.960325
 30
0.0
  0
VERTEX
  5
4E1
330
4D9
100
AcDbEntity
  8
001
370
    50
100
AcDbVertex
100
AcDb2dVertex
 10
111.242197
 20
64.869738
 30
0.0
  0
VERTEX
  5
4E2
330
4D9
100
AcDbEntity
  8
001
370
    50
100
AcDbVertex
100
AcDb2dVertex
 10
111.078473
 20
64.764198
 30
0.0
  0
VERTEX
  5
4E3
330
4D9
100
AcDbEntity
  8
001
370
    50
100
AcDbVertex
100
AcDb2dVertex
 10
110.925805
 20
64.644781
 30
0.0
  0
VERTEX
  5
4E4
330
4D9
100
AcDbEntity
  8
001
370
    50
100
AcDbVertex
100
AcDb2dVertex
 10
110.783359
 20
64.512075
 30
0.0
  0
VERTEX
  5
4E5
330
4D9
100
AcDbEntity
  8
001
370
    50
100
AcDbVertex
100
AcDb2dVertex
 10
110.652691
 20
64.367453
 30
0.0
  0
VERTEX
  5
4E6
330
4D9
100
AcDbEntity
  8
001
370
    50
100
AcDbVertex
100
AcDb2dVertex
 10
110.534906
 20
64.211625
 30
0.0
  0
VERTEX
  5
4E7
330
4D9
100
AcDbEntity
  8
001
370
    50
100
AcDbVertex
100
AcDb2dVertex
 10
110.431151
 20
64.046181
 30
0.0
  0
VERTEX
  5
4E8
330
4D9
100
AcDbEntity
  8
001
370
    50
100
AcDbVertex
100
AcDb2dVertex
 10
110.341868
 20
63.87198
 30
0.0
  0
VERTEX
  5
4E9
330
4D9
100
AcDbEntity
  8
001
370
    50
100
AcDbVertex
100
AcDb2dVertex
 10
110.267918
 20
63.690726
 30
0.0
  0
VERTEX
  5
4EA
330
4D9
100
AcDbEntity
  8
001
370
    50
100
AcDbVertex
100
AcDb2dVertex
 10
110.209775
 20
63.50346
 30
0.0
  0
VERTEX
  5
4EB
330
4D9
100
AcDbEntity
  8
001
370
    50
100
AcDbVertex
100
AcDb2dVertex
 10
110.167951
 20
63.311889
 30
0.0
  0
VERTEX
  5
4EC
330
4D9
100
AcDbEntity
  8
001
370
    50
100
AcDbVertex
100
AcDb2dVertex
 10
110.142723
 20
63.117259
 30
0.0
  0
VERTEX
  5
4ED
330
4D9
100
AcDbEntity
  8
001
370
    50
100
AcDbVertex
100
AcDb2dVertex
 10
110.134288
 20
62.921181
 30
0.0
  0
VERTEX
  5
4EE
330
4D9
100
AcDbEntity
  8
001
370
    50
100
AcDbVertex
100
AcDb2dVertex
 10
110.142723
 20
62.725103
 30
0.0
  0
VERTEX
  5
4EF
330
4D9
100
AcDbEntity
  8
001
370
    50
100
AcDbVertex
100
AcDb2dVertex
 10
110.167951
 20
62.530473
 30
0.0
  0
VERTEX
  5
4F0
330
4D9
100
AcDbEntity
  8
001
370
    50
100
AcDbVertex
100
AcDb2dVertex
 10
110.209775
 20
62.338902
 30
0.0
  0
VERTEX
  5
4F1
330
4D9
100
AcDbEntity
  8
001
370
    50
100
AcDbVertex
100
AcDb2dVertex
 10
110.267918
 20
62.151636
 30
0.0
  0
VERTEX
  5
4F2
330
4D9
100
AcDbEntity
  8
001
370
    50
100
AcDbVertex
100
AcDb2dVertex
 10
110.341868
 20
61.970382
 30
0.0
  0
VERTEX
  5
4F3
330
4D9
100
AcDbEntity
  8
001
370
    50
100
AcDbVertex
100
AcDb2dVertex
 10
110.431151
 20
61.796181
 30
0.0
  0
VERTEX
  5
4F4
330
4D9
100
AcDbEntity
  8
001
370
    50
100
AcDbVertex
100
AcDb2dVertex
 10
110.534906
 20
61.630737
 30
0.0
  0
VERTEX
  5
4F5
330
4D9
100
AcDbEntity
  8
001
370
    50
100
AcDbVertex
100
AcDb2dVertex
 10
110.652691
 20
61.474909
 30
0.0
  0
VERTEX
  5
4F6
330
4D9
100
AcDbEntity
  8
001
370
    50
100
AcDbVertex
100
AcDb2dVertex
 10
110.783359
 20
61.330287
 30
0.0
  0
VERTEX
  5
4F7
330
4D9
100
AcDbEntity
  8
001
370
    50
100
AcDbVertex
100
AcDb2dVertex
 10
110.925805
 20
61.197581
 30
0.0
  0
VERTEX
  5
4F8
330
4D9
100
AcDbEntity
  8
001
370
    50
100
AcDbVertex
100
AcDb2dVertex
 10
111.078473
 20
61.078164
 30
0.0
  0
VERTEX
  5
4F9
330
4D9
100
AcDbEntity
  8
001
370
    50
100
AcDbVertex
100
AcDb2dVertex
 10
111.242197
 20
60.972624
 30
0.0
  0
VERTEX
  5
4FA
330
4D9
100
AcDbEntity
  8
001
370
    50
100
AcDbVertex
100
AcDb2dVertex
 10
111.415786
 20
60.882036
 30
0.0
  0
VERTEX
  5
4FB
330
4D9
100
AcDbEntity
  8
001
370
    50
100
AcDbVertex
100
AcDb2dVertex
 10
111.592251
 20
60.806873
 30
0.0
  0
VERTEX
  5
4FC
330
4D9
100
AcDbEntity
  8
001
370
    50
100
AcDbVertex
100
AcDb2dVertex
 10
111.768311
 20
60.747871
 30
0.0
  0
VERTEX
  5
4FD
330
4D9
100
AcDbEntity
  8
001
370
    50
100
AcDbVertex
100
AcDb2dVertex
 10
111.965333
 20
60.705363
 30
0.0
  0
VERTEX
  5
4FE
330
4D9
100
AcDbEntity
  8
001
370
    50
100
AcDbVertex
100
AcDb2dVertex
 10
112.187657
 20
60.679751
 30
0.0
  0
VERTEX
  5
4FF
330
4D9
100
AcDbEntity
  8
001
370
    50
100
AcDbVertex
100
AcDb2dVertex
 10
112.350105
 20
60.671181
 30
0.0
  0
SEQEND
  5
4DA
330
4D9
100
AcDbEntity
  8
001
370
    50
  0
POLYLINE
  5
500
330
1F
100
AcDbEntity
  8
001
370
    50
100
AcDb2dPolyline
 66
     1
 10
0.0
 20
0.0
 30
0.0
  0
VERTEX
  5
502
330
500
100
AcDbEntity
  8
001
370
    50
100
AcDbVertex
100
AcDb2dVertex
 10
112.350105
 20
60.671181
 30
0.0
  0
VERTEX
  5
503
330
500
100
AcDbEntity
  8
001
370
    50
100
AcDbVertex
100
AcDb2dVertex
 10
112.512554
 20
60.679751
 30
0.0
  0
VERTEX
  5
504
330
500
100
AcDbEntity
  8
001
370
    50
100
AcDbVertex
100
AcDb2dVertex
 10
112.734878
 20
60.705363
 30
0.0
  0
VERTEX
  5
505
330
500
100
AcDbEntity
  8
001
370
    50
100
AcDbVertex
100
AcDb2dVertex
 10
112.9319
 20
60.747871
 30
0.0
  0
VERTEX
  5
506
330
500
100
AcDbEntity
  8
001
370
    50
100
AcDbVertex
100
AcDb2dVertex
 10
113.10796
 20
60.806873
 30
0.0
  0
VERTEX
  5
507
330
500
100
AcDbEntity
  8
001
370
    50
100
AcDbVertex
100
AcDb2dVertex
 10
113.284425
 20
60.882036
 30
0.0
  0
VERTEX
  5
508
330
500
100
AcDbEntity
  8
001
370
    50
100
AcDbVertex
100
AcDb2dVertex
 10
113.458014
 20
60.972624
 30
0.0
  0
VERTEX
  5
509
330
500
100
AcDbEntity
  8
001
370
    50
100
AcDbVertex
100
AcDb2dVertex
 10
113.621738
 20
61.078164
 30
0.0
  0
VERTEX
  5
50A
330
500
100
AcDbEntity
  8
001
370
    50
100
AcDbVertex
100
AcDb2dVertex
 10
113.774405
 20
61.197581
 30
0.0
  0
VERTEX
  5
50B
330
500
100
AcDbEntity
  8
001
370
    50
100
AcDbVertex
100
AcDb2dVertex
 10
113.916852
 20
61.330287
 30
0.0
  0
VERTEX
  5
50C
330
500
100
AcDbEntity
  8
001
370
    50
100
AcDbVertex
100
AcDb2dVertex
 10
114.04752
 20
61.474909
 30
0.0
  0
VERTEX
  5
50D
330
500
100
AcDbEntity
  8
001
370
    50
100
AcDbVertex
100
AcDb2dVertex
 10
114.165305
 20
61.630737
 30
0.0
  0
VERTEX
  5
50E
330
500
100
AcDbEntity
  8
001
370
    50
100
AcDbVertex
100
AcDb2dVertex
 10
114.26906
 20
61.796181
 30
0.0
  0
VERTEX
  5
50F
330
500
100
AcDbEntity
  8
001
370
    50
100
AcDbVertex
100
AcDb2dVertex
 10
114.358343
 20
61.970382
 30
0.0
  0
VERTEX
  5
510
330
500
100
AcDbEntity
  8
001
370
    50
100
AcDbVertex
100
AcDb2dVertex
 10
114.432293
 20
62.151636
 30
0.0
  0
VERTEX
  5
511
330
500
100
AcDbEntity
  8
001
370
    50
100
AcDbVertex
100
AcDb2dVertex
 10
114.490436
 20
62.338902
 30
0.0
  0
VERTEX
  5
512
330
500
100
AcDbEntity
  8
001
370
    50
100
AcDbVertex
100
AcDb2dVertex
 10
114.53226
 20
62.530473
 30
0.0
  0
VERTEX
  5
513
330
500
100
AcDbEntity
  8
001
370
    50
100
AcDbVertex
100
AcDb2dVertex
 10
114.557488
 20
62.725103
 30
0.0
  0
VERTEX
  5
514
330
500
100
AcDbEntity
  8
001
370
    50
100
AcDbVertex
100
AcDb2dVertex
 10
114.565923
 20
62.921181
 30
0.0
  0
VERTEX
  5
515
330
500
100
AcDbEntity
  8
001
370
    50
100
AcDbVertex
100
AcDb2dVertex
 10
114.557488
 20
63.117259
 30
0.0
  0
VERTEX
  5
516
330
500
100
AcDbEntity
  8
001
370
    50
100
AcDbVertex
100
AcDb2dVertex
 10
114.53226
 20
63.311889
 30
0.0
  0
VERTEX
  5
517
330
500
100
AcDbEntity
  8
001
370
    50
100
AcDbVertex
100
AcDb2dVertex
 10
114.490436
 20
63.50346
 30
0.0
  0
VERTEX
  5
518
330
500
100
AcDbEntity
  8
001
370
    50
100
AcDbVertex
100
AcDb2dVertex
 10
114.432293
 20
63.690726
 30
0.0
  0
VERTEX
  5
519
330
500
100
AcDbEntity
  8
001
370
    50
100
AcDbVertex
100
AcDb2dVertex
 10
114.358343
 20
63.87198
 30
0.0
  0
VERTEX
  5
51A
330
500
100
AcDbEntity
  8
001
370
    50
100
AcDbVertex
100
AcDb2dVertex
 10
114.26906
 20
64.046181
 30
0.0
  0
VERTEX
  5
51B
330
500
100
AcDbEntity
  8
001
370
    50
100
AcDbVertex
100
AcDb2dVertex
 10
114.165305
 20
64.211625
 30
0.0
  0
VERTEX
  5
51C
330
500
100
AcDbEntity
  8
001
370
    50
100
AcDbVertex
100
AcDb2dVertex
 10
114.04752
 20
64.367453
 30
0.0
  0
VERTEX
  5
51D
330
500
100
AcDbEntity
  8
001
370
    50
100
AcDbVertex
100
AcDb2dVertex
 10
113.916852
 20
64.512075
 30
0.0
  0
VERTEX
  5
51E
330
500
100
AcDbEntity
  8
001
370
    50
100
AcDbVertex
100
AcDb2dVertex
 10
113.774405
 20
64.644781
 30
0.0
  0
VERTEX
  5
51F
330
500
100
AcDbEntity
  8
001
370
    50
100
AcDbVertex
100
AcDb2dVertex
 10
113.621738
 20
64.764198
 30
0.0
  0
VERTEX
  5
520
330
500
100
AcDbEntity
  8
001
370
    50
100
AcDbVertex
100
AcDb2dVertex
 10
113.458014
 20
64.869738
 30
0.0
  0
VERTEX
  5
521
330
500
100
AcDbEntity
  8
001
370
    50
100
AcDbVertex
100
AcDb2dVertex
 10
113.284425
 20
64.960325
 30
0.0
  0
VERTEX
  5
522
330
500
100
AcDbEntity
  8
001
370
    50
100
AcDbVertex
100
AcDb2dVertex
 10
113.10796
 20
65.035489
 30
0.0
  0
VERTEX
  5
523
330
500
100
AcDbEntity
  8
001
370
    50
100
AcDbVertex
100
AcDb2dVertex
 10
112.9319
 20
65.094491
 30
0.0
  0
VERTEX
  5
524
330
500
100
AcDbEntity
  8
001
370
    50
100
AcDbVertex
100
AcDb2dVertex
 10
112.734878
 20
65.136998
 30
0.0
  0
VERTEX
  5
525
330
500
100
AcDbEntity
  8
001
370
    50
100
AcDbVertex
100
AcDb2dVertex
 10
112.512554
 20
65.162611
 30
0.0
  0
VERTEX
  5
526
330
500
100
AcDbEntity
  8
001
370
    50
100
AcDbVertex
100
AcDb2dVertex
 10
112.350105
 20
65.171181
 30
0.0
  0
SEQEND
  5
501
330
500
100
AcDbEntity
  8
001
370
    50
  0
LINE
  5
527
330
1F
100
AcDbEntity
  8
001
370
    50
100
AcDbLine
 10
118.339821
 20
59.170201
 30
0.0
 11
117.776821
 21
59.123986
 31
0.0
  0
LINE
  5
528
330
1F
100
AcDbEntity
  8
001
370
    50
100
AcDbLine
 10
118.902821
 20
59.220176
 30
0.0
 11
118.339821
 21
59.170201
 31
0.0
  0
POLYLINE
  5
529
330
1F
100
AcDbEntity
  8
001
370
    50
100
AcDb2dPolyline
 66
     1
 10
0.0
 20
0.0
 30
0.0
  0
VERTEX
  5
52B
330
529
100
AcDbEntity
  8
001
370
    50
100
AcDbVertex
100
AcDb2dVertex
 10
117.137041
 20
59.247883
 30
0.0
  0
VERTEX
  5
52C
330
529
100
AcDbEntity
  8
001
370
    50
100
AcDbVertex
100
AcDb2dVertex
 10
117.199323
 20
59.215179
 30
0.0
  0
VERTEX
  5
52D
330
529
100
AcDbEntity
  8
001
370
    50
100
AcDbVertex
100
AcDb2dVertex
 10
117.291366
 20
59.169425
 30
0.0
  0
VERTEX
  5
52E
330
529
100
AcDbEntity
  8
001
370
    50
100
AcDbVertex
100
AcDb2dVertex
 10
117.383163
 20
59.127302
 30
0.0
  0
VERTEX
  5
52F
330
529
100
AcDbEntity
  8
001
370
    50
100
AcDbVertex
100
AcDb2dVertex
 10
117.446618
 20
59.099893
 30
0.0
  0
SEQEND
  5
52A
330
529
100
AcDbEntity
  8
001
370
    50
  0
LINE
  5
530
330
1F
100
AcDbEntity
  8
001
370
    50
100
AcDbLine
 10
117.776821
 20
59.123986
 30
0.0
 11
117.446618
 21
59.099893
 31
0.0
  0
LINE
  5
531
330
1F
100
AcDbEntity
  8
001
370
    50
100
AcDbLine
 10
106.123367
 20
62.401306
 30
0.0
 11
107.632892
 21
62.341809
 31
0.0
  0
POLYLINE
  5
532
330
1F
100
AcDbEntity
  8
001
370
    50
100
AcDb2dPolyline
 66
     1
 10
0.0
 20
0.0
 30
0.0
  0
VERTEX
  5
534
330
532
100
AcDbEntity
  8
001
370
    50
100
AcDbVertex
100
AcDb2dVertex
 10
107.632892
 20
62.341809
 30
0.0
  0
VERTEX
  5
535
330
532
100
AcDbEntity
  8
001
370
    50
100
AcDbVertex
100
AcDb2dVertex
 10
107.645111
 20
62.353886
 30
0.0
  0
VERTEX
  5
536
330
532
100
AcDbEntity
  8
001
370
    50
100
AcDbVertex
100
AcDb2dVertex
 10
107.662966
 20
62.371542
 30
0.0
  0
VERTEX
  5
537
330
532
100
AcDbEntity
  8
001
370
    50
100
AcDbVertex
100
AcDb2dVertex
 10
107.680844
 20
62.389237
 30
0.0
  0
VERTEX
  5
538
330
532
100
AcDbEntity
  8
001
370
    50
100
AcDbVertex
100
AcDb2dVertex
 10
107.693073
 20
62.401347
 30
0.0
  0
SEQEND
  5
533
330
532
100
AcDbEntity
  8
001
370
    50
  0
POLYLINE
  5
539
330
1F
100
AcDbEntity
  8
001
370
    50
100
AcDb2dPolyline
 66
     1
 10
0.0
 20
0.0
 30
0.0
  0
VERTEX
  5
53B
330
539
100
AcDbEntity
  8
001
370
    50
100
AcDbVertex
100
AcDb2dVertex
 10
107.693073
 20
62.401347
 30
0.0
  0
VERTEX
  5
53C
330
539
100
AcDbEntity
  8
001
370
    50
100
AcDbVertex
100
AcDb2dVertex
 10
107.809912
 20
62.51546
 30
0.0
  0
VERTEX
  5
53D
330
539
100
AcDbEntity
  8
001
370
    50
100
AcDbVertex
100
AcDb2dVertex
 10
107.980204
 20
62.682722
 30
0.0
  0
VERTEX
  5
53E
330
539
100
AcDbEntity
  8
001
370
    50
100
AcDbVertex
100
AcDb2dVertex
 10
108.152946
 20
62.853722
 30
0.0
  0
VERTEX
  5
53F
330
539
100
AcDbEntity
  8
001
370
    50
100
AcDbVertex
100
AcDb2dVertex
 10
108.270811
 20
62.971051
 30
0.0
  0
SEQEND
  5
53A
330
539
100
AcDbEntity
  8
001
370
    50
  0
POLYLINE
  5
540
330
1F
100
AcDbEntity
  8
001
370
    50
100
AcDb2dPolyline
 66
     1
 10
0.0
 20
0.0
 30
0.0
  0
VERTEX
  5
542
330
540
100
AcDbEntity
  8
001
370
    50
100
AcDbVertex
100
AcDb2dVertex
 10
108.270811
 20
62.971051
 30
0.0
  0
VERTEX
  5
543
330
540
100
AcDbEntity
  8
001
370
    50
100
AcDbVertex
100
AcDb2dVertex
 10
108.28206
 20
62.982096
 30
0.0
  0
VERTEX
  5
544
330
540
100
AcDbEntity
  8
001
370
    50
100
AcDbVertex
100
AcDb2dVertex
 10
108.298496
 20
62.998243
 30
0.0
  0
VERTEX
  5
545
330
540
100
AcDbEntity
  8
001
370
    50
100
AcDbVertex
100
AcDb2dVertex
 10
108.314957
 20
63.014427
 30
0.0
  0
VERTEX
  5
546
330
540
100
AcDbEntity
  8
001
370
    50
100
AcDbVertex
100
AcDb2dVertex
 10
108.326217
 20
63.025504
 30
0.0
  0
SEQEND
  5
541
330
540
100
AcDbEntity
  8
001
370
    50
  0
POLYLINE
  5
547
330
1F
100
AcDbEntity
  8
001
370
    50
100
AcDb2dPolyline
 66
     1
 10
0.0
 20
0.0
 30
0.0
  0
VERTEX
  5
549
330
547
100
AcDbEntity
  8
001
370
    50
100
AcDbVertex
100
AcDb2dVertex
 10
108.897966
 20
65.024801
 30
0.0
  0
VERTEX
  5
54A
330
547
100
AcDbEntity
  8
001
370
    50
100
AcDbVertex
100
AcDb2dVertex
 10
108.782891
 20
64.883157
 30
0.0
  0
VERTEX
  5
54B
330
547
100
AcDbEntity
  8
001
370
    50
100
AcDbVertex
100
AcDb2dVertex
 10
108.67577
 20
64.735968
 30
0.0
  0
VERTEX
  5
54C
330
547
100
AcDbEntity
  8
001
370
    50
100
AcDbVertex
100
AcDb2dVertex
 10
108.580543
 20
64.574329
 30
0.0
  0
VERTEX
  5
54D
330
547
100
AcDbEntity
  8
001
370
    50
100
AcDbVertex
100
AcDb2dVertex
 10
108.500944
 20
64.404049
 30
0.0
  0
VERTEX
  5
54E
330
547
100
AcDbEntity
  8
001
370
    50
100
AcDbVertex
100
AcDb2dVertex
 10
108.437852
 20
64.233419
 30
0.0
  0
VERTEX
  5
54F
330
547
100
AcDbEntity
  8
001
370
    50
100
AcDbVertex
100
AcDb2dVertex
 10
108.388867
 20
64.058306
 30
0.0
  0
VERTEX
  5
550
330
547
100
AcDbEntity
  8
001
370
    50
100
AcDbVertex
100
AcDb2dVertex
 10
108.35379
 20
63.873525
 30
0.0
  0
VERTEX
  5
551
330
547
100
AcDbEntity
  8
001
370
    50
100
AcDbVertex
100
AcDb2dVertex
 10
108.335626
 20
63.686459
 30
0.0
  0
VERTEX
  5
552
330
547
100
AcDbEntity
  8
001
370
    50
100
AcDbVertex
100
AcDb2dVertex
 10
108.33374
 20
63.638435
 30
0.0
  0
VERTEX
  5
553
330
547
100
AcDbEntity
  8
001
370
    50
100
AcDbVertex
100
AcDb2dVertex
 10
108.332446
 20
63.590394
 30
0.0
  0
SEQEND
  5
548
330
547
100
AcDbEntity
  8
001
370
    50
  0
LINE
  5
554
330
1F
100
AcDbEntity
  8
001
370
    50
100
AcDbLine
 10
108.953394
 20
65.082495
 30
0.0
 11
108.897966
 21
65.024801
 31
0.0
  0
POLYLINE
  5
555
330
1F
100
AcDbEntity
  8
001
370
    50
100
AcDb2dPolyline
 66
     1
 10
0.0
 20
0.0
 30
0.0
  0
VERTEX
  5
557
330
555
100
AcDbEntity
  8
001
370
    50
100
AcDbVertex
100
AcDb2dVertex
 10
108.984043
 20
64.63379
 30
0.0
  0
VERTEX
  5
558
330
555
100
AcDbEntity
  8
001
370
    50
100
AcDbVertex
100
AcDb2dVertex
 10
108.903711
 20
64.542509
 30
0.0
  0
VERTEX
  5
559
330
555
100
AcDbEntity
  8
001
370
    50
100
AcDbVertex
100
AcDb2dVertex
 10
108.801983
 20
64.408987
 30
0.0
  0
VERTEX
  5
55A
330
555
100
AcDbEntity
  8
001
370
    50
100
AcDbVertex
100
AcDb2dVertex
 10
108.723522
 20
64.2781
 30
0.0
  0
VERTEX
  5
55B
330
555
100
AcDbEntity
  8
001
370
    50
100
AcDbVertex
100
AcDb2dVertex
 10
108.666104
 20
64.152714
 30
0.0
  0
VERTEX
  5
55C
330
555
100
AcDbEntity
  8
001
370
    50
100
AcDbVertex
100
AcDb2dVertex
 10
108.618337
 20
64.023035
 30
0.0
  0
VERTEX
  5
55D
330
555
100
AcDbEntity
  8
001
370
    50
100
AcDbVertex
100
AcDb2dVertex
 10
108.581524
 20
63.874619
 30
0.0
  0
VERTEX
  5
55E
330
555
100
AcDbEntity
  8
001
370
    50
100
AcDbVertex
100
AcDb2dVertex
 10
108.559135
 20
63.707257
 30
0.0
  0
VERTEX
  5
55F
330
555
100
AcDbEntity
  8
001
370
    50
100
AcDbVertex
100
AcDb2dVertex
 10
108.551426
 20
63.585173
 30
0.0
  0
SEQEND
  5
556
330
555
100
AcDbEntity
  8
001
370
    50
  0
POLYLINE
  5
560
330
1F
100
AcDbEntity
  8
001
370
    50
100
AcDb2dPolyline
 66
     1
 10
0.0
 20
0.0
 30
0.0
  0
VERTEX
  5
562
330
560
100
AcDbEntity
  8
001
370
    50
100
AcDbVertex
100
AcDb2dVertex
 10
110.06955
 20
66.217897
 30
0.0
  0
VERTEX
  5
563
330
560
100
AcDbEntity
  8
001
370
    50
100
AcDbVertex
100
AcDb2dVertex
 10
110.185489
 20
66.336087
 30
0.0
  0
VERTEX
  5
564
330
560
100
AcDbEntity
  8
001
370
    50
100
AcDbVertex
100
AcDb2dVertex
 10
110.354499
 20
66.509256
 30
0.0
  0
VERTEX
  5
565
330
560
100
AcDbEntity
  8
001
370
    50
100
AcDbVertex
100
AcDb2dVertex
 10
110.524761
 20
66.684947
 30
0.0
  0
VERTEX
  5
566
330
560
100
AcDbEntity
  8
001
370
    50
100
AcDbVertex
100
AcDb2dVertex
 10
110.640952
 20
66.805451
 30
0.0
  0
SEQEND
  5
561
330
560
100
AcDbEntity
  8
001
370
    50
  0
POLYLINE
  5
567
330
1F
100
AcDbEntity
  8
001
370
    50
100
AcDb2dPolyline
 66
     1
 10
0.0
 20
0.0
 30
0.0
  0
VERTEX
  5
569
330
567
100
AcDbEntity
  8
001
370
    50
100
AcDbVertex
100
AcDb2dVertex
 10
110.680273
 20
67.363548
 30
0.0
  0
VERTEX
  5
56A
330
567
100
AcDbEntity
  8
001
370
    50
100
AcDbVertex
100
AcDb2dVertex
 10
110.660821
 20
67.262225
 30
0.0
  0
VERTEX
  5
56B
330
567
100
AcDbEntity
  8
001
370
    50
100
AcDbVertex
100
AcDb2dVertex
 10
110.645016
 20
67.160353
 30
0.0
  0
VERTEX
  5
56C
330
567
100
AcDbEntity
  8
001
370
    50
100
AcDbVertex
100
AcDb2dVertex
 10
110.635795
 20
67.056161
 30
0.0
  0
VERTEX
  5
56D
330
567
100
AcDbEntity
  8
001
370
    50
100
AcDbVertex
100
AcDb2dVertex
 10
110.633898
 20
66.951559
 30
0.0
  0
VERTEX
  5
56E
330
567
100
AcDbEntity
  8
001
370
    50
100
AcDbVertex
100
AcDb2dVertex
 10
110.636551
 20
66.878467
 30
0.0
  0
VERTEX
  5
56F
330
567
100
AcDbEntity
  8
001
370
    50
100
AcDbVertex
100
AcDb2dVertex
 10
110.640952
 20
66.805451
 30
0.0
  0
SEQEND
  5
568
330
567
100
AcDbEntity
  8
001
370
    50
  0
POLYLINE
  5
570
330
1F
100
AcDbEntity
  8
001
370
    50
100
AcDb2dPolyline
 66
     1
 10
0.0
 20
0.0
 30
0.0
  0
VERTEX
  5
572
330
570
100
AcDbEntity
  8
001
370
    50
100
AcDbVertex
100
AcDb2dVertex
 10
111.286413
 20
68.331732
 30
0.0
  0
VERTEX
  5
573
330
570
100
AcDbEntity
  8
001
370
    50
100
AcDbVertex
100
AcDb2dVertex
 10
111.207218
 20
68.262249
 30
0.0
  0
VERTEX
  5
574
330
570
100
AcDbEntity
  8
001
370
    50
100
AcDbVertex
100
AcDb2dVertex
 10
111.130816
 20
68.189905
 30
0.0
  0
VERTEX
  5
575
330
570
100
AcDbEntity
  8
001
370
    50
100
AcDbVertex
100
AcDb2dVertex
 10
111.058457
 20
68.111299
 30
0.0
  0
VERTEX
  5
576
330
570
100
AcDbEntity
  8
001
370
    50
100
AcDbVertex
100
AcDb2dVertex
 10
110.991501
 20
68.027893
 30
0.0
  0
VERTEX
  5
577
330
570
100
AcDbEntity
  8
001
370
    50
100
AcDbVertex
100
AcDb2dVertex
 10
110.908851
 20
67.908588
 30
0.0
  0
VERTEX
  5
578
330
570
100
AcDbEntity
  8
001
370
    50
100
AcDbVertex
100
AcDb2dVertex
 10
110.83597
 20
67.783046
 30
0.0
  0
VERTEX
  5
579
330
570
100
AcDbEntity
  8
001
370
    50
100
AcDbVertex
100
AcDb2dVertex
 10
110.771865
 20
67.648029
 30
0.0
  0
VERTEX
  5
57A
330
570
100
AcDbEntity
  8
001
370
    50
100
AcDbVertex
100
AcDb2dVertex
 10
110.720324
 20
67.507909
 30
0.0
  0
VERTEX
  5
57B
330
570
100
AcDbEntity
  8
001
370
    50
100
AcDbVertex
100
AcDb2dVertex
 10
110.699397
 20
67.435995
 30
0.0
  0
VERTEX
  5
57C
330
570
100
AcDbEntity
  8
001
370
    50
100
AcDbVertex
100
AcDb2dVertex
 10
110.680273
 20
67.363548
 30
0.0
  0
SEQEND
  5
571
330
570
100
AcDbEntity
  8
001
370
    50
  0
POLYLINE
  5
57D
330
1F
100
AcDbEntity
  8
001
370
    50
100
AcDb2dPolyline
 66
     1
 10
0.0
 20
0.0
 30
0.0
  0
VERTEX
  5
57F
330
57D
100
AcDbEntity
  8
001
370
    50
100
AcDbVertex
100
AcDb2dVertex
 10
111.864079
 20
68.644343
 30
0.0
  0
VERTEX
  5
580
330
57D
100
AcDbEntity
  8
001
370
    50
100
AcDbVertex
100
AcDb2dVertex
 10
111.740643
 20
68.59794
 30
0.0
  0
VERTEX
  5
581
330
57D
100
AcDbEntity
  8
001
370
    50
100
AcDbVertex
100
AcDb2dVertex
 10
111.619651
 20
68.545969
 30
0.0
  0
VERTEX
  5
582
330
57D
100
AcDbEntity
  8
001
370
    50
100
AcDbVertex
100
AcDb2dVertex
 10
111.500658
 20
68.482439
 30
0.0
  0
VERTEX
  5
583
330
57D
100
AcDbEntity
  8
001
370
    50
100
AcDbVertex
100
AcDb2dVertex
 10
111.387721
 20
68.408564
 30
0.0
  0
VERTEX
  5
584
330
57D
100
AcDbEntity
  8
001
370
    50
100
AcDbVertex
100
AcDb2dVertex
 10
111.336678
 20
68.37065
 30
0.0
  0
VERTEX
  5
585
330
57D
100
AcDbEntity
  8
001
370
    50
100
AcDbVertex
100
AcDb2dVertex
 10
111.286413
 20
68.331732
 30
0.0
  0
SEQEND
  5
57E
330
57D
100
AcDbEntity
  8
001
370
    50
  0
LINE
  5
586
330
1F
100
AcDbEntity
  8
001
370
    50
100
AcDbLine
 10
112.431341
 20
68.728316
 30
0.0
 11
112.40206
 21
68.72856
 31
0.0
  0
POLYLINE
  5
587
330
1F
100
AcDbEntity
  8
001
370
    50
100
AcDb2dPolyline
 66
     1
 10
0.0
 20
0.0
 30
0.0
  0
VERTEX
  5
589
330
587
100
AcDbEntity
  8
001
370
    50
100
AcDbVertex
100
AcDb2dVertex
 10
112.989981
 20
68.626118
 30
0.0
  0
VERTEX
  5
58A
330
587
100
AcDbEntity
  8
001
370
    50
100
AcDbVertex
100
AcDb2dVertex
 10
112.885066
 20
68.659151
 30
0.0
  0
VERTEX
  5
58B
330
587
100
AcDbEntity
  8
001
370
    50
100
AcDbVertex
100
AcDb2dVertex
 10
112.779124
 20
68.687104
 30
0.0
  0
VERTEX
  5
58C
330
587
100
AcDbEntity
  8
001
370
    50
100
AcDbVertex
100
AcDb2dVertex
 10
112.606541
 20
68.714175
 30
0.0
  0
VERTEX
  5
58D
330
587
100
AcDbEntity
  8
001
370
    50
100
AcDbVertex
100
AcDb2dVertex
 10
112.431341
 20
68.728316
 30
0.0
  0
SEQEND
  5
588
330
587
100
AcDbEntity
  8
001
370
    50
  0
POLYLINE
  5
58E
330
1F
100
AcDbEntity
  8
001
370
    50
100
AcDb2dPolyline
 66
     1
 10
0.0
 20
0.0
 30
0.0
  0
VERTEX
  5
590
330
58E
100
AcDbEntity
  8
001
370
    50
100
AcDbVertex
100
AcDb2dVertex
 10
113.538337
 20
68.30038
 30
0.0
  0
VERTEX
  5
591
330
58E
100
AcDbEntity
  8
001
370
    50
100
AcDbVertex
100
AcDb2dVertex
 10
113.510658
 20
68.324046
 30
0.0
  0
VERTEX
  5
592
330
58E
100
AcDbEntity
  8
001
370
    50
100
AcDbVertex
100
AcDb2dVertex
 10
113.482715
 20
68.347421
 30
0.0
  0
VERTEX
  5
593
330
58E
100
AcDbEntity
  8
001
370
    50
100
AcDbVertex
100
AcDb2dVertex
 10
113.370494
 20
68.431808
 30
0.0
  0
VERTEX
  5
594
330
58E
100
AcDbEntity
  8
001
370
    50
100
AcDbVertex
100
AcDb2dVertex
 10
113.251082
 20
68.505467
 30
0.0
  0
VERTEX
  5
595
330
58E
100
AcDbEntity
  8
001
370
    50
100
AcDbVertex
100
AcDb2dVertex
 10
113.122255
 20
68.56917
 30
0.0
  0
VERTEX
  5
596
330
58E
100
AcDbEntity
  8
001
370
    50
100
AcDbVertex
100
AcDb2dVertex
 10
112.989981
 20
68.626118
 30
0.0
  0
SEQEND
  5
58F
330
58E
100
AcDbEntity
  8
001
370
    50
  0
POLYLINE
  5
597
330
1F
100
AcDbEntity
  8
001
370
    50
100
AcDb2dPolyline
 66
     1
 10
0.0
 20
0.0
 30
0.0
  0
VERTEX
  5
599
330
597
100
AcDbEntity
  8
001
370
    50
100
AcDbVertex
100
AcDb2dVertex
 10
114.061642
 20
67.40735
 30
0.0
  0
VERTEX
  5
59A
330
597
100
AcDbEntity
  8
001
370
    50
100
AcDbVertex
100
AcDb2dVertex
 10
114.02336
 20
67.542147
 30
0.0
  0
VERTEX
  5
59B
330
597
100
AcDbEntity
  8
001
370
    50
100
AcDbVertex
100
AcDb2dVertex
 10
113.978167
 20
67.674378
 30
0.0
  0
VERTEX
  5
59C
330
597
100
AcDbEntity
  8
001
370
    50
100
AcDbVertex
100
AcDb2dVertex
 10
113.919071
 20
67.805159
 30
0.0
  0
VERTEX
  5
59D
330
597
100
AcDbEntity
  8
001
370
    50
100
AcDbVertex
100
AcDb2dVertex
 10
113.848238
 20
67.930404
 30
0.0
  0
VERTEX
  5
59E
330
597
100
AcDbEntity
  8
001
370
    50
100
AcDbVertex
100
AcDb2dVertex
 10
113.781713
 20
68.030378
 30
0.0
  0
VERTEX
  5
59F
330
597
100
AcDbEntity
  8
001
370
    50
100
AcDbVertex
100
AcDb2dVertex
 10
113.707968
 20
68.124782
 30
0.0
  0
VERTEX
  5
5A0
330
597
100
AcDbEntity
  8
001
370
    50
100
AcDbVertex
100
AcDb2dVertex
 10
113.625285
 20
68.214445
 30
0.0
  0
VERTEX
  5
5A1
330
597
100
AcDbEntity
  8
001
370
    50
100
AcDbVertex
100
AcDb2dVertex
 10
113.538337
 20
68.30038
 30
0.0
  0
SEQEND
  5
598
330
597
100
AcDbEntity
  8
001
370
    50
  0
POLYLINE
  5
5A2
330
1F
100
AcDbEntity
  8
001
370
    50
100
AcDb2dPolyline
 66
     1
 10
0.0
 20
0.0
 30
0.0
  0
VERTEX
  5
5A4
330
5A2
100
AcDbEntity
  8
001
370
    50
100
AcDbVertex
100
AcDb2dVertex
 10
114.093331
 20
66.843793
 30
0.0
  0
VERTEX
  5
5A5
330
5A2
100
AcDbEntity
  8
001
370
    50
100
AcDbVertex
100
AcDb2dVertex
 10
114.191674
 20
66.734433
 30
0.0
  0
VERTEX
  5
5A6
330
5A2
100
AcDbEntity
  8
001
370
    50
100
AcDbVertex
100
AcDb2dVertex
 10
114.335847
 20
66.574997
 30
0.0
  0
VERTEX
  5
5A7
330
5A2
100
AcDbEntity
  8
001
370
    50
100
AcDbVertex
100
AcDb2dVertex
 10
114.479685
 20
66.417158
 30
0.0
  0
VERTEX
  5
5A8
330
5A2
100
AcDbEntity
  8
001
370
    50
100
AcDbVertex
100
AcDb2dVertex
 10
114.5784
 20
66.309436
 30
0.0
  0
SEQEND
  5
5A3
330
5A2
100
AcDbEntity
  8
001
370
    50
  0
POLYLINE
  5
5A9
330
1F
100
AcDbEntity
  8
001
370
    50
100
AcDb2dPolyline
 66
     1
 10
0.0
 20
0.0
 30
0.0
  0
VERTEX
  5
5AB
330
5A9
100
AcDbEntity
  8
001
370
    50
100
AcDbVertex
100
AcDb2dVertex
 10
114.093331
 20
66.843793
 30
0.0
  0
VERTEX
  5
5AC
330
5A9
100
AcDbEntity
  8
001
370
    50
100
AcDbVertex
100
AcDb2dVertex
 10
114.100266
 20
66.968559
 30
0.0
  0
VERTEX
  5
5AD
330
5A9
100
AcDbEntity
  8
001
370
    50
100
AcDbVertex
100
AcDb2dVertex
 10
114.101707
 20
67.093336
 30
0.0
  0
VERTEX
  5
5AE
330
5A9
100
AcDbEntity
  8
001
370
    50
100
AcDbVertex
100
AcDb2dVertex
 10
114.093028
 20
67.220013
 30
0.0
  0
VERTEX
  5
5AF
330
5A9
100
AcDbEntity
  8
001
370
    50
100
AcDbVertex
100
AcDb2dVertex
 10
114.074121
 20
67.345635
 30
0.0
  0
VERTEX
  5
5B0
330
5A9
100
AcDbEntity
  8
001
370
    50
100
AcDbVertex
100
AcDb2dVertex
 10
114.068022
 20
67.376526
 30
0.0
  0
VERTEX
  5
5B1
330
5A9
100
AcDbEntity
  8
001
370
    50
100
AcDbVertex
100
AcDb2dVertex
 10
114.061642
 20
67.40735
 30
0.0
  0
SEQEND
  5
5AA
330
5A9
100
AcDbEntity
  8
001
370
    50
  0
POLYLINE
  5
5B2
330
1F
100
AcDbEntity
  8
001
370
    50
100
AcDb2dPolyline
 66
     1
 10
0.0
 20
0.0
 30
0.0
  0
VERTEX
  5
5B4
330
5B2
100
AcDbEntity
  8
001
370
    50
100
AcDbVertex
100
AcDb2dVertex
 10
117.281786
 20
63.142221
 30
0.0
  0
VERTEX
  5
5B5
330
5B2
100
AcDbEntity
  8
001
370
    50
100
AcDbVertex
100
AcDb2dVertex
 10
117.287225
 20
63.135358
 30
0.0
  0
VERTEX
  5
5B6
330
5B2
100
AcDbEntity
  8
001
370
    50
100
AcDbVertex
100
AcDb2dVertex
 10
117.295174
 20
63.125328
 30
0.0
  0
VERTEX
  5
5B7
330
5B2
100
AcDbEntity
  8
001
370
    50
100
AcDbVertex
100
AcDb2dVertex
 10
117.303124
 20
63.115302
 30
0.0
  0
VERTEX
  5
5B8
330
5B2
100
AcDbEntity
  8
001
370
    50
100
AcDbVertex
100
AcDb2dVertex
 10
117.308564
 20
63.108443
 30
0.0
  0
SEQEND
  5
5B3
330
5B2
100
AcDbEntity
  8
001
370
    50
  0
POLYLINE
  5
5B9
330
1F
100
AcDbEntity
  8
001
370
    50
100
AcDb2dPolyline
 66
     1
 10
0.0
 20
0.0
 30
0.0
  0
VERTEX
  5
5BB
330
5B9
100
AcDbEntity
  8
001
370
    50
100
AcDbVertex
100
AcDb2dVertex
 10
117.701155
 20
61.730008
 30
0.0
  0
VERTEX
  5
5BC
330
5B9
100
AcDbEntity
  8
001
370
    50
100
AcDbVertex
100
AcDb2dVertex
 10
117.646899
 20
61.198154
 30
0.0
  0
VERTEX
  5
5BD
330
5B9
100
AcDbEntity
  8
001
370
    50
100
AcDbVertex
100
AcDb2dVertex
 10
117.569977
 20
60.420595
 30
0.0
  0
VERTEX
  5
5BE
330
5B9
100
AcDbEntity
  8
001
370
    50
100
AcDbVertex
100
AcDb2dVertex
 10
117.495765
 20
59.636519
 30
0.0
  0
VERTEX
  5
5BF
330
5B9
100
AcDbEntity
  8
001
370
    50
100
AcDbVertex
100
AcDb2dVertex
 10
117.446618
 20
59.099893
 30
0.0
  0
SEQEND
  5
5BA
330
5B9
100
AcDbEntity
  8
001
370
    50
  0
POLYLINE
  5
5C0
330
1F
100
AcDbEntity
  8
001
370
    50
100
AcDb2dPolyline
 66
     1
 10
0.0
 20
0.0
 30
0.0
  0
VERTEX
  5
5C2
330
5C0
100
AcDbEntity
  8
001
370
    50
100
AcDbVertex
100
AcDb2dVertex
 10
117.701155
 20
61.730008
 30
0.0
  0
VERTEX
  5
5C3
330
5C0
100
AcDbEntity
  8
001
370
    50
100
AcDbVertex
100
AcDb2dVertex
 10
117.70454
 20
61.7676
 30
0.0
  0
VERTEX
  5
5C4
330
5C0
100
AcDbEntity
  8
001
370
    50
100
AcDbVertex
100
AcDb2dVertex
 10
117.707526
 20
61.805225
 30
0.0
  0
VERTEX
  5
5C5
330
5C0
100
AcDbEntity
  8
001
370
    50
100
AcDbVertex
100
AcDb2dVertex
 10
117.711714
 20
61.966842
 30
0.0
  0
VERTEX
  5
5C6
330
5C0
100
AcDbEntity
  8
001
370
    50
100
AcDbVertex
100
AcDb2dVertex
 10
117.702168
 20
62.128395
 30
0.0
  0
VERTEX
  5
5C7
330
5C0
100
AcDbEntity
  8
001
370
    50
100
AcDbVertex
100
AcDb2dVertex
 10
117.679874
 20
62.286875
 30
0.0
  0
VERTEX
  5
5C8
330
5C0
100
AcDbEntity
  8
001
370
    50
100
AcDbVertex
100
AcDb2dVertex
 10
117.644508
 20
62.442844
 30
0.0
  0
VERTEX
  5
5C9
330
5C0
100
AcDbEntity
  8
001
370
    50
100
AcDbVertex
100
AcDb2dVertex
 10
117.595006
 20
62.597238
 30
0.0
  0
VERTEX
  5
5CA
330
5C0
100
AcDbEntity
  8
001
370
    50
100
AcDbVertex
100
AcDb2dVertex
 10
117.532404
 20
62.746941
 30
0.0
  0
VERTEX
  5
5CB
330
5C0
100
AcDbEntity
  8
001
370
    50
100
AcDbVertex
100
AcDb2dVertex
 10
117.458093
 20
62.889557
 30
0.0
  0
VERTEX
  5
5CC
330
5C0
100
AcDbEntity
  8
001
370
    50
100
AcDbVertex
100
AcDb2dVertex
 10
117.371237
 20
63.024647
 30
0.0
  0
VERTEX
  5
5CD
330
5C0
100
AcDbEntity
  8
001
370
    50
100
AcDbVertex
100
AcDb2dVertex
 10
117.340248
 20
63.0668
 30
0.0
  0
VERTEX
  5
5CE
330
5C0
100
AcDbEntity
  8
001
370
    50
100
AcDbVertex
100
AcDb2dVertex
 10
117.308564
 20
63.108443
 30
0.0
  0
SEQEND
  5
5C1
330
5C0
100
AcDbEntity
  8
001
370
    50
  0
POLYLINE
  5
5CF
330
1F
100
AcDbEntity
  8
001
370
    50
100
AcDb2dPolyline
 66
     1
 10
0.0
 20
0.0
 30
0.0
  0
VERTEX
  5
5D1
330
5CF
100
AcDbEntity
  8
001
370
    50
100
AcDbVertex
100
AcDb2dVertex
 10
112.40206
 20
68.72856
 30
0.0
  0
VERTEX
  5
5D2
330
5CF
100
AcDbEntity
  8
001
370
    50
100
AcDbVertex
100
AcDb2dVertex
 10
112.292277
 20
68.723844
 30
0.0
  0
VERTEX
  5
5D3
330
5CF
100
AcDbEntity
  8
001
370
    50
100
AcDbVertex
100
AcDb2dVertex
 10
112.182861
 20
68.714935
 30
0.0
  0
VERTEX
  5
5D4
330
5CF
100
AcDbEntity
  8
001
370
    50
100
AcDbVertex
100
AcDb2dVertex
 10
112.057456
 20
68.695182
 30
0.0
  0
VERTEX
  5
5D5
330
5CF
100
AcDbEntity
  8
001
370
    50
100
AcDbVertex
100
AcDb2dVertex
 10
111.934024
 20
68.665277
 30
0.0
  0
VERTEX
  5
5D6
330
5CF
100
AcDbEntity
  8
001
370
    50
100
AcDbVertex
100
AcDb2dVertex
 10
111.89899
 20
68.654998
 30
0.0
  0
VERTEX
  5
5D7
330
5CF
100
AcDbEntity
  8
001
370
    50
100
AcDbVertex
100
AcDb2dVertex
 10
111.864079
 20
68.644343
 30
0.0
  0
SEQEND
  5
5D0
330
5CF
100
AcDbEntity
  8
001
370
    50
  0
POLYLINE
  5
5D8
330
1F
100
AcDbEntity
  8
001
370
    50
100
AcDb2dPolyline
 66
     1
 10
0.0
 20
0.0
 30
0.0
  0
VERTEX
  5
5DA
330
5D8
100
AcDbEntity
  8
001
370
    50
100
AcDbVertex
100
AcDb2dVertex
 10
113.433779
 20
66.111719
 30
0.0
  0
VERTEX
  5
5DB
330
5D8
100
AcDbEntity
  8
001
370
    50
100
AcDbVertex
100
AcDb2dVertex
 10
113.596709
 20
66.247853
 30
0.0
  0
VERTEX
  5
5DC
330
5D8
100
AcDbEntity
  8
001
370
    50
100
AcDbVertex
100
AcDb2dVertex
 10
113.816348
 20
66.465322
 30
0.0
  0
VERTEX
  5
5DD
330
5D8
100
AcDbEntity
  8
001
370
    50
100
AcDbVertex
100
AcDb2dVertex
 10
113.988962
 20
66.683736
 30
0.0
  0
VERTEX
  5
5DE
330
5D8
100
AcDbEntity
  8
001
370
    50
100
AcDbVertex
100
AcDb2dVertex
 10
114.093331
 20
66.843793
 30
0.0
  0
SEQEND
  5
5D9
330
5D8
100
AcDbEntity
  8
001
370
    50
  0
POLYLINE
  5
5DF
330
1F
100
AcDbEntity
  8
001
370
    50
100
AcDb2dPolyline
 66
     1
 10
0.0
 20
0.0
 30
0.0
  0
VERTEX
  5
5E1
330
5DF
100
AcDbEntity
  8
001
370
    50
100
AcDbVertex
100
AcDb2dVertex
 10
113.433779
 20
66.111719
 30
0.0
  0
VERTEX
  5
5E2
330
5DF
100
AcDbEntity
  8
001
370
    50
100
AcDbVertex
100
AcDb2dVertex
 10
113.491731
 20
66.22895
 30
0.0
  0
VERTEX
  5
5E3
330
5DF
100
AcDbEntity
  8
001
370
    50
100
AcDbVertex
100
AcDb2dVertex
 10
113.561365
 20
66.394842
 30
0.0
  0
VERTEX
  5
5E4
330
5DF
100
AcDbEntity
  8
001
370
    50
100
AcDbVertex
100
AcDb2dVertex
 10
113.609316
 20
66.549748
 30
0.0
  0
VERTEX
  5
5E5
330
5DF
100
AcDbEntity
  8
001
370
    50
100
AcDbVertex
100
AcDb2dVertex
 10
113.637521
 20
66.696443
 30
0.0
  0
VERTEX
  5
5E6
330
5DF
100
AcDbEntity
  8
001
370
    50
100
AcDbVertex
100
AcDb2dVertex
 10
113.654619
 20
66.849669
 30
0.0
  0
VERTEX
  5
5E7
330
5DF
100
AcDbEntity
  8
001
370
    50
100
AcDbVertex
100
AcDb2dVertex
 10
113.659836
 20
67.006974
 30
0.0
  0
VERTEX
  5
5E8
330
5DF
100
AcDbEntity
  8
001
370
    50
100
AcDbVertex
100
AcDb2dVertex
 10
113.650748
 20
67.162912
 30
0.0
  0
VERTEX
  5
5E9
330
5DF
100
AcDbEntity
  8
001
370
    50
100
AcDbVertex
100
AcDb2dVertex
 10
113.627603
 20
67.316606
 30
0.0
  0
VERTEX
  5
5EA
330
5DF
100
AcDbEntity
  8
001
370
    50
100
AcDbVertex
100
AcDb2dVertex
 10
113.591224
 20
67.467847
 30
0.0
  0
VERTEX
  5
5EB
330
5DF
100
AcDbEntity
  8
001
370
    50
100
AcDbVertex
100
AcDb2dVertex
 10
113.541844
 20
67.615537
 30
0.0
  0
VERTEX
  5
5EC
330
5DF
100
AcDbEntity
  8
001
370
    50
100
AcDbVertex
100
AcDb2dVertex
 10
113.479759
 20
67.757959
 30
0.0
  0
VERTEX
  5
5ED
330
5DF
100
AcDbEntity
  8
001
370
    50
100
AcDbVertex
100
AcDb2dVertex
 10
113.405272
 20
67.894304
 30
0.0
  0
VERTEX
  5
5EE
330
5DF
100
AcDbEntity
  8
001
370
    50
100
AcDbVertex
100
AcDb2dVertex
 10
113.319148
 20
68.023261
 30
0.0
  0
VERTEX
  5
5EF
330
5DF
100
AcDbEntity
  8
001
370
    50
100
AcDbVertex
100
AcDb2dVertex
 10
113.222211
 20
68.144084
 30
0.0
  0
VERTEX
  5
5F0
330
5DF
100
AcDbEntity
  8
001
370
    50
100
AcDbVertex
100
AcDb2dVertex
 10
113.115549
 20
68.255454
 30
0.0
  0
VERTEX
  5
5F1
330
5DF
100
AcDbEntity
  8
001
370
    50
100
AcDbVertex
100
AcDb2dVertex
 10
112.998456
 20
68.356969
 30
0.0
  0
VERTEX
  5
5F2
330
5DF
100
AcDbEntity
  8
001
370
    50
100
AcDbVertex
100
AcDb2dVertex
 10
112.871819
 20
68.447592
 30
0.0
  0
VERTEX
  5
5F3
330
5DF
100
AcDbEntity
  8
001
370
    50
100
AcDbVertex
100
AcDb2dVertex
 10
112.74109
 20
68.526221
 30
0.0
  0
VERTEX
  5
5F4
330
5DF
100
AcDbEntity
  8
001
370
    50
100
AcDbVertex
100
AcDb2dVertex
 10
112.608875
 20
68.59186
 30
0.0
  0
VERTEX
  5
5F5
330
5DF
100
AcDbEntity
  8
001
370
    50
100
AcDbVertex
100
AcDb2dVertex
 10
112.458259
 20
68.646482
 30
0.0
  0
VERTEX
  5
5F6
330
5DF
100
AcDbEntity
  8
001
370
    50
100
AcDbVertex
100
AcDb2dVertex
 10
112.285934
 20
68.690165
 30
0.0
  0
VERTEX
  5
5F7
330
5DF
100
AcDbEntity
  8
001
370
    50
100
AcDbVertex
100
AcDb2dVertex
 10
112.158917
 20
68.713945
 30
0.0
  0
SEQEND
  5
5E0
330
5DF
100
AcDbEntity
  8
001
370
    50
  0
POLYLINE
  5
5F8
330
1F
100
AcDbEntity
  8
001
370
    50
100
AcDb2dPolyline
 66
     1
 10
0.0
 20
0.0
 30
0.0
  0
VERTEX
  5
5FA
330
5F8
100
AcDbEntity
  8
001
370
    50
100
AcDbVertex
100
AcDb2dVertex
 10
117.137041
 20
61.730008
 30
0.0
  0
VERTEX
  5
5FB
330
5F8
100
AcDbEntity
  8
001
370
    50
100
AcDbVertex
100
AcDb2dVertex
 10
117.130157
 20
61.85341
 30
0.0
  0
VERTEX
  5
5FC
330
5F8
100
AcDbEntity
  8
001
370
    50
100
AcDbVertex
100
AcDb2dVertex
 10
117.108657
 20
62.022643
 30
0.0
  0
VERTEX
  5
5FD
330
5F8
100
AcDbEntity
  8
001
370
    50
100
AcDbVertex
100
AcDb2dVertex
 10
117.072289
 20
62.172792
 30
0.0
  0
VERTEX
  5
5FE
330
5F8
100
AcDbEntity
  8
001
370
    50
100
AcDbVertex
100
AcDb2dVertex
 10
117.024595
 20
62.304033
 30
0.0
  0
VERTEX
  5
5FF
330
5F8
100
AcDbEntity
  8
001
370
    50
100
AcDbVertex
100
AcDb2dVertex
 10
116.967033
 20
62.430934
 30
0.0
  0
VERTEX
  5
600
330
5F8
100
AcDbEntity
  8
001
370
    50
100
AcDbVertex
100
AcDb2dVertex
 10
116.888086
 20
62.563363
 30
0.0
  0
VERTEX
  5
601
330
5F8
100
AcDbEntity
  8
001
370
    50
100
AcDbVertex
100
AcDb2dVertex
 10
116.785486
 20
62.698396
 30
0.0
  0
VERTEX
  5
602
330
5F8
100
AcDbEntity
  8
001
370
    50
100
AcDbVertex
100
AcDb2dVertex
 10
116.704376
 20
62.790668
 30
0.0
  0
SEQEND
  5
5F9
330
5F8
100
AcDbEntity
  8
001
370
    50
  0
LINE
  5
603
330
1F
100
AcDbEntity
  8
001
370
    50
100
AcDbLine
 10
117.137041
 20
59.247883
 30
0.0
 11
117.137041
 21
61.730008
 31
0.0
  0
LINE
  5
604
330
1F
100
AcDbEntity
  8
001
370
    50
100
AcDbLine
 10
109.254901
 20
64.908826
 30
0.0
 11
108.984043
 21
64.63379
 31
0.0
  0
POLYLINE
  5
605
330
1F
100
AcDbEntity
  8
001
370
    50
100
AcDb2dPolyline
 66
     1
 10
0.0
 20
0.0
 30
0.0
  0
VERTEX
  5
607
330
605
100
AcDbEntity
  8
001
370
    50
100
AcDbVertex
100
AcDb2dVertex
 10
110.640952
 20
66.805451
 30
0.0
  0
VERTEX
  5
608
330
605
100
AcDbEntity
  8
001
370
    50
100
AcDbVertex
100
AcDb2dVertex
 10
110.638723
 20
66.799943
 30
0.0
  0
VERTEX
  5
609
330
605
100
AcDbEntity
  8
001
370
    50
100
AcDbVertex
100
AcDb2dVertex
 10
110.636317
 20
66.793969
 30
0.0
  0
SEQEND
  5
606
330
605
100
AcDbEntity
  8
001
370
    50
  0
POLYLINE
  5
60A
330
1F
100
AcDbEntity
  8
001
370
    50
100
AcDb2dPolyline
 66
     1
 10
0.0
 20
0.0
 30
0.0
  0
VERTEX
  5
60C
330
60A
100
AcDbEntity
  8
001
370
    50
100
AcDbVertex
100
AcDb2dVertex
 10
108.953394
 20
65.082495
 30
0.0
  0
VERTEX
  5
60D
330
60A
100
AcDbEntity
  8
001
370
    50
100
AcDbVertex
100
AcDb2dVertex
 10
109.060782
 20
65.190462
 30
0.0
  0
VERTEX
  5
60E
330
60A
100
AcDbEntity
  8
001
370
    50
100
AcDbVertex
100
AcDb2dVertex
 10
109.217353
 20
65.348635
 30
0.0
  0
VERTEX
  5
60F
330
60A
100
AcDbEntity
  8
001
370
    50
100
AcDbVertex
100
AcDb2dVertex
 10
109.238085
 20
65.36966
 30
0.0
  0
VERTEX
  5
610
330
60A
100
AcDbEntity
  8
001
370
    50
100
AcDbVertex
100
AcDb2dVertex
 10
109.25871
 20
65.390596
 30
0.0
  0
SEQEND
  5
60B
330
60A
100
AcDbEntity
  8
001
370
    50
  0
LINE
  5
611
330
1F
100
AcDbEntity
  8
001
370
    50
100
AcDbLine
 10
113.473948
 20
66.07093
 30
0.0
 11
113.433779
 21
66.111719
 31
0.0
  0
POLYLINE
  5
612
330
1F
100
AcDbEntity
  8
001
370
    50
100
AcDb2dPolyline
 66
     1
 10
0.0
 20
0.0
 30
0.0
  0
VERTEX
  5
614
330
612
100
AcDbEntity
  8
001
370
    50
100
AcDbVertex
100
AcDb2dVertex
 10
116.984722
 20
63.502528
 30
0.0
  0
VERTEX
  5
615
330
612
100
AcDbEntity
  8
001
370
    50
100
AcDbVertex
100
AcDb2dVertex
 10
116.997337
 20
63.487121
 30
0.0
  0
VERTEX
  5
616
330
612
100
AcDbEntity
  8
001
370
    50
100
AcDbVertex
100
AcDb2dVertex
 10
117.009978
 20
63.471694
 30
0.0
  0
VERTEX
  5
617
330
612
100
AcDbEntity
  8
001
370
    50
100
AcDbVertex
100
AcDb2dVertex
 10
117.171136
 20
63.275881
 30
0.0
  0
VERTEX
  5
618
330
612
100
AcDbEntity
  8
001
370
    50
100
AcDbVertex
100
AcDb2dVertex
 10
117.281786
 20
63.142221
 30
0.0
  0
SEQEND
  5
613
330
612
100
AcDbEntity
  8
001
370
    50
  0
LINE
  5
619
330
1F
100
AcDbEntity
  8
001
370
    50
100
AcDbLine
 10
116.704376
 20
62.790668
 30
0.0
 11
116.519738
 21
62.978154
 31
0.0
  0
POLYLINE
  5
61A
330
1F
100
AcDbEntity
  8
001
370
    50
100
AcDb2dPolyline
 66
     1
 10
0.0
 20
0.0
 30
0.0
  0
VERTEX
  5
61C
330
61A
100
AcDbEntity
  8
001
370
    50
100
AcDbVertex
100
AcDb2dVertex
 10
114.5784
 20
66.309436
 30
0.0
  0
VERTEX
  5
61D
330
61A
100
AcDbEntity
  8
001
370
    50
100
AcDbVertex
100
AcDb2dVertex
 10
114.687602
 20
66.185337
 30
0.0
  0
VERTEX
  5
61E
330
61A
100
AcDbEntity
  8
001
370
    50
100
AcDbVertex
100
AcDb2dVertex
 10
114.847749
 20
66.004444
 30
0.0
  0
VERTEX
  5
61F
330
61A
100
AcDbEntity
  8
001
370
    50
100
AcDbVertex
100
AcDb2dVertex
 10
114.877798
 20
65.970677
 30
0.0
  0
VERTEX
  5
620
330
61A
100
AcDbEntity
  8
001
370
    50
100
AcDbVertex
100
AcDb2dVertex
 10
114.907585
 20
65.937261
 30
0.0
  0
SEQEND
  5
61B
330
61A
100
AcDbEntity
  8
001
370
    50
  0
POLYLINE
  5
621
330
1F
100
AcDbEntity
  8
001
370
    50
100
AcDb2dPolyline
 66
     1
 10
0.0
 20
0.0
 30
0.0
  0
VERTEX
  5
623
330
621
100
AcDbEntity
  8
001
370
    50
100
AcDbVertex
100
AcDb2dVertex
 10
114.14141
 20
59.127105
 30
0.0
  0
VERTEX
  5
624
330
621
100
AcDbEntity
  8
001
370
    50
100
AcDbVertex
100
AcDb2dVertex
 10
114.213268
 20
59.129721
 30
0.0
  0
VERTEX
  5
625
330
621
100
AcDbEntity
  8
001
370
    50
100
AcDbVertex
100
AcDb2dVertex
 10
114.28516
 20
59.132355
 30
0.0
  0
VERTEX
  5
626
330
621
100
AcDbEntity
  8
001
370
    50
100
AcDbVertex
100
AcDb2dVertex
 10
115.978556
 20
59.198604
 30
0.0
  0
VERTEX
  5
627
330
621
100
AcDbEntity
  8
001
370
    50
100
AcDbVertex
100
AcDb2dVertex
 10
117.137041
 20
59.247883
 30
0.0
  0
SEQEND
  5
622
330
621
100
AcDbEntity
  8
001
370
    50
  0
POLYLINE
  5
628
330
1F
100
AcDbEntity
  8
001
370
    50
100
AcDb2dPolyline
 66
     1
 10
0.0
 20
0.0
 30
0.0
  0
VERTEX
  5
62A
330
628
100
AcDbEntity
  8
001
370
    50
100
AcDbVertex
100
AcDb2dVertex
 10
111.408932
 20
59.037431
 30
0.0
  0
VERTEX
  5
62B
330
628
100
AcDbEntity
  8
001
370
    50
100
AcDbVertex
100
AcDb2dVertex
 10
111.681701
 20
59.045567
 30
0.0
  0
VERTEX
  5
62C
330
628
100
AcDbEntity
  8
001
370
    50
100
AcDbVertex
100
AcDb2dVertex
 10
112.042399
 20
59.056651
 30
0.0
  0
SEQEND
  5
629
330
628
100
AcDbEntity
  8
001
370
    50
  0
LINE
  5
62D
330
1F
100
AcDbEntity
  8
001
370
    50
100
AcDbLine
 10
111.408932
 20
59.037431
 30
0.0
 11
110.682685
 21
59.775863
 31
0.0
  0
POLYLINE
  5
62E
330
1F
100
AcDbEntity
  8
001
370
    50
100
AcDb2dPolyline
 66
     1
 10
0.0
 20
0.0
 30
0.0
  0
VERTEX
  5
630
330
62E
100
AcDbEntity
  8
001
370
    50
100
AcDbVertex
100
AcDb2dVertex
 10
106.123367
 20
62.401306
 30
0.0
  0
VERTEX
  5
631
330
62E
100
AcDbEntity
  8
001
370
    50
100
AcDbVertex
100
AcDb2dVertex
 10
104.936999
 20
62.366076
 30
0.0
  0
VERTEX
  5
632
330
62E
100
AcDbEntity
  8
001
370
    50
100
AcDbVertex
100
AcDb2dVertex
 10
103.750631
 20
62.330845
 30
0.0
  0
VERTEX
  5
633
330
62E
100
AcDbEntity
  8
001
370
    50
100
AcDbVertex
100
AcDb2dVertex
 10
103.589732
 20
62.326041
 30
0.0
  0
VERTEX
  5
634
330
62E
100
AcDbEntity
  8
001
370
    50
100
AcDbVertex
100
AcDb2dVertex
 10
103.428838
 20
62.321082
 30
0.0
  0
VERTEX
  5
635
330
62E
100
AcDbEntity
  8
001
370
    50
100
AcDbVertex
100
AcDb2dVertex
 10
103.308233
 20
62.317194
 30
0.0
  0
VERTEX
  5
636
330
62E
100
AcDbEntity
  8
001
370
    50
100
AcDbVertex
100
AcDb2dVertex
 10
103.187631
 20
62.313219
 30
0.0
  0
SEQEND
  5
62F
330
62E
100
AcDbEntity
  8
001
370
    50
  0
LINE
  5
637
330
1F
100
AcDbEntity
  8
001
370
    50
100
AcDbLine
 10
120.028821
 20
59.331347
 30
0.0
 11
119.465821
 21
59.273897
 31
0.0
  0
LINE
  5
638
330
1F
100
AcDbEntity
  8
001
370
    50
100
AcDbLine
 10
120.591821
 20
59.392509
 30
0.0
 11
120.028821
 21
59.331347
 31
0.0
  0
LINE
  5
639
330
1F
100
AcDbEntity
  8
001
370
    50
100
AcDbLine
 10
121.154821
 20
59.457364
 30
0.0
 11
120.591821
 21
59.392509
 31
0.0
  0
LINE
  5
63A
330
1F
100
AcDbEntity
  8
001
370
    50
100
AcDbLine
 10
121.717821
 20
59.525892
 30
0.0
 11
121.154821
 21
59.457364
 31
0.0
  0
LINE
  5
63B
330
1F
100
AcDbEntity
  8
001
370
    50
100
AcDbLine
 10
122.280821
 20
59.598073
 30
0.0
 11
121.717821
 21
59.525892
 31
0.0
  0
LINE
  5
63C
330
1F
100
AcDbEntity
  8
001
370
    50
100
AcDbLine
 10
122.843821
 20
59.673883
 30
0.0
 11
122.280821
 21
59.598073
 31
0.0
  0
LINE
  5
63D
330
1F
100
AcDbEntity
  8
001
370
    50
100
AcDbLine
 10
123.406821
 20
59.753302
 30
0.0
 11
122.843821
 21
59.673883
 31
0.0
  0
LINE
  5
63E
330
1F
100
AcDbEntity
  8
001
370
    50
100
AcDbLine
 10
123.969821
 20
59.836303
 30
0.0
 11
123.406821
 21
59.753302
 31
0.0
  0
LINE
  5
63F
330
1F
100
AcDbEntity
  8
001
370
    50
100
AcDbLine
 10
124.532821
 20
59.922863
 30
0.0
 11
123.969821
 21
59.836303
 31
0.0
  0
LINE
  5
640
330
1F
100
AcDbEntity
  8
001
370
    50
100
AcDbLine
 10
118.339821
 20
59.170201
 30
0.0
 11
117.776821
 21
59.123986
 31
0.0
  0
LINE
  5
641
330
1F
100
AcDbEntity
  8
001
370
    50
100
AcDbLine
 10
118.902821
 20
59.220176
 30
0.0
 11
118.339821
 21
59.170201
 31
0.0
  0
LINE
  5
642
330
1F
100
AcDbEntity
  8
001
370
    50
100
AcDbLine
 10
119.465821
 20
59.273897
 30
0.0
 11
118.902821
 21
59.220176
 31
0.0
  0
LINE
  5
643
330
1F
100
AcDbEntity
  8
001
370
    50
100
AcDbLine
 10
120.028821
 20
59.331347
 30
0.0
 11
119.465821
 21
59.273897
 31
0.0
  0
LINE
  5
644
330
1F
100
AcDbEntity
  8
001
370
    50
100
AcDbLine
 10
120.591821
 20
59.392509
 30
0.0
 11
120.028821
 21
59.331347
 31
0.0
  0
LINE
  5
645
330
1F
100
AcDbEntity
  8
001
370
    50
100
AcDbLine
 10
121.154821
 20
59.457364
 30
0.0
 11
120.591821
 21
59.392509
 31
0.0
  0
LINE
  5
646
330
1F
100
AcDbEntity
  8
001
370
    50
100
AcDbLine
 10
121.717821
 20
59.525892
 30
0.0
 11
121.154821
 21
59.457364
 31
0.0
  0
LINE
  5
647
330
1F
100
AcDbEntity
  8
001
370
    50
100
AcDbLine
 10
122.280821
 20
59.598073
 30
0.0
 11
121.717821
 21
59.525892
 31
0.0
  0
LINE
  5
648
330
1F
100
AcDbEntity
  8
001
370
    50
100
AcDbLine
 10
122.843821
 20
59.673883
 30
0.0
 11
122.280821
 21
59.598073
 31
0.0
  0
LINE
  5
649
330
1F
100
AcDbEntity
  8
001
370
    50
100
AcDbLine
 10
123.406821
 20
59.753302
 30
0.0
 11
122.843821
 21
59.673883
 31
0.0
  0
POLYLINE
  5
64A
330
1F
100
AcDbEntity
  8
001
370
    50
100
AcDb2dPolyline
 66
     1
 10
0.0
 20
0.0
 30
0.0
  0
VERTEX
  5
64C
330
64A
100
AcDbEntity
  8
001
370
    50
100
AcDbVertex
100
AcDb2dVertex
 10
131.662612
 20
59.634687
 30
0.0
  0
VERTEX
  5
64D
330
64A
100
AcDbEntity
  8
001
370
    50
100
AcDbVertex
100
AcDb2dVertex
 10
131.657821
 20
59.635934
 30
0.0
  0
VERTEX
  5
64E
330
64A
100
AcDbEntity
  8
001
370
    50
100
AcDbVertex
100
AcDb2dVertex
 10
131.65303
 20
59.63718
 30
0.0
  0
VERTEX
  5
64F
330
64A
100
AcDbEntity
  8
001
370
    50
100
AcDbVertex
100
AcDb2dVertex
 10
131.380612
 20
59.705707
 30
0.0
  0
VERTEX
  5
650
330
64A
100
AcDbEntity
  8
001
370
    50
100
AcDbVertex
100
AcDb2dVertex
 10
131.107152
 20
59.769956
 30
0.0
  0
VERTEX
  5
651
330
64A
100
AcDbEntity
  8
001
370
    50
100
AcDbVertex
100
AcDb2dVertex
 10
130.818505
 20
59.832805
 30
0.0
  0
VERTEX
  5
652
330
64A
100
AcDbEntity
  8
001
370
    50
100
AcDbVertex
100
AcDb2dVertex
 10
130.528808
 20
59.890624
 30
0.0
  0
VERTEX
  5
653
330
64A
100
AcDbEntity
  8
001
370
    50
100
AcDbVertex
100
AcDb2dVertex
 10
130.19441
 20
59.95069
 30
0.0
  0
VERTEX
  5
654
330
64A
100
AcDbEntity
  8
001
370
    50
100
AcDbVertex
100
AcDb2dVertex
 10
129.858851
 20
60.003924
 30
0.0
  0
VERTEX
  5
655
330
64A
100
AcDbEntity
  8
001
370
    50
100
AcDbVertex
100
AcDb2dVertex
 10
129.510611
 20
60.051904
 30
0.0
  0
VERTEX
  5
656
330
64A
100
AcDbEntity
  8
001
370
    50
100
AcDbVertex
100
AcDb2dVertex
 10
129.161447
 20
60.092629
 30
0.0
  0
VERTEX
  5
657
330
64A
100
AcDbEntity
  8
001
370
    50
100
AcDbVertex
100
AcDb2dVertex
 10
128.805094
 20
60.126535
 30
0.0
  0
VERTEX
  5
658
330
64A
100
AcDbEntity
  8
001
370
    50
100
AcDbVertex
100
AcDb2dVertex
 10
128.448084
 20
60.15253
 30
0.0
  0
VERTEX
  5
659
330
64A
100
AcDbEntity
  8
001
370
    50
100
AcDbVertex
100
AcDb2dVertex
 10
128.154862
 20
60.167775
 30
0.0
  0
VERTEX
  5
65A
330
64A
100
AcDbEntity
  8
001
370
    50
100
AcDbVertex
100
AcDb2dVertex
 10
127.861408
 20
60.177612
 30
0.0
  0
VERTEX
  5
65B
330
64A
100
AcDbEntity
  8
001
370
    50
100
AcDbVertex
100
AcDb2dVertex
 10
127.565731
 20
60.182177
 30
0.0
  0
VERTEX
  5
65C
330
64A
100
AcDbEntity
  8
001
370
    50
100
AcDbVertex
100
AcDb2dVertex
 10
127.27002
 20
60.181457
 30
0.0
  0
VERTEX
  5
65D
330
64A
100
AcDbEntity
  8
001
370
    50
100
AcDbVertex
100
AcDb2dVertex
 10
126.974851
 20
60.175515
 30
0.0
  0
VERTEX
  5
65E
330
64A
100
AcDbEntity
  8
001
370
    50
100
AcDbVertex
100
AcDb2dVertex
 10
126.679832
 20
60.164338
 30
0.0
  0
VERTEX
  5
65F
330
64A
100
AcDbEntity
  8
001
370
    50
100
AcDbVertex
100
AcDb2dVertex
 10
126.388119
 20
60.148077
 30
0.0
  0
VERTEX
  5
660
330
64A
100
AcDbEntity
  8
001
370
    50
100
AcDbVertex
100
AcDb2dVertex
 10
126.096755
 20
60.126529
 30
0.0
  0
VERTEX
  5
661
330
64A
100
AcDbEntity
  8
001
370
    50
100
AcDbVertex
100
AcDb2dVertex
 10
125.830146
 20
60.102105
 30
0.0
  0
VERTEX
  5
662
330
64A
100
AcDbEntity
  8
001
370
    50
100
AcDbVertex
100
AcDb2dVertex
 10
125.563947
 20
60.073478
 30
0.0
  0
VERTEX
  5
663
330
64A
100
AcDbEntity
  8
001
370
    50
100
AcDbVertex
100
AcDb2dVertex
 10
125.302261
 20
60.041367
 30
0.0
  0
VERTEX
  5
664
330
64A
100
AcDbEntity
  8
001
370
    50
100
AcDbVertex
100
AcDb2dVertex
 10
125.04116
 20
60.004924
 30
0.0
  0
VERTEX
  5
665
330
64A
100
AcDbEntity
  8
001
370
    50
100
AcDbVertex
100
AcDb2dVertex
 10
124.786811
 20
59.965068
 30
0.0
  0
VERTEX
  5
666
330
64A
100
AcDbEntity
  8
001
370
    50
100
AcDbVertex
100
AcDb2dVertex
 10
124.532821
 20
59.922863
 30
0.0
  0
SEQEND
  5
64B
330
64A
100
AcDbEntity
  8
001
370
    50
  0
LINE
  5
667
330
1F
100
AcDbEntity
  8
001
  6
PHANTOM
370
     9
100
AcDbLine
 10
108.114103
 20
81.516382
 30
0.0
 11
96.114103
 21
81.516382
 31
0.0
  0
LINE
  5
668
330
1F
100
AcDbEntity
  8
001
  6
PHANTOM
370
     9
100
AcDbLine
 10
109.114103
 20
82.516382
 30
0.0
 11
109.114103
 21
86.516382
 31
0.0
  0
LINE
  5
669
330
1F
100
AcDbEntity
  8
001
  6
PHANTOM
370
     9
100
AcDbLine
 10
96.114103
 20
79.016382
 30
0.0
 11
96.114103
 21
81.516382
 31
0.0
  0
LINE
  5
66A
330
1F
100
AcDbEntity
  8
001
  6
PHANTOM
370
     9
100
AcDbLine
 10
109.864103
 20
83.266382
 30
0.0
 11
108.114103
 21
81.516382
 31
0.0
  0
LINE
  5
66B
330
1F
100
AcDbEntity
  8
001
  6
PHANTOM
370
     9
100
AcDbLine
 10
96.114103
 20
79.016382
 30
0.0
 11
95.614103
 21
78.516382
 31
0.0
  0
LINE
  5
66C
330
1F
100
AcDbEntity
  8
001
  6
PHANTOM
370
     9
100
AcDbLine
 10
108.114103
 20
61.516382
 30
0.0
 11
96.114103
 21
61.516382
 31
0.0
  0
LINE
  5
66D
330
1F
100
AcDbEntity
  8
001
  6
PHANTOM
370
     9
100
AcDbLine
 10
109.114103
 20
60.516382
 30
0.0
 11
109.114103
 21
56.516382
 31
0.0
  0
LINE
  5
66E
330
1F
100
AcDbEntity
  8
001
  6
PHANTOM
370
     9
100
AcDbLine
 10
96.114103
 20
64.016382
 30
0.0
 11
96.114103
 21
61.516382
 31
0.0
  0
LINE
  5
66F
330
1F
100
AcDbEntity
  8
001
  6
PHANTOM
370
     9
100
AcDbLine
 10
109.114103
 20
60.516382
 30
0.0
 11
108.114103
 21
61.516382
 31
0.0
  0
LINE
  5
670
330
1F
100
AcDbEntity
  8
001
  6
PHANTOM
370
     9
100
AcDbLine
 10
96.114103
 20
64.016382
 30
0.0
 11
95.614103
 21
64.516382
 31
0.0
  0
LINE
  5
671
330
1F
100
AcDbEntity
  8
001
370
    50
100
AcDbLine
 10
111.343451
 20
59.766382
 30
0.0
 11
109.864103
 21
59.766382
 31
0.0
  0
LINE
  5
672
330
1F
100
AcDbEntity
  8
001
370
    50
100
AcDbLine
 10
107.80593
 20
61.824555
 30
0.0
 11
109.864103
 21
59.766382
 31
0.0
  0
LINE
  5
673
330
1F
100
AcDbEntity
  8
001
370
    50
100
AcDbLine
 10
108.551426
 20
63.585173
 30
0.0
 11
108.547901
 21
63.139416
 31
0.0
  0
POLYLINE
  5
674
330
1F
100
AcDbEntity
  8
001
370
    50
100
AcDb2dPolyline
 66
     1
 10
0.0
 20
0.0
 30
0.0
  0
VERTEX
  5
676
330
674
100
AcDbEntity
  8
001
370
    50
100
AcDbVertex
100
AcDb2dVertex
 10
108.326217
 20
63.025504
 30
0.0
  0
VERTEX
  5
677
330
674
100
AcDbEntity
  8
001
370
    50
100
AcDbVertex
100
AcDb2dVertex
 10
108.327493
 20
63.140074
 30
0.0
  0
VERTEX
  5
678
330
674
100
AcDbEntity
  8
001
370
    50
100
AcDbVertex
100
AcDb2dVertex
 10
108.329347
 20
63.307523
 30
0.0
  0
VERTEX
  5
679
330
674
100
AcDbEntity
  8
001
370
    50
100
AcDbVertex
100
AcDb2dVertex
 10
108.331192
 20
63.475478
 30
0.0
  0
VERTEX
  5
67A
330
674
100
AcDbEntity
  8
001
370
    50
100
AcDbVertex
100
AcDb2dVertex
 10
108.332446
 20
63.590394
 30
0.0
  0
SEQEND
  5
675
330
674
100
AcDbEntity
  8
001
370
    50
  0
LINE
  5
67B
330
1F
100
AcDbEntity
  8
001
370
    50
100
AcDbLine
 10
108.326217
 20
63.025504
 30
0.0
 11
108.43572
 21
63.025504
 31
0.0
  0
POLYLINE
  5
67C
330
1F
100
AcDbEntity
  8
001
370
    50
100
AcDb2dPolyline
 66
     1
 10
0.0
 20
0.0
 30
0.0
  0
VERTEX
  5
67E
330
67C
100
AcDbEntity
  8
001
370
    50
100
AcDbVertex
100
AcDb2dVertex
 10
107.632892
 20
62.341809
 30
0.0
  0
VERTEX
  5
67F
330
67C
100
AcDbEntity
  8
001
370
    50
100
AcDbVertex
100
AcDb2dVertex
 10
107.653293
 20
62.314961
 30
0.0
  0
VERTEX
  5
680
330
67C
100
AcDbEntity
  8
001
370
    50
100
AcDbVertex
100
AcDb2dVertex
 10
107.690781
 20
62.285258
 30
0.0
  0
VERTEX
  5
681
330
67C
100
AcDbEntity
  8
001
370
    50
100
AcDbVertex
100
AcDb2dVertex
 10
107.694846
 20
62.28316
 30
0.0
  0
VERTEX
  5
682
330
67C
100
AcDbEntity
  8
001
370
    50
100
AcDbVertex
100
AcDb2dVertex
 10
107.698982
 20
62.281224
 30
0.0
  0
VERTEX
  5
683
330
67C
100
AcDbEntity
  8
001
370
    50
100
AcDbVertex
100
AcDb2dVertex
 10
107.712636
 20
62.275135
 30
0.0
  0
VERTEX
  5
684
330
67C
100
AcDbEntity
  8
001
370
    50
100
AcDbVertex
100
AcDb2dVertex
 10
107.72629
 20
62.269047
 30
0.0
  0
SEQEND
  5
67D
330
67C
100
AcDbEntity
  8
001
370
    50
  0
LINE
  5
685
330
1F
100
AcDbEntity
  8
001
370
    50
100
AcDbLine
 10
95.114103
 20
65.016382
 30
0.0
 11
96.114103
 21
64.016382
 31
0.0
  0
POLYLINE
  5
686
330
1F
100
AcDbEntity
  8
001
370
    50
100
AcDb2dPolyline
 66
     1
 10
0.0
 20
0.0
 30
0.0
  0
VERTEX
  5
688
330
686
100
AcDbEntity
  8
001
370
    50
100
AcDbVertex
100
AcDb2dVertex
 10
96.114104
 20
61.913142
 30
0.0
  0
VERTEX
  5
689
330
686
100
AcDbEntity
  8
001
370
    50
100
AcDbVertex
100
AcDb2dVertex
 10
96.116009
 20
61.880401
 30
0.0
  0
VERTEX
  5
68A
330
686
100
AcDbEntity
  8
001
370
    50
100
AcDbVertex
100
AcDb2dVertex
 10
96.121616
 20
61.835931
 30
0.0
  0
VERTEX
  5
68B
330
686
100
AcDbEntity
  8
001
370
    50
100
AcDbVertex
100
AcDb2dVertex
 10
96.130937
 20
61.7965
 30
0.0
  0
VERTEX
  5
68C
330
686
100
AcDbEntity
  8
001
370
    50
100
AcDbVertex
100
AcDb2dVertex
 10
96.143864
 20
61.761457
 30
0.0
  0
VERTEX
  5
68D
330
686
100
AcDbEntity
  8
001
370
    50
100
AcDbVertex
100
AcDb2dVertex
 10
96.16025
 20
61.726701
 30
0.0
  0
VERTEX
  5
68E
330
686
100
AcDbEntity
  8
001
370
    50
100
AcDbVertex
100
AcDb2dVertex
 10
96.179993
 20
61.69282
 30
0.0
  0
VERTEX
  5
68F
330
686
100
AcDbEntity
  8
001
370
    50
100
AcDbVertex
100
AcDb2dVertex
 10
96.202864
 20
61.661433
 30
0.0
  0
VERTEX
  5
690
330
686
100
AcDbEntity
  8
001
370
    50
100
AcDbVertex
100
AcDb2dVertex
 10
96.228615
 20
61.63266
 30
0.0
  0
VERTEX
  5
691
330
686
100
AcDbEntity
  8
001
370
    50
100
AcDbVertex
100
AcDb2dVertex
 10
96.256905
 20
61.606548
 30
0.0
  0
VERTEX
  5
692
330
686
100
AcDbEntity
  8
001
370
    50
100
AcDbVertex
100
AcDb2dVertex
 10
96.287861
 20
61.583288
 30
0.0
  0
VERTEX
  5
693
330
686
100
AcDbEntity
  8
001
370
    50
100
AcDbVertex
100
AcDb2dVertex
 10
96.32119
 20
61.563264
 30
0.0
  0
VERTEX
  5
694
330
686
100
AcDbEntity
  8
001
370
    50
100
AcDbVertex
100
AcDb2dVertex
 10
96.355455
 20
61.546602
 30
0.0
  0
VERTEX
  5
695
330
686
100
AcDbEntity
  8
001
370
    50
100
AcDbVertex
100
AcDb2dVertex
 10
96.389929
 20
61.533485
 30
0.0
  0
VERTEX
  5
696
330
686
100
AcDbEntity
  8
001
370
    50
100
AcDbVertex
100
AcDb2dVertex
 10
96.428798
 20
61.52401
 30
0.0
  0
VERTEX
  5
697
330
686
100
AcDbEntity
  8
001
370
    50
100
AcDbVertex
100
AcDb2dVertex
 10
96.47284
 20
61.518295
 30
0.0
  0
VERTEX
  5
698
330
686
100
AcDbEntity
  8
001
370
    50
100
AcDbVertex
100
AcDb2dVertex
 10
96.505072
 20
61.516382
 30
0.0
  0
SEQEND
  5
687
330
686
100
AcDbEntity
  8
001
370
    50
  0
ARC
  5
699
330
1F
100
AcDbEntity
  8
001
370
    50
100
AcDbCircle
 10
113.057213
 20
58.579936
 30
0.0
 40
0.3885544528075444
100
AcDbArc
 50
224.561451
 51
315.438549
  0
LINE
  5
69A
330
1F
100
AcDbEntity
  8
001
  6
CENTER
370
     9
100
AcDbLine
 10
113.057213
 20
58.191382
 30
0.0
 11
111.488421
 21
58.191382
 31
0.0
  0
POLYLINE
  5
69B
330
1F
100
AcDbEntity
  8
001
370
    50
100
AcDb2dPolyline
 66
     1
 10
0.0
 20
0.0
 30
0.0
  0
VERTEX
  5
69D
330
69B
100
AcDbEntity
  8
001
370
    50
100
AcDbVertex
100
AcDb2dVertex
 10
107.80593
 20
62.385998
 30
0.0
  0
VERTEX
  5
69E
330
69B
100
AcDbEntity
  8
001
370
    50
100
AcDbVertex
100
AcDb2dVertex
 10
107.786708
 20
62.364339
 30
0.0
  0
VERTEX
  5
69F
330
69B
100
AcDbEntity
  8
001
370
    50
100
AcDbVertex
100
AcDb2dVertex
 10
107.762124
 20
62.332987
 30
0.0
  0
VERTEX
  5
6A0
330
69B
100
AcDbEntity
  8
001
370
    50
100
AcDbVertex
100
AcDb2dVertex
 10
107.742757
 20
62.302712
 30
0.0
  0
VERTEX
  5
6A1
330
69B
100
AcDbEntity
  8
001
370
    50
100
AcDbVertex
100
AcDb2dVertex
 10
107.728048
 20
62.273056
 30
0.0
  0
VERTEX
  5
6A2
330
69B
100
AcDbEntity
  8
001
370
    50
100
AcDbVertex
100
AcDb2dVertex
 10
107.71527
 20
62.241325
 30
0.0
  0
VERTEX
  5
6A3
330
69B
100
AcDbEntity
  8
001
370
    50
100
AcDbVertex
100
AcDb2dVertex
 10
107.70474
 20
62.208028
 30
0.0
  0
VERTEX
  5
6A4
330
69B
100
AcDbEntity
  8
001
370
    50
100
AcDbVertex
100
AcDb2dVertex
 10
107.697277
 20
62.174137
 30
0.0
  0
VERTEX
  5
6A5
330
69B
100
AcDbEntity
  8
001
370
    50
100
AcDbVertex
100
AcDb2dVertex
 10
107.692905
 20
62.139878
 30
0.0
  0
VERTEX
  5
6A6
330
69B
100
AcDbEntity
  8
001
370
    50
100
AcDbVertex
100
AcDb2dVertex
 10
107.691458
 20
62.105277
 30
0.0
  0
VERTEX
  5
6A7
330
69B
100
AcDbEntity
  8
001
370
    50
100
AcDbVertex
100
AcDb2dVertex
 10
107.692905
 20
62.070676
 30
0.0
  0
VERTEX
  5
6A8
330
69B
100
AcDbEntity
  8
001
370
    50
100
AcDbVertex
100
AcDb2dVertex
 10
107.697277
 20
62.036416
 30
0.0
  0
VERTEX
  5
6A9
330
69B
100
AcDbEntity
  8
001
370
    50
100
AcDbVertex
100
AcDb2dVertex
 10
107.70474
 20
62.002526
 30
0.0
  0
VERTEX
  5
6AA
330
69B
100
AcDbEntity
  8
001
370
    50
100
AcDbVertex
100
AcDb2dVertex
 10
107.71527
 20
61.969229
 30
0.0
  0
VERTEX
  5
6AB
330
69B
100
AcDbEntity
  8
001
370
    50
100
AcDbVertex
100
AcDb2dVertex
 10
107.728048
 20
61.937497
 30
0.0
  0
VERTEX
  5
6AC
330
69B
100
AcDbEntity
  8
001
370
    50
100
AcDbVertex
100
AcDb2dVertex
 10
107.742757
 20
61.907841
 30
0.0
  0
VERTEX
  5
6AD
330
69B
100
AcDbEntity
  8
001
370
    50
100
AcDbVertex
100
AcDb2dVertex
 10
107.762124
 20
61.877567
 30
0.0
  0
VERTEX
  5
6AE
330
69B
100
AcDbEntity
  8
001
370
    50
100
AcDbVertex
100
AcDb2dVertex
 10
107.786708
 20
61.846214
 30
0.0
  0
VERTEX
  5
6AF
330
69B
100
AcDbEntity
  8
001
370
    50
100
AcDbVertex
100
AcDb2dVertex
 10
107.80593
 20
61.824555
 30
0.0
  0
SEQEND
  5
69C
330
69B
100
AcDbEntity
  8
001
370
    50
  0
LINE
  5
6B0
330
1F
100
AcDbEntity
  8
001
  6
PHANTOM
370
     9
100
AcDbLine
 10
109.864103
 20
83.266382
 30
0.0
 11
111.343451
 21
83.266382
 31
0.0
  0
LINE
  5
6B1
330
1F
100
AcDbEntity
  8
001
  6
CENTER
370
     9
100
AcDbLine
 10
113.057213
 20
84.841382
 30
0.0
 11
111.488421
 21
84.841382
 31
0.0
  0
LINE
  5
6B2
330
1F
100
AcDbEntity
  8
001
  6
PHANTOM
370
     9
100
AcDbLine
 10
95.614103
 20
78.516382
 30
0.0
 11
91.843894
 21
78.516382
 31
0.0
  0
LINE
  5
6B3
330
1F
100
AcDbEntity
  8
001
  6
PHANTOM
370
     9
100
AcDbLine
 10
95.614103
 20
64.516382
 30
0.0
 11
91.843894
 21
64.516382
 31
0.0
  0
ENDSEC
  0
SECTION
  2
OBJECTS
  0
DICTIONARY
  5
C
330
0
100
AcDbDictionary
281
     1
  3
ACAD_GROUP
350
D
  3
ACAD_LAYOUT
350
1A
  3
ACAD_MLEADERSTYLE
350
6B7
  3
ACAD_MLINESTYLE
350
17
  3
ACAD_PLOTSETTINGS
350
19
  3
ACAD_PLOTSTYLENAME
350
E
  3
ACAD_SCALELIST
350
3B
  3
ACAD_TABLESTYLE
350
6B6
  3
ACAD_VISUALSTYLE
350
2A
  3
AcDbVariableDictionary
350
6B4
  0
DICTIONARY
  5
D
102
{ACAD_REACTORS
330
C
102
}
330
C
100
AcDbDictionary
281
     1
  0
DICTIONARY
  5
1A
102
{ACAD_REACTORS
330
C
102
}
330
C
100
AcDbDictionary
281
     1
  3
Layout1
350
1E
  3
Layout2
350
26
  3
Model
350
22
  0
DICTIONARY
  5
6B7
102
{ACAD_REACTORS
330
C
102
}
330
C
100
AcDbDictionary
281
     1
  0
DICTIONARY
  5
17
102
{ACAD_REACTORS
330
C
102
}
330
C
100
AcDbDictionary
281
     1
  3
Standard
350
18
  0
DICTIONARY
  5
19
102
{ACAD_REACTORS
330
C
102
}
330
C
100
AcDbDictionary
281
     1
  0
ACDBDICTIONARYWDFLT
  5
E
102
{ACAD_REACTORS
330
C
102
}
330
C
100
AcDbDictionary
281
     1
  3
Normal
350
F
100
AcDbDictionaryWithDefault
340
F
  0
DICTIONARY
  5
3B
102
{ACAD_REACTORS
330
C
102
}
330
C
100
AcDbDictionary
281
     1
  3
A0
350
3C
  3
A1
350
3D
  3
A2
350
3E
  3
A3
350
3F
  3
A4
350
40
  3
A5
350
41
  3
A6
350
42
  3
A7
350
43
  3
A8
350
44
  3
A9
350
45
  3
B0
350
46
  3
B1
350
47
  3
B2
350
48
  3
B3
350
49
  3
B4
350
4A
  3
B5
350
4B
  3
B6
350
4C
  3
B7
350
4D
  3
B8
350
4E
  3
B9
350
4F
  3
C0
350
50
  3
C1
350
51
  3
C2
350
52
  3
C3
350
53
  3
C4
350
54
  3
C5
350
55
  3
C6
350
56
  3
C7
350
57
  3
C8
350
58
  3
C9
350
59
  3
D0
350
5A
  3
D1
350
5B
  3
D2
350
5C
  0
DICTIONARY
  5
6B6
102
{ACAD_REACTORS
330
C
102
}
330
C
100
AcDbDictionary
281
     1
  0
DICTIONARY
  5
2A
102
{ACAD_REACTORS
330
C
102
}
330
C
100
AcDbDictionary
281
     1
  3
2dWireframe
350
2F
  3
3D Hidden
350
31
  3
3dWireframe
350
30
  3
Basic
350
32
  3
Brighten
350
36
  3
ColorChange
350
3A
  3
Conceptual
350
34
  3
Dim
350
35
  3
Facepattern
350
39
  3
Flat
350
2B
  3
FlatWithEdges
350
2C
  3
Gouraud
350
2D
  3
GouraudWithEdges
350
2E
  3
Linepattern
350
38
  3
Realistic
350
33
  3
Thicken
350
37
  0
DICTIONARY
  5
6B4
102
{ACAD_REACTORS
330
C
102
}
330
C
100
AcDbDictionary
281
     1
  3
CANNOSCALE
350
6B5
  3
PSOLHEIGHT
350
6B9
  3
PSOLWIDTH
350
6B8
  0
LAYOUT
  5
1E
102
{ACAD_REACTORS
330
1A
102
}
330
1A
100
AcDbPlotSettings
  1

  2
none_device
  4

  6

 40
0.0
 41
0.0
 42
0.0
 43
0.0
 44
0.0
 45
0.0
 46
0.0
 47
0.0
 48
0.0
 49
0.0
140
0.0
141
0.0
142
1.0
143
1.0
 70
   688
 72
     0
 73
     0
 74
     5
  7

 75
    16
147
1.0
148
0.0
149
0.0
100
AcDbLayout
  1
Layout1
 70
     1
 71
     1
 10
0.0
 20
0.0
 11
12.0
 21
9.0
 12
0.0
 22
0.0
 32
0.0
 14
1.000000E+20
 24
1.000000E+20
 34
0.0
 15
-1.000000E+20
 25
-1.000000E+20
 35
0.0
146
0.0
 13
0.0
 23
0.0
 33
0.0
 16
1.0
 26
0.0
 36
0.0
 17
0.0
 27
1.0
 37
0.0
 76
     0
330
1B
  0
LAYOUT
  5
26
102
{ACAD_REACTORS
330
1A
102
}
330
1A
100
AcDbPlotSettings
  1

  2
none_device
  4

  6

 40
0.0
 41
0.0
 42
0.0
 43
0.0
 44
0.0
 45
0.0
 46
0.0
 47
0.0
 48
0.0
 49
0.0
140
0.0
141
0.0
142
1.0
143
1.0
 70
   688
 72
     0
 73
     0
 74
     5
  7

 75
    16
147
1.0
148
0.0
149
0.0
100
AcDbLayout
  1
Layout2
 70
     1
 71
     2
 10
0.0
 20
0.0
 11
0.0
 21
0.0
 12
0.0
 22
0.0
 32
0.0
 14
0.0
 24
0.0
 34
0.0
 15
0.0
 25
0.0
 35
0.0
146
0.0
 13
0.0
 23
0.0
 33
0.0
 16
1.0
 26
0.0
 36
0.0
 17
0.0
 27
1.0
 37
0.0
 76
     0
330
23
  0
LAYOUT
  5
22
102
{ACAD_REACTORS
330
1A
102
}
330
1A
100
AcDbPlotSettings
  1

  2
none_device
  4

  6

 40
0.0
 41
0.0
 42
0.0
 43
0.0
 44
0.0
 45
0.0
 46
0.0
 47
0.0
 48
0.0
 49
0.0
140
0.0
141
0.0
142
1.0
143
1.0
 70
  1712
 72
     0
 73
     0
 74
     0
  7

 75
     0
147
1.0
148
0.0
149
0.0
100
AcDbLayout
  1
Model
 70
     1
 71
     0
 10
0.0
 20
0.0
 11
12.0
 21
9.0
 12
0.0
 22
0.0
 32
0.0
 14
24.203247
 24
-10.852905
 34
0.0
 15
253.126495
 25
116.489799
 35
0.0
146
0.0
 13
0.0
 23
0.0
 33
0.0
 16
1.0
 26
0.0
 36
0.0
 17
0.0
 27
1.0
 37
0.0
 76
     0
330
1F
331
29
  0
MLINESTYLE
  5
18
102
{ACAD_REACTORS
330
17
102
}
330
17
100
AcDbMlineStyle
  2
Standard
 70
     0
  3

 62
   256
 51
90.0
 52
90.0
 71
     2
 49
0.5
 62
   256
  6
BYLAYER
 49
-0.5
 62
   256
  6
BYLAYER
  0
ACDBPLACEHOLDER
  5
F
102
{ACAD_REACTORS
330
E
102
}
330
E
  0
SCALE
  5
3C
102
{ACAD_REACTORS
330
3B
102
}
330
3B
100
AcDbScale
 70
     0
300
1:1
140
1.0
141
1.0
290
     1
  0
SCALE
  5
3D
102
{ACAD_REACTORS
330
3B
102
}
330
3B
100
AcDbScale
 70
     0
300
1:2
140
1.0
141
2.0
290
     0
  0
SCALE
  5
3E
102
{ACAD_REACTORS
330
3B
102
}
330
3B
100
AcDbScale
 70
     0
300
1:4
140
1.0
141
4.0
290
     0
  0
SCALE
  5
3F
102
{ACAD_REACTORS
330
3B
102
}
330
3B
100
AcDbScale
 70
     0
300
1:5
140
1.0
141
5.0
290
     0
  0
SCALE
  5
40
102
{ACAD_REACTORS
330
3B
102
}
330
3B
100
AcDbScale
 70
     0
300
1:8
140
1.0
141
8.0
290
     0
  0
SCALE
  5
41
102
{ACAD_REACTORS
330
3B
102
}
330
3B
100
AcDbScale
 70
     0
300
1:10
140
1.0
141
10.0
290
     0
  0
SCALE
  5
42
102
{ACAD_REACTORS
330
3B
102
}
330
3B
100
AcDbScale
 70
     0
300
1:16
140
1.0
141
16.0
290
     0
  0
SCALE
  5
43
102
{ACAD_REACTORS
330
3B
102
}
330
3B
100
AcDbScale
 70
     0
300
1:20
140
1.0
141
20.0
290
     0
  0
SCALE
  5
44
102
{ACAD_REACTORS
330
3B
102
}
330
3B
100
AcDbScale
 70
     0
300
1:30
140
1.0
141
30.0
290
     0
  0
SCALE
  5
45
102
{ACAD_REACTORS
330
3B
102
}
330
3B
100
AcDbScale
 70
     0
300
1:40
140
1.0
141
40.0
290
     0
  0
SCALE
  5
46
102
{ACAD_REACTORS
330
3B
102
}
330
3B
100
AcDbScale
 70
     0
300
1:50
140
1.0
141
50.0
290
     0
  0
SCALE
  5
47
102
{ACAD_REACTORS
330
3B
102
}
330
3B
100
AcDbScale
 70
     0
300
1:100
140
1.0
141
100.0
290
     0
  0
SCALE
  5
48
102
{ACAD_REACTORS
330
3B
102
}
330
3B
100
AcDbScale
 70
     0
300
2:1
140
2.0
141
1.0
290
     0
  0
SCALE
  5
49
102
{ACAD_REACTORS
330
3B
102
}
330
3B
100
AcDbScale
 70
     0
300
4:1
140
4.0
141
1.0
290
     0
  0
SCALE
  5
4A
102
{ACAD_REACTORS
330
3B
102
}
330
3B
100
AcDbScale
 70
     0
300
8:1
140
8.0
141
1.0
290
     0
  0
SCALE
  5
4B
102
{ACAD_REACTORS
330
3B
102
}
330
3B
100
AcDbScale
 70
     0
300
10:1
140
10.0
141
1.0
290
     0
  0
SCALE
  5
4C
102
{ACAD_REACTORS
330
3B
102
}
330
3B
100
AcDbScale
 70
     0
300
100:1
140
100.0
141
1.0
290
     0
  0
SCALE
  5
4D
102
{ACAD_REACTORS
330
3B
102
}
330
3B
100
AcDbScale
 70
     0
300
1/128" = 1'-0"
140
0.007812
141
12.0
290
     0
  0
SCALE
  5
4E
102
{ACAD_REACTORS
330
3B
102
}
330
3B
100
AcDbScale
 70
     0
300
1/64" = 1'-0"
140
0.015625
141
12.0
290
     0
  0
SCALE
  5
4F
102
{ACAD_REACTORS
330
3B
102
}
330
3B
100
AcDbScale
 70
     0
300
1/32" = 1'-0"
140
0.03125
141
12.0
290
     0
  0
SCALE
  5
50
102
{ACAD_REACTORS
330
3B
102
}
330
3B
100
AcDbScale
 70
     0
300
1/16" = 1'-0"
140
0.0625
141
12.0
290
     0
  0
SCALE
  5
51
102
{ACAD_REACTORS
330
3B
102
}
330
3B
100
AcDbScale
 70
     0
300
3/32" = 1'-0"
140
0.09375
141
12.0
290
     0
  0
SCALE
  5
52
102
{ACAD_REACTORS
330
3B
102
}
330
3B
100
AcDbScale
 70
     0
300
1/8" = 1'-0"
140
0.125
141
12.0
290
     0
  0
SCALE
  5
53
102
{ACAD_REACTORS
330
3B
102
}
330
3B
100
AcDbScale
 70
     0
300
3/16" = 1'-0"
140
0.1875
141
12.0
290
     0
  0
SCALE
  5
54
102
{ACAD_REACTORS
330
3B
102
}
330
3B
100
AcDbScale
 70
     0
300
1/4" = 1'-0"
140
0.25
141
12.0
290
     0
  0
SCALE
  5
55
102
{ACAD_REACTORS
330
3B
102
}
330
3B
100
AcDbScale
 70
     0
300
3/8" = 1'-0"
140
0.375
141
12.0
290
     0
  0
SCALE
  5
56
102
{ACAD_REACTORS
330
3B
102
}
330
3B
100
AcDbScale
 70
     0
300
1/2" = 1'-0"
140
0.5
141
12.0
290
     0
  0
SCALE
  5
57
102
{ACAD_REACTORS
330
3B
102
}
330
3B
100
AcDbScale
 70
     0
300
3/4" = 1'-0"
140
0.75
141
12.0
290
     0
  0
SCALE
  5
58
102
{ACAD_REACTORS
330
3B
102
}
330
3B
100
AcDbScale
 70
     0
300
1" = 1'-0"
140
1.0
141
12.0
290
     0
  0
SCALE
  5
59
102
{ACAD_REACTORS
330
3B
102
}
330
3B
100
AcDbScale
 70
     0
300
1-1/2" = 1'-0"
140
1.5
141
12.0
290
     0
  0
SCALE
  5
5A
102
{ACAD_REACTORS
330
3B
102
}
330
3B
100
AcDbScale
 70
     0
300
3" = 1'-0"
140
3.0
141
12.0
290
     0
  0
SCALE
  5
5B
102
{ACAD_REACTORS
330
3B
102
}
330
3B
100
AcDbScale
 70
     0
300
6" = 1'-0"
140
6.0
141
12.0
290
     0
  0
SCALE
  5
5C
102
{ACAD_REACTORS
330
3B
102
}
330
3B
100
AcDbScale
 70
     0
300
1'-0" = 1'-0"
140
12.0
141
12.0
290
     0
  0
VISUALSTYLE
  5
2F
102
{ACAD_REACTORS
330
2A
102
}
330
2A
100
AcDbVisualStyle
  2
2dWireframe
 70
     4
 71
     0
 72
     2
 73
     0
 90
        0
 40
-0.6
 41
-30.0
 62
     5
 63
     7
 74
     1
 91
        4
 64
     7
 65
   257
 75
     1
175
     1
 42
1.0
 92
        0
 66
   257
 43
1.0
 76
     1
 77
     6
 78
     2
 67
     7
 79
     5
170
     0
171
     0
290
     0
174
     0
 93
        1
 44
0.0
173
     0
291
     0
 45
0.0
1001
ACAD
1000
AcDbSavedByObjectVersion
1070
     0
  0
VISUALSTYLE
  5
31
102
{ACAD_REACTORS
330
2A
102
}
330
2A
100
AcDbVisualStyle
  2
3D Hidden
 70
     6
 71
     1
 72
     2
 73
     2
 90
        0
 40
-0.6
 41
-30.0
 62
     5
 63
     7
 74
     2
 91
        2
 64
     7
 65
   257
 75
     2
175
     1
 42
40.0
 92
        0
 66
   257
 43
1.0
 76
     1
 77
     6
 78
     2
 67
     7
 79
     3
170
     0
171
     0
290
     0
174
     0
 93
        1
 44
0.0
173
     0
291
     0
 45
0.0
1001
ACAD
1000
AcDbSavedByObjectVersion
1070
     0
  0
VISUALSTYLE
  5
30
102
{ACAD_REACTORS
330
2A
102
}
330
2A
100
AcDbVisualStyle
  2
3dWireframe
 70
     5
 71
     0
 72
     2
 73
     0
 90
        0
 40
-0.6
 41
-30.0
 62
     5
 63
     7
 74
     1
 91
        4
 64
     7
 65
   257
 75
     1
175
     1
 42
1.0
 92
        0
 66
   257
 43
1.0
 76
     1
 77
     6
 78
     2
 67
     7
 79
     5
170
     0
171
     0
290
     0
174
     0
 93
        1
 44
0.0
173
     0
291
     0
 45
0.0
1001
ACAD
1000
AcDbSavedByObjectVersion
1070
     0
  0
VISUALSTYLE
  5
32
102
{ACAD_REACTORS
330
2A
102
}
330
2A
100
AcDbVisualStyle
  2
Basic
 70
     7
 71
     1
 72
     0
 73
     1
 90
        0
 40
-0.6
 41
-30.0
 62
     5
 63
     7
 74
     0
 91
        4
 64
     7
 65
   257
 75
     1
175
     1
 42
1.0
 92
        8
 66
     7
 43
1.0
 76
     1
 77
     6
 78
     2
 67
     7
 79
     5
170
     0
171
     0
290
     0
174
     0
 93
        1
 44
0.0
173
     0
291
     1
 45
0.0
1001
ACAD
1000
AcDbSavedByObjectVersion
1070
     0
  0
VISUALSTYLE
  5
36
102
{ACAD_REACTORS
330
2A
102
}
330
2A
100
AcDbVisualStyle
  2
Brighten
 70
    12
 71
     2
 72
     2
 73
     0
 90
        0
 40
-0.6
 41
-30.0
 62
     5
 63
     7
 74
     1
 91
        4
 64
     7
 65
   257
 75
     1
175
     1
 42
1.0
 92
        8
 66
     7
 43
1.0
 76
     1
 77
     6
 78
     2
 67
     7
 79
     5
170
     0
171
     0
290
     0
174
     0
 93
        1
 44
50.0
173
     0
291
     1
 45
0.0
1001
ACAD
1000
AcDbSavedByObjectVersion
1070
     0
  0
VISUALSTYLE
  5
3A
102
{ACAD_REACTORS
330
2A
102
}
330
2A
100
AcDbVisualStyle
  2
ColorChange
 70
    16
 71
     2
 72
     2
 73
     3
 90
        0
 40
-0.6
 41
-30.0
 62
     5
 63
     8
 74
     1
 91
        4
 64
     7
 65
   257
 75
     1
175
     1
 42
1.0
 92
        8
 66
     8
 43
1.0
 76
     1
 77
     6
 78
     2
 67
     7
 79
     5
170
     0
171
     0
290
     0
174
     0
 93
        1
 44
0.0
173
     0
291
     1
 45
0.0
1001
ACAD
1000
AcDbSavedByObjectVersion
1070
     0
  0
VISUALSTYLE
  5
34
102
{ACAD_REACTORS
330
2A
102
}
330
2A
100
AcDbVisualStyle
  2
Conceptual
 70
     9
 71
     3
 72
     2
 73
     0
 90
        0
 40
-0.6
 41
-30.0
 62
     5
 63
     7
 74
     2
 91
        2
 64
     7
 65
   257
 75
     1
175
     1
 42
40.0
 92
        8
 66
     7
 43
1.0
 76
     1
 77
     6
 78
     2
 67
     7
 79
     3
170
     0
171
     0
290
     0
174
     0
 93
        1
 44
0.0
173
     0
291
     0
 45
0.0
1001
ACAD
1000
AcDbSavedByObjectVersion
1070
     0
  0
VISUALSTYLE
  5
35
102
{ACAD_REACTORS
330
2A
102
}
330
2A
100
AcDbVisualStyle
  2
Dim
 70
    11
 71
     2
 72
     2
 73
     0
 90
        0
 40
-0.6
 41
-30.0
 62
     5
 63
     7
 74
     1
 91
        4
 64
     7
 65
   257
 75
     1
175
     1
 42
1.0
 92
        8
 66
     7
 43
1.0
 76
     1
 77
     6
 78
     2
 67
     7
 79
     5
170
     0
171
     0
290
     0
174
     0
 93
        1
 44
-50.0
173
     0
291
     1
 45
0.0
1001
ACAD
1000
AcDbSavedByObjectVersion
1070
     0
  0
VISUALSTYLE
  5
39
102
{ACAD_REACTORS
330
2A
102
}
330
2A
100
AcDbVisualStyle
  2
Facepattern
 70
    15
 71
     2
 72
     2
 73
     0
 90
        0
 40
-0.6
 41
-30.0
 62
     5
 63
     7
 74
     1
 91
        4
 64
     7
 65
   257
 75
     1
175
     1
 42
1.0
 92
        8
 66
     7
 43
1.0
 76
     1
 77
     6
 78
     2
 67
     7
 79
     5
170
     0
171
     0
290
     0
174
     0
 93
        1
 44
0.0
173
     0
291
     1
 45
0.0
1001
ACAD
1000
AcDbSavedByObjectVersion
1070
     0
  0
VISUALSTYLE
  5
2B
102
{ACAD_REACTORS
330
2A
102
}
330
2A
100
AcDbVisualStyle
  2
Flat
 70
     0
 71
     2
 72
     1
 73
     1
 90
        2
 40
-0.6
 41
30.0
 62
     5
 63
     7
 74
     0
 91
        4
 64
     7
 65
   257
 75
     1
175
     1
 42
1.0
 92
        8
 66
     7
 43
1.0
 76
     1
 77
     6
 78
     2
 67
     7
 79
     5
170
     0
171
     0
290
     0
174
     0
 93
       13
 44
0.0
173
     0
291
     1
 45
0.0
1001
ACAD
1000
AcDbSavedByObjectVersion
1070
     0
  0
VISUALSTYLE
  5
2C
102
{ACAD_REACTORS
330
2A
102
}
330
2A
100
AcDbVisualStyle
  2
FlatWithEdges
 70
     1
 71
     2
 72
     1
 73
     1
 90
        2
 40
-0.6
 41
30.0
 62
     5
 63
     7
 74
     1
 91
        4
 64
     7
 65
   257
 75
     1
175
     1
 42
1.0
 92
        0
 66
   257
 43
1.0
 76
     1
 77
     6
 78
     2
 67
     7
 79
     5
170
     0
171
     0
290
     0
174
     0
 93
       13
 44
0.0
173
     0
291
     1
 45
0.0
1001
ACAD
1000
AcDbSavedByObjectVersion
1070
     0
  0
VISUALSTYLE
  5
2D
102
{ACAD_REACTORS
330
2A
102
}
330
2A
100
AcDbVisualStyle
  2
Gouraud
 70
     2
 71
     2
 72
     2
 73
     1
 90
        2
 40
-0.6
 41
30.0
 62
     5
 63
     7
 74
     0
 91
        4
 64
     7
 65
   257
 75
     1
175
     1
 42
1.0
 92
        0
 66
     7
 43
1.0
 76
     1
 77
     6
 78
     2
 67
     7
 79
     5
170
     0
171
     0
290
     0
174
     0
 93
       13
 44
0.0
173
     0
291
     1
 45
0.0
1001
ACAD
1000
AcDbSavedByObjectVersion
1070
     0
  0
VISUALSTYLE
  5
2E
102
{ACAD_REACTORS
330
2A
102
}
330
2A
100
AcDbVisualStyle
  2
GouraudWithEdges
 70
     3
 71
     2
 72
     2
 73
     1
 90
        2
 40
-0.6
 41
30.0
 62
     5
 63
     7
 74
     1
 91
        4
 64
     7
 65
   257
 75
     1
175
     1
 42
1.0
 92
        0
 66
   257
 43
1.0
 76
     1
 77
     6
 78
     2
 67
     7
 79
     5
170
     0
171
     0
290
     0
174
     0
 93
       13
 44
0.0
173
     0
291
     1
 45
0.0
1001
ACAD
1000
AcDbSavedByObjectVersion
1070
     0
  0
VISUALSTYLE
  5
38
102
{ACAD_REACTORS
330
2A
102
}
330
2A
100
AcDbVisualStyle
  2
Linepattern
 70
    14
 71
     2
 72
     2
 73
     0
 90
        0
 40
-0.6
 41
-30.0
 62
     5
 63
     7
 74
     1
 91
        4
 64
     7
 65
   257
 75
     7
175
     7
 42
1.0
 92
        8
 66
     7
 43
1.0
 76
     1
 77
     6
 78
     2
 67
     7
 79
     5
170
     0
171
     0
290
     0
174
     0
 93
        1
 44
0.0
173
     0
291
     1
 45
0.0
1001
ACAD
1000
AcDbSavedByObjectVersion
1070
     0
  0
VISUALSTYLE
  5
33
102
{ACAD_REACTORS
330
2A
102
}
330
2A
100
AcDbVisualStyle
  2
Realistic
 70
     8
 71
     2
 72
     2
 73
     0
 90
        0
 40
-0.6
 41
-30.0
 62
     5
 63
     7
 74
     1
 91
        0
 64
     7
 65
   257
 75
     1
175
     1
 42
1.0
 92
        8
 66
     8
 43
1.0
 76
     1
 77
     6
 78
     2
 67
     7
 79
     5
170
     0
171
     0
290
     0
174
     0
 93
       13
 44
0.0
173
     0
291
     0
 45
0.0
1001
ACAD
1000
AcDbSavedByObjectVersion
1070
     0
  0
VISUALSTYLE
  5
37
102
{ACAD_REACTORS
330
2A
102
}
330
2A
100
AcDbVisualStyle
  2
Thicken
 70
    13
 71
     2
 72
     2
 73
     0
 90
        0
 40
-0.6
 41
-30.0
 62
     5
 63
     7
 74
     1
 91
        4
 64
     7
 65
   257
 75
     1
175
     1
 42
1.0
 92
       12
 66
     7
 43
1.0
 76
     1
 77
     6
 78
     2
 67
     7
 79
     5
170
     0
171
     0
290
     0
174
     0
 93
        1
 44
0.0
173
     0
291
     1
 45
0.0
1001
ACAD
1000
AcDbSavedByObjectVersion
1070
     0
  0
DICTIONARYVAR
  5
6B5
102
{ACAD_REACTORS
330
6B4
102
}
330
6B4
100
DictionaryVariables
280
     0
  1
1:1
  0
DICTIONARYVAR
  5
6B9
102
{ACAD_REACTORS
330
6B4
102
}
330
6B4
100
DictionaryVariables
280
     0
  1
80.000000
  0
DICTIONARYVAR
  5
6B8
102
{ACAD_REACTORS
330
6B4
102
}
330
6B4
100
DictionaryVariables
280
     0
  1
5.000000
  0
ENDSEC
  0
EOF
