  0
SECTION
  2
HEADER
  9
$ACADVER
  1
AC1015
  9
$ACADMAINTVER
 70
     6
  9
$DWGCODEPAGE
  3
ANSI_932
  9
$INSBASE
 10
0.0
 20
0.0
 30
0.0
  9
$EXTMIN
 10
13.134689
 20
-6.137032
 30
0.0
  9
$EXTMAX
 10
223.134689
 20
90.143753
 30
0.0
  9
$LIMMIN
 10
0.0
 20
0.0
  9
$LIMMAX
 10
12.0
 20
9.0
  9
$ORTHOMODE
 70
     0
  9
$REGENMODE
 70
     1
  9
$FILLMODE
 70
     1
  9
$QTEXTMODE
 70
     0
  9
$MIRRTEXT
 70
     1
  9
$LTSCALE
 40
2.310195
  9
$ATTMODE
 70
     1
  9
$TEXTSIZE
 40
3.2
  9
$TRACEWID
 40
1.0
  9
$TEXTSTYLE
  7
Standard
  9
$CLAYER
  8
0
  9
$CELTYPE
  6
ByLayer
  9
$CECOLOR
 62
   256
  9
$CELTSCALE
 40
1.0
  9
$DISPSILH
 70
     0
  9
$DIMSCALE
 40
1.0
  9
$DIMASZ
 40
2.5
  9
$DIMEXO
 40
0.625
  9
$DIMDLI
 40
3.75
  9
$DIMRND
 40
0.0
  9
$DIMDLE
 40
0.0
  9
$DIMEXE
 40
1.25
  9
$DIMTP
 40
0.0
  9
$DIMTM
 40
0.0
  9
$DIMTXT
 40
2.5
  9
$DIMCEN
 40
0.09
  9
$DIMTSZ
 40
0.0
  9
$DIMTOL
 70
     0
  9
$DIMLIM
 70
     0
  9
$DIMTIH
 70
     0
  9
$DIMTOH
 70
     0
  9
$DIMSE1
 70
     0
  9
$DIMSE2
 70
     0
  9
$DIMTAD
 70
     0
  9
$DIMZIN
 70
     8
  9
$DIMBLK
  1

  9
$DIMASO
 70
     1
  9
$DIMSHO
 70
     0
  9
$DIMPOST
  1

  9
$DIMAPOST
  1

  9
$DIMALT
 70
     0
  9
$DIMALTD
 70
     3
  9
$DIMALTF
 40
0.03937
  9
$DIMLFAC
 40
1.0
  9
$DIMTOFL
 70
     1
  9
$DIMTVP
 40
0.0
  9
$DIMTIX
 70
     0
  9
$DIMSOXD
 70
     0
  9
$DIMSAH
 70
     0
  9
$DIMBLK1
  1

  9
$DIMBLK2
  1

  9
$DIMSTYLE
  2
ISO-25
  9
$DIMCLRD
 70
     0
  9
$DIMCLRE
 70
     0
  9
$DIMCLRT
 70
     0
  9
$DIMTFAC
 40
1.0
  9
$DIMGAP
 40
0.625
  9
$DIMJUST
 70
     0
  9
$DIMSD1
 70
     0
  9
$DIMSD2
 70
     0
  9
$DIMTOLJ
 70
     0
  9
$DIMTZIN
 70
     8
  9
$DIMALTZ
 70
     0
  9
$DIMALTTZ
 70
     0
  9
$DIMUPT
 70
     0
  9
$DIMDEC
 70
     2
  9
$DIMTDEC
 70
     2
  9
$DIMALTU
 70
     2
  9
$DIMALTTD
 70
     3
  9
$DIMTXSTY
  7
Standard
  9
$DIMAUNIT
 70
     0
  9
$DIMADEC
 70
     0
  9
$DIMALTRND
 40
0.0
  9
$DIMAZIN
 70
     0
  9
$DIMDSEP
 70
    44
  9
$DIMATFIT
 70
     3
  9
$DIMFRAC
 70
     0
  9
$DIMLDRBLK
  1

  9
$DIMLUNIT
 70
     2
  9
$DIMLWD
 70
    -2
  9
$DIMLWE
 70
    -2
  9
$DIMTMOVE
 70
     0
  9
$LUNITS
 70
     2
  9
$LUPREC
 70
     4
  9
$SKETCHINC
 40
1.0
  9
$FILLETRAD
 40
0.0
  9
$AUNITS
 70
     0
  9
$AUPREC
 70
     0
  9
$MENU
  1
.
  9
$ELEVATION
 40
0.0
  9
$PELEVATION
 40
0.0
  9
$THICKNESS
 40
0.0
  9
$LIMCHECK
 70
     0
  9
$CHAMFERA
 40
10.0
  9
$CHAMFERB
 40
10.0
  9
$CHAMFERC
 40
20.0
  9
$CHAMFERD
 40
0.0
  9
$SKPOLY
 70
     0
  9
$TDCREATE
 40
2454798.418801898
  9
$TDUCREATE
 40
2454798.043801898
  9
$TDUPDATE
 40
2454798.41880191
  9
$TDUUPDATE
 40
2454798.04380191
  9
$TDINDWG
 40
0.0000000116
  9
$TDUSRTIMER
 40
0.0000000116
  9
$USRTIMER
 70
     1
  9
$ANGBASE
 50
0.0
  9
$ANGDIR
 70
     0
  9
$PDMODE
 70
     0
  9
$PDSIZE
 40
0.0
  9
$PLINEWID
 40
0.0
  9
$SPLFRAME
 70
     0
  9
$SPLINETYPE
 70
     6
  9
$SPLINESEGS
 70
     8
  9
$HANDSEED
  5
346
  9
$SURFTAB1
 70
     6
  9
$SURFTAB2
 70
     6
  9
$SURFTYPE
 70
     6
  9
$SURFU
 70
     6
  9
$SURFV
 70
     6
  9
$UCSBASE
  2

  9
$UCSNAME
  2

  9
$UCSORG
 10
0.0
 20
0.0
 30
0.0
  9
$UCSXDIR
 10
1.0
 20
0.0
 30
0.0
  9
$UCSYDIR
 10
0.0
 20
1.0
 30
0.0
  9
$UCSORTHOREF
  2

  9
$UCSORTHOVIEW
 70
     0
  9
$UCSORGTOP
 10
0.0
 20
0.0
 30
0.0
  9
$UCSORGBOTTOM
 10
0.0
 20
0.0
 30
0.0
  9
$UCSORGLEFT
 10
0.0
 20
0.0
 30
0.0
  9
$UCSORGRIGHT
 10
0.0
 20
0.0
 30
0.0
  9
$UCSORGFRONT
 10
0.0
 20
0.0
 30
0.0
  9
$UCSORGBACK
 10
0.0
 20
0.0
 30
0.0
  9
$PUCSBASE
  2

  9
$PUCSNAME
  2

  9
$PUCSORG
 10
0.0
 20
0.0
 30
0.0
  9
$PUCSXDIR
 10
1.0
 20
0.0
 30
0.0
  9
$PUCSYDIR
 10
0.0
 20
1.0
 30
0.0
  9
$PUCSORTHOREF
  2

  9
$PUCSORTHOVIEW
 70
     0
  9
$PUCSORGTOP
 10
0.0
 20
0.0
 30
0.0
  9
$PUCSORGBOTTOM
 10
0.0
 20
0.0
 30
0.0
  9
$PUCSORGLEFT
 10
0.0
 20
0.0
 30
0.0
  9
$PUCSORGRIGHT
 10
0.0
 20
0.0
 30
0.0
  9
$PUCSORGFRONT
 10
0.0
 20
0.0
 30
0.0
  9
$PUCSORGBACK
 10
0.0
 20
0.0
 30
0.0
  9
$USERI1
 70
     0
  9
$USERI2
 70
     0
  9
$USERI3
 70
     0
  9
$USERI4
 70
     0
  9
$USERI5
 70
     0
  9
$USERR1
 40
0.0
  9
$USERR2
 40
0.0
  9
$USERR3
 40
0.0
  9
$USERR4
 40
0.0
  9
$USERR5
 40
0.0
  9
$WORLDVIEW
 70
     1
  9
$SHADEDGE
 70
     3
  9
$SHADEDIF
 70
    70
  9
$TILEMODE
 70
     1
  9
$MAXACTVP
 70
    64
  9
$PINSBASE
 10
0.0
 20
0.0
 30
0.0
  9
$PLIMCHECK
 70
     0
  9
$PEXTMIN
 10
1.000000E+20
 20
1.000000E+20
 30
0.0
  9
$PEXTMAX
 10
-1.000000E+20
 20
-1.000000E+20
 30
0.0
  9
$PLIMMIN
 10
0.0
 20
0.0
  9
$PLIMMAX
 10
12.0
 20
9.0
  9
$UNITMODE
 70
     0
  9
$VISRETAIN
 70
     1
  9
$PLINEGEN
 70
     0
  9
$PSLTSCALE
 70
     1
  9
$TREEDEPTH
 70
  3020
  9
$CMLSTYLE
  2
Standard
  9
$CMLJUST
 70
     0
  9
$CMLSCALE
 40
20.0
  9
$PROXYGRAPHICS
 70
     1
  9
$MEASUREMENT
 70
     1
  9
$CELWEIGHT
370
    -1
  9
$ENDCAPS
280
     0
  9
$JOINSTYLE
280
     0
  9
$LWDISPLAY
290
     0
  9
$INSUNITS
 70
     4
  9
$HYPERLINKBASE
  1

  9
$STYLESHEET
  1

  9
$XEDIT
290
     1
  9
$CEPSNTYPE
380
     0
  9
$PSTYLEMODE
290
     1
  9
$FINGERPRINTGUID
  2
{45862898-F707-4E5C-9342-E7B905A51F22}
  9
$VERSIONGUID
  2
{FAEB1C32-E019-11D5-929B-00C0DF256EC4}
  9
$EXTNAMES
290
     1
  9
$PSVPSCALE
 40
0.0
  9
$OLESTARTUP
290
     0
  0
ENDSEC
  0
SECTION
  2
CLASSES
  0
CLASS
  1
ACDBDICTIONARYWDFLT
  2
AcDbDictionaryWithDefault
  3
ObjectDBX Classes
 90
        0
280
     0
281
     0
  0
CLASS
  1
VISUALSTYLE
  2
AcDbVisualStyle
  3
ObjectDBX Classes
 90
     4095
280
     0
281
     0
  0
CLASS
  1
SCALE
  2
AcDbScale
  3
ObjectDBX Classes
 90
     1153
280
     0
281
     0
  0
CLASS
  1
DICTIONARYVAR
  2
AcDbDictionaryVar
  3
ObjectDBX Classes
 90
        0
280
     0
281
     0
  0
CLASS
  1
ACDBPLACEHOLDER
  2
AcDbPlaceHolder
  3
ObjectDBX Classes
 90
        0
280
     0
281
     0
  0
CLASS
  1
LAYOUT
  2
AcDbLayout
  3
ObjectDBX Classes
 90
        0
280
     0
281
     0
  0
ENDSEC
  0
SECTION
  2
TABLES
  0
TABLE
  2
VPORT
  5
8
330
0
100
AcDbSymbolTable
 70
     1
  0
VPORT
  5
29
330
8
100
AcDbSymbolTableRecord
100
AcDbViewportTableRecord
  2
*Active
 70
     0
 10
0.0
 20
0.0
 11
1.0
 21
1.0
 12
118.134689
 22
42.003361
 13
0.0
 23
0.0
 14
1.0
 24
1.0
 15
0.0
 25
0.0
 16
0.0
 26
0.0
 36
1.0
 17
0.0
 27
0.0
 37
0.0
 40
125.407382
 41
1.691288
 42
50.0
 43
0.0
 44
0.0
 50
0.0
 51
0.0
 71
     0
 72
   100
 73
     1
 74
     3
 75
     0
 76
     0
 77
     0
 78
     0
281
     0
 65
     1
110
0.0
120
0.0
130
0.0
111
1.0
121
0.0
131
0.0
112
0.0
122
1.0
132
0.0
 79
     0
146
0.0
  0
ENDTAB
  0
TABLE
  2
LTYPE
  5
5
330
0
100
AcDbSymbolTable
 70
     5
  0
LTYPE
  5
14
330
5
100
AcDbSymbolTableRecord
100
AcDbLinetypeTableRecord
  2
ByBlock
 70
     0
  3

 72
    65
 73
     0
 40
0.0
  0
LTYPE
  5
15
330
5
100
AcDbSymbolTableRecord
100
AcDbLinetypeTableRecord
  2
ByLayer
 70
     0
  3

 72
    65
 73
     0
 40
0.0
  0
LTYPE
  5
16
330
5
100
AcDbSymbolTableRecord
100
AcDbLinetypeTableRecord
  2
Continuous
 70
     0
  3
Solid line
 72
    65
 73
     0
 40
0.0
  0
LTYPE
  5
5D
330
5
100
AcDbSymbolTableRecord
100
AcDbLinetypeTableRecord
  2
DASHED
 70
     0
  3
DASHED
 72
    83
 73
     2
 40
0.75
 49
0.5
 74
     0
 49
-0.25
 74
     0
  0
LTYPE
  5
5E
330
5
100
AcDbSymbolTableRecord
100
AcDbLinetypeTableRecord
  2
HIDDEN
 70
     0
  3
HIDDEN
 72
    83
 73
     2
 40
0.375
 49
0.25
 74
     0
 49
-0.125
 74
     0
  0
LTYPE
  5
5F
330
5
100
AcDbSymbolTableRecord
100
AcDbLinetypeTableRecord
  2
CENTER
 70
     0
  3
CENTER
 72
    83
 73
     4
 40
2.0
 49
1.25
 74
     0
 49
-0.25
 74
     0
 49
0.25
 74
     0
 49
-0.25
 74
     0
  0
LTYPE
  5
60
330
5
100
AcDbSymbolTableRecord
100
AcDbLinetypeTableRecord
  2
PHANTOM
 70
     0
  3
PHANTOM
 72
    83
 73
     6
 40
2.5
 49
1.25
 74
     0
 49
-0.25
 74
     0
 49
0.25
 74
     0
 49
-0.25
 74
     0
 49
0.25
 74
     0
 49
-0.25
 74
     0
  0
ENDTAB
  0
TABLE
  2
LAYER
  5
2
330
0
100
AcDbSymbolTable
 70
     2
  0
LAYER
  5
10
330
2
100
AcDbSymbolTableRecord
100
AcDbLayerTableRecord
  2
0
 70
     0
 62
     7
  6
Continuous
370
    -3
390
F
  0
LAYER
  5
61
330
2
100
AcDbSymbolTableRecord
100
AcDbLayerTableRecord
  2
001
 70
     0
 62
     7
  6
Continuous
370
    -3
390
F
  0
ENDTAB
  0
TABLE
  2
STYLE
  5
3
330
0
100
AcDbSymbolTable
 70
     2
  0
STYLE
  5
11
330
3
100
AcDbSymbolTableRecord
100
AcDbTextStyleTableRecord
  2
Standard
 70
     0
 40
0.0
 41
1.0
 50
0.0
 71
     0
 42
0.2
  3
TXT
  4
BIGFONT
  0
STYLE
  5
62
330
3
100
AcDbSymbolTableRecord
100
AcDbTextStyleTableRecord
  2
TATEGAKI
 70
     4
 40
1.0
 41
1.0
 50
0.0
 71
     0
 42
0.2
  3
TXT
  4
BIGFONT
  0
ENDTAB
  0
TABLE
  2
VIEW
  5
6
330
0
100
AcDbSymbolTable
 70
     0
  0
ENDTAB
  0
TABLE
  2
UCS
  5
7
330
0
100
AcDbSymbolTable
 70
     0
  0
ENDTAB
  0
TABLE
  2
APPID
  5
9
330
0
100
AcDbSymbolTable
 70
     1
  0
APPID
  5
12
330
9
100
AcDbSymbolTableRecord
100
AcDbRegAppTableRecord
  2
ACAD
 70
     0
  0
ENDTAB
  0
TABLE
  2
DIMSTYLE
  5
A
330
0
100
AcDbSymbolTable
 70
     2
100
AcDbDimStyleTable
  0
DIMSTYLE
105
27
330
A
100
AcDbSymbolTableRecord
100
AcDbDimStyleTableRecord
  2
ISO-25
 70
     0
 41
2.5
 42
0.625
 43
3.75
 44
1.25
 73
     0
 74
     0
 77
     1
 78
     8
140
2.5
141
2.5
143
0.03937
147
0.625
171
     3
172
     1
271
     2
272
     2
274
     3
278
    44
283
     0
284
     8
340
11
  0
DIMSTYLE
105
63
102
{ACAD_REACTORS
330
173
330
174
330
183
330
184
330
185
330
186
330
187
330
188
330
189
330
18A
330
18B
330
18C
330
18D
102
}
330
A
100
AcDbSymbolTableRecord
100
AcDbDimStyleTableRecord
  2
Standard
 70
     0
 41
1.5
 42
0.0
 44
2.75
 73
     0
 74
     0
 77
     1
 78
     8
 79
     2
140
4.0
146
0.8
147
1.0
172
     1
179
     1
271
     1
340
11
  0
ENDTAB
  0
TABLE
  2
BLOCK_RECORD
  5
1
330
0
100
AcDbSymbolTable
 70
    14
  0
BLOCK_RECORD
  5
1F
330
1
100
AcDbSymbolTableRecord
100
AcDbBlockTableRecord
  2
*Model_Space
340
22
  0
BLOCK_RECORD
  5
1B
330
1
100
AcDbSymbolTableRecord
100
AcDbBlockTableRecord
  2
*Paper_Space
340
1E
  0
BLOCK_RECORD
  5
23
330
1
100
AcDbSymbolTableRecord
100
AcDbBlockTableRecord
  2
*Paper_Space0
340
26
  0
BLOCK_RECORD
  5
64
330
1
100
AcDbSymbolTableRecord
100
AcDbBlockTableRecord
  2
*D1
340
0
  0
BLOCK_RECORD
  5
79
330
1
100
AcDbSymbolTableRecord
100
AcDbBlockTableRecord
  2
*D2
340
0
  0
BLOCK_RECORD
  5
8D
330
1
100
AcDbSymbolTableRecord
100
AcDbBlockTableRecord
  2
*D3
340
0
  0
BLOCK_RECORD
  5
A1
330
1
100
AcDbSymbolTableRecord
100
AcDbBlockTableRecord
  2
*D4
340
0
  0
BLOCK_RECORD
  5
B5
330
1
100
AcDbSymbolTableRecord
100
AcDbBlockTableRecord
  2
*D5
340
0
  0
BLOCK_RECORD
  5
C9
330
1
100
AcDbSymbolTableRecord
100
AcDbBlockTableRecord
  2
*D6
340
0
  0
BLOCK_RECORD
  5
DF
330
1
100
AcDbSymbolTableRecord
100
AcDbBlockTableRecord
  2
*D7
340
0
  0
BLOCK_RECORD
  5
F5
330
1
100
AcDbSymbolTableRecord
100
AcDbBlockTableRecord
  2
*D8
340
0
  0
BLOCK_RECORD
  5
109
330
1
100
AcDbSymbolTableRecord
100
AcDbBlockTableRecord
  2
*D9
340
0
  0
BLOCK_RECORD
  5
11D
330
1
100
AcDbSymbolTableRecord
100
AcDbBlockTableRecord
  2
*D10
340
0
  0
BLOCK_RECORD
  5
131
330
1
100
AcDbSymbolTableRecord
100
AcDbBlockTableRecord
  2
*D11
340
0
  0
BLOCK_RECORD
  5
147
330
1
100
AcDbSymbolTableRecord
100
AcDbBlockTableRecord
  2
*D12
340
0
  0
BLOCK_RECORD
  5
15D
330
1
100
AcDbSymbolTableRecord
100
AcDbBlockTableRecord
  2
*D13
340
0
  0
ENDTAB
  0
ENDSEC
  0
SECTION
  2
BLOCKS
  0
BLOCK
  5
20
330
1F
100
AcDbEntity
  8
0
100
AcDbBlockBegin
  2
*Model_Space
 70
     0
 10
0.0
 20
0.0
 30
0.0
  3
*Model_Space
  1

  0
ENDBLK
  5
21
330
1F
100
AcDbEntity
  8
0
100
AcDbBlockEnd
  0
BLOCK
  5
1C
330
1B
100
AcDbEntity
 67
     1
  8
0
100
AcDbBlockBegin
  2
*Paper_Space
 70
     0
 10
0.0
 20
0.0
 30
0.0
  3
*Paper_Space
  1

  0
ENDBLK
  5
1D
330
1B
100
AcDbEntity
 67
     1
  8
0
100
AcDbBlockEnd
  0
BLOCK
  5
24
330
23
100
AcDbEntity
  8
0
100
AcDbBlockBegin
  2
*Paper_Space0
 70
     0
 10
0.0
 20
0.0
 30
0.0
  3
*Paper_Space0
  1

  0
ENDBLK
  5
25
330
23
100
AcDbEntity
  8
0
100
AcDbBlockEnd
  0
BLOCK
  5
65
330
64
100
AcDbEntity
  8
0
100
AcDbBlockBegin
  2
*D1
 70
     1
 10
0.0
 20
0.0
 30
0.0
  3
*D1
  1

  0
LINE
  5
67
330
64
100
AcDbEntity
  8
001
370
     9
100
AcDbLine
 10
39.798429
 20
10.896075
 30
0.0
 11
39.798429
 21
6.433661
 31
0.0
  0
LINE
  5
68
330
64
100
AcDbEntity
  8
001
370
     9
100
AcDbLine
 10
34.298429
 20
10.896075
 30
0.0
 11
34.298429
 21
6.433661
 31
0.0
  0
LINE
  5
69
330
64
100
AcDbEntity
  8
001
370
     9
100
AcDbLine
 10
39.798429
 20
7.350327
 30
0.0
 11
34.298429
 21
7.350327
 31
0.0
  0
POLYLINE
  5
6A
330
64
100
AcDbEntity
  8
001
370
     9
100
AcDb2dPolyline
 66
     1
 10
0.0
 20
0.0
 30
0.0
  0
VERTEX
  5
6C
330
6A
100
AcDbEntity
  8
001
370
     9
100
AcDbVertex
100
AcDb2dVertex
 10
39.298429
 20
7.484302
 30
0.0
  0
VERTEX
  5
6D
330
6A
100
AcDbEntity
  8
001
370
     9
100
AcDbVertex
100
AcDb2dVertex
 10
39.798429
 20
7.350327
 30
0.0
  0
VERTEX
  5
6E
330
6A
100
AcDbEntity
  8
001
370
     9
100
AcDbVertex
100
AcDb2dVertex
 10
39.298429
 20
7.216353
 30
0.0
  0
SEQEND
  5
6B
330
6A
100
AcDbEntity
  8
001
370
     9
  0
POLYLINE
  5
6F
330
64
100
AcDbEntity
  8
001
370
     9
100
AcDb2dPolyline
 66
     1
 10
0.0
 20
0.0
 30
0.0
  0
VERTEX
  5
71
330
6F
100
AcDbEntity
  8
001
370
     9
100
AcDbVertex
100
AcDb2dVertex
 10
34.798429
 20
7.216353
 30
0.0
  0
VERTEX
  5
72
330
6F
100
AcDbEntity
  8
001
370
     9
100
AcDbVertex
100
AcDb2dVertex
 10
34.298429
 20
7.350327
 30
0.0
  0
VERTEX
  5
73
330
6F
100
AcDbEntity
  8
001
370
     9
100
AcDbVertex
100
AcDb2dVertex
 10
34.798429
 20
7.484302
 30
0.0
  0
SEQEND
  5
70
330
6F
100
AcDbEntity
  8
001
370
     9
  0
TEXT
  5
74
330
64
100
AcDbEntity
  8
001
370
    30
100
AcDbText
 10
40.965095
 20
7.683661
 30
0.0
 40
1.333333
  1
%%c５．５
 41
0.869565
100
AcDbText
  0
POINT
  5
75
330
64
100
AcDbEntity
  8
001
370
     9
100
AcDbPoint
 10
39.798429
 20
10.896075
 30
0.0
  0
POINT
  5
76
330
64
100
AcDbEntity
  8
001
370
     9
100
AcDbPoint
 10
34.298429
 20
10.896075
 30
0.0
  0
POINT
  5
77
330
64
100
AcDbEntity
  8
001
370
     9
100
AcDbPoint
 10
34.298429
 20
7.350327
 30
0.0
  0
LINE
  5
78
330
64
100
AcDbEntity
  8
001
370
     9
100
AcDbLine
 10
39.798429
 20
7.350327
 30
0.0
 11
47.298429
 21
7.350327
 31
0.0
  0
ENDBLK
  5
66
330
64
100
AcDbEntity
  8
0
100
AcDbBlockEnd
  0
BLOCK
  5
7A
330
79
100
AcDbEntity
  8
0
100
AcDbBlockBegin
  2
*D2
 70
     1
 10
0.0
 20
0.0
 30
0.0
  3
*D2
  1

  0
LINE
  5
7C
330
79
100
AcDbEntity
  8
001
370
     9
100
AcDbLine
 10
45.048429
 20
20.896075
 30
0.0
 11
47.507624
 21
20.896075
 31
0.0
  0
LINE
  5
7D
330
79
100
AcDbEntity
  8
001
370
     9
100
AcDbLine
 10
41.798429
 20
15.496075
 30
0.0
 11
47.507624
 21
15.496075
 31
0.0
  0
LINE
  5
7E
330
79
100
AcDbEntity
  8
001
370
     9
100
AcDbLine
 10
46.590957
 20
20.896075
 30
0.0
 11
46.590957
 21
15.496075
 31
0.0
  0
POLYLINE
  5
7F
330
79
100
AcDbEntity
  8
001
370
     9
100
AcDb2dPolyline
 66
     1
 10
0.0
 20
0.0
 30
0.0
  0
VERTEX
  5
81
330
7F
100
AcDbEntity
  8
001
370
     9
100
AcDbVertex
100
AcDb2dVertex
 10
46.456982
 20
20.396075
 30
0.0
  0
VERTEX
  5
82
330
7F
100
AcDbEntity
  8
001
370
     9
100
AcDbVertex
100
AcDb2dVertex
 10
46.590957
 20
20.896075
 30
0.0
  0
VERTEX
  5
83
330
7F
100
AcDbEntity
  8
001
370
     9
100
AcDbVertex
100
AcDb2dVertex
 10
46.724931
 20
20.396075
 30
0.0
  0
SEQEND
  5
80
330
7F
100
AcDbEntity
  8
001
370
     9
  0
POLYLINE
  5
84
330
79
100
AcDbEntity
  8
001
370
     9
100
AcDb2dPolyline
 66
     1
 10
0.0
 20
0.0
 30
0.0
  0
VERTEX
  5
86
330
84
100
AcDbEntity
  8
001
370
     9
100
AcDbVertex
100
AcDb2dVertex
 10
46.724931
 20
15.996075
 30
0.0
  0
VERTEX
  5
87
330
84
100
AcDbEntity
  8
001
370
     9
100
AcDbVertex
100
AcDb2dVertex
 10
46.590957
 20
15.496075
 30
0.0
  0
VERTEX
  5
88
330
84
100
AcDbEntity
  8
001
370
     9
100
AcDbVertex
100
AcDb2dVertex
 10
46.456982
 20
15.996075
 30
0.0
  0
SEQEND
  5
85
330
84
100
AcDbEntity
  8
001
370
     9
  0
TEXT
  5
89
330
79
100
AcDbEntity
  8
001
370
    30
100
AcDbText
 10
46.257624
 20
16.196075
 30
0.0
 40
1.333333
  1
５．４
 50
90.000003
 41
0.833333
100
AcDbText
  0
POINT
  5
8A
330
79
100
AcDbEntity
  8
001
370
     9
100
AcDbPoint
 10
45.048429
 20
20.896075
 30
0.0
  0
POINT
  5
8B
330
79
100
AcDbEntity
  8
001
370
     9
100
AcDbPoint
 10
41.798429
 20
15.496075
 30
0.0
  0
POINT
  5
8C
330
79
100
AcDbEntity
  8
001
370
     9
100
AcDbPoint
 10
46.590957
 20
15.496075
 30
0.0
  0
ENDBLK
  5
7B
330
79
100
AcDbEntity
  8
0
100
AcDbBlockEnd
  0
BLOCK
  5
8E
330
8D
100
AcDbEntity
  8
0
100
AcDbBlockBegin
  2
*D3
 70
     1
 10
0.0
 20
0.0
 30
0.0
  3
*D3
  1

  0
LINE
  5
90
330
8D
100
AcDbEntity
  8
001
370
     9
100
AcDbLine
 10
41.798429
 20
20.396075
 30
0.0
 11
41.798429
 21
30.754473
 31
0.0
  0
LINE
  5
91
330
8D
100
AcDbEntity
  8
001
370
     9
100
AcDbLine
 10
32.298429
 20
20.396075
 30
0.0
 11
32.298429
 21
30.754473
 31
0.0
  0
LINE
  5
92
330
8D
100
AcDbEntity
  8
001
370
     9
100
AcDbLine
 10
41.798429
 20
29.837807
 30
0.0
 11
32.298429
 21
29.837807
 31
0.0
  0
POLYLINE
  5
93
330
8D
100
AcDbEntity
  8
001
370
     9
100
AcDb2dPolyline
 66
     1
 10
0.0
 20
0.0
 30
0.0
  0
VERTEX
  5
95
330
93
100
AcDbEntity
  8
001
370
     9
100
AcDbVertex
100
AcDb2dVertex
 10
41.298429
 20
29.971781
 30
0.0
  0
VERTEX
  5
96
330
93
100
AcDbEntity
  8
001
370
     9
100
AcDbVertex
100
AcDb2dVertex
 10
41.798429
 20
29.837807
 30
0.0
  0
VERTEX
  5
97
330
93
100
AcDbEntity
  8
001
370
     9
100
AcDbVertex
100
AcDb2dVertex
 10
41.298429
 20
29.703832
 30
0.0
  0
SEQEND
  5
94
330
93
100
AcDbEntity
  8
001
370
     9
  0
POLYLINE
  5
98
330
8D
100
AcDbEntity
  8
001
370
     9
100
AcDb2dPolyline
 66
     1
 10
0.0
 20
0.0
 30
0.0
  0
VERTEX
  5
9A
330
98
100
AcDbEntity
  8
001
370
     9
100
AcDbVertex
100
AcDb2dVertex
 10
32.798429
 20
29.703832
 30
0.0
  0
VERTEX
  5
9B
330
98
100
AcDbEntity
  8
001
370
     9
100
AcDbVertex
100
AcDb2dVertex
 10
32.298429
 20
29.837807
 30
0.0
  0
VERTEX
  5
9C
330
98
100
AcDbEntity
  8
001
370
     9
100
AcDbVertex
100
AcDb2dVertex
 10
32.798429
 20
29.971781
 30
0.0
  0
SEQEND
  5
99
330
98
100
AcDbEntity
  8
001
370
     9
  0
TEXT
  5
9D
330
8D
100
AcDbEntity
  8
001
370
    30
100
AcDbText
 10
34.304531
 20
30.17114
 30
0.0
 40
1.333333
  1
%%c９．５
 41
0.869565
100
AcDbText
  0
POINT
  5
9E
330
8D
100
AcDbEntity
  8
001
370
     9
100
AcDbPoint
 10
41.798429
 20
20.396075
 30
0.0
  0
POINT
  5
9F
330
8D
100
AcDbEntity
  8
001
370
     9
100
AcDbPoint
 10
32.298429
 20
20.396075
 30
0.0
  0
POINT
  5
A0
330
8D
100
AcDbEntity
  8
001
370
     9
100
AcDbPoint
 10
32.298429
 20
29.837807
 30
0.0
  0
ENDBLK
  5
8F
330
8D
100
AcDbEntity
  8
0
100
AcDbBlockEnd
  0
BLOCK
  5
A2
330
A1
100
AcDbEntity
  8
0
100
AcDbBlockBegin
  2
*D4
 70
     1
 10
0.0
 20
0.0
 30
0.0
  3
*D4
  1

  0
LINE
  5
A4
330
A1
100
AcDbEntity
  8
001
370
     9
100
AcDbLine
 10
86.557395
 20
44.292824
 30
0.0
 11
105.895202
 21
24.955017
 31
0.0
  0
ARC
  5
A5
330
A1
100
AcDbEntity
  8
001
370
     9
100
AcDbCircle
 10
81.057395
 20
49.792824
 30
0.0
 40
32.37596300869352
100
AcDbArc
 50
315.0
 51
0.0
  0
POLYLINE
  5
A6
330
A1
100
AcDbEntity
  8
001
370
     9
100
AcDb2dPolyline
 66
     1
 10
0.0
 20
0.0
 30
0.0
  0
VERTEX
  5
A8
330
A6
100
AcDbEntity
  8
001
370
     9
100
AcDbVertex
100
AcDb2dVertex
 10
112.996797
 20
48.302536
 30
0.0
  0
VERTEX
  5
A9
330
A6
100
AcDbEntity
  8
001
370
     9
100
AcDbVertex
100
AcDb2dVertex
 10
113.433358
 20
49.792824
 30
0.0
  0
VERTEX
  5
AA
330
A6
100
AcDbEntity
  8
001
370
     9
100
AcDbVertex
100
AcDb2dVertex
 10
113.800429
 20
48.283917
 30
0.0
  0
SEQEND
  5
A7
330
A6
100
AcDbEntity
  8
001
370
     9
  0
POLYLINE
  5
AB
330
A1
100
AcDbEntity
  8
001
370
     9
100
AcDb2dPolyline
 66
     1
 10
0.0
 20
0.0
 30
0.0
  0
VERTEX
  5
AD
330
AB
100
AcDbEntity
  8
001
370
     9
100
AcDbVertex
100
AcDb2dVertex
 10
105.277175
 20
27.706961
 30
0.0
  0
VERTEX
  5
AE
330
AB
100
AcDbEntity
  8
001
370
     9
100
AcDbVertex
100
AcDb2dVertex
 10
103.950658
 20
26.899561
 30
0.0
  0
VERTEX
  5
AF
330
AB
100
AcDbEntity
  8
001
370
     9
100
AcDbVertex
100
AcDb2dVertex
 10
104.695755
 20
28.262049
 30
0.0
  0
SEQEND
  5
AC
330
AB
100
AcDbEntity
  8
001
370
     9
  0
TEXT
  5
B0
330
A1
100
AcDbEntity
  8
001
370
    30
100
AcDbText
 10
105.970972
 20
29.798707
 30
0.0
 40
4.0
  1
４５%%d
 50
62.07752
 41
0.978261
100
AcDbText
  0
POINT
  5
B1
330
A1
100
AcDbEntity
  8
001
370
     9
100
AcDbPoint
 10
80.061334
 20
49.792824
 30
0.0
  0
POINT
  5
B2
330
A1
100
AcDbEntity
  8
001
370
     9
100
AcDbPoint
 10
81.057395
 20
49.792824
 30
0.0
  0
POINT
  5
B3
330
A1
100
AcDbEntity
  8
001
370
     9
100
AcDbPoint
 10
81.057395
 20
49.792824
 30
0.0
  0
POINT
  5
B4
330
A1
100
AcDbEntity
  8
001
370
     9
100
AcDbPoint
 10
86.557395
 20
44.292824
 30
0.0
  0
ENDBLK
  5
A3
330
A1
100
AcDbEntity
  8
0
100
AcDbBlockEnd
  0
BLOCK
  5
B6
330
B5
100
AcDbEntity
  8
0
100
AcDbBlockBegin
  2
*D5
 70
     1
 10
0.0
 20
0.0
 30
0.0
  3
*D5
  1

  0
LINE
  5
B8
330
B5
100
AcDbEntity
  8
001
370
     9
100
AcDbLine
 10
80.907395
 20
46.742853
 30
0.0
 11
109.634089
 21
18.016159
 31
0.0
  0
ARC
  5
B9
330
B5
100
AcDbEntity
  8
001
370
     9
100
AcDbCircle
 10
77.857424
 20
49.792824
 30
0.0
 40
42.18899081351974
100
AcDbArc
 50
315.0
 51
0.0
  0
POLYLINE
  5
BA
330
B5
100
AcDbEntity
  8
001
370
     9
100
AcDb2dPolyline
 66
     1
 10
0.0
 20
0.0
 30
0.0
  0
VERTEX
  5
BC
330
BA
100
AcDbEntity
  8
001
370
     9
100
AcDbVertex
100
AcDb2dVertex
 10
119.61789
 20
48.300206
 30
0.0
  0
VERTEX
  5
BD
330
BA
100
AcDbEntity
  8
001
370
     9
100
AcDbVertex
100
AcDb2dVertex
 10
120.046415
 20
49.792824
 30
0.0
  0
VERTEX
  5
BE
330
BA
100
AcDbEntity
  8
001
370
     9
100
AcDbVertex
100
AcDb2dVertex
 10
120.421611
 20
48.285916
 30
0.0
  0
SEQEND
  5
BB
330
BA
100
AcDbEntity
  8
001
370
     9
  0
POLYLINE
  5
BF
330
B5
100
AcDbEntity
  8
001
370
     9
100
AcDb2dPolyline
 66
     1
 10
0.0
 20
0.0
 30
0.0
  0
VERTEX
  5
C1
330
BF
100
AcDbEntity
  8
001
370
     9
100
AcDbVertex
100
AcDb2dVertex
 10
109.020394
 20
20.760944
 30
0.0
  0
VERTEX
  5
C2
330
BF
100
AcDbEntity
  8
001
370
     9
100
AcDbVertex
100
AcDb2dVertex
 10
107.689546
 20
19.960703
 30
0.0
  0
VERTEX
  5
C3
330
BF
100
AcDbEntity
  8
001
370
     9
100
AcDbVertex
100
AcDb2dVertex
 10
108.441974
 20
21.319156
 30
0.0
  0
SEQEND
  5
C0
330
BF
100
AcDbEntity
  8
001
370
     9
  0
TEXT
  5
C4
330
B5
100
AcDbEntity
  8
001
370
    30
100
AcDbText
 10
113.614989
 20
28.487202
 30
0.0
 40
4.0
  1
４５%%d
 50
67.5
 41
0.978261
100
AcDbText
  0
POINT
  5
C5
330
B5
100
AcDbEntity
  8
001
370
     9
100
AcDbPoint
 10
80.061334
 20
49.792824
 30
0.0
  0
POINT
  5
C6
330
B5
100
AcDbEntity
  8
001
370
     9
100
AcDbPoint
 10
77.857424
 20
49.792824
 30
0.0
  0
POINT
  5
C7
330
B5
100
AcDbEntity
  8
001
370
     9
100
AcDbPoint
 10
77.857424
 20
49.792824
 30
0.0
  0
POINT
  5
C8
330
B5
100
AcDbEntity
  8
001
370
     9
100
AcDbPoint
 10
80.907395
 20
46.742853
 30
0.0
  0
ENDBLK
  5
B7
330
B5
100
AcDbEntity
  8
0
100
AcDbBlockEnd
  0
BLOCK
  5
CA
330
C9
100
AcDbEntity
  8
0
100
AcDbBlockBegin
  2
*D6
 70
     1
 10
0.0
 20
0.0
 30
0.0
  3
*D6
  1

  0
LINE
  5
CC
330
C9
100
AcDbEntity
  8
001
370
     9
100
AcDbLine
 10
80.907395
 20
45.245632
 30
0.0
 11
80.907395
 21
11.111196
 31
0.0
  0
LINE
  5
CD
330
C9
100
AcDbEntity
  8
001
370
     9
100
AcDbLine
 10
80.357424
 20
47.292824
 30
0.0
 11
80.357424
 21
11.111196
 31
0.0
  0
LINE
  5
CE
330
C9
100
AcDbEntity
  8
001
370
     9
100
AcDbLine
 10
80.907395
 20
13.861196
 30
0.0
 11
80.357424
 21
13.861196
 31
0.0
  0
POLYLINE
  5
CF
330
C9
100
AcDbEntity
  8
001
370
     9
100
AcDb2dPolyline
 66
     1
 10
0.0
 20
0.0
 30
0.0
  0
VERTEX
  5
D1
330
CF
100
AcDbEntity
  8
001
370
     9
100
AcDbVertex
100
AcDb2dVertex
 10
82.407395
 20
13.459272
 30
0.0
  0
VERTEX
  5
D2
330
CF
100
AcDbEntity
  8
001
370
     9
100
AcDbVertex
100
AcDb2dVertex
 10
80.907395
 20
13.861196
 30
0.0
  0
VERTEX
  5
D3
330
CF
100
AcDbEntity
  8
001
370
     9
100
AcDbVertex
100
AcDb2dVertex
 10
82.407395
 20
14.263119
 30
0.0
  0
SEQEND
  5
D0
330
CF
100
AcDbEntity
  8
001
370
     9
  0
POLYLINE
  5
D4
330
C9
100
AcDbEntity
  8
001
370
     9
100
AcDb2dPolyline
 66
     1
 10
0.0
 20
0.0
 30
0.0
  0
VERTEX
  5
D6
330
D4
100
AcDbEntity
  8
001
370
     9
100
AcDbVertex
100
AcDb2dVertex
 10
78.857424
 20
14.263119
 30
0.0
  0
VERTEX
  5
D7
330
D4
100
AcDbEntity
  8
001
370
     9
100
AcDbVertex
100
AcDb2dVertex
 10
80.357424
 20
13.861196
 30
0.0
  0
VERTEX
  5
D8
330
D4
100
AcDbEntity
  8
001
370
     9
100
AcDbVertex
100
AcDb2dVertex
 10
78.857424
 20
13.459272
 30
0.0
  0
SEQEND
  5
D5
330
D4
100
AcDbEntity
  8
001
370
     9
  0
TEXT
  5
D9
330
C9
100
AcDbEntity
  8
001
370
    30
100
AcDbText
 10
64.857424
 20
14.861196
 30
0.0
 40
4.0
  1
０．５
 41
0.833333
100
AcDbText
  0
POINT
  5
DA
330
C9
100
AcDbEntity
  8
001
370
     9
100
AcDbPoint
 10
80.907395
 20
45.245632
 30
0.0
  0
POINT
  5
DB
330
C9
100
AcDbEntity
  8
001
370
     9
100
AcDbPoint
 10
80.357424
 20
47.292824
 30
0.0
  0
POINT
  5
DC
330
C9
100
AcDbEntity
  8
001
370
     9
100
AcDbPoint
 10
80.357424
 20
13.861196
 30
0.0
  0
LINE
  5
DD
330
C9
100
AcDbEntity
  8
001
370
     9
100
AcDbLine
 10
80.907395
 20
13.861196
 30
0.0
 11
83.407395
 21
13.861196
 31
0.0
  0
LINE
  5
DE
330
C9
100
AcDbEntity
  8
001
370
     9
100
AcDbLine
 10
80.357424
 20
13.861196
 30
0.0
 11
61.857424
 21
13.861196
 31
0.0
  0
ENDBLK
  5
CB
330
C9
100
AcDbEntity
  8
0
100
AcDbBlockEnd
  0
BLOCK
  5
E0
330
DF
100
AcDbEntity
  8
0
100
AcDbBlockBegin
  2
*D7
 70
     1
 10
0.0
 20
0.0
 30
0.0
  3
*D7
  1

  0
LINE
  5
E2
330
DF
100
AcDbEntity
  8
001
370
     9
100
AcDbLine
 10
85.807395
 20
45.042824
 30
0.0
 11
85.807395
 21
11.111196
 31
0.0
  0
LINE
  5
E3
330
DF
100
AcDbEntity
  8
001
370
     9
100
AcDbLine
 10
80.907395
 20
45.245632
 30
0.0
 11
80.907395
 21
11.111196
 31
0.0
  0
LINE
  5
E4
330
DF
100
AcDbEntity
  8
001
370
     9
100
AcDbLine
 10
85.807395
 20
13.861196
 30
0.0
 11
80.907395
 21
13.861196
 31
0.0
  0
POLYLINE
  5
E5
330
DF
100
AcDbEntity
  8
001
370
     9
100
AcDb2dPolyline
 66
     1
 10
0.0
 20
0.0
 30
0.0
  0
VERTEX
  5
E7
330
E5
100
AcDbEntity
  8
001
370
     9
100
AcDbVertex
100
AcDb2dVertex
 10
87.307395
 20
13.459272
 30
0.0
  0
VERTEX
  5
E8
330
E5
100
AcDbEntity
  8
001
370
     9
100
AcDbVertex
100
AcDb2dVertex
 10
85.807395
 20
13.861196
 30
0.0
  0
VERTEX
  5
E9
330
E5
100
AcDbEntity
  8
001
370
     9
100
AcDbVertex
100
AcDb2dVertex
 10
87.307395
 20
14.263119
 30
0.0
  0
SEQEND
  5
E6
330
E5
100
AcDbEntity
  8
001
370
     9
  0
POLYLINE
  5
EA
330
DF
100
AcDbEntity
  8
001
370
     9
100
AcDb2dPolyline
 66
     1
 10
0.0
 20
0.0
 30
0.0
  0
VERTEX
  5
EC
330
EA
100
AcDbEntity
  8
001
370
     9
100
AcDbVertex
100
AcDb2dVertex
 10
79.407395
 20
14.263119
 30
0.0
  0
VERTEX
  5
ED
330
EA
100
AcDbEntity
  8
001
370
     9
100
AcDbVertex
100
AcDb2dVertex
 10
80.907395
 20
13.861196
 30
0.0
  0
VERTEX
  5
EE
330
EA
100
AcDbEntity
  8
001
370
     9
100
AcDbVertex
100
AcDb2dVertex
 10
79.407395
 20
13.459272
 30
0.0
  0
SEQEND
  5
EB
330
EA
100
AcDbEntity
  8
001
370
     9
  0
TEXT
  5
EF
330
DF
100
AcDbEntity
  8
001
370
    30
100
AcDbText
 10
81.357395
 20
14.861196
 30
0.0
 40
4.0
  1
５
 41
0.833333
100
AcDbText
  0
POINT
  5
F0
330
DF
100
AcDbEntity
  8
001
370
     9
100
AcDbPoint
 10
85.807395
 20
45.042824
 30
0.0
  0
POINT
  5
F1
330
DF
100
AcDbEntity
  8
001
370
     9
100
AcDbPoint
 10
80.907395
 20
45.245632
 30
0.0
  0
POINT
  5
F2
330
DF
100
AcDbEntity
  8
001
370
     9
100
AcDbPoint
 10
80.907395
 20
13.861196
 30
0.0
  0
LINE
  5
F3
330
DF
100
AcDbEntity
  8
001
370
     9
100
AcDbLine
 10
85.807395
 20
13.861196
 30
0.0
 11
88.307395
 21
13.861196
 31
0.0
  0
LINE
  5
F4
330
DF
100
AcDbEntity
  8
001
370
     9
100
AcDbLine
 10
80.907395
 20
13.861196
 30
0.0
 11
78.407395
 21
13.861196
 31
0.0
  0
ENDBLK
  5
E1
330
DF
100
AcDbEntity
  8
0
100
AcDbBlockEnd
  0
BLOCK
  5
F6
330
F5
100
AcDbEntity
  8
0
100
AcDbBlockBegin
  2
*D8
 70
     1
 10
0.0
 20
0.0
 30
0.0
  3
*D8
  1

  0
LINE
  5
F8
330
F5
100
AcDbEntity
  8
001
370
     9
100
AcDbLine
 10
99.357424
 20
44.292824
 30
0.0
 11
99.357424
 21
2.027044
 31
0.0
  0
LINE
  5
F9
330
F5
100
AcDbEntity
  8
001
370
     9
100
AcDbLine
 10
80.357424
 20
47.292824
 30
0.0
 11
80.357424
 21
2.027044
 31
0.0
  0
LINE
  5
FA
330
F5
100
AcDbEntity
  8
001
370
     9
100
AcDbLine
 10
99.357424
 20
4.777044
 30
0.0
 11
80.357424
 21
4.777044
 31
0.0
  0
POLYLINE
  5
FB
330
F5
100
AcDbEntity
  8
001
370
     9
100
AcDb2dPolyline
 66
     1
 10
0.0
 20
0.0
 30
0.0
  0
VERTEX
  5
FD
330
FB
100
AcDbEntity
  8
001
370
     9
100
AcDbVertex
100
AcDb2dVertex
 10
97.857424
 20
5.178968
 30
0.0
  0
VERTEX
  5
FE
330
FB
100
AcDbEntity
  8
001
370
     9
100
AcDbVertex
100
AcDb2dVertex
 10
99.357424
 20
4.777044
 30
0.0
  0
VERTEX
  5
FF
330
FB
100
AcDbEntity
  8
001
370
     9
100
AcDbVertex
100
AcDb2dVertex
 10
97.857424
 20
4.375121
 30
0.0
  0
SEQEND
  5
FC
330
FB
100
AcDbEntity
  8
001
370
     9
  0
POLYLINE
  5
100
330
F5
100
AcDbEntity
  8
001
370
     9
100
AcDb2dPolyline
 66
     1
 10
0.0
 20
0.0
 30
0.0
  0
VERTEX
  5
102
330
100
100
AcDbEntity
  8
001
370
     9
100
AcDbVertex
100
AcDb2dVertex
 10
81.857424
 20
4.375121
 30
0.0
  0
VERTEX
  5
103
330
100
100
AcDbEntity
  8
001
370
     9
100
AcDbVertex
100
AcDb2dVertex
 10
80.357424
 20
4.777044
 30
0.0
  0
VERTEX
  5
104
330
100
100
AcDbEntity
  8
001
370
     9
100
AcDbVertex
100
AcDb2dVertex
 10
81.857424
 20
5.178968
 30
0.0
  0
SEQEND
  5
101
330
100
100
AcDbEntity
  8
001
370
     9
  0
TEXT
  5
105
330
F5
100
AcDbEntity
  8
001
370
    30
100
AcDbText
 10
85.857424
 20
5.777044
 30
0.0
 40
4.0
  1
１９
 41
0.833333
100
AcDbText
  0
POINT
  5
106
330
F5
100
AcDbEntity
  8
001
370
     9
100
AcDbPoint
 10
99.357424
 20
44.292824
 30
0.0
  0
POINT
  5
107
330
F5
100
AcDbEntity
  8
001
370
     9
100
AcDbPoint
 10
80.357424
 20
47.292824
 30
0.0
  0
POINT
  5
108
330
F5
100
AcDbEntity
  8
001
370
     9
100
AcDbPoint
 10
80.357424
 20
4.777044
 30
0.0
  0
ENDBLK
  5
F7
330
F5
100
AcDbEntity
  8
0
100
AcDbBlockEnd
  0
BLOCK
  5
10A
330
109
100
AcDbEntity
  8
0
100
AcDbBlockBegin
  2
*D9
 70
     1
 10
0.0
 20
0.0
 30
0.0
  3
*D9
  1

  0
LINE
  5
10C
330
109
100
AcDbEntity
  8
001
370
     9
100
AcDbLine
 10
159.357424
 20
46.792824
 30
0.0
 11
159.357424
 21
2.027044
 31
0.0
  0
LINE
  5
10D
330
109
100
AcDbEntity
  8
001
370
     9
100
AcDbLine
 10
99.357424
 20
44.292824
 30
0.0
 11
99.357424
 21
2.027044
 31
0.0
  0
LINE
  5
10E
330
109
100
AcDbEntity
  8
001
370
     9
100
AcDbLine
 10
159.357424
 20
4.777044
 30
0.0
 11
99.357424
 21
4.777044
 31
0.0
  0
POLYLINE
  5
10F
330
109
100
AcDbEntity
  8
001
370
     9
100
AcDb2dPolyline
 66
     1
 10
0.0
 20
0.0
 30
0.0
  0
VERTEX
  5
111
330
10F
100
AcDbEntity
  8
001
370
     9
100
AcDbVertex
100
AcDb2dVertex
 10
157.857424
 20
5.178968
 30
0.0
  0
VERTEX
  5
112
330
10F
100
AcDbEntity
  8
001
370
     9
100
AcDbVertex
100
AcDb2dVertex
 10
159.357424
 20
4.777044
 30
0.0
  0
VERTEX
  5
113
330
10F
100
AcDbEntity
  8
001
370
     9
100
AcDbVertex
100
AcDb2dVertex
 10
157.857424
 20
4.375121
 30
0.0
  0
SEQEND
  5
110
330
10F
100
AcDbEntity
  8
001
370
     9
  0
POLYLINE
  5
114
330
109
100
AcDbEntity
  8
001
370
     9
100
AcDb2dPolyline
 66
     1
 10
0.0
 20
0.0
 30
0.0
  0
VERTEX
  5
116
330
114
100
AcDbEntity
  8
001
370
     9
100
AcDbVertex
100
AcDb2dVertex
 10
100.857424
 20
4.375121
 30
0.0
  0
VERTEX
  5
117
330
114
100
AcDbEntity
  8
001
370
     9
100
AcDbVertex
100
AcDb2dVertex
 10
99.357424
 20
4.777044
 30
0.0
  0
VERTEX
  5
118
330
114
100
AcDbEntity
  8
001
370
     9
100
AcDbVertex
100
AcDb2dVertex
 10
100.857424
 20
5.178968
 30
0.0
  0
SEQEND
  5
115
330
114
100
AcDbEntity
  8
001
370
     9
  0
TEXT
  5
119
330
109
100
AcDbEntity
  8
001
370
    30
100
AcDbText
 10
125.357424
 20
5.777044
 30
0.0
 40
4.0
  1
６０
 41
0.833333
100
AcDbText
  0
POINT
  5
11A
330
109
100
AcDbEntity
  8
001
370
     9
100
AcDbPoint
 10
159.357424
 20
46.792824
 30
0.0
  0
POINT
  5
11B
330
109
100
AcDbEntity
  8
001
370
     9
100
AcDbPoint
 10
99.357424
 20
44.292824
 30
0.0
  0
POINT
  5
11C
330
109
100
AcDbEntity
  8
001
370
     9
100
AcDbPoint
 10
99.357424
 20
4.777044
 30
0.0
  0
ENDBLK
  5
10B
330
109
100
AcDbEntity
  8
0
100
AcDbBlockEnd
  0
BLOCK
  5
11E
330
11D
100
AcDbEntity
  8
0
100
AcDbBlockBegin
  2
*D10
 70
     1
 10
0.0
 20
0.0
 30
0.0
  3
*D10
  1

  0
LINE
  5
120
330
11D
100
AcDbEntity
  8
001
370
     9
100
AcDbLine
 10
80.357424
 20
47.292824
 30
0.0
 11
80.357424
 21
-6.13703
 31
0.0
  0
LINE
  5
121
330
11D
100
AcDbEntity
  8
001
370
     9
100
AcDbLine
 10
159.357424
 20
46.792824
 30
0.0
 11
159.357424
 21
-6.13703
 31
0.0
  0
LINE
  5
122
330
11D
100
AcDbEntity
  8
001
370
     9
100
AcDbLine
 10
80.357424
 20
-3.38703
 30
0.0
 11
159.357424
 21
-3.38703
 31
0.0
  0
POLYLINE
  5
123
330
11D
100
AcDbEntity
  8
001
370
     9
100
AcDb2dPolyline
 66
     1
 10
0.0
 20
0.0
 30
0.0
  0
VERTEX
  5
125
330
123
100
AcDbEntity
  8
001
370
     9
100
AcDbVertex
100
AcDb2dVertex
 10
81.857424
 20
-3.788953
 30
0.0
  0
VERTEX
  5
126
330
123
100
AcDbEntity
  8
001
370
     9
100
AcDbVertex
100
AcDb2dVertex
 10
80.357424
 20
-3.38703
 30
0.0
  0
VERTEX
  5
127
330
123
100
AcDbEntity
  8
001
370
     9
100
AcDbVertex
100
AcDb2dVertex
 10
81.857424
 20
-2.985106
 30
0.0
  0
SEQEND
  5
124
330
123
100
AcDbEntity
  8
001
370
     9
  0
POLYLINE
  5
128
330
11D
100
AcDbEntity
  8
001
370
     9
100
AcDb2dPolyline
 66
     1
 10
0.0
 20
0.0
 30
0.0
  0
VERTEX
  5
12A
330
128
100
AcDbEntity
  8
001
370
     9
100
AcDbVertex
100
AcDb2dVertex
 10
157.857424
 20
-2.985106
 30
0.0
  0
VERTEX
  5
12B
330
128
100
AcDbEntity
  8
001
370
     9
100
AcDbVertex
100
AcDb2dVertex
 10
159.357424
 20
-3.38703
 30
0.0
  0
VERTEX
  5
12C
330
128
100
AcDbEntity
  8
001
370
     9
100
AcDbVertex
100
AcDb2dVertex
 10
157.857424
 20
-3.788953
 30
0.0
  0
SEQEND
  5
129
330
128
100
AcDbEntity
  8
001
370
     9
  0
TEXT
  5
12D
330
11D
100
AcDbEntity
  8
001
370
    30
100
AcDbText
 10
115.857424
 20
-2.38703
 30
0.0
 40
4.0
  1
７９
 41
0.833333
100
AcDbText
  0
POINT
  5
12E
330
11D
100
AcDbEntity
  8
001
370
     9
100
AcDbPoint
 10
80.357424
 20
47.292824
 30
0.0
  0
POINT
  5
12F
330
11D
100
AcDbEntity
  8
001
370
     9
100
AcDbPoint
 10
159.357424
 20
46.792824
 30
0.0
  0
POINT
  5
130
330
11D
100
AcDbEntity
  8
001
370
     9
100
AcDbPoint
 10
159.357424
 20
-3.38703
 30
0.0
  0
ENDBLK
  5
11F
330
11D
100
AcDbEntity
  8
0
100
AcDbBlockEnd
  0
BLOCK
  5
132
330
131
100
AcDbEntity
  8
0
100
AcDbBlockBegin
  2
*D11
 70
     1
 10
0.0
 20
0.0
 30
0.0
  3
*D11
  1

  0
LINE
  5
134
330
131
100
AcDbEntity
  8
001
370
     9
100
AcDbLine
 10
86.557395
 20
44.292824
 30
0.0
 11
59.392277
 21
44.292824
 31
0.0
  0
LINE
  5
135
330
131
100
AcDbEntity
  8
001
370
     9
100
AcDbLine
 10
86.557395
 20
55.292824
 30
0.0
 11
59.392277
 21
55.292824
 31
0.0
  0
LINE
  5
136
330
131
100
AcDbEntity
  8
001
370
     9
100
AcDbLine
 10
62.142277
 20
44.292824
 30
0.0
 11
62.142277
 21
55.292824
 31
0.0
  0
POLYLINE
  5
137
330
131
100
AcDbEntity
  8
001
370
     9
100
AcDb2dPolyline
 66
     1
 10
0.0
 20
0.0
 30
0.0
  0
VERTEX
  5
139
330
137
100
AcDbEntity
  8
001
370
     9
100
AcDbVertex
100
AcDb2dVertex
 10
61.740353
 20
42.792824
 30
0.0
  0
VERTEX
  5
13A
330
137
100
AcDbEntity
  8
001
370
     9
100
AcDbVertex
100
AcDb2dVertex
 10
62.142277
 20
44.292824
 30
0.0
  0
VERTEX
  5
13B
330
137
100
AcDbEntity
  8
001
370
     9
100
AcDbVertex
100
AcDb2dVertex
 10
62.544201
 20
42.792824
 30
0.0
  0
SEQEND
  5
138
330
137
100
AcDbEntity
  8
001
370
     9
  0
POLYLINE
  5
13C
330
131
100
AcDbEntity
  8
001
370
     9
100
AcDb2dPolyline
 66
     1
 10
0.0
 20
0.0
 30
0.0
  0
VERTEX
  5
13E
330
13C
100
AcDbEntity
  8
001
370
     9
100
AcDbVertex
100
AcDb2dVertex
 10
62.544201
 20
56.792824
 30
0.0
  0
VERTEX
  5
13F
330
13C
100
AcDbEntity
  8
001
370
     9
100
AcDbVertex
100
AcDb2dVertex
 10
62.142277
 20
55.292824
 30
0.0
  0
VERTEX
  5
140
330
13C
100
AcDbEntity
  8
001
370
     9
100
AcDbVertex
100
AcDb2dVertex
 10
61.740353
 20
56.792824
 30
0.0
  0
SEQEND
  5
13D
330
13C
100
AcDbEntity
  8
001
370
     9
  0
TEXT
  5
141
330
131
100
AcDbEntity
  8
001
370
    30
100
AcDbText
 10
61.142277
 20
43.792824
 30
0.0
 40
4.0
  1
%%c１１
 50
90.000003
 41
0.882353
100
AcDbText
  0
POINT
  5
142
330
131
100
AcDbEntity
  8
001
370
     9
100
AcDbPoint
 10
86.557395
 20
44.292824
 30
0.0
  0
POINT
  5
143
330
131
100
AcDbEntity
  8
001
370
     9
100
AcDbPoint
 10
86.557395
 20
55.292824
 30
0.0
  0
POINT
  5
144
330
131
100
AcDbEntity
  8
001
370
     9
100
AcDbPoint
 10
62.142277
 20
55.292824
 30
0.0
  0
LINE
  5
145
330
131
100
AcDbEntity
  8
001
370
     9
100
AcDbLine
 10
62.142277
 20
44.292824
 30
0.0
 11
62.142277
 21
41.792824
 31
0.0
  0
LINE
  5
146
330
131
100
AcDbEntity
  8
001
370
     9
100
AcDbLine
 10
62.142277
 20
55.292824
 30
0.0
 11
62.142277
 21
57.792824
 31
0.0
  0
ENDBLK
  5
133
330
131
100
AcDbEntity
  8
0
100
AcDbBlockEnd
  0
BLOCK
  5
148
330
147
100
AcDbEntity
  8
0
100
AcDbBlockBegin
  2
*D12
 70
     1
 10
0.0
 20
0.0
 30
0.0
  3
*D12
  1

  0
LINE
  5
14A
330
147
100
AcDbEntity
  8
001
370
     9
100
AcDbLine
 10
81.109283
 20
54.542824
 30
0.0
 11
67.934749
 21
54.542824
 31
0.0
  0
LINE
  5
14B
330
147
100
AcDbEntity
  8
001
370
     9
100
AcDbLine
 10
81.109283
 20
45.042824
 30
0.0
 11
67.934749
 21
45.042824
 31
0.0
  0
LINE
  5
14C
330
147
100
AcDbEntity
  8
001
370
     9
100
AcDbLine
 10
70.684749
 20
54.542824
 30
0.0
 11
70.684749
 21
45.042824
 31
0.0
  0
POLYLINE
  5
14D
330
147
100
AcDbEntity
  8
001
370
     9
100
AcDb2dPolyline
 66
     1
 10
0.0
 20
0.0
 30
0.0
  0
VERTEX
  5
14F
330
14D
100
AcDbEntity
  8
001
370
     9
100
AcDbVertex
100
AcDb2dVertex
 10
71.086673
 20
56.042824
 30
0.0
  0
VERTEX
  5
150
330
14D
100
AcDbEntity
  8
001
370
     9
100
AcDbVertex
100
AcDb2dVertex
 10
70.684749
 20
54.542824
 30
0.0
  0
VERTEX
  5
151
330
14D
100
AcDbEntity
  8
001
370
     9
100
AcDbVertex
100
AcDb2dVertex
 10
70.282826
 20
56.042824
 30
0.0
  0
SEQEND
  5
14E
330
14D
100
AcDbEntity
  8
001
370
     9
  0
POLYLINE
  5
152
330
147
100
AcDbEntity
  8
001
370
     9
100
AcDb2dPolyline
 66
     1
 10
0.0
 20
0.0
 30
0.0
  0
VERTEX
  5
154
330
152
100
AcDbEntity
  8
001
370
     9
100
AcDbVertex
100
AcDb2dVertex
 10
70.282826
 20
43.542824
 30
0.0
  0
VERTEX
  5
155
330
152
100
AcDbEntity
  8
001
370
     9
100
AcDbVertex
100
AcDb2dVertex
 10
70.684749
 20
45.042824
 30
0.0
  0
VERTEX
  5
156
330
152
100
AcDbEntity
  8
001
370
     9
100
AcDbVertex
100
AcDb2dVertex
 10
71.086673
 20
43.542824
 30
0.0
  0
SEQEND
  5
153
330
152
100
AcDbEntity
  8
001
370
     9
  0
TEXT
  5
157
330
147
100
AcDbEntity
  8
001
370
    30
100
AcDbText
 10
69.684749
 20
45.042824
 30
0.0
 40
4.0
  1
%%c９．５
 50
90.000003
 41
0.869565
100
AcDbText
  0
POINT
  5
158
330
147
100
AcDbEntity
  8
001
370
     9
100
AcDbPoint
 10
81.109283
 20
54.542824
 30
0.0
  0
POINT
  5
159
330
147
100
AcDbEntity
  8
001
370
     9
100
AcDbPoint
 10
81.109283
 20
45.042824
 30
0.0
  0
POINT
  5
15A
330
147
100
AcDbEntity
  8
001
370
     9
100
AcDbPoint
 10
70.684749
 20
45.042824
 30
0.0
  0
LINE
  5
15B
330
147
100
AcDbEntity
  8
001
370
     9
100
AcDbLine
 10
70.684749
 20
54.542824
 30
0.0
 11
70.684749
 21
57.042824
 31
0.0
  0
LINE
  5
15C
330
147
100
AcDbEntity
  8
001
370
     9
100
AcDbLine
 10
70.684749
 20
45.042824
 30
0.0
 11
70.684749
 21
42.542824
 31
0.0
  0
ENDBLK
  5
149
330
147
100
AcDbEntity
  8
0
100
AcDbBlockEnd
  0
BLOCK
  5
15E
330
15D
100
AcDbEntity
  8
0
100
AcDbBlockBegin
  2
*D13
 70
     1
 10
0.0
 20
0.0
 30
0.0
  3
*D13
  1

  0
LINE
  5
160
330
15D
100
AcDbEntity
  8
001
370
     9
100
AcDbLine
 10
156.357424
 20
43.792824
 30
0.0
 11
179.636034
 21
43.792824
 31
0.0
  0
LINE
  5
161
330
15D
100
AcDbEntity
  8
001
370
     9
100
AcDbLine
 10
156.357424
 20
55.792824
 30
0.0
 11
179.636034
 21
55.792824
 31
0.0
  0
LINE
  5
162
330
15D
100
AcDbEntity
  8
001
370
     9
100
AcDbLine
 10
176.886034
 20
43.792824
 30
0.0
 11
176.886034
 21
55.792824
 31
0.0
  0
POLYLINE
  5
163
330
15D
100
AcDbEntity
  8
001
370
     9
100
AcDb2dPolyline
 66
     1
 10
0.0
 20
0.0
 30
0.0
  0
VERTEX
  5
165
330
163
100
AcDbEntity
  8
001
370
     9
100
AcDbVertex
100
AcDb2dVertex
 10
176.48411
 20
42.292824
 30
0.0
  0
VERTEX
  5
166
330
163
100
AcDbEntity
  8
001
370
     9
100
AcDbVertex
100
AcDb2dVertex
 10
176.886034
 20
43.792824
 30
0.0
  0
VERTEX
  5
167
330
163
100
AcDbEntity
  8
001
370
     9
100
AcDbVertex
100
AcDb2dVertex
 10
177.287958
 20
42.292824
 30
0.0
  0
SEQEND
  5
164
330
163
100
AcDbEntity
  8
001
370
     9
  0
POLYLINE
  5
168
330
15D
100
AcDbEntity
  8
001
370
     9
100
AcDb2dPolyline
 66
     1
 10
0.0
 20
0.0
 30
0.0
  0
VERTEX
  5
16A
330
168
100
AcDbEntity
  8
001
370
     9
100
AcDbVertex
100
AcDb2dVertex
 10
177.287958
 20
57.292824
 30
0.0
  0
VERTEX
  5
16B
330
168
100
AcDbEntity
  8
001
370
     9
100
AcDbVertex
100
AcDb2dVertex
 10
176.886034
 20
55.792824
 30
0.0
  0
VERTEX
  5
16C
330
168
100
AcDbEntity
  8
001
370
     9
100
AcDbVertex
100
AcDb2dVertex
 10
176.48411
 20
57.292824
 30
0.0
  0
SEQEND
  5
169
330
168
100
AcDbEntity
  8
001
370
     9
  0
TEXT
  5
16D
330
15D
100
AcDbEntity
  8
001
370
    30
100
AcDbText
 10
175.886034
 20
28.292824
 30
0.0
 40
4.0
  1
%%c１２
 50
90.000003
 41
0.882353
100
AcDbText
  0
POINT
  5
16E
330
15D
100
AcDbEntity
  8
001
370
     9
100
AcDbPoint
 10
156.357424
 20
43.792824
 30
0.0
  0
POINT
  5
16F
330
15D
100
AcDbEntity
  8
001
370
     9
100
AcDbPoint
 10
156.357424
 20
55.792824
 30
0.0
  0
POINT
  5
170
330
15D
100
AcDbEntity
  8
001
370
     9
100
AcDbPoint
 10
176.886034
 20
55.792824
 30
0.0
  0
LINE
  5
171
330
15D
100
AcDbEntity
  8
001
370
     9
100
AcDbLine
 10
176.886034
 20
43.792824
 30
0.0
 11
176.886034
 21
25.292824
 31
0.0
  0
LINE
  5
172
330
15D
100
AcDbEntity
  8
001
370
     9
100
AcDbLine
 10
176.886034
 20
55.792824
 30
0.0
 11
176.886034
 21
58.292824
 31
0.0
  0
ENDBLK
  5
15F
330
15D
100
AcDbEntity
  8
0
100
AcDbBlockEnd
  0
ENDSEC
  0
SECTION
  2
ENTITIES
  0
DIMENSION
  5
173
330
1F
100
AcDbEntity
  8
001
370
     9
100
AcDbDimension
  2
*D1
 10
34.298429
 20
7.350327
 30
0.0
 11
43.631762
 21
8.350327
 31
0.0
 70
   160
 71
     5
 42
-1.0
  3
Standard
100
AcDbAlignedDimension
 13
39.798429
 23
10.896075
 33
0.0
 14
34.298429
 24
10.896075
 34
0.0
 50
180.0
100
AcDbRotatedDimension
  0
DIMENSION
  5
174
330
1F
100
AcDbEntity
  8
001
370
     9
100
AcDbDimension
  2
*D2
 10
46.590957
 20
15.496075
 30
0.0
 11
45.590957
 21
18.196075
 31
0.0
 70
   160
 71
     5
 42
-1.0
  3
Standard
100
AcDbAlignedDimension
 13
45.048429
 23
20.896075
 33
0.0
 14
41.798429
 24
15.496075
 34
0.0
 50
270.0
100
AcDbRotatedDimension
  0
TEXT
  5
175
330
1F
100
AcDbEntity
  8
001
370
    30
100
AcDbText
 10
34.960419
 20
28.205489
 30
0.0
 40
1.333333
  1
Ｃ０．５
 50
314.999992
 41
0.833333
100
AcDbText
  0
POLYLINE
  5
176
330
1F
100
AcDbEntity
  8
001
370
     9
100
AcDb2dPolyline
 66
     1
 10
0.0
 20
0.0
 30
0.0
  0
VERTEX
  5
178
330
176
100
AcDbEntity
  8
001
370
     9
100
AcDbVertex
100
AcDb2dVertex
 10
41.78961
 20
21.094363
 30
0.0
  0
VERTEX
  5
179
330
176
100
AcDbEntity
  8
001
370
     9
100
AcDbVertex
100
AcDb2dVertex
 10
42.048429
 20
20.646075
 30
0.0
  0
VERTEX
  5
17A
330
176
100
AcDbEntity
  8
001
370
     9
100
AcDbVertex
100
AcDb2dVertex
 10
41.600141
 20
20.904894
 30
0.0
  0
SEQEND
  5
177
330
176
100
AcDbEntity
  8
001
370
     9
  0
LINE
  5
17B
330
1F
100
AcDbEntity
  8
001
370
     9
100
AcDbLine
 10
42.048429
 20
20.646075
 30
0.0
 11
34.01761
 21
28.676893
 31
0.0
  0
TEXT
  5
17C
330
1F
100
AcDbEntity
  8
001
370
    30
100
AcDbText
 10
29.377843
 20
26.388065
 30
0.0
 40
1.333333
  1
Ｃ０．３
 50
314.999992
 41
0.833333
100
AcDbText
  0
POLYLINE
  5
17D
330
1F
100
AcDbEntity
  8
001
370
     9
100
AcDb2dPolyline
 66
     1
 10
0.0
 20
0.0
 30
0.0
  0
VERTEX
  5
17F
330
17D
100
AcDbEntity
  8
001
370
     9
100
AcDbVertex
100
AcDb2dVertex
 10
39.68961
 20
15.794363
 30
0.0
  0
VERTEX
  5
180
330
17D
100
AcDbEntity
  8
001
370
     9
100
AcDbVertex
100
AcDb2dVertex
 10
39.948429
 20
15.346075
 30
0.0
  0
VERTEX
  5
181
330
17D
100
AcDbEntity
  8
001
370
     9
100
AcDbVertex
100
AcDb2dVertex
 10
39.500141
 20
15.604894
 30
0.0
  0
SEQEND
  5
17E
330
17D
100
AcDbEntity
  8
001
370
     9
  0
LINE
  5
182
330
1F
100
AcDbEntity
  8
001
370
     9
100
AcDbLine
 10
39.948429
 20
15.346075
 30
0.0
 11
28.435034
 21
26.85947
 31
0.0
  0
DIMENSION
  5
183
330
1F
100
AcDbEntity
  8
001
370
     9
100
AcDbDimension
  2
*D3
 10
32.298429
 20
29.837807
 30
0.0
 11
36.971198
 21
30.837807
 31
0.0
 70
   160
 71
     5
 42
-1.0
  3
Standard
100
AcDbAlignedDimension
 13
41.798429
 23
20.396075
 33
0.0
 14
32.298429
 24
20.396075
 34
0.0
 50
180.0
100
AcDbRotatedDimension
  0
DIMENSION
  5
184
330
1F
100
AcDbEntity
  8
001
370
     9
100
AcDbDimension
  2
*D4
 10
81.057395
 20
49.792824
 30
0.0
 11
107.013467
 21
36.036752
 31
0.0
 70
    34
 71
     5
 42
-1.0
  3
Standard
100
AcDb2LineAngularDimension
 13
80.061334
 23
49.792824
 33
0.0
 14
81.057395
 24
49.792824
 34
0.0
 15
86.557395
 25
44.292824
 35
0.0
 16
110.968884
 26
37.403079
 36
0.0
  0
DIMENSION
  5
185
330
1F
100
AcDbEntity
  8
001
370
     9
100
AcDbDimension
  2
*D5
 10
77.857424
 20
49.792824
 30
0.0
 11
114.063331
 21
34.795847
 31
0.0
 70
    34
 71
     5
 42
-1.0
  3
Standard
100
AcDb2LineAngularDimension
 13
80.061334
 23
49.792824
 33
0.0
 14
77.857424
 24
49.792824
 34
0.0
 15
80.907395
 25
46.742853
 35
0.0
 16
116.834969
 26
33.647796
 36
0.0
  0
DIMENSION
  5
186
330
1F
100
AcDbEntity
  8
001
370
     9
100
AcDbDimension
  2
*D6
 10
80.357424
 20
13.861196
 30
0.0
 11
70.857424
 21
16.861196
 31
0.0
 70
   160
 71
     5
 42
-1.0
  3
Standard
100
AcDbAlignedDimension
 13
80.907395
 23
45.245632
 33
0.0
 14
80.357424
 24
47.292824
 34
0.0
 50
180.0
100
AcDbRotatedDimension
  0
DIMENSION
  5
187
330
1F
100
AcDbEntity
  8
001
370
     9
100
AcDbDimension
  2
*D7
 10
80.907395
 20
13.861196
 30
0.0
 11
83.357395
 21
16.861196
 31
0.0
 70
   160
 71
     5
 42
-1.0
  3
Standard
100
AcDbAlignedDimension
 13
85.807395
 23
45.042824
 33
0.0
 14
80.907395
 24
45.245632
 34
0.0
 50
180.0
100
AcDbRotatedDimension
  0
DIMENSION
  5
188
330
1F
100
AcDbEntity
  8
001
370
     9
100
AcDbDimension
  2
*D8
 10
80.357424
 20
4.777044
 30
0.0
 11
89.857424
 21
7.777044
 31
0.0
 70
   160
 71
     5
 42
-1.0
  3
Standard
100
AcDbAlignedDimension
 13
99.357424
 23
44.292824
 33
0.0
 14
80.357424
 24
47.292824
 34
0.0
 50
180.0
100
AcDbRotatedDimension
  0
DIMENSION
  5
189
330
1F
100
AcDbEntity
  8
001
370
     9
100
AcDbDimension
  2
*D9
 10
99.357424
 20
4.777044
 30
0.0
 11
129.357424
 21
7.777044
 31
0.0
 70
   160
 71
     5
 42
-1.0
  3
Standard
100
AcDbAlignedDimension
 13
159.357424
 23
46.792824
 33
0.0
 14
99.357424
 24
44.292824
 34
0.0
 50
180.0
100
AcDbRotatedDimension
  0
DIMENSION
  5
18A
330
1F
100
AcDbEntity
  8
001
370
     9
100
AcDbDimension
  2
*D10
 10
159.357424
 20
-3.38703
 30
0.0
 11
119.857424
 21
-0.38703
 31
0.0
 70
   160
 71
     5
 42
-1.0
  3
Standard
100
AcDbAlignedDimension
 13
80.357424
 23
47.292824
 33
0.0
 14
159.357424
 24
46.792824
 34
0.0
100
AcDbRotatedDimension
  0
DIMENSION
  5
18B
330
1F
100
AcDbEntity
  8
001
370
     9
100
AcDbDimension
  2
*D11
 10
62.142277
 20
55.292824
 30
0.0
 11
59.142277
 21
49.792824
 31
0.0
 70
   160
 71
     5
 42
-1.0
  3
Standard
100
AcDbAlignedDimension
 13
86.557395
 23
44.292824
 33
0.0
 14
86.557395
 24
55.292824
 34
0.0
 50
90.0
100
AcDbRotatedDimension
  0
DIMENSION
  5
18C
330
1F
100
AcDbEntity
  8
001
370
     9
100
AcDbDimension
  2
*D12
 10
70.684749
 20
45.042824
 30
0.0
 11
67.684749
 21
53.042824
 31
0.0
 70
   160
 71
     5
 42
-1.0
  3
Standard
100
AcDbAlignedDimension
 13
81.109283
 23
54.542824
 33
0.0
 14
81.109283
 24
45.042824
 34
0.0
 50
270.0
100
AcDbRotatedDimension
  0
DIMENSION
  5
18D
330
1F
100
AcDbEntity
  8
001
370
     9
100
AcDbDimension
  2
*D13
 10
176.886034
 20
55.792824
 30
0.0
 11
173.886034
 21
34.292824
 31
0.0
 70
   160
 71
     5
 42
-1.0
  3
Standard
100
AcDbAlignedDimension
 13
156.357424
 23
43.792824
 33
0.0
 14
156.357424
 24
55.792824
 34
0.0
 50
90.0
100
AcDbRotatedDimension
  0
TEXT
  5
18E
330
1F
100
AcDbEntity
  8
001
370
    30
100
AcDbText
 10
13.134687
 20
80.14375
 30
0.0
 40
10.0
  1
イーグルカット　ＥＣ１２－９．５ＸＸ－Ｍ５
 41
0.833333
100
AcDbText
  0
LINE
  5
18F
330
1F
100
AcDbEntity
  8
001
370
    50
100
AcDbLine
 10
29.048429
 20
20.896075
 30
0.0
 11
45.048429
 21
20.896075
 31
0.0
  0
LINE
  5
190
330
1F
100
AcDbEntity
  8
001
370
    50
100
AcDbLine
 10
32.298429
 20
15.496075
 30
0.0
 11
41.798429
 21
15.496075
 31
0.0
  0
LINE
  5
191
330
1F
100
AcDbEntity
  8
001
370
    50
100
AcDbLine
 10
41.798429
 20
20.396075
 30
0.0
 11
41.798429
 21
15.496075
 31
0.0
  0
LINE
  5
192
330
1F
100
AcDbEntity
  8
001
370
    50
100
AcDbLine
 10
32.298429
 20
20.396075
 30
0.0
 11
32.298429
 21
15.496075
 31
0.0
  0
LINE
  5
193
330
1F
100
AcDbEntity
  8
001
370
    50
100
AcDbLine
 10
39.798429
 20
15.196075
 30
0.0
 11
40.098429
 21
15.496075
 31
0.0
  0
LINE
  5
194
330
1F
100
AcDbEntity
  8
001
370
    50
100
AcDbLine
 10
34.298429
 20
15.196075
 30
0.0
 11
33.998429
 21
15.496075
 31
0.0
  0
LINE
  5
195
330
1F
100
AcDbEntity
  8
001
370
    50
100
AcDbLine
 10
32.298429
 20
20.396075
 30
0.0
 11
31.798429
 21
20.896075
 31
0.0
  0
LINE
  5
196
330
1F
100
AcDbEntity
  8
001
370
    50
100
AcDbLine
 10
41.798429
 20
20.396075
 30
0.0
 11
32.298429
 21
20.396075
 31
0.0
  0
LINE
  5
197
330
1F
100
AcDbEntity
  8
001
370
    50
100
AcDbLine
 10
34.298429
 20
15.196075
 30
0.0
 11
39.798429
 21
15.196075
 31
0.0
  0
LINE
  5
198
330
1F
100
AcDbEntity
  8
001
370
    50
100
AcDbLine
 10
45.048429
 20
10.896075
 30
0.0
 11
29.048429
 21
10.896075
 31
0.0
  0
LINE
  5
199
330
1F
100
AcDbEntity
  8
001
370
    50
100
AcDbLine
 10
39.798429
 20
15.196075
 30
0.0
 11
39.798429
 21
10.896075
 31
0.0
  0
LINE
  5
19A
330
1F
100
AcDbEntity
  8
001
370
    50
100
AcDbLine
 10
34.298429
 20
15.196075
 30
0.0
 11
34.298429
 21
10.896075
 31
0.0
  0
LINE
  5
19B
330
1F
100
AcDbEntity
  8
001
  6
CENTER
370
     9
100
AcDbLine
 10
37.048429
 20
22.287757
 30
0.0
 11
37.048429
 21
9.804314
 31
0.0
  0
LINE
  5
19C
330
1F
100
AcDbEntity
  8
001
  6
PHANTOM
370
     9
100
AcDbLine
 10
41.572237
 20
15.496075
 30
0.0
 11
40.098429
 21
15.496075
 31
0.0
  0
LINE
  5
19D
330
1F
100
AcDbEntity
  8
001
370
    50
100
AcDbLine
 10
41.798429
 20
20.396075
 30
0.0
 11
42.298429
 21
20.896075
 31
0.0
  0
LINE
  5
19E
330
1F
100
AcDbEntity
  8
001
370
     9
100
AcDbLine
 10
40.193803
 20
2.718609
 30
0.0
 11
34.594448
 21
2.718609
 31
0.0
  0
POLYLINE
  5
19F
330
1F
100
AcDbEntity
  8
001
370
    50
100
AcDb2dPolyline
 66
     1
 10
0.0
 20
0.0
 30
0.0
  0
VERTEX
  5
1A1
330
19F
100
AcDbEntity
  8
001
370
    50
100
AcDbVertex
100
AcDb2dVertex
 10
80.559312
 20
51.134024
 30
0.0
  0
VERTEX
  5
1A2
330
19F
100
AcDbEntity
  8
001
370
    50
100
AcDbVertex
100
AcDb2dVertex
 10
80.544512
 20
51.133251
 30
0.0
  0
VERTEX
  5
1A3
330
19F
100
AcDbEntity
  8
001
370
    50
100
AcDbVertex
100
AcDb2dVertex
 10
80.524255
 20
51.13094
 30
0.0
  0
VERTEX
  5
1A4
330
19F
100
AcDbEntity
  8
001
370
    50
100
AcDbVertex
100
AcDb2dVertex
 10
80.506308
 20
51.127106
 30
0.0
  0
VERTEX
  5
1A5
330
19F
100
AcDbEntity
  8
001
370
    50
100
AcDbVertex
100
AcDb2dVertex
 10
80.490262
 20
51.121782
 30
0.0
  0
VERTEX
  5
1A6
330
19F
100
AcDbEntity
  8
001
370
    50
100
AcDbVertex
100
AcDb2dVertex
 10
80.474189
 20
51.115002
 30
0.0
  0
VERTEX
  5
1A7
330
19F
100
AcDbEntity
  8
001
370
    50
100
AcDbVertex
100
AcDb2dVertex
 10
80.458368
 20
51.106827
 30
0.0
  0
VERTEX
  5
1A8
330
19F
100
AcDbEntity
  8
001
370
    50
100
AcDbVertex
100
AcDb2dVertex
 10
80.443457
 20
51.097313
 30
0.0
  0
VERTEX
  5
1A9
330
19F
100
AcDbEntity
  8
001
370
    50
100
AcDbVertex
100
AcDb2dVertex
 10
80.429541
 20
51.086531
 30
0.0
  0
VERTEX
  5
1AA
330
19F
100
AcDbEntity
  8
001
370
    50
100
AcDbVertex
100
AcDb2dVertex
 10
80.416568
 20
51.074549
 30
0.0
  0
VERTEX
  5
1AB
330
19F
100
AcDbEntity
  8
001
370
    50
100
AcDbVertex
100
AcDb2dVertex
 10
80.404657
 20
51.06151
 30
0.0
  0
VERTEX
  5
1AC
330
19F
100
AcDbEntity
  8
001
370
    50
100
AcDbVertex
100
AcDb2dVertex
 10
80.39393
 20
51.04751
 30
0.0
  0
VERTEX
  5
1AD
330
19F
100
AcDbEntity
  8
001
370
    50
100
AcDbVertex
100
AcDb2dVertex
 10
80.384472
 20
51.032524
 30
0.0
  0
VERTEX
  5
1AE
330
19F
100
AcDbEntity
  8
001
370
    50
100
AcDbVertex
100
AcDb2dVertex
 10
80.37634
 20
51.016611
 30
0.0
  0
VERTEX
  5
1AF
330
19F
100
AcDbEntity
  8
001
370
    50
100
AcDbVertex
100
AcDb2dVertex
 10
80.3696
 20
51.000454
 30
0.0
  0
VERTEX
  5
1B0
330
19F
100
AcDbEntity
  8
001
370
    50
100
AcDbVertex
100
AcDb2dVertex
 10
80.364303
 20
50.984315
 30
0.0
  0
VERTEX
  5
1B1
330
19F
100
AcDbEntity
  8
001
370
    50
100
AcDbVertex
100
AcDb2dVertex
 10
80.360491
 20
50.966275
 30
0.0
  0
VERTEX
  5
1B2
330
19F
100
AcDbEntity
  8
001
370
    50
100
AcDbVertex
100
AcDb2dVertex
 10
80.358193
 20
50.945905
 30
0.0
  0
VERTEX
  5
1B3
330
19F
100
AcDbEntity
  8
001
370
    50
100
AcDbVertex
100
AcDb2dVertex
 10
80.357424
 20
50.931024
 30
0.0
  0
SEQEND
  5
1A0
330
19F
100
AcDbEntity
  8
001
370
    50
  0
POLYLINE
  5
1B4
330
1F
100
AcDbEntity
  8
001
370
    50
100
AcDb2dPolyline
 66
     1
 10
0.0
 20
0.0
 30
0.0
  0
VERTEX
  5
1B6
330
1B4
100
AcDbEntity
  8
001
370
    50
100
AcDbVertex
100
AcDb2dVertex
 10
84.335512
 20
49.934024
 30
0.0
  0
VERTEX
  5
1B7
330
1B4
100
AcDbEntity
  8
001
370
    50
100
AcDbVertex
100
AcDb2dVertex
 10
84.212537
 20
49.926796
 30
0.0
  0
VERTEX
  5
1B8
330
1B4
100
AcDbEntity
  8
001
370
    50
100
AcDbVertex
100
AcDb2dVertex
 10
84.044479
 20
49.905202
 30
0.0
  0
VERTEX
  5
1B9
330
1B4
100
AcDbEntity
  8
001
370
    50
100
AcDbVertex
100
AcDb2dVertex
 10
83.896216
 20
49.869414
 30
0.0
  0
VERTEX
  5
1BA
330
1B4
100
AcDbEntity
  8
001
370
    50
100
AcDbVertex
100
AcDb2dVertex
 10
83.764631
 20
49.819843
 30
0.0
  0
VERTEX
  5
1BB
330
1B4
100
AcDbEntity
  8
001
370
    50
100
AcDbVertex
100
AcDb2dVertex
 10
83.633937
 20
49.756917
 30
0.0
  0
VERTEX
  5
1BC
330
1B4
100
AcDbEntity
  8
001
370
    50
100
AcDbVertex
100
AcDb2dVertex
 10
83.506722
 20
49.681228
 30
0.0
  0
VERTEX
  5
1BD
330
1B4
100
AcDbEntity
  8
001
370
    50
100
AcDbVertex
100
AcDb2dVertex
 10
83.38866
 20
49.593391
 30
0.0
  0
VERTEX
  5
1BE
330
1B4
100
AcDbEntity
  8
001
370
    50
100
AcDbVertex
100
AcDb2dVertex
 10
83.280662
 20
49.494684
 30
0.0
  0
VERTEX
  5
1BF
330
1B4
100
AcDbEntity
  8
001
370
    50
100
AcDbVertex
100
AcDb2dVertex
 10
83.182449
 20
49.386029
 30
0.0
  0
VERTEX
  5
1C0
330
1B4
100
AcDbEntity
  8
001
370
    50
100
AcDbVertex
100
AcDb2dVertex
 10
83.09514
 20
49.267379
 30
0.0
  0
VERTEX
  5
1C1
330
1B4
100
AcDbEntity
  8
001
370
    50
100
AcDbVertex
100
AcDb2dVertex
 10
83.019834
 20
49.139412
 30
0.0
  0
VERTEX
  5
1C2
330
1B4
100
AcDbEntity
  8
001
370
    50
100
AcDbVertex
100
AcDb2dVertex
 10
82.957284
 20
49.008049
 30
0.0
  0
VERTEX
  5
1C3
330
1B4
100
AcDbEntity
  8
001
370
    50
100
AcDbVertex
100
AcDb2dVertex
 10
82.907972
 20
48.875687
 30
0.0
  0
VERTEX
  5
1C4
330
1B4
100
AcDbEntity
  8
001
370
    50
100
AcDbVertex
100
AcDb2dVertex
 10
82.872393
 20
48.72666
 30
0.0
  0
VERTEX
  5
1C5
330
1B4
100
AcDbEntity
  8
001
370
    50
100
AcDbVertex
100
AcDb2dVertex
 10
82.850915
 20
48.557667
 30
0.0
  0
VERTEX
  5
1C6
330
1B4
100
AcDbEntity
  8
001
370
    50
100
AcDbVertex
100
AcDb2dVertex
 10
82.843729
 20
48.434024
 30
0.0
  0
SEQEND
  5
1B5
330
1B4
100
AcDbEntity
  8
001
370
    50
  0
LINE
  5
1C7
330
1F
100
AcDbEntity
  8
001
370
    50
100
AcDbLine
 10
88.111711
 20
51.134024
 30
0.0
 11
80.559312
 21
51.134024
 31
0.0
  0
POLYLINE
  5
1C8
330
1F
100
AcDbEntity
  8
001
370
    50
100
AcDb2dPolyline
 66
     1
 10
0.0
 20
0.0
 30
0.0
  0
VERTEX
  5
1CA
330
1C8
100
AcDbEntity
  8
001
370
    50
100
AcDbVertex
100
AcDb2dVertex
 10
88.313599
 20
50.931024
 30
0.0
  0
VERTEX
  5
1CB
330
1C8
100
AcDbEntity
  8
001
370
    50
100
AcDbVertex
100
AcDb2dVertex
 10
88.312831
 20
50.945905
 30
0.0
  0
VERTEX
  5
1CC
330
1C8
100
AcDbEntity
  8
001
370
    50
100
AcDbVertex
100
AcDb2dVertex
 10
88.310532
 20
50.966275
 30
0.0
  0
VERTEX
  5
1CD
330
1C8
100
AcDbEntity
  8
001
370
    50
100
AcDbVertex
100
AcDb2dVertex
 10
88.306721
 20
50.984315
 30
0.0
  0
VERTEX
  5
1CE
330
1C8
100
AcDbEntity
  8
001
370
    50
100
AcDbVertex
100
AcDb2dVertex
 10
88.301424
 20
51.000454
 30
0.0
  0
VERTEX
  5
1CF
330
1C8
100
AcDbEntity
  8
001
370
    50
100
AcDbVertex
100
AcDb2dVertex
 10
88.294684
 20
51.016611
 30
0.0
  0
VERTEX
  5
1D0
330
1C8
100
AcDbEntity
  8
001
370
    50
100
AcDbVertex
100
AcDb2dVertex
 10
88.286552
 20
51.032524
 30
0.0
  0
VERTEX
  5
1D1
330
1C8
100
AcDbEntity
  8
001
370
    50
100
AcDbVertex
100
AcDb2dVertex
 10
88.277094
 20
51.04751
 30
0.0
  0
VERTEX
  5
1D2
330
1C8
100
AcDbEntity
  8
001
370
    50
100
AcDbVertex
100
AcDb2dVertex
 10
88.266367
 20
51.06151
 30
0.0
  0
VERTEX
  5
1D3
330
1C8
100
AcDbEntity
  8
001
370
    50
100
AcDbVertex
100
AcDb2dVertex
 10
88.254456
 20
51.074549
 30
0.0
  0
VERTEX
  5
1D4
330
1C8
100
AcDbEntity
  8
001
370
    50
100
AcDbVertex
100
AcDb2dVertex
 10
88.241483
 20
51.086531
 30
0.0
  0
VERTEX
  5
1D5
330
1C8
100
AcDbEntity
  8
001
370
    50
100
AcDbVertex
100
AcDb2dVertex
 10
88.227567
 20
51.097313
 30
0.0
  0
VERTEX
  5
1D6
330
1C8
100
AcDbEntity
  8
001
370
    50
100
AcDbVertex
100
AcDb2dVertex
 10
88.212655
 20
51.106827
 30
0.0
  0
VERTEX
  5
1D7
330
1C8
100
AcDbEntity
  8
001
370
    50
100
AcDbVertex
100
AcDb2dVertex
 10
88.196835
 20
51.115002
 30
0.0
  0
VERTEX
  5
1D8
330
1C8
100
AcDbEntity
  8
001
370
    50
100
AcDbVertex
100
AcDb2dVertex
 10
88.180761
 20
51.121782
 30
0.0
  0
VERTEX
  5
1D9
330
1C8
100
AcDbEntity
  8
001
370
    50
100
AcDbVertex
100
AcDb2dVertex
 10
88.164715
 20
51.127106
 30
0.0
  0
VERTEX
  5
1DA
330
1C8
100
AcDbEntity
  8
001
370
    50
100
AcDbVertex
100
AcDb2dVertex
 10
88.146769
 20
51.13094
 30
0.0
  0
VERTEX
  5
1DB
330
1C8
100
AcDbEntity
  8
001
370
    50
100
AcDbVertex
100
AcDb2dVertex
 10
88.126512
 20
51.133251
 30
0.0
  0
VERTEX
  5
1DC
330
1C8
100
AcDbEntity
  8
001
370
    50
100
AcDbVertex
100
AcDb2dVertex
 10
88.111711
 20
51.134024
 30
0.0
  0
SEQEND
  5
1C9
330
1C8
100
AcDbEntity
  8
001
370
    50
  0
LINE
  5
1DD
330
1F
100
AcDbEntity
  8
001
370
    50
100
AcDbLine
 10
88.313599
 20
44.495824
 30
0.0
 11
88.313599
 21
50.931024
 31
0.0
  0
LINE
  5
1DE
330
1F
100
AcDbEntity
  8
001
370
    50
100
AcDbLine
 10
86.557395
 20
44.292824
 30
0.0
 11
88.1118
 21
44.292824
 31
0.0
  0
LINE
  5
1DF
330
1F
100
AcDbEntity
  8
001
370
    50
100
AcDbLine
 10
85.807395
 20
45.042824
 30
0.0
 11
81.109283
 21
45.042824
 31
0.0
  0
LINE
  5
1E0
330
1F
100
AcDbEntity
  8
001
370
    50
100
AcDbLine
 10
80.907395
 20
46.742853
 30
0.0
 11
80.907395
 21
45.245632
 31
0.0
  0
LINE
  5
1E1
330
1F
100
AcDbEntity
  8
001
370
    50
100
AcDbLine
 10
80.357424
 20
47.292824
 30
0.0
 11
80.357424
 21
50.931024
 31
0.0
  0
POLYLINE
  5
1E2
330
1F
100
AcDbEntity
  8
001
370
    50
100
AcDb2dPolyline
 66
     1
 10
0.0
 20
0.0
 30
0.0
  0
VERTEX
  5
1E4
330
1E2
100
AcDbEntity
  8
001
370
    50
100
AcDbVertex
100
AcDb2dVertex
 10
82.843729
 20
48.434024
 30
0.0
  0
VERTEX
  5
1E5
330
1E2
100
AcDbEntity
  8
001
370
    50
100
AcDbVertex
100
AcDb2dVertex
 10
82.849409
 20
48.324067
 30
0.0
  0
VERTEX
  5
1E6
330
1E2
100
AcDbEntity
  8
001
370
    50
100
AcDbVertex
100
AcDb2dVertex
 10
82.866393
 20
48.173552
 30
0.0
  0
VERTEX
  5
1E7
330
1E2
100
AcDbEntity
  8
001
370
    50
100
AcDbVertex
100
AcDb2dVertex
 10
82.894558
 20
48.040249
 30
0.0
  0
VERTEX
  5
1E8
330
1E2
100
AcDbEntity
  8
001
370
    50
100
AcDbVertex
100
AcDb2dVertex
 10
82.933695
 20
47.920994
 30
0.0
  0
VERTEX
  5
1E9
330
1E2
100
AcDbEntity
  8
001
370
    50
100
AcDbVertex
100
AcDb2dVertex
 10
82.983498
 20
47.801609
 30
0.0
  0
VERTEX
  5
1EA
330
1E2
100
AcDbEntity
  8
001
370
    50
100
AcDbVertex
100
AcDb2dVertex
 10
83.04359
 20
47.684024
 30
0.0
  0
VERTEX
  5
1EB
330
1E2
100
AcDbEntity
  8
001
370
    50
100
AcDbVertex
100
AcDb2dVertex
 10
83.113472
 20
47.573287
 30
0.0
  0
VERTEX
  5
1EC
330
1E2
100
AcDbEntity
  8
001
370
    50
100
AcDbVertex
100
AcDb2dVertex
 10
83.19274
 20
47.469843
 30
0.0
  0
VERTEX
  5
1ED
330
1E2
100
AcDbEntity
  8
001
370
    50
100
AcDbVertex
100
AcDb2dVertex
 10
83.28075
 20
47.373495
 30
0.0
  0
VERTEX
  5
1EE
330
1E2
100
AcDbEntity
  8
001
370
    50
100
AcDbVertex
100
AcDb2dVertex
 10
83.376612
 20
47.284957
 30
0.0
  0
VERTEX
  5
1EF
330
1E2
100
AcDbEntity
  8
001
370
    50
100
AcDbVertex
100
AcDb2dVertex
 10
83.47944
 20
47.205287
 30
0.0
  0
VERTEX
  5
1F0
330
1E2
100
AcDbEntity
  8
001
370
    50
100
AcDbVertex
100
AcDb2dVertex
 10
83.58962
 20
47.134986
 30
0.0
  0
VERTEX
  5
1F1
330
1E2
100
AcDbEntity
  8
001
370
    50
100
AcDbVertex
100
AcDb2dVertex
 10
83.706523
 20
47.074584
 30
0.0
  0
VERTEX
  5
1F2
330
1E2
100
AcDbEntity
  8
001
370
    50
100
AcDbVertex
100
AcDb2dVertex
 10
83.825292
 20
47.024485
 30
0.0
  0
VERTEX
  5
1F3
330
1E2
100
AcDbEntity
  8
001
370
    50
100
AcDbVertex
100
AcDb2dVertex
 10
83.943857
 20
46.985141
 30
0.0
  0
VERTEX
  5
1F4
330
1E2
100
AcDbEntity
  8
001
370
    50
100
AcDbVertex
100
AcDb2dVertex
 10
84.076467
 20
46.956812
 30
0.0
  0
VERTEX
  5
1F5
330
1E2
100
AcDbEntity
  8
001
370
    50
100
AcDbVertex
100
AcDb2dVertex
 10
84.226151
 20
46.939737
 30
0.0
  0
VERTEX
  5
1F6
330
1E2
100
AcDbEntity
  8
001
370
    50
100
AcDbVertex
100
AcDb2dVertex
 10
84.335512
 20
46.934024
 30
0.0
  0
SEQEND
  5
1E3
330
1E2
100
AcDbEntity
  8
001
370
    50
  0
POLYLINE
  5
1F7
330
1F
100
AcDbEntity
  8
001
370
    50
100
AcDb2dPolyline
 66
     1
 10
0.0
 20
0.0
 30
0.0
  0
VERTEX
  5
1F9
330
1F7
100
AcDbEntity
  8
001
370
    50
100
AcDbVertex
100
AcDb2dVertex
 10
84.335512
 20
46.934024
 30
0.0
  0
VERTEX
  5
1FA
330
1F7
100
AcDbEntity
  8
001
370
    50
100
AcDbVertex
100
AcDb2dVertex
 10
84.444873
 20
46.939736
 30
0.0
  0
VERTEX
  5
1FB
330
1F7
100
AcDbEntity
  8
001
370
    50
100
AcDbVertex
100
AcDb2dVertex
 10
84.594557
 20
46.956812
 30
0.0
  0
VERTEX
  5
1FC
330
1F7
100
AcDbEntity
  8
001
370
    50
100
AcDbVertex
100
AcDb2dVertex
 10
84.727167
 20
46.985143
 30
0.0
  0
VERTEX
  5
1FD
330
1F7
100
AcDbEntity
  8
001
370
    50
100
AcDbVertex
100
AcDb2dVertex
 10
84.845732
 20
47.024485
 30
0.0
  0
VERTEX
  5
1FE
330
1F7
100
AcDbEntity
  8
001
370
    50
100
AcDbVertex
100
AcDb2dVertex
 10
84.964501
 20
47.074576
 30
0.0
  0
VERTEX
  5
1FF
330
1F7
100
AcDbEntity
  8
001
370
    50
100
AcDbVertex
100
AcDb2dVertex
 10
85.081403
 20
47.134986
 30
0.0
  0
VERTEX
  5
200
330
1F7
100
AcDbEntity
  8
001
370
    50
100
AcDbVertex
100
AcDb2dVertex
 10
85.191584
 20
47.205316
 30
0.0
  0
VERTEX
  5
201
330
1F7
100
AcDbEntity
  8
001
370
    50
100
AcDbVertex
100
AcDb2dVertex
 10
85.294411
 20
47.284957
 30
0.0
  0
VERTEX
  5
202
330
1F7
100
AcDbEntity
  8
001
370
    50
100
AcDbVertex
100
AcDb2dVertex
 10
85.390274
 20
47.373389
 30
0.0
  0
VERTEX
  5
203
330
1F7
100
AcDbEntity
  8
001
370
    50
100
AcDbVertex
100
AcDb2dVertex
 10
85.478284
 20
47.469843
 30
0.0
  0
VERTEX
  5
204
330
1F7
100
AcDbEntity
  8
001
370
    50
100
AcDbVertex
100
AcDb2dVertex
 10
85.557551
 20
47.573685
 30
0.0
  0
VERTEX
  5
205
330
1F7
100
AcDbEntity
  8
001
370
    50
100
AcDbVertex
100
AcDb2dVertex
 10
85.627434
 20
47.684024
 30
0.0
  0
VERTEX
  5
206
330
1F7
100
AcDbEntity
  8
001
370
    50
100
AcDbVertex
100
AcDb2dVertex
 10
85.687525
 20
47.80012
 30
0.0
  0
VERTEX
  5
207
330
1F7
100
AcDbEntity
  8
001
370
    50
100
AcDbVertex
100
AcDb2dVertex
 10
85.737329
 20
47.920994
 30
0.0
  0
VERTEX
  5
208
330
1F7
100
AcDbEntity
  8
001
370
    50
100
AcDbVertex
100
AcDb2dVertex
 10
85.776466
 20
48.045811
 30
0.0
  0
VERTEX
  5
209
330
1F7
100
AcDbEntity
  8
001
370
    50
100
AcDbVertex
100
AcDb2dVertex
 10
85.804631
 20
48.173552
 30
0.0
  0
VERTEX
  5
20A
330
1F7
100
AcDbEntity
  8
001
370
    50
100
AcDbVertex
100
AcDb2dVertex
 10
85.821615
 20
48.303296
 30
0.0
  0
VERTEX
  5
20B
330
1F7
100
AcDbEntity
  8
001
370
    50
100
AcDbVertex
100
AcDb2dVertex
 10
85.827295
 20
48.434024
 30
0.0
  0
VERTEX
  5
20C
330
1F7
100
AcDbEntity
  8
001
370
    50
100
AcDbVertex
100
AcDb2dVertex
 10
85.821615
 20
48.564752
 30
0.0
  0
VERTEX
  5
20D
330
1F7
100
AcDbEntity
  8
001
370
    50
100
AcDbVertex
100
AcDb2dVertex
 10
85.804631
 20
48.694496
 30
0.0
  0
VERTEX
  5
20E
330
1F7
100
AcDbEntity
  8
001
370
    50
100
AcDbVertex
100
AcDb2dVertex
 10
85.776466
 20
48.822237
 30
0.0
  0
VERTEX
  5
20F
330
1F7
100
AcDbEntity
  8
001
370
    50
100
AcDbVertex
100
AcDb2dVertex
 10
85.737329
 20
48.947054
 30
0.0
  0
VERTEX
  5
210
330
1F7
100
AcDbEntity
  8
001
370
    50
100
AcDbVertex
100
AcDb2dVertex
 10
85.687525
 20
49.067928
 30
0.0
  0
VERTEX
  5
211
330
1F7
100
AcDbEntity
  8
001
370
    50
100
AcDbVertex
100
AcDb2dVertex
 10
85.627434
 20
49.184024
 30
0.0
  0
VERTEX
  5
212
330
1F7
100
AcDbEntity
  8
001
370
    50
100
AcDbVertex
100
AcDb2dVertex
 10
85.557551
 20
49.294363
 30
0.0
  0
VERTEX
  5
213
330
1F7
100
AcDbEntity
  8
001
370
    50
100
AcDbVertex
100
AcDb2dVertex
 10
85.478284
 20
49.398205
 30
0.0
  0
VERTEX
  5
214
330
1F7
100
AcDbEntity
  8
001
370
    50
100
AcDbVertex
100
AcDb2dVertex
 10
85.390274
 20
49.49466
 30
0.0
  0
VERTEX
  5
215
330
1F7
100
AcDbEntity
  8
001
370
    50
100
AcDbVertex
100
AcDb2dVertex
 10
85.294411
 20
49.583091
 30
0.0
  0
VERTEX
  5
216
330
1F7
100
AcDbEntity
  8
001
370
    50
100
AcDbVertex
100
AcDb2dVertex
 10
85.191584
 20
49.662732
 30
0.0
  0
VERTEX
  5
217
330
1F7
100
AcDbEntity
  8
001
370
    50
100
AcDbVertex
100
AcDb2dVertex
 10
85.081403
 20
49.733062
 30
0.0
  0
VERTEX
  5
218
330
1F7
100
AcDbEntity
  8
001
370
    50
100
AcDbVertex
100
AcDb2dVertex
 10
84.964501
 20
49.793472
 30
0.0
  0
VERTEX
  5
219
330
1F7
100
AcDbEntity
  8
001
370
    50
100
AcDbVertex
100
AcDb2dVertex
 10
84.845732
 20
49.843563
 30
0.0
  0
VERTEX
  5
21A
330
1F7
100
AcDbEntity
  8
001
370
    50
100
AcDbVertex
100
AcDb2dVertex
 10
84.727167
 20
49.882905
 30
0.0
  0
VERTEX
  5
21B
330
1F7
100
AcDbEntity
  8
001
370
    50
100
AcDbVertex
100
AcDb2dVertex
 10
84.594557
 20
49.911236
 30
0.0
  0
VERTEX
  5
21C
330
1F7
100
AcDbEntity
  8
001
370
    50
100
AcDbVertex
100
AcDb2dVertex
 10
84.444873
 20
49.928312
 30
0.0
  0
VERTEX
  5
21D
330
1F7
100
AcDbEntity
  8
001
370
    50
100
AcDbVertex
100
AcDb2dVertex
 10
84.335512
 20
49.934024
 30
0.0
  0
SEQEND
  5
1F8
330
1F7
100
AcDbEntity
  8
001
370
    50
  0
LINE
  5
21E
330
1F
100
AcDbEntity
  8
001
370
    50
100
AcDbLine
 10
99.857424
 20
55.792824
 30
0.0
 11
99.857424
 21
43.792824
 31
0.0
  0
LINE
  5
21F
330
1F
100
AcDbEntity
  8
001
370
    50
100
AcDbLine
 10
99.357424
 20
55.292824
 30
0.0
 11
99.357424
 21
44.292824
 31
0.0
  0
LINE
  5
220
330
1F
100
AcDbEntity
  8
001
370
    50
100
AcDbLine
 10
99.857424
 20
55.792824
 30
0.0
 11
99.357424
 21
55.292824
 31
0.0
  0
LINE
  5
221
330
1F
100
AcDbEntity
  8
001
370
    50
100
AcDbLine
 10
99.357424
 20
44.292824
 30
0.0
 11
99.857424
 21
43.792824
 31
0.0
  0
LINE
  5
222
330
1F
100
AcDbEntity
  8
001
370
    50
100
AcDbLine
 10
159.357424
 20
46.792824
 30
0.0
 11
159.357424
 21
52.792824
 31
0.0
  0
POLYLINE
  5
223
330
1F
100
AcDbEntity
  8
001
370
    50
100
AcDb2dPolyline
 66
     1
 10
0.0
 20
0.0
 30
0.0
  0
VERTEX
  5
225
330
223
100
AcDbEntity
  8
001
370
    50
100
AcDbVertex
100
AcDb2dVertex
 10
92.588338
 20
51.13257
 30
0.0
  0
VERTEX
  5
226
330
223
100
AcDbEntity
  8
001
370
    50
100
AcDbVertex
100
AcDb2dVertex
 10
92.785386
 20
51.017069
 30
0.0
  0
VERTEX
  5
227
330
223
100
AcDbEntity
  8
001
370
    50
100
AcDbVertex
100
AcDb2dVertex
 10
92.980718
 20
50.898771
 30
0.0
  0
VERTEX
  5
228
330
223
100
AcDbEntity
  8
001
370
    50
100
AcDbVertex
100
AcDb2dVertex
 10
93.173408
 20
50.775178
 30
0.0
  0
VERTEX
  5
229
330
223
100
AcDbEntity
  8
001
370
    50
100
AcDbVertex
100
AcDb2dVertex
 10
93.362963
 20
50.646767
 30
0.0
  0
VERTEX
  5
22A
330
223
100
AcDbEntity
  8
001
370
    50
100
AcDbVertex
100
AcDb2dVertex
 10
93.549836
 20
50.514013
 30
0.0
  0
VERTEX
  5
22B
330
223
100
AcDbEntity
  8
001
370
    50
100
AcDbVertex
100
AcDb2dVertex
 10
93.733631
 20
50.377057
 30
0.0
  0
VERTEX
  5
22C
330
223
100
AcDbEntity
  8
001
370
    50
100
AcDbVertex
100
AcDb2dVertex
 10
93.919224
 20
50.231677
 30
0.0
  0
VERTEX
  5
22D
330
223
100
AcDbEntity
  8
001
370
    50
100
AcDbVertex
100
AcDb2dVertex
 10
94.101204
 20
50.081791
 30
0.0
  0
VERTEX
  5
22E
330
223
100
AcDbEntity
  8
001
370
    50
100
AcDbVertex
100
AcDb2dVertex
 10
94.279812
 20
49.927212
 30
0.0
  0
VERTEX
  5
22F
330
223
100
AcDbEntity
  8
001
370
    50
100
AcDbVertex
100
AcDb2dVertex
 10
94.454566
 20
49.768291
 30
0.0
  0
VERTEX
  5
230
330
223
100
AcDbEntity
  8
001
370
    50
100
AcDbVertex
100
AcDb2dVertex
 10
94.625098
 20
49.605284
 30
0.0
  0
VERTEX
  5
231
330
223
100
AcDbEntity
  8
001
370
    50
100
AcDbVertex
100
AcDb2dVertex
 10
94.791431
 20
49.437999
 30
0.0
  0
VERTEX
  5
232
330
223
100
AcDbEntity
  8
001
370
    50
100
AcDbVertex
100
AcDb2dVertex
 10
94.923456
 20
49.298819
 30
0.0
  0
VERTEX
  5
233
330
223
100
AcDbEntity
  8
001
370
    50
100
AcDbVertex
100
AcDb2dVertex
 10
95.052503
 20
49.156875
 30
0.0
  0
VERTEX
  5
234
330
223
100
AcDbEntity
  8
001
370
    50
100
AcDbVertex
100
AcDb2dVertex
 10
95.17846
 20
49.012304
 30
0.0
  0
VERTEX
  5
235
330
223
100
AcDbEntity
  8
001
370
    50
100
AcDbVertex
100
AcDb2dVertex
 10
95.301344
 20
48.865111
 30
0.0
  0
VERTEX
  5
236
330
223
100
AcDbEntity
  8
001
370
    50
100
AcDbVertex
100
AcDb2dVertex
 10
95.420428
 20
48.716235
 30
0.0
  0
VERTEX
  5
237
330
223
100
AcDbEntity
  8
001
370
    50
100
AcDbVertex
100
AcDb2dVertex
 10
95.536359
 20
48.56489
 30
0.0
  0
VERTEX
  5
238
330
223
100
AcDbEntity
  8
001
370
    50
100
AcDbVertex
100
AcDb2dVertex
 10
95.647819
 20
48.412829
 30
0.0
  0
VERTEX
  5
239
330
223
100
AcDbEntity
  8
001
370
    50
100
AcDbVertex
100
AcDb2dVertex
 10
95.755957
 20
48.258391
 30
0.0
  0
VERTEX
  5
23A
330
223
100
AcDbEntity
  8
001
370
    50
100
AcDbVertex
100
AcDb2dVertex
 10
95.858934
 20
48.104195
 30
0.0
  0
VERTEX
  5
23B
330
223
100
AcDbEntity
  8
001
370
    50
100
AcDbVertex
100
AcDb2dVertex
 10
95.958546
 20
47.947798
 30
0.0
  0
VERTEX
  5
23C
330
223
100
AcDbEntity
  8
001
370
    50
100
AcDbVertex
100
AcDb2dVertex
 10
96.030627
 20
47.829705
 30
0.0
  0
VERTEX
  5
23D
330
223
100
AcDbEntity
  8
001
370
    50
100
AcDbVertex
100
AcDb2dVertex
 10
96.1005
 20
47.710307
 30
0.0
  0
VERTEX
  5
23E
330
223
100
AcDbEntity
  8
001
370
    50
100
AcDbVertex
100
AcDb2dVertex
 10
96.166965
 20
47.59166
 30
0.0
  0
VERTEX
  5
23F
330
223
100
AcDbEntity
  8
001
370
    50
100
AcDbVertex
100
AcDb2dVertex
 10
96.232196
 20
47.472316
 30
0.0
  0
SEQEND
  5
224
330
223
100
AcDbEntity
  8
001
370
    50
  0
POLYLINE
  5
240
330
1F
100
AcDbEntity
  8
001
370
    50
100
AcDb2dPolyline
 66
     1
 10
0.0
 20
0.0
 30
0.0
  0
VERTEX
  5
242
330
240
100
AcDbEntity
  8
001
370
    50
100
AcDbVertex
100
AcDb2dVertex
 10
95.597458
 20
47.472316
 30
0.0
  0
VERTEX
  5
243
330
240
100
AcDbEntity
  8
001
370
    50
100
AcDbVertex
100
AcDb2dVertex
 10
95.193849
 20
48.091814
 30
0.0
  0
VERTEX
  5
244
330
240
100
AcDbEntity
  8
001
370
    50
100
AcDbVertex
100
AcDb2dVertex
 10
94.603126
 20
48.900192
 30
0.0
  0
VERTEX
  5
245
330
240
100
AcDbEntity
  8
001
370
    50
100
AcDbVertex
100
AcDb2dVertex
 10
94.030456
 20
49.556448
 30
0.0
  0
VERTEX
  5
246
330
240
100
AcDbEntity
  8
001
370
    50
100
AcDbVertex
100
AcDb2dVertex
 10
93.377309
 20
50.13276
 30
0.0
  0
VERTEX
  5
247
330
240
100
AcDbEntity
  8
001
370
    50
100
AcDbVertex
100
AcDb2dVertex
 10
92.573524
 20
50.726629
 30
0.0
  0
VERTEX
  5
248
330
240
100
AcDbEntity
  8
001
370
    50
100
AcDbVertex
100
AcDb2dVertex
 10
91.957255
 20
51.13257
 30
0.0
  0
SEQEND
  5
241
330
240
100
AcDbEntity
  8
001
370
    50
  0
POLYLINE
  5
249
330
1F
100
AcDbEntity
  8
001
370
    50
100
AcDb2dPolyline
 66
     1
 10
0.0
 20
0.0
 30
0.0
  0
VERTEX
  5
24B
330
249
100
AcDbEntity
  8
001
370
    50
100
AcDbVertex
100
AcDb2dVertex
 10
97.342304
 20
44.433507
 30
0.0
  0
VERTEX
  5
24C
330
249
100
AcDbEntity
  8
001
370
    50
100
AcDbVertex
100
AcDb2dVertex
 10
97.390463
 20
44.387009
 30
0.0
  0
VERTEX
  5
24D
330
249
100
AcDbEntity
  8
001
370
    50
100
AcDbVertex
100
AcDb2dVertex
 10
97.468027
 20
44.328108
 30
0.0
  0
VERTEX
  5
24E
330
249
100
AcDbEntity
  8
001
370
    50
100
AcDbVertex
100
AcDb2dVertex
 10
97.517648
 20
44.302928
 30
0.0
  0
VERTEX
  5
24F
330
249
100
AcDbEntity
  8
001
370
    50
100
AcDbVertex
100
AcDb2dVertex
 10
97.553885
 20
44.292824
 30
0.0
  0
SEQEND
  5
24A
330
249
100
AcDbEntity
  8
001
370
    50
  0
LINE
  5
250
330
1F
100
AcDbEntity
  8
001
370
    50
100
AcDbLine
 10
99.357424
 20
55.292824
 30
0.0
 11
87.031194
 21
55.292824
 31
0.0
  0
LINE
  5
251
330
1F
100
AcDbEntity
  8
001
370
    50
100
AcDbLine
 10
97.553885
 20
44.292824
 30
0.0
 11
99.357424
 21
44.292824
 31
0.0
  0
POLYLINE
  5
252
330
1F
100
AcDbEntity
  8
001
370
    50
100
AcDb2dPolyline
 66
     1
 10
0.0
 20
0.0
 30
0.0
  0
VERTEX
  5
254
330
252
100
AcDbEntity
  8
001
370
    50
100
AcDbVertex
100
AcDb2dVertex
 10
88.29792
 20
44.300234
 30
0.0
  0
VERTEX
  5
255
330
252
100
AcDbEntity
  8
001
370
    50
100
AcDbVertex
100
AcDb2dVertex
 10
90.146375
 20
44.314217
 30
0.0
  0
VERTEX
  5
256
330
252
100
AcDbEntity
  8
001
370
    50
100
AcDbVertex
100
AcDb2dVertex
 10
92.847828
 20
44.346093
 30
0.0
  0
VERTEX
  5
257
330
252
100
AcDbEntity
  8
001
370
    50
100
AcDbVertex
100
AcDb2dVertex
 10
95.516506
 20
44.393364
 30
0.0
  0
VERTEX
  5
258
330
252
100
AcDbEntity
  8
001
370
    50
100
AcDbVertex
100
AcDb2dVertex
 10
97.342304
 20
44.433507
 30
0.0
  0
SEQEND
  5
253
330
252
100
AcDbEntity
  8
001
370
    50
  0
POLYLINE
  5
259
330
1F
100
AcDbEntity
  8
001
370
    50
100
AcDb2dPolyline
 66
     1
 10
0.0
 20
0.0
 30
0.0
  0
VERTEX
  5
25B
330
259
100
AcDbEntity
  8
001
370
    50
100
AcDbVertex
100
AcDb2dVertex
 10
97.553885
 20
44.292824
 30
0.0
  0
VERTEX
  5
25C
330
259
100
AcDbEntity
  8
001
370
    50
100
AcDbVertex
100
AcDb2dVertex
 10
97.582558
 20
44.324623
 30
0.0
  0
VERTEX
  5
25D
330
259
100
AcDbEntity
  8
001
370
    50
100
AcDbVertex
100
AcDb2dVertex
 10
97.605627
 20
44.390979
 30
0.0
  0
VERTEX
  5
25E
330
259
100
AcDbEntity
  8
001
370
    50
100
AcDbVertex
100
AcDb2dVertex
 10
97.600602
 20
44.550315
 30
0.0
  0
VERTEX
  5
25F
330
259
100
AcDbEntity
  8
001
370
    50
100
AcDbVertex
100
AcDb2dVertex
 10
97.541558
 20
44.681941
 30
0.0
  0
VERTEX
  5
260
330
259
100
AcDbEntity
  8
001
370
    50
100
AcDbVertex
100
AcDb2dVertex
 10
97.447841
 20
44.913598
 30
0.0
  0
VERTEX
  5
261
330
259
100
AcDbEntity
  8
001
370
    50
100
AcDbVertex
100
AcDb2dVertex
 10
97.363966
 20
45.155325
 30
0.0
  0
VERTEX
  5
262
330
259
100
AcDbEntity
  8
001
370
    50
100
AcDbVertex
100
AcDb2dVertex
 10
97.227958
 20
45.481884
 30
0.0
  0
VERTEX
  5
263
330
259
100
AcDbEntity
  8
001
370
    50
100
AcDbVertex
100
AcDb2dVertex
 10
97.079187
 20
45.794234
 30
0.0
  0
VERTEX
  5
264
330
259
100
AcDbEntity
  8
001
370
    50
100
AcDbVertex
100
AcDb2dVertex
 10
96.897339
 20
46.170743
 30
0.0
  0
VERTEX
  5
265
330
259
100
AcDbEntity
  8
001
370
    50
100
AcDbVertex
100
AcDb2dVertex
 10
96.697388
 20
46.575864
 30
0.0
  0
VERTEX
  5
266
330
259
100
AcDbEntity
  8
001
370
    50
100
AcDbVertex
100
AcDb2dVertex
 10
96.430587
 20
47.095075
 30
0.0
  0
VERTEX
  5
267
330
259
100
AcDbEntity
  8
001
370
    50
100
AcDbVertex
100
AcDb2dVertex
 10
96.232196
 20
47.472316
 30
0.0
  0
SEQEND
  5
25A
330
259
100
AcDbEntity
  8
001
370
    50
  0
POLYLINE
  5
268
330
1F
100
AcDbEntity
  8
001
370
    50
100
AcDb2dPolyline
 66
     1
 10
0.0
 20
0.0
 30
0.0
  0
VERTEX
  5
26A
330
268
100
AcDbEntity
  8
001
370
    50
100
AcDbVertex
100
AcDb2dVertex
 10
92.588338
 20
51.13257
 30
0.0
  0
VERTEX
  5
26B
330
268
100
AcDbEntity
  8
001
370
    50
100
AcDbVertex
100
AcDb2dVertex
 10
91.699993
 20
51.632591
 30
0.0
  0
VERTEX
  5
26C
330
268
100
AcDbEntity
  8
001
370
    50
100
AcDbVertex
100
AcDb2dVertex
 10
90.504203
 20
52.302677
 30
0.0
  0
VERTEX
  5
26D
330
268
100
AcDbEntity
  8
001
370
    50
100
AcDbVertex
100
AcDb2dVertex
 10
89.57001
 20
52.822224
 30
0.0
  0
VERTEX
  5
26E
330
268
100
AcDbEntity
  8
001
370
    50
100
AcDbVertex
100
AcDb2dVertex
 10
88.619357
 20
53.343093
 30
0.0
  0
VERTEX
  5
26F
330
268
100
AcDbEntity
  8
001
370
    50
100
AcDbVertex
100
AcDb2dVertex
 10
87.703745
 20
53.838944
 30
0.0
  0
VERTEX
  5
270
330
268
100
AcDbEntity
  8
001
370
    50
100
AcDbVertex
100
AcDb2dVertex
 10
87.031194
 20
54.200058
 30
0.0
  0
SEQEND
  5
269
330
268
100
AcDbEntity
  8
001
370
    50
  0
LINE
  5
271
330
1F
100
AcDbEntity
  8
001
370
    50
100
AcDbLine
 10
91.957255
 20
51.13257
 30
0.0
 11
86.199533
 21
54.475103
 31
0.0
  0
LINE
  5
272
330
1F
100
AcDbEntity
  8
001
  6
DASHED
370
    50
100
AcDbLine
 10
86.199533
 20
54.475103
 30
0.0
 11
86.201758
 21
54.477739
 31
0.0
  0
LINE
  5
273
330
1F
100
AcDbEntity
  8
001
370
    50
100
AcDbLine
 10
97.342304
 20
44.433507
 30
0.0
 11
95.597458
 21
47.472316
 31
0.0
  0
POLYLINE
  5
274
330
1F
100
AcDbEntity
  8
001
370
    50
100
AcDb2dPolyline
 66
     1
 10
0.0
 20
0.0
 30
0.0
  0
VERTEX
  5
276
330
274
100
AcDbEntity
  8
001
370
    50
100
AcDbVertex
100
AcDb2dVertex
 10
86.201758
 20
54.477739
 30
0.0
  0
VERTEX
  5
277
330
274
100
AcDbEntity
  8
001
370
    50
100
AcDbVertex
100
AcDb2dVertex
 10
86.213158
 20
54.482689
 30
0.0
  0
VERTEX
  5
278
330
274
100
AcDbEntity
  8
001
370
    50
100
AcDbVertex
100
AcDb2dVertex
 10
86.224778
 20
54.486392
 30
0.0
  0
VERTEX
  5
279
330
274
100
AcDbEntity
  8
001
370
    50
100
AcDbVertex
100
AcDb2dVertex
 10
86.2495
 20
54.48751
 30
0.0
  0
VERTEX
  5
27A
330
274
100
AcDbEntity
  8
001
370
    50
100
AcDbVertex
100
AcDb2dVertex
 10
86.274742
 20
54.48348
 30
0.0
  0
VERTEX
  5
27B
330
274
100
AcDbEntity
  8
001
370
    50
100
AcDbVertex
100
AcDb2dVertex
 10
86.301625
 20
54.478097
 30
0.0
  0
VERTEX
  5
27C
330
274
100
AcDbEntity
  8
001
370
    50
100
AcDbVertex
100
AcDb2dVertex
 10
86.328017
 20
54.472173
 30
0.0
  0
VERTEX
  5
27D
330
274
100
AcDbEntity
  8
001
370
    50
100
AcDbVertex
100
AcDb2dVertex
 10
86.361082
 20
54.463351
 30
0.0
  0
VERTEX
  5
27E
330
274
100
AcDbEntity
  8
001
370
    50
100
AcDbVertex
100
AcDb2dVertex
 10
86.393987
 20
54.453413
 30
0.0
  0
VERTEX
  5
27F
330
274
100
AcDbEntity
  8
001
370
    50
100
AcDbVertex
100
AcDb2dVertex
 10
86.433425
 20
54.440686
 30
0.0
  0
VERTEX
  5
280
330
274
100
AcDbEntity
  8
001
370
    50
100
AcDbVertex
100
AcDb2dVertex
 10
86.472601
 20
54.427349
 30
0.0
  0
VERTEX
  5
281
330
274
100
AcDbEntity
  8
001
370
    50
100
AcDbVertex
100
AcDb2dVertex
 10
86.51767
 20
54.411246
 30
0.0
  0
VERTEX
  5
282
330
274
100
AcDbEntity
  8
001
370
    50
100
AcDbVertex
100
AcDb2dVertex
 10
86.562545
 20
54.394557
 30
0.0
  0
VERTEX
  5
283
330
274
100
AcDbEntity
  8
001
370
    50
100
AcDbVertex
100
AcDb2dVertex
 10
86.613941
 20
54.374833
 30
0.0
  0
VERTEX
  5
284
330
274
100
AcDbEntity
  8
001
370
    50
100
AcDbVertex
100
AcDb2dVertex
 10
86.665147
 20
54.354638
 30
0.0
  0
VERTEX
  5
285
330
274
100
AcDbEntity
  8
001
370
    50
100
AcDbVertex
100
AcDb2dVertex
 10
86.72155
 20
54.331865
 30
0.0
  0
VERTEX
  5
286
330
274
100
AcDbEntity
  8
001
370
    50
100
AcDbVertex
100
AcDb2dVertex
 10
86.777793
 20
54.308695
 30
0.0
  0
VERTEX
  5
287
330
274
100
AcDbEntity
  8
001
370
    50
100
AcDbVertex
100
AcDb2dVertex
 10
86.839105
 20
54.282999
 30
0.0
  0
VERTEX
  5
288
330
274
100
AcDbEntity
  8
001
370
    50
100
AcDbVertex
100
AcDb2dVertex
 10
86.900262
 20
54.256939
 30
0.0
  0
VERTEX
  5
289
330
274
100
AcDbEntity
  8
001
370
    50
100
AcDbVertex
100
AcDb2dVertex
 10
86.965772
 20
54.2286
 30
0.0
  0
VERTEX
  5
28A
330
274
100
AcDbEntity
  8
001
370
    50
100
AcDbVertex
100
AcDb2dVertex
 10
87.031194
 20
54.200058
 30
0.0
  0
SEQEND
  5
275
330
274
100
AcDbEntity
  8
001
370
    50
  0
LINE
  5
28B
330
1F
100
AcDbEntity
  8
001
370
    50
100
AcDbLine
 10
87.031194
 20
55.292824
 30
0.0
 11
86.202113
 21
54.478088
 31
0.0
  0
LINE
  5
28C
330
1F
100
AcDbEntity
  8
001
370
    50
100
AcDbLine
 10
85.657424
 20
53.942817
 30
0.0
 11
86.199533
 21
54.475103
 31
0.0
  0
LINE
  5
28D
330
1F
100
AcDbEntity
  8
001
370
    50
100
AcDbLine
 10
80.857424
 20
52.14088
 30
0.0
 11
81.357424
 21
52.671139
 31
0.0
  0
POLYLINE
  5
28E
330
1F
100
AcDbEntity
  8
001
370
    50
100
AcDb2dPolyline
 66
     1
 10
0.0
 20
0.0
 30
0.0
  0
VERTEX
  5
290
330
28E
100
AcDbEntity
  8
001
370
    50
100
AcDbVertex
100
AcDb2dVertex
 10
85.582464
 20
53.942824
 30
0.0
  0
VERTEX
  5
291
330
28E
100
AcDbEntity
  8
001
370
    50
100
AcDbVertex
100
AcDb2dVertex
 10
84.723013
 20
53.941709
 30
0.0
  0
VERTEX
  5
292
330
28E
100
AcDbEntity
  8
001
370
    50
100
AcDbVertex
100
AcDb2dVertex
 10
83.466905
 20
53.936863
 30
0.0
  0
VERTEX
  5
293
330
28E
100
AcDbEntity
  8
001
370
    50
100
AcDbVertex
100
AcDb2dVertex
 10
82.214391
 20
53.927561
 30
0.0
  0
VERTEX
  5
294
330
28E
100
AcDbEntity
  8
001
370
    50
100
AcDbVertex
100
AcDb2dVertex
 10
81.357424
 20
53.918997
 30
0.0
  0
SEQEND
  5
28F
330
28E
100
AcDbEntity
  8
001
370
    50
  0
LINE
  5
295
330
1F
100
AcDbEntity
  8
001
370
    50
100
AcDbLine
 10
81.357424
 20
52.705193
 30
0.0
 11
80.857424
 21
52.192824
 31
0.0
  0
POLYLINE
  5
296
330
1F
100
AcDbEntity
  8
001
370
    50
100
AcDb2dPolyline
 66
     1
 10
0.0
 20
0.0
 30
0.0
  0
VERTEX
  5
298
330
296
100
AcDbEntity
  8
001
370
    50
100
AcDbVertex
100
AcDb2dVertex
 10
85.657424
 20
53.942817
 30
0.0
  0
VERTEX
  5
299
330
296
100
AcDbEntity
  8
001
370
    50
100
AcDbVertex
100
AcDb2dVertex
 10
85.642198
 20
53.942819
 30
0.0
  0
VERTEX
  5
29A
330
296
100
AcDbEntity
  8
001
370
    50
100
AcDbVertex
100
AcDb2dVertex
 10
85.619944
 20
53.942822
 30
0.0
  0
VERTEX
  5
29B
330
296
100
AcDbEntity
  8
001
370
    50
100
AcDbVertex
100
AcDb2dVertex
 10
85.59769
 20
53.942824
 30
0.0
  0
VERTEX
  5
29C
330
296
100
AcDbEntity
  8
001
370
    50
100
AcDbVertex
100
AcDb2dVertex
 10
85.582464
 20
53.942824
 30
0.0
  0
SEQEND
  5
297
330
296
100
AcDbEntity
  8
001
370
    50
  0
LINE
  5
29D
330
1F
100
AcDbEntity
  8
001
370
    50
100
AcDbLine
 10
85.582464
 20
53.942824
 30
0.0
 11
81.357424
 21
53.942824
 31
0.0
  0
POLYLINE
  5
29E
330
1F
100
AcDbEntity
  8
001
370
    50
100
AcDb2dPolyline
 66
     1
 10
0.0
 20
0.0
 30
0.0
  0
VERTEX
  5
2A0
330
29E
100
AcDbEntity
  8
001
370
    50
100
AcDbVertex
100
AcDb2dVertex
 10
87.598771
 20
51.931024
 30
0.0
  0
VERTEX
  5
2A1
330
29E
100
AcDbEntity
  8
001
370
    50
100
AcDbVertex
100
AcDb2dVertex
 10
87.485693
 20
51.924933
 30
0.0
  0
VERTEX
  5
2A2
330
29E
100
AcDbEntity
  8
001
370
    50
100
AcDbVertex
100
AcDb2dVertex
 10
87.33096
 20
51.906654
 30
0.0
  0
VERTEX
  5
2A3
330
29E
100
AcDbEntity
  8
001
370
    50
100
AcDbVertex
100
AcDb2dVertex
 10
87.193987
 20
51.876274
 30
0.0
  0
VERTEX
  5
2A4
330
29E
100
AcDbEntity
  8
001
370
    50
100
AcDbVertex
100
AcDb2dVertex
 10
87.071852
 20
51.834337
 30
0.0
  0
VERTEX
  5
2A5
330
29E
100
AcDbEntity
  8
001
370
    50
100
AcDbVertex
100
AcDb2dVertex
 10
86.949916
 20
51.781221
 30
0.0
  0
VERTEX
  5
2A6
330
29E
100
AcDbEntity
  8
001
370
    50
100
AcDbVertex
100
AcDb2dVertex
 10
86.829864
 20
51.716423
 30
0.0
  0
VERTEX
  5
2A7
330
29E
100
AcDbEntity
  8
001
370
    50
100
AcDbVertex
100
AcDb2dVertex
 10
86.716625
 20
51.640129
 30
0.0
  0
VERTEX
  5
2A8
330
29E
100
AcDbEntity
  8
001
370
    50
100
AcDbVertex
100
AcDb2dVertex
 10
86.61286
 20
51.556742
 30
0.0
  0
VERTEX
  5
2A9
330
29E
100
AcDbEntity
  8
001
370
    50
100
AcDbVertex
100
AcDb2dVertex
 10
86.518735
 20
51.46786
 30
0.0
  0
VERTEX
  5
2AA
330
29E
100
AcDbEntity
  8
001
370
    50
100
AcDbVertex
100
AcDb2dVertex
 10
86.427891
 20
51.360483
 30
0.0
  0
VERTEX
  5
2AB
330
29E
100
AcDbEntity
  8
001
370
    50
100
AcDbVertex
100
AcDb2dVertex
 10
86.339301
 20
51.231592
 30
0.0
  0
VERTEX
  5
2AC
330
29E
100
AcDbEntity
  8
001
370
    50
100
AcDbVertex
100
AcDb2dVertex
 10
86.280967
 20
51.134024
 30
0.0
  0
SEQEND
  5
29F
330
29E
100
AcDbEntity
  8
001
370
    50
  0
LINE
  5
2AD
330
1F
100
AcDbEntity
  8
001
370
    50
100
AcDbLine
 10
87.031194
 20
54.200058
 30
0.0
 11
87.031194
 21
55.292824
 31
0.0
  0
LINE
  5
2AE
330
1F
100
AcDbEntity
  8
001
370
    50
100
AcDbLine
 10
80.857424
 20
51.134024
 30
0.0
 11
80.857424
 21
52.192824
 31
0.0
  0
LINE
  5
2AF
330
1F
100
AcDbEntity
  8
001
370
    50
100
AcDbLine
 10
81.357424
 20
52.671139
 30
0.0
 11
81.357424
 21
53.942824
 31
0.0
  0
LINE
  5
2B0
330
1F
100
AcDbEntity
  8
001
370
    50
100
AcDbLine
 10
88.29792
 20
44.417812
 30
0.0
 11
88.29792
 21
44.300234
 31
0.0
  0
POLYLINE
  5
2B1
330
1F
100
AcDbEntity
  8
001
370
    50
100
AcDb2dPolyline
 66
     1
 10
0.0
 20
0.0
 30
0.0
  0
VERTEX
  5
2B3
330
2B1
100
AcDbEntity
  8
001
370
    50
100
AcDbVertex
100
AcDb2dVertex
 10
88.249286
 20
44.347498
 30
0.0
  0
VERTEX
  5
2B4
330
2B1
100
AcDbEntity
  8
001
370
    50
100
AcDbVertex
100
AcDb2dVertex
 10
88.27633
 20
44.317173
 30
0.0
  0
VERTEX
  5
2B5
330
2B1
100
AcDbEntity
  8
001
370
    50
100
AcDbVertex
100
AcDb2dVertex
 10
88.29792
 20
44.300234
 30
0.0
  0
SEQEND
  5
2B2
330
2B1
100
AcDbEntity
  8
001
370
    50
  0
POLYLINE
  5
2B6
330
1F
100
AcDbEntity
  8
001
370
    50
100
AcDb2dPolyline
 66
     1
 10
0.0
 20
0.0
 30
0.0
  0
VERTEX
  5
2B8
330
2B6
100
AcDbEntity
  8
001
370
    50
100
AcDbVertex
100
AcDb2dVertex
 10
88.313599
 20
49.210998
 30
0.0
  0
VERTEX
  5
2B9
330
2B6
100
AcDbEntity
  8
001
370
    50
100
AcDbVertex
100
AcDb2dVertex
 10
88.34701
 20
49.234762
 30
0.0
  0
VERTEX
  5
2BA
330
2B6
100
AcDbEntity
  8
001
370
    50
100
AcDbVertex
100
AcDb2dVertex
 10
88.379201
 20
49.258782
 30
0.0
  0
VERTEX
  5
2BB
330
2B6
100
AcDbEntity
  8
001
370
    50
100
AcDbVertex
100
AcDb2dVertex
 10
88.488665
 20
49.35355
 30
0.0
  0
VERTEX
  5
2BC
330
2B6
100
AcDbEntity
  8
001
370
    50
100
AcDbVertex
100
AcDb2dVertex
 10
88.578701
 20
49.452023
 30
0.0
  0
VERTEX
  5
2BD
330
2B6
100
AcDbEntity
  8
001
370
    50
100
AcDbVertex
100
AcDb2dVertex
 10
88.66283
 20
49.561049
 30
0.0
  0
VERTEX
  5
2BE
330
2B6
100
AcDbEntity
  8
001
370
    50
100
AcDbVertex
100
AcDb2dVertex
 10
88.739229
 20
49.67902
 30
0.0
  0
VERTEX
  5
2BF
330
2B6
100
AcDbEntity
  8
001
370
    50
100
AcDbVertex
100
AcDb2dVertex
 10
88.803474
 20
49.802997
 30
0.0
  0
VERTEX
  5
2C0
330
2B6
100
AcDbEntity
  8
001
370
    50
100
AcDbVertex
100
AcDb2dVertex
 10
88.85525
 20
49.931948
 30
0.0
  0
VERTEX
  5
2C1
330
2B6
100
AcDbEntity
  8
001
370
    50
100
AcDbVertex
100
AcDb2dVertex
 10
88.895156
 20
50.0654
 30
0.0
  0
VERTEX
  5
2C2
330
2B6
100
AcDbEntity
  8
001
370
    50
100
AcDbVertex
100
AcDb2dVertex
 10
88.922764
 20
50.202083
 30
0.0
  0
VERTEX
  5
2C3
330
2B6
100
AcDbEntity
  8
001
370
    50
100
AcDbVertex
100
AcDb2dVertex
 10
88.937558
 20
50.340727
 30
0.0
  0
VERTEX
  5
2C4
330
2B6
100
AcDbEntity
  8
001
370
    50
100
AcDbVertex
100
AcDb2dVertex
 10
88.939443
 20
50.480113
 30
0.0
  0
VERTEX
  5
2C5
330
2B6
100
AcDbEntity
  8
001
370
    50
100
AcDbVertex
100
AcDb2dVertex
 10
88.928462
 20
50.619081
 30
0.0
  0
VERTEX
  5
2C6
330
2B6
100
AcDbEntity
  8
001
370
    50
100
AcDbVertex
100
AcDb2dVertex
 10
88.904712
 20
50.75645
 30
0.0
  0
VERTEX
  5
2C7
330
2B6
100
AcDbEntity
  8
001
370
    50
100
AcDbVertex
100
AcDb2dVertex
 10
88.868369
 20
50.890976
 30
0.0
  0
VERTEX
  5
2C8
330
2B6
100
AcDbEntity
  8
001
370
    50
100
AcDbVertex
100
AcDb2dVertex
 10
88.819768
 20
51.021566
 30
0.0
  0
VERTEX
  5
2C9
330
2B6
100
AcDbEntity
  8
001
370
    50
100
AcDbVertex
100
AcDb2dVertex
 10
88.759356
 20
51.147006
 30
0.0
  0
VERTEX
  5
2CA
330
2B6
100
AcDbEntity
  8
001
370
    50
100
AcDbVertex
100
AcDb2dVertex
 10
88.68754
 20
51.26632
 30
0.0
  0
VERTEX
  5
2CB
330
2B6
100
AcDbEntity
  8
001
370
    50
100
AcDbVertex
100
AcDb2dVertex
 10
88.604964
 20
51.378364
 30
0.0
  0
VERTEX
  5
2CC
330
2B6
100
AcDbEntity
  8
001
370
    50
100
AcDbVertex
100
AcDb2dVertex
 10
88.512587
 20
51.482272
 30
0.0
  0
VERTEX
  5
2CD
330
2B6
100
AcDbEntity
  8
001
370
    50
100
AcDbVertex
100
AcDb2dVertex
 10
88.41137
 20
51.577027
 30
0.0
  0
VERTEX
  5
2CE
330
2B6
100
AcDbEntity
  8
001
370
    50
100
AcDbVertex
100
AcDb2dVertex
 10
88.300943
 20
51.661977
 30
0.0
  0
VERTEX
  5
2CF
330
2B6
100
AcDbEntity
  8
001
370
    50
100
AcDbVertex
100
AcDb2dVertex
 10
88.182041
 20
51.736305
 30
0.0
  0
VERTEX
  5
2D0
330
2B6
100
AcDbEntity
  8
001
370
    50
100
AcDbVertex
100
AcDb2dVertex
 10
88.059904
 20
51.799237
 30
0.0
  0
VERTEX
  5
2D1
330
2B6
100
AcDbEntity
  8
001
370
    50
100
AcDbVertex
100
AcDb2dVertex
 10
87.936843
 20
51.850098
 30
0.0
  0
VERTEX
  5
2D2
330
2B6
100
AcDbEntity
  8
001
370
    50
100
AcDbVertex
100
AcDb2dVertex
 10
87.797782
 20
51.889319
 30
0.0
  0
VERTEX
  5
2D3
330
2B6
100
AcDbEntity
  8
001
370
    50
100
AcDbVertex
100
AcDb2dVertex
 10
87.639638
 20
51.916741
 30
0.0
  0
VERTEX
  5
2D4
330
2B6
100
AcDbEntity
  8
001
370
    50
100
AcDbVertex
100
AcDb2dVertex
 10
87.523615
 20
51.929119
 30
0.0
  0
SEQEND
  5
2B7
330
2B6
100
AcDbEntity
  8
001
370
    50
  0
POLYLINE
  5
2D5
330
1F
100
AcDbEntity
  8
001
370
    50
100
AcDb2dPolyline
 66
     1
 10
0.0
 20
0.0
 30
0.0
  0
VERTEX
  5
2D7
330
2D5
100
AcDbEntity
  8
001
370
    50
100
AcDbVertex
100
AcDb2dVertex
 10
88.313599
 20
49.114674
 30
0.0
  0
VERTEX
  5
2D8
330
2D5
100
AcDbEntity
  8
001
370
    50
100
AcDbVertex
100
AcDb2dVertex
 10
88.407172
 20
49.172493
 30
0.0
  0
VERTEX
  5
2D9
330
2D5
100
AcDbEntity
  8
001
370
    50
100
AcDbVertex
100
AcDb2dVertex
 10
88.518939
 20
49.250373
 30
0.0
  0
VERTEX
  5
2DA
330
2D5
100
AcDbEntity
  8
001
370
    50
100
AcDbVertex
100
AcDb2dVertex
 10
88.624062
 20
49.339404
 30
0.0
  0
VERTEX
  5
2DB
330
2D5
100
AcDbEntity
  8
001
370
    50
100
AcDbVertex
100
AcDb2dVertex
 10
88.711231
 20
49.431643
 30
0.0
  0
VERTEX
  5
2DC
330
2D5
100
AcDbEntity
  8
001
370
    50
100
AcDbVertex
100
AcDb2dVertex
 10
88.79337
 20
49.533689
 30
0.0
  0
VERTEX
  5
2DD
330
2D5
100
AcDbEntity
  8
001
370
    50
100
AcDbVertex
100
AcDb2dVertex
 10
88.868793
 20
49.644114
 30
0.0
  0
VERTEX
  5
2DE
330
2D5
100
AcDbEntity
  8
001
370
    50
100
AcDbVertex
100
AcDb2dVertex
 10
88.933331
 20
49.760224
 30
0.0
  0
VERTEX
  5
2DF
330
2D5
100
AcDbEntity
  8
001
370
    50
100
AcDbVertex
100
AcDb2dVertex
 10
88.986705
 20
49.881151
 30
0.0
  0
VERTEX
  5
2E0
330
2D5
100
AcDbEntity
  8
001
370
    50
100
AcDbVertex
100
AcDb2dVertex
 10
89.029496
 20
50.00656
 30
0.0
  0
VERTEX
  5
2E1
330
2D5
100
AcDbEntity
  8
001
370
    50
100
AcDbVertex
100
AcDb2dVertex
 10
89.061287
 20
50.135356
 30
0.0
  0
VERTEX
  5
2E2
330
2D5
100
AcDbEntity
  8
001
370
    50
100
AcDbVertex
100
AcDb2dVertex
 10
89.081569
 20
50.26645
 30
0.0
  0
VERTEX
  5
2E3
330
2D5
100
AcDbEntity
  8
001
370
    50
100
AcDbVertex
100
AcDb2dVertex
 10
89.09021
 20
50.39879
 30
0.0
  0
VERTEX
  5
2E4
330
2D5
100
AcDbEntity
  8
001
370
    50
100
AcDbVertex
100
AcDb2dVertex
 10
89.087199
 20
50.531395
 30
0.0
  0
VERTEX
  5
2E5
330
2D5
100
AcDbEntity
  8
001
370
    50
100
AcDbVertex
100
AcDb2dVertex
 10
89.072571
 20
50.663231
 30
0.0
  0
VERTEX
  5
2E6
330
2D5
100
AcDbEntity
  8
001
370
    50
100
AcDbVertex
100
AcDb2dVertex
 10
89.04641
 20
50.793229
 30
0.0
  0
VERTEX
  5
2E7
330
2D5
100
AcDbEntity
  8
001
370
    50
100
AcDbVertex
100
AcDb2dVertex
 10
89.008921
 20
50.920423
 30
0.0
  0
VERTEX
  5
2E8
330
2D5
100
AcDbEntity
  8
001
370
    50
100
AcDbVertex
100
AcDb2dVertex
 10
88.960406
 20
51.043752
 30
0.0
  0
VERTEX
  5
2E9
330
2D5
100
AcDbEntity
  8
001
370
    50
100
AcDbVertex
100
AcDb2dVertex
 10
88.901247
 20
51.162336
 30
0.0
  0
VERTEX
  5
2EA
330
2D5
100
AcDbEntity
  8
001
370
    50
100
AcDbVertex
100
AcDb2dVertex
 10
88.831943
 20
51.275151
 30
0.0
  0
VERTEX
  5
2EB
330
2D5
100
AcDbEntity
  8
001
370
    50
100
AcDbVertex
100
AcDb2dVertex
 10
88.75291
 20
51.381418
 30
0.0
  0
VERTEX
  5
2EC
330
2D5
100
AcDbEntity
  8
001
370
    50
100
AcDbVertex
100
AcDb2dVertex
 10
88.664806
 20
51.4802
 30
0.0
  0
VERTEX
  5
2ED
330
2D5
100
AcDbEntity
  8
001
370
    50
100
AcDbVertex
100
AcDb2dVertex
 10
88.568542
 20
51.570829
 30
0.0
  0
VERTEX
  5
2EE
330
2D5
100
AcDbEntity
  8
001
370
    50
100
AcDbVertex
100
AcDb2dVertex
 10
88.465032
 20
51.652498
 30
0.0
  0
VERTEX
  5
2EF
330
2D5
100
AcDbEntity
  8
001
370
    50
100
AcDbVertex
100
AcDb2dVertex
 10
88.353898
 20
51.724656
 30
0.0
  0
VERTEX
  5
2F0
330
2D5
100
AcDbEntity
  8
001
370
    50
100
AcDbVertex
100
AcDb2dVertex
 10
88.2358
 20
51.786663
 30
0.0
  0
VERTEX
  5
2F1
330
2D5
100
AcDbEntity
  8
001
370
    50
100
AcDbVertex
100
AcDb2dVertex
 10
88.11568
 20
51.838097
 30
0.0
  0
VERTEX
  5
2F2
330
2D5
100
AcDbEntity
  8
001
370
    50
100
AcDbVertex
100
AcDb2dVertex
 10
87.995662
 20
51.878505
 30
0.0
  0
VERTEX
  5
2F3
330
2D5
100
AcDbEntity
  8
001
370
    50
100
AcDbVertex
100
AcDb2dVertex
 10
87.861324
 20
51.907609
 30
0.0
  0
VERTEX
  5
2F4
330
2D5
100
AcDbEntity
  8
001
370
    50
100
AcDbVertex
100
AcDb2dVertex
 10
87.709624
 20
51.925154
 30
0.0
  0
VERTEX
  5
2F5
330
2D5
100
AcDbEntity
  8
001
370
    50
100
AcDbVertex
100
AcDb2dVertex
 10
87.598771
 20
51.931024
 30
0.0
  0
SEQEND
  5
2D6
330
2D5
100
AcDbEntity
  8
001
370
    50
  0
CIRCLE
  5
2F6
330
1F
100
AcDbEntity
  8
001
370
    50
100
AcDbCircle
 10
84.316883
 20
48.444323
 30
0.0
 40
1.25
  0
LINE
  5
2F7
330
1F
100
AcDbEntity
  8
001
370
    50
100
AcDbLine
 10
84.619992
 20
48.969323
 30
0.0
 11
84.490088
 21
49.194323
 31
0.0
  0
LINE
  5
2F8
330
1F
100
AcDbEntity
  8
001
370
    50
100
AcDbLine
 10
84.013774
 20
48.969323
 30
0.0
 11
84.143678
 21
49.194323
 31
0.0
  0
ARC
  5
2F9
330
1F
100
AcDbEntity
  8
001
370
    50
100
AcDbCircle
 10
84.316883
 20
49.094323
 30
0.0
 40
0.2
100
AcDbArc
 50
30.0
 51
150.0
  0
LINE
  5
2FA
330
1F
100
AcDbEntity
  8
001
370
    50
100
AcDbLine
 10
84.013774
 20
48.969323
 30
0.0
 11
83.753967
 21
48.969323
 31
0.0
  0
LINE
  5
2FB
330
1F
100
AcDbEntity
  8
001
370
    50
100
AcDbLine
 10
83.710666
 20
48.444323
 30
0.0
 11
83.580762
 21
48.669323
 31
0.0
  0
ARC
  5
2FC
330
1F
100
AcDbEntity
  8
001
370
    50
100
AcDbCircle
 10
83.753967
 20
48.769323
 30
0.0
 40
0.2
100
AcDbArc
 50
90.0
 51
210.0
  0
LINE
  5
2FD
330
1F
100
AcDbEntity
  8
001
370
    50
100
AcDbLine
 10
83.710666
 20
48.444323
 30
0.0
 11
83.580762
 21
48.219323
 31
0.0
  0
LINE
  5
2FE
330
1F
100
AcDbEntity
  8
001
370
    50
100
AcDbLine
 10
84.013774
 20
47.919323
 30
0.0
 11
83.753967
 21
47.919323
 31
0.0
  0
ARC
  5
2FF
330
1F
100
AcDbEntity
  8
001
370
    50
100
AcDbCircle
 10
83.753967
 20
48.119323
 30
0.0
 40
0.2
100
AcDbArc
 50
150.0
 51
270.0
  0
LINE
  5
300
330
1F
100
AcDbEntity
  8
001
370
    50
100
AcDbLine
 10
84.013774
 20
47.919323
 30
0.0
 11
84.143678
 21
47.694323
 31
0.0
  0
LINE
  5
301
330
1F
100
AcDbEntity
  8
001
370
    50
100
AcDbLine
 10
84.619992
 20
47.919323
 30
0.0
 11
84.490088
 21
47.694323
 31
0.0
  0
ARC
  5
302
330
1F
100
AcDbEntity
  8
001
370
    50
100
AcDbCircle
 10
84.316883
 20
47.794323
 30
0.0
 40
0.2
100
AcDbArc
 50
210.0
 51
330.0
  0
LINE
  5
303
330
1F
100
AcDbEntity
  8
001
370
    50
100
AcDbLine
 10
84.619992
 20
47.919323
 30
0.0
 11
84.8798
 21
47.919323
 31
0.0
  0
LINE
  5
304
330
1F
100
AcDbEntity
  8
001
370
    50
100
AcDbLine
 10
84.923101
 20
48.444323
 30
0.0
 11
85.053005
 21
48.219323
 31
0.0
  0
ARC
  5
305
330
1F
100
AcDbEntity
  8
001
370
    50
100
AcDbCircle
 10
84.8798
 20
48.119323
 30
0.0
 40
0.2
100
AcDbArc
 50
270.0
 51
30.0
  0
LINE
  5
306
330
1F
100
AcDbEntity
  8
001
370
    50
100
AcDbLine
 10
84.923101
 20
48.444323
 30
0.0
 11
85.053005
 21
48.669323
 31
0.0
  0
LINE
  5
307
330
1F
100
AcDbEntity
  8
001
370
    50
100
AcDbLine
 10
84.619992
 20
48.969323
 30
0.0
 11
84.8798
 21
48.969323
 31
0.0
  0
ARC
  5
308
330
1F
100
AcDbEntity
  8
001
370
    50
100
AcDbCircle
 10
84.8798
 20
48.769323
 30
0.0
 40
0.2
100
AcDbArc
 50
330.0
 51
90.0
  0
ARC
  5
309
330
1F
100
AcDbEntity
  8
001
370
    50
100
AcDbCircle
 10
156.357424
 20
52.792824
 30
0.0
 40
3.0
100
AcDbArc
 50
0.0
 51
90.0
  0
ARC
  5
30A
330
1F
100
AcDbEntity
  8
001
370
    50
100
AcDbCircle
 10
156.357424
 20
46.792824
 30
0.0
 40
3.0
100
AcDbArc
 50
270.0
 51
0.0
  0
LINE
  5
30B
330
1F
100
AcDbEntity
  8
001
370
    50
100
AcDbLine
 10
159.357424
 20
49.792824
 30
0.0
 11
161.9555
 21
48.292824
 31
0.0
  0
LINE
  5
30C
330
1F
100
AcDbEntity
  8
001
370
    50
100
AcDbLine
 10
159.357424
 20
49.792824
 30
0.0
 11
161.9555
 21
51.292824
 31
0.0
  0
LINE
  5
30D
330
1F
100
AcDbEntity
  8
001
370
    50
100
AcDbLine
 10
156.357424
 20
55.792824
 30
0.0
 11
99.857424
 21
55.792824
 31
0.0
  0
LINE
  5
30E
330
1F
100
AcDbEntity
  8
001
370
    50
100
AcDbLine
 10
156.357424
 20
43.792824
 30
0.0
 11
99.857424
 21
43.792824
 31
0.0
  0
LINE
  5
30F
330
1F
100
AcDbEntity
  8
001
  6
CENTER
370
     9
100
AcDbLine
 10
80.061334
 20
49.792824
 30
0.0
 11
161.687754
 21
49.792824
 31
0.0
  0
TEXT
  5
310
330
1F
100
AcDbEntity
  8
001
370
    30
100
AcDbText
 10
34.736252
 20
2.866101
 30
0.0
 40
1.333333
  1
加工形状
 41
0.833333
100
AcDbText
  0
POLYLINE
  5
311
330
1F
100
AcDbEntity
  8
001
370
    50
100
AcDb2dPolyline
 66
     1
 10
0.0
 20
0.0
 30
0.0
  0
VERTEX
  5
313
330
311
100
AcDbEntity
  8
001
370
    50
100
AcDbVertex
100
AcDb2dVertex
 10
80.907395
 20
45.245631
 30
0.0
  0
VERTEX
  5
314
330
311
100
AcDbEntity
  8
001
370
    50
100
AcDbVertex
100
AcDb2dVertex
 10
80.908386
 20
45.228884
 30
0.0
  0
VERTEX
  5
315
330
311
100
AcDbEntity
  8
001
370
    50
100
AcDbVertex
100
AcDb2dVertex
 10
80.911274
 20
45.206221
 30
0.0
  0
VERTEX
  5
316
330
311
100
AcDbEntity
  8
001
370
    50
100
AcDbVertex
100
AcDb2dVertex
 10
80.916089
 20
45.186052
 30
0.0
  0
VERTEX
  5
317
330
311
100
AcDbEntity
  8
001
370
    50
100
AcDbVertex
100
AcDb2dVertex
 10
80.922763
 20
45.168139
 30
0.0
  0
VERTEX
  5
318
330
311
100
AcDbEntity
  8
001
370
    50
100
AcDbVertex
100
AcDb2dVertex
 10
80.931228
 20
45.150361
 30
0.0
  0
VERTEX
  5
319
330
311
100
AcDbEntity
  8
001
370
    50
100
AcDbVertex
100
AcDb2dVertex
 10
80.941419
 20
45.133043
 30
0.0
  0
VERTEX
  5
31A
330
311
100
AcDbEntity
  8
001
370
    50
100
AcDbVertex
100
AcDb2dVertex
 10
80.953235
 20
45.116986
 30
0.0
  0
VERTEX
  5
31B
330
311
100
AcDbEntity
  8
001
370
    50
100
AcDbVertex
100
AcDb2dVertex
 10
80.966526
 20
45.102281
 30
0.0
  0
VERTEX
  5
31C
330
311
100
AcDbEntity
  8
001
370
    50
100
AcDbVertex
100
AcDb2dVertex
 10
80.981142
 20
45.088923
 30
0.0
  0
VERTEX
  5
31D
330
311
100
AcDbEntity
  8
001
370
    50
100
AcDbVertex
100
AcDb2dVertex
 10
80.99712
 20
45.077036
 30
0.0
  0
VERTEX
  5
31E
330
311
100
AcDbEntity
  8
001
370
    50
100
AcDbVertex
100
AcDb2dVertex
 10
81.014336
 20
45.066793
 30
0.0
  0
VERTEX
  5
31F
330
311
100
AcDbEntity
  8
001
370
    50
100
AcDbVertex
100
AcDb2dVertex
 10
81.032024
 20
45.058276
 30
0.0
  0
VERTEX
  5
320
330
311
100
AcDbEntity
  8
001
370
    50
100
AcDbVertex
100
AcDb2dVertex
 10
81.049832
 20
45.051568
 30
0.0
  0
VERTEX
  5
321
330
311
100
AcDbEntity
  8
001
370
    50
100
AcDbVertex
100
AcDb2dVertex
 10
81.069896
 20
45.046725
 30
0.0
  0
VERTEX
  5
322
330
311
100
AcDbEntity
  8
001
370
    50
100
AcDbVertex
100
AcDb2dVertex
 10
81.09264
 20
45.043802
 30
0.0
  0
VERTEX
  5
323
330
311
100
AcDbEntity
  8
001
370
    50
100
AcDbVertex
100
AcDb2dVertex
 10
81.109283
 20
45.042824
 30
0.0
  0
SEQEND
  5
312
330
311
100
AcDbEntity
  8
001
370
    50
  0
POLYLINE
  5
324
330
1F
100
AcDbEntity
  8
001
370
    50
100
AcDb2dPolyline
 66
     1
 10
0.0
 20
0.0
 30
0.0
  0
VERTEX
  5
326
330
324
100
AcDbEntity
  8
001
370
    50
100
AcDbVertex
100
AcDb2dVertex
 10
88.1118
 20
44.292824
 30
0.0
  0
VERTEX
  5
327
330
324
100
AcDbEntity
  8
001
370
    50
100
AcDbVertex
100
AcDb2dVertex
 10
88.126608
 20
44.293605
 30
0.0
  0
VERTEX
  5
328
330
324
100
AcDbEntity
  8
001
370
    50
100
AcDbVertex
100
AcDb2dVertex
 10
88.146769
 20
44.295908
 30
0.0
  0
VERTEX
  5
329
330
324
100
AcDbEntity
  8
001
370
    50
100
AcDbVertex
100
AcDb2dVertex
 10
88.164715
 20
44.299742
 30
0.0
  0
VERTEX
  5
32A
330
324
100
AcDbEntity
  8
001
370
    50
100
AcDbVertex
100
AcDb2dVertex
 10
88.180761
 20
44.305066
 30
0.0
  0
VERTEX
  5
32B
330
324
100
AcDbEntity
  8
001
370
    50
100
AcDbVertex
100
AcDb2dVertex
 10
88.196835
 20
44.311846
 30
0.0
  0
VERTEX
  5
32C
330
324
100
AcDbEntity
  8
001
370
    50
100
AcDbVertex
100
AcDb2dVertex
 10
88.212655
 20
44.320021
 30
0.0
  0
VERTEX
  5
32D
330
324
100
AcDbEntity
  8
001
370
    50
100
AcDbVertex
100
AcDb2dVertex
 10
88.227567
 20
44.329535
 30
0.0
  0
VERTEX
  5
32E
330
324
100
AcDbEntity
  8
001
370
    50
100
AcDbVertex
100
AcDb2dVertex
 10
88.241483
 20
44.340317
 30
0.0
  0
VERTEX
  5
32F
330
324
100
AcDbEntity
  8
001
370
    50
100
AcDbVertex
100
AcDb2dVertex
 10
88.254456
 20
44.352299
 30
0.0
  0
VERTEX
  5
330
330
324
100
AcDbEntity
  8
001
370
    50
100
AcDbVertex
100
AcDb2dVertex
 10
88.266367
 20
44.365338
 30
0.0
  0
VERTEX
  5
331
330
324
100
AcDbEntity
  8
001
370
    50
100
AcDbVertex
100
AcDb2dVertex
 10
88.277094
 20
44.379338
 30
0.0
  0
VERTEX
  5
332
330
324
100
AcDbEntity
  8
001
370
    50
100
AcDbVertex
100
AcDb2dVertex
 10
88.286552
 20
44.394324
 30
0.0
  0
VERTEX
  5
333
330
324
100
AcDbEntity
  8
001
370
    50
100
AcDbVertex
100
AcDb2dVertex
 10
88.294684
 20
44.410237
 30
0.0
  0
VERTEX
  5
334
330
324
100
AcDbEntity
  8
001
370
    50
100
AcDbVertex
100
AcDb2dVertex
 10
88.301424
 20
44.426394
 30
0.0
  0
VERTEX
  5
335
330
324
100
AcDbEntity
  8
001
370
    50
100
AcDbVertex
100
AcDb2dVertex
 10
88.306721
 20
44.442533
 30
0.0
  0
VERTEX
  5
336
330
324
100
AcDbEntity
  8
001
370
    50
100
AcDbVertex
100
AcDb2dVertex
 10
88.310532
 20
44.460573
 30
0.0
  0
VERTEX
  5
337
330
324
100
AcDbEntity
  8
001
370
    50
100
AcDbVertex
100
AcDb2dVertex
 10
88.312831
 20
44.480943
 30
0.0
  0
VERTEX
  5
338
330
324
100
AcDbEntity
  8
001
370
    50
100
AcDbVertex
100
AcDb2dVertex
 10
88.313599
 20
44.495824
 30
0.0
  0
SEQEND
  5
325
330
324
100
AcDbEntity
  8
001
370
    50
  0
LINE
  5
339
330
1F
100
AcDbEntity
  8
001
370
    50
100
AcDbLine
 10
85.807395
 20
45.042824
 30
0.0
 11
86.557395
 21
44.292824
 31
0.0
  0
LINE
  5
33A
330
1F
100
AcDbEntity
  8
001
370
    50
100
AcDbLine
 10
80.907395
 20
46.742853
 30
0.0
 11
80.357424
 21
47.292824
 31
0.0
  0
LINE
  5
33B
330
1F
100
AcDbEntity
  8
001
  6
PHANTOM
370
     9
100
AcDbLine
 10
85.807395
 20
54.542824
 30
0.0
 11
81.109283
 21
54.542824
 31
0.0
  0
LINE
  5
33C
330
1F
100
AcDbEntity
  8
001
  6
PHANTOM
370
     9
100
AcDbLine
 10
80.907395
 20
52.842795
 30
0.0
 11
80.907395
 21
54.340016
 31
0.0
  0
LINE
  5
33D
330
1F
100
AcDbEntity
  8
001
  6
PHANTOM
370
     9
100
AcDbLine
 10
85.807395
 20
54.542824
 30
0.0
 11
86.557395
 21
55.292824
 31
0.0
  0
LINE
  5
33E
330
1F
100
AcDbEntity
  8
001
  6
PHANTOM
370
     9
100
AcDbLine
 10
80.907395
 20
52.842795
 30
0.0
 11
80.357424
 21
52.292824
 31
0.0
  0
LINE
  5
33F
330
1F
100
AcDbEntity
  8
001
  6
PHANTOM
370
     9
100
AcDbLine
 10
86.557395
 20
55.292824
 30
0.0
 11
88.1118
 21
55.292824
 31
0.0
  0
ENDSEC
  0
SECTION
  2
OBJECTS
  0
DICTIONARY
  5
C
330
0
100
AcDbDictionary
281
     1
  3
ACAD_GROUP
350
D
  3
ACAD_LAYOUT
350
1A
  3
ACAD_MLEADERSTYLE
350
343
  3
ACAD_MLINESTYLE
350
17
  3
ACAD_PLOTSETTINGS
350
19
  3
ACAD_PLOTSTYLENAME
350
E
  3
ACAD_SCALELIST
350
3B
  3
ACAD_TABLESTYLE
350
342
  3
ACAD_VISUALSTYLE
350
2A
  3
AcDbVariableDictionary
350
340
  0
DICTIONARY
  5
D
102
{ACAD_REACTORS
330
C
102
}
330
C
100
AcDbDictionary
281
     1
  0
DICTIONARY
  5
1A
102
{ACAD_REACTORS
330
C
102
}
330
C
100
AcDbDictionary
281
     1
  3
Layout1
350
1E
  3
Layout2
350
26
  3
Model
350
22
  0
DICTIONARY
  5
343
102
{ACAD_REACTORS
330
C
102
}
330
C
100
AcDbDictionary
281
     1
  0
DICTIONARY
  5
17
102
{ACAD_REACTORS
330
C
102
}
330
C
100
AcDbDictionary
281
     1
  3
Standard
350
18
  0
DICTIONARY
  5
19
102
{ACAD_REACTORS
330
C
102
}
330
C
100
AcDbDictionary
281
     1
  0
ACDBDICTIONARYWDFLT
  5
E
102
{ACAD_REACTORS
330
C
102
}
330
C
100
AcDbDictionary
281
     1
  3
Normal
350
F
100
AcDbDictionaryWithDefault
340
F
  0
DICTIONARY
  5
3B
102
{ACAD_REACTORS
330
C
102
}
330
C
100
AcDbDictionary
281
     1
  3
A0
350
3C
  3
A1
350
3D
  3
A2
350
3E
  3
A3
350
3F
  3
A4
350
40
  3
A5
350
41
  3
A6
350
42
  3
A7
350
43
  3
A8
350
44
  3
A9
350
45
  3
B0
350
46
  3
B1
350
47
  3
B2
350
48
  3
B3
350
49
  3
B4
350
4A
  3
B5
350
4B
  3
B6
350
4C
  3
B7
350
4D
  3
B8
350
4E
  3
B9
350
4F
  3
C0
350
50
  3
C1
350
51
  3
C2
350
52
  3
C3
350
53
  3
C4
350
54
  3
C5
350
55
  3
C6
350
56
  3
C7
350
57
  3
C8
350
58
  3
C9
350
59
  3
D0
350
5A
  3
D1
350
5B
  3
D2
350
5C
  0
DICTIONARY
  5
342
102
{ACAD_REACTORS
330
C
102
}
330
C
100
AcDbDictionary
281
     1
  0
DICTIONARY
  5
2A
102
{ACAD_REACTORS
330
C
102
}
330
C
100
AcDbDictionary
281
     1
  3
2dWireframe
350
2F
  3
3D Hidden
350
31
  3
3dWireframe
350
30
  3
Basic
350
32
  3
Brighten
350
36
  3
ColorChange
350
3A
  3
Conceptual
350
34
  3
Dim
350
35
  3
Facepattern
350
39
  3
Flat
350
2B
  3
FlatWithEdges
350
2C
  3
Gouraud
350
2D
  3
GouraudWithEdges
350
2E
  3
Linepattern
350
38
  3
Realistic
350
33
  3
Thicken
350
37
  0
DICTIONARY
  5
340
102
{ACAD_REACTORS
330
C
102
}
330
C
100
AcDbDictionary
281
     1
  3
CANNOSCALE
350
341
  3
PSOLHEIGHT
350
345
  3
PSOLWIDTH
350
344
  0
LAYOUT
  5
1E
102
{ACAD_REACTORS
330
1A
102
}
330
1A
100
AcDbPlotSettings
  1

  2
none_device
  4

  6

 40
0.0
 41
0.0
 42
0.0
 43
0.0
 44
0.0
 45
0.0
 46
0.0
 47
0.0
 48
0.0
 49
0.0
140
0.0
141
0.0
142
1.0
143
1.0
 70
   688
 72
     0
 73
     0
 74
     5
  7

 75
    16
147
1.0
148
0.0
149
0.0
100
AcDbLayout
  1
Layout1
 70
     1
 71
     1
 10
0.0
 20
0.0
 11
12.0
 21
9.0
 12
0.0
 22
0.0
 32
0.0
 14
1.000000E+20
 24
1.000000E+20
 34
0.0
 15
-1.000000E+20
 25
-1.000000E+20
 35
0.0
146
0.0
 13
0.0
 23
0.0
 33
0.0
 16
1.0
 26
0.0
 36
0.0
 17
0.0
 27
1.0
 37
0.0
 76
     0
330
1B
  0
LAYOUT
  5
26
102
{ACAD_REACTORS
330
1A
102
}
330
1A
100
AcDbPlotSettings
  1

  2
none_device
  4

  6

 40
0.0
 41
0.0
 42
0.0
 43
0.0
 44
0.0
 45
0.0
 46
0.0
 47
0.0
 48
0.0
 49
0.0
140
0.0
141
0.0
142
1.0
143
1.0
 70
   688
 72
     0
 73
     0
 74
     5
  7

 75
    16
147
1.0
148
0.0
149
0.0
100
AcDbLayout
  1
Layout2
 70
     1
 71
     2
 10
0.0
 20
0.0
 11
0.0
 21
0.0
 12
0.0
 22
0.0
 32
0.0
 14
0.0
 24
0.0
 34
0.0
 15
0.0
 25
0.0
 35
0.0
146
0.0
 13
0.0
 23
0.0
 33
0.0
 16
1.0
 26
0.0
 36
0.0
 17
0.0
 27
1.0
 37
0.0
 76
     0
330
23
  0
LAYOUT
  5
22
102
{ACAD_REACTORS
330
1A
102
}
330
1A
100
AcDbPlotSettings
  1

  2
none_device
  4

  6

 40
0.0
 41
0.0
 42
0.0
 43
0.0
 44
0.0
 45
0.0
 46
0.0
 47
0.0
 48
0.0
 49
0.0
140
0.0
141
0.0
142
1.0
143
1.0
 70
  1712
 72
     0
 73
     0
 74
     0
  7

 75
     0
147
1.0
148
0.0
149
0.0
100
AcDbLayout
  1
Model
 70
     1
 71
     0
 10
0.0
 20
0.0
 11
12.0
 21
9.0
 12
0.0
 22
0.0
 32
0.0
 14
13.134689
 24
-6.137032
 34
0.0
 15
223.134689
 25
90.143753
 35
0.0
146
0.0
 13
0.0
 23
0.0
 33
0.0
 16
1.0
 26
0.0
 36
0.0
 17
0.0
 27
1.0
 37
0.0
 76
     0
330
1F
331
29
  0
MLINESTYLE
  5
18
102
{ACAD_REACTORS
330
17
102
}
330
17
100
AcDbMlineStyle
  2
Standard
 70
     0
  3

 62
   256
 51
90.0
 52
90.0
 71
     2
 49
0.5
 62
   256
  6
BYLAYER
 49
-0.5
 62
   256
  6
BYLAYER
  0
ACDBPLACEHOLDER
  5
F
102
{ACAD_REACTORS
330
E
102
}
330
E
  0
SCALE
  5
3C
102
{ACAD_REACTORS
330
3B
102
}
330
3B
100
AcDbScale
 70
     0
300
1:1
140
1.0
141
1.0
290
     1
  0
SCALE
  5
3D
102
{ACAD_REACTORS
330
3B
102
}
330
3B
100
AcDbScale
 70
     0
300
1:2
140
1.0
141
2.0
290
     0
  0
SCALE
  5
3E
102
{ACAD_REACTORS
330
3B
102
}
330
3B
100
AcDbScale
 70
     0
300
1:4
140
1.0
141
4.0
290
     0
  0
SCALE
  5
3F
102
{ACAD_REACTORS
330
3B
102
}
330
3B
100
AcDbScale
 70
     0
300
1:5
140
1.0
141
5.0
290
     0
  0
SCALE
  5
40
102
{ACAD_REACTORS
330
3B
102
}
330
3B
100
AcDbScale
 70
     0
300
1:8
140
1.0
141
8.0
290
     0
  0
SCALE
  5
41
102
{ACAD_REACTORS
330
3B
102
}
330
3B
100
AcDbScale
 70
     0
300
1:10
140
1.0
141
10.0
290
     0
  0
SCALE
  5
42
102
{ACAD_REACTORS
330
3B
102
}
330
3B
100
AcDbScale
 70
     0
300
1:16
140
1.0
141
16.0
290
     0
  0
SCALE
  5
43
102
{ACAD_REACTORS
330
3B
102
}
330
3B
100
AcDbScale
 70
     0
300
1:20
140
1.0
141
20.0
290
     0
  0
SCALE
  5
44
102
{ACAD_REACTORS
330
3B
102
}
330
3B
100
AcDbScale
 70
     0
300
1:30
140
1.0
141
30.0
290
     0
  0
SCALE
  5
45
102
{ACAD_REACTORS
330
3B
102
}
330
3B
100
AcDbScale
 70
     0
300
1:40
140
1.0
141
40.0
290
     0
  0
SCALE
  5
46
102
{ACAD_REACTORS
330
3B
102
}
330
3B
100
AcDbScale
 70
     0
300
1:50
140
1.0
141
50.0
290
     0
  0
SCALE
  5
47
102
{ACAD_REACTORS
330
3B
102
}
330
3B
100
AcDbScale
 70
     0
300
1:100
140
1.0
141
100.0
290
     0
  0
SCALE
  5
48
102
{ACAD_REACTORS
330
3B
102
}
330
3B
100
AcDbScale
 70
     0
300
2:1
140
2.0
141
1.0
290
     0
  0
SCALE
  5
49
102
{ACAD_REACTORS
330
3B
102
}
330
3B
100
AcDbScale
 70
     0
300
4:1
140
4.0
141
1.0
290
     0
  0
SCALE
  5
4A
102
{ACAD_REACTORS
330
3B
102
}
330
3B
100
AcDbScale
 70
     0
300
8:1
140
8.0
141
1.0
290
     0
  0
SCALE
  5
4B
102
{ACAD_REACTORS
330
3B
102
}
330
3B
100
AcDbScale
 70
     0
300
10:1
140
10.0
141
1.0
290
     0
  0
SCALE
  5
4C
102
{ACAD_REACTORS
330
3B
102
}
330
3B
100
AcDbScale
 70
     0
300
100:1
140
100.0
141
1.0
290
     0
  0
SCALE
  5
4D
102
{ACAD_REACTORS
330
3B
102
}
330
3B
100
AcDbScale
 70
     0
300
1/128" = 1'-0"
140
0.007812
141
12.0
290
     0
  0
SCALE
  5
4E
102
{ACAD_REACTORS
330
3B
102
}
330
3B
100
AcDbScale
 70
     0
300
1/64" = 1'-0"
140
0.015625
141
12.0
290
     0
  0
SCALE
  5
4F
102
{ACAD_REACTORS
330
3B
102
}
330
3B
100
AcDbScale
 70
     0
300
1/32" = 1'-0"
140
0.03125
141
12.0
290
     0
  0
SCALE
  5
50
102
{ACAD_REACTORS
330
3B
102
}
330
3B
100
AcDbScale
 70
     0
300
1/16" = 1'-0"
140
0.0625
141
12.0
290
     0
  0
SCALE
  5
51
102
{ACAD_REACTORS
330
3B
102
}
330
3B
100
AcDbScale
 70
     0
300
3/32" = 1'-0"
140
0.09375
141
12.0
290
     0
  0
SCALE
  5
52
102
{ACAD_REACTORS
330
3B
102
}
330
3B
100
AcDbScale
 70
     0
300
1/8" = 1'-0"
140
0.125
141
12.0
290
     0
  0
SCALE
  5
53
102
{ACAD_REACTORS
330
3B
102
}
330
3B
100
AcDbScale
 70
     0
300
3/16" = 1'-0"
140
0.1875
141
12.0
290
     0
  0
SCALE
  5
54
102
{ACAD_REACTORS
330
3B
102
}
330
3B
100
AcDbScale
 70
     0
300
1/4" = 1'-0"
140
0.25
141
12.0
290
     0
  0
SCALE
  5
55
102
{ACAD_REACTORS
330
3B
102
}
330
3B
100
AcDbScale
 70
     0
300
3/8" = 1'-0"
140
0.375
141
12.0
290
     0
  0
SCALE
  5
56
102
{ACAD_REACTORS
330
3B
102
}
330
3B
100
AcDbScale
 70
     0
300
1/2" = 1'-0"
140
0.5
141
12.0
290
     0
  0
SCALE
  5
57
102
{ACAD_REACTORS
330
3B
102
}
330
3B
100
AcDbScale
 70
     0
300
3/4" = 1'-0"
140
0.75
141
12.0
290
     0
  0
SCALE
  5
58
102
{ACAD_REACTORS
330
3B
102
}
330
3B
100
AcDbScale
 70
     0
300
1" = 1'-0"
140
1.0
141
12.0
290
     0
  0
SCALE
  5
59
102
{ACAD_REACTORS
330
3B
102
}
330
3B
100
AcDbScale
 70
     0
300
1-1/2" = 1'-0"
140
1.5
141
12.0
290
     0
  0
SCALE
  5
5A
102
{ACAD_REACTORS
330
3B
102
}
330
3B
100
AcDbScale
 70
     0
300
3" = 1'-0"
140
3.0
141
12.0
290
     0
  0
SCALE
  5
5B
102
{ACAD_REACTORS
330
3B
102
}
330
3B
100
AcDbScale
 70
     0
300
6" = 1'-0"
140
6.0
141
12.0
290
     0
  0
SCALE
  5
5C
102
{ACAD_REACTORS
330
3B
102
}
330
3B
100
AcDbScale
 70
     0
300
1'-0" = 1'-0"
140
12.0
141
12.0
290
     0
  0
VISUALSTYLE
  5
2F
102
{ACAD_REACTORS
330
2A
102
}
330
2A
100
AcDbVisualStyle
  2
2dWireframe
 70
     4
 71
     0
 72
     2
 73
     0
 90
        0
 40
-0.6
 41
-30.0
 62
     5
 63
     7
 74
     1
 91
        4
 64
     7
 65
   257
 75
     1
175
     1
 42
1.0
 92
        0
 66
   257
 43
1.0
 76
     1
 77
     6
 78
     2
 67
     7
 79
     5
170
     0
171
     0
290
     0
174
     0
 93
        1
 44
0.0
173
     0
291
     0
 45
0.0
1001
ACAD
1000
AcDbSavedByObjectVersion
1070
     0
  0
VISUALSTYLE
  5
31
102
{ACAD_REACTORS
330
2A
102
}
330
2A
100
AcDbVisualStyle
  2
3D Hidden
 70
     6
 71
     1
 72
     2
 73
     2
 90
        0
 40
-0.6
 41
-30.0
 62
     5
 63
     7
 74
     2
 91
        2
 64
     7
 65
   257
 75
     2
175
     1
 42
40.0
 92
        0
 66
   257
 43
1.0
 76
     1
 77
     6
 78
     2
 67
     7
 79
     3
170
     0
171
     0
290
     0
174
     0
 93
        1
 44
0.0
173
     0
291
     0
 45
0.0
1001
ACAD
1000
AcDbSavedByObjectVersion
1070
     0
  0
VISUALSTYLE
  5
30
102
{ACAD_REACTORS
330
2A
102
}
330
2A
100
AcDbVisualStyle
  2
3dWireframe
 70
     5
 71
     0
 72
     2
 73
     0
 90
        0
 40
-0.6
 41
-30.0
 62
     5
 63
     7
 74
     1
 91
        4
 64
     7
 65
   257
 75
     1
175
     1
 42
1.0
 92
        0
 66
   257
 43
1.0
 76
     1
 77
     6
 78
     2
 67
     7
 79
     5
170
     0
171
     0
290
     0
174
     0
 93
        1
 44
0.0
173
     0
291
     0
 45
0.0
1001
ACAD
1000
AcDbSavedByObjectVersion
1070
     0
  0
VISUALSTYLE
  5
32
102
{ACAD_REACTORS
330
2A
102
}
330
2A
100
AcDbVisualStyle
  2
Basic
 70
     7
 71
     1
 72
     0
 73
     1
 90
        0
 40
-0.6
 41
-30.0
 62
     5
 63
     7
 74
     0
 91
        4
 64
     7
 65
   257
 75
     1
175
     1
 42
1.0
 92
        8
 66
     7
 43
1.0
 76
     1
 77
     6
 78
     2
 67
     7
 79
     5
170
     0
171
     0
290
     0
174
     0
 93
        1
 44
0.0
173
     0
291
     1
 45
0.0
1001
ACAD
1000
AcDbSavedByObjectVersion
1070
     0
  0
VISUALSTYLE
  5
36
102
{ACAD_REACTORS
330
2A
102
}
330
2A
100
AcDbVisualStyle
  2
Brighten
 70
    12
 71
     2
 72
     2
 73
     0
 90
        0
 40
-0.6
 41
-30.0
 62
     5
 63
     7
 74
     1
 91
        4
 64
     7
 65
   257
 75
     1
175
     1
 42
1.0
 92
        8
 66
     7
 43
1.0
 76
     1
 77
     6
 78
     2
 67
     7
 79
     5
170
     0
171
     0
290
     0
174
     0
 93
        1
 44
50.0
173
     0
291
     1
 45
0.0
1001
ACAD
1000
AcDbSavedByObjectVersion
1070
     0
  0
VISUALSTYLE
  5
3A
102
{ACAD_REACTORS
330
2A
102
}
330
2A
100
AcDbVisualStyle
  2
ColorChange
 70
    16
 71
     2
 72
     2
 73
     3
 90
        0
 40
-0.6
 41
-30.0
 62
     5
 63
     8
 74
     1
 91
        4
 64
     7
 65
   257
 75
     1
175
     1
 42
1.0
 92
        8
 66
     8
 43
1.0
 76
     1
 77
     6
 78
     2
 67
     7
 79
     5
170
     0
171
     0
290
     0
174
     0
 93
        1
 44
0.0
173
     0
291
     1
 45
0.0
1001
ACAD
1000
AcDbSavedByObjectVersion
1070
     0
  0
VISUALSTYLE
  5
34
102
{ACAD_REACTORS
330
2A
102
}
330
2A
100
AcDbVisualStyle
  2
Conceptual
 70
     9
 71
     3
 72
     2
 73
     0
 90
        0
 40
-0.6
 41
-30.0
 62
     5
 63
     7
 74
     2
 91
        2
 64
     7
 65
   257
 75
     1
175
     1
 42
40.0
 92
        8
 66
     7
 43
1.0
 76
     1
 77
     6
 78
     2
 67
     7
 79
     3
170
     0
171
     0
290
     0
174
     0
 93
        1
 44
0.0
173
     0
291
     0
 45
0.0
1001
ACAD
1000
AcDbSavedByObjectVersion
1070
     0
  0
VISUALSTYLE
  5
35
102
{ACAD_REACTORS
330
2A
102
}
330
2A
100
AcDbVisualStyle
  2
Dim
 70
    11
 71
     2
 72
     2
 73
     0
 90
        0
 40
-0.6
 41
-30.0
 62
     5
 63
     7
 74
     1
 91
        4
 64
     7
 65
   257
 75
     1
175
     1
 42
1.0
 92
        8
 66
     7
 43
1.0
 76
     1
 77
     6
 78
     2
 67
     7
 79
     5
170
     0
171
     0
290
     0
174
     0
 93
        1
 44
-50.0
173
     0
291
     1
 45
0.0
1001
ACAD
1000
AcDbSavedByObjectVersion
1070
     0
  0
VISUALSTYLE
  5
39
102
{ACAD_REACTORS
330
2A
102
}
330
2A
100
AcDbVisualStyle
  2
Facepattern
 70
    15
 71
     2
 72
     2
 73
     0
 90
        0
 40
-0.6
 41
-30.0
 62
     5
 63
     7
 74
     1
 91
        4
 64
     7
 65
   257
 75
     1
175
     1
 42
1.0
 92
        8
 66
     7
 43
1.0
 76
     1
 77
     6
 78
     2
 67
     7
 79
     5
170
     0
171
     0
290
     0
174
     0
 93
        1
 44
0.0
173
     0
291
     1
 45
0.0
1001
ACAD
1000
AcDbSavedByObjectVersion
1070
     0
  0
VISUALSTYLE
  5
2B
102
{ACAD_REACTORS
330
2A
102
}
330
2A
100
AcDbVisualStyle
  2
Flat
 70
     0
 71
     2
 72
     1
 73
     1
 90
        2
 40
-0.6
 41
30.0
 62
     5
 63
     7
 74
     0
 91
        4
 64
     7
 65
   257
 75
     1
175
     1
 42
1.0
 92
        8
 66
     7
 43
1.0
 76
     1
 77
     6
 78
     2
 67
     7
 79
     5
170
     0
171
     0
290
     0
174
     0
 93
       13
 44
0.0
173
     0
291
     1
 45
0.0
1001
ACAD
1000
AcDbSavedByObjectVersion
1070
     0
  0
VISUALSTYLE
  5
2C
102
{ACAD_REACTORS
330
2A
102
}
330
2A
100
AcDbVisualStyle
  2
FlatWithEdges
 70
     1
 71
     2
 72
     1
 73
     1
 90
        2
 40
-0.6
 41
30.0
 62
     5
 63
     7
 74
     1
 91
        4
 64
     7
 65
   257
 75
     1
175
     1
 42
1.0
 92
        0
 66
   257
 43
1.0
 76
     1
 77
     6
 78
     2
 67
     7
 79
     5
170
     0
171
     0
290
     0
174
     0
 93
       13
 44
0.0
173
     0
291
     1
 45
0.0
1001
ACAD
1000
AcDbSavedByObjectVersion
1070
     0
  0
VISUALSTYLE
  5
2D
102
{ACAD_REACTORS
330
2A
102
}
330
2A
100
AcDbVisualStyle
  2
Gouraud
 70
     2
 71
     2
 72
     2
 73
     1
 90
        2
 40
-0.6
 41
30.0
 62
     5
 63
     7
 74
     0
 91
        4
 64
     7
 65
   257
 75
     1
175
     1
 42
1.0
 92
        0
 66
     7
 43
1.0
 76
     1
 77
     6
 78
     2
 67
     7
 79
     5
170
     0
171
     0
290
     0
174
     0
 93
       13
 44
0.0
173
     0
291
     1
 45
0.0
1001
ACAD
1000
AcDbSavedByObjectVersion
1070
     0
  0
VISUALSTYLE
  5
2E
102
{ACAD_REACTORS
330
2A
102
}
330
2A
100
AcDbVisualStyle
  2
GouraudWithEdges
 70
     3
 71
     2
 72
     2
 73
     1
 90
        2
 40
-0.6
 41
30.0
 62
     5
 63
     7
 74
     1
 91
        4
 64
     7
 65
   257
 75
     1
175
     1
 42
1.0
 92
        0
 66
   257
 43
1.0
 76
     1
 77
     6
 78
     2
 67
     7
 79
     5
170
     0
171
     0
290
     0
174
     0
 93
       13
 44
0.0
173
     0
291
     1
 45
0.0
1001
ACAD
1000
AcDbSavedByObjectVersion
1070
     0
  0
VISUALSTYLE
  5
38
102
{ACAD_REACTORS
330
2A
102
}
330
2A
100
AcDbVisualStyle
  2
Linepattern
 70
    14
 71
     2
 72
     2
 73
     0
 90
        0
 40
-0.6
 41
-30.0
 62
     5
 63
     7
 74
     1
 91
        4
 64
     7
 65
   257
 75
     7
175
     7
 42
1.0
 92
        8
 66
     7
 43
1.0
 76
     1
 77
     6
 78
     2
 67
     7
 79
     5
170
     0
171
     0
290
     0
174
     0
 93
        1
 44
0.0
173
     0
291
     1
 45
0.0
1001
ACAD
1000
AcDbSavedByObjectVersion
1070
     0
  0
VISUALSTYLE
  5
33
102
{ACAD_REACTORS
330
2A
102
}
330
2A
100
AcDbVisualStyle
  2
Realistic
 70
     8
 71
     2
 72
     2
 73
     0
 90
        0
 40
-0.6
 41
-30.0
 62
     5
 63
     7
 74
     1
 91
        0
 64
     7
 65
   257
 75
     1
175
     1
 42
1.0
 92
        8
 66
     8
 43
1.0
 76
     1
 77
     6
 78
     2
 67
     7
 79
     5
170
     0
171
     0
290
     0
174
     0
 93
       13
 44
0.0
173
     0
291
     0
 45
0.0
1001
ACAD
1000
AcDbSavedByObjectVersion
1070
     0
  0
VISUALSTYLE
  5
37
102
{ACAD_REACTORS
330
2A
102
}
330
2A
100
AcDbVisualStyle
  2
Thicken
 70
    13
 71
     2
 72
     2
 73
     0
 90
        0
 40
-0.6
 41
-30.0
 62
     5
 63
     7
 74
     1
 91
        4
 64
     7
 65
   257
 75
     1
175
     1
 42
1.0
 92
       12
 66
     7
 43
1.0
 76
     1
 77
     6
 78
     2
 67
     7
 79
     5
170
     0
171
     0
290
     0
174
     0
 93
        1
 44
0.0
173
     0
291
     1
 45
0.0
1001
ACAD
1000
AcDbSavedByObjectVersion
1070
     0
  0
DICTIONARYVAR
  5
341
102
{ACAD_REACTORS
330
340
102
}
330
340
100
DictionaryVariables
280
     0
  1
1:1
  0
DICTIONARYVAR
  5
345
102
{ACAD_REACTORS
330
340
102
}
330
340
100
DictionaryVariables
280
     0
  1
80.000000
  0
DICTIONARYVAR
  5
344
102
{ACAD_REACTORS
330
340
102
}
330
340
100
DictionaryVariables
280
     0
  1
5.000000
  0
ENDSEC
  0
EOF
