  0
SECTION
  2
HEADER
  9
$ACADVER
  1
AC1015
  9
$ACADMAINTVER
 70
     6
  9
$DWGCODEPAGE
  3
ANSI_932
  9
$INSBASE
 10
0.0
 20
0.0
 30
0.0
  9
$EXTMIN
 10
18.134689
 20
-4.548508
 30
0.0
  9
$EXTMAX
 10
218.134689
 20
90.143753
 30
0.0
  9
$LIMMIN
 10
0.0
 20
0.0
  9
$LIMMAX
 10
12.0
 20
9.0
  9
$ORTHOMODE
 70
     0
  9
$REGENMODE
 70
     1
  9
$FILLMODE
 70
     1
  9
$QTEXTMODE
 70
     0
  9
$MIRRTEXT
 70
     1
  9
$LTSCALE
 40
2.21284
  9
$ATTMODE
 70
     1
  9
$TEXTSIZE
 40
3.2
  9
$TRACEWID
 40
1.0
  9
$TEXTSTYLE
  7
Standard
  9
$CLAYER
  8
0
  9
$CELTYPE
  6
ByLayer
  9
$CECOLOR
 62
   256
  9
$CELTSCALE
 40
1.0
  9
$DISPSILH
 70
     0
  9
$DIMSCALE
 40
1.0
  9
$DIMASZ
 40
2.5
  9
$DIMEXO
 40
0.625
  9
$DIMDLI
 40
3.75
  9
$DIMRND
 40
0.0
  9
$DIMDLE
 40
0.0
  9
$DIMEXE
 40
1.25
  9
$DIMTP
 40
0.0
  9
$DIMTM
 40
0.0
  9
$DIMTXT
 40
2.5
  9
$DIMCEN
 40
0.09
  9
$DIMTSZ
 40
0.0
  9
$DIMTOL
 70
     0
  9
$DIMLIM
 70
     0
  9
$DIMTIH
 70
     0
  9
$DIMTOH
 70
     0
  9
$DIMSE1
 70
     0
  9
$DIMSE2
 70
     0
  9
$DIMTAD
 70
     0
  9
$DIMZIN
 70
     8
  9
$DIMBLK
  1

  9
$DIMASO
 70
     1
  9
$DIMSHO
 70
     0
  9
$DIMPOST
  1

  9
$DIMAPOST
  1

  9
$DIMALT
 70
     0
  9
$DIMALTD
 70
     3
  9
$DIMALTF
 40
0.03937
  9
$DIMLFAC
 40
1.0
  9
$DIMTOFL
 70
     1
  9
$DIMTVP
 40
0.0
  9
$DIMTIX
 70
     0
  9
$DIMSOXD
 70
     0
  9
$DIMSAH
 70
     0
  9
$DIMBLK1
  1

  9
$DIMBLK2
  1

  9
$DIMSTYLE
  2
ISO-25
  9
$DIMCLRD
 70
     0
  9
$DIMCLRE
 70
     0
  9
$DIMCLRT
 70
     0
  9
$DIMTFAC
 40
1.0
  9
$DIMGAP
 40
0.625
  9
$DIMJUST
 70
     0
  9
$DIMSD1
 70
     0
  9
$DIMSD2
 70
     0
  9
$DIMTOLJ
 70
     0
  9
$DIMTZIN
 70
     8
  9
$DIMALTZ
 70
     0
  9
$DIMALTTZ
 70
     0
  9
$DIMUPT
 70
     0
  9
$DIMDEC
 70
     2
  9
$DIMTDEC
 70
     2
  9
$DIMALTU
 70
     2
  9
$DIMALTTD
 70
     3
  9
$DIMTXSTY
  7
Standard
  9
$DIMAUNIT
 70
     0
  9
$DIMADEC
 70
     0
  9
$DIMALTRND
 40
0.0
  9
$DIMAZIN
 70
     0
  9
$DIMDSEP
 70
    44
  9
$DIMATFIT
 70
     3
  9
$DIMFRAC
 70
     0
  9
$DIMLDRBLK
  1

  9
$DIMLUNIT
 70
     2
  9
$DIMLWD
 70
    -2
  9
$DIMLWE
 70
    -2
  9
$DIMTMOVE
 70
     0
  9
$LUNITS
 70
     2
  9
$LUPREC
 70
     4
  9
$SKETCHINC
 40
1.0
  9
$FILLETRAD
 40
0.0
  9
$AUNITS
 70
     0
  9
$AUPREC
 70
     0
  9
$MENU
  1
.
  9
$ELEVATION
 40
0.0
  9
$PELEVATION
 40
0.0
  9
$THICKNESS
 40
0.0
  9
$LIMCHECK
 70
     0
  9
$CHAMFERA
 40
10.0
  9
$CHAMFERB
 40
10.0
  9
$CHAMFERC
 40
20.0
  9
$CHAMFERD
 40
0.0
  9
$SKPOLY
 70
     0
  9
$TDCREATE
 40
2454798.418552511
  9
$TDUCREATE
 40
2454798.043552511
  9
$TDUPDATE
 40
2454798.418552523
  9
$TDUUPDATE
 40
2454798.043552523
  9
$TDINDWG
 40
0.0000000116
  9
$TDUSRTIMER
 40
0.0000000116
  9
$USRTIMER
 70
     1
  9
$ANGBASE
 50
0.0
  9
$ANGDIR
 70
     0
  9
$PDMODE
 70
     0
  9
$PDSIZE
 40
0.0
  9
$PLINEWID
 40
0.0
  9
$SPLFRAME
 70
     0
  9
$SPLINETYPE
 70
     6
  9
$SPLINESEGS
 70
     8
  9
$HANDSEED
  5
346
  9
$SURFTAB1
 70
     6
  9
$SURFTAB2
 70
     6
  9
$SURFTYPE
 70
     6
  9
$SURFU
 70
     6
  9
$SURFV
 70
     6
  9
$UCSBASE
  2

  9
$UCSNAME
  2

  9
$UCSORG
 10
0.0
 20
0.0
 30
0.0
  9
$UCSXDIR
 10
1.0
 20
0.0
 30
0.0
  9
$UCSYDIR
 10
0.0
 20
1.0
 30
0.0
  9
$UCSORTHOREF
  2

  9
$UCSORTHOVIEW
 70
     0
  9
$UCSORGTOP
 10
0.0
 20
0.0
 30
0.0
  9
$UCSORGBOTTOM
 10
0.0
 20
0.0
 30
0.0
  9
$UCSORGLEFT
 10
0.0
 20
0.0
 30
0.0
  9
$UCSORGRIGHT
 10
0.0
 20
0.0
 30
0.0
  9
$UCSORGFRONT
 10
0.0
 20
0.0
 30
0.0
  9
$UCSORGBACK
 10
0.0
 20
0.0
 30
0.0
  9
$PUCSBASE
  2

  9
$PUCSNAME
  2

  9
$PUCSORG
 10
0.0
 20
0.0
 30
0.0
  9
$PUCSXDIR
 10
1.0
 20
0.0
 30
0.0
  9
$PUCSYDIR
 10
0.0
 20
1.0
 30
0.0
  9
$PUCSORTHOREF
  2

  9
$PUCSORTHOVIEW
 70
     0
  9
$PUCSORGTOP
 10
0.0
 20
0.0
 30
0.0
  9
$PUCSORGBOTTOM
 10
0.0
 20
0.0
 30
0.0
  9
$PUCSORGLEFT
 10
0.0
 20
0.0
 30
0.0
  9
$PUCSORGRIGHT
 10
0.0
 20
0.0
 30
0.0
  9
$PUCSORGFRONT
 10
0.0
 20
0.0
 30
0.0
  9
$PUCSORGBACK
 10
0.0
 20
0.0
 30
0.0
  9
$USERI1
 70
     0
  9
$USERI2
 70
     0
  9
$USERI3
 70
     0
  9
$USERI4
 70
     0
  9
$USERI5
 70
     0
  9
$USERR1
 40
0.0
  9
$USERR2
 40
0.0
  9
$USERR3
 40
0.0
  9
$USERR4
 40
0.0
  9
$USERR5
 40
0.0
  9
$WORLDVIEW
 70
     1
  9
$SHADEDGE
 70
     3
  9
$SHADEDIF
 70
    70
  9
$TILEMODE
 70
     1
  9
$MAXACTVP
 70
    64
  9
$PINSBASE
 10
0.0
 20
0.0
 30
0.0
  9
$PLIMCHECK
 70
     0
  9
$PEXTMIN
 10
1.000000E+20
 20
1.000000E+20
 30
0.0
  9
$PEXTMAX
 10
-1.000000E+20
 20
-1.000000E+20
 30
0.0
  9
$PLIMMIN
 10
0.0
 20
0.0
  9
$PLIMMAX
 10
12.0
 20
9.0
  9
$UNITMODE
 70
     0
  9
$VISRETAIN
 70
     1
  9
$PLINEGEN
 70
     0
  9
$PSLTSCALE
 70
     1
  9
$TREEDEPTH
 70
  3020
  9
$CMLSTYLE
  2
Standard
  9
$CMLJUST
 70
     0
  9
$CMLSCALE
 40
20.0
  9
$PROXYGRAPHICS
 70
     1
  9
$MEASUREMENT
 70
     1
  9
$CELWEIGHT
370
    -1
  9
$ENDCAPS
280
     0
  9
$JOINSTYLE
280
     0
  9
$LWDISPLAY
290
     0
  9
$INSUNITS
 70
     4
  9
$HYPERLINKBASE
  1

  9
$STYLESHEET
  1

  9
$XEDIT
290
     1
  9
$CEPSNTYPE
380
     0
  9
$PSTYLEMODE
290
     1
  9
$FINGERPRINTGUID
  2
{E89956FC-1A44-453A-B3D9-7A5F39A462F3}
  9
$VERSIONGUID
  2
{FAEB1C32-E019-11D5-929B-00C0DF256EC4}
  9
$EXTNAMES
290
     1
  9
$PSVPSCALE
 40
0.0
  9
$OLESTARTUP
290
     0
  0
ENDSEC
  0
SECTION
  2
CLASSES
  0
CLASS
  1
ACDBDICTIONARYWDFLT
  2
AcDbDictionaryWithDefault
  3
ObjectDBX Classes
 90
        0
280
     0
281
     0
  0
CLASS
  1
VISUALSTYLE
  2
AcDbVisualStyle
  3
ObjectDBX Classes
 90
     4095
280
     0
281
     0
  0
CLASS
  1
SCALE
  2
AcDbScale
  3
ObjectDBX Classes
 90
     1153
280
     0
281
     0
  0
CLASS
  1
DICTIONARYVAR
  2
AcDbDictionaryVar
  3
ObjectDBX Classes
 90
        0
280
     0
281
     0
  0
CLASS
  1
ACDBPLACEHOLDER
  2
AcDbPlaceHolder
  3
ObjectDBX Classes
 90
        0
280
     0
281
     0
  0
CLASS
  1
LAYOUT
  2
AcDbLayout
  3
ObjectDBX Classes
 90
        0
280
     0
281
     0
  0
ENDSEC
  0
SECTION
  2
TABLES
  0
TABLE
  2
VPORT
  5
8
330
0
100
AcDbSymbolTable
 70
     1
  0
VPORT
  5
29
330
8
100
AcDbSymbolTableRecord
100
AcDbViewportTableRecord
  2
*Active
 70
     0
 10
0.0
 20
0.0
 11
1.0
 21
1.0
 12
118.134689
 22
42.797623
 13
0.0
 23
0.0
 14
1.0
 24
1.0
 15
0.0
 25
0.0
 16
0.0
 26
0.0
 36
1.0
 17
0.0
 27
0.0
 37
0.0
 40
119.435602
 41
1.691288
 42
50.0
 43
0.0
 44
0.0
 50
0.0
 51
0.0
 71
     0
 72
   100
 73
     1
 74
     3
 75
     0
 76
     0
 77
     0
 78
     0
281
     0
 65
     1
110
0.0
120
0.0
130
0.0
111
1.0
121
0.0
131
0.0
112
0.0
122
1.0
132
0.0
 79
     0
146
0.0
  0
ENDTAB
  0
TABLE
  2
LTYPE
  5
5
330
0
100
AcDbSymbolTable
 70
     5
  0
LTYPE
  5
14
330
5
100
AcDbSymbolTableRecord
100
AcDbLinetypeTableRecord
  2
ByBlock
 70
     0
  3

 72
    65
 73
     0
 40
0.0
  0
LTYPE
  5
15
330
5
100
AcDbSymbolTableRecord
100
AcDbLinetypeTableRecord
  2
ByLayer
 70
     0
  3

 72
    65
 73
     0
 40
0.0
  0
LTYPE
  5
16
330
5
100
AcDbSymbolTableRecord
100
AcDbLinetypeTableRecord
  2
Continuous
 70
     0
  3
Solid line
 72
    65
 73
     0
 40
0.0
  0
LTYPE
  5
5D
330
5
100
AcDbSymbolTableRecord
100
AcDbLinetypeTableRecord
  2
DASHED
 70
     0
  3
DASHED
 72
    83
 73
     2
 40
0.75
 49
0.5
 74
     0
 49
-0.25
 74
     0
  0
LTYPE
  5
5E
330
5
100
AcDbSymbolTableRecord
100
AcDbLinetypeTableRecord
  2
HIDDEN
 70
     0
  3
HIDDEN
 72
    83
 73
     2
 40
0.375
 49
0.25
 74
     0
 49
-0.125
 74
     0
  0
LTYPE
  5
5F
330
5
100
AcDbSymbolTableRecord
100
AcDbLinetypeTableRecord
  2
CENTER
 70
     0
  3
CENTER
 72
    83
 73
     4
 40
2.0
 49
1.25
 74
     0
 49
-0.25
 74
     0
 49
0.25
 74
     0
 49
-0.25
 74
     0
  0
LTYPE
  5
60
330
5
100
AcDbSymbolTableRecord
100
AcDbLinetypeTableRecord
  2
PHANTOM
 70
     0
  3
PHANTOM
 72
    83
 73
     6
 40
2.5
 49
1.25
 74
     0
 49
-0.25
 74
     0
 49
0.25
 74
     0
 49
-0.25
 74
     0
 49
0.25
 74
     0
 49
-0.25
 74
     0
  0
ENDTAB
  0
TABLE
  2
LAYER
  5
2
330
0
100
AcDbSymbolTable
 70
     2
  0
LAYER
  5
10
330
2
100
AcDbSymbolTableRecord
100
AcDbLayerTableRecord
  2
0
 70
     0
 62
     7
  6
Continuous
370
    -3
390
F
  0
LAYER
  5
61
330
2
100
AcDbSymbolTableRecord
100
AcDbLayerTableRecord
  2
001
 70
     0
 62
     7
  6
Continuous
370
    -3
390
F
  0
ENDTAB
  0
TABLE
  2
STYLE
  5
3
330
0
100
AcDbSymbolTable
 70
     2
  0
STYLE
  5
11
330
3
100
AcDbSymbolTableRecord
100
AcDbTextStyleTableRecord
  2
Standard
 70
     0
 40
0.0
 41
1.0
 50
0.0
 71
     0
 42
0.2
  3
TXT
  4
BIGFONT
  0
STYLE
  5
62
330
3
100
AcDbSymbolTableRecord
100
AcDbTextStyleTableRecord
  2
TATEGAKI
 70
     4
 40
1.0
 41
1.0
 50
0.0
 71
     0
 42
0.2
  3
TXT
  4
BIGFONT
  0
ENDTAB
  0
TABLE
  2
VIEW
  5
6
330
0
100
AcDbSymbolTable
 70
     0
  0
ENDTAB
  0
TABLE
  2
UCS
  5
7
330
0
100
AcDbSymbolTable
 70
     0
  0
ENDTAB
  0
TABLE
  2
APPID
  5
9
330
0
100
AcDbSymbolTable
 70
     1
  0
APPID
  5
12
330
9
100
AcDbSymbolTableRecord
100
AcDbRegAppTableRecord
  2
ACAD
 70
     0
  0
ENDTAB
  0
TABLE
  2
DIMSTYLE
  5
A
330
0
100
AcDbSymbolTable
 70
     2
100
AcDbDimStyleTable
  0
DIMSTYLE
105
27
330
A
100
AcDbSymbolTableRecord
100
AcDbDimStyleTableRecord
  2
ISO-25
 70
     0
 41
2.5
 42
0.625
 43
3.75
 44
1.25
 73
     0
 74
     0
 77
     1
 78
     8
140
2.5
141
2.5
143
0.03937
147
0.625
171
     3
172
     1
271
     2
272
     2
274
     3
278
    44
283
     0
284
     8
340
11
  0
DIMSTYLE
105
63
102
{ACAD_REACTORS
330
172
330
181
330
182
330
183
330
184
330
185
330
186
330
187
330
188
330
189
330
18A
330
18B
330
18C
102
}
330
A
100
AcDbSymbolTableRecord
100
AcDbDimStyleTableRecord
  2
Standard
 70
     0
 41
1.5
 42
0.0
 44
2.75
 73
     0
 74
     0
 77
     1
 78
     8
 79
     2
140
4.0
146
0.8
147
1.0
172
     1
179
     1
271
     1
340
11
  0
ENDTAB
  0
TABLE
  2
BLOCK_RECORD
  5
1
330
0
100
AcDbSymbolTable
 70
    14
  0
BLOCK_RECORD
  5
1F
330
1
100
AcDbSymbolTableRecord
100
AcDbBlockTableRecord
  2
*Model_Space
340
22
  0
BLOCK_RECORD
  5
1B
330
1
100
AcDbSymbolTableRecord
100
AcDbBlockTableRecord
  2
*Paper_Space
340
1E
  0
BLOCK_RECORD
  5
23
330
1
100
AcDbSymbolTableRecord
100
AcDbBlockTableRecord
  2
*Paper_Space0
340
26
  0
BLOCK_RECORD
  5
64
330
1
100
AcDbSymbolTableRecord
100
AcDbBlockTableRecord
  2
*D1
340
0
  0
BLOCK_RECORD
  5
78
330
1
100
AcDbSymbolTableRecord
100
AcDbBlockTableRecord
  2
*D2
340
0
  0
BLOCK_RECORD
  5
8C
330
1
100
AcDbSymbolTableRecord
100
AcDbBlockTableRecord
  2
*D3
340
0
  0
BLOCK_RECORD
  5
A0
330
1
100
AcDbSymbolTableRecord
100
AcDbBlockTableRecord
  2
*D4
340
0
  0
BLOCK_RECORD
  5
B4
330
1
100
AcDbSymbolTableRecord
100
AcDbBlockTableRecord
  2
*D5
340
0
  0
BLOCK_RECORD
  5
C8
330
1
100
AcDbSymbolTableRecord
100
AcDbBlockTableRecord
  2
*D6
340
0
  0
BLOCK_RECORD
  5
DE
330
1
100
AcDbSymbolTableRecord
100
AcDbBlockTableRecord
  2
*D7
340
0
  0
BLOCK_RECORD
  5
F4
330
1
100
AcDbSymbolTableRecord
100
AcDbBlockTableRecord
  2
*D8
340
0
  0
BLOCK_RECORD
  5
108
330
1
100
AcDbSymbolTableRecord
100
AcDbBlockTableRecord
  2
*D9
340
0
  0
BLOCK_RECORD
  5
11C
330
1
100
AcDbSymbolTableRecord
100
AcDbBlockTableRecord
  2
*D10
340
0
  0
BLOCK_RECORD
  5
130
330
1
100
AcDbSymbolTableRecord
100
AcDbBlockTableRecord
  2
*D11
340
0
  0
BLOCK_RECORD
  5
146
330
1
100
AcDbSymbolTableRecord
100
AcDbBlockTableRecord
  2
*D12
340
0
  0
BLOCK_RECORD
  5
15C
330
1
100
AcDbSymbolTableRecord
100
AcDbBlockTableRecord
  2
*D13
340
0
  0
ENDTAB
  0
ENDSEC
  0
SECTION
  2
BLOCKS
  0
BLOCK
  5
20
330
1F
100
AcDbEntity
  8
0
100
AcDbBlockBegin
  2
*Model_Space
 70
     0
 10
0.0
 20
0.0
 30
0.0
  3
*Model_Space
  1

  0
ENDBLK
  5
21
330
1F
100
AcDbEntity
  8
0
100
AcDbBlockEnd
  0
BLOCK
  5
1C
330
1B
100
AcDbEntity
 67
     1
  8
0
100
AcDbBlockBegin
  2
*Paper_Space
 70
     0
 10
0.0
 20
0.0
 30
0.0
  3
*Paper_Space
  1

  0
ENDBLK
  5
1D
330
1B
100
AcDbEntity
 67
     1
  8
0
100
AcDbBlockEnd
  0
BLOCK
  5
24
330
23
100
AcDbEntity
  8
0
100
AcDbBlockBegin
  2
*Paper_Space0
 70
     0
 10
0.0
 20
0.0
 30
0.0
  3
*Paper_Space0
  1

  0
ENDBLK
  5
25
330
23
100
AcDbEntity
  8
0
100
AcDbBlockEnd
  0
BLOCK
  5
65
330
64
100
AcDbEntity
  8
0
100
AcDbBlockBegin
  2
*D1
 70
     1
 10
0.0
 20
0.0
 30
0.0
  3
*D1
  1

  0
LINE
  5
67
330
64
100
AcDbEntity
  8
001
370
     9
100
AcDbLine
 10
37.867326
 20
4.595468
 30
0.0
 11
37.867326
 21
-0.460712
 31
0.0
  0
LINE
  5
68
330
64
100
AcDbEntity
  8
001
370
     9
100
AcDbLine
 10
31.267326
 20
4.595468
 30
0.0
 11
31.267326
 21
-0.460712
 31
0.0
  0
LINE
  5
69
330
64
100
AcDbEntity
  8
001
370
     9
100
AcDbLine
 10
37.867326
 20
0.639288
 30
0.0
 11
31.267326
 21
0.639288
 31
0.0
  0
POLYLINE
  5
6A
330
64
100
AcDbEntity
  8
001
370
     9
100
AcDb2dPolyline
 66
     1
 10
0.0
 20
0.0
 30
0.0
  0
VERTEX
  5
6C
330
6A
100
AcDbEntity
  8
001
370
     9
100
AcDbVertex
100
AcDb2dVertex
 10
37.267326
 20
0.800058
 30
0.0
  0
VERTEX
  5
6D
330
6A
100
AcDbEntity
  8
001
370
     9
100
AcDbVertex
100
AcDb2dVertex
 10
37.867326
 20
0.639288
 30
0.0
  0
VERTEX
  5
6E
330
6A
100
AcDbEntity
  8
001
370
     9
100
AcDbVertex
100
AcDb2dVertex
 10
37.267326
 20
0.478519
 30
0.0
  0
SEQEND
  5
6B
330
6A
100
AcDbEntity
  8
001
370
     9
  0
POLYLINE
  5
6F
330
64
100
AcDbEntity
  8
001
370
     9
100
AcDb2dPolyline
 66
     1
 10
0.0
 20
0.0
 30
0.0
  0
VERTEX
  5
71
330
6F
100
AcDbEntity
  8
001
370
     9
100
AcDbVertex
100
AcDb2dVertex
 10
31.867326
 20
0.478519
 30
0.0
  0
VERTEX
  5
72
330
6F
100
AcDbEntity
  8
001
370
     9
100
AcDbVertex
100
AcDb2dVertex
 10
31.267326
 20
0.639288
 30
0.0
  0
VERTEX
  5
73
330
6F
100
AcDbEntity
  8
001
370
     9
100
AcDbVertex
100
AcDb2dVertex
 10
31.867326
 20
0.800058
 30
0.0
  0
SEQEND
  5
70
330
6F
100
AcDbEntity
  8
001
370
     9
  0
TEXT
  5
74
330
64
100
AcDbEntity
  8
001
370
    30
100
AcDbText
 10
31.367326
 20
1.039288
 30
0.0
 40
1.6
  1
%%c６．６
 41
0.869565
100
AcDbText
  0
POINT
  5
75
330
64
100
AcDbEntity
  8
001
370
     9
100
AcDbPoint
 10
37.867326
 20
4.595468
 30
0.0
  0
POINT
  5
76
330
64
100
AcDbEntity
  8
001
370
     9
100
AcDbPoint
 10
31.267326
 20
4.595468
 30
0.0
  0
POINT
  5
77
330
64
100
AcDbEntity
  8
001
370
     9
100
AcDbPoint
 10
31.267326
 20
0.639288
 30
0.0
  0
ENDBLK
  5
66
330
64
100
AcDbEntity
  8
0
100
AcDbBlockEnd
  0
BLOCK
  5
79
330
78
100
AcDbEntity
  8
0
100
AcDbBlockBegin
  2
*D2
 70
     1
 10
0.0
 20
0.0
 30
0.0
  3
*D2
  1

  0
LINE
  5
7B
330
78
100
AcDbEntity
  8
001
370
     9
100
AcDbLine
 10
29.067326
 20
16.095468
 30
0.0
 11
29.067326
 21
28.053961
 31
0.0
  0
LINE
  5
7C
330
78
100
AcDbEntity
  8
001
370
     9
100
AcDbLine
 10
40.067326
 20
16.095468
 30
0.0
 11
40.067326
 21
28.053961
 31
0.0
  0
LINE
  5
7D
330
78
100
AcDbEntity
  8
001
370
     9
100
AcDbLine
 10
29.067326
 20
26.953961
 30
0.0
 11
40.067326
 21
26.953961
 31
0.0
  0
POLYLINE
  5
7E
330
78
100
AcDbEntity
  8
001
370
     9
100
AcDb2dPolyline
 66
     1
 10
0.0
 20
0.0
 30
0.0
  0
VERTEX
  5
80
330
7E
100
AcDbEntity
  8
001
370
     9
100
AcDbVertex
100
AcDb2dVertex
 10
29.667326
 20
26.793192
 30
0.0
  0
VERTEX
  5
81
330
7E
100
AcDbEntity
  8
001
370
     9
100
AcDbVertex
100
AcDb2dVertex
 10
29.067326
 20
26.953961
 30
0.0
  0
VERTEX
  5
82
330
7E
100
AcDbEntity
  8
001
370
     9
100
AcDbVertex
100
AcDb2dVertex
 10
29.667326
 20
27.114731
 30
0.0
  0
SEQEND
  5
7F
330
7E
100
AcDbEntity
  8
001
370
     9
  0
POLYLINE
  5
83
330
78
100
AcDbEntity
  8
001
370
     9
100
AcDb2dPolyline
 66
     1
 10
0.0
 20
0.0
 30
0.0
  0
VERTEX
  5
85
330
83
100
AcDbEntity
  8
001
370
     9
100
AcDbVertex
100
AcDb2dVertex
 10
39.467326
 20
27.114731
 30
0.0
  0
VERTEX
  5
86
330
83
100
AcDbEntity
  8
001
370
     9
100
AcDbVertex
100
AcDb2dVertex
 10
40.067326
 20
26.953961
 30
0.0
  0
VERTEX
  5
87
330
83
100
AcDbEntity
  8
001
370
     9
100
AcDbVertex
100
AcDb2dVertex
 10
39.467326
 20
26.793192
 30
0.0
  0
SEQEND
  5
84
330
83
100
AcDbEntity
  8
001
370
     9
  0
TEXT
  5
88
330
78
100
AcDbEntity
  8
001
370
    30
100
AcDbText
 10
32.496666
 20
27.353961
 30
0.0
 40
1.6
  1
%%c１１
 41
0.882353
100
AcDbText
  0
POINT
  5
89
330
78
100
AcDbEntity
  8
001
370
     9
100
AcDbPoint
 10
29.067326
 20
16.095468
 30
0.0
  0
POINT
  5
8A
330
78
100
AcDbEntity
  8
001
370
     9
100
AcDbPoint
 10
40.067326
 20
16.095468
 30
0.0
  0
POINT
  5
8B
330
78
100
AcDbEntity
  8
001
370
     9
100
AcDbPoint
 10
40.067326
 20
26.953961
 30
0.0
  0
ENDBLK
  5
7A
330
78
100
AcDbEntity
  8
0
100
AcDbBlockEnd
  0
BLOCK
  5
8D
330
8C
100
AcDbEntity
  8
0
100
AcDbBlockBegin
  2
*D3
 70
     1
 10
0.0
 20
0.0
 30
0.0
  3
*D3
  1

  0
LINE
  5
8F
330
8C
100
AcDbEntity
  8
001
370
     9
100
AcDbLine
 10
43.567326
 20
16.595468
 30
0.0
 11
46.998897
 21
16.595468
 31
0.0
  0
LINE
  5
90
330
8C
100
AcDbEntity
  8
001
370
     9
100
AcDbLine
 10
40.067326
 20
10.095468
 30
0.0
 11
46.998897
 21
10.095468
 31
0.0
  0
LINE
  5
91
330
8C
100
AcDbEntity
  8
001
370
     9
100
AcDbLine
 10
45.898897
 20
16.595468
 30
0.0
 11
45.898897
 21
10.095468
 31
0.0
  0
POLYLINE
  5
92
330
8C
100
AcDbEntity
  8
001
370
     9
100
AcDb2dPolyline
 66
     1
 10
0.0
 20
0.0
 30
0.0
  0
VERTEX
  5
94
330
92
100
AcDbEntity
  8
001
370
     9
100
AcDbVertex
100
AcDb2dVertex
 10
45.738127
 20
15.995468
 30
0.0
  0
VERTEX
  5
95
330
92
100
AcDbEntity
  8
001
370
     9
100
AcDbVertex
100
AcDb2dVertex
 10
45.898897
 20
16.595468
 30
0.0
  0
VERTEX
  5
96
330
92
100
AcDbEntity
  8
001
370
     9
100
AcDbVertex
100
AcDb2dVertex
 10
46.059666
 20
15.995468
 30
0.0
  0
SEQEND
  5
93
330
92
100
AcDbEntity
  8
001
370
     9
  0
POLYLINE
  5
97
330
8C
100
AcDbEntity
  8
001
370
     9
100
AcDb2dPolyline
 66
     1
 10
0.0
 20
0.0
 30
0.0
  0
VERTEX
  5
99
330
97
100
AcDbEntity
  8
001
370
     9
100
AcDbVertex
100
AcDb2dVertex
 10
46.059666
 20
10.695468
 30
0.0
  0
VERTEX
  5
9A
330
97
100
AcDbEntity
  8
001
370
     9
100
AcDbVertex
100
AcDb2dVertex
 10
45.898897
 20
10.095468
 30
0.0
  0
VERTEX
  5
9B
330
97
100
AcDbEntity
  8
001
370
     9
100
AcDbVertex
100
AcDb2dVertex
 10
45.738127
 20
10.695468
 30
0.0
  0
SEQEND
  5
98
330
97
100
AcDbEntity
  8
001
370
     9
  0
TEXT
  5
9C
330
8C
100
AcDbEntity
  8
001
370
    30
100
AcDbText
 10
45.498897
 20
10.945468
 30
0.0
 40
1.6
  1
６．５
 50
90.000003
 41
0.833333
100
AcDbText
  0
POINT
  5
9D
330
8C
100
AcDbEntity
  8
001
370
     9
100
AcDbPoint
 10
43.567326
 20
16.595468
 30
0.0
  0
POINT
  5
9E
330
8C
100
AcDbEntity
  8
001
370
     9
100
AcDbPoint
 10
40.067326
 20
10.095468
 30
0.0
  0
POINT
  5
9F
330
8C
100
AcDbEntity
  8
001
370
     9
100
AcDbPoint
 10
45.898897
 20
10.095468
 30
0.0
  0
ENDBLK
  5
8E
330
8C
100
AcDbEntity
  8
0
100
AcDbBlockEnd
  0
BLOCK
  5
A1
330
A0
100
AcDbEntity
  8
0
100
AcDbBlockBegin
  2
*D4
 70
     1
 10
0.0
 20
0.0
 30
0.0
  3
*D4
  1

  0
LINE
  5
A3
330
A0
100
AcDbEntity
  8
001
370
     9
100
AcDbLine
 10
84.371979
 20
42.368914
 30
0.0
 11
103.802264
 21
22.938628
 31
0.0
  0
ARC
  5
A4
330
A0
100
AcDbEntity
  8
001
370
     9
100
AcDbCircle
 10
77.871979
 20
48.868914
 30
0.0
 40
33.92096121994009
100
AcDbArc
 50
315.0
 51
0.0
  0
POLYLINE
  5
A5
330
A0
100
AcDbEntity
  8
001
370
     9
100
AcDb2dPolyline
 66
     1
 10
0.0
 20
0.0
 30
0.0
  0
VERTEX
  5
A7
330
A5
100
AcDbEntity
  8
001
370
     9
100
AcDbVertex
100
AcDb2dVertex
 10
111.357952
 20
47.378166
 30
0.0
  0
VERTEX
  5
A8
330
A5
100
AcDbEntity
  8
001
370
     9
100
AcDbVertex
100
AcDb2dVertex
 10
111.79294
 20
48.868914
 30
0.0
  0
VERTEX
  5
A9
330
A5
100
AcDbEntity
  8
001
370
     9
100
AcDbVertex
100
AcDb2dVertex
 10
112.161603
 20
47.360395
 30
0.0
  0
SEQEND
  5
A6
330
A5
100
AcDbEntity
  8
001
370
     9
  0
POLYLINE
  5
AA
330
A0
100
AcDbEntity
  8
001
370
     9
100
AcDb2dPolyline
 66
     1
 10
0.0
 20
0.0
 30
0.0
  0
VERTEX
  5
AC
330
AA
100
AcDbEntity
  8
001
370
     9
100
AcDbVertex
100
AcDb2dVertex
 10
103.185089
 20
25.689172
 30
0.0
  0
VERTEX
  5
AD
330
AA
100
AcDbEntity
  8
001
370
     9
100
AcDbVertex
100
AcDb2dVertex
 10
101.857721
 20
24.883172
 30
0.0
  0
VERTEX
  5
AE
330
AA
100
AcDbEntity
  8
001
370
     9
100
AcDbVertex
100
AcDb2dVertex
 10
102.604255
 20
26.244873
 30
0.0
  0
SEQEND
  5
AB
330
AA
100
AcDbEntity
  8
001
370
     9
  0
TEXT
  5
AF
330
A0
100
AcDbEntity
  8
001
370
    30
100
AcDbText
 10
105.990881
 20
30.72733
 30
0.0
 40
4.0
  1
４５%%d
 50
67.5
 41
0.978261
100
AcDbText
  0
POINT
  5
B0
330
A0
100
AcDbEntity
  8
001
370
     9
100
AcDbPoint
 10
76.303068
 20
48.868914
 30
0.0
  0
POINT
  5
B1
330
A0
100
AcDbEntity
  8
001
370
     9
100
AcDbPoint
 10
77.871979
 20
48.868914
 30
0.0
  0
POINT
  5
B2
330
A0
100
AcDbEntity
  8
001
370
     9
100
AcDbPoint
 10
77.871979
 20
48.868914
 30
0.0
  0
POINT
  5
B3
330
A0
100
AcDbEntity
  8
001
370
     9
100
AcDbPoint
 10
84.371979
 20
42.368914
 30
0.0
  0
ENDBLK
  5
A2
330
A0
100
AcDbEntity
  8
0
100
AcDbBlockEnd
  0
BLOCK
  5
B5
330
B4
100
AcDbEntity
  8
0
100
AcDbBlockBegin
  2
*D5
 70
     1
 10
0.0
 20
0.0
 30
0.0
  3
*D5
  1

  0
LINE
  5
B7
330
B4
100
AcDbEntity
  8
001
370
     9
100
AcDbLine
 10
77.371979
 20
45.268919
 30
0.0
 11
107.364832
 21
15.276066
 31
0.0
  0
ARC
  5
B8
330
B4
100
AcDbEntity
  8
001
370
     9
100
AcDbCircle
 10
73.771984
 20
48.868914
 30
0.0
 40
44.75746092740947
100
AcDbArc
 50
315.0
 51
0.0
  0
POLYLINE
  5
B9
330
B4
100
AcDbEntity
  8
001
370
     9
100
AcDb2dPolyline
 66
     1
 10
0.0
 20
0.0
 30
0.0
  0
VERTEX
  5
BB
330
B9
100
AcDbEntity
  8
001
370
     9
100
AcDbVertex
100
AcDb2dVertex
 10
118.102443
 20
47.375859
 30
0.0
  0
VERTEX
  5
BC
330
B9
100
AcDbEntity
  8
001
370
     9
100
AcDbVertex
100
AcDb2dVertex
 10
118.529445
 20
48.868914
 30
0.0
  0
VERTEX
  5
BD
330
B9
100
AcDbEntity
  8
001
370
     9
100
AcDbVertex
100
AcDb2dVertex
 10
118.906178
 20
47.36239
 30
0.0
  0
SEQEND
  5
BA
330
B9
100
AcDbEntity
  8
001
370
     9
  0
POLYLINE
  5
BE
330
B4
100
AcDbEntity
  8
001
370
     9
100
AcDb2dPolyline
 66
     1
 10
0.0
 20
0.0
 30
0.0
  0
VERTEX
  5
C0
330
BE
100
AcDbEntity
  8
001
370
     9
100
AcDbVertex
100
AcDb2dVertex
 10
106.751952
 20
18.019493
 30
0.0
  0
VERTEX
  5
C1
330
BE
100
AcDbEntity
  8
001
370
     9
100
AcDbVertex
100
AcDb2dVertex
 10
105.420288
 20
17.22061
 30
0.0
  0
VERTEX
  5
C2
330
BE
100
AcDbEntity
  8
001
370
     9
100
AcDbVertex
100
AcDb2dVertex
 10
106.174102
 20
18.578295
 30
0.0
  0
SEQEND
  5
BF
330
BE
100
AcDbEntity
  8
001
370
     9
  0
TEXT
  5
C3
330
B4
100
AcDbEntity
  8
001
370
    30
100
AcDbText
 10
111.902506
 20
26.580381
 30
0.0
 40
4.0
  1
４５%%d
 50
67.5
 41
0.978261
100
AcDbText
  0
POINT
  5
C4
330
B4
100
AcDbEntity
  8
001
370
     9
100
AcDbPoint
 10
76.303068
 20
48.868914
 30
0.0
  0
POINT
  5
C5
330
B4
100
AcDbEntity
  8
001
370
     9
100
AcDbPoint
 10
73.771984
 20
48.868914
 30
0.0
  0
POINT
  5
C6
330
B4
100
AcDbEntity
  8
001
370
     9
100
AcDbPoint
 10
73.771984
 20
48.868914
 30
0.0
  0
POINT
  5
C7
330
B4
100
AcDbEntity
  8
001
370
     9
100
AcDbPoint
 10
77.371979
 20
45.268919
 30
0.0
  0
ENDBLK
  5
B6
330
B4
100
AcDbEntity
  8
0
100
AcDbBlockEnd
  0
BLOCK
  5
C9
330
C8
100
AcDbEntity
  8
0
100
AcDbBlockBegin
  2
*D6
 70
     1
 10
0.0
 20
0.0
 30
0.0
  3
*D6
  1

  0
LINE
  5
CB
330
C8
100
AcDbEntity
  8
001
370
     9
100
AcDbLine
 10
77.573867
 20
43.368914
 30
0.0
 11
65.95405
 21
43.368914
 31
0.0
  0
LINE
  5
CC
330
C8
100
AcDbEntity
  8
001
370
     9
100
AcDbLine
 10
77.573867
 20
54.368914
 30
0.0
 11
65.95405
 21
54.368914
 31
0.0
  0
LINE
  5
CD
330
C8
100
AcDbEntity
  8
001
370
     9
100
AcDbLine
 10
68.70405
 20
43.368914
 30
0.0
 11
68.70405
 21
54.368914
 31
0.0
  0
POLYLINE
  5
CE
330
C8
100
AcDbEntity
  8
001
370
     9
100
AcDb2dPolyline
 66
     1
 10
0.0
 20
0.0
 30
0.0
  0
VERTEX
  5
D0
330
CE
100
AcDbEntity
  8
001
370
     9
100
AcDbVertex
100
AcDb2dVertex
 10
68.302126
 20
41.868914
 30
0.0
  0
VERTEX
  5
D1
330
CE
100
AcDbEntity
  8
001
370
     9
100
AcDbVertex
100
AcDb2dVertex
 10
68.70405
 20
43.368914
 30
0.0
  0
VERTEX
  5
D2
330
CE
100
AcDbEntity
  8
001
370
     9
100
AcDbVertex
100
AcDb2dVertex
 10
69.105973
 20
41.868914
 30
0.0
  0
SEQEND
  5
CF
330
CE
100
AcDbEntity
  8
001
370
     9
  0
POLYLINE
  5
D3
330
C8
100
AcDbEntity
  8
001
370
     9
100
AcDb2dPolyline
 66
     1
 10
0.0
 20
0.0
 30
0.0
  0
VERTEX
  5
D5
330
D3
100
AcDbEntity
  8
001
370
     9
100
AcDbVertex
100
AcDb2dVertex
 10
69.105973
 20
55.868914
 30
0.0
  0
VERTEX
  5
D6
330
D3
100
AcDbEntity
  8
001
370
     9
100
AcDbVertex
100
AcDb2dVertex
 10
68.70405
 20
54.368914
 30
0.0
  0
VERTEX
  5
D7
330
D3
100
AcDbEntity
  8
001
370
     9
100
AcDbVertex
100
AcDb2dVertex
 10
68.302126
 20
55.868914
 30
0.0
  0
SEQEND
  5
D4
330
D3
100
AcDbEntity
  8
001
370
     9
  0
TEXT
  5
D8
330
C8
100
AcDbEntity
  8
001
370
    30
100
AcDbText
 10
67.70405
 20
42.868914
 30
0.0
 40
4.0
  1
%%c１１
 50
90.000003
 41
0.882353
100
AcDbText
  0
POINT
  5
D9
330
C8
100
AcDbEntity
  8
001
370
     9
100
AcDbPoint
 10
77.573867
 20
43.368914
 30
0.0
  0
POINT
  5
DA
330
C8
100
AcDbEntity
  8
001
370
     9
100
AcDbPoint
 10
77.573867
 20
54.368914
 30
0.0
  0
POINT
  5
DB
330
C8
100
AcDbEntity
  8
001
370
     9
100
AcDbPoint
 10
68.70405
 20
54.368914
 30
0.0
  0
LINE
  5
DC
330
C8
100
AcDbEntity
  8
001
370
     9
100
AcDbLine
 10
68.70405
 20
43.368914
 30
0.0
 11
68.70405
 21
40.868914
 31
0.0
  0
LINE
  5
DD
330
C8
100
AcDbEntity
  8
001
370
     9
100
AcDbLine
 10
68.70405
 20
54.368914
 30
0.0
 11
68.70405
 21
56.868914
 31
0.0
  0
ENDBLK
  5
CA
330
C8
100
AcDbEntity
  8
0
100
AcDbBlockEnd
  0
BLOCK
  5
DF
330
DE
100
AcDbEntity
  8
0
100
AcDbBlockBegin
  2
*D7
 70
     1
 10
0.0
 20
0.0
 30
0.0
  3
*D7
  1

  0
LINE
  5
E1
330
DE
100
AcDbEntity
  8
001
370
     9
100
AcDbLine
 10
84.371979
 20
42.368914
 30
0.0
 11
55.999358
 21
42.368914
 31
0.0
  0
LINE
  5
E2
330
DE
100
AcDbEntity
  8
001
370
     9
100
AcDbLine
 10
84.371979
 20
55.368914
 30
0.0
 11
55.999358
 21
55.368914
 31
0.0
  0
LINE
  5
E3
330
DE
100
AcDbEntity
  8
001
370
     9
100
AcDbLine
 10
58.749358
 20
42.368914
 30
0.0
 11
58.749358
 21
55.368914
 31
0.0
  0
POLYLINE
  5
E4
330
DE
100
AcDbEntity
  8
001
370
     9
100
AcDb2dPolyline
 66
     1
 10
0.0
 20
0.0
 30
0.0
  0
VERTEX
  5
E6
330
E4
100
AcDbEntity
  8
001
370
     9
100
AcDbVertex
100
AcDb2dVertex
 10
58.347435
 20
40.868914
 30
0.0
  0
VERTEX
  5
E7
330
E4
100
AcDbEntity
  8
001
370
     9
100
AcDbVertex
100
AcDb2dVertex
 10
58.749358
 20
42.368914
 30
0.0
  0
VERTEX
  5
E8
330
E4
100
AcDbEntity
  8
001
370
     9
100
AcDbVertex
100
AcDb2dVertex
 10
59.151282
 20
40.868914
 30
0.0
  0
SEQEND
  5
E5
330
E4
100
AcDbEntity
  8
001
370
     9
  0
POLYLINE
  5
E9
330
DE
100
AcDbEntity
  8
001
370
     9
100
AcDb2dPolyline
 66
     1
 10
0.0
 20
0.0
 30
0.0
  0
VERTEX
  5
EB
330
E9
100
AcDbEntity
  8
001
370
     9
100
AcDbVertex
100
AcDb2dVertex
 10
59.151282
 20
56.868914
 30
0.0
  0
VERTEX
  5
EC
330
E9
100
AcDbEntity
  8
001
370
     9
100
AcDbVertex
100
AcDb2dVertex
 10
58.749358
 20
55.368914
 30
0.0
  0
VERTEX
  5
ED
330
E9
100
AcDbEntity
  8
001
370
     9
100
AcDbVertex
100
AcDb2dVertex
 10
58.347435
 20
56.868914
 30
0.0
  0
SEQEND
  5
EA
330
E9
100
AcDbEntity
  8
001
370
     9
  0
TEXT
  5
EE
330
DE
100
AcDbEntity
  8
001
370
    30
100
AcDbText
 10
57.749358
 20
42.868914
 30
0.0
 40
4.0
  1
%%c１３
 50
90.000003
 41
0.882353
100
AcDbText
  0
POINT
  5
EF
330
DE
100
AcDbEntity
  8
001
370
     9
100
AcDbPoint
 10
84.371979
 20
42.368914
 30
0.0
  0
POINT
  5
F0
330
DE
100
AcDbEntity
  8
001
370
     9
100
AcDbPoint
 10
84.371979
 20
55.368914
 30
0.0
  0
POINT
  5
F1
330
DE
100
AcDbEntity
  8
001
370
     9
100
AcDbPoint
 10
58.749358
 20
55.368914
 30
0.0
  0
LINE
  5
F2
330
DE
100
AcDbEntity
  8
001
370
     9
100
AcDbLine
 10
58.749358
 20
42.368914
 30
0.0
 11
58.749358
 21
39.868914
 31
0.0
  0
LINE
  5
F3
330
DE
100
AcDbEntity
  8
001
370
     9
100
AcDbLine
 10
58.749358
 20
55.368914
 30
0.0
 11
58.749358
 21
57.868914
 31
0.0
  0
ENDBLK
  5
E0
330
DE
100
AcDbEntity
  8
0
100
AcDbBlockEnd
  0
BLOCK
  5
F5
330
F4
100
AcDbEntity
  8
0
100
AcDbBlockBegin
  2
*D8
 70
     1
 10
0.0
 20
0.0
 30
0.0
  3
*D8
  1

  0
LINE
  5
F7
330
F4
100
AcDbEntity
  8
001
370
     9
100
AcDbLine
 10
98.771984
 20
42.368914
 30
0.0
 11
98.771984
 21
5.730804
 31
0.0
  0
LINE
  5
F8
330
F4
100
AcDbEntity
  8
001
370
     9
100
AcDbLine
 10
76.771984
 20
45.868914
 30
0.0
 11
76.771984
 21
5.730804
 31
0.0
  0
LINE
  5
F9
330
F4
100
AcDbEntity
  8
001
370
     9
100
AcDbLine
 10
98.771984
 20
8.480804
 30
0.0
 11
76.771984
 21
8.480804
 31
0.0
  0
POLYLINE
  5
FA
330
F4
100
AcDbEntity
  8
001
370
     9
100
AcDb2dPolyline
 66
     1
 10
0.0
 20
0.0
 30
0.0
  0
VERTEX
  5
FC
330
FA
100
AcDbEntity
  8
001
370
     9
100
AcDbVertex
100
AcDb2dVertex
 10
97.271984
 20
8.882728
 30
0.0
  0
VERTEX
  5
FD
330
FA
100
AcDbEntity
  8
001
370
     9
100
AcDbVertex
100
AcDb2dVertex
 10
98.771984
 20
8.480804
 30
0.0
  0
VERTEX
  5
FE
330
FA
100
AcDbEntity
  8
001
370
     9
100
AcDbVertex
100
AcDb2dVertex
 10
97.271984
 20
8.07888
 30
0.0
  0
SEQEND
  5
FB
330
FA
100
AcDbEntity
  8
001
370
     9
  0
POLYLINE
  5
FF
330
F4
100
AcDbEntity
  8
001
370
     9
100
AcDb2dPolyline
 66
     1
 10
0.0
 20
0.0
 30
0.0
  0
VERTEX
  5
101
330
FF
100
AcDbEntity
  8
001
370
     9
100
AcDbVertex
100
AcDb2dVertex
 10
78.271984
 20
8.07888
 30
0.0
  0
VERTEX
  5
102
330
FF
100
AcDbEntity
  8
001
370
     9
100
AcDbVertex
100
AcDb2dVertex
 10
76.771984
 20
8.480804
 30
0.0
  0
VERTEX
  5
103
330
FF
100
AcDbEntity
  8
001
370
     9
100
AcDbVertex
100
AcDb2dVertex
 10
78.271984
 20
8.882728
 30
0.0
  0
SEQEND
  5
100
330
FF
100
AcDbEntity
  8
001
370
     9
  0
TEXT
  5
104
330
F4
100
AcDbEntity
  8
001
370
    30
100
AcDbText
 10
83.771984
 20
9.480804
 30
0.0
 40
4.0
  1
２２
 41
0.833333
100
AcDbText
  0
POINT
  5
105
330
F4
100
AcDbEntity
  8
001
370
     9
100
AcDbPoint
 10
98.771984
 20
42.368914
 30
0.0
  0
POINT
  5
106
330
F4
100
AcDbEntity
  8
001
370
     9
100
AcDbPoint
 10
76.771984
 20
45.868914
 30
0.0
  0
POINT
  5
107
330
F4
100
AcDbEntity
  8
001
370
     9
100
AcDbPoint
 10
76.771984
 20
8.480804
 30
0.0
  0
ENDBLK
  5
F6
330
F4
100
AcDbEntity
  8
0
100
AcDbBlockEnd
  0
BLOCK
  5
109
330
108
100
AcDbEntity
  8
0
100
AcDbBlockBegin
  2
*D9
 70
     1
 10
0.0
 20
0.0
 30
0.0
  3
*D9
  1

  0
LINE
  5
10B
330
108
100
AcDbEntity
  8
001
370
     9
100
AcDbLine
 10
178.771984
 20
45.868914
 30
0.0
 11
178.771984
 21
5.730804
 31
0.0
  0
LINE
  5
10C
330
108
100
AcDbEntity
  8
001
370
     9
100
AcDbLine
 10
98.771984
 20
42.368914
 30
0.0
 11
98.771984
 21
5.730804
 31
0.0
  0
LINE
  5
10D
330
108
100
AcDbEntity
  8
001
370
     9
100
AcDbLine
 10
178.771984
 20
8.480804
 30
0.0
 11
98.771984
 21
8.480804
 31
0.0
  0
POLYLINE
  5
10E
330
108
100
AcDbEntity
  8
001
370
     9
100
AcDb2dPolyline
 66
     1
 10
0.0
 20
0.0
 30
0.0
  0
VERTEX
  5
110
330
10E
100
AcDbEntity
  8
001
370
     9
100
AcDbVertex
100
AcDb2dVertex
 10
177.271984
 20
8.882728
 30
0.0
  0
VERTEX
  5
111
330
10E
100
AcDbEntity
  8
001
370
     9
100
AcDbVertex
100
AcDb2dVertex
 10
178.771984
 20
8.480804
 30
0.0
  0
VERTEX
  5
112
330
10E
100
AcDbEntity
  8
001
370
     9
100
AcDbVertex
100
AcDb2dVertex
 10
177.271984
 20
8.07888
 30
0.0
  0
SEQEND
  5
10F
330
10E
100
AcDbEntity
  8
001
370
     9
  0
POLYLINE
  5
113
330
108
100
AcDbEntity
  8
001
370
     9
100
AcDb2dPolyline
 66
     1
 10
0.0
 20
0.0
 30
0.0
  0
VERTEX
  5
115
330
113
100
AcDbEntity
  8
001
370
     9
100
AcDbVertex
100
AcDb2dVertex
 10
100.271984
 20
8.07888
 30
0.0
  0
VERTEX
  5
116
330
113
100
AcDbEntity
  8
001
370
     9
100
AcDbVertex
100
AcDb2dVertex
 10
98.771984
 20
8.480804
 30
0.0
  0
VERTEX
  5
117
330
113
100
AcDbEntity
  8
001
370
     9
100
AcDbVertex
100
AcDb2dVertex
 10
100.271984
 20
8.882728
 30
0.0
  0
SEQEND
  5
114
330
113
100
AcDbEntity
  8
001
370
     9
  0
TEXT
  5
118
330
108
100
AcDbEntity
  8
001
370
    30
100
AcDbText
 10
134.771984
 20
9.480804
 30
0.0
 40
4.0
  1
８０
 41
0.833333
100
AcDbText
  0
POINT
  5
119
330
108
100
AcDbEntity
  8
001
370
     9
100
AcDbPoint
 10
178.771984
 20
45.868914
 30
0.0
  0
POINT
  5
11A
330
108
100
AcDbEntity
  8
001
370
     9
100
AcDbPoint
 10
98.771984
 20
42.368914
 30
0.0
  0
POINT
  5
11B
330
108
100
AcDbEntity
  8
001
370
     9
100
AcDbPoint
 10
98.771984
 20
8.480804
 30
0.0
  0
ENDBLK
  5
10A
330
108
100
AcDbEntity
  8
0
100
AcDbBlockEnd
  0
BLOCK
  5
11D
330
11C
100
AcDbEntity
  8
0
100
AcDbBlockBegin
  2
*D10
 70
     1
 10
0.0
 20
0.0
 30
0.0
  3
*D10
  1

  0
LINE
  5
11F
330
11C
100
AcDbEntity
  8
001
370
     9
100
AcDbLine
 10
178.771984
 20
45.868914
 30
0.0
 11
178.771984
 21
-2.627657
 31
0.0
  0
LINE
  5
120
330
11C
100
AcDbEntity
  8
001
370
     9
100
AcDbLine
 10
76.771984
 20
45.868914
 30
0.0
 11
76.771984
 21
-2.627657
 31
0.0
  0
LINE
  5
121
330
11C
100
AcDbEntity
  8
001
370
     9
100
AcDbLine
 10
178.771984
 20
0.122343
 30
0.0
 11
76.771984
 21
0.122343
 31
0.0
  0
POLYLINE
  5
122
330
11C
100
AcDbEntity
  8
001
370
     9
100
AcDb2dPolyline
 66
     1
 10
0.0
 20
0.0
 30
0.0
  0
VERTEX
  5
124
330
122
100
AcDbEntity
  8
001
370
     9
100
AcDbVertex
100
AcDb2dVertex
 10
177.271984
 20
0.524267
 30
0.0
  0
VERTEX
  5
125
330
122
100
AcDbEntity
  8
001
370
     9
100
AcDbVertex
100
AcDb2dVertex
 10
178.771984
 20
0.122343
 30
0.0
  0
VERTEX
  5
126
330
122
100
AcDbEntity
  8
001
370
     9
100
AcDbVertex
100
AcDb2dVertex
 10
177.271984
 20
-0.279581
 30
0.0
  0
SEQEND
  5
123
330
122
100
AcDbEntity
  8
001
370
     9
  0
POLYLINE
  5
127
330
11C
100
AcDbEntity
  8
001
370
     9
100
AcDb2dPolyline
 66
     1
 10
0.0
 20
0.0
 30
0.0
  0
VERTEX
  5
129
330
127
100
AcDbEntity
  8
001
370
     9
100
AcDbVertex
100
AcDb2dVertex
 10
78.271984
 20
-0.279581
 30
0.0
  0
VERTEX
  5
12A
330
127
100
AcDbEntity
  8
001
370
     9
100
AcDbVertex
100
AcDb2dVertex
 10
76.771984
 20
0.122343
 30
0.0
  0
VERTEX
  5
12B
330
127
100
AcDbEntity
  8
001
370
     9
100
AcDbVertex
100
AcDb2dVertex
 10
78.271984
 20
0.524267
 30
0.0
  0
SEQEND
  5
128
330
127
100
AcDbEntity
  8
001
370
     9
  0
TEXT
  5
12C
330
11C
100
AcDbEntity
  8
001
370
    30
100
AcDbText
 10
121.771984
 20
1.122343
 30
0.0
 40
4.0
  1
１０２
 41
0.833333
100
AcDbText
  0
POINT
  5
12D
330
11C
100
AcDbEntity
  8
001
370
     9
100
AcDbPoint
 10
178.771984
 20
45.868914
 30
0.0
  0
POINT
  5
12E
330
11C
100
AcDbEntity
  8
001
370
     9
100
AcDbPoint
 10
76.771984
 20
45.868914
 30
0.0
  0
POINT
  5
12F
330
11C
100
AcDbEntity
  8
001
370
     9
100
AcDbPoint
 10
76.771984
 20
0.122343
 30
0.0
  0
ENDBLK
  5
11E
330
11C
100
AcDbEntity
  8
0
100
AcDbBlockEnd
  0
BLOCK
  5
131
330
130
100
AcDbEntity
  8
0
100
AcDbBlockBegin
  2
*D11
 70
     1
 10
0.0
 20
0.0
 30
0.0
  3
*D11
  1

  0
LINE
  5
133
330
130
100
AcDbEntity
  8
001
370
     9
100
AcDbLine
 10
175.771984
 20
42.868914
 30
0.0
 11
200.620724
 21
42.868914
 31
0.0
  0
LINE
  5
134
330
130
100
AcDbEntity
  8
001
370
     9
100
AcDbLine
 10
175.771984
 20
54.868914
 30
0.0
 11
200.620724
 21
54.868914
 31
0.0
  0
LINE
  5
135
330
130
100
AcDbEntity
  8
001
370
     9
100
AcDbLine
 10
197.870724
 20
42.868914
 30
0.0
 11
197.870724
 21
54.868914
 31
0.0
  0
POLYLINE
  5
136
330
130
100
AcDbEntity
  8
001
370
     9
100
AcDb2dPolyline
 66
     1
 10
0.0
 20
0.0
 30
0.0
  0
VERTEX
  5
138
330
136
100
AcDbEntity
  8
001
370
     9
100
AcDbVertex
100
AcDb2dVertex
 10
197.468801
 20
41.368914
 30
0.0
  0
VERTEX
  5
139
330
136
100
AcDbEntity
  8
001
370
     9
100
AcDbVertex
100
AcDb2dVertex
 10
197.870724
 20
42.868914
 30
0.0
  0
VERTEX
  5
13A
330
136
100
AcDbEntity
  8
001
370
     9
100
AcDbVertex
100
AcDb2dVertex
 10
198.272648
 20
41.368914
 30
0.0
  0
SEQEND
  5
137
330
136
100
AcDbEntity
  8
001
370
     9
  0
POLYLINE
  5
13B
330
130
100
AcDbEntity
  8
001
370
     9
100
AcDb2dPolyline
 66
     1
 10
0.0
 20
0.0
 30
0.0
  0
VERTEX
  5
13D
330
13B
100
AcDbEntity
  8
001
370
     9
100
AcDbVertex
100
AcDb2dVertex
 10
198.272648
 20
56.368914
 30
0.0
  0
VERTEX
  5
13E
330
13B
100
AcDbEntity
  8
001
370
     9
100
AcDbVertex
100
AcDb2dVertex
 10
197.870724
 20
54.868914
 30
0.0
  0
VERTEX
  5
13F
330
13B
100
AcDbEntity
  8
001
370
     9
100
AcDbVertex
100
AcDb2dVertex
 10
197.468801
 20
56.368914
 30
0.0
  0
SEQEND
  5
13C
330
13B
100
AcDbEntity
  8
001
370
     9
  0
TEXT
  5
140
330
130
100
AcDbEntity
  8
001
370
    30
100
AcDbText
 10
196.870724
 20
27.368914
 30
0.0
 40
4.0
  1
%%c１２
 50
90.000003
 41
0.882353
100
AcDbText
  0
POINT
  5
141
330
130
100
AcDbEntity
  8
001
370
     9
100
AcDbPoint
 10
175.771984
 20
42.868914
 30
0.0
  0
POINT
  5
142
330
130
100
AcDbEntity
  8
001
370
     9
100
AcDbPoint
 10
175.771984
 20
54.868914
 30
0.0
  0
POINT
  5
143
330
130
100
AcDbEntity
  8
001
370
     9
100
AcDbPoint
 10
197.870724
 20
54.868914
 30
0.0
  0
LINE
  5
144
330
130
100
AcDbEntity
  8
001
370
     9
100
AcDbLine
 10
197.870724
 20
42.868914
 30
0.0
 11
197.870724
 21
24.368914
 31
0.0
  0
LINE
  5
145
330
130
100
AcDbEntity
  8
001
370
     9
100
AcDbLine
 10
197.870724
 20
54.868914
 30
0.0
 11
197.870724
 21
57.368914
 31
0.0
  0
ENDBLK
  5
132
330
130
100
AcDbEntity
  8
0
100
AcDbBlockEnd
  0
BLOCK
  5
147
330
146
100
AcDbEntity
  8
0
100
AcDbBlockBegin
  2
*D12
 70
     1
 10
0.0
 20
0.0
 30
0.0
  3
*D12
  1

  0
LINE
  5
149
330
146
100
AcDbEntity
  8
001
370
     9
100
AcDbLine
 10
77.371979
 20
43.571743
 30
0.0
 11
77.371979
 21
15.69243
 31
0.0
  0
LINE
  5
14A
330
146
100
AcDbEntity
  8
001
370
     9
100
AcDbLine
 10
76.771984
 20
45.868914
 30
0.0
 11
76.771984
 21
15.69243
 31
0.0
  0
LINE
  5
14B
330
146
100
AcDbEntity
  8
001
370
     9
100
AcDbLine
 10
77.371979
 20
18.44243
 30
0.0
 11
76.771984
 21
18.44243
 31
0.0
  0
POLYLINE
  5
14C
330
146
100
AcDbEntity
  8
001
370
     9
100
AcDb2dPolyline
 66
     1
 10
0.0
 20
0.0
 30
0.0
  0
VERTEX
  5
14E
330
14C
100
AcDbEntity
  8
001
370
     9
100
AcDbVertex
100
AcDb2dVertex
 10
78.871979
 20
18.040506
 30
0.0
  0
VERTEX
  5
14F
330
14C
100
AcDbEntity
  8
001
370
     9
100
AcDbVertex
100
AcDb2dVertex
 10
77.371979
 20
18.44243
 30
0.0
  0
VERTEX
  5
150
330
14C
100
AcDbEntity
  8
001
370
     9
100
AcDbVertex
100
AcDb2dVertex
 10
78.871979
 20
18.844354
 30
0.0
  0
SEQEND
  5
14D
330
14C
100
AcDbEntity
  8
001
370
     9
  0
POLYLINE
  5
151
330
146
100
AcDbEntity
  8
001
370
     9
100
AcDb2dPolyline
 66
     1
 10
0.0
 20
0.0
 30
0.0
  0
VERTEX
  5
153
330
151
100
AcDbEntity
  8
001
370
     9
100
AcDbVertex
100
AcDb2dVertex
 10
75.271984
 20
18.844354
 30
0.0
  0
VERTEX
  5
154
330
151
100
AcDbEntity
  8
001
370
     9
100
AcDbVertex
100
AcDb2dVertex
 10
76.771984
 20
18.44243
 30
0.0
  0
VERTEX
  5
155
330
151
100
AcDbEntity
  8
001
370
     9
100
AcDbVertex
100
AcDb2dVertex
 10
75.271984
 20
18.040506
 30
0.0
  0
SEQEND
  5
152
330
151
100
AcDbEntity
  8
001
370
     9
  0
TEXT
  5
156
330
146
100
AcDbEntity
  8
001
370
    30
100
AcDbText
 10
61.271984
 20
19.44243
 30
0.0
 40
4.0
  1
０．６
 41
0.833333
100
AcDbText
  0
POINT
  5
157
330
146
100
AcDbEntity
  8
001
370
     9
100
AcDbPoint
 10
77.371979
 20
43.571743
 30
0.0
  0
POINT
  5
158
330
146
100
AcDbEntity
  8
001
370
     9
100
AcDbPoint
 10
76.771984
 20
45.868914
 30
0.0
  0
POINT
  5
159
330
146
100
AcDbEntity
  8
001
370
     9
100
AcDbPoint
 10
76.771984
 20
18.44243
 30
0.0
  0
LINE
  5
15A
330
146
100
AcDbEntity
  8
001
370
     9
100
AcDbLine
 10
77.371979
 20
18.44243
 30
0.0
 11
79.871979
 21
18.44243
 31
0.0
  0
LINE
  5
15B
330
146
100
AcDbEntity
  8
001
370
     9
100
AcDbLine
 10
76.771984
 20
18.44243
 30
0.0
 11
58.271984
 21
18.44243
 31
0.0
  0
ENDBLK
  5
148
330
146
100
AcDbEntity
  8
0
100
AcDbBlockEnd
  0
BLOCK
  5
15D
330
15C
100
AcDbEntity
  8
0
100
AcDbBlockBegin
  2
*D13
 70
     1
 10
0.0
 20
0.0
 30
0.0
  3
*D13
  1

  0
LINE
  5
15F
330
15C
100
AcDbEntity
  8
001
370
     9
100
AcDbLine
 10
83.371979
 20
43.368914
 30
0.0
 11
83.371979
 21
15.69243
 31
0.0
  0
LINE
  5
160
330
15C
100
AcDbEntity
  8
001
370
     9
100
AcDbLine
 10
77.371979
 20
43.571743
 30
0.0
 11
77.371979
 21
15.69243
 31
0.0
  0
LINE
  5
161
330
15C
100
AcDbEntity
  8
001
370
     9
100
AcDbLine
 10
83.371979
 20
18.44243
 30
0.0
 11
77.371979
 21
18.44243
 31
0.0
  0
POLYLINE
  5
162
330
15C
100
AcDbEntity
  8
001
370
     9
100
AcDb2dPolyline
 66
     1
 10
0.0
 20
0.0
 30
0.0
  0
VERTEX
  5
164
330
162
100
AcDbEntity
  8
001
370
     9
100
AcDbVertex
100
AcDb2dVertex
 10
84.871979
 20
18.040506
 30
0.0
  0
VERTEX
  5
165
330
162
100
AcDbEntity
  8
001
370
     9
100
AcDbVertex
100
AcDb2dVertex
 10
83.371979
 20
18.44243
 30
0.0
  0
VERTEX
  5
166
330
162
100
AcDbEntity
  8
001
370
     9
100
AcDbVertex
100
AcDb2dVertex
 10
84.871979
 20
18.844354
 30
0.0
  0
SEQEND
  5
163
330
162
100
AcDbEntity
  8
001
370
     9
  0
POLYLINE
  5
167
330
15C
100
AcDbEntity
  8
001
370
     9
100
AcDb2dPolyline
 66
     1
 10
0.0
 20
0.0
 30
0.0
  0
VERTEX
  5
169
330
167
100
AcDbEntity
  8
001
370
     9
100
AcDbVertex
100
AcDb2dVertex
 10
75.871979
 20
18.844354
 30
0.0
  0
VERTEX
  5
16A
330
167
100
AcDbEntity
  8
001
370
     9
100
AcDbVertex
100
AcDb2dVertex
 10
77.371979
 20
18.44243
 30
0.0
  0
VERTEX
  5
16B
330
167
100
AcDbEntity
  8
001
370
     9
100
AcDbVertex
100
AcDb2dVertex
 10
75.871979
 20
18.040506
 30
0.0
  0
SEQEND
  5
168
330
167
100
AcDbEntity
  8
001
370
     9
  0
TEXT
  5
16C
330
15C
100
AcDbEntity
  8
001
370
    30
100
AcDbText
 10
78.371979
 20
19.44243
 30
0.0
 40
4.0
  1
６
 41
0.833333
100
AcDbText
  0
POINT
  5
16D
330
15C
100
AcDbEntity
  8
001
370
     9
100
AcDbPoint
 10
83.371979
 20
43.368914
 30
0.0
  0
POINT
  5
16E
330
15C
100
AcDbEntity
  8
001
370
     9
100
AcDbPoint
 10
77.371979
 20
43.571743
 30
0.0
  0
POINT
  5
16F
330
15C
100
AcDbEntity
  8
001
370
     9
100
AcDbPoint
 10
77.371979
 20
18.44243
 30
0.0
  0
LINE
  5
170
330
15C
100
AcDbEntity
  8
001
370
     9
100
AcDbLine
 10
83.371979
 20
18.44243
 30
0.0
 11
85.871979
 21
18.44243
 31
0.0
  0
LINE
  5
171
330
15C
100
AcDbEntity
  8
001
370
     9
100
AcDbLine
 10
77.371979
 20
18.44243
 30
0.0
 11
74.871979
 21
18.44243
 31
0.0
  0
ENDBLK
  5
15E
330
15C
100
AcDbEntity
  8
0
100
AcDbBlockEnd
  0
ENDSEC
  0
SECTION
  2
ENTITIES
  0
DIMENSION
  5
172
330
1F
100
AcDbEntity
  8
001
370
     9
100
AcDbDimension
  2
*D1
 10
31.267326
 20
0.639288
 30
0.0
 11
34.567326
 21
1.839288
 31
0.0
 70
   160
 71
     5
 42
-1.0
  3
Standard
100
AcDbAlignedDimension
 13
37.867326
 23
4.595468
 33
0.0
 14
31.267326
 24
4.595468
 34
0.0
 50
180.0
100
AcDbRotatedDimension
  0
TEXT
  5
173
330
1F
100
AcDbEntity
  8
001
370
    30
100
AcDbText
 10
25.628265
 20
22.900214
 30
0.0
 40
1.6
  1
Ｃ０．３
 50
314.999992
 41
0.833333
100
AcDbText
  0
POLYLINE
  5
174
330
1F
100
AcDbEntity
  8
001
370
     9
100
AcDb2dPolyline
 66
     1
 10
0.0
 20
0.0
 30
0.0
  0
VERTEX
  5
176
330
174
100
AcDbEntity
  8
001
370
     9
100
AcDbVertex
100
AcDb2dVertex
 10
37.706743
 20
10.483413
 30
0.0
  0
VERTEX
  5
177
330
174
100
AcDbEntity
  8
001
370
     9
100
AcDbVertex
100
AcDb2dVertex
 10
38.017326
 20
9.945468
 30
0.0
  0
VERTEX
  5
178
330
174
100
AcDbEntity
  8
001
370
     9
100
AcDbVertex
100
AcDb2dVertex
 10
37.47938
 20
10.256051
 30
0.0
  0
SEQEND
  5
175
330
174
100
AcDbEntity
  8
001
370
     9
  0
LINE
  5
179
330
1F
100
AcDbEntity
  8
001
370
     9
100
AcDbLine
 10
38.017326
 20
9.945468
 30
0.0
 11
24.496894
 21
23.465899
 31
0.0
  0
TEXT
  5
17A
330
1F
100
AcDbEntity
  8
001
370
    30
100
AcDbText
 10
31.807213
 20
25.421266
 30
0.0
 40
1.6
  1
Ｃ０．５
 50
314.999992
 41
0.833333
100
AcDbText
  0
POLYLINE
  5
17B
330
1F
100
AcDbEntity
  8
001
370
     9
100
AcDb2dPolyline
 66
     1
 10
0.0
 20
0.0
 30
0.0
  0
VERTEX
  5
17D
330
17B
100
AcDbEntity
  8
001
370
     9
100
AcDbVertex
100
AcDb2dVertex
 10
40.006743
 20
16.883413
 30
0.0
  0
VERTEX
  5
17E
330
17B
100
AcDbEntity
  8
001
370
     9
100
AcDbVertex
100
AcDb2dVertex
 10
40.317326
 20
16.345468
 30
0.0
  0
VERTEX
  5
17F
330
17B
100
AcDbEntity
  8
001
370
     9
100
AcDbVertex
100
AcDb2dVertex
 10
39.77938
 20
16.656051
 30
0.0
  0
SEQEND
  5
17C
330
17B
100
AcDbEntity
  8
001
370
     9
  0
LINE
  5
180
330
1F
100
AcDbEntity
  8
001
370
     9
100
AcDbLine
 10
40.317326
 20
16.345468
 30
0.0
 11
30.675842
 21
25.986952
 31
0.0
  0
DIMENSION
  5
181
330
1F
100
AcDbEntity
  8
001
370
     9
100
AcDbDimension
  2
*D2
 10
40.067326
 20
26.953961
 30
0.0
 11
34.896666
 21
28.153961
 31
0.0
 70
   160
 71
     5
 42
-1.0
  3
Standard
100
AcDbAlignedDimension
 13
29.067326
 23
16.095468
 33
0.0
 14
40.067326
 24
16.095468
 34
0.0
100
AcDbRotatedDimension
  0
DIMENSION
  5
182
330
1F
100
AcDbEntity
  8
001
370
     9
100
AcDbDimension
  2
*D3
 10
45.898897
 20
10.095468
 30
0.0
 11
44.698897
 21
13.345468
 31
0.0
 70
   160
 71
     5
 42
-1.0
  3
Standard
100
AcDbAlignedDimension
 13
43.567326
 23
16.595468
 33
0.0
 14
40.067326
 24
10.095468
 34
0.0
 50
270.0
100
AcDbRotatedDimension
  0
DIMENSION
  5
183
330
1F
100
AcDbEntity
  8
001
370
     9
100
AcDbDimension
  2
*D4
 10
77.871979
 20
48.868914
 30
0.0
 11
106.439222
 21
37.035974
 31
0.0
 70
    34
 71
     5
 42
-1.0
  3
Standard
100
AcDb2LineAngularDimension
 13
76.303068
 23
48.868914
 33
0.0
 14
77.871979
 24
48.868914
 34
0.0
 15
84.371979
 25
42.368914
 35
0.0
 16
109.210861
 26
35.887924
 36
0.0
  0
DIMENSION
  5
184
330
1F
100
AcDbEntity
  8
001
370
     9
100
AcDbDimension
  2
*D5
 10
73.771984
 20
48.868914
 30
0.0
 11
112.350848
 21
32.889025
 31
0.0
 70
    34
 71
     5
 42
-1.0
  3
Standard
100
AcDb2LineAngularDimension
 13
76.303068
 23
48.868914
 33
0.0
 14
73.771984
 24
48.868914
 34
0.0
 15
77.371979
 25
45.268919
 35
0.0
 16
115.122486
 26
31.740975
 36
0.0
  0
DIMENSION
  5
185
330
1F
100
AcDbEntity
  8
001
370
     9
100
AcDbDimension
  2
*D6
 10
68.70405
 20
54.368914
 30
0.0
 11
65.704049
 21
48.868914
 31
0.0
 70
   160
 71
     5
 42
-1.0
  3
Standard
100
AcDbAlignedDimension
 13
77.573867
 23
43.368914
 33
0.0
 14
77.573867
 24
54.368914
 34
0.0
 50
90.0
100
AcDbRotatedDimension
  0
DIMENSION
  5
186
330
1F
100
AcDbEntity
  8
001
370
     9
100
AcDbDimension
  2
*D7
 10
58.749358
 20
55.368914
 30
0.0
 11
55.749358
 21
48.868914
 31
0.0
 70
   160
 71
     5
 42
-1.0
  3
Standard
100
AcDbAlignedDimension
 13
84.371979
 23
42.368914
 33
0.0
 14
84.371979
 24
55.368914
 34
0.0
 50
90.0
100
AcDbRotatedDimension
  0
DIMENSION
  5
187
330
1F
100
AcDbEntity
  8
001
370
     9
100
AcDbDimension
  2
*D8
 10
76.771984
 20
8.480804
 30
0.0
 11
87.771984
 21
11.480804
 31
0.0
 70
   160
 71
     5
 42
-1.0
  3
Standard
100
AcDbAlignedDimension
 13
98.771984
 23
42.368914
 33
0.0
 14
76.771984
 24
45.868914
 34
0.0
 50
180.0
100
AcDbRotatedDimension
  0
DIMENSION
  5
188
330
1F
100
AcDbEntity
  8
001
370
     9
100
AcDbDimension
  2
*D9
 10
98.771984
 20
8.480804
 30
0.0
 11
138.771984
 21
11.480804
 31
0.0
 70
   160
 71
     5
 42
-1.0
  3
Standard
100
AcDbAlignedDimension
 13
178.771984
 23
45.868914
 33
0.0
 14
98.771984
 24
42.368914
 34
0.0
 50
180.0
100
AcDbRotatedDimension
  0
DIMENSION
  5
189
330
1F
100
AcDbEntity
  8
001
370
     9
100
AcDbDimension
  2
*D10
 10
76.771984
 20
0.122343
 30
0.0
 11
127.771984
 21
3.122343
 31
0.0
 70
   160
 71
     5
 42
-1.0
  3
Standard
100
AcDbAlignedDimension
 13
178.771984
 23
45.868914
 33
0.0
 14
76.771984
 24
45.868914
 34
0.0
 50
180.0
100
AcDbRotatedDimension
  0
DIMENSION
  5
18A
330
1F
100
AcDbEntity
  8
001
370
     9
100
AcDbDimension
  2
*D11
 10
197.870724
 20
54.868914
 30
0.0
 11
194.870724
 21
33.368914
 31
0.0
 70
   160
 71
     5
 42
-1.0
  3
Standard
100
AcDbAlignedDimension
 13
175.771984
 23
42.868914
 33
0.0
 14
175.771984
 24
54.868914
 34
0.0
 50
90.0
100
AcDbRotatedDimension
  0
DIMENSION
  5
18B
330
1F
100
AcDbEntity
  8
001
370
     9
100
AcDbDimension
  2
*D12
 10
76.771984
 20
18.44243
 30
0.0
 11
67.271984
 21
21.44243
 31
0.0
 70
   160
 71
     5
 42
-1.0
  3
Standard
100
AcDbAlignedDimension
 13
77.371979
 23
43.571743
 33
0.0
 14
76.771984
 24
45.868914
 34
0.0
 50
180.0
100
AcDbRotatedDimension
  0
DIMENSION
  5
18C
330
1F
100
AcDbEntity
  8
001
370
     9
100
AcDbDimension
  2
*D13
 10
77.371979
 20
18.44243
 30
0.0
 11
80.371979
 21
21.44243
 31
0.0
 70
   160
 71
     5
 42
-1.0
  3
Standard
100
AcDbAlignedDimension
 13
83.371979
 23
43.368914
 33
0.0
 14
77.371979
 24
43.571743
 34
0.0
 50
180.0
100
AcDbRotatedDimension
  0
TEXT
  5
18D
330
1F
100
AcDbEntity
  8
001
370
    30
100
AcDbText
 10
18.134687
 20
80.14375
 30
0.0
 40
10.0
  1
イーグルカット　ＥＣ１２－１１ＸＸ－Ｍ６
 41
0.833333
100
AcDbText
  0
LINE
  5
18E
330
1F
100
AcDbEntity
  8
001
370
    50
100
AcDbLine
 10
25.567326
 20
16.595468
 30
0.0
 11
43.567326
 21
16.595468
 31
0.0
  0
LINE
  5
18F
330
1F
100
AcDbEntity
  8
001
370
    50
100
AcDbLine
 10
29.067326
 20
10.095468
 30
0.0
 11
40.067326
 21
10.095468
 31
0.0
  0
LINE
  5
190
330
1F
100
AcDbEntity
  8
001
370
    50
100
AcDbLine
 10
43.567326
 20
4.595468
 30
0.0
 11
25.567326
 21
4.595468
 31
0.0
  0
LINE
  5
191
330
1F
100
AcDbEntity
  8
001
370
    50
100
AcDbLine
 10
37.867326
 20
9.795468
 30
0.0
 11
37.867326
 21
4.595468
 31
0.0
  0
LINE
  5
192
330
1F
100
AcDbEntity
  8
001
370
    50
100
AcDbLine
 10
31.267326
 20
9.795468
 30
0.0
 11
31.267326
 21
4.595468
 31
0.0
  0
LINE
  5
193
330
1F
100
AcDbEntity
  8
001
370
    50
100
AcDbLine
 10
40.067326
 20
16.095468
 30
0.0
 11
40.067326
 21
10.095468
 31
0.0
  0
LINE
  5
194
330
1F
100
AcDbEntity
  8
001
370
    50
100
AcDbLine
 10
29.067326
 20
16.095468
 30
0.0
 11
29.067326
 21
10.095468
 31
0.0
  0
LINE
  5
195
330
1F
100
AcDbEntity
  8
001
  6
CENTER
370
     9
100
AcDbLine
 10
34.567326
 20
17.160365
 30
0.0
 11
34.567326
 21
3.68086
 31
0.0
  0
LINE
  5
196
330
1F
100
AcDbEntity
  8
001
370
    50
100
AcDbLine
 10
37.867326
 20
9.795468
 30
0.0
 11
38.167326
 21
10.095468
 31
0.0
  0
LINE
  5
197
330
1F
100
AcDbEntity
  8
001
370
    50
100
AcDbLine
 10
31.267326
 20
9.795468
 30
0.0
 11
30.967326
 21
10.095468
 31
0.0
  0
LINE
  5
198
330
1F
100
AcDbEntity
  8
001
370
    50
100
AcDbLine
 10
29.067326
 20
16.095468
 30
0.0
 11
28.567326
 21
16.595468
 31
0.0
  0
LINE
  5
199
330
1F
100
AcDbEntity
  8
001
370
    50
100
AcDbLine
 10
29.067326
 20
16.095468
 30
0.0
 11
40.067326
 21
16.095468
 31
0.0
  0
LINE
  5
19A
330
1F
100
AcDbEntity
  8
001
370
    50
100
AcDbLine
 10
31.267326
 20
9.795468
 30
0.0
 11
37.867326
 21
9.795468
 31
0.0
  0
LINE
  5
19B
330
1F
100
AcDbEntity
  8
001
370
    50
100
AcDbLine
 10
40.067326
 20
16.095468
 30
0.0
 11
40.567326
 21
16.595468
 31
0.0
  0
LINE
  5
19C
330
1F
100
AcDbEntity
  8
001
370
     9
100
AcDbLine
 10
38.409835
 20
-4.548507
 30
0.0
 11
31.746646
 21
-4.548507
 31
0.0
  0
POLYLINE
  5
19D
330
1F
100
AcDbEntity
  8
001
370
    50
100
AcDb2dPolyline
 66
     1
 10
0.0
 20
0.0
 30
0.0
  0
VERTEX
  5
19F
330
19D
100
AcDbEntity
  8
001
370
    50
100
AcDbVertex
100
AcDb2dVertex
 10
81.247333
 20
48.728301
 30
0.0
  0
VERTEX
  5
1A0
330
19D
100
AcDbEntity
  8
001
370
    50
100
AcDbVertex
100
AcDb2dVertex
 10
81.12339
 20
48.721826
 30
0.0
  0
VERTEX
  5
1A1
330
19D
100
AcDbEntity
  8
001
370
    50
100
AcDbVertex
100
AcDb2dVertex
 10
80.953748
 20
48.702474
 30
0.0
  0
VERTEX
  5
1A2
330
19D
100
AcDbEntity
  8
001
370
    50
100
AcDbVertex
100
AcDb2dVertex
 10
80.803457
 20
48.670368
 30
0.0
  0
VERTEX
  5
1A3
330
19D
100
AcDbEntity
  8
001
370
    50
100
AcDbVertex
100
AcDb2dVertex
 10
80.669084
 20
48.625778
 30
0.0
  0
VERTEX
  5
1A4
330
19D
100
AcDbEntity
  8
001
370
    50
100
AcDbVertex
100
AcDb2dVertex
 10
80.534478
 20
48.569
 30
0.0
  0
VERTEX
  5
1A5
330
19D
100
AcDbEntity
  8
001
370
    50
100
AcDbVertex
100
AcDb2dVertex
 10
80.401989
 20
48.500544
 30
0.0
  0
VERTEX
  5
1A6
330
19D
100
AcDbEntity
  8
001
370
    50
100
AcDbVertex
100
AcDb2dVertex
 10
80.277118
 20
48.420869
 30
0.0
  0
VERTEX
  5
1A7
330
19D
100
AcDbEntity
  8
001
370
    50
100
AcDbVertex
100
AcDb2dVertex
 10
80.16058
 20
48.330576
 30
0.0
  0
VERTEX
  5
1A8
330
19D
100
AcDbEntity
  8
001
370
    50
100
AcDbVertex
100
AcDb2dVertex
 10
80.051935
 20
48.230233
 30
0.0
  0
VERTEX
  5
1A9
330
19D
100
AcDbEntity
  8
001
370
    50
100
AcDbVertex
100
AcDb2dVertex
 10
79.952191
 20
48.121039
 30
0.0
  0
VERTEX
  5
1AA
330
19D
100
AcDbEntity
  8
001
370
    50
100
AcDbVertex
100
AcDb2dVertex
 10
79.862355
 20
48.003803
 30
0.0
  0
VERTEX
  5
1AB
330
19D
100
AcDbEntity
  8
001
370
    50
100
AcDbVertex
100
AcDb2dVertex
 10
79.783155
 20
47.878301
 30
0.0
  0
VERTEX
  5
1AC
330
19D
100
AcDbEntity
  8
001
370
    50
100
AcDbVertex
100
AcDb2dVertex
 10
79.715051
 20
47.745038
 30
0.0
  0
VERTEX
  5
1AD
330
19D
100
AcDbEntity
  8
001
370
    50
100
AcDbVertex
100
AcDb2dVertex
 10
79.658606
 20
47.609735
 30
0.0
  0
VERTEX
  5
1AE
330
19D
100
AcDbEntity
  8
001
370
    50
100
AcDbVertex
100
AcDb2dVertex
 10
79.614251
 20
47.474579
 30
0.0
  0
VERTEX
  5
1AF
330
19D
100
AcDbEntity
  8
001
370
    50
100
AcDbVertex
100
AcDb2dVertex
 10
79.582331
 20
47.323502
 30
0.0
  0
VERTEX
  5
1B0
330
19D
100
AcDbEntity
  8
001
370
    50
100
AcDbVertex
100
AcDb2dVertex
 10
79.563083
 20
47.152919
 30
0.0
  0
VERTEX
  5
1B1
330
19D
100
AcDbEntity
  8
001
370
    50
100
AcDbVertex
100
AcDb2dVertex
 10
79.556645
 20
47.028301
 30
0.0
  0
SEQEND
  5
19E
330
19D
100
AcDbEntity
  8
001
370
    50
  0
LINE
  5
1B2
330
1F
100
AcDbEntity
  8
001
370
    50
100
AcDbLine
 10
85.520793
 20
50.453804
 30
0.0
 11
76.973872
 21
50.453804
 31
0.0
  0
POLYLINE
  5
1B3
330
1F
100
AcDbEntity
  8
001
370
    50
100
AcDb2dPolyline
 66
     1
 10
0.0
 20
0.0
 30
0.0
  0
VERTEX
  5
1B5
330
1B3
100
AcDbEntity
  8
001
370
    50
100
AcDbVertex
100
AcDb2dVertex
 10
85.722681
 20
50.250804
 30
0.0
  0
VERTEX
  5
1B6
330
1B3
100
AcDbEntity
  8
001
370
    50
100
AcDbVertex
100
AcDb2dVertex
 10
85.721912
 20
50.265685
 30
0.0
  0
VERTEX
  5
1B7
330
1B3
100
AcDbEntity
  8
001
370
    50
100
AcDbVertex
100
AcDb2dVertex
 10
85.719614
 20
50.286054
 30
0.0
  0
VERTEX
  5
1B8
330
1B3
100
AcDbEntity
  8
001
370
    50
100
AcDbVertex
100
AcDb2dVertex
 10
85.715802
 20
50.304095
 30
0.0
  0
VERTEX
  5
1B9
330
1B3
100
AcDbEntity
  8
001
370
    50
100
AcDbVertex
100
AcDb2dVertex
 10
85.710506
 20
50.320234
 30
0.0
  0
VERTEX
  5
1BA
330
1B3
100
AcDbEntity
  8
001
370
    50
100
AcDbVertex
100
AcDb2dVertex
 10
85.703766
 20
50.336391
 30
0.0
  0
VERTEX
  5
1BB
330
1B3
100
AcDbEntity
  8
001
370
    50
100
AcDbVertex
100
AcDb2dVertex
 10
85.695633
 20
50.352304
 30
0.0
  0
VERTEX
  5
1BC
330
1B3
100
AcDbEntity
  8
001
370
    50
100
AcDbVertex
100
AcDb2dVertex
 10
85.686176
 20
50.36729
 30
0.0
  0
VERTEX
  5
1BD
330
1B3
100
AcDbEntity
  8
001
370
    50
100
AcDbVertex
100
AcDb2dVertex
 10
85.675448
 20
50.38129
 30
0.0
  0
VERTEX
  5
1BE
330
1B3
100
AcDbEntity
  8
001
370
    50
100
AcDbVertex
100
AcDb2dVertex
 10
85.663538
 20
50.394329
 30
0.0
  0
VERTEX
  5
1BF
330
1B3
100
AcDbEntity
  8
001
370
    50
100
AcDbVertex
100
AcDb2dVertex
 10
85.650564
 20
50.406311
 30
0.0
  0
VERTEX
  5
1C0
330
1B3
100
AcDbEntity
  8
001
370
    50
100
AcDbVertex
100
AcDb2dVertex
 10
85.636648
 20
50.417093
 30
0.0
  0
VERTEX
  5
1C1
330
1B3
100
AcDbEntity
  8
001
370
    50
100
AcDbVertex
100
AcDb2dVertex
 10
85.621737
 20
50.426607
 30
0.0
  0
VERTEX
  5
1C2
330
1B3
100
AcDbEntity
  8
001
370
    50
100
AcDbVertex
100
AcDb2dVertex
 10
85.605916
 20
50.434781
 30
0.0
  0
VERTEX
  5
1C3
330
1B3
100
AcDbEntity
  8
001
370
    50
100
AcDbVertex
100
AcDb2dVertex
 10
85.589843
 20
50.441561
 30
0.0
  0
VERTEX
  5
1C4
330
1B3
100
AcDbEntity
  8
001
370
    50
100
AcDbVertex
100
AcDb2dVertex
 10
85.573797
 20
50.446886
 30
0.0
  0
VERTEX
  5
1C5
330
1B3
100
AcDbEntity
  8
001
370
    50
100
AcDbVertex
100
AcDb2dVertex
 10
85.555851
 20
50.45072
 30
0.0
  0
VERTEX
  5
1C6
330
1B3
100
AcDbEntity
  8
001
370
    50
100
AcDbVertex
100
AcDb2dVertex
 10
85.535593
 20
50.453031
 30
0.0
  0
VERTEX
  5
1C7
330
1B3
100
AcDbEntity
  8
001
370
    50
100
AcDbVertex
100
AcDb2dVertex
 10
85.520793
 20
50.453804
 30
0.0
  0
SEQEND
  5
1B4
330
1B3
100
AcDbEntity
  8
001
370
    50
  0
LINE
  5
1C8
330
1F
100
AcDbEntity
  8
001
370
    50
100
AcDbLine
 10
85.722681
 20
42.571914
 30
0.0
 11
85.722681
 21
50.250804
 31
0.0
  0
LINE
  5
1C9
330
1F
100
AcDbEntity
  8
001
370
    50
100
AcDbLine
 10
84.371979
 20
42.368914
 30
0.0
 11
85.520881
 21
42.368914
 31
0.0
  0
LINE
  5
1CA
330
1F
100
AcDbEntity
  8
001
370
    50
100
AcDbLine
 10
83.371979
 20
43.368914
 30
0.0
 11
77.573867
 21
43.368914
 31
0.0
  0
LINE
  5
1CB
330
1F
100
AcDbEntity
  8
001
370
    50
100
AcDbLine
 10
77.371979
 20
45.268919
 30
0.0
 11
77.371979
 21
43.571743
 31
0.0
  0
LINE
  5
1CC
330
1F
100
AcDbEntity
  8
001
370
    50
100
AcDbLine
 10
76.771984
 20
45.868914
 30
0.0
 11
76.771984
 21
50.250805
 31
0.0
  0
POLYLINE
  5
1CD
330
1F
100
AcDbEntity
  8
001
370
    50
100
AcDb2dPolyline
 66
     1
 10
0.0
 20
0.0
 30
0.0
  0
VERTEX
  5
1CF
330
1CD
100
AcDbEntity
  8
001
370
    50
100
AcDbVertex
100
AcDb2dVertex
 10
79.556645
 20
47.028301
 30
0.0
  0
VERTEX
  5
1D0
330
1CD
100
AcDbEntity
  8
001
370
    50
100
AcDbVertex
100
AcDb2dVertex
 10
79.563083
 20
46.903682
 30
0.0
  0
VERTEX
  5
1D1
330
1CD
100
AcDbEntity
  8
001
370
    50
100
AcDbVertex
100
AcDb2dVertex
 10
79.582331
 20
46.733099
 30
0.0
  0
VERTEX
  5
1D2
330
1CD
100
AcDbEntity
  8
001
370
    50
100
AcDbVertex
100
AcDb2dVertex
 10
79.614251
 20
46.582022
 30
0.0
  0
VERTEX
  5
1D3
330
1CD
100
AcDbEntity
  8
001
370
    50
100
AcDbVertex
100
AcDb2dVertex
 10
79.658606
 20
46.446866
 30
0.0
  0
VERTEX
  5
1D4
330
1CD
100
AcDbEntity
  8
001
370
    50
100
AcDbVertex
100
AcDb2dVertex
 10
79.715051
 20
46.311563
 30
0.0
  0
VERTEX
  5
1D5
330
1CD
100
AcDbEntity
  8
001
370
    50
100
AcDbVertex
100
AcDb2dVertex
 10
79.783155
 20
46.1783
 30
0.0
  0
VERTEX
  5
1D6
330
1CD
100
AcDbEntity
  8
001
370
    50
100
AcDbVertex
100
AcDb2dVertex
 10
79.862355
 20
46.052798
 30
0.0
  0
VERTEX
  5
1D7
330
1CD
100
AcDbEntity
  8
001
370
    50
100
AcDbVertex
100
AcDb2dVertex
 10
79.952191
 20
45.935562
 30
0.0
  0
VERTEX
  5
1D8
330
1CD
100
AcDbEntity
  8
001
370
    50
100
AcDbVertex
100
AcDb2dVertex
 10
80.051935
 20
45.826368
 30
0.0
  0
VERTEX
  5
1D9
330
1CD
100
AcDbEntity
  8
001
370
    50
100
AcDbVertex
100
AcDb2dVertex
 10
80.16058
 20
45.726025
 30
0.0
  0
VERTEX
  5
1DA
330
1CD
100
AcDbEntity
  8
001
370
    50
100
AcDbVertex
100
AcDb2dVertex
 10
80.277118
 20
45.635732
 30
0.0
  0
VERTEX
  5
1DB
330
1CD
100
AcDbEntity
  8
001
370
    50
100
AcDbVertex
100
AcDb2dVertex
 10
80.401989
 20
45.556057
 30
0.0
  0
VERTEX
  5
1DC
330
1CD
100
AcDbEntity
  8
001
370
    50
100
AcDbVertex
100
AcDb2dVertex
 10
80.534478
 20
45.487601
 30
0.0
  0
VERTEX
  5
1DD
330
1CD
100
AcDbEntity
  8
001
370
    50
100
AcDbVertex
100
AcDb2dVertex
 10
80.669084
 20
45.430823
 30
0.0
  0
VERTEX
  5
1DE
330
1CD
100
AcDbEntity
  8
001
370
    50
100
AcDbVertex
100
AcDb2dVertex
 10
80.803457
 20
45.386233
 30
0.0
  0
VERTEX
  5
1DF
330
1CD
100
AcDbEntity
  8
001
370
    50
100
AcDbVertex
100
AcDb2dVertex
 10
80.953748
 20
45.354127
 30
0.0
  0
VERTEX
  5
1E0
330
1CD
100
AcDbEntity
  8
001
370
    50
100
AcDbVertex
100
AcDb2dVertex
 10
81.12339
 20
45.334775
 30
0.0
  0
VERTEX
  5
1E1
330
1CD
100
AcDbEntity
  8
001
370
    50
100
AcDbVertex
100
AcDb2dVertex
 10
81.247333
 20
45.328301
 30
0.0
  0
SEQEND
  5
1CE
330
1CD
100
AcDbEntity
  8
001
370
    50
  0
POLYLINE
  5
1E2
330
1F
100
AcDbEntity
  8
001
370
    50
100
AcDb2dPolyline
 66
     1
 10
0.0
 20
0.0
 30
0.0
  0
VERTEX
  5
1E4
330
1E2
100
AcDbEntity
  8
001
370
    50
100
AcDbVertex
100
AcDb2dVertex
 10
81.247333
 20
45.328301
 30
0.0
  0
VERTEX
  5
1E5
330
1E2
100
AcDbEntity
  8
001
370
    50
100
AcDbVertex
100
AcDb2dVertex
 10
81.378539
 20
45.335559
 30
0.0
  0
VERTEX
  5
1E6
330
1E2
100
AcDbEntity
  8
001
370
    50
100
AcDbVertex
100
AcDb2dVertex
 10
81.557996
 20
45.357246
 30
0.0
  0
VERTEX
  5
1E7
330
1E2
100
AcDbEntity
  8
001
370
    50
100
AcDbVertex
100
AcDb2dVertex
 10
81.716678
 20
45.393208
 30
0.0
  0
VERTEX
  5
1E8
330
1E2
100
AcDbEntity
  8
001
370
    50
100
AcDbVertex
100
AcDb2dVertex
 10
81.858079
 20
45.443098
 30
0.0
  0
VERTEX
  5
1E9
330
1E2
100
AcDbEntity
  8
001
370
    50
100
AcDbVertex
100
AcDb2dVertex
 10
81.999179
 20
45.506542
 30
0.0
  0
VERTEX
  5
1EA
330
1E2
100
AcDbEntity
  8
001
370
    50
100
AcDbVertex
100
AcDb2dVertex
 10
82.137365
 20
45.582931
 30
0.0
  0
VERTEX
  5
1EB
330
1E2
100
AcDbEntity
  8
001
370
    50
100
AcDbVertex
100
AcDb2dVertex
 10
82.266705
 20
45.671699
 30
0.0
  0
VERTEX
  5
1EC
330
1E2
100
AcDbEntity
  8
001
370
    50
100
AcDbVertex
100
AcDb2dVertex
 10
82.386341
 20
45.771985
 30
0.0
  0
VERTEX
  5
1ED
330
1E2
100
AcDbEntity
  8
001
370
    50
100
AcDbVertex
100
AcDb2dVertex
 10
82.49666
 20
45.883051
 30
0.0
  0
VERTEX
  5
1EE
330
1E2
100
AcDbEntity
  8
001
370
    50
100
AcDbVertex
100
AcDb2dVertex
 10
82.59653
 20
46.003822
 30
0.0
  0
VERTEX
  5
1EF
330
1E2
100
AcDbEntity
  8
001
370
    50
100
AcDbVertex
100
AcDb2dVertex
 10
82.684833
 20
46.133399
 30
0.0
  0
VERTEX
  5
1F0
330
1E2
100
AcDbEntity
  8
001
370
    50
100
AcDbVertex
100
AcDb2dVertex
 10
82.760774
 20
46.270545
 30
0.0
  0
VERTEX
  5
1F1
330
1E2
100
AcDbEntity
  8
001
370
    50
100
AcDbVertex
100
AcDb2dVertex
 10
82.823847
 20
46.414216
 30
0.0
  0
VERTEX
  5
1F2
330
1E2
100
AcDbEntity
  8
001
370
    50
100
AcDbVertex
100
AcDb2dVertex
 10
82.873479
 20
46.563073
 30
0.0
  0
VERTEX
  5
1F3
330
1E2
100
AcDbEntity
  8
001
370
    50
100
AcDbVertex
100
AcDb2dVertex
 10
82.909233
 20
46.715941
 30
0.0
  0
VERTEX
  5
1F4
330
1E2
100
AcDbEntity
  8
001
370
    50
100
AcDbVertex
100
AcDb2dVertex
 10
82.930808
 20
46.871444
 30
0.0
  0
VERTEX
  5
1F5
330
1E2
100
AcDbEntity
  8
001
370
    50
100
AcDbVertex
100
AcDb2dVertex
 10
82.938014
 20
47.028301
 30
0.0
  0
VERTEX
  5
1F6
330
1E2
100
AcDbEntity
  8
001
370
    50
100
AcDbVertex
100
AcDb2dVertex
 10
82.930808
 20
47.185157
 30
0.0
  0
VERTEX
  5
1F7
330
1E2
100
AcDbEntity
  8
001
370
    50
100
AcDbVertex
100
AcDb2dVertex
 10
82.909233
 20
47.34066
 30
0.0
  0
VERTEX
  5
1F8
330
1E2
100
AcDbEntity
  8
001
370
    50
100
AcDbVertex
100
AcDb2dVertex
 10
82.873479
 20
47.493528
 30
0.0
  0
VERTEX
  5
1F9
330
1E2
100
AcDbEntity
  8
001
370
    50
100
AcDbVertex
100
AcDb2dVertex
 10
82.823847
 20
47.642385
 30
0.0
  0
VERTEX
  5
1FA
330
1E2
100
AcDbEntity
  8
001
370
    50
100
AcDbVertex
100
AcDb2dVertex
 10
82.760774
 20
47.786056
 30
0.0
  0
VERTEX
  5
1FB
330
1E2
100
AcDbEntity
  8
001
370
    50
100
AcDbVertex
100
AcDb2dVertex
 10
82.684833
 20
47.923202
 30
0.0
  0
VERTEX
  5
1FC
330
1E2
100
AcDbEntity
  8
001
370
    50
100
AcDbVertex
100
AcDb2dVertex
 10
82.59653
 20
48.052779
 30
0.0
  0
VERTEX
  5
1FD
330
1E2
100
AcDbEntity
  8
001
370
    50
100
AcDbVertex
100
AcDb2dVertex
 10
82.49666
 20
48.17355
 30
0.0
  0
VERTEX
  5
1FE
330
1E2
100
AcDbEntity
  8
001
370
    50
100
AcDbVertex
100
AcDb2dVertex
 10
82.386341
 20
48.284616
 30
0.0
  0
VERTEX
  5
1FF
330
1E2
100
AcDbEntity
  8
001
370
    50
100
AcDbVertex
100
AcDb2dVertex
 10
82.266705
 20
48.384903
 30
0.0
  0
VERTEX
  5
200
330
1E2
100
AcDbEntity
  8
001
370
    50
100
AcDbVertex
100
AcDb2dVertex
 10
82.137365
 20
48.47367
 30
0.0
  0
VERTEX
  5
201
330
1E2
100
AcDbEntity
  8
001
370
    50
100
AcDbVertex
100
AcDb2dVertex
 10
81.999179
 20
48.550059
 30
0.0
  0
VERTEX
  5
202
330
1E2
100
AcDbEntity
  8
001
370
    50
100
AcDbVertex
100
AcDb2dVertex
 10
81.858079
 20
48.613503
 30
0.0
  0
VERTEX
  5
203
330
1E2
100
AcDbEntity
  8
001
370
    50
100
AcDbVertex
100
AcDb2dVertex
 10
81.716678
 20
48.663393
 30
0.0
  0
VERTEX
  5
204
330
1E2
100
AcDbEntity
  8
001
370
    50
100
AcDbVertex
100
AcDb2dVertex
 10
81.557996
 20
48.699355
 30
0.0
  0
VERTEX
  5
205
330
1E2
100
AcDbEntity
  8
001
370
    50
100
AcDbVertex
100
AcDb2dVertex
 10
81.378539
 20
48.721043
 30
0.0
  0
VERTEX
  5
206
330
1E2
100
AcDbEntity
  8
001
370
    50
100
AcDbVertex
100
AcDb2dVertex
 10
81.247333
 20
48.728301
 30
0.0
  0
SEQEND
  5
1E3
330
1E2
100
AcDbEntity
  8
001
370
    50
  0
POLYLINE
  5
207
330
1F
100
AcDbEntity
  8
001
370
    50
100
AcDb2dPolyline
 66
     1
 10
0.0
 20
0.0
 30
0.0
  0
VERTEX
  5
209
330
207
100
AcDbEntity
  8
001
370
    50
100
AcDbVertex
100
AcDb2dVertex
 10
96.29969
 20
42.545135
 30
0.0
  0
VERTEX
  5
20A
330
207
100
AcDbEntity
  8
001
370
    50
100
AcDbVertex
100
AcDb2dVertex
 10
96.359046
 20
42.487
 30
0.0
  0
VERTEX
  5
20B
330
207
100
AcDbEntity
  8
001
370
    50
100
AcDbVertex
100
AcDb2dVertex
 10
96.454788
 20
42.413119
 30
0.0
  0
VERTEX
  5
20C
330
207
100
AcDbEntity
  8
001
370
    50
100
AcDbVertex
100
AcDb2dVertex
 10
96.51555
 20
42.38162
 30
0.0
  0
VERTEX
  5
20D
330
207
100
AcDbEntity
  8
001
370
    50
100
AcDbVertex
100
AcDb2dVertex
 10
96.559992
 20
42.368914
 30
0.0
  0
SEQEND
  5
208
330
207
100
AcDbEntity
  8
001
370
    50
  0
LINE
  5
20E
330
1F
100
AcDbEntity
  8
001
370
    50
100
AcDbLine
 10
98.771984
 20
55.368914
 30
0.0
 11
98.771984
 21
42.368914
 31
0.0
  0
LINE
  5
20F
330
1F
100
AcDbEntity
  8
001
370
    50
100
AcDbLine
 10
98.771984
 20
55.368914
 30
0.0
 11
84.894482
 21
55.368914
 31
0.0
  0
LINE
  5
210
330
1F
100
AcDbEntity
  8
001
370
    50
100
AcDbLine
 10
96.559992
 20
42.368914
 30
0.0
 11
98.771984
 21
42.368914
 31
0.0
  0
POLYLINE
  5
211
330
1F
100
AcDbEntity
  8
001
370
    50
100
AcDb2dPolyline
 66
     1
 10
0.0
 20
0.0
 30
0.0
  0
VERTEX
  5
213
330
211
100
AcDbEntity
  8
001
370
    50
100
AcDbVertex
100
AcDb2dVertex
 10
85.707002
 20
42.38062
 30
0.0
  0
VERTEX
  5
214
330
211
100
AcDbEntity
  8
001
370
    50
100
AcDbVertex
100
AcDb2dVertex
 10
87.872498
 20
42.398819
 30
0.0
  0
VERTEX
  5
215
330
211
100
AcDbEntity
  8
001
370
    50
100
AcDbVertex
100
AcDb2dVertex
 10
91.037286
 20
42.438737
 30
0.0
  0
VERTEX
  5
216
330
211
100
AcDbEntity
  8
001
370
    50
100
AcDbVertex
100
AcDb2dVertex
 10
94.161938
 20
42.49652
 30
0.0
  0
VERTEX
  5
217
330
211
100
AcDbEntity
  8
001
370
    50
100
AcDbVertex
100
AcDb2dVertex
 10
96.29969
 20
42.545135
 30
0.0
  0
SEQEND
  5
212
330
211
100
AcDbEntity
  8
001
370
    50
  0
POLYLINE
  5
218
330
1F
100
AcDbEntity
  8
001
370
    50
100
AcDb2dPolyline
 66
     1
 10
0.0
 20
0.0
 30
0.0
  0
VERTEX
  5
21A
330
218
100
AcDbEntity
  8
001
370
    50
100
AcDbVertex
100
AcDb2dVertex
 10
96.559992
 20
42.368914
 30
0.0
  0
VERTEX
  5
21B
330
218
100
AcDbEntity
  8
001
370
    50
100
AcDbVertex
100
AcDb2dVertex
 10
96.594676
 20
42.410453
 30
0.0
  0
VERTEX
  5
21C
330
218
100
AcDbEntity
  8
001
370
    50
100
AcDbVertex
100
AcDb2dVertex
 10
96.620597
 20
42.496887
 30
0.0
  0
VERTEX
  5
21D
330
218
100
AcDbEntity
  8
001
370
    50
100
AcDbVertex
100
AcDb2dVertex
 10
96.608787
 20
42.706079
 30
0.0
  0
VERTEX
  5
21E
330
218
100
AcDbEntity
  8
001
370
    50
100
AcDbVertex
100
AcDb2dVertex
 10
96.53023
 20
42.875768
 30
0.0
  0
VERTEX
  5
21F
330
218
100
AcDbEntity
  8
001
370
    50
100
AcDbVertex
100
AcDb2dVertex
 10
96.404953
 20
43.176366
 30
0.0
  0
VERTEX
  5
220
330
218
100
AcDbEntity
  8
001
370
    50
100
AcDbVertex
100
AcDb2dVertex
 10
96.292451
 20
43.490638
 30
0.0
  0
VERTEX
  5
221
330
218
100
AcDbEntity
  8
001
370
    50
100
AcDbVertex
100
AcDb2dVertex
 10
96.114727
 20
43.909013
 30
0.0
  0
VERTEX
  5
222
330
218
100
AcDbEntity
  8
001
370
    50
100
AcDbVertex
100
AcDb2dVertex
 10
95.916621
 20
44.317285
 30
0.0
  0
VERTEX
  5
223
330
218
100
AcDbEntity
  8
001
370
    50
100
AcDbVertex
100
AcDb2dVertex
 10
95.665967
 20
44.825321
 30
0.0
  0
VERTEX
  5
224
330
218
100
AcDbEntity
  8
001
370
    50
100
AcDbVertex
100
AcDb2dVertex
 10
95.41754
 20
45.32316
 30
0.0
  0
VERTEX
  5
225
330
218
100
AcDbEntity
  8
001
370
    50
100
AcDbVertex
100
AcDb2dVertex
 10
95.132426
 20
45.875456
 30
0.0
  0
VERTEX
  5
226
330
218
100
AcDbEntity
  8
001
370
    50
100
AcDbVertex
100
AcDb2dVertex
 10
94.81486
 20
46.468653
 30
0.0
  0
VERTEX
  5
227
330
218
100
AcDbEntity
  8
001
370
    50
100
AcDbVertex
100
AcDb2dVertex
 10
94.421772
 20
47.186876
 30
0.0
  0
VERTEX
  5
228
330
218
100
AcDbEntity
  8
001
370
    50
100
AcDbVertex
100
AcDb2dVertex
 10
94.132312
 20
47.70866
 30
0.0
  0
SEQEND
  5
219
330
218
100
AcDbEntity
  8
001
370
    50
  0
POLYLINE
  5
229
330
1F
100
AcDbEntity
  8
001
370
    50
100
AcDb2dPolyline
 66
     1
 10
0.0
 20
0.0
 30
0.0
  0
VERTEX
  5
22B
330
229
100
AcDbEntity
  8
001
370
    50
100
AcDbVertex
100
AcDb2dVertex
 10
92.299438
 20
49.538787
 30
0.0
  0
VERTEX
  5
22C
330
229
100
AcDbEntity
  8
001
370
    50
100
AcDbVertex
100
AcDb2dVertex
 10
92.46093
 20
49.441072
 30
0.0
  0
VERTEX
  5
22D
330
229
100
AcDbEntity
  8
001
370
    50
100
AcDbVertex
100
AcDb2dVertex
 10
92.619972
 20
49.339598
 30
0.0
  0
VERTEX
  5
22E
330
229
100
AcDbEntity
  8
001
370
    50
100
AcDbVertex
100
AcDb2dVertex
 10
92.774654
 20
49.231367
 30
0.0
  0
VERTEX
  5
22F
330
229
100
AcDbEntity
  8
001
370
    50
100
AcDbVertex
100
AcDb2dVertex
 10
92.924767
 20
49.116756
 30
0.0
  0
VERTEX
  5
230
330
229
100
AcDbEntity
  8
001
370
    50
100
AcDbVertex
100
AcDb2dVertex
 10
93.074278
 20
48.993493
 30
0.0
  0
VERTEX
  5
231
330
229
100
AcDbEntity
  8
001
370
    50
100
AcDbVertex
100
AcDb2dVertex
 10
93.218925
 20
48.864606
 30
0.0
  0
VERTEX
  5
232
330
229
100
AcDbEntity
  8
001
370
    50
100
AcDbVertex
100
AcDb2dVertex
 10
93.358313
 20
48.730063
 30
0.0
  0
VERTEX
  5
233
330
229
100
AcDbEntity
  8
001
370
    50
100
AcDbVertex
100
AcDb2dVertex
 10
93.492204
 20
48.590043
 30
0.0
  0
VERTEX
  5
234
330
229
100
AcDbEntity
  8
001
370
    50
100
AcDbVertex
100
AcDb2dVertex
 10
93.582663
 20
48.488744
 30
0.0
  0
VERTEX
  5
235
330
229
100
AcDbEntity
  8
001
370
    50
100
AcDbVertex
100
AcDb2dVertex
 10
93.670191
 20
48.38492
 30
0.0
  0
VERTEX
  5
236
330
229
100
AcDbEntity
  8
001
370
    50
100
AcDbVertex
100
AcDb2dVertex
 10
93.754566
 20
48.278808
 30
0.0
  0
VERTEX
  5
237
330
229
100
AcDbEntity
  8
001
370
    50
100
AcDbVertex
100
AcDb2dVertex
 10
93.835967
 20
48.170376
 30
0.0
  0
VERTEX
  5
238
330
229
100
AcDbEntity
  8
001
370
    50
100
AcDbVertex
100
AcDb2dVertex
 10
93.915439
 20
48.058111
 30
0.0
  0
VERTEX
  5
239
330
229
100
AcDbEntity
  8
001
370
    50
100
AcDbVertex
100
AcDb2dVertex
 10
93.991235
 20
47.943375
 30
0.0
  0
VERTEX
  5
23A
330
229
100
AcDbEntity
  8
001
370
    50
100
AcDbVertex
100
AcDb2dVertex
 10
94.062853
 20
47.826691
 30
0.0
  0
VERTEX
  5
23B
330
229
100
AcDbEntity
  8
001
370
    50
100
AcDbVertex
100
AcDb2dVertex
 10
94.132312
 20
47.70866
 30
0.0
  0
SEQEND
  5
22A
330
229
100
AcDbEntity
  8
001
370
    50
  0
POLYLINE
  5
23C
330
1F
100
AcDbEntity
  8
001
370
    50
100
AcDb2dPolyline
 66
     1
 10
0.0
 20
0.0
 30
0.0
  0
VERTEX
  5
23E
330
23C
100
AcDbEntity
  8
001
370
    50
100
AcDbVertex
100
AcDb2dVertex
 10
92.299438
 20
49.538787
 30
0.0
  0
VERTEX
  5
23F
330
23C
100
AcDbEntity
  8
001
370
    50
100
AcDbVertex
100
AcDb2dVertex
 10
91.443725
 20
50.025565
 30
0.0
  0
VERTEX
  5
240
330
23C
100
AcDbEntity
  8
001
370
    50
100
AcDbVertex
100
AcDb2dVertex
 10
90.260307
 20
50.695905
 30
0.0
  0
VERTEX
  5
241
330
23C
100
AcDbEntity
  8
001
370
    50
100
AcDbVertex
100
AcDb2dVertex
 10
89.230876
 20
51.27507
 30
0.0
  0
VERTEX
  5
242
330
23C
100
AcDbEntity
  8
001
370
    50
100
AcDbVertex
100
AcDb2dVertex
 10
88.304326
 20
51.792888
 30
0.0
  0
VERTEX
  5
243
330
23C
100
AcDbEntity
  8
001
370
    50
100
AcDbVertex
100
AcDb2dVertex
 10
87.451399
 20
52.267161
 30
0.0
  0
VERTEX
  5
244
330
23C
100
AcDbEntity
  8
001
370
    50
100
AcDbVertex
100
AcDb2dVertex
 10
86.495876
 20
52.79363
 30
0.0
  0
VERTEX
  5
245
330
23C
100
AcDbEntity
  8
001
370
    50
100
AcDbVertex
100
AcDb2dVertex
 10
85.565683
 20
53.301302
 30
0.0
  0
VERTEX
  5
246
330
23C
100
AcDbEntity
  8
001
370
    50
100
AcDbVertex
100
AcDb2dVertex
 10
84.894482
 20
53.66519
 30
0.0
  0
SEQEND
  5
23D
330
23C
100
AcDbEntity
  8
001
370
    50
  0
POLYLINE
  5
247
330
1F
100
AcDbEntity
  8
001
370
    50
100
AcDb2dPolyline
 66
     1
 10
0.0
 20
0.0
 30
0.0
  0
VERTEX
  5
249
330
247
100
AcDbEntity
  8
001
370
    50
100
AcDbVertex
100
AcDb2dVertex
 10
93.334858
 20
47.70866
 30
0.0
  0
VERTEX
  5
24A
330
247
100
AcDbEntity
  8
001
370
    50
100
AcDbVertex
100
AcDb2dVertex
 10
93.133054
 20
48.018409
 30
0.0
  0
VERTEX
  5
24B
330
247
100
AcDbEntity
  8
001
370
    50
100
AcDbVertex
100
AcDb2dVertex
 10
92.837692
 20
48.422598
 30
0.0
  0
VERTEX
  5
24C
330
247
100
AcDbEntity
  8
001
370
    50
100
AcDbVertex
100
AcDb2dVertex
 10
92.551358
 20
48.750726
 30
0.0
  0
VERTEX
  5
24D
330
247
100
AcDbEntity
  8
001
370
    50
100
AcDbVertex
100
AcDb2dVertex
 10
92.224784
 20
49.038882
 30
0.0
  0
VERTEX
  5
24E
330
247
100
AcDbEntity
  8
001
370
    50
100
AcDbVertex
100
AcDb2dVertex
 10
91.822891
 20
49.335816
 30
0.0
  0
VERTEX
  5
24F
330
247
100
AcDbEntity
  8
001
370
    50
100
AcDbVertex
100
AcDb2dVertex
 10
91.514757
 20
49.538787
 30
0.0
  0
SEQEND
  5
248
330
247
100
AcDbEntity
  8
001
370
    50
  0
LINE
  5
250
330
1F
100
AcDbEntity
  8
001
370
    50
100
AcDbLine
 10
91.514757
 20
49.538787
 30
0.0
 11
83.628061
 21
54.117254
 31
0.0
  0
LINE
  5
251
330
1F
100
AcDbEntity
  8
001
  6
DASHED
370
    50
100
AcDbLine
 10
83.628061
 20
54.117254
 30
0.0
 11
83.632899
 21
54.124824
 31
0.0
  0
LINE
  5
252
330
1F
100
AcDbEntity
  8
001
370
    50
100
AcDbLine
 10
96.29969
 20
42.545135
 30
0.0
 11
93.334858
 21
47.70866
 31
0.0
  0
LINE
  5
253
330
1F
100
AcDbEntity
  8
001
370
    50
100
AcDbLine
 10
178.771984
 20
45.868914
 30
0.0
 11
178.771984
 21
51.868914
 31
0.0
  0
LINE
  5
254
330
1F
100
AcDbEntity
  8
001
370
    50
100
AcDbLine
 10
175.771984
 20
54.868914
 30
0.0
 11
101.771984
 21
54.868914
 31
0.0
  0
LINE
  5
255
330
1F
100
AcDbEntity
  8
001
370
    50
100
AcDbLine
 10
175.771984
 20
42.868914
 30
0.0
 11
101.771984
 21
42.868914
 31
0.0
  0
POLYLINE
  5
256
330
1F
100
AcDbEntity
  8
001
370
    50
100
AcDb2dPolyline
 66
     1
 10
0.0
 20
0.0
 30
0.0
  0
VERTEX
  5
258
330
256
100
AcDbEntity
  8
001
370
    50
100
AcDbVertex
100
AcDb2dVertex
 10
83.632899
 20
54.124824
 30
0.0
  0
VERTEX
  5
259
330
256
100
AcDbEntity
  8
001
370
    50
100
AcDbVertex
100
AcDb2dVertex
 10
83.638597
 20
54.128457
 30
0.0
  0
VERTEX
  5
25A
330
256
100
AcDbEntity
  8
001
370
    50
100
AcDbVertex
100
AcDb2dVertex
 10
83.64449
 20
54.131554
 30
0.0
  0
VERTEX
  5
25B
330
256
100
AcDbEntity
  8
001
370
    50
100
AcDbVertex
100
AcDb2dVertex
 10
83.661474
 20
54.135378
 30
0.0
  0
VERTEX
  5
25C
330
256
100
AcDbEntity
  8
001
370
    50
100
AcDbVertex
100
AcDb2dVertex
 10
83.679523
 20
54.135114
 30
0.0
  0
VERTEX
  5
25D
330
256
100
AcDbEntity
  8
001
370
    50
100
AcDbVertex
100
AcDb2dVertex
 10
83.706793
 20
54.132358
 30
0.0
  0
VERTEX
  5
25E
330
256
100
AcDbEntity
  8
001
370
    50
100
AcDbVertex
100
AcDb2dVertex
 10
83.733389
 20
54.128007
 30
0.0
  0
VERTEX
  5
25F
330
256
100
AcDbEntity
  8
001
370
    50
100
AcDbVertex
100
AcDb2dVertex
 10
83.769239
 20
54.120086
 30
0.0
  0
VERTEX
  5
260
330
256
100
AcDbEntity
  8
001
370
    50
100
AcDbVertex
100
AcDb2dVertex
 10
83.804908
 20
54.110576
 30
0.0
  0
VERTEX
  5
261
330
256
100
AcDbEntity
  8
001
370
    50
100
AcDbVertex
100
AcDb2dVertex
 10
83.848911
 20
54.09753
 30
0.0
  0
VERTEX
  5
262
330
256
100
AcDbEntity
  8
001
370
    50
100
AcDbVertex
100
AcDb2dVertex
 10
83.892535
 20
54.083519
 30
0.0
  0
VERTEX
  5
263
330
256
100
AcDbEntity
  8
001
370
    50
100
AcDbVertex
100
AcDb2dVertex
 10
83.944144
 20
54.065864
 30
0.0
  0
VERTEX
  5
264
330
256
100
AcDbEntity
  8
001
370
    50
100
AcDbVertex
100
AcDb2dVertex
 10
83.995493
 20
54.047384
 30
0.0
  0
VERTEX
  5
265
330
256
100
AcDbEntity
  8
001
370
    50
100
AcDbVertex
100
AcDb2dVertex
 10
84.054675
 20
54.025229
 30
0.0
  0
VERTEX
  5
266
330
256
100
AcDbEntity
  8
001
370
    50
100
AcDbVertex
100
AcDb2dVertex
 10
84.113601
 20
54.002426
 30
0.0
  0
VERTEX
  5
267
330
256
100
AcDbEntity
  8
001
370
    50
100
AcDbVertex
100
AcDb2dVertex
 10
84.179349
 20
53.976271
 30
0.0
  0
VERTEX
  5
268
330
256
100
AcDbEntity
  8
001
370
    50
100
AcDbVertex
100
AcDb2dVertex
 10
84.244883
 20
53.949578
 30
0.0
  0
VERTEX
  5
269
330
256
100
AcDbEntity
  8
001
370
    50
100
AcDbVertex
100
AcDb2dVertex
 10
84.318054
 20
53.919165
 30
0.0
  0
VERTEX
  5
26A
330
256
100
AcDbEntity
  8
001
370
    50
100
AcDbVertex
100
AcDb2dVertex
 10
84.391027
 20
53.888286
 30
0.0
  0
VERTEX
  5
26B
330
256
100
AcDbEntity
  8
001
370
    50
100
AcDbVertex
100
AcDb2dVertex
 10
84.469826
 20
53.854419
 30
0.0
  0
VERTEX
  5
26C
330
256
100
AcDbEntity
  8
001
370
    50
100
AcDbVertex
100
AcDb2dVertex
 10
84.548457
 20
53.820164
 30
0.0
  0
VERTEX
  5
26D
330
256
100
AcDbEntity
  8
001
370
    50
100
AcDbVertex
100
AcDb2dVertex
 10
84.632727
 20
53.783017
 30
0.0
  0
VERTEX
  5
26E
330
256
100
AcDbEntity
  8
001
370
    50
100
AcDbVertex
100
AcDb2dVertex
 10
84.716836
 20
53.745507
 30
0.0
  0
VERTEX
  5
26F
330
256
100
AcDbEntity
  8
001
370
    50
100
AcDbVertex
100
AcDb2dVertex
 10
84.805704
 20
53.705449
 30
0.0
  0
VERTEX
  5
270
330
256
100
AcDbEntity
  8
001
370
    50
100
AcDbVertex
100
AcDb2dVertex
 10
84.894482
 20
53.66519
 30
0.0
  0
SEQEND
  5
257
330
256
100
AcDbEntity
  8
001
370
    50
  0
LINE
  5
271
330
1F
100
AcDbEntity
  8
001
370
    50
100
AcDbLine
 10
84.894482
 20
55.368914
 30
0.0
 11
83.633408
 21
54.125327
 31
0.0
  0
LINE
  5
272
330
1F
100
AcDbEntity
  8
001
370
    50
100
AcDbLine
 10
83.271984
 20
53.767081
 30
0.0
 11
83.628061
 21
54.117254
 31
0.0
  0
LINE
  5
273
330
1F
100
AcDbEntity
  8
001
370
    50
100
AcDbLine
 10
77.221984
 20
51.623568
 30
0.0
 11
77.821984
 21
52.257614
 31
0.0
  0
POLYLINE
  5
274
330
1F
100
AcDbEntity
  8
001
370
    50
100
AcDb2dPolyline
 66
     1
 10
0.0
 20
0.0
 30
0.0
  0
VERTEX
  5
276
330
274
100
AcDbEntity
  8
001
370
    50
100
AcDbVertex
100
AcDb2dVertex
 10
81.997023
 20
53.768914
 30
0.0
  0
VERTEX
  5
277
330
274
100
AcDbEntity
  8
001
370
    50
100
AcDbVertex
100
AcDb2dVertex
 10
81.148112
 20
53.767992
 30
0.0
  0
VERTEX
  5
278
330
274
100
AcDbEntity
  8
001
370
    50
100
AcDbVertex
100
AcDb2dVertex
 10
79.907404
 20
53.763989
 30
0.0
  0
VERTEX
  5
279
330
274
100
AcDbEntity
  8
001
370
    50
100
AcDbVertex
100
AcDb2dVertex
 10
78.669179
 20
53.756302
 30
0.0
  0
VERTEX
  5
27A
330
274
100
AcDbEntity
  8
001
370
    50
100
AcDbVertex
100
AcDb2dVertex
 10
77.821984
 20
53.749225
 30
0.0
  0
SEQEND
  5
275
330
274
100
AcDbEntity
  8
001
370
    50
  0
LINE
  5
27B
330
1F
100
AcDbEntity
  8
001
370
    50
100
AcDbLine
 10
77.821984
 20
52.285907
 30
0.0
 11
77.221984
 21
51.668914
 31
0.0
  0
POLYLINE
  5
27C
330
1F
100
AcDbEntity
  8
001
370
    50
100
AcDb2dPolyline
 66
     1
 10
0.0
 20
0.0
 30
0.0
  0
VERTEX
  5
27E
330
27C
100
AcDbEntity
  8
001
370
    50
100
AcDbVertex
100
AcDb2dVertex
 10
83.271984
 20
53.767081
 30
0.0
  0
VERTEX
  5
27F
330
27C
100
AcDbEntity
  8
001
370
    50
100
AcDbVertex
100
AcDb2dVertex
 10
83.013032
 20
53.76774
 30
0.0
  0
VERTEX
  5
280
330
27C
100
AcDbEntity
  8
001
370
    50
100
AcDbVertex
100
AcDb2dVertex
 10
82.634563
 20
53.768456
 30
0.0
  0
VERTEX
  5
281
330
27C
100
AcDbEntity
  8
001
370
    50
100
AcDbVertex
100
AcDb2dVertex
 10
82.256024
 20
53.768828
 30
0.0
  0
VERTEX
  5
282
330
27C
100
AcDbEntity
  8
001
370
    50
100
AcDbVertex
100
AcDb2dVertex
 10
81.997023
 20
53.768914
 30
0.0
  0
SEQEND
  5
27D
330
27C
100
AcDbEntity
  8
001
370
    50
  0
LINE
  5
283
330
1F
100
AcDbEntity
  8
001
370
    50
100
AcDbLine
 10
81.997023
 20
53.768914
 30
0.0
 11
77.821984
 21
53.768914
 31
0.0
  0
POLYLINE
  5
284
330
1F
100
AcDbEntity
  8
001
370
    50
100
AcDb2dPolyline
 66
     1
 10
0.0
 20
0.0
 30
0.0
  0
VERTEX
  5
286
330
284
100
AcDbEntity
  8
001
370
    50
100
AcDbVertex
100
AcDb2dVertex
 10
84.808949
 20
51.550804
 30
0.0
  0
VERTEX
  5
287
330
284
100
AcDbEntity
  8
001
370
    50
100
AcDbVertex
100
AcDb2dVertex
 10
84.655496
 20
51.54239
 30
0.0
  0
VERTEX
  5
288
330
284
100
AcDbEntity
  8
001
370
    50
100
AcDbVertex
100
AcDb2dVertex
 10
84.445564
 20
51.517144
 30
0.0
  0
VERTEX
  5
289
330
284
100
AcDbEntity
  8
001
370
    50
100
AcDbVertex
100
AcDb2dVertex
 10
84.259842
 20
51.475191
 30
0.0
  0
VERTEX
  5
28A
330
284
100
AcDbEntity
  8
001
370
    50
100
AcDbVertex
100
AcDb2dVertex
 10
84.09441
 20
51.417297
 30
0.0
  0
VERTEX
  5
28B
330
284
100
AcDbEntity
  8
001
370
    50
100
AcDbVertex
100
AcDb2dVertex
 10
83.929447
 20
51.343994
 30
0.0
  0
VERTEX
  5
28C
330
284
100
AcDbEntity
  8
001
370
    50
100
AcDbVertex
100
AcDb2dVertex
 10
83.767309
 20
51.254623
 30
0.0
  0
VERTEX
  5
28D
330
284
100
AcDbEntity
  8
001
370
    50
100
AcDbVertex
100
AcDb2dVertex
 10
83.614732
 20
51.149467
 30
0.0
  0
VERTEX
  5
28E
330
284
100
AcDbEntity
  8
001
370
    50
100
AcDbVertex
100
AcDb2dVertex
 10
83.475268
 20
51.034599
 30
0.0
  0
VERTEX
  5
28F
330
284
100
AcDbEntity
  8
001
370
    50
100
AcDbVertex
100
AcDb2dVertex
 10
83.349146
 20
50.912245
 30
0.0
  0
VERTEX
  5
290
330
284
100
AcDbEntity
  8
001
370
    50
100
AcDbVertex
100
AcDb2dVertex
 10
83.22812
 20
50.76463
 30
0.0
  0
VERTEX
  5
291
330
284
100
AcDbEntity
  8
001
370
    50
100
AcDbVertex
100
AcDb2dVertex
 10
83.110914
 20
50.587656
 30
0.0
  0
VERTEX
  5
292
330
284
100
AcDbEntity
  8
001
370
    50
100
AcDbVertex
100
AcDb2dVertex
 10
83.034182
 20
50.453804
 30
0.0
  0
SEQEND
  5
285
330
284
100
AcDbEntity
  8
001
370
    50
  0
LINE
  5
293
330
1F
100
AcDbEntity
  8
001
370
    50
100
AcDbLine
 10
77.221984
 20
50.453804
 30
0.0
 11
77.221984
 21
51.668914
 31
0.0
  0
LINE
  5
294
330
1F
100
AcDbEntity
  8
001
370
    50
100
AcDbLine
 10
77.821984
 20
52.257614
 30
0.0
 11
77.821984
 21
53.768914
 31
0.0
  0
LINE
  5
295
330
1F
100
AcDbEntity
  8
001
370
    50
100
AcDbLine
 10
84.894482
 20
53.66519
 30
0.0
 11
84.894482
 21
55.368914
 31
0.0
  0
LINE
  5
296
330
1F
100
AcDbEntity
  8
001
370
    50
100
AcDbLine
 10
85.707002
 20
42.494514
 30
0.0
 11
85.707002
 21
42.38062
 31
0.0
  0
POLYLINE
  5
297
330
1F
100
AcDbEntity
  8
001
370
    50
100
AcDb2dPolyline
 66
     1
 10
0.0
 20
0.0
 30
0.0
  0
VERTEX
  5
299
330
297
100
AcDbEntity
  8
001
370
    50
100
AcDbVertex
100
AcDb2dVertex
 10
85.660093
 20
42.425837
 30
0.0
  0
VERTEX
  5
29A
330
297
100
AcDbEntity
  8
001
370
    50
100
AcDbVertex
100
AcDb2dVertex
 10
85.686436
 20
42.397248
 30
0.0
  0
VERTEX
  5
29B
330
297
100
AcDbEntity
  8
001
370
    50
100
AcDbVertex
100
AcDb2dVertex
 10
85.707002
 20
42.38062
 30
0.0
  0
SEQEND
  5
298
330
297
100
AcDbEntity
  8
001
370
    50
  0
POLYLINE
  5
29C
330
1F
100
AcDbEntity
  8
001
370
    50
100
AcDb2dPolyline
 66
     1
 10
0.0
 20
0.0
 30
0.0
  0
VERTEX
  5
29E
330
29C
100
AcDbEntity
  8
001
370
    50
100
AcDbVertex
100
AcDb2dVertex
 10
85.722681
 20
47.863817
 30
0.0
  0
VERTEX
  5
29F
330
29C
100
AcDbEntity
  8
001
370
    50
100
AcDbVertex
100
AcDb2dVertex
 10
85.788773
 20
47.906882
 30
0.0
  0
VERTEX
  5
2A0
330
29C
100
AcDbEntity
  8
001
370
    50
100
AcDbVertex
100
AcDb2dVertex
 10
85.853073
 20
47.951566
 30
0.0
  0
VERTEX
  5
2A1
330
29C
100
AcDbEntity
  8
001
370
    50
100
AcDbVertex
100
AcDb2dVertex
 10
85.994673
 20
48.066511
 30
0.0
  0
VERTEX
  5
2A2
330
29C
100
AcDbEntity
  8
001
370
    50
100
AcDbVertex
100
AcDb2dVertex
 10
86.112682
 20
48.186107
 30
0.0
  0
VERTEX
  5
2A3
330
29C
100
AcDbEntity
  8
001
370
    50
100
AcDbVertex
100
AcDb2dVertex
 10
86.224386
 20
48.318767
 30
0.0
  0
VERTEX
  5
2A4
330
29C
100
AcDbEntity
  8
001
370
    50
100
AcDbVertex
100
AcDb2dVertex
 10
86.327524
 20
48.462664
 30
0.0
  0
VERTEX
  5
2A5
330
29C
100
AcDbEntity
  8
001
370
    50
100
AcDbVertex
100
AcDb2dVertex
 10
86.416521
 20
48.614358
 30
0.0
  0
VERTEX
  5
2A6
330
29C
100
AcDbEntity
  8
001
370
    50
100
AcDbVertex
100
AcDb2dVertex
 10
86.490985
 20
48.772723
 30
0.0
  0
VERTEX
  5
2A7
330
29C
100
AcDbEntity
  8
001
370
    50
100
AcDbVertex
100
AcDb2dVertex
 10
86.551683
 20
48.937324
 30
0.0
  0
VERTEX
  5
2A8
330
29C
100
AcDbEntity
  8
001
370
    50
100
AcDbVertex
100
AcDb2dVertex
 10
86.598032
 20
49.106737
 30
0.0
  0
VERTEX
  5
2A9
330
29C
100
AcDbEntity
  8
001
370
    50
100
AcDbVertex
100
AcDb2dVertex
 10
86.629331
 20
49.279563
 30
0.0
  0
VERTEX
  5
2AA
330
29C
100
AcDbEntity
  8
001
370
    50
100
AcDbVertex
100
AcDb2dVertex
 10
86.645369
 20
49.454422
 30
0.0
  0
VERTEX
  5
2AB
330
29C
100
AcDbEntity
  8
001
370
    50
100
AcDbVertex
100
AcDb2dVertex
 10
86.646104
 20
49.630046
 30
0.0
  0
VERTEX
  5
2AC
330
29C
100
AcDbEntity
  8
001
370
    50
100
AcDbVertex
100
AcDb2dVertex
 10
86.63154
 20
49.805075
 30
0.0
  0
VERTEX
  5
2AD
330
29C
100
AcDbEntity
  8
001
370
    50
100
AcDbVertex
100
AcDb2dVertex
 10
86.601751
 20
49.978118
 30
0.0
  0
VERTEX
  5
2AE
330
29C
100
AcDbEntity
  8
001
370
    50
100
AcDbVertex
100
AcDb2dVertex
 10
86.556969
 20
50.1479
 30
0.0
  0
VERTEX
  5
2AF
330
29C
100
AcDbEntity
  8
001
370
    50
100
AcDbVertex
100
AcDb2dVertex
 10
86.497548
 20
50.313031
 30
0.0
  0
VERTEX
  5
2B0
330
29C
100
AcDbEntity
  8
001
370
    50
100
AcDbVertex
100
AcDb2dVertex
 10
86.423953
 20
50.472341
 30
0.0
  0
VERTEX
  5
2B1
330
29C
100
AcDbEntity
  8
001
370
    50
100
AcDbVertex
100
AcDb2dVertex
 10
86.336796
 20
50.62448
 30
0.0
  0
VERTEX
  5
2B2
330
29C
100
AcDbEntity
  8
001
370
    50
100
AcDbVertex
100
AcDb2dVertex
 10
86.236587
 20
50.768411
 30
0.0
  0
VERTEX
  5
2B3
330
29C
100
AcDbEntity
  8
001
370
    50
100
AcDbVertex
100
AcDb2dVertex
 10
86.124146
 20
50.902886
 30
0.0
  0
VERTEX
  5
2B4
330
29C
100
AcDbEntity
  8
001
370
    50
100
AcDbVertex
100
AcDb2dVertex
 10
86.000639
 20
51.026993
 30
0.0
  0
VERTEX
  5
2B5
330
29C
100
AcDbEntity
  8
001
370
    50
100
AcDbVertex
100
AcDb2dVertex
 10
85.867229
 20
51.139637
 30
0.0
  0
VERTEX
  5
2B6
330
29C
100
AcDbEntity
  8
001
370
    50
100
AcDbVertex
100
AcDb2dVertex
 10
85.723375
 20
51.240126
 30
0.0
  0
VERTEX
  5
2B7
330
29C
100
AcDbEntity
  8
001
370
    50
100
AcDbVertex
100
AcDb2dVertex
 10
85.569908
 20
51.327594
 30
0.0
  0
VERTEX
  5
2B8
330
29C
100
AcDbEntity
  8
001
370
    50
100
AcDbVertex
100
AcDb2dVertex
 10
85.413329
 20
51.401249
 30
0.0
  0
VERTEX
  5
2B9
330
29C
100
AcDbEntity
  8
001
370
    50
100
AcDbVertex
100
AcDb2dVertex
 10
85.256416
 20
51.460395
 30
0.0
  0
VERTEX
  5
2BA
330
29C
100
AcDbEntity
  8
001
370
    50
100
AcDbVertex
100
AcDb2dVertex
 10
85.080048
 20
51.505401
 30
0.0
  0
VERTEX
  5
2BB
330
29C
100
AcDbEntity
  8
001
370
    50
100
AcDbVertex
100
AcDb2dVertex
 10
84.880178
 20
51.536087
 30
0.0
  0
VERTEX
  5
2BC
330
29C
100
AcDbEntity
  8
001
370
    50
100
AcDbVertex
100
AcDb2dVertex
 10
84.733793
 20
51.549376
 30
0.0
  0
SEQEND
  5
29D
330
29C
100
AcDbEntity
  8
001
370
    50
  0
POLYLINE
  5
2BD
330
1F
100
AcDbEntity
  8
001
370
    50
100
AcDb2dPolyline
 66
     1
 10
0.0
 20
0.0
 30
0.0
  0
VERTEX
  5
2BF
330
2BD
100
AcDbEntity
  8
001
370
    50
100
AcDbVertex
100
AcDb2dVertex
 10
85.722681
 20
47.774511
 30
0.0
  0
VERTEX
  5
2C0
330
2BD
100
AcDbEntity
  8
001
370
    50
100
AcDbVertex
100
AcDb2dVertex
 10
85.85082
 20
47.849956
 30
0.0
  0
VERTEX
  5
2C1
330
2BD
100
AcDbEntity
  8
001
370
    50
100
AcDbVertex
100
AcDb2dVertex
 10
86.007388
 20
47.954597
 30
0.0
  0
VERTEX
  5
2C2
330
2BD
100
AcDbEntity
  8
001
370
    50
100
AcDbVertex
100
AcDb2dVertex
 10
86.150664
 20
48.071624
 30
0.0
  0
VERTEX
  5
2C3
330
2BD
100
AcDbEntity
  8
001
370
    50
100
AcDbVertex
100
AcDb2dVertex
 10
86.269814
 20
48.193492
 30
0.0
  0
VERTEX
  5
2C4
330
2BD
100
AcDbEntity
  8
001
370
    50
100
AcDbVertex
100
AcDb2dVertex
 10
86.382354
 20
48.328707
 30
0.0
  0
VERTEX
  5
2C5
330
2BD
100
AcDbEntity
  8
001
370
    50
100
AcDbVertex
100
AcDb2dVertex
 10
86.485968
 20
48.47538
 30
0.0
  0
VERTEX
  5
2C6
330
2BD
100
AcDbEntity
  8
001
370
    50
100
AcDbVertex
100
AcDb2dVertex
 10
86.574986
 20
48.629982
 30
0.0
  0
VERTEX
  5
2C7
330
2BD
100
AcDbEntity
  8
001
370
    50
100
AcDbVertex
100
AcDb2dVertex
 10
86.649002
 20
48.791331
 30
0.0
  0
VERTEX
  5
2C8
330
2BD
100
AcDbEntity
  8
001
370
    50
100
AcDbVertex
100
AcDb2dVertex
 10
86.708788
 20
48.958945
 30
0.0
  0
VERTEX
  5
2C9
330
2BD
100
AcDbEntity
  8
001
370
    50
100
AcDbVertex
100
AcDb2dVertex
 10
86.753754
 20
49.131338
 30
0.0
  0
VERTEX
  5
2CA
330
2BD
100
AcDbEntity
  8
001
370
    50
100
AcDbVertex
100
AcDb2dVertex
 10
86.783192
 20
49.307047
 30
0.0
  0
VERTEX
  5
2CB
330
2BD
100
AcDbEntity
  8
001
370
    50
100
AcDbVertex
100
AcDb2dVertex
 10
86.796903
 20
49.484632
 30
0.0
  0
VERTEX
  5
2CC
330
2BD
100
AcDbEntity
  8
001
370
    50
100
AcDbVertex
100
AcDb2dVertex
 10
86.794858
 20
49.662762
 30
0.0
  0
VERTEX
  5
2CD
330
2BD
100
AcDbEntity
  8
001
370
    50
100
AcDbVertex
100
AcDb2dVertex
 10
86.777085
 20
49.840022
 30
0.0
  0
VERTEX
  5
2CE
330
2BD
100
AcDbEntity
  8
001
370
    50
100
AcDbVertex
100
AcDb2dVertex
 10
86.743686
 20
50.014959
 30
0.0
  0
VERTEX
  5
2CF
330
2BD
100
AcDbEntity
  8
001
370
    50
100
AcDbVertex
100
AcDb2dVertex
 10
86.694927
 20
50.186251
 30
0.0
  0
VERTEX
  5
2D0
330
2BD
100
AcDbEntity
  8
001
370
    50
100
AcDbVertex
100
AcDb2dVertex
 10
86.631205
 20
50.352451
 30
0.0
  0
VERTEX
  5
2D1
330
2BD
100
AcDbEntity
  8
001
370
    50
100
AcDbVertex
100
AcDb2dVertex
 10
86.55303
 20
50.512352
 30
0.0
  0
VERTEX
  5
2D2
330
2BD
100
AcDbEntity
  8
001
370
    50
100
AcDbVertex
100
AcDb2dVertex
 10
86.461072
 20
50.664557
 30
0.0
  0
VERTEX
  5
2D3
330
2BD
100
AcDbEntity
  8
001
370
    50
100
AcDbVertex
100
AcDb2dVertex
 10
86.355891
 20
50.807997
 30
0.0
  0
VERTEX
  5
2D4
330
2BD
100
AcDbEntity
  8
001
370
    50
100
AcDbVertex
100
AcDb2dVertex
 10
86.238373
 20
50.941391
 30
0.0
  0
VERTEX
  5
2D5
330
2BD
100
AcDbEntity
  8
001
370
    50
100
AcDbVertex
100
AcDb2dVertex
 10
86.109752
 20
51.06382
 30
0.0
  0
VERTEX
  5
2D6
330
2BD
100
AcDbEntity
  8
001
370
    50
100
AcDbVertex
100
AcDb2dVertex
 10
85.971263
 20
51.174181
 30
0.0
  0
VERTEX
  5
2D7
330
2BD
100
AcDbEntity
  8
001
370
    50
100
AcDbVertex
100
AcDb2dVertex
 10
85.82241
 20
51.271719
 30
0.0
  0
VERTEX
  5
2D8
330
2BD
100
AcDbEntity
  8
001
370
    50
100
AcDbVertex
100
AcDb2dVertex
 10
85.664095
 20
51.355554
 30
0.0
  0
VERTEX
  5
2D9
330
2BD
100
AcDbEntity
  8
001
370
    50
100
AcDbVertex
100
AcDb2dVertex
 10
85.502968
 20
51.425108
 30
0.0
  0
VERTEX
  5
2DA
330
2BD
100
AcDbEntity
  8
001
370
    50
100
AcDbVertex
100
AcDb2dVertex
 10
85.341901
 20
51.47976
 30
0.0
  0
VERTEX
  5
2DB
330
2BD
100
AcDbEntity
  8
001
370
    50
100
AcDbVertex
100
AcDb2dVertex
 10
85.161542
 20
51.519129
 30
0.0
  0
VERTEX
  5
2DC
330
2BD
100
AcDbEntity
  8
001
370
    50
100
AcDbVertex
100
AcDb2dVertex
 10
84.957825
 20
51.542863
 30
0.0
  0
VERTEX
  5
2DD
330
2BD
100
AcDbEntity
  8
001
370
    50
100
AcDbVertex
100
AcDb2dVertex
 10
84.808949
 20
51.550804
 30
0.0
  0
SEQEND
  5
2BE
330
2BD
100
AcDbEntity
  8
001
370
    50
  0
LINE
  5
2DE
330
1F
100
AcDbEntity
  8
001
370
    50
100
AcDbLine
 10
101.771984
 20
42.868914
 30
0.0
 11
101.771984
 21
54.868914
 31
0.0
  0
LINE
  5
2DF
330
1F
100
AcDbEntity
  8
001
370
    50
100
AcDbLine
 10
101.771984
 20
54.368914
 30
0.0
 11
98.771984
 21
54.368914
 31
0.0
  0
LINE
  5
2E0
330
1F
100
AcDbEntity
  8
001
370
    50
100
AcDbLine
 10
98.771984
 20
43.368914
 30
0.0
 11
101.771984
 21
43.368914
 31
0.0
  0
ARC
  5
2E1
330
1F
100
AcDbEntity
  8
001
370
    50
100
AcDbCircle
 10
175.771984
 20
51.868914
 30
0.0
 40
3.0
100
AcDbArc
 50
0.0
 51
90.0
  0
ARC
  5
2E2
330
1F
100
AcDbEntity
  8
001
370
    50
100
AcDbCircle
 10
175.771984
 20
45.868914
 30
0.0
 40
3.0
100
AcDbArc
 50
270.0
 51
0.0
  0
LINE
  5
2E3
330
1F
100
AcDbEntity
  8
001
  6
CENTER
370
     9
100
AcDbLine
 10
76.303068
 20
48.868914
 30
0.0
 11
180.925615
 21
48.868914
 31
0.0
  0
LINE
  5
2E4
330
1F
100
AcDbEntity
  8
001
370
    50
100
AcDbLine
 10
178.771984
 20
48.868914
 30
0.0
 11
181.37006
 21
50.368914
 31
0.0
  0
LINE
  5
2E5
330
1F
100
AcDbEntity
  8
001
370
    50
100
AcDbLine
 10
178.771984
 20
48.868914
 30
0.0
 11
181.37006
 21
47.368914
 31
0.0
  0
CIRCLE
  5
2E6
330
1F
100
AcDbEntity
  8
001
370
    50
100
AcDbCircle
 10
81.229382
 20
47.030068
 30
0.0
 40
1.4
  0
LINE
  5
2E7
330
1F
100
AcDbEntity
  8
001
370
    50
100
AcDbLine
 10
80.882972
 20
47.630068
 30
0.0
 11
81.056177
 21
47.930068
 31
0.0
  0
LINE
  5
2E8
330
1F
100
AcDbEntity
  8
001
370
    50
100
AcDbLine
 10
81.575793
 20
47.630068
 30
0.0
 11
81.402587
 21
47.930068
 31
0.0
  0
ARC
  5
2E9
330
1F
100
AcDbEntity
  8
001
370
    50
100
AcDbCircle
 10
81.229382
 20
47.830068
 30
0.0
 40
0.2
100
AcDbArc
 50
30.0
 51
150.0
  0
LINE
  5
2EA
330
1F
100
AcDbEntity
  8
001
370
    50
100
AcDbLine
 10
80.536562
 20
47.030068
 30
0.0
 11
80.363357
 21
47.330068
 31
0.0
  0
LINE
  5
2EB
330
1F
100
AcDbEntity
  8
001
370
    50
100
AcDbLine
 10
80.882972
 20
47.630068
 30
0.0
 11
80.536562
 21
47.630068
 31
0.0
  0
ARC
  5
2EC
330
1F
100
AcDbEntity
  8
001
370
    50
100
AcDbCircle
 10
80.536562
 20
47.430068
 30
0.0
 40
0.2
100
AcDbArc
 50
90.0
 51
210.0
  0
LINE
  5
2ED
330
1F
100
AcDbEntity
  8
001
370
    50
100
AcDbLine
 10
80.882972
 20
46.430068
 30
0.0
 11
80.536562
 21
46.430068
 31
0.0
  0
LINE
  5
2EE
330
1F
100
AcDbEntity
  8
001
370
    50
100
AcDbLine
 10
80.536562
 20
47.030068
 30
0.0
 11
80.363357
 21
46.730068
 31
0.0
  0
ARC
  5
2EF
330
1F
100
AcDbEntity
  8
001
370
    50
100
AcDbCircle
 10
80.536562
 20
46.630068
 30
0.0
 40
0.2
100
AcDbArc
 50
150.0
 51
270.0
  0
LINE
  5
2F0
330
1F
100
AcDbEntity
  8
001
370
    50
100
AcDbLine
 10
81.575793
 20
46.430068
 30
0.0
 11
81.402587
 21
46.130068
 31
0.0
  0
LINE
  5
2F1
330
1F
100
AcDbEntity
  8
001
370
    50
100
AcDbLine
 10
80.882972
 20
46.430068
 30
0.0
 11
81.056177
 21
46.130068
 31
0.0
  0
ARC
  5
2F2
330
1F
100
AcDbEntity
  8
001
370
    50
100
AcDbCircle
 10
81.229382
 20
46.230068
 30
0.0
 40
0.2
100
AcDbArc
 50
210.0
 51
330.0
  0
LINE
  5
2F3
330
1F
100
AcDbEntity
  8
001
370
    50
100
AcDbLine
 10
81.922203
 20
47.030068
 30
0.0
 11
82.095408
 21
46.730068
 31
0.0
  0
LINE
  5
2F4
330
1F
100
AcDbEntity
  8
001
370
    50
100
AcDbLine
 10
81.575793
 20
46.430068
 30
0.0
 11
81.922203
 21
46.430068
 31
0.0
  0
ARC
  5
2F5
330
1F
100
AcDbEntity
  8
001
370
    50
100
AcDbCircle
 10
81.922203
 20
46.630068
 30
0.0
 40
0.2
100
AcDbArc
 50
270.0
 51
30.0
  0
LINE
  5
2F6
330
1F
100
AcDbEntity
  8
001
370
    50
100
AcDbLine
 10
81.575793
 20
47.630068
 30
0.0
 11
81.922203
 21
47.630068
 31
0.0
  0
LINE
  5
2F7
330
1F
100
AcDbEntity
  8
001
370
    50
100
AcDbLine
 10
81.922203
 20
47.030068
 30
0.0
 11
82.095408
 21
47.330068
 31
0.0
  0
ARC
  5
2F8
330
1F
100
AcDbEntity
  8
001
370
    50
100
AcDbCircle
 10
81.922203
 20
47.430068
 30
0.0
 40
0.2
100
AcDbArc
 50
330.0
 51
90.0
  0
TEXT
  5
2F9
330
1F
100
AcDbEntity
  8
001
370
    30
100
AcDbText
 10
31.87613
 20
-4.3784
 30
0.0
 40
1.6
  1
加工形状
 41
0.833333
100
AcDbText
  0
LINE
  5
2FA
330
1F
100
AcDbEntity
  8
001
370
    50
100
AcDbLine
 10
77.371979
 20
45.268919
 30
0.0
 11
76.771984
 21
45.868914
 31
0.0
  0
POLYLINE
  5
2FB
330
1F
100
AcDbEntity
  8
001
370
    50
100
AcDb2dPolyline
 66
     1
 10
0.0
 20
0.0
 30
0.0
  0
VERTEX
  5
2FD
330
2FB
100
AcDbEntity
  8
001
370
    50
100
AcDbVertex
100
AcDb2dVertex
 10
77.371979
 20
43.571742
 30
0.0
  0
VERTEX
  5
2FE
330
2FB
100
AcDbEntity
  8
001
370
    50
100
AcDbVertex
100
AcDb2dVertex
 10
77.372763
 20
43.556849
 30
0.0
  0
VERTEX
  5
2FF
330
2FB
100
AcDbEntity
  8
001
370
    50
100
AcDbVertex
100
AcDb2dVertex
 10
77.375046
 20
43.536663
 30
0.0
  0
VERTEX
  5
300
330
2FB
100
AcDbEntity
  8
001
370
    50
100
AcDbVertex
100
AcDb2dVertex
 10
77.378858
 20
43.518623
 30
0.0
  0
VERTEX
  5
301
330
2FB
100
AcDbEntity
  8
001
370
    50
100
AcDbVertex
100
AcDb2dVertex
 10
77.384154
 20
43.502484
 30
0.0
  0
VERTEX
  5
302
330
2FB
100
AcDbEntity
  8
001
370
    50
100
AcDbVertex
100
AcDb2dVertex
 10
77.390895
 20
43.486327
 30
0.0
  0
VERTEX
  5
303
330
2FB
100
AcDbEntity
  8
001
370
    50
100
AcDbVertex
100
AcDb2dVertex
 10
77.399027
 20
43.470414
 30
0.0
  0
VERTEX
  5
304
330
2FB
100
AcDbEntity
  8
001
370
    50
100
AcDbVertex
100
AcDb2dVertex
 10
77.408484
 20
43.455427
 30
0.0
  0
VERTEX
  5
305
330
2FB
100
AcDbEntity
  8
001
370
    50
100
AcDbVertex
100
AcDb2dVertex
 10
77.419212
 20
43.441428
 30
0.0
  0
VERTEX
  5
306
330
2FB
100
AcDbEntity
  8
001
370
    50
100
AcDbVertex
100
AcDb2dVertex
 10
77.431123
 20
43.428389
 30
0.0
  0
VERTEX
  5
307
330
2FB
100
AcDbEntity
  8
001
370
    50
100
AcDbVertex
100
AcDb2dVertex
 10
77.444096
 20
43.416407
 30
0.0
  0
VERTEX
  5
308
330
2FB
100
AcDbEntity
  8
001
370
    50
100
AcDbVertex
100
AcDb2dVertex
 10
77.458012
 20
43.405625
 30
0.0
  0
VERTEX
  5
309
330
2FB
100
AcDbEntity
  8
001
370
    50
100
AcDbVertex
100
AcDb2dVertex
 10
77.472923
 20
43.396111
 30
0.0
  0
VERTEX
  5
30A
330
2FB
100
AcDbEntity
  8
001
370
    50
100
AcDbVertex
100
AcDb2dVertex
 10
77.488744
 20
43.387936
 30
0.0
  0
VERTEX
  5
30B
330
2FB
100
AcDbEntity
  8
001
370
    50
100
AcDbVertex
100
AcDb2dVertex
 10
77.504817
 20
43.381156
 30
0.0
  0
VERTEX
  5
30C
330
2FB
100
AcDbEntity
  8
001
370
    50
100
AcDbVertex
100
AcDb2dVertex
 10
77.520863
 20
43.375832
 30
0.0
  0
VERTEX
  5
30D
330
2FB
100
AcDbEntity
  8
001
370
    50
100
AcDbVertex
100
AcDb2dVertex
 10
77.53881
 20
43.371998
 30
0.0
  0
VERTEX
  5
30E
330
2FB
100
AcDbEntity
  8
001
370
    50
100
AcDbVertex
100
AcDb2dVertex
 10
77.559067
 20
43.369687
 30
0.0
  0
VERTEX
  5
30F
330
2FB
100
AcDbEntity
  8
001
370
    50
100
AcDbVertex
100
AcDb2dVertex
 10
77.573867
 20
43.368914
 30
0.0
  0
SEQEND
  5
2FC
330
2FB
100
AcDbEntity
  8
001
370
    50
  0
POLYLINE
  5
310
330
1F
100
AcDbEntity
  8
001
370
    50
100
AcDb2dPolyline
 66
     1
 10
0.0
 20
0.0
 30
0.0
  0
VERTEX
  5
312
330
310
100
AcDbEntity
  8
001
370
    50
100
AcDbVertex
100
AcDb2dVertex
 10
85.520881
 20
42.368914
 30
0.0
  0
VERTEX
  5
313
330
310
100
AcDbEntity
  8
001
370
    50
100
AcDbVertex
100
AcDb2dVertex
 10
85.535688
 20
42.369695
 30
0.0
  0
VERTEX
  5
314
330
310
100
AcDbEntity
  8
001
370
    50
100
AcDbVertex
100
AcDb2dVertex
 10
85.555851
 20
42.371998
 30
0.0
  0
VERTEX
  5
315
330
310
100
AcDbEntity
  8
001
370
    50
100
AcDbVertex
100
AcDb2dVertex
 10
85.573797
 20
42.375832
 30
0.0
  0
VERTEX
  5
316
330
310
100
AcDbEntity
  8
001
370
    50
100
AcDbVertex
100
AcDb2dVertex
 10
85.589843
 20
42.381156
 30
0.0
  0
VERTEX
  5
317
330
310
100
AcDbEntity
  8
001
370
    50
100
AcDbVertex
100
AcDb2dVertex
 10
85.605916
 20
42.387936
 30
0.0
  0
VERTEX
  5
318
330
310
100
AcDbEntity
  8
001
370
    50
100
AcDbVertex
100
AcDb2dVertex
 10
85.621737
 20
42.396111
 30
0.0
  0
VERTEX
  5
319
330
310
100
AcDbEntity
  8
001
370
    50
100
AcDbVertex
100
AcDb2dVertex
 10
85.636648
 20
42.405625
 30
0.0
  0
VERTEX
  5
31A
330
310
100
AcDbEntity
  8
001
370
    50
100
AcDbVertex
100
AcDb2dVertex
 10
85.650564
 20
42.416407
 30
0.0
  0
VERTEX
  5
31B
330
310
100
AcDbEntity
  8
001
370
    50
100
AcDbVertex
100
AcDb2dVertex
 10
85.663538
 20
42.428389
 30
0.0
  0
VERTEX
  5
31C
330
310
100
AcDbEntity
  8
001
370
    50
100
AcDbVertex
100
AcDb2dVertex
 10
85.675448
 20
42.441428
 30
0.0
  0
VERTEX
  5
31D
330
310
100
AcDbEntity
  8
001
370
    50
100
AcDbVertex
100
AcDb2dVertex
 10
85.686176
 20
42.455427
 30
0.0
  0
VERTEX
  5
31E
330
310
100
AcDbEntity
  8
001
370
    50
100
AcDbVertex
100
AcDb2dVertex
 10
85.695633
 20
42.470414
 30
0.0
  0
VERTEX
  5
31F
330
310
100
AcDbEntity
  8
001
370
    50
100
AcDbVertex
100
AcDb2dVertex
 10
85.703766
 20
42.486327
 30
0.0
  0
VERTEX
  5
320
330
310
100
AcDbEntity
  8
001
370
    50
100
AcDbVertex
100
AcDb2dVertex
 10
85.710506
 20
42.502484
 30
0.0
  0
VERTEX
  5
321
330
310
100
AcDbEntity
  8
001
370
    50
100
AcDbVertex
100
AcDb2dVertex
 10
85.715802
 20
42.518623
 30
0.0
  0
VERTEX
  5
322
330
310
100
AcDbEntity
  8
001
370
    50
100
AcDbVertex
100
AcDb2dVertex
 10
85.719614
 20
42.536663
 30
0.0
  0
VERTEX
  5
323
330
310
100
AcDbEntity
  8
001
370
    50
100
AcDbVertex
100
AcDb2dVertex
 10
85.721912
 20
42.557033
 30
0.0
  0
VERTEX
  5
324
330
310
100
AcDbEntity
  8
001
370
    50
100
AcDbVertex
100
AcDb2dVertex
 10
85.722681
 20
42.571914
 30
0.0
  0
SEQEND
  5
311
330
310
100
AcDbEntity
  8
001
370
    50
  0
LINE
  5
325
330
1F
100
AcDbEntity
  8
001
370
    50
100
AcDbLine
 10
84.371979
 20
42.368914
 30
0.0
 11
83.371979
 21
43.368914
 31
0.0
  0
POLYLINE
  5
326
330
1F
100
AcDbEntity
  8
001
370
    50
100
AcDb2dPolyline
 66
     1
 10
0.0
 20
0.0
 30
0.0
  0
VERTEX
  5
328
330
326
100
AcDbEntity
  8
001
370
    50
100
AcDbVertex
100
AcDb2dVertex
 10
76.973872
 20
50.453804
 30
0.0
  0
VERTEX
  5
329
330
326
100
AcDbEntity
  8
001
370
    50
100
AcDbVertex
100
AcDb2dVertex
 10
76.959072
 20
50.453031
 30
0.0
  0
VERTEX
  5
32A
330
326
100
AcDbEntity
  8
001
370
    50
100
AcDbVertex
100
AcDb2dVertex
 10
76.938815
 20
50.45072
 30
0.0
  0
VERTEX
  5
32B
330
326
100
AcDbEntity
  8
001
370
    50
100
AcDbVertex
100
AcDb2dVertex
 10
76.920868
 20
50.446886
 30
0.0
  0
VERTEX
  5
32C
330
326
100
AcDbEntity
  8
001
370
    50
100
AcDbVertex
100
AcDb2dVertex
 10
76.904822
 20
50.441561
 30
0.0
  0
VERTEX
  5
32D
330
326
100
AcDbEntity
  8
001
370
    50
100
AcDbVertex
100
AcDb2dVertex
 10
76.888749
 20
50.434781
 30
0.0
  0
VERTEX
  5
32E
330
326
100
AcDbEntity
  8
001
370
    50
100
AcDbVertex
100
AcDb2dVertex
 10
76.872928
 20
50.426607
 30
0.0
  0
VERTEX
  5
32F
330
326
100
AcDbEntity
  8
001
370
    50
100
AcDbVertex
100
AcDb2dVertex
 10
76.858017
 20
50.417093
 30
0.0
  0
VERTEX
  5
330
330
326
100
AcDbEntity
  8
001
370
    50
100
AcDbVertex
100
AcDb2dVertex
 10
76.844101
 20
50.406311
 30
0.0
  0
VERTEX
  5
331
330
326
100
AcDbEntity
  8
001
370
    50
100
AcDbVertex
100
AcDb2dVertex
 10
76.831128
 20
50.394329
 30
0.0
  0
VERTEX
  5
332
330
326
100
AcDbEntity
  8
001
370
    50
100
AcDbVertex
100
AcDb2dVertex
 10
76.819217
 20
50.38129
 30
0.0
  0
VERTEX
  5
333
330
326
100
AcDbEntity
  8
001
370
    50
100
AcDbVertex
100
AcDb2dVertex
 10
76.808489
 20
50.36729
 30
0.0
  0
VERTEX
  5
334
330
326
100
AcDbEntity
  8
001
370
    50
100
AcDbVertex
100
AcDb2dVertex
 10
76.799032
 20
50.352304
 30
0.0
  0
VERTEX
  5
335
330
326
100
AcDbEntity
  8
001
370
    50
100
AcDbVertex
100
AcDb2dVertex
 10
76.7909
 20
50.336391
 30
0.0
  0
VERTEX
  5
336
330
326
100
AcDbEntity
  8
001
370
    50
100
AcDbVertex
100
AcDb2dVertex
 10
76.784159
 20
50.320234
 30
0.0
  0
VERTEX
  5
337
330
326
100
AcDbEntity
  8
001
370
    50
100
AcDbVertex
100
AcDb2dVertex
 10
76.778863
 20
50.304095
 30
0.0
  0
VERTEX
  5
338
330
326
100
AcDbEntity
  8
001
370
    50
100
AcDbVertex
100
AcDb2dVertex
 10
76.775051
 20
50.286054
 30
0.0
  0
VERTEX
  5
339
330
326
100
AcDbEntity
  8
001
370
    50
100
AcDbVertex
100
AcDb2dVertex
 10
76.772753
 20
50.265685
 30
0.0
  0
VERTEX
  5
33A
330
326
100
AcDbEntity
  8
001
370
    50
100
AcDbVertex
100
AcDb2dVertex
 10
76.771984
 20
50.250804
 30
0.0
  0
SEQEND
  5
327
330
326
100
AcDbEntity
  8
001
370
    50
  0
LINE
  5
33B
330
1F
100
AcDbEntity
  8
001
  6
PHANTOM
370
     9
100
AcDbLine
 10
84.371979
 20
55.368914
 30
0.0
 11
85.520881
 21
55.368914
 31
0.0
  0
LINE
  5
33C
330
1F
100
AcDbEntity
  8
001
  6
PHANTOM
370
     9
100
AcDbLine
 10
83.371979
 20
54.368914
 30
0.0
 11
77.573867
 21
54.368914
 31
0.0
  0
LINE
  5
33D
330
1F
100
AcDbEntity
  8
001
  6
PHANTOM
370
     9
100
AcDbLine
 10
77.371979
 20
52.468909
 30
0.0
 11
77.371979
 21
54.166085
 31
0.0
  0
LINE
  5
33E
330
1F
100
AcDbEntity
  8
001
  6
PHANTOM
370
     9
100
AcDbLine
 10
77.371979
 20
52.468909
 30
0.0
 11
76.771984
 21
51.868914
 31
0.0
  0
LINE
  5
33F
330
1F
100
AcDbEntity
  8
001
  6
PHANTOM
370
     9
100
AcDbLine
 10
84.371979
 20
55.368914
 30
0.0
 11
83.371979
 21
54.368914
 31
0.0
  0
ENDSEC
  0
SECTION
  2
OBJECTS
  0
DICTIONARY
  5
C
330
0
100
AcDbDictionary
281
     1
  3
ACAD_GROUP
350
D
  3
ACAD_LAYOUT
350
1A
  3
ACAD_MLEADERSTYLE
350
343
  3
ACAD_MLINESTYLE
350
17
  3
ACAD_PLOTSETTINGS
350
19
  3
ACAD_PLOTSTYLENAME
350
E
  3
ACAD_SCALELIST
350
3B
  3
ACAD_TABLESTYLE
350
342
  3
ACAD_VISUALSTYLE
350
2A
  3
AcDbVariableDictionary
350
340
  0
DICTIONARY
  5
D
102
{ACAD_REACTORS
330
C
102
}
330
C
100
AcDbDictionary
281
     1
  0
DICTIONARY
  5
1A
102
{ACAD_REACTORS
330
C
102
}
330
C
100
AcDbDictionary
281
     1
  3
Layout1
350
1E
  3
Layout2
350
26
  3
Model
350
22
  0
DICTIONARY
  5
343
102
{ACAD_REACTORS
330
C
102
}
330
C
100
AcDbDictionary
281
     1
  0
DICTIONARY
  5
17
102
{ACAD_REACTORS
330
C
102
}
330
C
100
AcDbDictionary
281
     1
  3
Standard
350
18
  0
DICTIONARY
  5
19
102
{ACAD_REACTORS
330
C
102
}
330
C
100
AcDbDictionary
281
     1
  0
ACDBDICTIONARYWDFLT
  5
E
102
{ACAD_REACTORS
330
C
102
}
330
C
100
AcDbDictionary
281
     1
  3
Normal
350
F
100
AcDbDictionaryWithDefault
340
F
  0
DICTIONARY
  5
3B
102
{ACAD_REACTORS
330
C
102
}
330
C
100
AcDbDictionary
281
     1
  3
A0
350
3C
  3
A1
350
3D
  3
A2
350
3E
  3
A3
350
3F
  3
A4
350
40
  3
A5
350
41
  3
A6
350
42
  3
A7
350
43
  3
A8
350
44
  3
A9
350
45
  3
B0
350
46
  3
B1
350
47
  3
B2
350
48
  3
B3
350
49
  3
B4
350
4A
  3
B5
350
4B
  3
B6
350
4C
  3
B7
350
4D
  3
B8
350
4E
  3
B9
350
4F
  3
C0
350
50
  3
C1
350
51
  3
C2
350
52
  3
C3
350
53
  3
C4
350
54
  3
C5
350
55
  3
C6
350
56
  3
C7
350
57
  3
C8
350
58
  3
C9
350
59
  3
D0
350
5A
  3
D1
350
5B
  3
D2
350
5C
  0
DICTIONARY
  5
342
102
{ACAD_REACTORS
330
C
102
}
330
C
100
AcDbDictionary
281
     1
  0
DICTIONARY
  5
2A
102
{ACAD_REACTORS
330
C
102
}
330
C
100
AcDbDictionary
281
     1
  3
2dWireframe
350
2F
  3
3D Hidden
350
31
  3
3dWireframe
350
30
  3
Basic
350
32
  3
Brighten
350
36
  3
ColorChange
350
3A
  3
Conceptual
350
34
  3
Dim
350
35
  3
Facepattern
350
39
  3
Flat
350
2B
  3
FlatWithEdges
350
2C
  3
Gouraud
350
2D
  3
GouraudWithEdges
350
2E
  3
Linepattern
350
38
  3
Realistic
350
33
  3
Thicken
350
37
  0
DICTIONARY
  5
340
102
{ACAD_REACTORS
330
C
102
}
330
C
100
AcDbDictionary
281
     1
  3
CANNOSCALE
350
341
  3
PSOLHEIGHT
350
345
  3
PSOLWIDTH
350
344
  0
LAYOUT
  5
1E
102
{ACAD_REACTORS
330
1A
102
}
330
1A
100
AcDbPlotSettings
  1

  2
none_device
  4

  6

 40
0.0
 41
0.0
 42
0.0
 43
0.0
 44
0.0
 45
0.0
 46
0.0
 47
0.0
 48
0.0
 49
0.0
140
0.0
141
0.0
142
1.0
143
1.0
 70
   688
 72
     0
 73
     0
 74
     5
  7

 75
    16
147
1.0
148
0.0
149
0.0
100
AcDbLayout
  1
Layout1
 70
     1
 71
     1
 10
0.0
 20
0.0
 11
12.0
 21
9.0
 12
0.0
 22
0.0
 32
0.0
 14
1.000000E+20
 24
1.000000E+20
 34
0.0
 15
-1.000000E+20
 25
-1.000000E+20
 35
0.0
146
0.0
 13
0.0
 23
0.0
 33
0.0
 16
1.0
 26
0.0
 36
0.0
 17
0.0
 27
1.0
 37
0.0
 76
     0
330
1B
  0
LAYOUT
  5
26
102
{ACAD_REACTORS
330
1A
102
}
330
1A
100
AcDbPlotSettings
  1

  2
none_device
  4

  6

 40
0.0
 41
0.0
 42
0.0
 43
0.0
 44
0.0
 45
0.0
 46
0.0
 47
0.0
 48
0.0
 49
0.0
140
0.0
141
0.0
142
1.0
143
1.0
 70
   688
 72
     0
 73
     0
 74
     5
  7

 75
    16
147
1.0
148
0.0
149
0.0
100
AcDbLayout
  1
Layout2
 70
     1
 71
     2
 10
0.0
 20
0.0
 11
0.0
 21
0.0
 12
0.0
 22
0.0
 32
0.0
 14
0.0
 24
0.0
 34
0.0
 15
0.0
 25
0.0
 35
0.0
146
0.0
 13
0.0
 23
0.0
 33
0.0
 16
1.0
 26
0.0
 36
0.0
 17
0.0
 27
1.0
 37
0.0
 76
     0
330
23
  0
LAYOUT
  5
22
102
{ACAD_REACTORS
330
1A
102
}
330
1A
100
AcDbPlotSettings
  1

  2
none_device
  4

  6

 40
0.0
 41
0.0
 42
0.0
 43
0.0
 44
0.0
 45
0.0
 46
0.0
 47
0.0
 48
0.0
 49
0.0
140
0.0
141
0.0
142
1.0
143
1.0
 70
  1712
 72
     0
 73
     0
 74
     0
  7

 75
     0
147
1.0
148
0.0
149
0.0
100
AcDbLayout
  1
Model
 70
     1
 71
     0
 10
0.0
 20
0.0
 11
12.0
 21
9.0
 12
0.0
 22
0.0
 32
0.0
 14
18.134689
 24
-4.548508
 34
0.0
 15
218.134689
 25
90.143753
 35
0.0
146
0.0
 13
0.0
 23
0.0
 33
0.0
 16
1.0
 26
0.0
 36
0.0
 17
0.0
 27
1.0
 37
0.0
 76
     0
330
1F
331
29
  0
MLINESTYLE
  5
18
102
{ACAD_REACTORS
330
17
102
}
330
17
100
AcDbMlineStyle
  2
Standard
 70
     0
  3

 62
   256
 51
90.0
 52
90.0
 71
     2
 49
0.5
 62
   256
  6
BYLAYER
 49
-0.5
 62
   256
  6
BYLAYER
  0
ACDBPLACEHOLDER
  5
F
102
{ACAD_REACTORS
330
E
102
}
330
E
  0
SCALE
  5
3C
102
{ACAD_REACTORS
330
3B
102
}
330
3B
100
AcDbScale
 70
     0
300
1:1
140
1.0
141
1.0
290
     1
  0
SCALE
  5
3D
102
{ACAD_REACTORS
330
3B
102
}
330
3B
100
AcDbScale
 70
     0
300
1:2
140
1.0
141
2.0
290
     0
  0
SCALE
  5
3E
102
{ACAD_REACTORS
330
3B
102
}
330
3B
100
AcDbScale
 70
     0
300
1:4
140
1.0
141
4.0
290
     0
  0
SCALE
  5
3F
102
{ACAD_REACTORS
330
3B
102
}
330
3B
100
AcDbScale
 70
     0
300
1:5
140
1.0
141
5.0
290
     0
  0
SCALE
  5
40
102
{ACAD_REACTORS
330
3B
102
}
330
3B
100
AcDbScale
 70
     0
300
1:8
140
1.0
141
8.0
290
     0
  0
SCALE
  5
41
102
{ACAD_REACTORS
330
3B
102
}
330
3B
100
AcDbScale
 70
     0
300
1:10
140
1.0
141
10.0
290
     0
  0
SCALE
  5
42
102
{ACAD_REACTORS
330
3B
102
}
330
3B
100
AcDbScale
 70
     0
300
1:16
140
1.0
141
16.0
290
     0
  0
SCALE
  5
43
102
{ACAD_REACTORS
330
3B
102
}
330
3B
100
AcDbScale
 70
     0
300
1:20
140
1.0
141
20.0
290
     0
  0
SCALE
  5
44
102
{ACAD_REACTORS
330
3B
102
}
330
3B
100
AcDbScale
 70
     0
300
1:30
140
1.0
141
30.0
290
     0
  0
SCALE
  5
45
102
{ACAD_REACTORS
330
3B
102
}
330
3B
100
AcDbScale
 70
     0
300
1:40
140
1.0
141
40.0
290
     0
  0
SCALE
  5
46
102
{ACAD_REACTORS
330
3B
102
}
330
3B
100
AcDbScale
 70
     0
300
1:50
140
1.0
141
50.0
290
     0
  0
SCALE
  5
47
102
{ACAD_REACTORS
330
3B
102
}
330
3B
100
AcDbScale
 70
     0
300
1:100
140
1.0
141
100.0
290
     0
  0
SCALE
  5
48
102
{ACAD_REACTORS
330
3B
102
}
330
3B
100
AcDbScale
 70
     0
300
2:1
140
2.0
141
1.0
290
     0
  0
SCALE
  5
49
102
{ACAD_REACTORS
330
3B
102
}
330
3B
100
AcDbScale
 70
     0
300
4:1
140
4.0
141
1.0
290
     0
  0
SCALE
  5
4A
102
{ACAD_REACTORS
330
3B
102
}
330
3B
100
AcDbScale
 70
     0
300
8:1
140
8.0
141
1.0
290
     0
  0
SCALE
  5
4B
102
{ACAD_REACTORS
330
3B
102
}
330
3B
100
AcDbScale
 70
     0
300
10:1
140
10.0
141
1.0
290
     0
  0
SCALE
  5
4C
102
{ACAD_REACTORS
330
3B
102
}
330
3B
100
AcDbScale
 70
     0
300
100:1
140
100.0
141
1.0
290
     0
  0
SCALE
  5
4D
102
{ACAD_REACTORS
330
3B
102
}
330
3B
100
AcDbScale
 70
     0
300
1/128" = 1'-0"
140
0.007812
141
12.0
290
     0
  0
SCALE
  5
4E
102
{ACAD_REACTORS
330
3B
102
}
330
3B
100
AcDbScale
 70
     0
300
1/64" = 1'-0"
140
0.015625
141
12.0
290
     0
  0
SCALE
  5
4F
102
{ACAD_REACTORS
330
3B
102
}
330
3B
100
AcDbScale
 70
     0
300
1/32" = 1'-0"
140
0.03125
141
12.0
290
     0
  0
SCALE
  5
50
102
{ACAD_REACTORS
330
3B
102
}
330
3B
100
AcDbScale
 70
     0
300
1/16" = 1'-0"
140
0.0625
141
12.0
290
     0
  0
SCALE
  5
51
102
{ACAD_REACTORS
330
3B
102
}
330
3B
100
AcDbScale
 70
     0
300
3/32" = 1'-0"
140
0.09375
141
12.0
290
     0
  0
SCALE
  5
52
102
{ACAD_REACTORS
330
3B
102
}
330
3B
100
AcDbScale
 70
     0
300
1/8" = 1'-0"
140
0.125
141
12.0
290
     0
  0
SCALE
  5
53
102
{ACAD_REACTORS
330
3B
102
}
330
3B
100
AcDbScale
 70
     0
300
3/16" = 1'-0"
140
0.1875
141
12.0
290
     0
  0
SCALE
  5
54
102
{ACAD_REACTORS
330
3B
102
}
330
3B
100
AcDbScale
 70
     0
300
1/4" = 1'-0"
140
0.25
141
12.0
290
     0
  0
SCALE
  5
55
102
{ACAD_REACTORS
330
3B
102
}
330
3B
100
AcDbScale
 70
     0
300
3/8" = 1'-0"
140
0.375
141
12.0
290
     0
  0
SCALE
  5
56
102
{ACAD_REACTORS
330
3B
102
}
330
3B
100
AcDbScale
 70
     0
300
1/2" = 1'-0"
140
0.5
141
12.0
290
     0
  0
SCALE
  5
57
102
{ACAD_REACTORS
330
3B
102
}
330
3B
100
AcDbScale
 70
     0
300
3/4" = 1'-0"
140
0.75
141
12.0
290
     0
  0
SCALE
  5
58
102
{ACAD_REACTORS
330
3B
102
}
330
3B
100
AcDbScale
 70
     0
300
1" = 1'-0"
140
1.0
141
12.0
290
     0
  0
SCALE
  5
59
102
{ACAD_REACTORS
330
3B
102
}
330
3B
100
AcDbScale
 70
     0
300
1-1/2" = 1'-0"
140
1.5
141
12.0
290
     0
  0
SCALE
  5
5A
102
{ACAD_REACTORS
330
3B
102
}
330
3B
100
AcDbScale
 70
     0
300
3" = 1'-0"
140
3.0
141
12.0
290
     0
  0
SCALE
  5
5B
102
{ACAD_REACTORS
330
3B
102
}
330
3B
100
AcDbScale
 70
     0
300
6" = 1'-0"
140
6.0
141
12.0
290
     0
  0
SCALE
  5
5C
102
{ACAD_REACTORS
330
3B
102
}
330
3B
100
AcDbScale
 70
     0
300
1'-0" = 1'-0"
140
12.0
141
12.0
290
     0
  0
VISUALSTYLE
  5
2F
102
{ACAD_REACTORS
330
2A
102
}
330
2A
100
AcDbVisualStyle
  2
2dWireframe
 70
     4
 71
     0
 72
     2
 73
     0
 90
        0
 40
-0.6
 41
-30.0
 62
     5
 63
     7
 74
     1
 91
        4
 64
     7
 65
   257
 75
     1
175
     1
 42
1.0
 92
        0
 66
   257
 43
1.0
 76
     1
 77
     6
 78
     2
 67
     7
 79
     5
170
     0
171
     0
290
     0
174
     0
 93
        1
 44
0.0
173
     0
291
     0
 45
0.0
1001
ACAD
1000
AcDbSavedByObjectVersion
1070
     0
  0
VISUALSTYLE
  5
31
102
{ACAD_REACTORS
330
2A
102
}
330
2A
100
AcDbVisualStyle
  2
3D Hidden
 70
     6
 71
     1
 72
     2
 73
     2
 90
        0
 40
-0.6
 41
-30.0
 62
     5
 63
     7
 74
     2
 91
        2
 64
     7
 65
   257
 75
     2
175
     1
 42
40.0
 92
        0
 66
   257
 43
1.0
 76
     1
 77
     6
 78
     2
 67
     7
 79
     3
170
     0
171
     0
290
     0
174
     0
 93
        1
 44
0.0
173
     0
291
     0
 45
0.0
1001
ACAD
1000
AcDbSavedByObjectVersion
1070
     0
  0
VISUALSTYLE
  5
30
102
{ACAD_REACTORS
330
2A
102
}
330
2A
100
AcDbVisualStyle
  2
3dWireframe
 70
     5
 71
     0
 72
     2
 73
     0
 90
        0
 40
-0.6
 41
-30.0
 62
     5
 63
     7
 74
     1
 91
        4
 64
     7
 65
   257
 75
     1
175
     1
 42
1.0
 92
        0
 66
   257
 43
1.0
 76
     1
 77
     6
 78
     2
 67
     7
 79
     5
170
     0
171
     0
290
     0
174
     0
 93
        1
 44
0.0
173
     0
291
     0
 45
0.0
1001
ACAD
1000
AcDbSavedByObjectVersion
1070
     0
  0
VISUALSTYLE
  5
32
102
{ACAD_REACTORS
330
2A
102
}
330
2A
100
AcDbVisualStyle
  2
Basic
 70
     7
 71
     1
 72
     0
 73
     1
 90
        0
 40
-0.6
 41
-30.0
 62
     5
 63
     7
 74
     0
 91
        4
 64
     7
 65
   257
 75
     1
175
     1
 42
1.0
 92
        8
 66
     7
 43
1.0
 76
     1
 77
     6
 78
     2
 67
     7
 79
     5
170
     0
171
     0
290
     0
174
     0
 93
        1
 44
0.0
173
     0
291
     1
 45
0.0
1001
ACAD
1000
AcDbSavedByObjectVersion
1070
     0
  0
VISUALSTYLE
  5
36
102
{ACAD_REACTORS
330
2A
102
}
330
2A
100
AcDbVisualStyle
  2
Brighten
 70
    12
 71
     2
 72
     2
 73
     0
 90
        0
 40
-0.6
 41
-30.0
 62
     5
 63
     7
 74
     1
 91
        4
 64
     7
 65
   257
 75
     1
175
     1
 42
1.0
 92
        8
 66
     7
 43
1.0
 76
     1
 77
     6
 78
     2
 67
     7
 79
     5
170
     0
171
     0
290
     0
174
     0
 93
        1
 44
50.0
173
     0
291
     1
 45
0.0
1001
ACAD
1000
AcDbSavedByObjectVersion
1070
     0
  0
VISUALSTYLE
  5
3A
102
{ACAD_REACTORS
330
2A
102
}
330
2A
100
AcDbVisualStyle
  2
ColorChange
 70
    16
 71
     2
 72
     2
 73
     3
 90
        0
 40
-0.6
 41
-30.0
 62
     5
 63
     8
 74
     1
 91
        4
 64
     7
 65
   257
 75
     1
175
     1
 42
1.0
 92
        8
 66
     8
 43
1.0
 76
     1
 77
     6
 78
     2
 67
     7
 79
     5
170
     0
171
     0
290
     0
174
     0
 93
        1
 44
0.0
173
     0
291
     1
 45
0.0
1001
ACAD
1000
AcDbSavedByObjectVersion
1070
     0
  0
VISUALSTYLE
  5
34
102
{ACAD_REACTORS
330
2A
102
}
330
2A
100
AcDbVisualStyle
  2
Conceptual
 70
     9
 71
     3
 72
     2
 73
     0
 90
        0
 40
-0.6
 41
-30.0
 62
     5
 63
     7
 74
     2
 91
        2
 64
     7
 65
   257
 75
     1
175
     1
 42
40.0
 92
        8
 66
     7
 43
1.0
 76
     1
 77
     6
 78
     2
 67
     7
 79
     3
170
     0
171
     0
290
     0
174
     0
 93
        1
 44
0.0
173
     0
291
     0
 45
0.0
1001
ACAD
1000
AcDbSavedByObjectVersion
1070
     0
  0
VISUALSTYLE
  5
35
102
{ACAD_REACTORS
330
2A
102
}
330
2A
100
AcDbVisualStyle
  2
Dim
 70
    11
 71
     2
 72
     2
 73
     0
 90
        0
 40
-0.6
 41
-30.0
 62
     5
 63
     7
 74
     1
 91
        4
 64
     7
 65
   257
 75
     1
175
     1
 42
1.0
 92
        8
 66
     7
 43
1.0
 76
     1
 77
     6
 78
     2
 67
     7
 79
     5
170
     0
171
     0
290
     0
174
     0
 93
        1
 44
-50.0
173
     0
291
     1
 45
0.0
1001
ACAD
1000
AcDbSavedByObjectVersion
1070
     0
  0
VISUALSTYLE
  5
39
102
{ACAD_REACTORS
330
2A
102
}
330
2A
100
AcDbVisualStyle
  2
Facepattern
 70
    15
 71
     2
 72
     2
 73
     0
 90
        0
 40
-0.6
 41
-30.0
 62
     5
 63
     7
 74
     1
 91
        4
 64
     7
 65
   257
 75
     1
175
     1
 42
1.0
 92
        8
 66
     7
 43
1.0
 76
     1
 77
     6
 78
     2
 67
     7
 79
     5
170
     0
171
     0
290
     0
174
     0
 93
        1
 44
0.0
173
     0
291
     1
 45
0.0
1001
ACAD
1000
AcDbSavedByObjectVersion
1070
     0
  0
VISUALSTYLE
  5
2B
102
{ACAD_REACTORS
330
2A
102
}
330
2A
100
AcDbVisualStyle
  2
Flat
 70
     0
 71
     2
 72
     1
 73
     1
 90
        2
 40
-0.6
 41
30.0
 62
     5
 63
     7
 74
     0
 91
        4
 64
     7
 65
   257
 75
     1
175
     1
 42
1.0
 92
        8
 66
     7
 43
1.0
 76
     1
 77
     6
 78
     2
 67
     7
 79
     5
170
     0
171
     0
290
     0
174
     0
 93
       13
 44
0.0
173
     0
291
     1
 45
0.0
1001
ACAD
1000
AcDbSavedByObjectVersion
1070
     0
  0
VISUALSTYLE
  5
2C
102
{ACAD_REACTORS
330
2A
102
}
330
2A
100
AcDbVisualStyle
  2
FlatWithEdges
 70
     1
 71
     2
 72
     1
 73
     1
 90
        2
 40
-0.6
 41
30.0
 62
     5
 63
     7
 74
     1
 91
        4
 64
     7
 65
   257
 75
     1
175
     1
 42
1.0
 92
        0
 66
   257
 43
1.0
 76
     1
 77
     6
 78
     2
 67
     7
 79
     5
170
     0
171
     0
290
     0
174
     0
 93
       13
 44
0.0
173
     0
291
     1
 45
0.0
1001
ACAD
1000
AcDbSavedByObjectVersion
1070
     0
  0
VISUALSTYLE
  5
2D
102
{ACAD_REACTORS
330
2A
102
}
330
2A
100
AcDbVisualStyle
  2
Gouraud
 70
     2
 71
     2
 72
     2
 73
     1
 90
        2
 40
-0.6
 41
30.0
 62
     5
 63
     7
 74
     0
 91
        4
 64
     7
 65
   257
 75
     1
175
     1
 42
1.0
 92
        0
 66
     7
 43
1.0
 76
     1
 77
     6
 78
     2
 67
     7
 79
     5
170
     0
171
     0
290
     0
174
     0
 93
       13
 44
0.0
173
     0
291
     1
 45
0.0
1001
ACAD
1000
AcDbSavedByObjectVersion
1070
     0
  0
VISUALSTYLE
  5
2E
102
{ACAD_REACTORS
330
2A
102
}
330
2A
100
AcDbVisualStyle
  2
GouraudWithEdges
 70
     3
 71
     2
 72
     2
 73
     1
 90
        2
 40
-0.6
 41
30.0
 62
     5
 63
     7
 74
     1
 91
        4
 64
     7
 65
   257
 75
     1
175
     1
 42
1.0
 92
        0
 66
   257
 43
1.0
 76
     1
 77
     6
 78
     2
 67
     7
 79
     5
170
     0
171
     0
290
     0
174
     0
 93
       13
 44
0.0
173
     0
291
     1
 45
0.0
1001
ACAD
1000
AcDbSavedByObjectVersion
1070
     0
  0
VISUALSTYLE
  5
38
102
{ACAD_REACTORS
330
2A
102
}
330
2A
100
AcDbVisualStyle
  2
Linepattern
 70
    14
 71
     2
 72
     2
 73
     0
 90
        0
 40
-0.6
 41
-30.0
 62
     5
 63
     7
 74
     1
 91
        4
 64
     7
 65
   257
 75
     7
175
     7
 42
1.0
 92
        8
 66
     7
 43
1.0
 76
     1
 77
     6
 78
     2
 67
     7
 79
     5
170
     0
171
     0
290
     0
174
     0
 93
        1
 44
0.0
173
     0
291
     1
 45
0.0
1001
ACAD
1000
AcDbSavedByObjectVersion
1070
     0
  0
VISUALSTYLE
  5
33
102
{ACAD_REACTORS
330
2A
102
}
330
2A
100
AcDbVisualStyle
  2
Realistic
 70
     8
 71
     2
 72
     2
 73
     0
 90
        0
 40
-0.6
 41
-30.0
 62
     5
 63
     7
 74
     1
 91
        0
 64
     7
 65
   257
 75
     1
175
     1
 42
1.0
 92
        8
 66
     8
 43
1.0
 76
     1
 77
     6
 78
     2
 67
     7
 79
     5
170
     0
171
     0
290
     0
174
     0
 93
       13
 44
0.0
173
     0
291
     0
 45
0.0
1001
ACAD
1000
AcDbSavedByObjectVersion
1070
     0
  0
VISUALSTYLE
  5
37
102
{ACAD_REACTORS
330
2A
102
}
330
2A
100
AcDbVisualStyle
  2
Thicken
 70
    13
 71
     2
 72
     2
 73
     0
 90
        0
 40
-0.6
 41
-30.0
 62
     5
 63
     7
 74
     1
 91
        4
 64
     7
 65
   257
 75
     1
175
     1
 42
1.0
 92
       12
 66
     7
 43
1.0
 76
     1
 77
     6
 78
     2
 67
     7
 79
     5
170
     0
171
     0
290
     0
174
     0
 93
        1
 44
0.0
173
     0
291
     1
 45
0.0
1001
ACAD
1000
AcDbSavedByObjectVersion
1070
     0
  0
DICTIONARYVAR
  5
341
102
{ACAD_REACTORS
330
340
102
}
330
340
100
DictionaryVariables
280
     0
  1
1:1
  0
DICTIONARYVAR
  5
345
102
{ACAD_REACTORS
330
340
102
}
330
340
100
DictionaryVariables
280
     0
  1
80.000000
  0
DICTIONARYVAR
  5
344
102
{ACAD_REACTORS
330
340
102
}
330
340
100
DictionaryVariables
280
     0
  1
5.000000
  0
ENDSEC
  0
EOF
