  0
SECTION
  2
HEADER
  9
$ACADVER
  1
AC1015
  9
$ACADMAINTVER
 70
     6
  9
$DWGCODEPAGE
  3
ANSI_932
  9
$INSBASE
 10
0.0
 20
0.0
 30
0.0
  9
$EXTMIN
 10
4.152283
 20
33.403061
 30
0.0
  9
$EXTMAX
 10
261.375916
 20
166.403015
 30
0.0
  9
$LIMMIN
 10
0.0
 20
0.0
  9
$LIMMAX
 10
12.0
 20
9.0
  9
$ORTHOMODE
 70
     0
  9
$REGENMODE
 70
     1
  9
$FILLMODE
 70
     1
  9
$QTEXTMODE
 70
     0
  9
$MIRRTEXT
 70
     1
  9
$LTSCALE
 40
2.895738
  9
$ATTMODE
 70
     1
  9
$TEXTSIZE
 40
3.2
  9
$TRACEWID
 40
1.0
  9
$TEXTSTYLE
  7
Standard
  9
$CLAYER
  8
0
  9
$CELTYPE
  6
ByLayer
  9
$CECOLOR
 62
   256
  9
$CELTSCALE
 40
1.0
  9
$DISPSILH
 70
     0
  9
$DIMSCALE
 40
1.0
  9
$DIMASZ
 40
2.5
  9
$DIMEXO
 40
0.625
  9
$DIMDLI
 40
3.75
  9
$DIMRND
 40
0.0
  9
$DIMDLE
 40
0.0
  9
$DIMEXE
 40
1.25
  9
$DIMTP
 40
0.0
  9
$DIMTM
 40
0.0
  9
$DIMTXT
 40
2.5
  9
$DIMCEN
 40
0.09
  9
$DIMTSZ
 40
0.0
  9
$DIMTOL
 70
     0
  9
$DIMLIM
 70
     0
  9
$DIMTIH
 70
     0
  9
$DIMTOH
 70
     0
  9
$DIMSE1
 70
     0
  9
$DIMSE2
 70
     0
  9
$DIMTAD
 70
     0
  9
$DIMZIN
 70
     8
  9
$DIMBLK
  1

  9
$DIMASO
 70
     1
  9
$DIMSHO
 70
     0
  9
$DIMPOST
  1

  9
$DIMAPOST
  1

  9
$DIMALT
 70
     0
  9
$DIMALTD
 70
     3
  9
$DIMALTF
 40
0.03937
  9
$DIMLFAC
 40
1.0
  9
$DIMTOFL
 70
     1
  9
$DIMTVP
 40
0.0
  9
$DIMTIX
 70
     0
  9
$DIMSOXD
 70
     0
  9
$DIMSAH
 70
     0
  9
$DIMBLK1
  1

  9
$DIMBLK2
  1

  9
$DIMSTYLE
  2
ISO-25
  9
$DIMCLRD
 70
     0
  9
$DIMCLRE
 70
     0
  9
$DIMCLRT
 70
     0
  9
$DIMTFAC
 40
1.0
  9
$DIMGAP
 40
0.625
  9
$DIMJUST
 70
     0
  9
$DIMSD1
 70
     0
  9
$DIMSD2
 70
     0
  9
$DIMTOLJ
 70
     0
  9
$DIMTZIN
 70
     8
  9
$DIMALTZ
 70
     0
  9
$DIMALTTZ
 70
     0
  9
$DIMUPT
 70
     0
  9
$DIMDEC
 70
     2
  9
$DIMTDEC
 70
     2
  9
$DIMALTU
 70
     2
  9
$DIMALTTD
 70
     3
  9
$DIMTXSTY
  7
Standard
  9
$DIMAUNIT
 70
     0
  9
$DIMADEC
 70
     0
  9
$DIMALTRND
 40
0.0
  9
$DIMAZIN
 70
     0
  9
$DIMDSEP
 70
    44
  9
$DIMATFIT
 70
     3
  9
$DIMFRAC
 70
     0
  9
$DIMLDRBLK
  1

  9
$DIMLUNIT
 70
     2
  9
$DIMLWD
 70
    -2
  9
$DIMLWE
 70
    -2
  9
$DIMTMOVE
 70
     0
  9
$LUNITS
 70
     2
  9
$LUPREC
 70
     4
  9
$SKETCHINC
 40
1.0
  9
$FILLETRAD
 40
0.0
  9
$AUNITS
 70
     0
  9
$AUPREC
 70
     0
  9
$MENU
  1
.
  9
$ELEVATION
 40
0.0
  9
$PELEVATION
 40
0.0
  9
$THICKNESS
 40
0.0
  9
$LIMCHECK
 70
     0
  9
$CHAMFERA
 40
10.0
  9
$CHAMFERB
 40
10.0
  9
$CHAMFERC
 40
20.0
  9
$CHAMFERD
 40
0.0
  9
$SKPOLY
 70
     0
  9
$TDCREATE
 40
2454798.708695197
  9
$TDUCREATE
 40
2454798.333695197
  9
$TDUPDATE
 40
2454798.708695208
  9
$TDUUPDATE
 40
2454798.333695208
  9
$TDINDWG
 40
0.0000000116
  9
$TDUSRTIMER
 40
0.0000000116
  9
$USRTIMER
 70
     1
  9
$ANGBASE
 50
0.0
  9
$ANGDIR
 70
     0
  9
$PDMODE
 70
     0
  9
$PDSIZE
 40
0.0
  9
$PLINEWID
 40
0.0
  9
$SPLFRAME
 70
     0
  9
$SPLINETYPE
 70
     6
  9
$SPLINESEGS
 70
     8
  9
$HANDSEED
  5
38F
  9
$SURFTAB1
 70
     6
  9
$SURFTAB2
 70
     6
  9
$SURFTYPE
 70
     6
  9
$SURFU
 70
     6
  9
$SURFV
 70
     6
  9
$UCSBASE
  2

  9
$UCSNAME
  2

  9
$UCSORG
 10
0.0
 20
0.0
 30
0.0
  9
$UCSXDIR
 10
1.0
 20
0.0
 30
0.0
  9
$UCSYDIR
 10
0.0
 20
1.0
 30
0.0
  9
$UCSORTHOREF
  2

  9
$UCSORTHOVIEW
 70
     0
  9
$UCSORGTOP
 10
0.0
 20
0.0
 30
0.0
  9
$UCSORGBOTTOM
 10
0.0
 20
0.0
 30
0.0
  9
$UCSORGLEFT
 10
0.0
 20
0.0
 30
0.0
  9
$UCSORGRIGHT
 10
0.0
 20
0.0
 30
0.0
  9
$UCSORGFRONT
 10
0.0
 20
0.0
 30
0.0
  9
$UCSORGBACK
 10
0.0
 20
0.0
 30
0.0
  9
$PUCSBASE
  2

  9
$PUCSNAME
  2

  9
$PUCSORG
 10
0.0
 20
0.0
 30
0.0
  9
$PUCSXDIR
 10
1.0
 20
0.0
 30
0.0
  9
$PUCSYDIR
 10
0.0
 20
1.0
 30
0.0
  9
$PUCSORTHOREF
  2

  9
$PUCSORTHOVIEW
 70
     0
  9
$PUCSORGTOP
 10
0.0
 20
0.0
 30
0.0
  9
$PUCSORGBOTTOM
 10
0.0
 20
0.0
 30
0.0
  9
$PUCSORGLEFT
 10
0.0
 20
0.0
 30
0.0
  9
$PUCSORGRIGHT
 10
0.0
 20
0.0
 30
0.0
  9
$PUCSORGFRONT
 10
0.0
 20
0.0
 30
0.0
  9
$PUCSORGBACK
 10
0.0
 20
0.0
 30
0.0
  9
$USERI1
 70
     0
  9
$USERI2
 70
     0
  9
$USERI3
 70
     0
  9
$USERI4
 70
     0
  9
$USERI5
 70
     0
  9
$USERR1
 40
0.0
  9
$USERR2
 40
0.0
  9
$USERR3
 40
0.0
  9
$USERR4
 40
0.0
  9
$USERR5
 40
0.0
  9
$WORLDVIEW
 70
     1
  9
$SHADEDGE
 70
     3
  9
$SHADEDIF
 70
    70
  9
$TILEMODE
 70
     1
  9
$MAXACTVP
 70
    64
  9
$PINSBASE
 10
0.0
 20
0.0
 30
0.0
  9
$PLIMCHECK
 70
     0
  9
$PEXTMIN
 10
1.000000E+20
 20
1.000000E+20
 30
0.0
  9
$PEXTMAX
 10
-1.000000E+20
 20
-1.000000E+20
 30
0.0
  9
$PLIMMIN
 10
0.0
 20
0.0
  9
$PLIMMAX
 10
12.0
 20
9.0
  9
$UNITMODE
 70
     0
  9
$VISRETAIN
 70
     1
  9
$PLINEGEN
 70
     0
  9
$PSLTSCALE
 70
     1
  9
$TREEDEPTH
 70
  3020
  9
$CMLSTYLE
  2
Standard
  9
$CMLJUST
 70
     0
  9
$CMLSCALE
 40
20.0
  9
$PROXYGRAPHICS
 70
     1
  9
$MEASUREMENT
 70
     1
  9
$CELWEIGHT
370
    -1
  9
$ENDCAPS
280
     0
  9
$JOINSTYLE
280
     0
  9
$LWDISPLAY
290
     0
  9
$INSUNITS
 70
     4
  9
$HYPERLINKBASE
  1

  9
$STYLESHEET
  1

  9
$XEDIT
290
     1
  9
$CEPSNTYPE
380
     0
  9
$PSTYLEMODE
290
     1
  9
$FINGERPRINTGUID
  2
{D1414BB2-0292-469E-B544-CE813063A9D1}
  9
$VERSIONGUID
  2
{FAEB1C32-E019-11D5-929B-00C0DF256EC4}
  9
$EXTNAMES
290
     1
  9
$PSVPSCALE
 40
0.0
  9
$OLESTARTUP
290
     0
  0
ENDSEC
  0
SECTION
  2
CLASSES
  0
CLASS
  1
ACDBDICTIONARYWDFLT
  2
AcDbDictionaryWithDefault
  3
ObjectDBX Classes
 90
        0
280
     0
281
     0
  0
CLASS
  1
VISUALSTYLE
  2
AcDbVisualStyle
  3
ObjectDBX Classes
 90
     4095
280
     0
281
     0
  0
CLASS
  1
SCALE
  2
AcDbScale
  3
ObjectDBX Classes
 90
     1153
280
     0
281
     0
  0
CLASS
  1
DICTIONARYVAR
  2
AcDbDictionaryVar
  3
ObjectDBX Classes
 90
        0
280
     0
281
     0
  0
CLASS
  1
ACDBPLACEHOLDER
  2
AcDbPlaceHolder
  3
ObjectDBX Classes
 90
        0
280
     0
281
     0
  0
CLASS
  1
LAYOUT
  2
AcDbLayout
  3
ObjectDBX Classes
 90
        0
280
     0
281
     0
  0
ENDSEC
  0
SECTION
  2
TABLES
  0
TABLE
  2
VPORT
  5
8
330
0
100
AcDbSymbolTable
 70
     1
  0
VPORT
  5
29
330
8
100
AcDbSymbolTableRecord
100
AcDbViewportTableRecord
  2
*Active
 70
     0
 10
0.0
 20
0.0
 11
1.0
 21
1.0
 12
132.764099
 22
99.903038
 13
0.0
 23
0.0
 14
1.0
 24
1.0
 15
0.0
 25
0.0
 16
0.0
 26
0.0
 36
1.0
 17
0.0
 27
0.0
 37
0.0
 40
153.608297
 41
1.691288
 42
50.0
 43
0.0
 44
0.0
 50
0.0
 51
0.0
 71
     0
 72
   100
 73
     1
 74
     3
 75
     0
 76
     0
 77
     0
 78
     0
281
     0
 65
     1
110
0.0
120
0.0
130
0.0
111
1.0
121
0.0
131
0.0
112
0.0
122
1.0
132
0.0
 79
     0
146
0.0
  0
ENDTAB
  0
TABLE
  2
LTYPE
  5
5
330
0
100
AcDbSymbolTable
 70
     5
  0
LTYPE
  5
14
330
5
100
AcDbSymbolTableRecord
100
AcDbLinetypeTableRecord
  2
ByBlock
 70
     0
  3

 72
    65
 73
     0
 40
0.0
  0
LTYPE
  5
15
330
5
100
AcDbSymbolTableRecord
100
AcDbLinetypeTableRecord
  2
ByLayer
 70
     0
  3

 72
    65
 73
     0
 40
0.0
  0
LTYPE
  5
16
330
5
100
AcDbSymbolTableRecord
100
AcDbLinetypeTableRecord
  2
Continuous
 70
     0
  3
Solid line
 72
    65
 73
     0
 40
0.0
  0
LTYPE
  5
5D
330
5
100
AcDbSymbolTableRecord
100
AcDbLinetypeTableRecord
  2
DASHED
 70
     0
  3
DASHED
 72
    83
 73
     2
 40
0.75
 49
0.5
 74
     0
 49
-0.25
 74
     0
  0
LTYPE
  5
5E
330
5
100
AcDbSymbolTableRecord
100
AcDbLinetypeTableRecord
  2
HIDDEN
 70
     0
  3
HIDDEN
 72
    83
 73
     2
 40
0.375
 49
0.25
 74
     0
 49
-0.125
 74
     0
  0
LTYPE
  5
5F
330
5
100
AcDbSymbolTableRecord
100
AcDbLinetypeTableRecord
  2
CENTER
 70
     0
  3
CENTER
 72
    83
 73
     4
 40
2.0
 49
1.25
 74
     0
 49
-0.25
 74
     0
 49
0.25
 74
     0
 49
-0.25
 74
     0
  0
LTYPE
  5
60
330
5
100
AcDbSymbolTableRecord
100
AcDbLinetypeTableRecord
  2
PHANTOM
 70
     0
  3
PHANTOM
 72
    83
 73
     6
 40
2.5
 49
1.25
 74
     0
 49
-0.25
 74
     0
 49
0.25
 74
     0
 49
-0.25
 74
     0
 49
0.25
 74
     0
 49
-0.25
 74
     0
  0
ENDTAB
  0
TABLE
  2
LAYER
  5
2
330
0
100
AcDbSymbolTable
 70
     2
  0
LAYER
  5
10
330
2
100
AcDbSymbolTableRecord
100
AcDbLayerTableRecord
  2
0
 70
     0
 62
     7
  6
Continuous
370
    -3
390
F
  0
LAYER
  5
61
330
2
100
AcDbSymbolTableRecord
100
AcDbLayerTableRecord
  2
001
 70
     0
 62
     7
  6
Continuous
370
    -3
390
F
  0
ENDTAB
  0
TABLE
  2
STYLE
  5
3
330
0
100
AcDbSymbolTable
 70
     2
  0
STYLE
  5
11
330
3
100
AcDbSymbolTableRecord
100
AcDbTextStyleTableRecord
  2
Standard
 70
     0
 40
0.0
 41
1.0
 50
0.0
 71
     0
 42
0.2
  3
TXT
  4
BIGFONT
  0
STYLE
  5
62
330
3
100
AcDbSymbolTableRecord
100
AcDbTextStyleTableRecord
  2
TATEGAKI
 70
     4
 40
1.0
 41
1.0
 50
0.0
 71
     0
 42
0.2
  3
TXT
  4
BIGFONT
  0
ENDTAB
  0
TABLE
  2
VIEW
  5
6
330
0
100
AcDbSymbolTable
 70
     0
  0
ENDTAB
  0
TABLE
  2
UCS
  5
7
330
0
100
AcDbSymbolTable
 70
     0
  0
ENDTAB
  0
TABLE
  2
APPID
  5
9
330
0
100
AcDbSymbolTable
 70
     1
  0
APPID
  5
12
330
9
100
AcDbSymbolTableRecord
100
AcDbRegAppTableRecord
  2
ACAD
 70
     0
  0
ENDTAB
  0
TABLE
  2
DIMSTYLE
  5
A
330
0
100
AcDbSymbolTable
 70
     2
100
AcDbDimStyleTable
  0
DIMSTYLE
105
27
330
A
100
AcDbSymbolTableRecord
100
AcDbDimStyleTableRecord
  2
ISO-25
 70
     0
 41
2.5
 42
0.625
 43
3.75
 44
1.25
 73
     0
 74
     0
 77
     1
 78
     8
140
2.5
141
2.5
143
0.03937
147
0.625
171
     3
172
     1
271
     2
272
     2
274
     3
278
    44
283
     0
284
     8
340
11
  0
DIMSTYLE
105
63
102
{ACAD_REACTORS
330
F6
330
F7
330
F8
330
F9
330
FA
330
FB
102
}
330
A
100
AcDbSymbolTableRecord
100
AcDbDimStyleTableRecord
  2
Standard
 70
     0
 41
1.5
 42
0.0
 44
2.75
 73
     0
 74
     0
 77
     1
 78
     8
 79
     2
140
4.0
146
0.8
147
1.0
172
     1
179
     1
271
     1
340
11
  0
ENDTAB
  0
TABLE
  2
BLOCK_RECORD
  5
1
330
0
100
AcDbSymbolTable
 70
     7
  0
BLOCK_RECORD
  5
1F
330
1
100
AcDbSymbolTableRecord
100
AcDbBlockTableRecord
  2
*Model_Space
340
22
  0
BLOCK_RECORD
  5
1B
330
1
100
AcDbSymbolTableRecord
100
AcDbBlockTableRecord
  2
*Paper_Space
340
1E
  0
BLOCK_RECORD
  5
23
330
1
100
AcDbSymbolTableRecord
100
AcDbBlockTableRecord
  2
*Paper_Space0
340
26
  0
BLOCK_RECORD
  5
64
330
1
100
AcDbSymbolTableRecord
100
AcDbBlockTableRecord
  2
*D1
340
0
  0
BLOCK_RECORD
  5
7A
330
1
100
AcDbSymbolTableRecord
100
AcDbBlockTableRecord
  2
*D2
340
0
  0
BLOCK_RECORD
  5
8E
330
1
100
AcDbSymbolTableRecord
100
AcDbBlockTableRecord
  2
*D3
340
0
  0
BLOCK_RECORD
  5
A2
330
1
100
AcDbSymbolTableRecord
100
AcDbBlockTableRecord
  2
*D4
340
0
  0
BLOCK_RECORD
  5
B6
330
1
100
AcDbSymbolTableRecord
100
AcDbBlockTableRecord
  2
*D5
340
0
  0
BLOCK_RECORD
  5
CA
330
1
100
AcDbSymbolTableRecord
100
AcDbBlockTableRecord
  2
*D6
340
0
  0
ENDTAB
  0
ENDSEC
  0
SECTION
  2
BLOCKS
  0
BLOCK
  5
20
330
1F
100
AcDbEntity
  8
0
100
AcDbBlockBegin
  2
*Model_Space
 70
     0
 10
0.0
 20
0.0
 30
0.0
  3
*Model_Space
  1

  0
ENDBLK
  5
21
330
1F
100
AcDbEntity
  8
0
100
AcDbBlockEnd
  0
BLOCK
  5
1C
330
1B
100
AcDbEntity
 67
     1
  8
0
100
AcDbBlockBegin
  2
*Paper_Space
 70
     0
 10
0.0
 20
0.0
 30
0.0
  3
*Paper_Space
  1

  0
ENDBLK
  5
1D
330
1B
100
AcDbEntity
 67
     1
  8
0
100
AcDbBlockEnd
  0
BLOCK
  5
24
330
23
100
AcDbEntity
  8
0
100
AcDbBlockBegin
  2
*Paper_Space0
 70
     0
 10
0.0
 20
0.0
 30
0.0
  3
*Paper_Space0
  1

  0
ENDBLK
  5
25
330
23
100
AcDbEntity
  8
0
100
AcDbBlockEnd
  0
BLOCK
  5
65
330
64
100
AcDbEntity
  8
0
100
AcDbBlockBegin
  2
*D1
 70
     1
 10
0.0
 20
0.0
 30
0.0
  3
*D1
  1

  0
LINE
  5
67
330
64
100
AcDbEntity
  8
001
370
     9
100
AcDbLine
 10
57.776712
 20
90.783169
 30
0.0
 11
57.776712
 21
67.660834
 31
0.0
  0
LINE
  5
68
330
64
100
AcDbEntity
  8
001
370
     9
100
AcDbLine
 10
55.876711
 20
98.383169
 30
0.0
 11
55.876711
 21
67.660834
 31
0.0
  0
LINE
  5
69
330
64
100
AcDbEntity
  8
001
370
     9
100
AcDbLine
 10
57.776712
 20
70.410834
 30
0.0
 11
55.876711
 21
70.410834
 31
0.0
  0
POLYLINE
  5
6A
330
64
100
AcDbEntity
  8
001
370
     9
100
AcDb2dPolyline
 66
     1
 10
0.0
 20
0.0
 30
0.0
  0
VERTEX
  5
6C
330
6A
100
AcDbEntity
  8
001
370
     9
100
AcDbVertex
100
AcDb2dVertex
 10
59.276712
 20
70.00891
 30
0.0
  0
VERTEX
  5
6D
330
6A
100
AcDbEntity
  8
001
370
     9
100
AcDbVertex
100
AcDb2dVertex
 10
57.776712
 20
70.410834
 30
0.0
  0
VERTEX
  5
6E
330
6A
100
AcDbEntity
  8
001
370
     9
100
AcDbVertex
100
AcDb2dVertex
 10
59.276712
 20
70.812758
 30
0.0
  0
SEQEND
  5
6B
330
6A
100
AcDbEntity
  8
001
370
     9
  0
POLYLINE
  5
6F
330
64
100
AcDbEntity
  8
001
370
     9
100
AcDb2dPolyline
 66
     1
 10
0.0
 20
0.0
 30
0.0
  0
VERTEX
  5
71
330
6F
100
AcDbEntity
  8
001
370
     9
100
AcDbVertex
100
AcDb2dVertex
 10
54.376711
 20
70.812758
 30
0.0
  0
VERTEX
  5
72
330
6F
100
AcDbEntity
  8
001
370
     9
100
AcDbVertex
100
AcDb2dVertex
 10
55.876711
 20
70.410834
 30
0.0
  0
VERTEX
  5
73
330
6F
100
AcDbEntity
  8
001
370
     9
100
AcDbVertex
100
AcDb2dVertex
 10
54.376711
 20
70.00891
 30
0.0
  0
SEQEND
  5
70
330
6F
100
AcDbEntity
  8
001
370
     9
  0
TEXT
  5
74
330
64
100
AcDbEntity
  8
001
370
    30
100
AcDbText
 10
40.376711
 20
71.410834
 30
0.0
 40
4.0
  1
１．９
 41
0.833333
100
AcDbText
  0
POINT
  5
75
330
64
100
AcDbEntity
  8
001
370
     9
100
AcDbPoint
 10
57.776712
 20
90.783169
 30
0.0
  0
POINT
  5
76
330
64
100
AcDbEntity
  8
001
370
     9
100
AcDbPoint
 10
55.876711
 20
98.383169
 30
0.0
  0
POINT
  5
77
330
64
100
AcDbEntity
  8
001
370
     9
100
AcDbPoint
 10
55.876711
 20
70.410834
 30
0.0
  0
LINE
  5
78
330
64
100
AcDbEntity
  8
001
370
     9
100
AcDbLine
 10
57.776712
 20
70.410834
 30
0.0
 11
60.276712
 21
70.410834
 31
0.0
  0
LINE
  5
79
330
64
100
AcDbEntity
  8
001
370
     9
100
AcDbLine
 10
55.876711
 20
70.410834
 30
0.0
 11
37.376711
 21
70.410834
 31
0.0
  0
ENDBLK
  5
66
330
64
100
AcDbEntity
  8
0
100
AcDbBlockEnd
  0
BLOCK
  5
7B
330
7A
100
AcDbEntity
  8
0
100
AcDbBlockBegin
  2
*D2
 70
     1
 10
0.0
 20
0.0
 30
0.0
  3
*D2
  1

  0
LINE
  5
7D
330
7A
100
AcDbEntity
  8
001
370
     9
100
AcDbLine
 10
57.776712
 20
96.483169
 30
0.0
 11
92.456638
 21
61.803242
 31
0.0
  0
ARC
  5
7E
330
7A
100
AcDbEntity
  8
001
370
     9
100
AcDbCircle
 10
40.276711
 20
113.983169
 30
0.0
 40
71.04356023511683
100
AcDbArc
 50
315.0
 51
0.0
  0
POLYLINE
  5
7F
330
7A
100
AcDbEntity
  8
001
370
     9
100
AcDb2dPolyline
 66
     1
 10
0.0
 20
0.0
 30
0.0
  0
VERTEX
  5
81
330
7F
100
AcDbEntity
  8
001
370
     9
100
AcDbVertex
100
AcDb2dVertex
 10
110.902535
 20
112.487496
 30
0.0
  0
VERTEX
  5
82
330
7F
100
AcDbEntity
  8
001
370
     9
100
AcDbVertex
100
AcDb2dVertex
 10
111.320272
 20
113.983169
 30
0.0
  0
VERTEX
  5
83
330
7F
100
AcDbEntity
  8
001
370
     9
100
AcDbVertex
100
AcDb2dVertex
 10
111.706338
 20
112.47901
 30
0.0
  0
SEQEND
  5
80
330
7F
100
AcDbEntity
  8
001
370
     9
  0
POLYLINE
  5
84
330
7A
100
AcDbEntity
  8
001
370
     9
100
AcDb2dPolyline
 66
     1
 10
0.0
 20
0.0
 30
0.0
  0
VERTEX
  5
86
330
84
100
AcDbEntity
  8
001
370
     9
100
AcDbVertex
100
AcDb2dVertex
 10
91.848686
 20
64.538397
 30
0.0
  0
VERTEX
  5
87
330
84
100
AcDbEntity
  8
001
370
     9
100
AcDbVertex
100
AcDb2dVertex
 10
90.512095
 20
63.747786
 30
0.0
  0
VERTEX
  5
88
330
84
100
AcDbEntity
  8
001
370
     9
100
AcDbVertex
100
AcDb2dVertex
 10
91.274311
 20
65.100771
 30
0.0
  0
SEQEND
  5
85
330
84
100
AcDbEntity
  8
001
370
     9
  0
TEXT
  5
89
330
7A
100
AcDbEntity
  8
001
370
    30
100
AcDbText
 10
102.692423
 20
81.635382
 30
0.0
 40
4.0
  1
４５%%d
 50
67.5
 41
0.978261
100
AcDbText
  0
POINT
  5
8A
330
7A
100
AcDbEntity
  8
001
370
     9
100
AcDbPoint
 10
57.776712
 20
96.483169
 30
0.0
  0
POINT
  5
8B
330
7A
100
AcDbEntity
  8
001
370
     9
100
AcDbPoint
 10
40.276711
 20
113.983169
 30
0.0
  0
POINT
  5
8C
330
7A
100
AcDbEntity
  8
001
370
     9
100
AcDbPoint
 10
40.276711
 20
113.983169
 30
0.0
  0
POINT
  5
8D
330
7A
100
AcDbEntity
  8
001
370
     9
100
AcDbPoint
 10
54.265914
 20
113.983169
 30
0.0
  0
ENDBLK
  5
7C
330
7A
100
AcDbEntity
  8
0
100
AcDbBlockEnd
  0
BLOCK
  5
8F
330
8E
100
AcDbEntity
  8
0
100
AcDbBlockBegin
  2
*D3
 70
     1
 10
0.0
 20
0.0
 30
0.0
  3
*D3
  1

  0
LINE
  5
91
330
8E
100
AcDbEntity
  8
001
370
     9
100
AcDbLine
 10
231.876711
 20
105.983169
 30
0.0
 11
231.876711
 21
33.403056
 31
0.0
  0
LINE
  5
92
330
8E
100
AcDbEntity
  8
001
370
     9
100
AcDbLine
 10
55.876711
 20
98.383169
 30
0.0
 11
55.876711
 21
33.403056
 31
0.0
  0
LINE
  5
93
330
8E
100
AcDbEntity
  8
001
370
     9
100
AcDbLine
 10
231.876711
 20
36.153056
 30
0.0
 11
55.876711
 21
36.153056
 31
0.0
  0
POLYLINE
  5
94
330
8E
100
AcDbEntity
  8
001
370
     9
100
AcDb2dPolyline
 66
     1
 10
0.0
 20
0.0
 30
0.0
  0
VERTEX
  5
96
330
94
100
AcDbEntity
  8
001
370
     9
100
AcDbVertex
100
AcDb2dVertex
 10
230.376711
 20
36.55498
 30
0.0
  0
VERTEX
  5
97
330
94
100
AcDbEntity
  8
001
370
     9
100
AcDbVertex
100
AcDb2dVertex
 10
231.876711
 20
36.153056
 30
0.0
  0
VERTEX
  5
98
330
94
100
AcDbEntity
  8
001
370
     9
100
AcDbVertex
100
AcDb2dVertex
 10
230.376711
 20
35.751132
 30
0.0
  0
SEQEND
  5
95
330
94
100
AcDbEntity
  8
001
370
     9
  0
POLYLINE
  5
99
330
8E
100
AcDbEntity
  8
001
370
     9
100
AcDb2dPolyline
 66
     1
 10
0.0
 20
0.0
 30
0.0
  0
VERTEX
  5
9B
330
99
100
AcDbEntity
  8
001
370
     9
100
AcDbVertex
100
AcDb2dVertex
 10
57.376711
 20
35.751132
 30
0.0
  0
VERTEX
  5
9C
330
99
100
AcDbEntity
  8
001
370
     9
100
AcDbVertex
100
AcDb2dVertex
 10
55.876711
 20
36.153056
 30
0.0
  0
VERTEX
  5
9D
330
99
100
AcDbEntity
  8
001
370
     9
100
AcDbVertex
100
AcDb2dVertex
 10
57.376711
 20
36.55498
 30
0.0
  0
SEQEND
  5
9A
330
99
100
AcDbEntity
  8
001
370
     9
  0
TEXT
  5
9E
330
8E
100
AcDbEntity
  8
001
370
    30
100
AcDbText
 10
137.876711
 20
37.153056
 30
0.0
 40
4.0
  1
１７６
 41
0.833333
100
AcDbText
  0
POINT
  5
9F
330
8E
100
AcDbEntity
  8
001
370
     9
100
AcDbPoint
 10
231.876711
 20
105.983169
 30
0.0
  0
POINT
  5
A0
330
8E
100
AcDbEntity
  8
001
370
     9
100
AcDbPoint
 10
55.876711
 20
98.383169
 30
0.0
  0
POINT
  5
A1
330
8E
100
AcDbEntity
  8
001
370
     9
100
AcDbPoint
 10
55.876711
 20
36.153056
 30
0.0
  0
ENDBLK
  5
90
330
8E
100
AcDbEntity
  8
0
100
AcDbBlockEnd
  0
BLOCK
  5
A3
330
A2
100
AcDbEntity
  8
0
100
AcDbBlockBegin
  2
*D4
 70
     1
 10
0.0
 20
0.0
 30
0.0
  3
*D4
  1

  0
LINE
  5
A5
330
A2
100
AcDbEntity
  8
001
370
     9
100
AcDbLine
 10
151.876711
 20
94.483169
 30
0.0
 11
151.876711
 21
50.593305
 31
0.0
  0
LINE
  5
A6
330
A2
100
AcDbEntity
  8
001
370
     9
100
AcDbLine
 10
55.876711
 20
98.383169
 30
0.0
 11
55.876711
 21
50.593305
 31
0.0
  0
LINE
  5
A7
330
A2
100
AcDbEntity
  8
001
370
     9
100
AcDbLine
 10
151.876711
 20
53.343305
 30
0.0
 11
55.876711
 21
53.343305
 31
0.0
  0
POLYLINE
  5
A8
330
A2
100
AcDbEntity
  8
001
370
     9
100
AcDb2dPolyline
 66
     1
 10
0.0
 20
0.0
 30
0.0
  0
VERTEX
  5
AA
330
A8
100
AcDbEntity
  8
001
370
     9
100
AcDbVertex
100
AcDb2dVertex
 10
150.376711
 20
53.745229
 30
0.0
  0
VERTEX
  5
AB
330
A8
100
AcDbEntity
  8
001
370
     9
100
AcDbVertex
100
AcDb2dVertex
 10
151.876711
 20
53.343305
 30
0.0
  0
VERTEX
  5
AC
330
A8
100
AcDbEntity
  8
001
370
     9
100
AcDbVertex
100
AcDb2dVertex
 10
150.376711
 20
52.941381
 30
0.0
  0
SEQEND
  5
A9
330
A8
100
AcDbEntity
  8
001
370
     9
  0
POLYLINE
  5
AD
330
A2
100
AcDbEntity
  8
001
370
     9
100
AcDb2dPolyline
 66
     1
 10
0.0
 20
0.0
 30
0.0
  0
VERTEX
  5
AF
330
AD
100
AcDbEntity
  8
001
370
     9
100
AcDbVertex
100
AcDb2dVertex
 10
57.376711
 20
52.941381
 30
0.0
  0
VERTEX
  5
B0
330
AD
100
AcDbEntity
  8
001
370
     9
100
AcDbVertex
100
AcDb2dVertex
 10
55.876711
 20
53.343305
 30
0.0
  0
VERTEX
  5
B1
330
AD
100
AcDbEntity
  8
001
370
     9
100
AcDbVertex
100
AcDb2dVertex
 10
57.376711
 20
53.745229
 30
0.0
  0
SEQEND
  5
AE
330
AD
100
AcDbEntity
  8
001
370
     9
  0
TEXT
  5
B2
330
A2
100
AcDbEntity
  8
001
370
    30
100
AcDbText
 10
99.876711
 20
54.343305
 30
0.0
 40
4.0
  1
９６
 41
0.833333
100
AcDbText
  0
POINT
  5
B3
330
A2
100
AcDbEntity
  8
001
370
     9
100
AcDbPoint
 10
151.876711
 20
94.483169
 30
0.0
  0
POINT
  5
B4
330
A2
100
AcDbEntity
  8
001
370
     9
100
AcDbPoint
 10
55.876711
 20
98.383169
 30
0.0
  0
POINT
  5
B5
330
A2
100
AcDbEntity
  8
001
370
     9
100
AcDbPoint
 10
55.876711
 20
53.343305
 30
0.0
  0
ENDBLK
  5
A4
330
A2
100
AcDbEntity
  8
0
100
AcDbBlockEnd
  0
BLOCK
  5
B7
330
B6
100
AcDbEntity
  8
0
100
AcDbBlockBegin
  2
*D5
 70
     1
 10
0.0
 20
0.0
 30
0.0
  3
*D5
  1

  0
LINE
  5
B9
330
B6
100
AcDbEntity
  8
001
370
     9
100
AcDbLine
 10
231.876711
 20
105.983169
 30
0.0
 11
231.876711
 21
50.593305
 31
0.0
  0
LINE
  5
BA
330
B6
100
AcDbEntity
  8
001
370
     9
100
AcDbLine
 10
151.876711
 20
94.483169
 30
0.0
 11
151.876711
 21
50.593305
 31
0.0
  0
LINE
  5
BB
330
B6
100
AcDbEntity
  8
001
370
     9
100
AcDbLine
 10
231.876711
 20
53.343305
 30
0.0
 11
151.876711
 21
53.343305
 31
0.0
  0
POLYLINE
  5
BC
330
B6
100
AcDbEntity
  8
001
370
     9
100
AcDb2dPolyline
 66
     1
 10
0.0
 20
0.0
 30
0.0
  0
VERTEX
  5
BE
330
BC
100
AcDbEntity
  8
001
370
     9
100
AcDbVertex
100
AcDb2dVertex
 10
230.376711
 20
53.745229
 30
0.0
  0
VERTEX
  5
BF
330
BC
100
AcDbEntity
  8
001
370
     9
100
AcDbVertex
100
AcDb2dVertex
 10
231.876711
 20
53.343305
 30
0.0
  0
VERTEX
  5
C0
330
BC
100
AcDbEntity
  8
001
370
     9
100
AcDbVertex
100
AcDb2dVertex
 10
230.376711
 20
52.941381
 30
0.0
  0
SEQEND
  5
BD
330
BC
100
AcDbEntity
  8
001
370
     9
  0
POLYLINE
  5
C1
330
B6
100
AcDbEntity
  8
001
370
     9
100
AcDb2dPolyline
 66
     1
 10
0.0
 20
0.0
 30
0.0
  0
VERTEX
  5
C3
330
C1
100
AcDbEntity
  8
001
370
     9
100
AcDbVertex
100
AcDb2dVertex
 10
153.376711
 20
52.941381
 30
0.0
  0
VERTEX
  5
C4
330
C1
100
AcDbEntity
  8
001
370
     9
100
AcDbVertex
100
AcDb2dVertex
 10
151.876711
 20
53.343305
 30
0.0
  0
VERTEX
  5
C5
330
C1
100
AcDbEntity
  8
001
370
     9
100
AcDbVertex
100
AcDb2dVertex
 10
153.376711
 20
53.745229
 30
0.0
  0
SEQEND
  5
C2
330
C1
100
AcDbEntity
  8
001
370
     9
  0
TEXT
  5
C6
330
B6
100
AcDbEntity
  8
001
370
    30
100
AcDbText
 10
187.876711
 20
54.343305
 30
0.0
 40
4.0
  1
８０
 41
0.833333
100
AcDbText
  0
POINT
  5
C7
330
B6
100
AcDbEntity
  8
001
370
     9
100
AcDbPoint
 10
231.876711
 20
105.983169
 30
0.0
  0
POINT
  5
C8
330
B6
100
AcDbEntity
  8
001
370
     9
100
AcDbPoint
 10
151.876711
 20
94.483169
 30
0.0
  0
POINT
  5
C9
330
B6
100
AcDbEntity
  8
001
370
     9
100
AcDbPoint
 10
151.876711
 20
53.343305
 30
0.0
  0
ENDBLK
  5
B8
330
B6
100
AcDbEntity
  8
0
100
AcDbBlockEnd
  0
BLOCK
  5
CB
330
CA
100
AcDbEntity
  8
0
100
AcDbBlockBegin
  2
*D6
 70
     1
 10
0.0
 20
0.0
 30
0.0
  3
*D6
  1

  0
LINE
  5
CD
330
CA
100
AcDbEntity
  8
001
370
     9
100
AcDbLine
 10
223.876711
 20
129.983169
 30
0.0
 11
261.375908
 21
129.983169
 31
0.0
  0
LINE
  5
CE
330
CA
100
AcDbEntity
  8
001
370
     9
100
AcDbLine
 10
223.876711
 20
97.983169
 30
0.0
 11
261.375908
 21
97.983169
 31
0.0
  0
LINE
  5
CF
330
CA
100
AcDbEntity
  8
001
370
     9
100
AcDbLine
 10
258.625908
 20
129.983169
 30
0.0
 11
258.625908
 21
97.983169
 31
0.0
  0
POLYLINE
  5
D0
330
CA
100
AcDbEntity
  8
001
370
     9
100
AcDb2dPolyline
 66
     1
 10
0.0
 20
0.0
 30
0.0
  0
VERTEX
  5
D2
330
D0
100
AcDbEntity
  8
001
370
     9
100
AcDbVertex
100
AcDb2dVertex
 10
258.223984
 20
128.483169
 30
0.0
  0
VERTEX
  5
D3
330
D0
100
AcDbEntity
  8
001
370
     9
100
AcDbVertex
100
AcDb2dVertex
 10
258.625908
 20
129.983169
 30
0.0
  0
VERTEX
  5
D4
330
D0
100
AcDbEntity
  8
001
370
     9
100
AcDbVertex
100
AcDb2dVertex
 10
259.027832
 20
128.483169
 30
0.0
  0
SEQEND
  5
D1
330
D0
100
AcDbEntity
  8
001
370
     9
  0
POLYLINE
  5
D5
330
CA
100
AcDbEntity
  8
001
370
     9
100
AcDb2dPolyline
 66
     1
 10
0.0
 20
0.0
 30
0.0
  0
VERTEX
  5
D7
330
D5
100
AcDbEntity
  8
001
370
     9
100
AcDbVertex
100
AcDb2dVertex
 10
259.027832
 20
99.483169
 30
0.0
  0
VERTEX
  5
D8
330
D5
100
AcDbEntity
  8
001
370
     9
100
AcDbVertex
100
AcDb2dVertex
 10
258.625908
 20
97.983169
 30
0.0
  0
VERTEX
  5
D9
330
D5
100
AcDbEntity
  8
001
370
     9
100
AcDbVertex
100
AcDb2dVertex
 10
258.223984
 20
99.483169
 30
0.0
  0
SEQEND
  5
D6
330
D5
100
AcDbEntity
  8
001
370
     9
  0
TEXT
  5
DA
330
CA
100
AcDbEntity
  8
001
370
    30
100
AcDbText
 10
257.625908
 20
107.983169
 30
0.0
 40
4.0
  1
%%c３２
 50
90.000003
 41
0.882353
100
AcDbText
  0
POINT
  5
DB
330
CA
100
AcDbEntity
  8
001
370
     9
100
AcDbPoint
 10
223.876711
 20
129.983169
 30
0.0
  0
POINT
  5
DC
330
CA
100
AcDbEntity
  8
001
370
     9
100
AcDbPoint
 10
223.876711
 20
97.983169
 30
0.0
  0
POINT
  5
DD
330
CA
100
AcDbEntity
  8
001
370
     9
100
AcDbPoint
 10
258.625908
 20
97.983169
 30
0.0
  0
ENDBLK
  5
CC
330
CA
100
AcDbEntity
  8
0
100
AcDbBlockEnd
  0
ENDSEC
  0
SECTION
  2
ENTITIES
  0
TEXT
  5
DE
330
1F
100
AcDbEntity
  8
001
370
    30
100
AcDbText
 10
23.540927
 20
103.983169
 30
0.0
 40
4.0
  1
%%c３１．２
 50
90.000003
 41
0.862069
100
AcDbText
  0
POLYLINE
  5
DF
330
1F
100
AcDbEntity
  8
001
370
     9
100
AcDb2dPolyline
 66
     1
 10
0.0
 20
0.0
 30
0.0
  0
VERTEX
  5
E1
330
DF
100
AcDbEntity
  8
001
370
     9
100
AcDbVertex
100
AcDb2dVertex
 10
24.942851
 20
99.883169
 30
0.0
  0
VERTEX
  5
E2
330
DF
100
AcDbEntity
  8
001
370
     9
100
AcDbVertex
100
AcDb2dVertex
 10
24.540927
 20
98.383169
 30
0.0
  0
VERTEX
  5
E3
330
DF
100
AcDbEntity
  8
001
370
     9
100
AcDbVertex
100
AcDb2dVertex
 10
24.139004
 20
99.883169
 30
0.0
  0
SEQEND
  5
E0
330
DF
100
AcDbEntity
  8
001
370
     9
  0
LINE
  5
E4
330
1F
100
AcDbEntity
  8
001
370
     9
100
AcDbLine
 10
24.540927
 20
98.383169
 30
0.0
 11
24.540927
 21
129.583169
 31
0.0
  0
POLYLINE
  5
E5
330
1F
100
AcDbEntity
  8
001
370
     9
100
AcDb2dPolyline
 66
     1
 10
0.0
 20
0.0
 30
0.0
  0
VERTEX
  5
E7
330
E5
100
AcDbEntity
  8
001
370
     9
100
AcDbVertex
100
AcDb2dVertex
 10
55.876711
 20
98.383169
 30
0.0
  0
VERTEX
  5
E8
330
E5
100
AcDbEntity
  8
001
370
     9
100
AcDbVertex
100
AcDb2dVertex
 10
24.540927
 20
98.383169
 30
0.0
  0
VERTEX
  5
E9
330
E5
100
AcDbEntity
  8
001
370
     9
100
AcDbVertex
100
AcDb2dVertex
 10
21.790927
 20
98.383169
 30
0.0
  0
SEQEND
  5
E6
330
E5
100
AcDbEntity
  8
001
370
     9
  0
TEXT
  5
EA
330
1F
100
AcDbEntity
  8
001
370
    30
100
AcDbText
 10
8.152292
 20
107.983169
 30
0.0
 40
4.0
  1
%%c４８
 50
90.000003
 41
0.882353
100
AcDbText
  0
POLYLINE
  5
EB
330
1F
100
AcDbEntity
  8
001
370
     9
100
AcDb2dPolyline
 66
     1
 10
0.0
 20
0.0
 30
0.0
  0
VERTEX
  5
ED
330
EB
100
AcDbEntity
  8
001
370
     9
100
AcDbVertex
100
AcDb2dVertex
 10
9.554216
 20
91.483169
 30
0.0
  0
VERTEX
  5
EE
330
EB
100
AcDbEntity
  8
001
370
     9
100
AcDbVertex
100
AcDb2dVertex
 10
9.152292
 20
89.983169
 30
0.0
  0
VERTEX
  5
EF
330
EB
100
AcDbEntity
  8
001
370
     9
100
AcDbVertex
100
AcDb2dVertex
 10
8.750368
 20
91.483169
 30
0.0
  0
SEQEND
  5
EC
330
EB
100
AcDbEntity
  8
001
370
     9
  0
LINE
  5
F0
330
1F
100
AcDbEntity
  8
001
370
     9
100
AcDbLine
 10
9.152292
 20
89.983169
 30
0.0
 11
9.152292
 21
137.983169
 31
0.0
  0
POLYLINE
  5
F1
330
1F
100
AcDbEntity
  8
001
370
     9
100
AcDb2dPolyline
 66
     1
 10
0.0
 20
0.0
 30
0.0
  0
VERTEX
  5
F3
330
F1
100
AcDbEntity
  8
001
370
     9
100
AcDbVertex
100
AcDb2dVertex
 10
58.576712
 20
89.983169
 30
0.0
  0
VERTEX
  5
F4
330
F1
100
AcDbEntity
  8
001
370
     9
100
AcDbVertex
100
AcDb2dVertex
 10
9.152292
 20
89.983169
 30
0.0
  0
VERTEX
  5
F5
330
F1
100
AcDbEntity
  8
001
370
     9
100
AcDbVertex
100
AcDb2dVertex
 10
6.402292
 20
89.983169
 30
0.0
  0
SEQEND
  5
F2
330
F1
100
AcDbEntity
  8
001
370
     9
  0
DIMENSION
  5
F6
330
1F
100
AcDbEntity
  8
001
370
     9
100
AcDbDimension
  2
*D1
 10
55.876711
 20
70.410834
 30
0.0
 11
46.376711
 21
73.410834
 31
0.0
 70
   160
 71
     5
 42
-1.0
  3
Standard
100
AcDbAlignedDimension
 13
57.776712
 23
90.783169
 33
0.0
 14
55.876711
 24
98.383169
 34
0.0
 50
180.0
100
AcDbRotatedDimension
  0
DIMENSION
  5
F7
330
1F
100
AcDbEntity
  8
001
370
     9
100
AcDbDimension
  2
*D2
 10
40.276711
 20
113.983169
 30
0.0
 11
103.140764
 21
87.944026
 31
0.0
 70
    34
 71
     5
 42
-1.0
  3
Standard
100
AcDb2LineAngularDimension
 13
57.776712
 23
96.483169
 33
0.0
 14
40.276711
 24
113.983169
 34
0.0
 15
54.265914
 25
113.983169
 35
0.0
 16
105.912403
 26
86.795975
 36
0.0
  0
DIMENSION
  5
F8
330
1F
100
AcDbEntity
  8
001
370
     9
100
AcDbDimension
  2
*D3
 10
55.876711
 20
36.153056
 30
0.0
 11
143.876711
 21
39.153056
 31
0.0
 70
   160
 71
     5
 42
-1.0
  3
Standard
100
AcDbAlignedDimension
 13
231.876711
 23
105.983169
 33
0.0
 14
55.876711
 24
98.383169
 34
0.0
 50
180.0
100
AcDbRotatedDimension
  0
DIMENSION
  5
F9
330
1F
100
AcDbEntity
  8
001
370
     9
100
AcDbDimension
  2
*D4
 10
55.876711
 20
53.343305
 30
0.0
 11
103.876711
 21
56.343305
 31
0.0
 70
   160
 71
     5
 42
-1.0
  3
Standard
100
AcDbAlignedDimension
 13
151.876711
 23
94.483169
 33
0.0
 14
55.876711
 24
98.383169
 34
0.0
 50
180.0
100
AcDbRotatedDimension
  0
DIMENSION
  5
FA
330
1F
100
AcDbEntity
  8
001
370
     9
100
AcDbDimension
  2
*D5
 10
151.876711
 20
53.343305
 30
0.0
 11
191.876711
 21
56.343305
 31
0.0
 70
   160
 71
     5
 42
-1.0
  3
Standard
100
AcDbAlignedDimension
 13
231.876711
 23
105.983169
 33
0.0
 14
151.876711
 24
94.483169
 34
0.0
 50
180.0
100
AcDbRotatedDimension
  0
DIMENSION
  5
FB
330
1F
100
AcDbEntity
  8
001
370
     9
100
AcDbDimension
  2
*D6
 10
258.625908
 20
97.983169
 30
0.0
 11
255.625908
 21
113.983169
 31
0.0
 70
   160
 71
     5
 42
-1.0
  3
Standard
100
AcDbAlignedDimension
 13
223.876711
 23
129.983169
 33
0.0
 14
223.876711
 24
97.983169
 34
0.0
 50
270.0
100
AcDbRotatedDimension
  0
TEXT
  5
FC
330
1F
100
AcDbEntity
  8
001
370
    30
100
AcDbText
 10
25.797367
 20
156.403017
 30
0.0
 40
10.0
  1
バーディーカット　ＢＣ３２－４８ＸＳ－Ｍ３０
 41
0.833333
100
AcDbText
  0
POLYLINE
  5
FD
330
1F
100
AcDbEntity
  8
001
370
    50
100
AcDb2dPolyline
 66
     1
 10
0.0
 20
0.0
 30
0.0
  0
VERTEX
  5
FF
330
FD
100
AcDbEntity
  8
001
370
    50
100
AcDbVertex
100
AcDb2dVertex
 10
63.693623
 20
101.854363
 30
0.0
  0
VERTEX
  5
100
330
FD
100
AcDbEntity
  8
001
370
    50
100
AcDbVertex
100
AcDb2dVertex
 10
63.422876
 20
101.840079
 30
0.0
  0
VERTEX
  5
101
330
FD
100
AcDbEntity
  8
001
370
    50
100
AcDbVertex
100
AcDb2dVertex
 10
63.052335
 20
101.797392
 30
0.0
  0
VERTEX
  5
102
330
FD
100
AcDbEntity
  8
001
370
    50
100
AcDbVertex
100
AcDb2dVertex
 10
62.723966
 20
101.726552
 30
0.0
  0
VERTEX
  5
103
330
FD
100
AcDbEntity
  8
001
370
    50
100
AcDbVertex
100
AcDb2dVertex
 10
62.430533
 20
101.628211
 30
0.0
  0
VERTEX
  5
104
330
FD
100
AcDbEntity
  8
001
370
    50
100
AcDbVertex
100
AcDb2dVertex
 10
62.136424
 20
101.502919
 30
0.0
  0
VERTEX
  5
105
330
FD
100
AcDbEntity
  8
001
370
    50
100
AcDbVertex
100
AcDb2dVertex
 10
61.847108
 20
101.351959
 30
0.0
  0
VERTEX
  5
106
330
FD
100
AcDbEntity
  8
001
370
    50
100
AcDbVertex
100
AcDb2dVertex
 10
61.574236
 20
101.176128
 30
0.0
  0
VERTEX
  5
107
330
FD
100
AcDbEntity
  8
001
370
    50
100
AcDbVertex
100
AcDb2dVertex
 10
61.31979
 20
100.97703
 30
0.0
  0
VERTEX
  5
108
330
FD
100
AcDbEntity
  8
001
370
    50
100
AcDbVertex
100
AcDb2dVertex
 10
61.082379
 20
100.755589
 30
0.0
  0
VERTEX
  5
109
330
FD
100
AcDbEntity
  8
001
370
    50
100
AcDbVertex
100
AcDb2dVertex
 10
60.864599
 20
100.514817
 30
0.0
  0
VERTEX
  5
10A
330
FD
100
AcDbEntity
  8
001
370
    50
100
AcDbVertex
100
AcDb2dVertex
 10
60.668291
 20
100.256095
 30
0.0
  0
VERTEX
  5
10B
330
FD
100
AcDbEntity
  8
001
370
    50
100
AcDbVertex
100
AcDb2dVertex
 10
60.495366
 20
99.979363
 30
0.0
  0
VERTEX
  5
10C
330
FD
100
AcDbEntity
  8
001
370
    50
100
AcDbVertex
100
AcDb2dVertex
 10
60.34656
 20
99.685316
 30
0.0
  0
VERTEX
  5
10D
330
FD
100
AcDbEntity
  8
001
370
    50
100
AcDbVertex
100
AcDb2dVertex
 10
60.223311
 20
99.386939
 30
0.0
  0
VERTEX
  5
10E
330
FD
100
AcDbEntity
  8
001
370
    50
100
AcDbVertex
100
AcDb2dVertex
 10
60.126406
 20
99.08872
 30
0.0
  0
VERTEX
  5
10F
330
FD
100
AcDbEntity
  8
001
370
    50
100
AcDbVertex
100
AcDb2dVertex
 10
60.056699
 20
98.755544
 30
0.0
  0
VERTEX
  5
110
330
FD
100
AcDbEntity
  8
001
370
    50
100
AcDbVertex
100
AcDb2dVertex
 10
60.014653
 20
98.379242
 30
0.0
  0
VERTEX
  5
111
330
FD
100
AcDbEntity
  8
001
370
    50
100
AcDbVertex
100
AcDb2dVertex
 10
60.000594
 20
98.104363
 30
0.0
  0
SEQEND
  5
FE
330
FD
100
AcDbEntity
  8
001
370
    50
  0
POLYLINE
  5
112
330
1F
100
AcDbEntity
  8
001
370
    50
100
AcDb2dPolyline
 66
     1
 10
0.0
 20
0.0
 30
0.0
  0
VERTEX
  5
114
330
112
100
AcDbEntity
  8
001
370
    50
100
AcDbVertex
100
AcDb2dVertex
 10
56.658649
 20
104.112552
 30
0.0
  0
VERTEX
  5
115
330
112
100
AcDbEntity
  8
001
370
    50
100
AcDbVertex
100
AcDb2dVertex
 10
56.601323
 20
104.109528
 30
0.0
  0
VERTEX
  5
116
330
112
100
AcDbEntity
  8
001
370
    50
100
AcDbVertex
100
AcDb2dVertex
 10
56.522867
 20
104.10049
 30
0.0
  0
VERTEX
  5
117
330
112
100
AcDbEntity
  8
001
370
    50
100
AcDbVertex
100
AcDb2dVertex
 10
56.45334
 20
104.08549
 30
0.0
  0
VERTEX
  5
118
330
112
100
AcDbEntity
  8
001
370
    50
100
AcDbVertex
100
AcDb2dVertex
 10
56.39121
 20
104.064668
 30
0.0
  0
VERTEX
  5
119
330
112
100
AcDbEntity
  8
001
370
    50
100
AcDbVertex
100
AcDb2dVertex
 10
56.328938
 20
104.03814
 30
0.0
  0
VERTEX
  5
11A
330
112
100
AcDbEntity
  8
001
370
    50
100
AcDbVertex
100
AcDb2dVertex
 10
56.26768
 20
104.006176
 30
0.0
  0
VERTEX
  5
11B
330
112
100
AcDbEntity
  8
001
370
    50
100
AcDbVertex
100
AcDb2dVertex
 10
56.209904
 20
103.968947
 30
0.0
  0
VERTEX
  5
11C
330
112
100
AcDbEntity
  8
001
370
    50
100
AcDbVertex
100
AcDb2dVertex
 10
56.156029
 20
103.926792
 30
0.0
  0
VERTEX
  5
11D
330
112
100
AcDbEntity
  8
001
370
    50
100
AcDbVertex
100
AcDb2dVertex
 10
56.105761
 20
103.879905
 30
0.0
  0
VERTEX
  5
11E
330
112
100
AcDbEntity
  8
001
370
    50
100
AcDbVertex
100
AcDb2dVertex
 10
56.05965
 20
103.828926
 30
0.0
  0
VERTEX
  5
11F
330
112
100
AcDbEntity
  8
001
370
    50
100
AcDbVertex
100
AcDb2dVertex
 10
56.018085
 20
103.774145
 30
0.0
  0
VERTEX
  5
120
330
112
100
AcDbEntity
  8
001
370
    50
100
AcDbVertex
100
AcDb2dVertex
 10
55.981471
 20
103.715552
 30
0.0
  0
VERTEX
  5
121
330
112
100
AcDbEntity
  8
001
370
    50
100
AcDbVertex
100
AcDb2dVertex
 10
55.949964
 20
103.653293
 30
0.0
  0
VERTEX
  5
122
330
112
100
AcDbEntity
  8
001
370
    50
100
AcDbVertex
100
AcDb2dVertex
 10
55.923868
 20
103.590116
 30
0.0
  0
VERTEX
  5
123
330
112
100
AcDbEntity
  8
001
370
    50
100
AcDbVertex
100
AcDb2dVertex
 10
55.90335
 20
103.526973
 30
0.0
  0
VERTEX
  5
124
330
112
100
AcDbEntity
  8
001
370
    50
100
AcDbVertex
100
AcDb2dVertex
 10
55.888591
 20
103.456429
 30
0.0
  0
VERTEX
  5
125
330
112
100
AcDbEntity
  8
001
370
    50
100
AcDbVertex
100
AcDb2dVertex
 10
55.879688
 20
103.376753
 30
0.0
  0
VERTEX
  5
126
330
112
100
AcDbEntity
  8
001
370
    50
100
AcDbVertex
100
AcDb2dVertex
 10
55.876711
 20
103.318552
 30
0.0
  0
SEQEND
  5
113
330
112
100
AcDbEntity
  8
001
370
    50
  0
LINE
  5
127
330
1F
100
AcDbEntity
  8
001
370
    50
100
AcDbLine
 10
62.297721
 20
104.112552
 30
0.0
 11
56.658649
 21
104.112552
 31
0.0
  0
LINE
  5
128
330
1F
100
AcDbEntity
  8
001
370
    50
100
AcDbLine
 10
64.254948
 20
106.041863
 30
0.0
 11
62.297721
 21
104.112552
 31
0.0
  0
LINE
  5
129
330
1F
100
AcDbEntity
  8
001
370
    50
100
AcDbLine
 10
68.828597
 20
106.041863
 30
0.0
 11
64.254948
 21
106.041863
 31
0.0
  0
POLYLINE
  5
12A
330
1F
100
AcDbEntity
  8
001
370
    50
100
AcDb2dPolyline
 66
     1
 10
0.0
 20
0.0
 30
0.0
  0
VERTEX
  5
12C
330
12A
100
AcDbEntity
  8
001
370
    50
100
AcDbVertex
100
AcDb2dVertex
 10
69.610534
 20
105.247863
 30
0.0
  0
VERTEX
  5
12D
330
12A
100
AcDbEntity
  8
001
370
    50
100
AcDbVertex
100
AcDb2dVertex
 10
69.607557
 20
105.306064
 30
0.0
  0
VERTEX
  5
12E
330
12A
100
AcDbEntity
  8
001
370
    50
100
AcDbVertex
100
AcDb2dVertex
 10
69.598655
 20
105.38574
 30
0.0
  0
VERTEX
  5
12F
330
12A
100
AcDbEntity
  8
001
370
    50
100
AcDbVertex
100
AcDb2dVertex
 10
69.583895
 20
105.456284
 30
0.0
  0
VERTEX
  5
130
330
12A
100
AcDbEntity
  8
001
370
    50
100
AcDbVertex
100
AcDb2dVertex
 10
69.563378
 20
105.519427
 30
0.0
  0
VERTEX
  5
131
330
12A
100
AcDbEntity
  8
001
370
    50
100
AcDbVertex
100
AcDb2dVertex
 10
69.537282
 20
105.582604
 30
0.0
  0
VERTEX
  5
132
330
12A
100
AcDbEntity
  8
001
370
    50
100
AcDbVertex
100
AcDb2dVertex
 10
69.505774
 20
105.644863
 30
0.0
  0
VERTEX
  5
133
330
12A
100
AcDbEntity
  8
001
370
    50
100
AcDbVertex
100
AcDb2dVertex
 10
69.46916
 20
105.703457
 30
0.0
  0
VERTEX
  5
134
330
12A
100
AcDbEntity
  8
001
370
    50
100
AcDbVertex
100
AcDb2dVertex
 10
69.427595
 20
105.758237
 30
0.0
  0
VERTEX
  5
135
330
12A
100
AcDbEntity
  8
001
370
    50
100
AcDbVertex
100
AcDb2dVertex
 10
69.381484
 20
105.809216
 30
0.0
  0
VERTEX
  5
136
330
12A
100
AcDbEntity
  8
001
370
    50
100
AcDbVertex
100
AcDb2dVertex
 10
69.331216
 20
105.856103
 30
0.0
  0
VERTEX
  5
137
330
12A
100
AcDbEntity
  8
001
370
    50
100
AcDbVertex
100
AcDb2dVertex
 10
69.277341
 20
105.898258
 30
0.0
  0
VERTEX
  5
138
330
12A
100
AcDbEntity
  8
001
370
    50
100
AcDbVertex
100
AcDb2dVertex
 10
69.219565
 20
105.935487
 30
0.0
  0
VERTEX
  5
139
330
12A
100
AcDbEntity
  8
001
370
    50
100
AcDbVertex
100
AcDb2dVertex
 10
69.158308
 20
105.967451
 30
0.0
  0
VERTEX
  5
13A
330
12A
100
AcDbEntity
  8
001
370
    50
100
AcDbVertex
100
AcDb2dVertex
 10
69.096035
 20
105.993979
 30
0.0
  0
VERTEX
  5
13B
330
12A
100
AcDbEntity
  8
001
370
    50
100
AcDbVertex
100
AcDb2dVertex
 10
69.033905
 20
106.014801
 30
0.0
  0
VERTEX
  5
13C
330
12A
100
AcDbEntity
  8
001
370
    50
100
AcDbVertex
100
AcDb2dVertex
 10
68.964379
 20
106.029801
 30
0.0
  0
VERTEX
  5
13D
330
12A
100
AcDbEntity
  8
001
370
    50
100
AcDbVertex
100
AcDb2dVertex
 10
68.885923
 20
106.038839
 30
0.0
  0
VERTEX
  5
13E
330
12A
100
AcDbEntity
  8
001
370
    50
100
AcDbVertex
100
AcDb2dVertex
 10
68.828597
 20
106.041863
 30
0.0
  0
SEQEND
  5
12B
330
12A
100
AcDbEntity
  8
001
370
    50
  0
LINE
  5
13F
330
1F
100
AcDbEntity
  8
001
370
    50
100
AcDbLine
 10
69.610534
 20
99.5218
 30
0.0
 11
69.610534
 21
105.247863
 31
0.0
  0
LINE
  5
140
330
1F
100
AcDbEntity
  8
001
370
    50
100
AcDbLine
 10
71.510535
 20
97.534379
 30
0.0
 11
69.610534
 21
99.5218
 31
0.0
  0
LINE
  5
141
330
1F
100
AcDbEntity
  8
001
370
    50
100
AcDbLine
 10
71.510535
 20
92.890174
 30
0.0
 11
71.510535
 21
97.534379
 31
0.0
  0
POLYLINE
  5
142
330
1F
100
AcDbEntity
  8
001
370
    50
100
AcDb2dPolyline
 66
     1
 10
0.0
 20
0.0
 30
0.0
  0
VERTEX
  5
144
330
142
100
AcDbEntity
  8
001
370
    50
100
AcDbVertex
100
AcDb2dVertex
 10
70.728597
 20
92.096174
 30
0.0
  0
VERTEX
  5
145
330
142
100
AcDbEntity
  8
001
370
    50
100
AcDbVertex
100
AcDb2dVertex
 10
70.785923
 20
92.099199
 30
0.0
  0
VERTEX
  5
146
330
142
100
AcDbEntity
  8
001
370
    50
100
AcDbVertex
100
AcDb2dVertex
 10
70.864379
 20
92.108237
 30
0.0
  0
VERTEX
  5
147
330
142
100
AcDbEntity
  8
001
370
    50
100
AcDbVertex
100
AcDb2dVertex
 10
70.933906
 20
92.123236
 30
0.0
  0
VERTEX
  5
148
330
142
100
AcDbEntity
  8
001
370
    50
100
AcDbVertex
100
AcDb2dVertex
 10
70.996036
 20
92.144058
 30
0.0
  0
VERTEX
  5
149
330
142
100
AcDbEntity
  8
001
370
    50
100
AcDbVertex
100
AcDb2dVertex
 10
71.058308
 20
92.170587
 30
0.0
  0
VERTEX
  5
14A
330
142
100
AcDbEntity
  8
001
370
    50
100
AcDbVertex
100
AcDb2dVertex
 10
71.119566
 20
92.20255
 30
0.0
  0
VERTEX
  5
14B
330
142
100
AcDbEntity
  8
001
370
    50
100
AcDbVertex
100
AcDb2dVertex
 10
71.177342
 20
92.239779
 30
0.0
  0
VERTEX
  5
14C
330
142
100
AcDbEntity
  8
001
370
    50
100
AcDbVertex
100
AcDb2dVertex
 10
71.231217
 20
92.281935
 30
0.0
  0
VERTEX
  5
14D
330
142
100
AcDbEntity
  8
001
370
    50
100
AcDbVertex
100
AcDb2dVertex
 10
71.281485
 20
92.328821
 30
0.0
  0
VERTEX
  5
14E
330
142
100
AcDbEntity
  8
001
370
    50
100
AcDbVertex
100
AcDb2dVertex
 10
71.327596
 20
92.379801
 30
0.0
  0
VERTEX
  5
14F
330
142
100
AcDbEntity
  8
001
370
    50
100
AcDbVertex
100
AcDb2dVertex
 10
71.369161
 20
92.434581
 30
0.0
  0
VERTEX
  5
150
330
142
100
AcDbEntity
  8
001
370
    50
100
AcDbVertex
100
AcDb2dVertex
 10
71.405775
 20
92.493174
 30
0.0
  0
VERTEX
  5
151
330
142
100
AcDbEntity
  8
001
370
    50
100
AcDbVertex
100
AcDb2dVertex
 10
71.437282
 20
92.555434
 30
0.0
  0
VERTEX
  5
152
330
142
100
AcDbEntity
  8
001
370
    50
100
AcDbVertex
100
AcDb2dVertex
 10
71.463378
 20
92.61861
 30
0.0
  0
VERTEX
  5
153
330
142
100
AcDbEntity
  8
001
370
    50
100
AcDbVertex
100
AcDb2dVertex
 10
71.483896
 20
92.681753
 30
0.0
  0
VERTEX
  5
154
330
142
100
AcDbEntity
  8
001
370
    50
100
AcDbVertex
100
AcDb2dVertex
 10
71.498655
 20
92.752298
 30
0.0
  0
VERTEX
  5
155
330
142
100
AcDbEntity
  8
001
370
    50
100
AcDbVertex
100
AcDb2dVertex
 10
71.507558
 20
92.831973
 30
0.0
  0
VERTEX
  5
156
330
142
100
AcDbEntity
  8
001
370
    50
100
AcDbVertex
100
AcDb2dVertex
 10
71.510535
 20
92.890174
 30
0.0
  0
SEQEND
  5
143
330
142
100
AcDbEntity
  8
001
370
    50
  0
LINE
  5
157
330
1F
100
AcDbEntity
  8
001
370
    50
100
AcDbLine
 10
65.089525
 20
92.096174
 30
0.0
 11
70.728597
 21
92.096174
 31
0.0
  0
LINE
  5
158
330
1F
100
AcDbEntity
  8
001
370
    50
100
AcDbLine
 10
62.945945
 20
89.983169
 30
0.0
 11
65.089525
 21
92.096174
 31
0.0
  0
LINE
  5
159
330
1F
100
AcDbEntity
  8
001
370
    50
100
AcDbLine
 10
62.945945
 20
89.983169
 30
0.0
 11
58.576712
 21
89.983169
 31
0.0
  0
LINE
  5
15A
330
1F
100
AcDbEntity
  8
001
370
    50
100
AcDbLine
 10
57.776712
 20
96.483169
 30
0.0
 11
57.776712
 21
90.783169
 31
0.0
  0
POLYLINE
  5
15B
330
1F
100
AcDbEntity
  8
001
370
    50
100
AcDb2dPolyline
 66
     1
 10
0.0
 20
0.0
 30
0.0
  0
VERTEX
  5
15D
330
15B
100
AcDbEntity
  8
001
370
    50
100
AcDbVertex
100
AcDb2dVertex
 10
60.000594
 20
98.104363
 30
0.0
  0
VERTEX
  5
15E
330
15B
100
AcDbEntity
  8
001
370
    50
100
AcDbVertex
100
AcDb2dVertex
 10
60.01838
 20
97.795275
 30
0.0
  0
VERTEX
  5
15F
330
15B
100
AcDbEntity
  8
001
370
    50
100
AcDbVertex
100
AcDb2dVertex
 10
60.071554
 20
97.372775
 30
0.0
  0
VERTEX
  5
160
330
15B
100
AcDbEntity
  8
001
370
    50
100
AcDbVertex
100
AcDb2dVertex
 10
60.159605
 20
97.000318
 30
0.0
  0
VERTEX
  5
161
330
15B
100
AcDbEntity
  8
001
370
    50
100
AcDbVertex
100
AcDb2dVertex
 10
60.281709
 20
96.6693
 30
0.0
  0
VERTEX
  5
162
330
15B
100
AcDbEntity
  8
001
370
    50
100
AcDbVertex
100
AcDb2dVertex
 10
60.436488
 20
96.341005
 30
0.0
  0
VERTEX
  5
163
330
15B
100
AcDbEntity
  8
001
370
    50
100
AcDbVertex
100
AcDb2dVertex
 10
60.622982
 20
96.020975
 30
0.0
  0
VERTEX
  5
164
330
15B
100
AcDbEntity
  8
001
370
    50
100
AcDbVertex
100
AcDb2dVertex
 10
60.839017
 20
95.724492
 30
0.0
  0
VERTEX
  5
165
330
15B
100
AcDbEntity
  8
001
370
    50
100
AcDbVertex
100
AcDb2dVertex
 10
61.082257
 20
95.452713
 30
0.0
  0
VERTEX
  5
166
330
15B
100
AcDbEntity
  8
001
370
    50
100
AcDbVertex
100
AcDb2dVertex
 10
61.349475
 20
95.206054
 30
0.0
  0
VERTEX
  5
167
330
15B
100
AcDbEntity
  8
001
370
    50
100
AcDbVertex
100
AcDb2dVertex
 10
61.641886
 20
94.986352
 30
0.0
  0
VERTEX
  5
168
330
15B
100
AcDbEntity
  8
001
370
    50
100
AcDbVertex
100
AcDb2dVertex
 10
61.956703
 20
94.797202
 30
0.0
  0
VERTEX
  5
169
330
15B
100
AcDbEntity
  8
001
370
    50
100
AcDbVertex
100
AcDb2dVertex
 10
62.280362
 20
94.639815
 30
0.0
  0
VERTEX
  5
16A
330
15B
100
AcDbEntity
  8
001
370
    50
100
AcDbVertex
100
AcDb2dVertex
 10
62.605996
 20
94.515918
 30
0.0
  0
VERTEX
  5
16B
330
15B
100
AcDbEntity
  8
001
370
    50
100
AcDbVertex
100
AcDb2dVertex
 10
62.973149
 20
94.426418
 30
0.0
  0
VERTEX
  5
16C
330
15B
100
AcDbEntity
  8
001
370
    50
100
AcDbVertex
100
AcDb2dVertex
 10
63.389168
 20
94.372438
 30
0.0
  0
VERTEX
  5
16D
330
15B
100
AcDbEntity
  8
001
370
    50
100
AcDbVertex
100
AcDb2dVertex
 10
63.693623
 20
94.354363
 30
0.0
  0
SEQEND
  5
15C
330
15B
100
AcDbEntity
  8
001
370
    50
  0
POLYLINE
  5
16E
330
1F
100
AcDbEntity
  8
001
370
    50
100
AcDb2dPolyline
 66
     1
 10
0.0
 20
0.0
 30
0.0
  0
VERTEX
  5
170
330
16E
100
AcDbEntity
  8
001
370
    50
100
AcDbVertex
100
AcDb2dVertex
 10
63.693623
 20
94.354363
 30
0.0
  0
VERTEX
  5
171
330
16E
100
AcDbEntity
  8
001
370
    50
100
AcDbVertex
100
AcDb2dVertex
 10
63.96437
 20
94.368647
 30
0.0
  0
VERTEX
  5
172
330
16E
100
AcDbEntity
  8
001
370
    50
100
AcDbVertex
100
AcDb2dVertex
 10
64.334911
 20
94.411334
 30
0.0
  0
VERTEX
  5
173
330
16E
100
AcDbEntity
  8
001
370
    50
100
AcDbVertex
100
AcDb2dVertex
 10
64.66328
 20
94.48218
 30
0.0
  0
VERTEX
  5
174
330
16E
100
AcDbEntity
  8
001
370
    50
100
AcDbVertex
100
AcDb2dVertex
 10
64.956713
 20
94.580516
 30
0.0
  0
VERTEX
  5
175
330
16E
100
AcDbEntity
  8
001
370
    50
100
AcDbVertex
100
AcDb2dVertex
 10
65.250822
 20
94.705789
 30
0.0
  0
VERTEX
  5
176
330
16E
100
AcDbEntity
  8
001
370
    50
100
AcDbVertex
100
AcDb2dVertex
 10
65.540138
 20
94.856768
 30
0.0
  0
VERTEX
  5
177
330
16E
100
AcDbEntity
  8
001
370
    50
100
AcDbVertex
100
AcDb2dVertex
 10
65.81301
 20
95.032669
 30
0.0
  0
VERTEX
  5
178
330
16E
100
AcDbEntity
  8
001
370
    50
100
AcDbVertex
100
AcDb2dVertex
 10
66.067456
 20
95.231697
 30
0.0
  0
VERTEX
  5
179
330
16E
100
AcDbEntity
  8
001
370
    50
100
AcDbVertex
100
AcDb2dVertex
 10
66.304867
 20
95.452873
 30
0.0
  0
VERTEX
  5
17A
330
16E
100
AcDbEntity
  8
001
370
    50
100
AcDbVertex
100
AcDb2dVertex
 10
66.522647
 20
95.69391
 30
0.0
  0
VERTEX
  5
17B
330
16E
100
AcDbEntity
  8
001
370
    50
100
AcDbVertex
100
AcDb2dVertex
 10
66.718955
 20
95.953623
 30
0.0
  0
VERTEX
  5
17C
330
16E
100
AcDbEntity
  8
001
370
    50
100
AcDbVertex
100
AcDb2dVertex
 10
66.89188
 20
96.229363
 30
0.0
  0
VERTEX
  5
17D
330
16E
100
AcDbEntity
  8
001
370
    50
100
AcDbVertex
100
AcDb2dVertex
 10
67.040686
 20
96.519698
 30
0.0
  0
VERTEX
  5
17E
330
16E
100
AcDbEntity
  8
001
370
    50
100
AcDbVertex
100
AcDb2dVertex
 10
67.163935
 20
96.821788
 30
0.0
  0
VERTEX
  5
17F
330
16E
100
AcDbEntity
  8
001
370
    50
100
AcDbVertex
100
AcDb2dVertex
 10
67.26084
 20
97.133898
 30
0.0
  0
VERTEX
  5
180
330
16E
100
AcDbEntity
  8
001
370
    50
100
AcDbVertex
100
AcDb2dVertex
 10
67.330547
 20
97.453183
 30
0.0
  0
VERTEX
  5
181
330
16E
100
AcDbEntity
  8
001
370
    50
100
AcDbVertex
100
AcDb2dVertex
 10
67.372593
 20
97.777567
 30
0.0
  0
VERTEX
  5
182
330
16E
100
AcDbEntity
  8
001
370
    50
100
AcDbVertex
100
AcDb2dVertex
 10
67.386652
 20
98.104363
 30
0.0
  0
VERTEX
  5
183
330
16E
100
AcDbEntity
  8
001
370
    50
100
AcDbVertex
100
AcDb2dVertex
 10
67.372593
 20
98.43116
 30
0.0
  0
VERTEX
  5
184
330
16E
100
AcDbEntity
  8
001
370
    50
100
AcDbVertex
100
AcDb2dVertex
 10
67.330547
 20
98.755544
 30
0.0
  0
VERTEX
  5
185
330
16E
100
AcDbEntity
  8
001
370
    50
100
AcDbVertex
100
AcDb2dVertex
 10
67.26084
 20
99.074829
 30
0.0
  0
VERTEX
  5
186
330
16E
100
AcDbEntity
  8
001
370
    50
100
AcDbVertex
100
AcDb2dVertex
 10
67.163935
 20
99.386939
 30
0.0
  0
VERTEX
  5
187
330
16E
100
AcDbEntity
  8
001
370
    50
100
AcDbVertex
100
AcDb2dVertex
 10
67.040686
 20
99.689029
 30
0.0
  0
VERTEX
  5
188
330
16E
100
AcDbEntity
  8
001
370
    50
100
AcDbVertex
100
AcDb2dVertex
 10
66.89188
 20
99.979363
 30
0.0
  0
VERTEX
  5
189
330
16E
100
AcDbEntity
  8
001
370
    50
100
AcDbVertex
100
AcDb2dVertex
 10
66.718955
 20
100.255103
 30
0.0
  0
VERTEX
  5
18A
330
16E
100
AcDbEntity
  8
001
370
    50
100
AcDbVertex
100
AcDb2dVertex
 10
66.522647
 20
100.514817
 30
0.0
  0
VERTEX
  5
18B
330
16E
100
AcDbEntity
  8
001
370
    50
100
AcDbVertex
100
AcDb2dVertex
 10
66.304867
 20
100.755853
 30
0.0
  0
VERTEX
  5
18C
330
16E
100
AcDbEntity
  8
001
370
    50
100
AcDbVertex
100
AcDb2dVertex
 10
66.067456
 20
100.97703
 30
0.0
  0
VERTEX
  5
18D
330
16E
100
AcDbEntity
  8
001
370
    50
100
AcDbVertex
100
AcDb2dVertex
 10
65.81301
 20
101.176058
 30
0.0
  0
VERTEX
  5
18E
330
16E
100
AcDbEntity
  8
001
370
    50
100
AcDbVertex
100
AcDb2dVertex
 10
65.540138
 20
101.351959
 30
0.0
  0
VERTEX
  5
18F
330
16E
100
AcDbEntity
  8
001
370
    50
100
AcDbVertex
100
AcDb2dVertex
 10
65.250822
 20
101.502937
 30
0.0
  0
VERTEX
  5
190
330
16E
100
AcDbEntity
  8
001
370
    50
100
AcDbVertex
100
AcDb2dVertex
 10
64.956713
 20
101.628211
 30
0.0
  0
VERTEX
  5
191
330
16E
100
AcDbEntity
  8
001
370
    50
100
AcDbVertex
100
AcDb2dVertex
 10
64.66328
 20
101.726547
 30
0.0
  0
VERTEX
  5
192
330
16E
100
AcDbEntity
  8
001
370
    50
100
AcDbVertex
100
AcDb2dVertex
 10
64.334911
 20
101.797392
 30
0.0
  0
VERTEX
  5
193
330
16E
100
AcDbEntity
  8
001
370
    50
100
AcDbVertex
100
AcDb2dVertex
 10
63.96437
 20
101.84008
 30
0.0
  0
VERTEX
  5
194
330
16E
100
AcDbEntity
  8
001
370
    50
100
AcDbVertex
100
AcDb2dVertex
 10
63.693623
 20
101.854363
 30
0.0
  0
SEQEND
  5
16F
330
16E
100
AcDbEntity
  8
001
370
    50
  0
LINE
  5
195
330
1F
100
AcDbEntity
  8
001
370
    50
100
AcDbLine
 10
108.703449
 20
113.855329
 30
0.0
 11
110.072449
 21
113.462676
 31
0.0
  0
LINE
  5
196
330
1F
100
AcDbEntity
  8
001
370
    50
100
AcDbLine
 10
148.876711
 20
136.483169
 30
0.0
 11
58.376711
 21
136.483169
 31
0.0
  0
POLYLINE
  5
197
330
1F
100
AcDbEntity
  8
001
370
    50
100
AcDb2dPolyline
 66
     1
 10
0.0
 20
0.0
 30
0.0
  0
VERTEX
  5
199
330
197
100
AcDbEntity
  8
001
370
    50
100
AcDbVertex
100
AcDb2dVertex
 10
69.427033
 20
91.883361
 30
0.0
  0
VERTEX
  5
19A
330
197
100
AcDbEntity
  8
001
370
    50
100
AcDbVertex
100
AcDb2dVertex
 10
69.755218
 20
91.761626
 30
0.0
  0
VERTEX
  5
19B
330
197
100
AcDbEntity
  8
001
370
    50
100
AcDbVertex
100
AcDb2dVertex
 10
70.245135
 20
91.619191
 30
0.0
  0
VERTEX
  5
19C
330
197
100
AcDbEntity
  8
001
370
    50
100
AcDbVertex
100
AcDb2dVertex
 10
70.732499
 20
91.530274
 30
0.0
  0
VERTEX
  5
19D
330
197
100
AcDbEntity
  8
001
370
    50
100
AcDbVertex
100
AcDb2dVertex
 10
71.0704
 20
91.494077
 30
0.0
  0
SEQEND
  5
198
330
197
100
AcDbEntity
  8
001
370
    50
  0
POLYLINE
  5
19E
330
1F
100
AcDbEntity
  8
001
370
    50
100
AcDb2dPolyline
 66
     1
 10
0.0
 20
0.0
 30
0.0
  0
VERTEX
  5
1A0
330
19E
100
AcDbEntity
  8
001
370
    50
100
AcDbVertex
100
AcDb2dVertex
 10
72.070252
 20
91.504344
 30
0.0
  0
VERTEX
  5
1A1
330
19E
100
AcDbEntity
  8
001
370
    50
100
AcDbVertex
100
AcDb2dVertex
 10
71.899512
 20
91.502522
 30
0.0
  0
VERTEX
  5
1A2
330
19E
100
AcDbEntity
  8
001
370
    50
100
AcDbVertex
100
AcDb2dVertex
 10
71.728772
 20
91.500723
 30
0.0
  0
VERTEX
  5
1A3
330
19E
100
AcDbEntity
  8
001
370
    50
100
AcDbVertex
100
AcDb2dVertex
 10
71.399586
 20
91.497359
 30
0.0
  0
VERTEX
  5
1A4
330
19E
100
AcDbEntity
  8
001
370
    50
100
AcDbVertex
100
AcDb2dVertex
 10
71.0704
 20
91.494077
 30
0.0
  0
SEQEND
  5
19F
330
19E
100
AcDbEntity
  8
001
370
    50
  0
LINE
  5
1A5
330
1F
100
AcDbEntity
  8
001
370
    50
100
AcDbLine
 10
73.439252
 20
91.5248
 30
0.0
 11
72.070252
 21
91.504344
 31
0.0
  0
POLYLINE
  5
1A6
330
1F
100
AcDbEntity
  8
001
370
    50
100
AcDb2dPolyline
 66
     1
 10
0.0
 20
0.0
 30
0.0
  0
VERTEX
  5
1A8
330
1A6
100
AcDbEntity
  8
001
370
    50
100
AcDbVertex
100
AcDb2dVertex
 10
74.808252
 20
91.552097
 30
0.0
  0
VERTEX
  5
1A9
330
1A6
100
AcDbEntity
  8
001
370
    50
100
AcDbVertex
100
AcDb2dVertex
 10
74.171869
 20
91.539435
 30
0.0
  0
VERTEX
  5
1AA
330
1A6
100
AcDbEntity
  8
001
370
    50
100
AcDbVertex
100
AcDb2dVertex
 10
73.535488
 20
91.526728
 30
0.0
  0
VERTEX
  5
1AB
330
1A6
100
AcDbEntity
  8
001
370
    50
100
AcDbVertex
100
AcDb2dVertex
 10
73.48737
 20
91.525764
 30
0.0
  0
VERTEX
  5
1AC
330
1A6
100
AcDbEntity
  8
001
370
    50
100
AcDbVertex
100
AcDb2dVertex
 10
73.439252
 20
91.5248
 30
0.0
  0
SEQEND
  5
1A7
330
1A6
100
AcDbEntity
  8
001
370
    50
  0
LINE
  5
1AD
330
1F
100
AcDbEntity
  8
001
370
    50
100
AcDbLine
 10
76.177252
 20
91.586226
 30
0.0
 11
74.808252
 21
91.552097
 31
0.0
  0
LINE
  5
1AE
330
1F
100
AcDbEntity
  8
001
370
    50
100
AcDbLine
 10
77.546252
 20
91.627178
 30
0.0
 11
76.177252
 21
91.586226
 31
0.0
  0
LINE
  5
1AF
330
1F
100
AcDbEntity
  8
001
370
    50
100
AcDbLine
 10
78.915252
 20
91.67494
 30
0.0
 11
77.546252
 21
91.627178
 31
0.0
  0
LINE
  5
1B0
330
1F
100
AcDbEntity
  8
001
370
    50
100
AcDbLine
 10
80.284252
 20
91.729497
 30
0.0
 11
78.915252
 21
91.67494
 31
0.0
  0
LINE
  5
1B1
330
1F
100
AcDbEntity
  8
001
370
    50
100
AcDbLine
 10
81.653252
 20
91.790833
 30
0.0
 11
80.284252
 21
91.729497
 31
0.0
  0
LINE
  5
1B2
330
1F
100
AcDbEntity
  8
001
370
    50
100
AcDbLine
 10
83.022252
 20
91.858929
 30
0.0
 11
81.653252
 21
91.790833
 31
0.0
  0
LINE
  5
1B3
330
1F
100
AcDbEntity
  8
001
370
    50
100
AcDbLine
 10
84.391252
 20
91.933764
 30
0.0
 11
83.022252
 21
91.858929
 31
0.0
  0
LINE
  5
1B4
330
1F
100
AcDbEntity
  8
001
370
    50
100
AcDbLine
 10
85.760252
 20
92.015315
 30
0.0
 11
84.391252
 21
91.933764
 31
0.0
  0
LINE
  5
1B5
330
1F
100
AcDbEntity
  8
001
370
    50
100
AcDbLine
 10
87.129252
 20
92.103558
 30
0.0
 11
85.760252
 21
92.015315
 31
0.0
  0
LINE
  5
1B6
330
1F
100
AcDbEntity
  8
001
370
    50
100
AcDbLine
 10
88.498252
 20
92.198466
 30
0.0
 11
87.129252
 21
92.103558
 31
0.0
  0
LINE
  5
1B7
330
1F
100
AcDbEntity
  8
001
370
    50
100
AcDbLine
 10
89.867252
 20
92.30001
 30
0.0
 11
88.498252
 21
92.198466
 31
0.0
  0
LINE
  5
1B8
330
1F
100
AcDbEntity
  8
001
370
    50
100
AcDbLine
 10
91.236252
 20
92.408158
 30
0.0
 11
89.867252
 21
92.30001
 31
0.0
  0
LINE
  5
1B9
330
1F
100
AcDbEntity
  8
001
370
    50
100
AcDbLine
 10
92.605252
 20
92.522879
 30
0.0
 11
91.236252
 21
92.408158
 31
0.0
  0
LINE
  5
1BA
330
1F
100
AcDbEntity
  8
001
370
    50
100
AcDbLine
 10
93.974252
 20
92.644136
 30
0.0
 11
92.605252
 21
92.522879
 31
0.0
  0
LINE
  5
1BB
330
1F
100
AcDbEntity
  8
001
370
    50
100
AcDbLine
 10
95.343252
 20
92.771894
 30
0.0
 11
93.974252
 21
92.644136
 31
0.0
  0
LINE
  5
1BC
330
1F
100
AcDbEntity
  8
001
370
    50
100
AcDbLine
 10
96.712252
 20
92.906113
 30
0.0
 11
95.343252
 21
92.771894
 31
0.0
  0
LINE
  5
1BD
330
1F
100
AcDbEntity
  8
001
370
    50
100
AcDbLine
 10
98.081252
 20
93.046752
 30
0.0
 11
96.712252
 21
92.906113
 31
0.0
  0
LINE
  5
1BE
330
1F
100
AcDbEntity
  8
001
370
    50
100
AcDbLine
 10
99.450252
 20
93.193768
 30
0.0
 11
98.081252
 21
93.046752
 31
0.0
  0
LINE
  5
1BF
330
1F
100
AcDbEntity
  8
001
370
    50
100
AcDbLine
 10
100.819252
 20
93.347118
 30
0.0
 11
99.450252
 21
93.193768
 31
0.0
  0
LINE
  5
1C0
330
1F
100
AcDbEntity
  8
001
370
    50
100
AcDbLine
 10
102.188252
 20
93.506753
 30
0.0
 11
100.819252
 21
93.347118
 31
0.0
  0
LINE
  5
1C1
330
1F
100
AcDbEntity
  8
001
370
    50
100
AcDbLine
 10
103.557252
 20
93.672625
 30
0.0
 11
102.188252
 21
93.506753
 31
0.0
  0
LINE
  5
1C2
330
1F
100
AcDbEntity
  8
001
370
    50
100
AcDbLine
 10
104.926252
 20
93.844684
 30
0.0
 11
103.557252
 21
93.672625
 31
0.0
  0
LINE
  5
1C3
330
1F
100
AcDbEntity
  8
001
370
    50
100
AcDbLine
 10
106.295252
 20
94.022878
 30
0.0
 11
104.926252
 21
93.844684
 31
0.0
  0
LINE
  5
1C4
330
1F
100
AcDbEntity
  8
001
370
    50
100
AcDbLine
 10
107.664252
 20
94.207152
 30
0.0
 11
106.295252
 21
94.022878
 31
0.0
  0
LINE
  5
1C5
330
1F
100
AcDbEntity
  8
001
370
    50
100
AcDbLine
 10
109.033252
 20
94.397449
 30
0.0
 11
107.664252
 21
94.207152
 31
0.0
  0
LINE
  5
1C6
330
1F
100
AcDbEntity
  8
001
370
    50
100
AcDbLine
 10
110.402252
 20
94.593713
 30
0.0
 11
109.033252
 21
94.397449
 31
0.0
  0
LINE
  5
1C7
330
1F
100
AcDbEntity
  8
001
370
    50
100
AcDbLine
 10
111.771252
 20
94.795883
 30
0.0
 11
110.402252
 21
94.593713
 31
0.0
  0
LINE
  5
1C8
330
1F
100
AcDbEntity
  8
001
370
    50
100
AcDbLine
 10
113.140252
 20
95.003897
 30
0.0
 11
111.771252
 21
94.795883
 31
0.0
  0
LINE
  5
1C9
330
1F
100
AcDbEntity
  8
001
370
    50
100
AcDbLine
 10
114.509252
 20
95.217693
 30
0.0
 11
113.140252
 21
95.003897
 31
0.0
  0
LINE
  5
1CA
330
1F
100
AcDbEntity
  8
001
370
    50
100
AcDbLine
 10
115.878252
 20
95.437205
 30
0.0
 11
114.509252
 21
95.217693
 31
0.0
  0
LINE
  5
1CB
330
1F
100
AcDbEntity
  8
001
370
    50
100
AcDbLine
 10
117.247252
 20
95.662366
 30
0.0
 11
115.878252
 21
95.437205
 31
0.0
  0
LINE
  5
1CC
330
1F
100
AcDbEntity
  8
001
370
    50
100
AcDbLine
 10
118.616252
 20
95.893108
 30
0.0
 11
117.247252
 21
95.662366
 31
0.0
  0
LINE
  5
1CD
330
1F
100
AcDbEntity
  8
001
370
    50
100
AcDbLine
 10
119.985252
 20
96.12936
 30
0.0
 11
118.616252
 21
95.893108
 31
0.0
  0
LINE
  5
1CE
330
1F
100
AcDbEntity
  8
001
370
    50
100
AcDbLine
 10
121.354252
 20
96.371051
 30
0.0
 11
119.985252
 21
96.12936
 31
0.0
  0
LINE
  5
1CF
330
1F
100
AcDbEntity
  8
001
370
    50
100
AcDbLine
 10
122.723252
 20
96.618106
 30
0.0
 11
121.354252
 21
96.371051
 31
0.0
  0
LINE
  5
1D0
330
1F
100
AcDbEntity
  8
001
370
    50
100
AcDbLine
 10
124.092252
 20
96.870452
 30
0.0
 11
122.723252
 21
96.618106
 31
0.0
  0
LINE
  5
1D1
330
1F
100
AcDbEntity
  8
001
370
    50
100
AcDbLine
 10
125.461252
 20
97.128009
 30
0.0
 11
124.092252
 21
96.870452
 31
0.0
  0
LINE
  5
1D2
330
1F
100
AcDbEntity
  8
001
370
    50
100
AcDbLine
 10
126.830252
 20
97.390701
 30
0.0
 11
125.461252
 21
97.128009
 31
0.0
  0
LINE
  5
1D3
330
1F
100
AcDbEntity
  8
001
370
    50
100
AcDbLine
 10
128.199252
 20
97.658448
 30
0.0
 11
126.830252
 21
97.390701
 31
0.0
  0
POLYLINE
  5
1D4
330
1F
100
AcDbEntity
  8
001
370
    50
100
AcDb2dPolyline
 66
     1
 10
0.0
 20
0.0
 30
0.0
  0
VERTEX
  5
1D6
330
1D4
100
AcDbEntity
  8
001
370
    50
100
AcDbVertex
100
AcDb2dVertex
 10
148.876711
 20
93.359066
 30
0.0
  0
VERTEX
  5
1D7
330
1D4
100
AcDbEntity
  8
001
370
    50
100
AcDbVertex
100
AcDb2dVertex
 10
148.593247
 20
93.585329
 30
0.0
  0
VERTEX
  5
1D8
330
1D4
100
AcDbEntity
  8
001
370
    50
100
AcDbVertex
100
AcDb2dVertex
 10
148.306648
 20
93.807485
 30
0.0
  0
VERTEX
  5
1D9
330
1D4
100
AcDbEntity
  8
001
370
    50
100
AcDbVertex
100
AcDb2dVertex
 10
147.980014
 20
94.046982
 30
0.0
  0
VERTEX
  5
1DA
330
1D4
100
AcDbEntity
  8
001
370
    50
100
AcDbVertex
100
AcDb2dVertex
 10
147.647322
 20
94.278128
 30
0.0
  0
VERTEX
  5
1DB
330
1D4
100
AcDbEntity
  8
001
370
    50
100
AcDbVertex
100
AcDb2dVertex
 10
147.279556
 20
94.52227
 30
0.0
  0
VERTEX
  5
1DC
330
1D4
100
AcDbEntity
  8
001
370
    50
100
AcDbVertex
100
AcDb2dVertex
 10
146.906662
 20
94.758436
 30
0.0
  0
VERTEX
  5
1DD
330
1D4
100
AcDbEntity
  8
001
370
    50
100
AcDbVertex
100
AcDb2dVertex
 10
146.502384
 20
95.001824
 30
0.0
  0
VERTEX
  5
1DE
330
1D4
100
AcDbEntity
  8
001
370
    50
100
AcDbVertex
100
AcDb2dVertex
 10
146.0926
 20
95.235851
 30
0.0
  0
VERTEX
  5
1DF
330
1D4
100
AcDbEntity
  8
001
370
    50
100
AcDbVertex
100
AcDb2dVertex
 10
145.654937
 20
95.47266
 30
0.0
  0
VERTEX
  5
1E0
330
1D4
100
AcDbEntity
  8
001
370
    50
100
AcDbVertex
100
AcDb2dVertex
 10
145.212054
 20
95.699554
 30
0.0
  0
VERTEX
  5
1E1
330
1D4
100
AcDbEntity
  8
001
370
    50
100
AcDbVertex
100
AcDb2dVertex
 10
144.741987
 20
95.927446
 30
0.0
  0
VERTEX
  5
1E2
330
1D4
100
AcDbEntity
  8
001
370
    50
100
AcDbVertex
100
AcDb2dVertex
 10
144.267044
 20
96.144997
 30
0.0
  0
VERTEX
  5
1E3
330
1D4
100
AcDbEntity
  8
001
370
    50
100
AcDbVertex
100
AcDb2dVertex
 10
143.769715
 20
96.359828
 30
0.0
  0
VERTEX
  5
1E4
330
1D4
100
AcDbEntity
  8
001
370
    50
100
AcDbVertex
100
AcDb2dVertex
 10
143.267782
 20
96.563672
 30
0.0
  0
VERTEX
  5
1E5
330
1D4
100
AcDbEntity
  8
001
370
    50
100
AcDbVertex
100
AcDb2dVertex
 10
142.748309
 20
96.761298
 30
0.0
  0
VERTEX
  5
1E6
330
1D4
100
AcDbEntity
  8
001
370
    50
100
AcDbVertex
100
AcDb2dVertex
 10
142.224481
 20
96.947069
 30
0.0
  0
VERTEX
  5
1E7
330
1D4
100
AcDbEntity
  8
001
370
    50
100
AcDbVertex
100
AcDb2dVertex
 10
141.648791
 20
97.135887
 30
0.0
  0
VERTEX
  5
1E8
330
1D4
100
AcDbEntity
  8
001
370
    50
100
AcDbVertex
100
AcDb2dVertex
 10
141.068656
 20
97.310599
 30
0.0
  0
VERTEX
  5
1E9
330
1D4
100
AcDbEntity
  8
001
370
    50
100
AcDbVertex
100
AcDb2dVertex
 10
140.472036
 20
97.474706
 30
0.0
  0
VERTEX
  5
1EA
330
1D4
100
AcDbEntity
  8
001
370
    50
100
AcDbVertex
100
AcDb2dVertex
 10
139.87164
 20
97.624407
 30
0.0
  0
VERTEX
  5
1EB
330
1D4
100
AcDbEntity
  8
001
370
    50
100
AcDbVertex
100
AcDb2dVertex
 10
139.259321
 20
97.761506
 30
0.0
  0
VERTEX
  5
1EC
330
1D4
100
AcDbEntity
  8
001
370
    50
100
AcDbVertex
100
AcDb2dVertex
 10
138.643849
 20
97.883686
 30
0.0
  0
VERTEX
  5
1ED
330
1D4
100
AcDbEntity
  8
001
370
    50
100
AcDbVertex
100
AcDb2dVertex
 10
138.021032
 20
97.991494
 30
0.0
  0
VERTEX
  5
1EE
330
1D4
100
AcDbEntity
  8
001
370
    50
100
AcDbVertex
100
AcDb2dVertex
 10
137.395705
 20
98.083631
 30
0.0
  0
VERTEX
  5
1EF
330
1D4
100
AcDbEntity
  8
001
370
    50
100
AcDbVertex
100
AcDb2dVertex
 10
136.675426
 20
98.169712
 30
0.0
  0
VERTEX
  5
1F0
330
1D4
100
AcDbEntity
  8
001
370
    50
100
AcDbVertex
100
AcDb2dVertex
 10
135.95295
 20
98.235013
 30
0.0
  0
VERTEX
  5
1F1
330
1D4
100
AcDbEntity
  8
001
370
    50
100
AcDbVertex
100
AcDb2dVertex
 10
135.223503
 20
98.280131
 30
0.0
  0
VERTEX
  5
1F2
330
1D4
100
AcDbEntity
  8
001
370
    50
100
AcDbVertex
100
AcDb2dVertex
 10
134.493081
 20
98.30471
 30
0.0
  0
VERTEX
  5
1F3
330
1D4
100
AcDbEntity
  8
001
370
    50
100
AcDbVertex
100
AcDb2dVertex
 10
133.761426
 20
98.308873
 30
0.0
  0
VERTEX
  5
1F4
330
1D4
100
AcDbEntity
  8
001
370
    50
100
AcDbVertex
100
AcDb2dVertex
 10
133.02993
 20
98.292539
 30
0.0
  0
VERTEX
  5
1F5
330
1D4
100
AcDbEntity
  8
001
370
    50
100
AcDbVertex
100
AcDb2dVertex
 10
132.302937
 20
98.255814
 30
0.0
  0
VERTEX
  5
1F6
330
1D4
100
AcDbEntity
  8
001
370
    50
100
AcDbVertex
100
AcDb2dVertex
 10
131.57733
 20
98.198316
 30
0.0
  0
VERTEX
  5
1F7
330
1D4
100
AcDbEntity
  8
001
370
    50
100
AcDbVertex
100
AcDb2dVertex
 10
131.006179
 20
98.138202
 30
0.0
  0
VERTEX
  5
1F8
330
1D4
100
AcDbEntity
  8
001
370
    50
100
AcDbVertex
100
AcDb2dVertex
 10
130.436425
 20
98.065781
 30
0.0
  0
VERTEX
  5
1F9
330
1D4
100
AcDbEntity
  8
001
370
    50
100
AcDbVertex
100
AcDb2dVertex
 10
129.871228
 20
97.981933
 30
0.0
  0
VERTEX
  5
1FA
330
1D4
100
AcDbEntity
  8
001
370
    50
100
AcDbVertex
100
AcDb2dVertex
 10
129.308226
 20
97.884871
 30
0.0
  0
VERTEX
  5
1FB
330
1D4
100
AcDbEntity
  8
001
370
    50
100
AcDbVertex
100
AcDb2dVertex
 10
128.753028
 20
97.775368
 30
0.0
  0
VERTEX
  5
1FC
330
1D4
100
AcDbEntity
  8
001
370
    50
100
AcDbVertex
100
AcDb2dVertex
 10
128.199252
 20
97.658448
 30
0.0
  0
SEQEND
  5
1D5
330
1D4
100
AcDbEntity
  8
001
370
    50
  0
LINE
  5
1FD
330
1F
100
AcDbEntity
  8
001
370
    50
100
AcDbLine
 10
148.588248
 20
94.941536
 30
0.0
 11
148.876711
 21
94.158416
 31
0.0
  0
POLYLINE
  5
1FE
330
1F
100
AcDbEntity
  8
001
370
    50
100
AcDb2dPolyline
 66
     1
 10
0.0
 20
0.0
 30
0.0
  0
VERTEX
  5
200
330
1FE
100
AcDbEntity
  8
001
370
    50
100
AcDbVertex
100
AcDb2dVertex
 10
134.714449
 20
106.537129
 30
0.0
  0
VERTEX
  5
201
330
1FE
100
AcDbEntity
  8
001
370
    50
100
AcDbVertex
100
AcDb2dVertex
 10
135.356678
 20
106.373199
 30
0.0
  0
VERTEX
  5
202
330
1FE
100
AcDbEntity
  8
001
370
    50
100
AcDbVertex
100
AcDb2dVertex
 10
135.994559
 20
106.194357
 30
0.0
  0
VERTEX
  5
203
330
1FE
100
AcDbEntity
  8
001
370
    50
100
AcDbVertex
100
AcDb2dVertex
 10
136.624304
 20
105.989109
 30
0.0
  0
VERTEX
  5
204
330
1FE
100
AcDbEntity
  8
001
370
    50
100
AcDbVertex
100
AcDb2dVertex
 10
137.245748
 20
105.759157
 30
0.0
  0
VERTEX
  5
205
330
1FE
100
AcDbEntity
  8
001
370
    50
100
AcDbVertex
100
AcDb2dVertex
 10
137.85621
 20
105.509876
 30
0.0
  0
VERTEX
  5
206
330
1FE
100
AcDbEntity
  8
001
370
    50
100
AcDbVertex
100
AcDb2dVertex
 10
138.457989
 20
105.240602
 30
0.0
  0
VERTEX
  5
207
330
1FE
100
AcDbEntity
  8
001
370
    50
100
AcDbVertex
100
AcDb2dVertex
 10
139.044554
 20
104.953906
 30
0.0
  0
VERTEX
  5
208
330
1FE
100
AcDbEntity
  8
001
370
    50
100
AcDbVertex
100
AcDb2dVertex
 10
139.621255
 20
104.647763
 30
0.0
  0
VERTEX
  5
209
330
1FE
100
AcDbEntity
  8
001
370
    50
100
AcDbVertex
100
AcDb2dVertex
 10
140.226951
 20
104.299453
 30
0.0
  0
VERTEX
  5
20A
330
1FE
100
AcDbEntity
  8
001
370
    50
100
AcDbVertex
100
AcDb2dVertex
 10
140.820481
 20
103.930793
 30
0.0
  0
VERTEX
  5
20B
330
1FE
100
AcDbEntity
  8
001
370
    50
100
AcDbVertex
100
AcDb2dVertex
 10
141.39578
 20
103.546839
 30
0.0
  0
VERTEX
  5
20C
330
1FE
100
AcDbEntity
  8
001
370
    50
100
AcDbVertex
100
AcDb2dVertex
 10
141.958601
 20
103.144822
 30
0.0
  0
VERTEX
  5
20D
330
1FE
100
AcDbEntity
  8
001
370
    50
100
AcDbVertex
100
AcDb2dVertex
 10
142.499222
 20
102.732899
 30
0.0
  0
VERTEX
  5
20E
330
1FE
100
AcDbEntity
  8
001
370
    50
100
AcDbVertex
100
AcDb2dVertex
 10
143.027125
 20
102.304796
 30
0.0
  0
VERTEX
  5
20F
330
1FE
100
AcDbEntity
  8
001
370
    50
100
AcDbVertex
100
AcDb2dVertex
 10
143.528851
 20
101.872546
 30
0.0
  0
VERTEX
  5
210
330
1FE
100
AcDbEntity
  8
001
370
    50
100
AcDbVertex
100
AcDb2dVertex
 10
144.017563
 20
101.42566
 30
0.0
  0
VERTEX
  5
211
330
1FE
100
AcDbEntity
  8
001
370
    50
100
AcDbVertex
100
AcDb2dVertex
 10
144.408096
 20
101.048621
 30
0.0
  0
VERTEX
  5
212
330
1FE
100
AcDbEntity
  8
001
370
    50
100
AcDbVertex
100
AcDb2dVertex
 10
144.789348
 20
100.662207
 30
0.0
  0
VERTEX
  5
213
330
1FE
100
AcDbEntity
  8
001
370
    50
100
AcDbVertex
100
AcDb2dVertex
 10
145.151783
 20
100.276882
 30
0.0
  0
VERTEX
  5
214
330
1FE
100
AcDbEntity
  8
001
370
    50
100
AcDbVertex
100
AcDb2dVertex
 10
145.50498
 20
99.883075
 30
0.0
  0
VERTEX
  5
215
330
1FE
100
AcDbEntity
  8
001
370
    50
100
AcDbVertex
100
AcDb2dVertex
 10
145.837249
 20
99.494553
 30
0.0
  0
VERTEX
  5
216
330
1FE
100
AcDbEntity
  8
001
370
    50
100
AcDbVertex
100
AcDb2dVertex
 10
146.160224
 20
99.098274
 30
0.0
  0
VERTEX
  5
217
330
1FE
100
AcDbEntity
  8
001
370
    50
100
AcDbVertex
100
AcDb2dVertex
 10
146.460291
 20
98.711641
 30
0.0
  0
VERTEX
  5
218
330
1FE
100
AcDbEntity
  8
001
370
    50
100
AcDbVertex
100
AcDb2dVertex
 10
146.750848
 20
98.317817
 30
0.0
  0
VERTEX
  5
219
330
1FE
100
AcDbEntity
  8
001
370
    50
100
AcDbVertex
100
AcDb2dVertex
 10
147.016647
 20
97.938116
 30
0.0
  0
VERTEX
  5
21A
330
1FE
100
AcDbEntity
  8
001
370
    50
100
AcDbVertex
100
AcDb2dVertex
 10
147.272616
 20
97.551716
 30
0.0
  0
VERTEX
  5
21B
330
1FE
100
AcDbEntity
  8
001
370
    50
100
AcDbVertex
100
AcDb2dVertex
 10
147.487422
 20
97.208743
 30
0.0
  0
VERTEX
  5
21C
330
1FE
100
AcDbEntity
  8
001
370
    50
100
AcDbVertex
100
AcDb2dVertex
 10
147.693324
 20
96.860385
 30
0.0
  0
VERTEX
  5
21D
330
1FE
100
AcDbEntity
  8
001
370
    50
100
AcDbVertex
100
AcDb2dVertex
 10
147.878282
 20
96.527554
 30
0.0
  0
VERTEX
  5
21E
330
1FE
100
AcDbEntity
  8
001
370
    50
100
AcDbVertex
100
AcDb2dVertex
 10
148.054439
 20
96.189906
 30
0.0
  0
VERTEX
  5
21F
330
1FE
100
AcDbEntity
  8
001
370
    50
100
AcDbVertex
100
AcDb2dVertex
 10
148.209671
 20
95.871407
 30
0.0
  0
VERTEX
  5
220
330
1FE
100
AcDbEntity
  8
001
370
    50
100
AcDbVertex
100
AcDb2dVertex
 10
148.353551
 20
95.547786
 30
0.0
  0
VERTEX
  5
221
330
1FE
100
AcDbEntity
  8
001
370
    50
100
AcDbVertex
100
AcDb2dVertex
 10
148.474045
 20
95.245958
 30
0.0
  0
VERTEX
  5
222
330
1FE
100
AcDbEntity
  8
001
370
    50
100
AcDbVertex
100
AcDb2dVertex
 10
148.588248
 20
94.941536
 30
0.0
  0
SEQEND
  5
1FF
330
1FE
100
AcDbEntity
  8
001
370
    50
  0
LINE
  5
223
330
1F
100
AcDbEntity
  8
001
370
    50
100
AcDbLine
 10
133.345449
 20
106.908816
 30
0.0
 11
134.714449
 21
106.537129
 31
0.0
  0
LINE
  5
224
330
1F
100
AcDbEntity
  8
001
370
    50
100
AcDbLine
 10
131.976449
 20
107.282658
 30
0.0
 11
133.345449
 21
106.908816
 31
0.0
  0
LINE
  5
225
330
1F
100
AcDbEntity
  8
001
370
    50
100
AcDbLine
 10
130.607449
 20
107.658541
 30
0.0
 11
131.976449
 21
107.282658
 31
0.0
  0
LINE
  5
226
330
1F
100
AcDbEntity
  8
001
370
    50
100
AcDbLine
 10
129.238449
 20
108.036351
 30
0.0
 11
130.607449
 21
107.658541
 31
0.0
  0
LINE
  5
227
330
1F
100
AcDbEntity
  8
001
370
    50
100
AcDbLine
 10
127.869449
 20
108.415972
 30
0.0
 11
129.238449
 21
108.036351
 31
0.0
  0
LINE
  5
228
330
1F
100
AcDbEntity
  8
001
370
    50
100
AcDbLine
 10
126.500449
 20
108.797289
 30
0.0
 11
127.869449
 21
108.415972
 31
0.0
  0
LINE
  5
229
330
1F
100
AcDbEntity
  8
001
370
    50
100
AcDbLine
 10
125.131449
 20
109.180185
 30
0.0
 11
126.500449
 21
108.797289
 31
0.0
  0
LINE
  5
22A
330
1F
100
AcDbEntity
  8
001
370
    50
100
AcDbLine
 10
123.762449
 20
109.564545
 30
0.0
 11
125.131449
 21
109.180185
 31
0.0
  0
LINE
  5
22B
330
1F
100
AcDbEntity
  8
001
370
    50
100
AcDbLine
 10
122.393449
 20
109.95025
 30
0.0
 11
123.762449
 21
109.564545
 31
0.0
  0
LINE
  5
22C
330
1F
100
AcDbEntity
  8
001
370
    50
100
AcDbLine
 10
121.024449
 20
110.337184
 30
0.0
 11
122.393449
 21
109.95025
 31
0.0
  0
LINE
  5
22D
330
1F
100
AcDbEntity
  8
001
370
    50
100
AcDbLine
 10
119.655449
 20
110.725229
 30
0.0
 11
121.024449
 21
110.337184
 31
0.0
  0
LINE
  5
22E
330
1F
100
AcDbEntity
  8
001
370
    50
100
AcDbLine
 10
118.286449
 20
111.114266
 30
0.0
 11
119.655449
 21
110.725229
 31
0.0
  0
LINE
  5
22F
330
1F
100
AcDbEntity
  8
001
370
    50
100
AcDbLine
 10
116.917449
 20
111.504177
 30
0.0
 11
118.286449
 21
111.114266
 31
0.0
  0
LINE
  5
230
330
1F
100
AcDbEntity
  8
001
370
    50
100
AcDbLine
 10
115.548449
 20
111.894843
 30
0.0
 11
116.917449
 21
111.504177
 31
0.0
  0
LINE
  5
231
330
1F
100
AcDbEntity
  8
001
370
    50
100
AcDbLine
 10
114.179449
 20
112.286145
 30
0.0
 11
115.548449
 21
111.894843
 31
0.0
  0
LINE
  5
232
330
1F
100
AcDbEntity
  8
001
370
    50
100
AcDbLine
 10
112.810449
 20
112.677964
 30
0.0
 11
114.179449
 21
112.286145
 31
0.0
  0
LINE
  5
233
330
1F
100
AcDbEntity
  8
001
370
    50
100
AcDbLine
 10
111.441449
 20
113.070181
 30
0.0
 11
112.810449
 21
112.677964
 31
0.0
  0
LINE
  5
234
330
1F
100
AcDbEntity
  8
001
370
    50
100
AcDbLine
 10
110.072449
 20
113.462676
 30
0.0
 11
111.441449
 21
113.070181
 31
0.0
  0
LINE
  5
235
330
1F
100
AcDbEntity
  8
001
370
    50
100
AcDbLine
 10
107.334449
 20
114.248021
 30
0.0
 11
108.703449
 21
113.855329
 31
0.0
  0
LINE
  5
236
330
1F
100
AcDbEntity
  8
001
370
    50
100
AcDbLine
 10
105.965449
 20
114.640633
 30
0.0
 11
107.334449
 21
114.248021
 31
0.0
  0
LINE
  5
237
330
1F
100
AcDbEntity
  8
001
370
    50
100
AcDbLine
 10
104.596449
 20
115.033044
 30
0.0
 11
105.965449
 21
114.640633
 31
0.0
  0
LINE
  5
238
330
1F
100
AcDbEntity
  8
001
370
    50
100
AcDbLine
 10
103.227449
 20
115.425136
 30
0.0
 11
104.596449
 21
115.033044
 31
0.0
  0
LINE
  5
239
330
1F
100
AcDbEntity
  8
001
370
    50
100
AcDbLine
 10
101.858449
 20
115.816788
 30
0.0
 11
103.227449
 21
115.425136
 31
0.0
  0
LINE
  5
23A
330
1F
100
AcDbEntity
  8
001
370
    50
100
AcDbLine
 10
100.489449
 20
116.207882
 30
0.0
 11
101.858449
 21
115.816788
 31
0.0
  0
LINE
  5
23B
330
1F
100
AcDbEntity
  8
001
370
    50
100
AcDbLine
 10
99.120449
 20
116.598298
 30
0.0
 11
100.489449
 21
116.207882
 31
0.0
  0
LINE
  5
23C
330
1F
100
AcDbEntity
  8
001
370
    50
100
AcDbLine
 10
97.751449
 20
116.987917
 30
0.0
 11
99.120449
 21
116.598298
 31
0.0
  0
LINE
  5
23D
330
1F
100
AcDbEntity
  8
001
370
    50
100
AcDbLine
 10
96.382449
 20
117.376622
 30
0.0
 11
97.751449
 21
116.987917
 31
0.0
  0
LINE
  5
23E
330
1F
100
AcDbEntity
  8
001
370
    50
100
AcDbLine
 10
95.013449
 20
117.764292
 30
0.0
 11
96.382449
 21
117.376622
 31
0.0
  0
LINE
  5
23F
330
1F
100
AcDbEntity
  8
001
370
    50
100
AcDbLine
 10
93.644449
 20
118.150811
 30
0.0
 11
95.013449
 21
117.764292
 31
0.0
  0
LINE
  5
240
330
1F
100
AcDbEntity
  8
001
370
    50
100
AcDbLine
 10
92.275449
 20
118.53606
 30
0.0
 11
93.644449
 21
118.150811
 31
0.0
  0
LINE
  5
241
330
1F
100
AcDbEntity
  8
001
370
    50
100
AcDbLine
 10
90.906449
 20
118.919923
 30
0.0
 11
92.275449
 21
118.53606
 31
0.0
  0
LINE
  5
242
330
1F
100
AcDbEntity
  8
001
370
    50
100
AcDbLine
 10
89.537449
 20
119.302281
 30
0.0
 11
90.906449
 21
118.919923
 31
0.0
  0
LINE
  5
243
330
1F
100
AcDbEntity
  8
001
370
    50
100
AcDbLine
 10
88.168449
 20
119.68302
 30
0.0
 11
89.537449
 21
119.302281
 31
0.0
  0
POLYLINE
  5
244
330
1F
100
AcDbEntity
  8
001
370
    50
100
AcDb2dPolyline
 66
     1
 10
0.0
 20
0.0
 30
0.0
  0
VERTEX
  5
246
330
244
100
AcDbEntity
  8
001
370
    50
100
AcDbVertex
100
AcDb2dVertex
 10
86.799449
 20
120.062022
 30
0.0
  0
VERTEX
  5
247
330
244
100
AcDbEntity
  8
001
370
    50
100
AcDbVertex
100
AcDb2dVertex
 10
87.366673
 20
119.917382
 30
0.0
  0
VERTEX
  5
248
330
244
100
AcDbEntity
  8
001
370
    50
100
AcDbVertex
100
AcDb2dVertex
 10
87.929639
 20
119.758137
 30
0.0
  0
VERTEX
  5
249
330
244
100
AcDbEntity
  8
001
370
    50
100
AcDbVertex
100
AcDb2dVertex
 10
88.049142
 20
119.720913
 30
0.0
  0
VERTEX
  5
24A
330
244
100
AcDbEntity
  8
001
370
    50
100
AcDbVertex
100
AcDb2dVertex
 10
88.168449
 20
119.68302
 30
0.0
  0
SEQEND
  5
245
330
244
100
AcDbEntity
  8
001
370
    50
  0
LINE
  5
24B
330
1F
100
AcDbEntity
  8
001
370
    50
100
AcDbLine
 10
85.430449
 20
120.439172
 30
0.0
 11
86.799449
 21
120.062022
 31
0.0
  0
LINE
  5
24C
330
1F
100
AcDbEntity
  8
001
370
    50
100
AcDbLine
 10
84.061449
 20
120.814356
 30
0.0
 11
85.430449
 21
120.439172
 31
0.0
  0
LINE
  5
24D
330
1F
100
AcDbEntity
  8
001
370
    50
100
AcDbLine
 10
82.692449
 20
121.187459
 30
0.0
 11
84.061449
 21
120.814356
 31
0.0
  0
LINE
  5
24E
330
1F
100
AcDbEntity
  8
001
370
    50
100
AcDbLine
 10
81.323449
 20
121.558368
 30
0.0
 11
82.692449
 21
121.187459
 31
0.0
  0
LINE
  5
24F
330
1F
100
AcDbEntity
  8
001
370
    50
100
AcDbLine
 10
79.954449
 20
121.926969
 30
0.0
 11
81.323449
 21
121.558368
 31
0.0
  0
LINE
  5
250
330
1F
100
AcDbEntity
  8
001
370
    50
100
AcDbLine
 10
78.585449
 20
122.29315
 30
0.0
 11
79.954449
 21
121.926969
 31
0.0
  0
LINE
  5
251
330
1F
100
AcDbEntity
  8
001
370
    50
100
AcDbLine
 10
77.216449
 20
122.6568
 30
0.0
 11
78.585449
 21
122.29315
 31
0.0
  0
LINE
  5
252
330
1F
100
AcDbEntity
  8
001
370
    50
100
AcDbLine
 10
75.847449
 20
123.017808
 30
0.0
 11
77.216449
 21
122.6568
 31
0.0
  0
LINE
  5
253
330
1F
100
AcDbEntity
  8
001
370
    50
100
AcDbLine
 10
74.478449
 20
123.376064
 30
0.0
 11
75.847449
 21
123.017808
 31
0.0
  0
LINE
  5
254
330
1F
100
AcDbEntity
  8
001
370
    50
100
AcDbLine
 10
73.109449
 20
123.731459
 30
0.0
 11
74.478449
 21
123.376064
 31
0.0
  0
LINE
  5
255
330
1F
100
AcDbEntity
  8
001
370
    50
100
AcDbLine
 10
71.740449
 20
124.083884
 30
0.0
 11
73.109449
 21
123.731459
 31
0.0
  0
LINE
  5
256
330
1F
100
AcDbEntity
  8
001
370
    50
100
AcDbLine
 10
70.371449
 20
124.433233
 30
0.0
 11
71.740449
 21
124.083884
 31
0.0
  0
LINE
  5
257
330
1F
100
AcDbEntity
  8
001
370
    50
100
AcDbLine
 10
69.002449
 20
124.779398
 30
0.0
 11
70.371449
 21
124.433233
 31
0.0
  0
LINE
  5
258
330
1F
100
AcDbEntity
  8
001
370
    50
100
AcDbLine
 10
67.633449
 20
125.122275
 30
0.0
 11
69.002449
 21
124.779398
 31
0.0
  0
LINE
  5
259
330
1F
100
AcDbEntity
  8
001
370
    50
100
AcDbLine
 10
66.264449
 20
125.461758
 30
0.0
 11
67.633449
 21
125.122275
 31
0.0
  0
LINE
  5
25A
330
1F
100
AcDbEntity
  8
001
370
    50
100
AcDbLine
 10
64.895449
 20
125.797746
 30
0.0
 11
66.264449
 21
125.461758
 31
0.0
  0
LINE
  5
25B
330
1F
100
AcDbEntity
  8
001
370
    50
100
AcDbLine
 10
63.526449
 20
126.130134
 30
0.0
 11
64.895449
 21
125.797746
 31
0.0
  0
LINE
  5
25C
330
1F
100
AcDbEntity
  8
001
370
    50
100
AcDbLine
 10
62.157449
 20
126.458822
 30
0.0
 11
63.526449
 21
126.130134
 31
0.0
  0
LINE
  5
25D
330
1F
100
AcDbEntity
  8
001
370
    50
100
AcDbLine
 10
60.788449
 20
126.78371
 30
0.0
 11
62.157449
 21
126.458822
 31
0.0
  0
LINE
  5
25E
330
1F
100
AcDbEntity
  8
001
370
    50
100
AcDbLine
 10
59.419449
 20
127.104699
 30
0.0
 11
60.788449
 21
126.78371
 31
0.0
  0
LINE
  5
25F
330
1F
100
AcDbEntity
  8
001
370
    50
100
AcDbLine
 10
58.376711
 20
127.355732
 30
0.0
 11
59.419449
 21
127.104699
 31
0.0
  0
POLYLINE
  5
260
330
1F
100
AcDbEntity
  8
001
  6
DASHED
370
    50
100
AcDb2dPolyline
 66
     1
 10
0.0
 20
0.0
 30
0.0
  0
VERTEX
  5
262
330
260
100
AcDbEntity
  8
001
  6
DASHED
370
    50
100
AcDbVertex
100
AcDb2dVertex
 10
150.390376
 20
91.89303
 30
0.0
  0
VERTEX
  5
263
330
260
100
AcDbEntity
  8
001
  6
DASHED
370
    50
100
AcDbVertex
100
AcDb2dVertex
 10
150.39837
 20
91.912376
 30
0.0
  0
VERTEX
  5
264
330
260
100
AcDbEntity
  8
001
  6
DASHED
370
    50
100
AcDbVertex
100
AcDb2dVertex
 10
150.401183
 20
91.93199
 30
0.0
  0
VERTEX
  5
265
330
260
100
AcDbEntity
  8
001
  6
DASHED
370
    50
100
AcDbVertex
100
AcDb2dVertex
 10
150.400465
 20
91.937349
 30
0.0
  0
VERTEX
  5
266
330
260
100
AcDbEntity
  8
001
  6
DASHED
370
    50
100
AcDbVertex
100
AcDb2dVertex
 10
150.399372
 20
91.942728
 30
0.0
  0
SEQEND
  5
261
330
260
100
AcDbEntity
  8
001
  6
DASHED
370
    50
  0
ARC
  5
267
330
1F
100
AcDbEntity
  8
001
370
    50
100
AcDbCircle
 10
148.876711
 20
133.483169
 30
0.0
 40
3.000000000000003
100
AcDbArc
 50
0.0
 51
90.0
  0
ARC
  5
268
330
1F
100
AcDbEntity
  8
001
370
    50
100
AcDbCircle
 10
148.876711
 20
94.483169
 30
0.0
 40
3.000000000000003
100
AcDbArc
 50
300.204751
 51
0.0
  0
LINE
  5
269
330
1F
100
AcDbEntity
  8
001
370
    50
100
AcDbLine
 10
151.876711
 20
133.483169
 30
0.0
 11
151.876711
 21
94.483169
 31
0.0
  0
POLYLINE
  5
26A
330
1F
100
AcDbEntity
  8
001
370
    50
100
AcDb2dPolyline
 66
     1
 10
0.0
 20
0.0
 30
0.0
  0
VERTEX
  5
26C
330
26A
100
AcDbEntity
  8
001
370
    50
100
AcDbVertex
100
AcDb2dVertex
 10
148.876711
 20
94.158416
 30
0.0
  0
VERTEX
  5
26D
330
26A
100
AcDbEntity
  8
001
370
    50
100
AcDbVertex
100
AcDb2dVertex
 10
149.013509
 20
93.831637
 30
0.0
  0
VERTEX
  5
26E
330
26A
100
AcDbEntity
  8
001
370
    50
100
AcDbVertex
100
AcDb2dVertex
 10
149.157506
 20
93.508235
 30
0.0
  0
VERTEX
  5
26F
330
26A
100
AcDbEntity
  8
001
370
    50
100
AcDbVertex
100
AcDb2dVertex
 10
149.29077
 20
93.237104
 30
0.0
  0
VERTEX
  5
270
330
26A
100
AcDbEntity
  8
001
370
    50
100
AcDbVertex
100
AcDb2dVertex
 10
149.434536
 20
92.97101
 30
0.0
  0
VERTEX
  5
271
330
26A
100
AcDbEntity
  8
001
370
    50
100
AcDbVertex
100
AcDb2dVertex
 10
149.561259
 20
92.75583
 30
0.0
  0
VERTEX
  5
272
330
26A
100
AcDbEntity
  8
001
370
    50
100
AcDbVertex
100
AcDb2dVertex
 10
149.696501
 20
92.546811
 30
0.0
  0
VERTEX
  5
273
330
26A
100
AcDbEntity
  8
001
370
    50
100
AcDbVertex
100
AcDb2dVertex
 10
149.809628
 20
92.388897
 30
0.0
  0
VERTEX
  5
274
330
26A
100
AcDbEntity
  8
001
370
    50
100
AcDbVertex
100
AcDb2dVertex
 10
149.932102
 20
92.235709
 30
0.0
  0
VERTEX
  5
275
330
26A
100
AcDbEntity
  8
001
370
    50
100
AcDbVertex
100
AcDb2dVertex
 10
150.03073
 20
92.125784
 30
0.0
  0
VERTEX
  5
276
330
26A
100
AcDbEntity
  8
001
370
    50
100
AcDbVertex
100
AcDb2dVertex
 10
150.134071
 20
92.026738
 30
0.0
  0
VERTEX
  5
277
330
26A
100
AcDbEntity
  8
001
370
    50
100
AcDbVertex
100
AcDb2dVertex
 10
150.20471
 20
91.970238
 30
0.0
  0
VERTEX
  5
278
330
26A
100
AcDbEntity
  8
001
370
    50
100
AcDbVertex
100
AcDb2dVertex
 10
150.286187
 20
91.913419
 30
0.0
  0
VERTEX
  5
279
330
26A
100
AcDbEntity
  8
001
370
    50
100
AcDbVertex
100
AcDb2dVertex
 10
150.33348
 20
91.886483
 30
0.0
  0
VERTEX
  5
27A
330
26A
100
AcDbEntity
  8
001
370
    50
100
AcDbVertex
100
AcDb2dVertex
 10
150.378531
 20
91.885316
 30
0.0
  0
VERTEX
  5
27B
330
26A
100
AcDbEntity
  8
001
370
    50
100
AcDbVertex
100
AcDb2dVertex
 10
150.384506
 20
91.888884
 30
0.0
  0
VERTEX
  5
27C
330
26A
100
AcDbEntity
  8
001
370
    50
100
AcDbVertex
100
AcDb2dVertex
 10
150.390376
 20
91.89303
 30
0.0
  0
SEQEND
  5
26B
330
26A
100
AcDbEntity
  8
001
370
    50
  0
POLYLINE
  5
27D
330
1F
100
AcDbEntity
  8
001
  6
DASHED
370
    50
100
AcDb2dPolyline
 66
     1
 10
0.0
 20
0.0
 30
0.0
  0
VERTEX
  5
27F
330
27D
100
AcDbEntity
  8
001
  6
DASHED
370
    50
100
AcDbVertex
100
AcDb2dVertex
 10
92.259008
 20
118.568441
 30
0.0
  0
VERTEX
  5
280
330
27D
100
AcDbEntity
  8
001
  6
DASHED
370
    50
100
AcDbVertex
100
AcDb2dVertex
 10
92.257508
 20
118.566864
 30
0.0
  0
VERTEX
  5
281
330
27D
100
AcDbEntity
  8
001
  6
DASHED
370
    50
100
AcDbVertex
100
AcDb2dVertex
 10
92.255318
 20
118.564558
 30
0.0
  0
VERTEX
  5
282
330
27D
100
AcDbEntity
  8
001
  6
DASHED
370
    50
100
AcDbVertex
100
AcDb2dVertex
 10
92.253125
 20
118.562243
 30
0.0
  0
VERTEX
  5
283
330
27D
100
AcDbEntity
  8
001
  6
DASHED
370
    50
100
AcDbVertex
100
AcDb2dVertex
 10
92.251625
 20
118.560657
 30
0.0
  0
SEQEND
  5
27E
330
27D
100
AcDbEntity
  8
001
  6
DASHED
370
    50
  0
POLYLINE
  5
284
330
1F
100
AcDbEntity
  8
001
370
    50
100
AcDb2dPolyline
 66
     1
 10
0.0
 20
0.0
 30
0.0
  0
VERTEX
  5
286
330
284
100
AcDbEntity
  8
001
370
    50
100
AcDbVertex
100
AcDb2dVertex
 10
71.740449
 20
124.083884
 30
0.0
  0
VERTEX
  5
287
330
284
100
AcDbEntity
  8
001
370
    50
100
AcDbVertex
100
AcDb2dVertex
 10
71.739208
 20
124.0842
 30
0.0
  0
VERTEX
  5
288
330
284
100
AcDbEntity
  8
001
370
    50
100
AcDbVertex
100
AcDb2dVertex
 10
71.737389
 20
124.084645
 30
0.0
  0
VERTEX
  5
289
330
284
100
AcDbEntity
  8
001
370
    50
100
AcDbVertex
100
AcDb2dVertex
 10
71.735563
 20
124.085065
 30
0.0
  0
VERTEX
  5
28A
330
284
100
AcDbEntity
  8
001
370
    50
100
AcDbVertex
100
AcDb2dVertex
 10
71.734311
 20
124.08534
 30
0.0
  0
SEQEND
  5
285
330
284
100
AcDbEntity
  8
001
370
    50
  0
POLYLINE
  5
28B
330
1F
100
AcDbEntity
  8
001
370
    50
100
AcDb2dPolyline
 66
     1
 10
0.0
 20
0.0
 30
0.0
  0
VERTEX
  5
28D
330
28B
100
AcDbEntity
  8
001
370
    50
100
AcDbVertex
100
AcDb2dVertex
 10
56.993093
 20
124.738144
 30
0.0
  0
VERTEX
  5
28E
330
28B
100
AcDbEntity
  8
001
370
    50
100
AcDbVertex
100
AcDb2dVertex
 10
57.338911
 20
124.904022
 30
0.0
  0
VERTEX
  5
28F
330
28B
100
AcDbEntity
  8
001
370
    50
100
AcDbVertex
100
AcDb2dVertex
 10
57.688167
 20
125.061904
 30
0.0
  0
VERTEX
  5
290
330
28B
100
AcDbEntity
  8
001
370
    50
100
AcDbVertex
100
AcDb2dVertex
 10
58.030836
 20
125.201702
 30
0.0
  0
VERTEX
  5
291
330
28B
100
AcDbEntity
  8
001
370
    50
100
AcDbVertex
100
AcDb2dVertex
 10
58.376711
 20
125.334045
 30
0.0
  0
SEQEND
  5
28C
330
28B
100
AcDbEntity
  8
001
370
    50
  0
LINE
  5
292
330
1F
100
AcDbEntity
  8
001
370
    50
100
AcDbLine
 10
154.876711
 20
129.983169
 30
0.0
 11
223.876711
 21
129.983169
 31
0.0
  0
LINE
  5
293
330
1F
100
AcDbEntity
  8
001
370
    50
100
AcDbLine
 10
154.876711
 20
97.983169
 30
0.0
 11
223.876711
 21
97.983169
 31
0.0
  0
ARC
  5
294
330
1F
100
AcDbEntity
  8
001
370
    50
100
AcDbCircle
 10
223.876711
 20
121.983169
 30
0.0
 40
7.99999999999998
100
AcDbArc
 50
0.0
 51
90.0
  0
ARC
  5
295
330
1F
100
AcDbEntity
  8
001
370
    50
100
AcDbCircle
 10
223.876711
 20
105.983169
 30
0.0
 40
7.99999999999998
100
AcDbArc
 50
270.0
 51
0.0
  0
LINE
  5
296
330
1F
100
AcDbEntity
  8
001
370
    50
100
AcDbLine
 10
231.876711
 20
121.983169
 30
0.0
 11
231.876711
 21
105.983169
 31
0.0
  0
LINE
  5
297
330
1F
100
AcDbEntity
  8
001
370
    50
100
AcDbLine
 10
58.376711
 20
130.7994
 30
0.0
 11
56.476711
 21
128.783169
 31
0.0
  0
LINE
  5
298
330
1F
100
AcDbEntity
  8
001
370
    50
100
AcDbLine
 10
56.476711
 20
124.490724
 30
0.0
 11
56.993093
 21
124.738144
 31
0.0
  0
POLYLINE
  5
299
330
1F
100
AcDbEntity
  8
001
370
    50
100
AcDb2dPolyline
 66
     1
 10
0.0
 20
0.0
 30
0.0
  0
VERTEX
  5
29B
330
299
100
AcDbEntity
  8
001
370
    50
100
AcDbVertex
100
AcDb2dVertex
 10
149.537177
 20
92.810593
 30
0.0
  0
VERTEX
  5
29C
330
299
100
AcDbEntity
  8
001
370
    50
100
AcDbVertex
100
AcDb2dVertex
 10
149.409815
 20
92.916975
 30
0.0
  0
VERTEX
  5
29D
330
299
100
AcDbEntity
  8
001
370
    50
100
AcDbVertex
100
AcDb2dVertex
 10
149.282336
 20
93.023218
 30
0.0
  0
VERTEX
  5
29E
330
299
100
AcDbEntity
  8
001
370
    50
100
AcDbVertex
100
AcDb2dVertex
 10
149.07967
 20
93.191317
 30
0.0
  0
VERTEX
  5
29F
330
299
100
AcDbEntity
  8
001
370
    50
100
AcDbVertex
100
AcDb2dVertex
 10
148.876711
 20
93.359066
 30
0.0
  0
SEQEND
  5
29A
330
299
100
AcDbEntity
  8
001
370
    50
  0
POLYLINE
  5
2A0
330
1F
100
AcDbEntity
  8
001
370
    50
100
AcDb2dPolyline
 66
     1
 10
0.0
 20
0.0
 30
0.0
  0
VERTEX
  5
2A2
330
2A0
100
AcDbEntity
  8
001
370
    50
100
AcDbVertex
100
AcDb2dVertex
 10
56.476711
 20
104.141907
 30
0.0
  0
VERTEX
  5
2A3
330
2A0
100
AcDbEntity
  8
001
370
    50
100
AcDbVertex
100
AcDb2dVertex
 10
56.70334
 20
104.143894
 30
0.0
  0
VERTEX
  5
2A4
330
2A0
100
AcDbEntity
  8
001
370
    50
100
AcDbVertex
100
AcDb2dVertex
 10
57.034552
 20
104.148016
 30
0.0
  0
VERTEX
  5
2A5
330
2A0
100
AcDbEntity
  8
001
370
    50
100
AcDbVertex
100
AcDb2dVertex
 10
57.366543
 20
104.15385
 30
0.0
  0
VERTEX
  5
2A6
330
2A0
100
AcDbEntity
  8
001
370
    50
100
AcDbVertex
100
AcDb2dVertex
 10
57.59368
 20
104.158677
 30
0.0
  0
SEQEND
  5
2A1
330
2A0
100
AcDbEntity
  8
001
370
    50
  0
POLYLINE
  5
2A7
330
1F
100
AcDbEntity
  8
001
370
    50
100
AcDb2dPolyline
 66
     1
 10
0.0
 20
0.0
 30
0.0
  0
VERTEX
  5
2A9
330
2A7
100
AcDbEntity
  8
001
370
    50
100
AcDbVertex
100
AcDb2dVertex
 10
57.59368
 20
104.158677
 30
0.0
  0
VERTEX
  5
2AA
330
2A7
100
AcDbEntity
  8
001
370
    50
100
AcDbVertex
100
AcDb2dVertex
 10
57.872121
 20
104.160271
 30
0.0
  0
VERTEX
  5
2AB
330
2A7
100
AcDbEntity
  8
001
370
    50
100
AcDbVertex
100
AcDb2dVertex
 10
58.279052
 20
104.164453
 30
0.0
  0
VERTEX
  5
2AC
330
2A7
100
AcDbEntity
  8
001
370
    50
100
AcDbVertex
100
AcDb2dVertex
 10
58.687206
 20
104.171231
 30
0.0
  0
VERTEX
  5
2AD
330
2A7
100
AcDbEntity
  8
001
370
    50
100
AcDbVertex
100
AcDb2dVertex
 10
58.966448
 20
104.177137
 30
0.0
  0
SEQEND
  5
2A8
330
2A7
100
AcDbEntity
  8
001
370
    50
  0
POLYLINE
  5
2AE
330
1F
100
AcDbEntity
  8
001
370
    50
100
AcDb2dPolyline
 66
     1
 10
0.0
 20
0.0
 30
0.0
  0
VERTEX
  5
2B0
330
2AE
100
AcDbEntity
  8
001
370
    50
100
AcDbVertex
100
AcDb2dVertex
 10
58.966448
 20
104.177137
 30
0.0
  0
VERTEX
  5
2B1
330
2AE
100
AcDbEntity
  8
001
370
    50
100
AcDbVertex
100
AcDb2dVertex
 10
59.183874
 20
104.178326
 30
0.0
  0
VERTEX
  5
2B2
330
2AE
100
AcDbEntity
  8
001
370
    50
100
AcDbVertex
100
AcDb2dVertex
 10
59.50164
 20
104.181199
 30
0.0
  0
VERTEX
  5
2B3
330
2AE
100
AcDbEntity
  8
001
370
    50
100
AcDbVertex
100
AcDb2dVertex
 10
59.820189
 20
104.185661
 30
0.0
  0
VERTEX
  5
2B4
330
2AE
100
AcDbEntity
  8
001
370
    50
100
AcDbVertex
100
AcDb2dVertex
 10
60.038132
 20
104.189492
 30
0.0
  0
SEQEND
  5
2AF
330
2AE
100
AcDbEntity
  8
001
370
    50
  0
POLYLINE
  5
2B5
330
1F
100
AcDbEntity
  8
001
370
    50
100
AcDb2dPolyline
 66
     1
 10
0.0
 20
0.0
 30
0.0
  0
VERTEX
  5
2B7
330
2B5
100
AcDbEntity
  8
001
370
    50
100
AcDbVertex
100
AcDb2dVertex
 10
60.038132
 20
104.189492
 30
0.0
  0
VERTEX
  5
2B8
330
2B5
100
AcDbEntity
  8
001
370
    50
100
AcDbVertex
100
AcDb2dVertex
 10
60.102866
 20
104.254497
 30
0.0
  0
VERTEX
  5
2B9
330
2B5
100
AcDbEntity
  8
001
370
    50
100
AcDbVertex
100
AcDb2dVertex
 10
60.197424
 20
104.349556
 30
0.0
  0
VERTEX
  5
2BA
330
2B5
100
AcDbEntity
  8
001
370
    50
100
AcDbVertex
100
AcDb2dVertex
 10
60.292077
 20
104.444854
 30
0.0
  0
VERTEX
  5
2BB
330
2B5
100
AcDbEntity
  8
001
370
    50
100
AcDbVertex
100
AcDb2dVertex
 10
60.356804
 20
104.510093
 30
0.0
  0
SEQEND
  5
2B6
330
2B5
100
AcDbEntity
  8
001
370
    50
  0
POLYLINE
  5
2BC
330
1F
100
AcDbEntity
  8
001
370
    50
100
AcDb2dPolyline
 66
     1
 10
0.0
 20
0.0
 30
0.0
  0
VERTEX
  5
2BE
330
2BC
100
AcDbEntity
  8
001
370
    50
100
AcDbVertex
100
AcDb2dVertex
 10
63.195472
 20
106.176438
 30
0.0
  0
VERTEX
  5
2BF
330
2BC
100
AcDbEntity
  8
001
370
    50
100
AcDbVertex
100
AcDb2dVertex
 10
62.859754
 20
106.112346
 30
0.0
  0
VERTEX
  5
2C0
330
2BC
100
AcDbEntity
  8
001
370
    50
100
AcDbVertex
100
AcDb2dVertex
 10
62.528539
 20
106.030884
 30
0.0
  0
VERTEX
  5
2C1
330
2BC
100
AcDbEntity
  8
001
370
    50
100
AcDbVertex
100
AcDb2dVertex
 10
62.197253
 20
105.914916
 30
0.0
  0
VERTEX
  5
2C2
330
2BC
100
AcDbEntity
  8
001
370
    50
100
AcDbVertex
100
AcDb2dVertex
 10
61.878212
 20
105.767985
 30
0.0
  0
VERTEX
  5
2C3
330
2BC
100
AcDbEntity
  8
001
370
    50
100
AcDbVertex
100
AcDb2dVertex
 10
61.837991
 20
105.747064
 30
0.0
  0
VERTEX
  5
2C4
330
2BC
100
AcDbEntity
  8
001
370
    50
100
AcDbVertex
100
AcDb2dVertex
 10
61.797894
 20
105.725932
 30
0.0
  0
SEQEND
  5
2BD
330
2BC
100
AcDbEntity
  8
001
370
    50
  0
LINE
  5
2C5
330
1F
100
AcDbEntity
  8
001
370
    50
100
AcDbLine
 10
63.588203
 20
106.202179
 30
0.0
 11
63.195472
 21
106.176438
 31
0.0
  0
POLYLINE
  5
2C6
330
1F
100
AcDbEntity
  8
001
370
    50
100
AcDb2dPolyline
 66
     1
 10
0.0
 20
0.0
 30
0.0
  0
VERTEX
  5
2C8
330
2C6
100
AcDbEntity
  8
001
370
    50
100
AcDbVertex
100
AcDb2dVertex
 10
61.797894
 20
105.725932
 30
0.0
  0
VERTEX
  5
2C9
330
2C6
100
AcDbEntity
  8
001
370
    50
100
AcDbVertex
100
AcDb2dVertex
 10
61.556797
 20
105.578718
 30
0.0
  0
VERTEX
  5
2CA
330
2C6
100
AcDbEntity
  8
001
370
    50
100
AcDbVertex
100
AcDb2dVertex
 10
61.324545
 20
105.419738
 30
0.0
  0
VERTEX
  5
2CB
330
2C6
100
AcDbEntity
  8
001
370
    50
100
AcDbVertex
100
AcDb2dVertex
 10
61.102963
 20
105.237491
 30
0.0
  0
VERTEX
  5
2CC
330
2C6
100
AcDbEntity
  8
001
370
    50
100
AcDbVertex
100
AcDb2dVertex
 10
60.890571
 20
105.043016
 30
0.0
  0
SEQEND
  5
2C7
330
2C6
100
AcDbEntity
  8
001
370
    50
  0
POLYLINE
  5
2CD
330
1F
100
AcDbEntity
  8
001
370
    50
100
AcDb2dPolyline
 66
     1
 10
0.0
 20
0.0
 30
0.0
  0
VERTEX
  5
2CF
330
2CD
100
AcDbEntity
  8
001
370
    50
100
AcDbVertex
100
AcDb2dVertex
 10
60.356804
 20
104.510093
 30
0.0
  0
VERTEX
  5
2D0
330
2CD
100
AcDbEntity
  8
001
370
    50
100
AcDbVertex
100
AcDb2dVertex
 10
60.465193
 20
104.617969
 30
0.0
  0
VERTEX
  5
2D1
330
2CD
100
AcDbEntity
  8
001
370
    50
100
AcDbVertex
100
AcDb2dVertex
 10
60.623461
 20
104.775782
 30
0.0
  0
VERTEX
  5
2D2
330
2CD
100
AcDbEntity
  8
001
370
    50
100
AcDbVertex
100
AcDb2dVertex
 10
60.782117
 20
104.934393
 30
0.0
  0
VERTEX
  5
2D3
330
2CD
100
AcDbEntity
  8
001
370
    50
100
AcDbVertex
100
AcDb2dVertex
 10
60.890571
 20
105.043016
 30
0.0
  0
SEQEND
  5
2CE
330
2CD
100
AcDbEntity
  8
001
370
    50
  0
POLYLINE
  5
2D4
330
1F
100
AcDbEntity
  8
001
370
    50
100
AcDb2dPolyline
 66
     1
 10
0.0
 20
0.0
 30
0.0
  0
VERTEX
  5
2D6
330
2D4
100
AcDbEntity
  8
001
370
    50
100
AcDbVertex
100
AcDb2dVertex
 10
63.588203
 20
106.202179
 30
0.0
  0
VERTEX
  5
2D7
330
2D4
100
AcDbEntity
  8
001
370
    50
100
AcDbVertex
100
AcDb2dVertex
 10
63.787498
 20
106.20589
 30
0.0
  0
VERTEX
  5
2D8
330
2D4
100
AcDbEntity
  8
001
370
    50
100
AcDbVertex
100
AcDb2dVertex
 10
64.078756
 20
106.212273
 30
0.0
  0
VERTEX
  5
2D9
330
2D4
100
AcDbEntity
  8
001
370
    50
100
AcDbVertex
100
AcDb2dVertex
 10
64.370228
 20
106.219995
 30
0.0
  0
VERTEX
  5
2DA
330
2D4
100
AcDbEntity
  8
001
370
    50
100
AcDbVertex
100
AcDb2dVertex
 10
64.569639
 20
106.225935
 30
0.0
  0
SEQEND
  5
2D5
330
2D4
100
AcDbEntity
  8
001
370
    50
  0
POLYLINE
  5
2DB
330
1F
100
AcDbEntity
  8
001
370
    50
100
AcDb2dPolyline
 66
     1
 10
0.0
 20
0.0
 30
0.0
  0
VERTEX
  5
2DD
330
2DB
100
AcDbEntity
  8
001
370
    50
100
AcDbVertex
100
AcDb2dVertex
 10
64.569639
 20
106.225935
 30
0.0
  0
VERTEX
  5
2DE
330
2DB
100
AcDbEntity
  8
001
370
    50
100
AcDbVertex
100
AcDb2dVertex
 10
64.848355
 20
106.229764
 30
0.0
  0
VERTEX
  5
2DF
330
2DB
100
AcDbEntity
  8
001
370
    50
100
AcDbVertex
100
AcDb2dVertex
 10
65.255675
 20
106.237249
 30
0.0
  0
VERTEX
  5
2E0
330
2DB
100
AcDbEntity
  8
001
370
    50
100
AcDbVertex
100
AcDb2dVertex
 10
65.663511
 20
106.247375
 30
0.0
  0
VERTEX
  5
2E1
330
2DB
100
AcDbEntity
  8
001
370
    50
100
AcDbVertex
100
AcDb2dVertex
 10
65.942525
 20
106.255596
 30
0.0
  0
SEQEND
  5
2DC
330
2DB
100
AcDbEntity
  8
001
370
    50
  0
POLYLINE
  5
2E2
330
1F
100
AcDbEntity
  8
001
370
    50
100
AcDb2dPolyline
 66
     1
 10
0.0
 20
0.0
 30
0.0
  0
VERTEX
  5
2E4
330
2E2
100
AcDbEntity
  8
001
370
    50
100
AcDbVertex
100
AcDb2dVertex
 10
65.942525
 20
106.255596
 30
0.0
  0
VERTEX
  5
2E5
330
2E2
100
AcDbEntity
  8
001
370
    50
100
AcDbVertex
100
AcDb2dVertex
 10
66.221244
 20
106.259494
 30
0.0
  0
VERTEX
  5
2E6
330
2E2
100
AcDbEntity
  8
001
370
    50
100
AcDbVertex
100
AcDb2dVertex
 10
66.628567
 20
106.267089
 30
0.0
  0
VERTEX
  5
2E7
330
2E2
100
AcDbEntity
  8
001
370
    50
100
AcDbVertex
100
AcDb2dVertex
 10
67.036341
 20
106.277339
 30
0.0
  0
VERTEX
  5
2E8
330
2E2
100
AcDbEntity
  8
001
370
    50
100
AcDbVertex
100
AcDb2dVertex
 10
67.315311
 20
106.285652
 30
0.0
  0
SEQEND
  5
2E3
330
2E2
100
AcDbEntity
  8
001
370
    50
  0
POLYLINE
  5
2E9
330
1F
100
AcDbEntity
  8
001
370
    50
100
AcDb2dPolyline
 66
     1
 10
0.0
 20
0.0
 30
0.0
  0
VERTEX
  5
2EB
330
2E9
100
AcDbEntity
  8
001
370
    50
100
AcDbVertex
100
AcDb2dVertex
 10
67.315311
 20
106.285652
 30
0.0
  0
VERTEX
  5
2EC
330
2E9
100
AcDbEntity
  8
001
370
    50
100
AcDbVertex
100
AcDb2dVertex
 10
67.403455
 20
106.28676
 30
0.0
  0
VERTEX
  5
2ED
330
2E9
100
AcDbEntity
  8
001
370
    50
100
AcDbVertex
100
AcDb2dVertex
 10
67.532279
 20
106.288572
 30
0.0
  0
VERTEX
  5
2EE
330
2E9
100
AcDbEntity
  8
001
370
    50
100
AcDbVertex
100
AcDb2dVertex
 10
67.66118
 20
106.290652
 30
0.0
  0
VERTEX
  5
2EF
330
2E9
100
AcDbEntity
  8
001
370
    50
100
AcDbVertex
100
AcDb2dVertex
 10
67.749373
 20
106.292206
 30
0.0
  0
SEQEND
  5
2EA
330
2E9
100
AcDbEntity
  8
001
370
    50
  0
POLYLINE
  5
2F0
330
1F
100
AcDbEntity
  8
001
370
    50
100
AcDb2dPolyline
 66
     1
 10
0.0
 20
0.0
 30
0.0
  0
VERTEX
  5
2F2
330
2F0
100
AcDbEntity
  8
001
370
    50
100
AcDbVertex
100
AcDb2dVertex
 10
68.720257
 20
106.860654
 30
0.0
  0
VERTEX
  5
2F3
330
2F0
100
AcDbEntity
  8
001
370
    50
100
AcDbVertex
100
AcDb2dVertex
 10
68.457706
 20
106.748739
 30
0.0
  0
VERTEX
  5
2F4
330
2F0
100
AcDbEntity
  8
001
370
    50
100
AcDbVertex
100
AcDb2dVertex
 10
68.205203
 20
106.619686
 30
0.0
  0
VERTEX
  5
2F5
330
2F0
100
AcDbEntity
  8
001
370
    50
100
AcDbVertex
100
AcDb2dVertex
 10
67.972394
 20
106.464294
 30
0.0
  0
VERTEX
  5
2F6
330
2F0
100
AcDbEntity
  8
001
370
    50
100
AcDbVertex
100
AcDb2dVertex
 10
67.749373
 20
106.292206
 30
0.0
  0
SEQEND
  5
2F1
330
2F0
100
AcDbEntity
  8
001
370
    50
  0
LINE
  5
2F7
330
1F
100
AcDbEntity
  8
001
370
    50
100
AcDbLine
 10
70.100716
 20
107.021449
 30
0.0
 11
69.749774
 21
107.041863
 31
0.0
  0
POLYLINE
  5
2F8
330
1F
100
AcDbEntity
  8
001
370
    50
100
AcDb2dPolyline
 66
     1
 10
0.0
 20
0.0
 30
0.0
  0
VERTEX
  5
2FA
330
2F8
100
AcDbEntity
  8
001
370
    50
100
AcDbVertex
100
AcDb2dVertex
 10
69.749774
 20
107.041863
 30
0.0
  0
VERTEX
  5
2FB
330
2F8
100
AcDbEntity
  8
001
370
    50
100
AcDbVertex
100
AcDb2dVertex
 10
69.637976
 20
107.038861
 30
0.0
  0
VERTEX
  5
2FC
330
2F8
100
AcDbEntity
  8
001
370
    50
100
AcDbVertex
100
AcDb2dVertex
 10
69.526252
 20
107.033563
 30
0.0
  0
VERTEX
  5
2FD
330
2F8
100
AcDbEntity
  8
001
370
    50
100
AcDbVertex
100
AcDb2dVertex
 10
69.322491
 20
107.012582
 30
0.0
  0
VERTEX
  5
2FE
330
2F8
100
AcDbEntity
  8
001
370
    50
100
AcDbVertex
100
AcDb2dVertex
 10
69.121096
 20
106.975621
 30
0.0
  0
VERTEX
  5
2FF
330
2F8
100
AcDbEntity
  8
001
370
    50
100
AcDbVertex
100
AcDb2dVertex
 10
68.919576
 20
106.922442
 30
0.0
  0
VERTEX
  5
300
330
2F8
100
AcDbEntity
  8
001
370
    50
100
AcDbVertex
100
AcDb2dVertex
 10
68.720257
 20
106.860654
 30
0.0
  0
SEQEND
  5
2F9
330
2F8
100
AcDbEntity
  8
001
370
    50
  0
POLYLINE
  5
301
330
1F
100
AcDbEntity
  8
001
370
    50
100
AcDb2dPolyline
 66
     1
 10
0.0
 20
0.0
 30
0.0
  0
VERTEX
  5
303
330
301
100
AcDbEntity
  8
001
370
    50
100
AcDbVertex
100
AcDb2dVertex
 10
71.440985
 20
106.510851
 30
0.0
  0
VERTEX
  5
304
330
301
100
AcDbEntity
  8
001
370
    50
100
AcDbVertex
100
AcDb2dVertex
 10
71.404113
 20
106.536069
 30
0.0
  0
VERTEX
  5
305
330
301
100
AcDbEntity
  8
001
370
    50
100
AcDbVertex
100
AcDb2dVertex
 10
71.367029
 20
106.56097
 30
0.0
  0
VERTEX
  5
306
330
301
100
AcDbEntity
  8
001
370
    50
100
AcDbVertex
100
AcDb2dVertex
 10
71.157061
 20
106.686562
 30
0.0
  0
VERTEX
  5
307
330
301
100
AcDbEntity
  8
001
370
    50
100
AcDbVertex
100
AcDb2dVertex
 10
70.936891
 20
106.794117
 30
0.0
  0
VERTEX
  5
308
330
301
100
AcDbEntity
  8
001
370
    50
100
AcDbVertex
100
AcDb2dVertex
 10
70.702104
 20
106.886101
 30
0.0
  0
VERTEX
  5
309
330
301
100
AcDbEntity
  8
001
370
    50
100
AcDbVertex
100
AcDb2dVertex
 10
70.460356
 20
106.956047
 30
0.0
  0
VERTEX
  5
30A
330
301
100
AcDbEntity
  8
001
370
    50
100
AcDbVertex
100
AcDb2dVertex
 10
70.281291
 20
106.992176
 30
0.0
  0
VERTEX
  5
30B
330
301
100
AcDbEntity
  8
001
370
    50
100
AcDbVertex
100
AcDb2dVertex
 10
70.100716
 20
107.021449
 30
0.0
  0
SEQEND
  5
302
330
301
100
AcDbEntity
  8
001
370
    50
  0
LINE
  5
30C
330
1F
100
AcDbEntity
  8
001
370
    50
100
AcDbLine
 10
71.61087
 20
106.380495
 30
0.0
 11
71.440985
 21
106.510851
 31
0.0
  0
POLYLINE
  5
30D
330
1F
100
AcDbEntity
  8
001
370
    50
100
AcDb2dPolyline
 66
     1
 10
0.0
 20
0.0
 30
0.0
  0
VERTEX
  5
30F
330
30D
100
AcDbEntity
  8
001
370
    50
100
AcDbVertex
100
AcDb2dVertex
 10
71.741852
 20
101.941083
 30
0.0
  0
VERTEX
  5
310
330
30D
100
AcDbEntity
  8
001
370
    50
100
AcDbVertex
100
AcDb2dVertex
 10
71.874616
 20
102.086142
 30
0.0
  0
VERTEX
  5
311
330
30D
100
AcDbEntity
  8
001
370
    50
100
AcDbVertex
100
AcDb2dVertex
 10
72.001452
 20
102.236051
 30
0.0
  0
VERTEX
  5
312
330
30D
100
AcDbEntity
  8
001
370
    50
100
AcDbVertex
100
AcDb2dVertex
 10
72.117377
 20
102.394252
 30
0.0
  0
VERTEX
  5
313
330
30D
100
AcDbEntity
  8
001
370
    50
100
AcDbVertex
100
AcDb2dVertex
 10
72.222352
 20
102.560203
 30
0.0
  0
VERTEX
  5
314
330
30D
100
AcDbEntity
  8
001
370
    50
100
AcDbVertex
100
AcDb2dVertex
 10
72.342233
 20
102.782599
 30
0.0
  0
VERTEX
  5
315
330
30D
100
AcDbEntity
  8
001
370
    50
100
AcDbVertex
100
AcDb2dVertex
 10
72.444283
 20
103.013634
 30
0.0
  0
VERTEX
  5
316
330
30D
100
AcDbEntity
  8
001
370
    50
100
AcDbVertex
100
AcDb2dVertex
 10
72.527116
 20
103.251202
 30
0.0
  0
VERTEX
  5
317
330
30D
100
AcDbEntity
  8
001
370
    50
100
AcDbVertex
100
AcDb2dVertex
 10
72.590275
 20
103.494744
 30
0.0
  0
VERTEX
  5
318
330
30D
100
AcDbEntity
  8
001
370
    50
100
AcDbVertex
100
AcDb2dVertex
 10
72.633808
 20
103.74866
 30
0.0
  0
VERTEX
  5
319
330
30D
100
AcDbEntity
  8
001
370
    50
100
AcDbVertex
100
AcDb2dVertex
 10
72.655785
 20
104.005404
 30
0.0
  0
VERTEX
  5
31A
330
30D
100
AcDbEntity
  8
001
370
    50
100
AcDbVertex
100
AcDb2dVertex
 10
72.656095
 20
104.262344
 30
0.0
  0
VERTEX
  5
31B
330
30D
100
AcDbEntity
  8
001
370
    50
100
AcDbVertex
100
AcDb2dVertex
 10
72.634187
 20
104.518207
 30
0.0
  0
VERTEX
  5
31C
330
30D
100
AcDbEntity
  8
001
370
    50
100
AcDbVertex
100
AcDb2dVertex
 10
72.589925
 20
104.769862
 30
0.0
  0
VERTEX
  5
31D
330
30D
100
AcDbEntity
  8
001
370
    50
100
AcDbVertex
100
AcDb2dVertex
 10
72.5244
 20
105.017149
 30
0.0
  0
VERTEX
  5
31E
330
30D
100
AcDbEntity
  8
001
370
    50
100
AcDbVertex
100
AcDb2dVertex
 10
72.438533
 20
105.258067
 30
0.0
  0
VERTEX
  5
31F
330
30D
100
AcDbEntity
  8
001
370
    50
100
AcDbVertex
100
AcDb2dVertex
 10
72.330217
 20
105.489054
 30
0.0
  0
VERTEX
  5
320
330
30D
100
AcDbEntity
  8
001
370
    50
100
AcDbVertex
100
AcDb2dVertex
 10
72.193049
 20
105.716945
 30
0.0
  0
VERTEX
  5
321
330
30D
100
AcDbEntity
  8
001
370
    50
100
AcDbVertex
100
AcDb2dVertex
 10
72.042153
 20
105.937045
 30
0.0
  0
SEQEND
  5
30E
330
30D
100
AcDbEntity
  8
001
370
    50
  0
ARC
  5
322
330
1F
100
AcDbEntity
  8
001
370
    50
100
AcDbCircle
 10
70.573235
 20
104.939882
 30
0.0
 40
1.775401860022642
100
AcDbArc
 50
34.170292
 51
54.235812
  0
LINE
  5
323
330
1F
100
AcDbEntity
  8
001
370
    50
100
AcDbLine
 10
56.476711
 20
104.091496
 30
0.0
 11
56.476711
 21
128.783169
 31
0.0
  0
LINE
  5
324
330
1F
100
AcDbEntity
  8
001
370
    50
100
AcDbLine
 10
58.376711
 20
125.334045
 30
0.0
 11
58.376711
 21
136.483169
 31
0.0
  0
LINE
  5
325
330
1F
100
AcDbEntity
  8
001
370
    50
100
AcDbLine
 10
60.038132
 20
104.189492
 30
0.0
 11
60.018999
 21
104.112552
 31
0.0
  0
POLYLINE
  5
326
330
1F
100
AcDbEntity
  8
001
370
    50
100
AcDb2dPolyline
 66
     1
 10
0.0
 20
0.0
 30
0.0
  0
VERTEX
  5
328
330
326
100
AcDbEntity
  8
001
370
    50
100
AcDbVertex
100
AcDb2dVertex
 10
62.657395
 20
104.765889
 30
0.0
  0
VERTEX
  5
329
330
326
100
AcDbEntity
  8
001
370
    50
100
AcDbVertex
100
AcDb2dVertex
 10
62.458617
 20
104.754659
 30
0.0
  0
VERTEX
  5
32A
330
326
100
AcDbEntity
  8
001
370
    50
100
AcDbVertex
100
AcDb2dVertex
 10
62.186038
 20
104.719644
 30
0.0
  0
VERTEX
  5
32B
330
326
100
AcDbEntity
  8
001
370
    50
100
AcDbVertex
100
AcDb2dVertex
 10
61.943757
 20
104.660344
 30
0.0
  0
VERTEX
  5
32C
330
326
100
AcDbEntity
  8
001
370
    50
100
AcDbVertex
100
AcDb2dVertex
 10
61.732119
 20
104.582621
 30
0.0
  0
VERTEX
  5
32D
330
326
100
AcDbEntity
  8
001
370
    50
100
AcDbVertex
100
AcDb2dVertex
 10
61.526717
 20
104.488532
 30
0.0
  0
VERTEX
  5
32E
330
326
100
AcDbEntity
  8
001
370
    50
100
AcDbVertex
100
AcDb2dVertex
 10
61.312431
 20
104.359888
 30
0.0
  0
VERTEX
  5
32F
330
326
100
AcDbEntity
  8
001
370
    50
100
AcDbVertex
100
AcDb2dVertex
 10
61.142266
 20
104.232468
 30
0.0
  0
VERTEX
  5
330
330
326
100
AcDbEntity
  8
001
370
    50
100
AcDbVertex
100
AcDb2dVertex
 10
60.999678
 20
104.112552
 30
0.0
  0
SEQEND
  5
327
330
326
100
AcDbEntity
  8
001
370
    50
  0
LINE
  5
331
330
1F
100
AcDbEntity
  8
001
370
    50
100
AcDbLine
 10
62.960511
 20
104.765889
 30
0.0
 11
62.657395
 21
104.765889
 31
0.0
  0
POLYLINE
  5
332
330
1F
100
AcDbEntity
  8
001
370
    50
100
AcDb2dPolyline
 66
     1
 10
0.0
 20
0.0
 30
0.0
  0
VERTEX
  5
334
330
332
100
AcDbEntity
  8
001
370
    50
100
AcDbVertex
100
AcDb2dVertex
 10
67.749373
 20
106.292206
 30
0.0
  0
VERTEX
  5
335
330
332
100
AcDbEntity
  8
001
370
    50
100
AcDbVertex
100
AcDb2dVertex
 10
67.5831
 20
106.192074
 30
0.0
  0
VERTEX
  5
336
330
332
100
AcDbEntity
  8
001
370
    50
100
AcDbVertex
100
AcDb2dVertex
 10
67.346837
 20
106.041863
 30
0.0
  0
SEQEND
  5
333
330
332
100
AcDbEntity
  8
001
370
    50
  0
POLYLINE
  5
337
330
1F
100
AcDbEntity
  8
001
370
    50
100
AcDb2dPolyline
 66
     1
 10
0.0
 20
0.0
 30
0.0
  0
VERTEX
  5
339
330
337
100
AcDbEntity
  8
001
370
    50
100
AcDbVertex
100
AcDb2dVertex
 10
69.610534
 20
101.186819
 30
0.0
  0
VERTEX
  5
33A
330
337
100
AcDbEntity
  8
001
370
    50
100
AcDbVertex
100
AcDb2dVertex
 10
69.77117
 20
101.244053
 30
0.0
  0
VERTEX
  5
33B
330
337
100
AcDbEntity
  8
001
370
    50
100
AcDbVertex
100
AcDb2dVertex
 10
69.935159
 20
101.31012
 30
0.0
  0
VERTEX
  5
33C
330
337
100
AcDbEntity
  8
001
370
    50
100
AcDbVertex
100
AcDb2dVertex
 10
70.186344
 20
101.437282
 30
0.0
  0
VERTEX
  5
33D
330
337
100
AcDbEntity
  8
001
370
    50
100
AcDbVertex
100
AcDb2dVertex
 10
70.402788
 20
101.58029
 30
0.0
  0
VERTEX
  5
33E
330
337
100
AcDbEntity
  8
001
370
    50
100
AcDbVertex
100
AcDb2dVertex
 10
70.613635
 20
101.746026
 30
0.0
  0
VERTEX
  5
33F
330
337
100
AcDbEntity
  8
001
370
    50
100
AcDbVertex
100
AcDb2dVertex
 10
70.814412
 20
101.932093
 30
0.0
  0
VERTEX
  5
340
330
337
100
AcDbEntity
  8
001
370
    50
100
AcDbVertex
100
AcDb2dVertex
 10
70.995789
 20
102.13541
 30
0.0
  0
VERTEX
  5
341
330
337
100
AcDbEntity
  8
001
370
    50
100
AcDbVertex
100
AcDb2dVertex
 10
71.15638
 20
102.353863
 30
0.0
  0
VERTEX
  5
342
330
337
100
AcDbEntity
  8
001
370
    50
100
AcDbVertex
100
AcDb2dVertex
 10
71.29745
 20
102.586781
 30
0.0
  0
VERTEX
  5
343
330
337
100
AcDbEntity
  8
001
370
    50
100
AcDbVertex
100
AcDb2dVertex
 10
71.417351
 20
102.831612
 30
0.0
  0
VERTEX
  5
344
330
337
100
AcDbEntity
  8
001
370
    50
100
AcDbVertex
100
AcDb2dVertex
 10
71.514732
 20
103.08671
 30
0.0
  0
VERTEX
  5
345
330
337
100
AcDbEntity
  8
001
370
    50
100
AcDbVertex
100
AcDb2dVertex
 10
71.588672
 20
103.349496
 30
0.0
  0
VERTEX
  5
346
330
337
100
AcDbEntity
  8
001
370
    50
100
AcDbVertex
100
AcDb2dVertex
 10
71.638798
 20
103.618208
 30
0.0
  0
VERTEX
  5
347
330
337
100
AcDbEntity
  8
001
370
    50
100
AcDbVertex
100
AcDb2dVertex
 10
71.664659
 20
103.890342
 30
0.0
  0
VERTEX
  5
348
330
337
100
AcDbEntity
  8
001
370
    50
100
AcDbVertex
100
AcDb2dVertex
 10
71.66599
 20
104.163769
 30
0.0
  0
VERTEX
  5
349
330
337
100
AcDbEntity
  8
001
370
    50
100
AcDbVertex
100
AcDb2dVertex
 10
71.642794
 20
104.436213
 30
0.0
  0
VERTEX
  5
34A
330
337
100
AcDbEntity
  8
001
370
    50
100
AcDbVertex
100
AcDb2dVertex
 10
71.595259
 20
104.705287
 30
0.0
  0
VERTEX
  5
34B
330
337
100
AcDbEntity
  8
001
370
    50
100
AcDbVertex
100
AcDb2dVertex
 10
71.523801
 20
104.969006
 30
0.0
  0
VERTEX
  5
34C
330
337
100
AcDbEntity
  8
001
370
    50
100
AcDbVertex
100
AcDb2dVertex
 10
71.429097
 20
105.224805
 30
0.0
  0
VERTEX
  5
34D
330
337
100
AcDbEntity
  8
001
370
    50
100
AcDbVertex
100
AcDb2dVertex
 10
71.311626
 20
105.471051
 30
0.0
  0
VERTEX
  5
34E
330
337
100
AcDbEntity
  8
001
370
    50
100
AcDbVertex
100
AcDb2dVertex
 10
71.172548
 20
105.705173
 30
0.0
  0
VERTEX
  5
34F
330
337
100
AcDbEntity
  8
001
370
    50
100
AcDbVertex
100
AcDb2dVertex
 10
71.013307
 20
105.925701
 30
0.0
  0
VERTEX
  5
350
330
337
100
AcDbEntity
  8
001
370
    50
100
AcDbVertex
100
AcDb2dVertex
 10
70.835776
 20
106.130186
 30
0.0
  0
VERTEX
  5
351
330
337
100
AcDbEntity
  8
001
370
    50
100
AcDbVertex
100
AcDb2dVertex
 10
70.638736
 20
106.317877
 30
0.0
  0
VERTEX
  5
352
330
337
100
AcDbEntity
  8
001
370
    50
100
AcDbVertex
100
AcDb2dVertex
 10
70.423738
 20
106.486775
 30
0.0
  0
VERTEX
  5
353
330
337
100
AcDbEntity
  8
001
370
    50
100
AcDbVertex
100
AcDb2dVertex
 10
70.200334
 20
106.634573
 30
0.0
  0
VERTEX
  5
354
330
337
100
AcDbEntity
  8
001
370
    50
100
AcDbVertex
100
AcDb2dVertex
 10
69.973144
 20
106.759267
 30
0.0
  0
VERTEX
  5
355
330
337
100
AcDbEntity
  8
001
370
    50
100
AcDbVertex
100
AcDb2dVertex
 10
69.712642
 20
106.865287
 30
0.0
  0
VERTEX
  5
356
330
337
100
AcDbEntity
  8
001
370
    50
100
AcDbVertex
100
AcDb2dVertex
 10
69.413176
 20
106.952885
 30
0.0
  0
VERTEX
  5
357
330
337
100
AcDbEntity
  8
001
370
    50
100
AcDbVertex
100
AcDb2dVertex
 10
69.191832
 20
107.002367
 30
0.0
  0
SEQEND
  5
338
330
337
100
AcDbEntity
  8
001
370
    50
  0
POLYLINE
  5
358
330
1F
100
AcDbEntity
  8
001
370
    50
100
AcDb2dPolyline
 66
     1
 10
0.0
 20
0.0
 30
0.0
  0
VERTEX
  5
35A
330
358
100
AcDbEntity
  8
001
370
    50
100
AcDbVertex
100
AcDb2dVertex
 10
69.610534
 20
101.163622
 30
0.0
  0
VERTEX
  5
35B
330
358
100
AcDbEntity
  8
001
370
    50
100
AcDbVertex
100
AcDb2dVertex
 10
69.931458
 20
101.230691
 30
0.0
  0
VERTEX
  5
35C
330
358
100
AcDbEntity
  8
001
370
    50
100
AcDbVertex
100
AcDb2dVertex
 10
70.275789
 20
101.311861
 30
0.0
  0
VERTEX
  5
35D
330
358
100
AcDbEntity
  8
001
370
    50
100
AcDbVertex
100
AcDb2dVertex
 10
70.671837
 20
101.428503
 30
0.0
  0
VERTEX
  5
35E
330
358
100
AcDbEntity
  8
001
370
    50
100
AcDbVertex
100
AcDb2dVertex
 10
71.056155
 20
101.585108
 30
0.0
  0
VERTEX
  5
35F
330
358
100
AcDbEntity
  8
001
370
    50
100
AcDbVertex
100
AcDb2dVertex
 10
71.45518
 20
101.782249
 30
0.0
  0
VERTEX
  5
360
330
358
100
AcDbEntity
  8
001
370
    50
100
AcDbVertex
100
AcDb2dVertex
 10
71.741852
 20
101.941083
 30
0.0
  0
SEQEND
  5
359
330
358
100
AcDbEntity
  8
001
370
    50
  0
POLYLINE
  5
361
330
1F
100
AcDbEntity
  8
001
370
    50
100
AcDb2dPolyline
 66
     1
 10
0.0
 20
0.0
 30
0.0
  0
VERTEX
  5
363
330
361
100
AcDbEntity
  8
001
370
    50
100
AcDbVertex
100
AcDb2dVertex
 10
71.741852
 20
101.941083
 30
0.0
  0
VERTEX
  5
364
330
361
100
AcDbEntity
  8
001
370
    50
100
AcDbVertex
100
AcDb2dVertex
 10
71.618413
 20
100.187751
 30
0.0
  0
VERTEX
  5
365
330
361
100
AcDbEntity
  8
001
370
    50
100
AcDbVertex
100
AcDb2dVertex
 10
71.443911
 20
97.604068
 30
0.0
  0
SEQEND
  5
362
330
361
100
AcDbEntity
  8
001
370
    50
  0
POLYLINE
  5
366
330
1F
100
AcDbEntity
  8
001
370
    50
100
AcDb2dPolyline
 66
     1
 10
0.0
 20
0.0
 30
0.0
  0
VERTEX
  5
368
330
366
100
AcDbEntity
  8
001
370
    50
100
AcDbVertex
100
AcDb2dVertex
 10
71.11084
 20
92.197572
 30
0.0
  0
VERTEX
  5
369
330
366
100
AcDbEntity
  8
001
370
    50
100
AcDbVertex
100
AcDb2dVertex
 10
71.088329
 20
91.807837
 30
0.0
  0
VERTEX
  5
36A
330
366
100
AcDbEntity
  8
001
370
    50
100
AcDbVertex
100
AcDb2dVertex
 10
71.0704
 20
91.494077
 30
0.0
  0
SEQEND
  5
367
330
366
100
AcDbEntity
  8
001
370
    50
  0
LINE
  5
36B
330
1F
100
AcDbEntity
  8
001
370
    50
100
AcDbLine
 10
69.427033
 20
91.883361
 30
0.0
 11
69.427033
 21
92.096174
 31
0.0
  0
POLYLINE
  5
36C
330
1F
100
AcDbEntity
  8
001
370
    50
100
AcDb2dPolyline
 66
     1
 10
0.0
 20
0.0
 30
0.0
  0
VERTEX
  5
36E
330
36C
100
AcDbEntity
  8
001
370
    50
100
AcDbVertex
100
AcDb2dVertex
 10
64.729317
 20
91.741104
 30
0.0
  0
VERTEX
  5
36F
330
36C
100
AcDbEntity
  8
001
370
    50
100
AcDbVertex
100
AcDb2dVertex
 10
67.527361
 20
91.822435
 30
0.0
  0
VERTEX
  5
370
330
36C
100
AcDbEntity
  8
001
370
    50
100
AcDbVertex
100
AcDb2dVertex
 10
69.427033
 20
91.883361
 30
0.0
  0
SEQEND
  5
36D
330
36C
100
AcDbEntity
  8
001
370
    50
  0
LINE
  5
371
330
1F
100
AcDbEntity
  8
001
370
    50
100
AcDbLine
 10
56.476711
 20
113.983169
 30
0.0
 11
53.01261
 21
111.983169
 31
0.0
  0
LINE
  5
372
330
1F
100
AcDbEntity
  8
001
370
    50
100
AcDbLine
 10
56.476711
 20
113.983169
 30
0.0
 11
53.01261
 21
115.983169
 31
0.0
  0
LINE
  5
373
330
1F
100
AcDbEntity
  8
001
  6
CENTER
370
     9
100
AcDbLine
 10
54.265914
 20
113.983169
 30
0.0
 11
235.040636
 21
113.983169
 31
0.0
  0
LINE
  5
374
330
1F
100
AcDbEntity
  8
001
370
    50
100
AcDbLine
 10
231.876711
 20
113.983169
 30
0.0
 11
235.340813
 21
115.983169
 31
0.0
  0
LINE
  5
375
330
1F
100
AcDbEntity
  8
001
370
    50
100
AcDbLine
 10
231.876711
 20
113.983169
 30
0.0
 11
235.340813
 21
111.983169
 31
0.0
  0
LINE
  5
376
330
1F
100
AcDbEntity
  8
001
370
    50
100
AcDbLine
 10
154.876711
 20
97.983169
 30
0.0
 11
154.876711
 21
129.983169
 31
0.0
  0
LINE
  5
377
330
1F
100
AcDbEntity
  8
001
370
    50
100
AcDbLine
 10
154.876711
 20
129.483169
 30
0.0
 11
151.876711
 21
129.483169
 31
0.0
  0
LINE
  5
378
330
1F
100
AcDbEntity
  8
001
370
    50
100
AcDbLine
 10
151.876711
 20
98.483169
 30
0.0
 11
154.876711
 21
98.483169
 31
0.0
  0
ARC
  5
379
330
1F
100
AcDbEntity
  8
001
370
    50
100
AcDbCircle
 10
63.673306
 20
99.662285
 30
0.0
 40
0.3950000000000001
100
AcDbArc
 50
13.633617
 51
166.366383
  0
ARC
  5
37A
330
1F
100
AcDbEntity
  8
001
370
    50
100
AcDbCircle
 10
62.61255
 20
99.919568
 30
0.0
 40
0.6965113125890092
100
AcDbArc
 50
253.633617
 51
346.366383
  0
ARC
  5
37B
330
1F
100
AcDbEntity
  8
001
370
    50
100
AcDbCircle
 10
62.304986
 20
98.872285
 30
0.0
 40
0.3950000000000001
100
AcDbArc
 50
73.633617
 51
226.366383
  0
ARC
  5
37C
330
1F
100
AcDbEntity
  8
001
370
    50
100
AcDbCircle
 10
61.551795
 20
98.082285
 30
0.0
 40
0.6965113125890092
100
AcDbArc
 50
313.633617
 51
46.366383
  0
ARC
  5
37D
330
1F
100
AcDbEntity
  8
001
370
    50
100
AcDbCircle
 10
62.304986
 20
97.292285
 30
0.0
 40
0.3950000000000001
100
AcDbArc
 50
133.633617
 51
286.366383
  0
ARC
  5
37E
330
1F
100
AcDbEntity
  8
001
370
    50
100
AcDbCircle
 10
62.61255
 20
96.245002
 30
0.0
 40
0.6965113125890092
100
AcDbArc
 50
13.633617
 51
106.366383
  0
ARC
  5
37F
330
1F
100
AcDbEntity
  8
001
370
    50
100
AcDbCircle
 10
63.673306
 20
96.502285
 30
0.0
 40
0.3950000000000001
100
AcDbArc
 50
193.633617
 51
346.366383
  0
ARC
  5
380
330
1F
100
AcDbEntity
  8
001
370
    50
100
AcDbCircle
 10
64.734062
 20
96.245002
 30
0.0
 40
0.6965113125890092
100
AcDbArc
 50
73.633617
 51
166.366383
  0
ARC
  5
381
330
1F
100
AcDbEntity
  8
001
370
    50
100
AcDbCircle
 10
65.041626
 20
97.292285
 30
0.0
 40
0.3950000000000001
100
AcDbArc
 50
253.633617
 51
46.366383
  0
ARC
  5
382
330
1F
100
AcDbEntity
  8
001
370
    50
100
AcDbCircle
 10
65.794817
 20
98.082285
 30
0.0
 40
0.6965113125890092
100
AcDbArc
 50
133.633617
 51
226.366383
  0
ARC
  5
383
330
1F
100
AcDbEntity
  8
001
370
    50
100
AcDbCircle
 10
65.041626
 20
98.872285
 30
0.0
 40
0.3950000000000001
100
AcDbArc
 50
313.633617
 51
106.366383
  0
ARC
  5
384
330
1F
100
AcDbEntity
  8
001
370
    50
100
AcDbCircle
 10
64.734062
 20
99.919568
 30
0.0
 40
0.6965113125890092
100
AcDbArc
 50
193.633617
 51
286.366383
  0
CIRCLE
  5
385
330
1F
100
AcDbEntity
  8
001
370
    50
100
AcDbCircle
 10
63.673306
 20
98.082285
 30
0.0
 40
3.1
  0
LINE
  5
386
330
1F
100
AcDbEntity
  8
001
370
    50
100
AcDbLine
 10
55.876711
 20
103.318552
 30
0.0
 11
55.876711
 21
98.383169
 31
0.0
  0
LINE
  5
387
330
1F
100
AcDbEntity
  8
001
370
    50
100
AcDbLine
 10
57.776712
 20
96.483169
 30
0.0
 11
55.876711
 21
98.383169
 31
0.0
  0
ARC
  5
388
330
1F
100
AcDbEntity
  8
001
370
    50
100
AcDbCircle
 10
58.576712
 20
90.783169
 30
0.0
 40
0.8
100
AcDbArc
 50
180.0
 51
270.0
  0
ENDSEC
  0
SECTION
  2
OBJECTS
  0
DICTIONARY
  5
C
330
0
100
AcDbDictionary
281
     1
  3
ACAD_GROUP
350
D
  3
ACAD_LAYOUT
350
1A
  3
ACAD_MLEADERSTYLE
350
38C
  3
ACAD_MLINESTYLE
350
17
  3
ACAD_PLOTSETTINGS
350
19
  3
ACAD_PLOTSTYLENAME
350
E
  3
ACAD_SCALELIST
350
3B
  3
ACAD_TABLESTYLE
350
38B
  3
ACAD_VISUALSTYLE
350
2A
  3
AcDbVariableDictionary
350
389
  0
DICTIONARY
  5
D
102
{ACAD_REACTORS
330
C
102
}
330
C
100
AcDbDictionary
281
     1
  0
DICTIONARY
  5
1A
102
{ACAD_REACTORS
330
C
102
}
330
C
100
AcDbDictionary
281
     1
  3
Layout1
350
1E
  3
Layout2
350
26
  3
Model
350
22
  0
DICTIONARY
  5
38C
102
{ACAD_REACTORS
330
C
102
}
330
C
100
AcDbDictionary
281
     1
  0
DICTIONARY
  5
17
102
{ACAD_REACTORS
330
C
102
}
330
C
100
AcDbDictionary
281
     1
  3
Standard
350
18
  0
DICTIONARY
  5
19
102
{ACAD_REACTORS
330
C
102
}
330
C
100
AcDbDictionary
281
     1
  0
ACDBDICTIONARYWDFLT
  5
E
102
{ACAD_REACTORS
330
C
102
}
330
C
100
AcDbDictionary
281
     1
  3
Normal
350
F
100
AcDbDictionaryWithDefault
340
F
  0
DICTIONARY
  5
3B
102
{ACAD_REACTORS
330
C
102
}
330
C
100
AcDbDictionary
281
     1
  3
A0
350
3C
  3
A1
350
3D
  3
A2
350
3E
  3
A3
350
3F
  3
A4
350
40
  3
A5
350
41
  3
A6
350
42
  3
A7
350
43
  3
A8
350
44
  3
A9
350
45
  3
B0
350
46
  3
B1
350
47
  3
B2
350
48
  3
B3
350
49
  3
B4
350
4A
  3
B5
350
4B
  3
B6
350
4C
  3
B7
350
4D
  3
B8
350
4E
  3
B9
350
4F
  3
C0
350
50
  3
C1
350
51
  3
C2
350
52
  3
C3
350
53
  3
C4
350
54
  3
C5
350
55
  3
C6
350
56
  3
C7
350
57
  3
C8
350
58
  3
C9
350
59
  3
D0
350
5A
  3
D1
350
5B
  3
D2
350
5C
  0
DICTIONARY
  5
38B
102
{ACAD_REACTORS
330
C
102
}
330
C
100
AcDbDictionary
281
     1
  0
DICTIONARY
  5
2A
102
{ACAD_REACTORS
330
C
102
}
330
C
100
AcDbDictionary
281
     1
  3
2dWireframe
350
2F
  3
3D Hidden
350
31
  3
3dWireframe
350
30
  3
Basic
350
32
  3
Brighten
350
36
  3
ColorChange
350
3A
  3
Conceptual
350
34
  3
Dim
350
35
  3
Facepattern
350
39
  3
Flat
350
2B
  3
FlatWithEdges
350
2C
  3
Gouraud
350
2D
  3
GouraudWithEdges
350
2E
  3
Linepattern
350
38
  3
Realistic
350
33
  3
Thicken
350
37
  0
DICTIONARY
  5
389
102
{ACAD_REACTORS
330
C
102
}
330
C
100
AcDbDictionary
281
     1
  3
CANNOSCALE
350
38A
  3
PSOLHEIGHT
350
38E
  3
PSOLWIDTH
350
38D
  0
LAYOUT
  5
1E
102
{ACAD_REACTORS
330
1A
102
}
330
1A
100
AcDbPlotSettings
  1

  2
none_device
  4

  6

 40
0.0
 41
0.0
 42
0.0
 43
0.0
 44
0.0
 45
0.0
 46
0.0
 47
0.0
 48
0.0
 49
0.0
140
0.0
141
0.0
142
1.0
143
1.0
 70
   688
 72
     0
 73
     0
 74
     5
  7

 75
    16
147
1.0
148
0.0
149
0.0
100
AcDbLayout
  1
Layout1
 70
     1
 71
     1
 10
0.0
 20
0.0
 11
12.0
 21
9.0
 12
0.0
 22
0.0
 32
0.0
 14
1.000000E+20
 24
1.000000E+20
 34
0.0
 15
-1.000000E+20
 25
-1.000000E+20
 35
0.0
146
0.0
 13
0.0
 23
0.0
 33
0.0
 16
1.0
 26
0.0
 36
0.0
 17
0.0
 27
1.0
 37
0.0
 76
     0
330
1B
  0
LAYOUT
  5
26
102
{ACAD_REACTORS
330
1A
102
}
330
1A
100
AcDbPlotSettings
  1

  2
none_device
  4

  6

 40
0.0
 41
0.0
 42
0.0
 43
0.0
 44
0.0
 45
0.0
 46
0.0
 47
0.0
 48
0.0
 49
0.0
140
0.0
141
0.0
142
1.0
143
1.0
 70
   688
 72
     0
 73
     0
 74
     5
  7

 75
    16
147
1.0
148
0.0
149
0.0
100
AcDbLayout
  1
Layout2
 70
     1
 71
     2
 10
0.0
 20
0.0
 11
0.0
 21
0.0
 12
0.0
 22
0.0
 32
0.0
 14
0.0
 24
0.0
 34
0.0
 15
0.0
 25
0.0
 35
0.0
146
0.0
 13
0.0
 23
0.0
 33
0.0
 16
1.0
 26
0.0
 36
0.0
 17
0.0
 27
1.0
 37
0.0
 76
     0
330
23
  0
LAYOUT
  5
22
102
{ACAD_REACTORS
330
1A
102
}
330
1A
100
AcDbPlotSettings
  1

  2
none_device
  4

  6

 40
0.0
 41
0.0
 42
0.0
 43
0.0
 44
0.0
 45
0.0
 46
0.0
 47
0.0
 48
0.0
 49
0.0
140
0.0
141
0.0
142
1.0
143
1.0
 70
  1712
 72
     0
 73
     0
 74
     0
  7

 75
     0
147
1.0
148
0.0
149
0.0
100
AcDbLayout
  1
Model
 70
     1
 71
     0
 10
0.0
 20
0.0
 11
12.0
 21
9.0
 12
0.0
 22
0.0
 32
0.0
 14
4.152283
 24
33.403061
 34
0.0
 15
261.375916
 25
166.403015
 35
0.0
146
0.0
 13
0.0
 23
0.0
 33
0.0
 16
1.0
 26
0.0
 36
0.0
 17
0.0
 27
1.0
 37
0.0
 76
     0
330
1F
331
29
  0
MLINESTYLE
  5
18
102
{ACAD_REACTORS
330
17
102
}
330
17
100
AcDbMlineStyle
  2
Standard
 70
     0
  3

 62
   256
 51
90.0
 52
90.0
 71
     2
 49
0.5
 62
   256
  6
BYLAYER
 49
-0.5
 62
   256
  6
BYLAYER
  0
ACDBPLACEHOLDER
  5
F
102
{ACAD_REACTORS
330
E
102
}
330
E
  0
SCALE
  5
3C
102
{ACAD_REACTORS
330
3B
102
}
330
3B
100
AcDbScale
 70
     0
300
1:1
140
1.0
141
1.0
290
     1
  0
SCALE
  5
3D
102
{ACAD_REACTORS
330
3B
102
}
330
3B
100
AcDbScale
 70
     0
300
1:2
140
1.0
141
2.0
290
     0
  0
SCALE
  5
3E
102
{ACAD_REACTORS
330
3B
102
}
330
3B
100
AcDbScale
 70
     0
300
1:4
140
1.0
141
4.0
290
     0
  0
SCALE
  5
3F
102
{ACAD_REACTORS
330
3B
102
}
330
3B
100
AcDbScale
 70
     0
300
1:5
140
1.0
141
5.0
290
     0
  0
SCALE
  5
40
102
{ACAD_REACTORS
330
3B
102
}
330
3B
100
AcDbScale
 70
     0
300
1:8
140
1.0
141
8.0
290
     0
  0
SCALE
  5
41
102
{ACAD_REACTORS
330
3B
102
}
330
3B
100
AcDbScale
 70
     0
300
1:10
140
1.0
141
10.0
290
     0
  0
SCALE
  5
42
102
{ACAD_REACTORS
330
3B
102
}
330
3B
100
AcDbScale
 70
     0
300
1:16
140
1.0
141
16.0
290
     0
  0
SCALE
  5
43
102
{ACAD_REACTORS
330
3B
102
}
330
3B
100
AcDbScale
 70
     0
300
1:20
140
1.0
141
20.0
290
     0
  0
SCALE
  5
44
102
{ACAD_REACTORS
330
3B
102
}
330
3B
100
AcDbScale
 70
     0
300
1:30
140
1.0
141
30.0
290
     0
  0
SCALE
  5
45
102
{ACAD_REACTORS
330
3B
102
}
330
3B
100
AcDbScale
 70
     0
300
1:40
140
1.0
141
40.0
290
     0
  0
SCALE
  5
46
102
{ACAD_REACTORS
330
3B
102
}
330
3B
100
AcDbScale
 70
     0
300
1:50
140
1.0
141
50.0
290
     0
  0
SCALE
  5
47
102
{ACAD_REACTORS
330
3B
102
}
330
3B
100
AcDbScale
 70
     0
300
1:100
140
1.0
141
100.0
290
     0
  0
SCALE
  5
48
102
{ACAD_REACTORS
330
3B
102
}
330
3B
100
AcDbScale
 70
     0
300
2:1
140
2.0
141
1.0
290
     0
  0
SCALE
  5
49
102
{ACAD_REACTORS
330
3B
102
}
330
3B
100
AcDbScale
 70
     0
300
4:1
140
4.0
141
1.0
290
     0
  0
SCALE
  5
4A
102
{ACAD_REACTORS
330
3B
102
}
330
3B
100
AcDbScale
 70
     0
300
8:1
140
8.0
141
1.0
290
     0
  0
SCALE
  5
4B
102
{ACAD_REACTORS
330
3B
102
}
330
3B
100
AcDbScale
 70
     0
300
10:1
140
10.0
141
1.0
290
     0
  0
SCALE
  5
4C
102
{ACAD_REACTORS
330
3B
102
}
330
3B
100
AcDbScale
 70
     0
300
100:1
140
100.0
141
1.0
290
     0
  0
SCALE
  5
4D
102
{ACAD_REACTORS
330
3B
102
}
330
3B
100
AcDbScale
 70
     0
300
1/128" = 1'-0"
140
0.007812
141
12.0
290
     0
  0
SCALE
  5
4E
102
{ACAD_REACTORS
330
3B
102
}
330
3B
100
AcDbScale
 70
     0
300
1/64" = 1'-0"
140
0.015625
141
12.0
290
     0
  0
SCALE
  5
4F
102
{ACAD_REACTORS
330
3B
102
}
330
3B
100
AcDbScale
 70
     0
300
1/32" = 1'-0"
140
0.03125
141
12.0
290
     0
  0
SCALE
  5
50
102
{ACAD_REACTORS
330
3B
102
}
330
3B
100
AcDbScale
 70
     0
300
1/16" = 1'-0"
140
0.0625
141
12.0
290
     0
  0
SCALE
  5
51
102
{ACAD_REACTORS
330
3B
102
}
330
3B
100
AcDbScale
 70
     0
300
3/32" = 1'-0"
140
0.09375
141
12.0
290
     0
  0
SCALE
  5
52
102
{ACAD_REACTORS
330
3B
102
}
330
3B
100
AcDbScale
 70
     0
300
1/8" = 1'-0"
140
0.125
141
12.0
290
     0
  0
SCALE
  5
53
102
{ACAD_REACTORS
330
3B
102
}
330
3B
100
AcDbScale
 70
     0
300
3/16" = 1'-0"
140
0.1875
141
12.0
290
     0
  0
SCALE
  5
54
102
{ACAD_REACTORS
330
3B
102
}
330
3B
100
AcDbScale
 70
     0
300
1/4" = 1'-0"
140
0.25
141
12.0
290
     0
  0
SCALE
  5
55
102
{ACAD_REACTORS
330
3B
102
}
330
3B
100
AcDbScale
 70
     0
300
3/8" = 1'-0"
140
0.375
141
12.0
290
     0
  0
SCALE
  5
56
102
{ACAD_REACTORS
330
3B
102
}
330
3B
100
AcDbScale
 70
     0
300
1/2" = 1'-0"
140
0.5
141
12.0
290
     0
  0
SCALE
  5
57
102
{ACAD_REACTORS
330
3B
102
}
330
3B
100
AcDbScale
 70
     0
300
3/4" = 1'-0"
140
0.75
141
12.0
290
     0
  0
SCALE
  5
58
102
{ACAD_REACTORS
330
3B
102
}
330
3B
100
AcDbScale
 70
     0
300
1" = 1'-0"
140
1.0
141
12.0
290
     0
  0
SCALE
  5
59
102
{ACAD_REACTORS
330
3B
102
}
330
3B
100
AcDbScale
 70
     0
300
1-1/2" = 1'-0"
140
1.5
141
12.0
290
     0
  0
SCALE
  5
5A
102
{ACAD_REACTORS
330
3B
102
}
330
3B
100
AcDbScale
 70
     0
300
3" = 1'-0"
140
3.0
141
12.0
290
     0
  0
SCALE
  5
5B
102
{ACAD_REACTORS
330
3B
102
}
330
3B
100
AcDbScale
 70
     0
300
6" = 1'-0"
140
6.0
141
12.0
290
     0
  0
SCALE
  5
5C
102
{ACAD_REACTORS
330
3B
102
}
330
3B
100
AcDbScale
 70
     0
300
1'-0" = 1'-0"
140
12.0
141
12.0
290
     0
  0
VISUALSTYLE
  5
2F
102
{ACAD_REACTORS
330
2A
102
}
330
2A
100
AcDbVisualStyle
  2
2dWireframe
 70
     4
 71
     0
 72
     2
 73
     0
 90
        0
 40
-0.6
 41
-30.0
 62
     5
 63
     7
 74
     1
 91
        4
 64
     7
 65
   257
 75
     1
175
     1
 42
1.0
 92
        0
 66
   257
 43
1.0
 76
     1
 77
     6
 78
     2
 67
     7
 79
     5
170
     0
171
     0
290
     0
174
     0
 93
        1
 44
0.0
173
     0
291
     0
 45
0.0
1001
ACAD
1000
AcDbSavedByObjectVersion
1070
     0
  0
VISUALSTYLE
  5
31
102
{ACAD_REACTORS
330
2A
102
}
330
2A
100
AcDbVisualStyle
  2
3D Hidden
 70
     6
 71
     1
 72
     2
 73
     2
 90
        0
 40
-0.6
 41
-30.0
 62
     5
 63
     7
 74
     2
 91
        2
 64
     7
 65
   257
 75
     2
175
     1
 42
40.0
 92
        0
 66
   257
 43
1.0
 76
     1
 77
     6
 78
     2
 67
     7
 79
     3
170
     0
171
     0
290
     0
174
     0
 93
        1
 44
0.0
173
     0
291
     0
 45
0.0
1001
ACAD
1000
AcDbSavedByObjectVersion
1070
     0
  0
VISUALSTYLE
  5
30
102
{ACAD_REACTORS
330
2A
102
}
330
2A
100
AcDbVisualStyle
  2
3dWireframe
 70
     5
 71
     0
 72
     2
 73
     0
 90
        0
 40
-0.6
 41
-30.0
 62
     5
 63
     7
 74
     1
 91
        4
 64
     7
 65
   257
 75
     1
175
     1
 42
1.0
 92
        0
 66
   257
 43
1.0
 76
     1
 77
     6
 78
     2
 67
     7
 79
     5
170
     0
171
     0
290
     0
174
     0
 93
        1
 44
0.0
173
     0
291
     0
 45
0.0
1001
ACAD
1000
AcDbSavedByObjectVersion
1070
     0
  0
VISUALSTYLE
  5
32
102
{ACAD_REACTORS
330
2A
102
}
330
2A
100
AcDbVisualStyle
  2
Basic
 70
     7
 71
     1
 72
     0
 73
     1
 90
        0
 40
-0.6
 41
-30.0
 62
     5
 63
     7
 74
     0
 91
        4
 64
     7
 65
   257
 75
     1
175
     1
 42
1.0
 92
        8
 66
     7
 43
1.0
 76
     1
 77
     6
 78
     2
 67
     7
 79
     5
170
     0
171
     0
290
     0
174
     0
 93
        1
 44
0.0
173
     0
291
     1
 45
0.0
1001
ACAD
1000
AcDbSavedByObjectVersion
1070
     0
  0
VISUALSTYLE
  5
36
102
{ACAD_REACTORS
330
2A
102
}
330
2A
100
AcDbVisualStyle
  2
Brighten
 70
    12
 71
     2
 72
     2
 73
     0
 90
        0
 40
-0.6
 41
-30.0
 62
     5
 63
     7
 74
     1
 91
        4
 64
     7
 65
   257
 75
     1
175
     1
 42
1.0
 92
        8
 66
     7
 43
1.0
 76
     1
 77
     6
 78
     2
 67
     7
 79
     5
170
     0
171
     0
290
     0
174
     0
 93
        1
 44
50.0
173
     0
291
     1
 45
0.0
1001
ACAD
1000
AcDbSavedByObjectVersion
1070
     0
  0
VISUALSTYLE
  5
3A
102
{ACAD_REACTORS
330
2A
102
}
330
2A
100
AcDbVisualStyle
  2
ColorChange
 70
    16
 71
     2
 72
     2
 73
     3
 90
        0
 40
-0.6
 41
-30.0
 62
     5
 63
     8
 74
     1
 91
        4
 64
     7
 65
   257
 75
     1
175
     1
 42
1.0
 92
        8
 66
     8
 43
1.0
 76
     1
 77
     6
 78
     2
 67
     7
 79
     5
170
     0
171
     0
290
     0
174
     0
 93
        1
 44
0.0
173
     0
291
     1
 45
0.0
1001
ACAD
1000
AcDbSavedByObjectVersion
1070
     0
  0
VISUALSTYLE
  5
34
102
{ACAD_REACTORS
330
2A
102
}
330
2A
100
AcDbVisualStyle
  2
Conceptual
 70
     9
 71
     3
 72
     2
 73
     0
 90
        0
 40
-0.6
 41
-30.0
 62
     5
 63
     7
 74
     2
 91
        2
 64
     7
 65
   257
 75
     1
175
     1
 42
40.0
 92
        8
 66
     7
 43
1.0
 76
     1
 77
     6
 78
     2
 67
     7
 79
     3
170
     0
171
     0
290
     0
174
     0
 93
        1
 44
0.0
173
     0
291
     0
 45
0.0
1001
ACAD
1000
AcDbSavedByObjectVersion
1070
     0
  0
VISUALSTYLE
  5
35
102
{ACAD_REACTORS
330
2A
102
}
330
2A
100
AcDbVisualStyle
  2
Dim
 70
    11
 71
     2
 72
     2
 73
     0
 90
        0
 40
-0.6
 41
-30.0
 62
     5
 63
     7
 74
     1
 91
        4
 64
     7
 65
   257
 75
     1
175
     1
 42
1.0
 92
        8
 66
     7
 43
1.0
 76
     1
 77
     6
 78
     2
 67
     7
 79
     5
170
     0
171
     0
290
     0
174
     0
 93
        1
 44
-50.0
173
     0
291
     1
 45
0.0
1001
ACAD
1000
AcDbSavedByObjectVersion
1070
     0
  0
VISUALSTYLE
  5
39
102
{ACAD_REACTORS
330
2A
102
}
330
2A
100
AcDbVisualStyle
  2
Facepattern
 70
    15
 71
     2
 72
     2
 73
     0
 90
        0
 40
-0.6
 41
-30.0
 62
     5
 63
     7
 74
     1
 91
        4
 64
     7
 65
   257
 75
     1
175
     1
 42
1.0
 92
        8
 66
     7
 43
1.0
 76
     1
 77
     6
 78
     2
 67
     7
 79
     5
170
     0
171
     0
290
     0
174
     0
 93
        1
 44
0.0
173
     0
291
     1
 45
0.0
1001
ACAD
1000
AcDbSavedByObjectVersion
1070
     0
  0
VISUALSTYLE
  5
2B
102
{ACAD_REACTORS
330
2A
102
}
330
2A
100
AcDbVisualStyle
  2
Flat
 70
     0
 71
     2
 72
     1
 73
     1
 90
        2
 40
-0.6
 41
30.0
 62
     5
 63
     7
 74
     0
 91
        4
 64
     7
 65
   257
 75
     1
175
     1
 42
1.0
 92
        8
 66
     7
 43
1.0
 76
     1
 77
     6
 78
     2
 67
     7
 79
     5
170
     0
171
     0
290
     0
174
     0
 93
       13
 44
0.0
173
     0
291
     1
 45
0.0
1001
ACAD
1000
AcDbSavedByObjectVersion
1070
     0
  0
VISUALSTYLE
  5
2C
102
{ACAD_REACTORS
330
2A
102
}
330
2A
100
AcDbVisualStyle
  2
FlatWithEdges
 70
     1
 71
     2
 72
     1
 73
     1
 90
        2
 40
-0.6
 41
30.0
 62
     5
 63
     7
 74
     1
 91
        4
 64
     7
 65
   257
 75
     1
175
     1
 42
1.0
 92
        0
 66
   257
 43
1.0
 76
     1
 77
     6
 78
     2
 67
     7
 79
     5
170
     0
171
     0
290
     0
174
     0
 93
       13
 44
0.0
173
     0
291
     1
 45
0.0
1001
ACAD
1000
AcDbSavedByObjectVersion
1070
     0
  0
VISUALSTYLE
  5
2D
102
{ACAD_REACTORS
330
2A
102
}
330
2A
100
AcDbVisualStyle
  2
Gouraud
 70
     2
 71
     2
 72
     2
 73
     1
 90
        2
 40
-0.6
 41
30.0
 62
     5
 63
     7
 74
     0
 91
        4
 64
     7
 65
   257
 75
     1
175
     1
 42
1.0
 92
        0
 66
     7
 43
1.0
 76
     1
 77
     6
 78
     2
 67
     7
 79
     5
170
     0
171
     0
290
     0
174
     0
 93
       13
 44
0.0
173
     0
291
     1
 45
0.0
1001
ACAD
1000
AcDbSavedByObjectVersion
1070
     0
  0
VISUALSTYLE
  5
2E
102
{ACAD_REACTORS
330
2A
102
}
330
2A
100
AcDbVisualStyle
  2
GouraudWithEdges
 70
     3
 71
     2
 72
     2
 73
     1
 90
        2
 40
-0.6
 41
30.0
 62
     5
 63
     7
 74
     1
 91
        4
 64
     7
 65
   257
 75
     1
175
     1
 42
1.0
 92
        0
 66
   257
 43
1.0
 76
     1
 77
     6
 78
     2
 67
     7
 79
     5
170
     0
171
     0
290
     0
174
     0
 93
       13
 44
0.0
173
     0
291
     1
 45
0.0
1001
ACAD
1000
AcDbSavedByObjectVersion
1070
     0
  0
VISUALSTYLE
  5
38
102
{ACAD_REACTORS
330
2A
102
}
330
2A
100
AcDbVisualStyle
  2
Linepattern
 70
    14
 71
     2
 72
     2
 73
     0
 90
        0
 40
-0.6
 41
-30.0
 62
     5
 63
     7
 74
     1
 91
        4
 64
     7
 65
   257
 75
     7
175
     7
 42
1.0
 92
        8
 66
     7
 43
1.0
 76
     1
 77
     6
 78
     2
 67
     7
 79
     5
170
     0
171
     0
290
     0
174
     0
 93
        1
 44
0.0
173
     0
291
     1
 45
0.0
1001
ACAD
1000
AcDbSavedByObjectVersion
1070
     0
  0
VISUALSTYLE
  5
33
102
{ACAD_REACTORS
330
2A
102
}
330
2A
100
AcDbVisualStyle
  2
Realistic
 70
     8
 71
     2
 72
     2
 73
     0
 90
        0
 40
-0.6
 41
-30.0
 62
     5
 63
     7
 74
     1
 91
        0
 64
     7
 65
   257
 75
     1
175
     1
 42
1.0
 92
        8
 66
     8
 43
1.0
 76
     1
 77
     6
 78
     2
 67
     7
 79
     5
170
     0
171
     0
290
     0
174
     0
 93
       13
 44
0.0
173
     0
291
     0
 45
0.0
1001
ACAD
1000
AcDbSavedByObjectVersion
1070
     0
  0
VISUALSTYLE
  5
37
102
{ACAD_REACTORS
330
2A
102
}
330
2A
100
AcDbVisualStyle
  2
Thicken
 70
    13
 71
     2
 72
     2
 73
     0
 90
        0
 40
-0.6
 41
-30.0
 62
     5
 63
     7
 74
     1
 91
        4
 64
     7
 65
   257
 75
     1
175
     1
 42
1.0
 92
       12
 66
     7
 43
1.0
 76
     1
 77
     6
 78
     2
 67
     7
 79
     5
170
     0
171
     0
290
     0
174
     0
 93
        1
 44
0.0
173
     0
291
     1
 45
0.0
1001
ACAD
1000
AcDbSavedByObjectVersion
1070
     0
  0
DICTIONARYVAR
  5
38A
102
{ACAD_REACTORS
330
389
102
}
330
389
100
DictionaryVariables
280
     0
  1
1:1
  0
DICTIONARYVAR
  5
38E
102
{ACAD_REACTORS
330
389
102
}
330
389
100
DictionaryVariables
280
     0
  1
80.000000
  0
DICTIONARYVAR
  5
38D
102
{ACAD_REACTORS
330
389
102
}
330
389
100
DictionaryVariables
280
     0
  1
5.000000
  0
ENDSEC
  0
EOF
