  0
SECTION
  2
HEADER
  9
$ACADVER
  1
AC1015
  9
$ACADMAINTVER
 70
     6
  9
$DWGCODEPAGE
  3
ANSI_932
  9
$INSBASE
 10
0.0
 20
0.0
 30
0.0
  9
$EXTMIN
 10
5.865768
 20
15.816742
 30
0.0
  9
$EXTMAX
 10
243.638046
 20
141.313965
 30
0.0
  9
$LIMMIN
 10
0.0
 20
0.0
  9
$LIMMAX
 10
12.0
 20
9.0
  9
$ORTHOMODE
 70
     0
  9
$REGENMODE
 70
     1
  9
$FILLMODE
 70
     1
  9
$QTEXTMODE
 70
     0
  9
$MIRRTEXT
 70
     1
  9
$LTSCALE
 40
2.688591
  9
$ATTMODE
 70
     1
  9
$TEXTSIZE
 40
3.2
  9
$TRACEWID
 40
1.0
  9
$TEXTSTYLE
  7
Standard
  9
$CLAYER
  8
0
  9
$CELTYPE
  6
ByLayer
  9
$CECOLOR
 62
   256
  9
$CELTSCALE
 40
1.0
  9
$DISPSILH
 70
     0
  9
$DIMSCALE
 40
1.0
  9
$DIMASZ
 40
2.5
  9
$DIMEXO
 40
0.625
  9
$DIMDLI
 40
3.75
  9
$DIMRND
 40
0.0
  9
$DIMDLE
 40
0.0
  9
$DIMEXE
 40
1.25
  9
$DIMTP
 40
0.0
  9
$DIMTM
 40
0.0
  9
$DIMTXT
 40
2.5
  9
$DIMCEN
 40
0.09
  9
$DIMTSZ
 40
0.0
  9
$DIMTOL
 70
     0
  9
$DIMLIM
 70
     0
  9
$DIMTIH
 70
     0
  9
$DIMTOH
 70
     0
  9
$DIMSE1
 70
     0
  9
$DIMSE2
 70
     0
  9
$DIMTAD
 70
     0
  9
$DIMZIN
 70
     8
  9
$DIMBLK
  1

  9
$DIMASO
 70
     1
  9
$DIMSHO
 70
     0
  9
$DIMPOST
  1

  9
$DIMAPOST
  1

  9
$DIMALT
 70
     0
  9
$DIMALTD
 70
     3
  9
$DIMALTF
 40
0.03937
  9
$DIMLFAC
 40
1.0
  9
$DIMTOFL
 70
     1
  9
$DIMTVP
 40
0.0
  9
$DIMTIX
 70
     0
  9
$DIMSOXD
 70
     0
  9
$DIMSAH
 70
     0
  9
$DIMBLK1
  1

  9
$DIMBLK2
  1

  9
$DIMSTYLE
  2
ISO-25
  9
$DIMCLRD
 70
     0
  9
$DIMCLRE
 70
     0
  9
$DIMCLRT
 70
     0
  9
$DIMTFAC
 40
1.0
  9
$DIMGAP
 40
0.625
  9
$DIMJUST
 70
     0
  9
$DIMSD1
 70
     0
  9
$DIMSD2
 70
     0
  9
$DIMTOLJ
 70
     0
  9
$DIMTZIN
 70
     8
  9
$DIMALTZ
 70
     0
  9
$DIMALTTZ
 70
     0
  9
$DIMUPT
 70
     0
  9
$DIMDEC
 70
     2
  9
$DIMTDEC
 70
     2
  9
$DIMALTU
 70
     2
  9
$DIMALTTD
 70
     3
  9
$DIMTXSTY
  7
Standard
  9
$DIMAUNIT
 70
     0
  9
$DIMADEC
 70
     0
  9
$DIMALTRND
 40
0.0
  9
$DIMAZIN
 70
     0
  9
$DIMDSEP
 70
    44
  9
$DIMATFIT
 70
     3
  9
$DIMFRAC
 70
     0
  9
$DIMLDRBLK
  1

  9
$DIMLUNIT
 70
     2
  9
$DIMLWD
 70
    -2
  9
$DIMLWE
 70
    -2
  9
$DIMTMOVE
 70
     0
  9
$LUNITS
 70
     2
  9
$LUPREC
 70
     4
  9
$SKETCHINC
 40
1.0
  9
$FILLETRAD
 40
0.0
  9
$AUNITS
 70
     0
  9
$AUPREC
 70
     0
  9
$MENU
  1
.
  9
$ELEVATION
 40
0.0
  9
$PELEVATION
 40
0.0
  9
$THICKNESS
 40
0.0
  9
$LIMCHECK
 70
     0
  9
$CHAMFERA
 40
10.0
  9
$CHAMFERB
 40
10.0
  9
$CHAMFERC
 40
20.0
  9
$CHAMFERD
 40
0.0
  9
$SKPOLY
 70
     0
  9
$TDCREATE
 40
2454798.706144745
  9
$TDUCREATE
 40
2454798.331144745
  9
$TDUPDATE
 40
2454798.706144757
  9
$TDUUPDATE
 40
2454798.331144757
  9
$TDINDWG
 40
0.0000000116
  9
$TDUSRTIMER
 40
0.0000000116
  9
$USRTIMER
 70
     1
  9
$ANGBASE
 50
0.0
  9
$ANGDIR
 70
     0
  9
$PDMODE
 70
     0
  9
$PDSIZE
 40
0.0
  9
$PLINEWID
 40
0.0
  9
$SPLFRAME
 70
     0
  9
$SPLINETYPE
 70
     6
  9
$SPLINESEGS
 70
     8
  9
$HANDSEED
  5
3FF
  9
$SURFTAB1
 70
     6
  9
$SURFTAB2
 70
     6
  9
$SURFTYPE
 70
     6
  9
$SURFU
 70
     6
  9
$SURFV
 70
     6
  9
$UCSBASE
  2

  9
$UCSNAME
  2

  9
$UCSORG
 10
0.0
 20
0.0
 30
0.0
  9
$UCSXDIR
 10
1.0
 20
0.0
 30
0.0
  9
$UCSYDIR
 10
0.0
 20
1.0
 30
0.0
  9
$UCSORTHOREF
  2

  9
$UCSORTHOVIEW
 70
     0
  9
$UCSORGTOP
 10
0.0
 20
0.0
 30
0.0
  9
$UCSORGBOTTOM
 10
0.0
 20
0.0
 30
0.0
  9
$UCSORGLEFT
 10
0.0
 20
0.0
 30
0.0
  9
$UCSORGRIGHT
 10
0.0
 20
0.0
 30
0.0
  9
$UCSORGFRONT
 10
0.0
 20
0.0
 30
0.0
  9
$UCSORGBACK
 10
0.0
 20
0.0
 30
0.0
  9
$PUCSBASE
  2

  9
$PUCSNAME
  2

  9
$PUCSORG
 10
0.0
 20
0.0
 30
0.0
  9
$PUCSXDIR
 10
1.0
 20
0.0
 30
0.0
  9
$PUCSYDIR
 10
0.0
 20
1.0
 30
0.0
  9
$PUCSORTHOREF
  2

  9
$PUCSORTHOVIEW
 70
     0
  9
$PUCSORGTOP
 10
0.0
 20
0.0
 30
0.0
  9
$PUCSORGBOTTOM
 10
0.0
 20
0.0
 30
0.0
  9
$PUCSORGLEFT
 10
0.0
 20
0.0
 30
0.0
  9
$PUCSORGRIGHT
 10
0.0
 20
0.0
 30
0.0
  9
$PUCSORGFRONT
 10
0.0
 20
0.0
 30
0.0
  9
$PUCSORGBACK
 10
0.0
 20
0.0
 30
0.0
  9
$USERI1
 70
     0
  9
$USERI2
 70
     0
  9
$USERI3
 70
     0
  9
$USERI4
 70
     0
  9
$USERI5
 70
     0
  9
$USERR1
 40
0.0
  9
$USERR2
 40
0.0
  9
$USERR3
 40
0.0
  9
$USERR4
 40
0.0
  9
$USERR5
 40
0.0
  9
$WORLDVIEW
 70
     1
  9
$SHADEDGE
 70
     3
  9
$SHADEDIF
 70
    70
  9
$TILEMODE
 70
     1
  9
$MAXACTVP
 70
    64
  9
$PINSBASE
 10
0.0
 20
0.0
 30
0.0
  9
$PLIMCHECK
 70
     0
  9
$PEXTMIN
 10
1.000000E+20
 20
1.000000E+20
 30
0.0
  9
$PEXTMAX
 10
-1.000000E+20
 20
-1.000000E+20
 30
0.0
  9
$PLIMMIN
 10
0.0
 20
0.0
  9
$PLIMMAX
 10
12.0
 20
9.0
  9
$UNITMODE
 70
     0
  9
$VISRETAIN
 70
     1
  9
$PLINEGEN
 70
     0
  9
$PSLTSCALE
 70
     1
  9
$TREEDEPTH
 70
  3020
  9
$CMLSTYLE
  2
Standard
  9
$CMLJUST
 70
     0
  9
$CMLSCALE
 40
20.0
  9
$PROXYGRAPHICS
 70
     1
  9
$MEASUREMENT
 70
     1
  9
$CELWEIGHT
370
    -1
  9
$ENDCAPS
280
     0
  9
$JOINSTYLE
280
     0
  9
$LWDISPLAY
290
     0
  9
$INSUNITS
 70
     4
  9
$HYPERLINKBASE
  1

  9
$STYLESHEET
  1

  9
$XEDIT
290
     1
  9
$CEPSNTYPE
380
     0
  9
$PSTYLEMODE
290
     1
  9
$FINGERPRINTGUID
  2
{F6C878F3-B5B3-48EC-9E07-BE40C6CA6F8E}
  9
$VERSIONGUID
  2
{FAEB1C32-E019-11D5-929B-00C0DF256EC4}
  9
$EXTNAMES
290
     1
  9
$PSVPSCALE
 40
0.0
  9
$OLESTARTUP
290
     0
  0
ENDSEC
  0
SECTION
  2
CLASSES
  0
CLASS
  1
ACDBDICTIONARYWDFLT
  2
AcDbDictionaryWithDefault
  3
ObjectDBX Classes
 90
        0
280
     0
281
     0
  0
CLASS
  1
VISUALSTYLE
  2
AcDbVisualStyle
  3
ObjectDBX Classes
 90
     4095
280
     0
281
     0
  0
CLASS
  1
SCALE
  2
AcDbScale
  3
ObjectDBX Classes
 90
     1153
280
     0
281
     0
  0
CLASS
  1
DICTIONARYVAR
  2
AcDbDictionaryVar
  3
ObjectDBX Classes
 90
        0
280
     0
281
     0
  0
CLASS
  1
ACDBPLACEHOLDER
  2
AcDbPlaceHolder
  3
ObjectDBX Classes
 90
        0
280
     0
281
     0
  0
CLASS
  1
LAYOUT
  2
AcDbLayout
  3
ObjectDBX Classes
 90
        0
280
     0
281
     0
  0
ENDSEC
  0
SECTION
  2
TABLES
  0
TABLE
  2
VPORT
  5
8
330
0
100
AcDbSymbolTable
 70
     1
  0
VPORT
  5
29
330
8
100
AcDbSymbolTableRecord
100
AcDbViewportTableRecord
  2
*Active
 70
     0
 10
0.0
 20
0.0
 11
1.0
 21
1.0
 12
124.751907
 22
78.565353
 13
0.0
 23
0.0
 14
1.0
 24
1.0
 15
0.0
 25
0.0
 16
0.0
 26
0.0
 36
1.0
 17
0.0
 27
0.0
 37
0.0
 40
141.992375
 41
1.691288
 42
50.0
 43
0.0
 44
0.0
 50
0.0
 51
0.0
 71
     0
 72
   100
 73
     1
 74
     3
 75
     0
 76
     0
 77
     0
 78
     0
281
     0
 65
     1
110
0.0
120
0.0
130
0.0
111
1.0
121
0.0
131
0.0
112
0.0
122
1.0
132
0.0
 79
     0
146
0.0
  0
ENDTAB
  0
TABLE
  2
LTYPE
  5
5
330
0
100
AcDbSymbolTable
 70
     5
  0
LTYPE
  5
14
330
5
100
AcDbSymbolTableRecord
100
AcDbLinetypeTableRecord
  2
ByBlock
 70
     0
  3

 72
    65
 73
     0
 40
0.0
  0
LTYPE
  5
15
330
5
100
AcDbSymbolTableRecord
100
AcDbLinetypeTableRecord
  2
ByLayer
 70
     0
  3

 72
    65
 73
     0
 40
0.0
  0
LTYPE
  5
16
330
5
100
AcDbSymbolTableRecord
100
AcDbLinetypeTableRecord
  2
Continuous
 70
     0
  3
Solid line
 72
    65
 73
     0
 40
0.0
  0
LTYPE
  5
5D
330
5
100
AcDbSymbolTableRecord
100
AcDbLinetypeTableRecord
  2
DASHED
 70
     0
  3
DASHED
 72
    83
 73
     2
 40
0.75
 49
0.5
 74
     0
 49
-0.25
 74
     0
  0
LTYPE
  5
5E
330
5
100
AcDbSymbolTableRecord
100
AcDbLinetypeTableRecord
  2
HIDDEN
 70
     0
  3
HIDDEN
 72
    83
 73
     2
 40
0.375
 49
0.25
 74
     0
 49
-0.125
 74
     0
  0
LTYPE
  5
5F
330
5
100
AcDbSymbolTableRecord
100
AcDbLinetypeTableRecord
  2
CENTER
 70
     0
  3
CENTER
 72
    83
 73
     4
 40
2.0
 49
1.25
 74
     0
 49
-0.25
 74
     0
 49
0.25
 74
     0
 49
-0.25
 74
     0
  0
LTYPE
  5
60
330
5
100
AcDbSymbolTableRecord
100
AcDbLinetypeTableRecord
  2
PHANTOM
 70
     0
  3
PHANTOM
 72
    83
 73
     6
 40
2.5
 49
1.25
 74
     0
 49
-0.25
 74
     0
 49
0.25
 74
     0
 49
-0.25
 74
     0
 49
0.25
 74
     0
 49
-0.25
 74
     0
  0
ENDTAB
  0
TABLE
  2
LAYER
  5
2
330
0
100
AcDbSymbolTable
 70
     2
  0
LAYER
  5
10
330
2
100
AcDbSymbolTableRecord
100
AcDbLayerTableRecord
  2
0
 70
     0
 62
     7
  6
Continuous
370
    -3
390
F
  0
LAYER
  5
61
330
2
100
AcDbSymbolTableRecord
100
AcDbLayerTableRecord
  2
001
 70
     0
 62
     7
  6
Continuous
370
    -3
390
F
  0
ENDTAB
  0
TABLE
  2
STYLE
  5
3
330
0
100
AcDbSymbolTable
 70
     2
  0
STYLE
  5
11
330
3
100
AcDbSymbolTableRecord
100
AcDbTextStyleTableRecord
  2
Standard
 70
     0
 40
0.0
 41
1.0
 50
0.0
 71
     0
 42
0.2
  3
TXT
  4
BIGFONT
  0
STYLE
  5
62
330
3
100
AcDbSymbolTableRecord
100
AcDbTextStyleTableRecord
  2
TATEGAKI
 70
     4
 40
1.0
 41
1.0
 50
0.0
 71
     0
 42
0.2
  3
TXT
  4
BIGFONT
  0
ENDTAB
  0
TABLE
  2
VIEW
  5
6
330
0
100
AcDbSymbolTable
 70
     0
  0
ENDTAB
  0
TABLE
  2
UCS
  5
7
330
0
100
AcDbSymbolTable
 70
     0
  0
ENDTAB
  0
TABLE
  2
APPID
  5
9
330
0
100
AcDbSymbolTable
 70
     1
  0
APPID
  5
12
330
9
100
AcDbSymbolTableRecord
100
AcDbRegAppTableRecord
  2
ACAD
 70
     0
  0
ENDTAB
  0
TABLE
  2
DIMSTYLE
  5
A
330
0
100
AcDbSymbolTable
 70
     2
100
AcDbDimStyleTable
  0
DIMSTYLE
105
27
330
A
100
AcDbSymbolTableRecord
100
AcDbDimStyleTableRecord
  2
ISO-25
 70
     0
 41
2.5
 42
0.625
 43
3.75
 44
1.25
 73
     0
 74
     0
 77
     1
 78
     8
140
2.5
141
2.5
143
0.03937
147
0.625
171
     3
172
     1
271
     2
272
     2
274
     3
278
    44
283
     0
284
     8
340
11
  0
DIMSTYLE
105
63
102
{ACAD_REACTORS
330
DE
330
DF
330
E0
330
E1
330
E2
330
E3
102
}
330
A
100
AcDbSymbolTableRecord
100
AcDbDimStyleTableRecord
  2
Standard
 70
     0
 41
1.5
 42
0.0
 44
2.75
 73
     0
 74
     0
 77
     1
 78
     8
 79
     2
140
4.0
146
0.8
147
1.0
172
     1
179
     1
271
     1
340
11
  0
ENDTAB
  0
TABLE
  2
BLOCK_RECORD
  5
1
330
0
100
AcDbSymbolTable
 70
     7
  0
BLOCK_RECORD
  5
1F
330
1
100
AcDbSymbolTableRecord
100
AcDbBlockTableRecord
  2
*Model_Space
340
22
  0
BLOCK_RECORD
  5
1B
330
1
100
AcDbSymbolTableRecord
100
AcDbBlockTableRecord
  2
*Paper_Space
340
1E
  0
BLOCK_RECORD
  5
23
330
1
100
AcDbSymbolTableRecord
100
AcDbBlockTableRecord
  2
*Paper_Space0
340
26
  0
BLOCK_RECORD
  5
64
330
1
100
AcDbSymbolTableRecord
100
AcDbBlockTableRecord
  2
*D1
340
0
  0
BLOCK_RECORD
  5
7A
330
1
100
AcDbSymbolTableRecord
100
AcDbBlockTableRecord
  2
*D2
340
0
  0
BLOCK_RECORD
  5
8E
330
1
100
AcDbSymbolTableRecord
100
AcDbBlockTableRecord
  2
*D3
340
0
  0
BLOCK_RECORD
  5
A2
330
1
100
AcDbSymbolTableRecord
100
AcDbBlockTableRecord
  2
*D4
340
0
  0
BLOCK_RECORD
  5
B6
330
1
100
AcDbSymbolTableRecord
100
AcDbBlockTableRecord
  2
*D5
340
0
  0
BLOCK_RECORD
  5
CA
330
1
100
AcDbSymbolTableRecord
100
AcDbBlockTableRecord
  2
*D6
340
0
  0
ENDTAB
  0
ENDSEC
  0
SECTION
  2
BLOCKS
  0
BLOCK
  5
20
330
1F
100
AcDbEntity
  8
0
100
AcDbBlockBegin
  2
*Model_Space
 70
     0
 10
0.0
 20
0.0
 30
0.0
  3
*Model_Space
  1

  0
ENDBLK
  5
21
330
1F
100
AcDbEntity
  8
0
100
AcDbBlockEnd
  0
BLOCK
  5
1C
330
1B
100
AcDbEntity
 67
     1
  8
0
100
AcDbBlockBegin
  2
*Paper_Space
 70
     0
 10
0.0
 20
0.0
 30
0.0
  3
*Paper_Space
  1

  0
ENDBLK
  5
1D
330
1B
100
AcDbEntity
 67
     1
  8
0
100
AcDbBlockEnd
  0
BLOCK
  5
24
330
23
100
AcDbEntity
  8
0
100
AcDbBlockBegin
  2
*Paper_Space0
 70
     0
 10
0.0
 20
0.0
 30
0.0
  3
*Paper_Space0
  1

  0
ENDBLK
  5
25
330
23
100
AcDbEntity
  8
0
100
AcDbBlockEnd
  0
BLOCK
  5
65
330
64
100
AcDbEntity
  8
0
100
AcDbBlockBegin
  2
*D1
 70
     1
 10
0.0
 20
0.0
 30
0.0
  3
*D1
  1

  0
LINE
  5
67
330
64
100
AcDbEntity
  8
001
370
     9
100
AcDbLine
 10
50.508798
 20
69.870835
 30
0.0
 11
50.508798
 21
42.202683
 31
0.0
  0
LINE
  5
68
330
64
100
AcDbEntity
  8
001
370
     9
100
AcDbLine
 10
52.408799
 20
63.270835
 30
0.0
 11
52.408799
 21
42.202683
 31
0.0
  0
LINE
  5
69
330
64
100
AcDbEntity
  8
001
370
     9
100
AcDbLine
 10
50.508798
 20
44.952683
 30
0.0
 11
52.408799
 21
44.952683
 31
0.0
  0
POLYLINE
  5
6A
330
64
100
AcDbEntity
  8
001
370
     9
100
AcDb2dPolyline
 66
     1
 10
0.0
 20
0.0
 30
0.0
  0
VERTEX
  5
6C
330
6A
100
AcDbEntity
  8
001
370
     9
100
AcDbVertex
100
AcDb2dVertex
 10
49.008798
 20
45.354607
 30
0.0
  0
VERTEX
  5
6D
330
6A
100
AcDbEntity
  8
001
370
     9
100
AcDbVertex
100
AcDb2dVertex
 10
50.508798
 20
44.952683
 30
0.0
  0
VERTEX
  5
6E
330
6A
100
AcDbEntity
  8
001
370
     9
100
AcDbVertex
100
AcDb2dVertex
 10
49.008798
 20
44.550759
 30
0.0
  0
SEQEND
  5
6B
330
6A
100
AcDbEntity
  8
001
370
     9
  0
POLYLINE
  5
6F
330
64
100
AcDbEntity
  8
001
370
     9
100
AcDb2dPolyline
 66
     1
 10
0.0
 20
0.0
 30
0.0
  0
VERTEX
  5
71
330
6F
100
AcDbEntity
  8
001
370
     9
100
AcDbVertex
100
AcDb2dVertex
 10
53.908799
 20
44.550759
 30
0.0
  0
VERTEX
  5
72
330
6F
100
AcDbEntity
  8
001
370
     9
100
AcDbVertex
100
AcDb2dVertex
 10
52.408799
 20
44.952683
 30
0.0
  0
VERTEX
  5
73
330
6F
100
AcDbEntity
  8
001
370
     9
100
AcDbVertex
100
AcDb2dVertex
 10
53.908799
 20
45.354607
 30
0.0
  0
SEQEND
  5
70
330
6F
100
AcDbEntity
  8
001
370
     9
  0
TEXT
  5
74
330
64
100
AcDbEntity
  8
001
370
    30
100
AcDbText
 10
35.008798
 20
45.952683
 30
0.0
 40
4.0
  1
１．９
 41
0.833333
100
AcDbText
  0
POINT
  5
75
330
64
100
AcDbEntity
  8
001
370
     9
100
AcDbPoint
 10
50.508798
 20
69.870835
 30
0.0
  0
POINT
  5
76
330
64
100
AcDbEntity
  8
001
370
     9
100
AcDbPoint
 10
52.408799
 20
63.270835
 30
0.0
  0
POINT
  5
77
330
64
100
AcDbEntity
  8
001
370
     9
100
AcDbPoint
 10
52.408799
 20
44.952683
 30
0.0
  0
LINE
  5
78
330
64
100
AcDbEntity
  8
001
370
     9
100
AcDbLine
 10
50.508798
 20
44.952683
 30
0.0
 11
32.008798
 21
44.952683
 31
0.0
  0
LINE
  5
79
330
64
100
AcDbEntity
  8
001
370
     9
100
AcDbLine
 10
52.408799
 20
44.952683
 30
0.0
 11
54.908799
 21
44.952683
 31
0.0
  0
ENDBLK
  5
66
330
64
100
AcDbEntity
  8
0
100
AcDbBlockEnd
  0
BLOCK
  5
7B
330
7A
100
AcDbEntity
  8
0
100
AcDbBlockBegin
  2
*D2
 70
     1
 10
0.0
 20
0.0
 30
0.0
  3
*D2
  1

  0
LINE
  5
7D
330
7A
100
AcDbEntity
  8
001
370
     9
100
AcDbLine
 10
52.408799
 20
67.970834
 30
0.0
 11
86.302263
 21
34.07737
 31
0.0
  0
ARC
  5
7E
330
7A
100
AcDbEntity
  8
001
370
     9
100
AcDbCircle
 10
36.408798
 20
83.970835
 30
0.0
 40
67.81001390642965
100
AcDbArc
 50
315.0
 51
0.0
  0
POLYLINE
  5
7F
330
7A
100
AcDbEntity
  8
001
370
     9
100
AcDb2dPolyline
 66
     1
 10
0.0
 20
0.0
 30
0.0
  0
VERTEX
  5
81
330
7F
100
AcDbEntity
  8
001
370
     9
100
AcDbVertex
100
AcDb2dVertex
 10
103.800323
 20
82.475372
 30
0.0
  0
VERTEX
  5
82
330
7F
100
AcDbEntity
  8
001
370
     9
100
AcDbVertex
100
AcDb2dVertex
 10
104.218812
 20
83.970835
 30
0.0
  0
VERTEX
  5
83
330
7F
100
AcDbEntity
  8
001
370
     9
100
AcDbVertex
100
AcDb2dVertex
 10
104.604121
 20
82.466481
 30
0.0
  0
SEQEND
  5
80
330
7F
100
AcDbEntity
  8
001
370
     9
  0
POLYLINE
  5
84
330
7A
100
AcDbEntity
  8
001
370
     9
100
AcDb2dPolyline
 66
     1
 10
0.0
 20
0.0
 30
0.0
  0
VERTEX
  5
86
330
84
100
AcDbEntity
  8
001
370
     9
100
AcDbVertex
100
AcDb2dVertex
 10
85.693912
 20
36.813198
 30
0.0
  0
VERTEX
  5
87
330
84
100
AcDbEntity
  8
001
370
     9
100
AcDbVertex
100
AcDb2dVertex
 10
84.357719
 20
36.021914
 30
0.0
  0
VERTEX
  5
88
330
84
100
AcDbEntity
  8
001
370
     9
100
AcDbVertex
100
AcDb2dVertex
 10
85.119254
 20
37.375283
 30
0.0
  0
SEQEND
  5
85
330
84
100
AcDbEntity
  8
001
370
     9
  0
TEXT
  5
89
330
7A
100
AcDbEntity
  8
001
370
    30
100
AcDbText
 10
95.837102
 20
52.860472
 30
0.0
 40
4.0
  1
４５%%d
 50
67.5
 41
0.978261
100
AcDbText
  0
POINT
  5
8A
330
7A
100
AcDbEntity
  8
001
370
     9
100
AcDbPoint
 10
48.899616
 20
83.970835
 30
0.0
  0
POINT
  5
8B
330
7A
100
AcDbEntity
  8
001
370
     9
100
AcDbPoint
 10
36.408798
 20
83.970835
 30
0.0
  0
POINT
  5
8C
330
7A
100
AcDbEntity
  8
001
370
     9
100
AcDbPoint
 10
36.408798
 20
83.970835
 30
0.0
  0
POINT
  5
8D
330
7A
100
AcDbEntity
  8
001
370
     9
100
AcDbPoint
 10
52.408799
 20
67.970834
 30
0.0
  0
ENDBLK
  5
7C
330
7A
100
AcDbEntity
  8
0
100
AcDbBlockEnd
  0
BLOCK
  5
8F
330
8E
100
AcDbEntity
  8
0
100
AcDbBlockBegin
  2
*D3
 70
     1
 10
0.0
 20
0.0
 30
0.0
  3
*D3
  1

  0
LINE
  5
91
330
8E
100
AcDbEntity
  8
001
370
     9
100
AcDbLine
 10
136.508798
 20
65.970835
 30
0.0
 11
136.508798
 21
27.522735
 31
0.0
  0
LINE
  5
92
330
8E
100
AcDbEntity
  8
001
370
     9
100
AcDbLine
 10
50.508798
 20
69.870835
 30
0.0
 11
50.508798
 21
27.522735
 31
0.0
  0
LINE
  5
93
330
8E
100
AcDbEntity
  8
001
370
     9
100
AcDbLine
 10
136.508798
 20
30.272735
 30
0.0
 11
50.508798
 21
30.272735
 31
0.0
  0
POLYLINE
  5
94
330
8E
100
AcDbEntity
  8
001
370
     9
100
AcDb2dPolyline
 66
     1
 10
0.0
 20
0.0
 30
0.0
  0
VERTEX
  5
96
330
94
100
AcDbEntity
  8
001
370
     9
100
AcDbVertex
100
AcDb2dVertex
 10
135.008798
 20
30.674658
 30
0.0
  0
VERTEX
  5
97
330
94
100
AcDbEntity
  8
001
370
     9
100
AcDbVertex
100
AcDb2dVertex
 10
136.508798
 20
30.272735
 30
0.0
  0
VERTEX
  5
98
330
94
100
AcDbEntity
  8
001
370
     9
100
AcDbVertex
100
AcDb2dVertex
 10
135.008798
 20
29.870811
 30
0.0
  0
SEQEND
  5
95
330
94
100
AcDbEntity
  8
001
370
     9
  0
POLYLINE
  5
99
330
8E
100
AcDbEntity
  8
001
370
     9
100
AcDb2dPolyline
 66
     1
 10
0.0
 20
0.0
 30
0.0
  0
VERTEX
  5
9B
330
99
100
AcDbEntity
  8
001
370
     9
100
AcDbVertex
100
AcDb2dVertex
 10
52.008798
 20
29.870811
 30
0.0
  0
VERTEX
  5
9C
330
99
100
AcDbEntity
  8
001
370
     9
100
AcDbVertex
100
AcDb2dVertex
 10
50.508798
 20
30.272735
 30
0.0
  0
VERTEX
  5
9D
330
99
100
AcDbEntity
  8
001
370
     9
100
AcDbVertex
100
AcDb2dVertex
 10
52.008798
 20
30.674658
 30
0.0
  0
SEQEND
  5
9A
330
99
100
AcDbEntity
  8
001
370
     9
  0
TEXT
  5
9E
330
8E
100
AcDbEntity
  8
001
370
    30
100
AcDbText
 10
89.508798
 20
31.272735
 30
0.0
 40
4.0
  1
８６
 41
0.833333
100
AcDbText
  0
POINT
  5
9F
330
8E
100
AcDbEntity
  8
001
370
     9
100
AcDbPoint
 10
136.508798
 20
65.970835
 30
0.0
  0
POINT
  5
A0
330
8E
100
AcDbEntity
  8
001
370
     9
100
AcDbPoint
 10
50.508798
 20
69.870835
 30
0.0
  0
POINT
  5
A1
330
8E
100
AcDbEntity
  8
001
370
     9
100
AcDbPoint
 10
50.508798
 20
30.272735
 30
0.0
  0
ENDBLK
  5
90
330
8E
100
AcDbEntity
  8
0
100
AcDbBlockEnd
  0
BLOCK
  5
A3
330
A2
100
AcDbEntity
  8
0
100
AcDbBlockBegin
  2
*D4
 70
     1
 10
0.0
 20
0.0
 30
0.0
  3
*D4
  1

  0
LINE
  5
A5
330
A2
100
AcDbEntity
  8
001
370
     9
100
AcDbLine
 10
216.508798
 20
75.970835
 30
0.0
 11
216.508798
 21
27.522735
 31
0.0
  0
LINE
  5
A6
330
A2
100
AcDbEntity
  8
001
370
     9
100
AcDbLine
 10
136.508798
 20
65.970835
 30
0.0
 11
136.508798
 21
27.522735
 31
0.0
  0
LINE
  5
A7
330
A2
100
AcDbEntity
  8
001
370
     9
100
AcDbLine
 10
216.508798
 20
30.272735
 30
0.0
 11
136.508798
 21
30.272735
 31
0.0
  0
POLYLINE
  5
A8
330
A2
100
AcDbEntity
  8
001
370
     9
100
AcDb2dPolyline
 66
     1
 10
0.0
 20
0.0
 30
0.0
  0
VERTEX
  5
AA
330
A8
100
AcDbEntity
  8
001
370
     9
100
AcDbVertex
100
AcDb2dVertex
 10
215.008798
 20
30.674658
 30
0.0
  0
VERTEX
  5
AB
330
A8
100
AcDbEntity
  8
001
370
     9
100
AcDbVertex
100
AcDb2dVertex
 10
216.508798
 20
30.272735
 30
0.0
  0
VERTEX
  5
AC
330
A8
100
AcDbEntity
  8
001
370
     9
100
AcDbVertex
100
AcDb2dVertex
 10
215.008798
 20
29.870811
 30
0.0
  0
SEQEND
  5
A9
330
A8
100
AcDbEntity
  8
001
370
     9
  0
POLYLINE
  5
AD
330
A2
100
AcDbEntity
  8
001
370
     9
100
AcDb2dPolyline
 66
     1
 10
0.0
 20
0.0
 30
0.0
  0
VERTEX
  5
AF
330
AD
100
AcDbEntity
  8
001
370
     9
100
AcDbVertex
100
AcDb2dVertex
 10
138.008798
 20
29.870811
 30
0.0
  0
VERTEX
  5
B0
330
AD
100
AcDbEntity
  8
001
370
     9
100
AcDbVertex
100
AcDb2dVertex
 10
136.508798
 20
30.272735
 30
0.0
  0
VERTEX
  5
B1
330
AD
100
AcDbEntity
  8
001
370
     9
100
AcDbVertex
100
AcDb2dVertex
 10
138.008798
 20
30.674658
 30
0.0
  0
SEQEND
  5
AE
330
AD
100
AcDbEntity
  8
001
370
     9
  0
TEXT
  5
B2
330
A2
100
AcDbEntity
  8
001
370
    30
100
AcDbText
 10
172.508798
 20
31.272735
 30
0.0
 40
4.0
  1
８０
 41
0.833333
100
AcDbText
  0
POINT
  5
B3
330
A2
100
AcDbEntity
  8
001
370
     9
100
AcDbPoint
 10
216.508798
 20
75.970835
 30
0.0
  0
POINT
  5
B4
330
A2
100
AcDbEntity
  8
001
370
     9
100
AcDbPoint
 10
136.508798
 20
65.970835
 30
0.0
  0
POINT
  5
B5
330
A2
100
AcDbEntity
  8
001
370
     9
100
AcDbPoint
 10
136.508798
 20
30.272735
 30
0.0
  0
ENDBLK
  5
A4
330
A2
100
AcDbEntity
  8
0
100
AcDbBlockEnd
  0
BLOCK
  5
B7
330
B6
100
AcDbEntity
  8
0
100
AcDbBlockBegin
  2
*D5
 70
     1
 10
0.0
 20
0.0
 30
0.0
  3
*D5
  1

  0
LINE
  5
B9
330
B6
100
AcDbEntity
  8
001
370
     9
100
AcDbLine
 10
50.508798
 20
69.870835
 30
0.0
 11
50.508798
 21
15.816743
 31
0.0
  0
LINE
  5
BA
330
B6
100
AcDbEntity
  8
001
370
     9
100
AcDbLine
 10
216.508798
 20
75.970835
 30
0.0
 11
216.508798
 21
15.816743
 31
0.0
  0
LINE
  5
BB
330
B6
100
AcDbEntity
  8
001
370
     9
100
AcDbLine
 10
50.508798
 20
18.566743
 30
0.0
 11
216.508798
 21
18.566743
 31
0.0
  0
POLYLINE
  5
BC
330
B6
100
AcDbEntity
  8
001
370
     9
100
AcDb2dPolyline
 66
     1
 10
0.0
 20
0.0
 30
0.0
  0
VERTEX
  5
BE
330
BC
100
AcDbEntity
  8
001
370
     9
100
AcDbVertex
100
AcDb2dVertex
 10
52.008798
 20
18.164819
 30
0.0
  0
VERTEX
  5
BF
330
BC
100
AcDbEntity
  8
001
370
     9
100
AcDbVertex
100
AcDb2dVertex
 10
50.508798
 20
18.566743
 30
0.0
  0
VERTEX
  5
C0
330
BC
100
AcDbEntity
  8
001
370
     9
100
AcDbVertex
100
AcDb2dVertex
 10
52.008798
 20
18.968667
 30
0.0
  0
SEQEND
  5
BD
330
BC
100
AcDbEntity
  8
001
370
     9
  0
POLYLINE
  5
C1
330
B6
100
AcDbEntity
  8
001
370
     9
100
AcDb2dPolyline
 66
     1
 10
0.0
 20
0.0
 30
0.0
  0
VERTEX
  5
C3
330
C1
100
AcDbEntity
  8
001
370
     9
100
AcDbVertex
100
AcDb2dVertex
 10
215.008798
 20
18.968667
 30
0.0
  0
VERTEX
  5
C4
330
C1
100
AcDbEntity
  8
001
370
     9
100
AcDbVertex
100
AcDb2dVertex
 10
216.508798
 20
18.566743
 30
0.0
  0
VERTEX
  5
C5
330
C1
100
AcDbEntity
  8
001
370
     9
100
AcDbVertex
100
AcDb2dVertex
 10
215.008798
 20
18.164819
 30
0.0
  0
SEQEND
  5
C2
330
C1
100
AcDbEntity
  8
001
370
     9
  0
TEXT
  5
C6
330
B6
100
AcDbEntity
  8
001
370
    30
100
AcDbText
 10
127.508798
 20
19.566743
 30
0.0
 40
4.0
  1
１６６
 41
0.833333
100
AcDbText
  0
POINT
  5
C7
330
B6
100
AcDbEntity
  8
001
370
     9
100
AcDbPoint
 10
50.508798
 20
69.870835
 30
0.0
  0
POINT
  5
C8
330
B6
100
AcDbEntity
  8
001
370
     9
100
AcDbPoint
 10
216.508798
 20
75.970835
 30
0.0
  0
POINT
  5
C9
330
B6
100
AcDbEntity
  8
001
370
     9
100
AcDbPoint
 10
216.508798
 20
18.566743
 30
0.0
  0
ENDBLK
  5
B8
330
B6
100
AcDbEntity
  8
0
100
AcDbBlockEnd
  0
BLOCK
  5
CB
330
CA
100
AcDbEntity
  8
0
100
AcDbBlockBegin
  2
*D6
 70
     1
 10
0.0
 20
0.0
 30
0.0
  3
*D6
  1

  0
LINE
  5
CD
330
CA
100
AcDbEntity
  8
001
370
     9
100
AcDbLine
 10
208.508798
 20
99.970835
 30
0.0
 11
243.63805
 21
99.970835
 31
0.0
  0
LINE
  5
CE
330
CA
100
AcDbEntity
  8
001
370
     9
100
AcDbLine
 10
208.508798
 20
67.970835
 30
0.0
 11
243.63805
 21
67.970835
 31
0.0
  0
LINE
  5
CF
330
CA
100
AcDbEntity
  8
001
370
     9
100
AcDbLine
 10
240.88805
 20
99.970835
 30
0.0
 11
240.88805
 21
67.970835
 31
0.0
  0
POLYLINE
  5
D0
330
CA
100
AcDbEntity
  8
001
370
     9
100
AcDb2dPolyline
 66
     1
 10
0.0
 20
0.0
 30
0.0
  0
VERTEX
  5
D2
330
D0
100
AcDbEntity
  8
001
370
     9
100
AcDbVertex
100
AcDb2dVertex
 10
240.486126
 20
98.470835
 30
0.0
  0
VERTEX
  5
D3
330
D0
100
AcDbEntity
  8
001
370
     9
100
AcDbVertex
100
AcDb2dVertex
 10
240.88805
 20
99.970835
 30
0.0
  0
VERTEX
  5
D4
330
D0
100
AcDbEntity
  8
001
370
     9
100
AcDbVertex
100
AcDb2dVertex
 10
241.289974
 20
98.470835
 30
0.0
  0
SEQEND
  5
D1
330
D0
100
AcDbEntity
  8
001
370
     9
  0
POLYLINE
  5
D5
330
CA
100
AcDbEntity
  8
001
370
     9
100
AcDb2dPolyline
 66
     1
 10
0.0
 20
0.0
 30
0.0
  0
VERTEX
  5
D7
330
D5
100
AcDbEntity
  8
001
370
     9
100
AcDbVertex
100
AcDb2dVertex
 10
241.289974
 20
69.470835
 30
0.0
  0
VERTEX
  5
D8
330
D5
100
AcDbEntity
  8
001
370
     9
100
AcDbVertex
100
AcDb2dVertex
 10
240.88805
 20
67.970835
 30
0.0
  0
VERTEX
  5
D9
330
D5
100
AcDbEntity
  8
001
370
     9
100
AcDbVertex
100
AcDb2dVertex
 10
240.486126
 20
69.470835
 30
0.0
  0
SEQEND
  5
D6
330
D5
100
AcDbEntity
  8
001
370
     9
  0
TEXT
  5
DA
330
CA
100
AcDbEntity
  8
001
370
    30
100
AcDbText
 10
239.88805
 20
77.970835
 30
0.0
 40
4.0
  1
%%c３２
 50
90.000003
 41
0.882353
100
AcDbText
  0
POINT
  5
DB
330
CA
100
AcDbEntity
  8
001
370
     9
100
AcDbPoint
 10
208.508798
 20
99.970835
 30
0.0
  0
POINT
  5
DC
330
CA
100
AcDbEntity
  8
001
370
     9
100
AcDbPoint
 10
208.508798
 20
67.970835
 30
0.0
  0
POINT
  5
DD
330
CA
100
AcDbEntity
  8
001
370
     9
100
AcDbPoint
 10
240.88805
 20
67.970835
 30
0.0
  0
ENDBLK
  5
CC
330
CA
100
AcDbEntity
  8
0
100
AcDbBlockEnd
  0
ENDSEC
  0
SECTION
  2
ENTITIES
  0
DIMENSION
  5
DE
330
1F
100
AcDbEntity
  8
001
370
     9
100
AcDbDimension
  2
*D1
 10
52.408799
 20
44.952683
 30
0.0
 11
41.008798
 21
47.952683
 31
0.0
 70
   160
 71
     5
 42
-1.0
  3
Standard
100
AcDbAlignedDimension
 13
50.508798
 23
69.870835
 33
0.0
 14
52.408799
 24
63.270835
 34
0.0
100
AcDbRotatedDimension
  0
DIMENSION
  5
DF
330
1F
100
AcDbEntity
  8
001
370
     9
100
AcDbDimension
  2
*D2
 10
36.408798
 20
83.970835
 30
0.0
 11
96.285444
 21
59.169116
 31
0.0
 70
    34
 71
     5
 42
-1.0
  3
Standard
100
AcDb2LineAngularDimension
 13
48.899616
 23
83.970835
 33
0.0
 14
36.408798
 24
83.970835
 34
0.0
 15
52.408799
 25
67.970834
 35
0.0
 16
99.057082
 26
58.021066
 36
0.0
  0
DIMENSION
  5
E0
330
1F
100
AcDbEntity
  8
001
370
     9
100
AcDbDimension
  2
*D3
 10
50.508798
 20
30.272735
 30
0.0
 11
93.508798
 21
33.272735
 31
0.0
 70
   160
 71
     5
 42
-1.0
  3
Standard
100
AcDbAlignedDimension
 13
136.508798
 23
65.970835
 33
0.0
 14
50.508798
 24
69.870835
 34
0.0
 50
180.0
100
AcDbRotatedDimension
  0
DIMENSION
  5
E1
330
1F
100
AcDbEntity
  8
001
370
     9
100
AcDbDimension
  2
*D4
 10
136.508798
 20
30.272735
 30
0.0
 11
176.508798
 21
33.272735
 31
0.0
 70
   160
 71
     5
 42
-1.0
  3
Standard
100
AcDbAlignedDimension
 13
216.508798
 23
75.970835
 33
0.0
 14
136.508798
 24
65.970835
 34
0.0
 50
180.0
100
AcDbRotatedDimension
  0
DIMENSION
  5
E2
330
1F
100
AcDbEntity
  8
001
370
     9
100
AcDbDimension
  2
*D5
 10
216.508798
 20
18.566743
 30
0.0
 11
133.508798
 21
21.566743
 31
0.0
 70
   160
 71
     5
 42
-1.0
  3
Standard
100
AcDbAlignedDimension
 13
50.508798
 23
69.870835
 33
0.0
 14
216.508798
 24
75.970835
 34
0.0
100
AcDbRotatedDimension
  0
DIMENSION
  5
E3
330
1F
100
AcDbEntity
  8
001
370
     9
100
AcDbDimension
  2
*D6
 10
240.88805
 20
67.970835
 30
0.0
 11
237.88805
 21
83.970835
 31
0.0
 70
   160
 71
     5
 42
-1.0
  3
Standard
100
AcDbAlignedDimension
 13
208.508798
 23
99.970835
 33
0.0
 14
208.508798
 24
67.970835
 34
0.0
 50
270.0
100
AcDbRotatedDimension
  0
TEXT
  5
E4
330
1F
100
AcDbEntity
  8
001
370
    30
100
AcDbText
 10
9.865762
 20
77.970835
 30
0.0
 40
4.0
  1
%%c４３
 50
90.000003
 41
0.882353
100
AcDbText
  0
POLYLINE
  5
E5
330
1F
100
AcDbEntity
  8
001
370
     9
100
AcDb2dPolyline
 66
     1
 10
0.0
 20
0.0
 30
0.0
  0
VERTEX
  5
E7
330
E5
100
AcDbEntity
  8
001
370
     9
100
AcDbVertex
100
AcDb2dVertex
 10
11.267686
 20
63.970835
 30
0.0
  0
VERTEX
  5
E8
330
E5
100
AcDbEntity
  8
001
370
     9
100
AcDbVertex
100
AcDb2dVertex
 10
10.865762
 20
62.470835
 30
0.0
  0
VERTEX
  5
E9
330
E5
100
AcDbEntity
  8
001
370
     9
100
AcDbVertex
100
AcDb2dVertex
 10
10.463838
 20
63.970835
 30
0.0
  0
SEQEND
  5
E6
330
E5
100
AcDbEntity
  8
001
370
     9
  0
LINE
  5
EA
330
1F
100
AcDbEntity
  8
001
370
     9
100
AcDbLine
 10
10.865762
 20
62.470835
 30
0.0
 11
10.865762
 21
105.470835
 31
0.0
  0
POLYLINE
  5
EB
330
1F
100
AcDbEntity
  8
001
370
     9
100
AcDb2dPolyline
 66
     1
 10
0.0
 20
0.0
 30
0.0
  0
VERTEX
  5
ED
330
EB
100
AcDbEntity
  8
001
370
     9
100
AcDbVertex
100
AcDb2dVertex
 10
53.208799
 20
62.470835
 30
0.0
  0
VERTEX
  5
EE
330
EB
100
AcDbEntity
  8
001
370
     9
100
AcDbVertex
100
AcDb2dVertex
 10
10.865762
 20
62.470835
 30
0.0
  0
VERTEX
  5
EF
330
EB
100
AcDbEntity
  8
001
370
     9
100
AcDbVertex
100
AcDb2dVertex
 10
8.115762
 20
62.470835
 30
0.0
  0
SEQEND
  5
EC
330
EB
100
AcDbEntity
  8
001
370
     9
  0
TEXT
  5
F0
330
1F
100
AcDbEntity
  8
001
370
    30
100
AcDbText
 10
26.550282
 20
73.970835
 30
0.0
 40
4.0
  1
%%c２８．２
 50
90.000003
 41
0.862069
100
AcDbText
  0
POLYLINE
  5
F1
330
1F
100
AcDbEntity
  8
001
370
     9
100
AcDb2dPolyline
 66
     1
 10
0.0
 20
0.0
 30
0.0
  0
VERTEX
  5
F3
330
F1
100
AcDbEntity
  8
001
370
     9
100
AcDbVertex
100
AcDb2dVertex
 10
27.952206
 20
71.370835
 30
0.0
  0
VERTEX
  5
F4
330
F1
100
AcDbEntity
  8
001
370
     9
100
AcDbVertex
100
AcDb2dVertex
 10
27.550282
 20
69.870835
 30
0.0
  0
VERTEX
  5
F5
330
F1
100
AcDbEntity
  8
001
370
     9
100
AcDbVertex
100
AcDb2dVertex
 10
27.148359
 20
71.370835
 30
0.0
  0
SEQEND
  5
F2
330
F1
100
AcDbEntity
  8
001
370
     9
  0
LINE
  5
F6
330
1F
100
AcDbEntity
  8
001
370
     9
100
AcDbLine
 10
27.550282
 20
69.870835
 30
0.0
 11
27.550282
 21
98.070835
 31
0.0
  0
POLYLINE
  5
F7
330
1F
100
AcDbEntity
  8
001
370
     9
100
AcDb2dPolyline
 66
     1
 10
0.0
 20
0.0
 30
0.0
  0
VERTEX
  5
F9
330
F7
100
AcDbEntity
  8
001
370
     9
100
AcDbVertex
100
AcDb2dVertex
 10
50.508798
 20
69.870835
 30
0.0
  0
VERTEX
  5
FA
330
F7
100
AcDbEntity
  8
001
370
     9
100
AcDbVertex
100
AcDb2dVertex
 10
27.550282
 20
69.870835
 30
0.0
  0
VERTEX
  5
FB
330
F7
100
AcDbEntity
  8
001
370
     9
100
AcDbVertex
100
AcDb2dVertex
 10
24.800282
 20
69.870835
 30
0.0
  0
SEQEND
  5
F8
330
F7
100
AcDbEntity
  8
001
370
     9
  0
TEXT
  5
FC
330
1F
100
AcDbEntity
  8
001
370
    30
100
AcDbText
 10
18.270653
 20
131.31397
 30
0.0
 40
10.0
  1
バーディーカット　ＢＣ３２－４３ＸＳ－Ｍ２７
 41
0.833333
100
AcDbText
  0
POLYLINE
  5
FD
330
1F
100
AcDbEntity
  8
001
370
    50
100
AcDb2dPolyline
 66
     1
 10
0.0
 20
0.0
 30
0.0
  0
VERTEX
  5
FF
330
FD
100
AcDbEntity
  8
001
370
    50
100
AcDbVertex
100
AcDb2dVertex
 10
58.32571
 20
74.357721
 30
0.0
  0
VERTEX
  5
100
330
FD
100
AcDbEntity
  8
001
370
    50
100
AcDbVertex
100
AcDb2dVertex
 10
58.054963
 20
74.343437
 30
0.0
  0
VERTEX
  5
101
330
FD
100
AcDbEntity
  8
001
370
    50
100
AcDbVertex
100
AcDb2dVertex
 10
57.684422
 20
74.30075
 30
0.0
  0
VERTEX
  5
102
330
FD
100
AcDbEntity
  8
001
370
    50
100
AcDbVertex
100
AcDb2dVertex
 10
57.356053
 20
74.229909
 30
0.0
  0
VERTEX
  5
103
330
FD
100
AcDbEntity
  8
001
370
    50
100
AcDbVertex
100
AcDb2dVertex
 10
57.06262
 20
74.131568
 30
0.0
  0
VERTEX
  5
104
330
FD
100
AcDbEntity
  8
001
370
    50
100
AcDbVertex
100
AcDb2dVertex
 10
56.768511
 20
74.006276
 30
0.0
  0
VERTEX
  5
105
330
FD
100
AcDbEntity
  8
001
370
    50
100
AcDbVertex
100
AcDb2dVertex
 10
56.479195
 20
73.855316
 30
0.0
  0
VERTEX
  5
106
330
FD
100
AcDbEntity
  8
001
370
    50
100
AcDbVertex
100
AcDb2dVertex
 10
56.206323
 20
73.679486
 30
0.0
  0
VERTEX
  5
107
330
FD
100
AcDbEntity
  8
001
370
    50
100
AcDbVertex
100
AcDb2dVertex
 10
55.951877
 20
73.480388
 30
0.0
  0
VERTEX
  5
108
330
FD
100
AcDbEntity
  8
001
370
    50
100
AcDbVertex
100
AcDb2dVertex
 10
55.714466
 20
73.258947
 30
0.0
  0
VERTEX
  5
109
330
FD
100
AcDbEntity
  8
001
370
    50
100
AcDbVertex
100
AcDb2dVertex
 10
55.496686
 20
73.018175
 30
0.0
  0
VERTEX
  5
10A
330
FD
100
AcDbEntity
  8
001
370
    50
100
AcDbVertex
100
AcDb2dVertex
 10
55.300378
 20
72.759452
 30
0.0
  0
VERTEX
  5
10B
330
FD
100
AcDbEntity
  8
001
370
    50
100
AcDbVertex
100
AcDb2dVertex
 10
55.127453
 20
72.482721
 30
0.0
  0
VERTEX
  5
10C
330
FD
100
AcDbEntity
  8
001
370
    50
100
AcDbVertex
100
AcDb2dVertex
 10
54.978647
 20
72.188674
 30
0.0
  0
VERTEX
  5
10D
330
FD
100
AcDbEntity
  8
001
370
    50
100
AcDbVertex
100
AcDb2dVertex
 10
54.855398
 20
71.890297
 30
0.0
  0
VERTEX
  5
10E
330
FD
100
AcDbEntity
  8
001
370
    50
100
AcDbVertex
100
AcDb2dVertex
 10
54.758493
 20
71.592078
 30
0.0
  0
VERTEX
  5
10F
330
FD
100
AcDbEntity
  8
001
370
    50
100
AcDbVertex
100
AcDb2dVertex
 10
54.688786
 20
71.258902
 30
0.0
  0
VERTEX
  5
110
330
FD
100
AcDbEntity
  8
001
370
    50
100
AcDbVertex
100
AcDb2dVertex
 10
54.64674
 20
70.8826
 30
0.0
  0
VERTEX
  5
111
330
FD
100
AcDbEntity
  8
001
370
    50
100
AcDbVertex
100
AcDb2dVertex
 10
54.632681
 20
70.607721
 30
0.0
  0
SEQEND
  5
FE
330
FD
100
AcDbEntity
  8
001
370
    50
  0
LINE
  5
112
330
1F
100
AcDbEntity
  8
001
370
    50
100
AcDbLine
 10
50.508798
 20
69.870835
 30
0.0
 11
50.508798
 21
75.82191
 31
0.0
  0
POLYLINE
  5
113
330
1F
100
AcDbEntity
  8
001
370
    50
100
AcDb2dPolyline
 66
     1
 10
0.0
 20
0.0
 30
0.0
  0
VERTEX
  5
115
330
113
100
AcDbEntity
  8
001
370
    50
100
AcDbVertex
100
AcDb2dVertex
 10
51.290736
 20
76.61591
 30
0.0
  0
VERTEX
  5
116
330
113
100
AcDbEntity
  8
001
370
    50
100
AcDbVertex
100
AcDb2dVertex
 10
51.23341
 20
76.612886
 30
0.0
  0
VERTEX
  5
117
330
113
100
AcDbEntity
  8
001
370
    50
100
AcDbVertex
100
AcDb2dVertex
 10
51.154954
 20
76.603847
 30
0.0
  0
VERTEX
  5
118
330
113
100
AcDbEntity
  8
001
370
    50
100
AcDbVertex
100
AcDb2dVertex
 10
51.085427
 20
76.588848
 30
0.0
  0
VERTEX
  5
119
330
113
100
AcDbEntity
  8
001
370
    50
100
AcDbVertex
100
AcDb2dVertex
 10
51.023297
 20
76.568026
 30
0.0
  0
VERTEX
  5
11A
330
113
100
AcDbEntity
  8
001
370
    50
100
AcDbVertex
100
AcDb2dVertex
 10
50.961025
 20
76.541498
 30
0.0
  0
VERTEX
  5
11B
330
113
100
AcDbEntity
  8
001
370
    50
100
AcDbVertex
100
AcDb2dVertex
 10
50.899767
 20
76.509534
 30
0.0
  0
VERTEX
  5
11C
330
113
100
AcDbEntity
  8
001
370
    50
100
AcDbVertex
100
AcDb2dVertex
 10
50.841991
 20
76.472305
 30
0.0
  0
VERTEX
  5
11D
330
113
100
AcDbEntity
  8
001
370
    50
100
AcDbVertex
100
AcDb2dVertex
 10
50.788116
 20
76.430149
 30
0.0
  0
VERTEX
  5
11E
330
113
100
AcDbEntity
  8
001
370
    50
100
AcDbVertex
100
AcDb2dVertex
 10
50.737848
 20
76.383263
 30
0.0
  0
VERTEX
  5
11F
330
113
100
AcDbEntity
  8
001
370
    50
100
AcDbVertex
100
AcDb2dVertex
 10
50.691737
 20
76.332283
 30
0.0
  0
VERTEX
  5
120
330
113
100
AcDbEntity
  8
001
370
    50
100
AcDbVertex
100
AcDb2dVertex
 10
50.650172
 20
76.277503
 30
0.0
  0
VERTEX
  5
121
330
113
100
AcDbEntity
  8
001
370
    50
100
AcDbVertex
100
AcDb2dVertex
 10
50.613558
 20
76.21891
 30
0.0
  0
VERTEX
  5
122
330
113
100
AcDbEntity
  8
001
370
    50
100
AcDbVertex
100
AcDb2dVertex
 10
50.582051
 20
76.156651
 30
0.0
  0
VERTEX
  5
123
330
113
100
AcDbEntity
  8
001
370
    50
100
AcDbVertex
100
AcDb2dVertex
 10
50.555955
 20
76.093474
 30
0.0
  0
VERTEX
  5
124
330
113
100
AcDbEntity
  8
001
370
    50
100
AcDbVertex
100
AcDb2dVertex
 10
50.535437
 20
76.030331
 30
0.0
  0
VERTEX
  5
125
330
113
100
AcDbEntity
  8
001
370
    50
100
AcDbVertex
100
AcDb2dVertex
 10
50.520678
 20
75.959787
 30
0.0
  0
VERTEX
  5
126
330
113
100
AcDbEntity
  8
001
370
    50
100
AcDbVertex
100
AcDb2dVertex
 10
50.511775
 20
75.880111
 30
0.0
  0
VERTEX
  5
127
330
113
100
AcDbEntity
  8
001
370
    50
100
AcDbVertex
100
AcDb2dVertex
 10
50.508798
 20
75.82191
 30
0.0
  0
SEQEND
  5
114
330
113
100
AcDbEntity
  8
001
370
    50
  0
LINE
  5
128
330
1F
100
AcDbEntity
  8
001
370
    50
100
AcDbLine
 10
55.949076
 20
76.61591
 30
0.0
 11
51.290736
 21
76.61591
 31
0.0
  0
LINE
  5
129
330
1F
100
AcDbEntity
  8
001
370
    50
100
AcDbLine
 10
57.917959
 20
78.545221
 30
0.0
 11
55.949076
 21
76.61591
 31
0.0
  0
LINE
  5
12A
330
1F
100
AcDbEntity
  8
001
370
    50
100
AcDbLine
 10
63.460684
 20
78.545221
 30
0.0
 11
57.917959
 21
78.545221
 31
0.0
  0
POLYLINE
  5
12B
330
1F
100
AcDbEntity
  8
001
370
    50
100
AcDb2dPolyline
 66
     1
 10
0.0
 20
0.0
 30
0.0
  0
VERTEX
  5
12D
330
12B
100
AcDbEntity
  8
001
370
    50
100
AcDbVertex
100
AcDb2dVertex
 10
64.242621
 20
77.751221
 30
0.0
  0
VERTEX
  5
12E
330
12B
100
AcDbEntity
  8
001
370
    50
100
AcDbVertex
100
AcDb2dVertex
 10
64.239644
 20
77.809422
 30
0.0
  0
VERTEX
  5
12F
330
12B
100
AcDbEntity
  8
001
370
    50
100
AcDbVertex
100
AcDb2dVertex
 10
64.230742
 20
77.889098
 30
0.0
  0
VERTEX
  5
130
330
12B
100
AcDbEntity
  8
001
370
    50
100
AcDbVertex
100
AcDb2dVertex
 10
64.215982
 20
77.959642
 30
0.0
  0
VERTEX
  5
131
330
12B
100
AcDbEntity
  8
001
370
    50
100
AcDbVertex
100
AcDb2dVertex
 10
64.195464
 20
78.022785
 30
0.0
  0
VERTEX
  5
132
330
12B
100
AcDbEntity
  8
001
370
    50
100
AcDbVertex
100
AcDb2dVertex
 10
64.169368
 20
78.085962
 30
0.0
  0
VERTEX
  5
133
330
12B
100
AcDbEntity
  8
001
370
    50
100
AcDbVertex
100
AcDb2dVertex
 10
64.137861
 20
78.148221
 30
0.0
  0
VERTEX
  5
134
330
12B
100
AcDbEntity
  8
001
370
    50
100
AcDbVertex
100
AcDb2dVertex
 10
64.101247
 20
78.206814
 30
0.0
  0
VERTEX
  5
135
330
12B
100
AcDbEntity
  8
001
370
    50
100
AcDbVertex
100
AcDb2dVertex
 10
64.059682
 20
78.261594
 30
0.0
  0
VERTEX
  5
136
330
12B
100
AcDbEntity
  8
001
370
    50
100
AcDbVertex
100
AcDb2dVertex
 10
64.013571
 20
78.312574
 30
0.0
  0
VERTEX
  5
137
330
12B
100
AcDbEntity
  8
001
370
    50
100
AcDbVertex
100
AcDb2dVertex
 10
63.963303
 20
78.35946
 30
0.0
  0
VERTEX
  5
138
330
12B
100
AcDbEntity
  8
001
370
    50
100
AcDbVertex
100
AcDb2dVertex
 10
63.909428
 20
78.401616
 30
0.0
  0
VERTEX
  5
139
330
12B
100
AcDbEntity
  8
001
370
    50
100
AcDbVertex
100
AcDb2dVertex
 10
63.851652
 20
78.438845
 30
0.0
  0
VERTEX
  5
13A
330
12B
100
AcDbEntity
  8
001
370
    50
100
AcDbVertex
100
AcDb2dVertex
 10
63.790395
 20
78.470809
 30
0.0
  0
VERTEX
  5
13B
330
12B
100
AcDbEntity
  8
001
370
    50
100
AcDbVertex
100
AcDb2dVertex
 10
63.728122
 20
78.497337
 30
0.0
  0
VERTEX
  5
13C
330
12B
100
AcDbEntity
  8
001
370
    50
100
AcDbVertex
100
AcDb2dVertex
 10
63.665992
 20
78.518159
 30
0.0
  0
VERTEX
  5
13D
330
12B
100
AcDbEntity
  8
001
370
    50
100
AcDbVertex
100
AcDb2dVertex
 10
63.596466
 20
78.533158
 30
0.0
  0
VERTEX
  5
13E
330
12B
100
AcDbEntity
  8
001
370
    50
100
AcDbVertex
100
AcDb2dVertex
 10
63.51801
 20
78.542197
 30
0.0
  0
VERTEX
  5
13F
330
12B
100
AcDbEntity
  8
001
370
    50
100
AcDbVertex
100
AcDb2dVertex
 10
63.460684
 20
78.545221
 30
0.0
  0
SEQEND
  5
12C
330
12B
100
AcDbEntity
  8
001
370
    50
  0
LINE
  5
140
330
1F
100
AcDbEntity
  8
001
370
    50
100
AcDbLine
 10
64.242621
 20
73.021019
 30
0.0
 11
64.242621
 21
77.751221
 31
0.0
  0
LINE
  5
141
330
1F
100
AcDbEntity
  8
001
370
    50
100
AcDbLine
 10
66.142621
 20
71.021762
 30
0.0
 11
64.242621
 21
73.021019
 31
0.0
  0
LINE
  5
142
330
1F
100
AcDbEntity
  8
001
370
    50
100
AcDbLine
 10
66.142621
 20
65.393532
 30
0.0
 11
66.142621
 21
71.021762
 31
0.0
  0
POLYLINE
  5
143
330
1F
100
AcDbEntity
  8
001
370
    50
100
AcDb2dPolyline
 66
     1
 10
0.0
 20
0.0
 30
0.0
  0
VERTEX
  5
145
330
143
100
AcDbEntity
  8
001
370
    50
100
AcDbVertex
100
AcDb2dVertex
 10
65.360684
 20
64.599532
 30
0.0
  0
VERTEX
  5
146
330
143
100
AcDbEntity
  8
001
370
    50
100
AcDbVertex
100
AcDb2dVertex
 10
65.41801
 20
64.602557
 30
0.0
  0
VERTEX
  5
147
330
143
100
AcDbEntity
  8
001
370
    50
100
AcDbVertex
100
AcDb2dVertex
 10
65.496466
 20
64.611595
 30
0.0
  0
VERTEX
  5
148
330
143
100
AcDbEntity
  8
001
370
    50
100
AcDbVertex
100
AcDb2dVertex
 10
65.565993
 20
64.626594
 30
0.0
  0
VERTEX
  5
149
330
143
100
AcDbEntity
  8
001
370
    50
100
AcDbVertex
100
AcDb2dVertex
 10
65.628122
 20
64.647416
 30
0.0
  0
VERTEX
  5
14A
330
143
100
AcDbEntity
  8
001
370
    50
100
AcDbVertex
100
AcDb2dVertex
 10
65.690395
 20
64.673945
 30
0.0
  0
VERTEX
  5
14B
330
143
100
AcDbEntity
  8
001
370
    50
100
AcDbVertex
100
AcDb2dVertex
 10
65.751653
 20
64.705908
 30
0.0
  0
VERTEX
  5
14C
330
143
100
AcDbEntity
  8
001
370
    50
100
AcDbVertex
100
AcDb2dVertex
 10
65.809429
 20
64.743137
 30
0.0
  0
VERTEX
  5
14D
330
143
100
AcDbEntity
  8
001
370
    50
100
AcDbVertex
100
AcDb2dVertex
 10
65.863304
 20
64.785293
 30
0.0
  0
VERTEX
  5
14E
330
143
100
AcDbEntity
  8
001
370
    50
100
AcDbVertex
100
AcDb2dVertex
 10
65.913572
 20
64.832179
 30
0.0
  0
VERTEX
  5
14F
330
143
100
AcDbEntity
  8
001
370
    50
100
AcDbVertex
100
AcDb2dVertex
 10
65.959683
 20
64.883159
 30
0.0
  0
VERTEX
  5
150
330
143
100
AcDbEntity
  8
001
370
    50
100
AcDbVertex
100
AcDb2dVertex
 10
66.001248
 20
64.937939
 30
0.0
  0
VERTEX
  5
151
330
143
100
AcDbEntity
  8
001
370
    50
100
AcDbVertex
100
AcDb2dVertex
 10
66.037862
 20
64.996532
 30
0.0
  0
VERTEX
  5
152
330
143
100
AcDbEntity
  8
001
370
    50
100
AcDbVertex
100
AcDb2dVertex
 10
66.069369
 20
65.058792
 30
0.0
  0
VERTEX
  5
153
330
143
100
AcDbEntity
  8
001
370
    50
100
AcDbVertex
100
AcDb2dVertex
 10
66.095465
 20
65.121968
 30
0.0
  0
VERTEX
  5
154
330
143
100
AcDbEntity
  8
001
370
    50
100
AcDbVertex
100
AcDb2dVertex
 10
66.115983
 20
65.185111
 30
0.0
  0
VERTEX
  5
155
330
143
100
AcDbEntity
  8
001
370
    50
100
AcDbVertex
100
AcDb2dVertex
 10
66.130742
 20
65.255655
 30
0.0
  0
VERTEX
  5
156
330
143
100
AcDbEntity
  8
001
370
    50
100
AcDbVertex
100
AcDb2dVertex
 10
66.139645
 20
65.335331
 30
0.0
  0
VERTEX
  5
157
330
143
100
AcDbEntity
  8
001
370
    50
100
AcDbVertex
100
AcDb2dVertex
 10
66.142621
 20
65.393532
 30
0.0
  0
SEQEND
  5
144
330
143
100
AcDbEntity
  8
001
370
    50
  0
LINE
  5
158
330
1F
100
AcDbEntity
  8
001
370
    50
100
AcDbLine
 10
60.702344
 20
64.599532
 30
0.0
 11
65.360684
 21
64.599532
 31
0.0
  0
LINE
  5
159
330
1F
100
AcDbEntity
  8
001
370
    50
100
AcDbLine
 10
58.529985
 20
62.470835
 30
0.0
 11
60.702344
 21
64.599532
 31
0.0
  0
LINE
  5
15A
330
1F
100
AcDbEntity
  8
001
370
    50
100
AcDbLine
 10
58.529985
 20
62.470835
 30
0.0
 11
53.208799
 21
62.470835
 31
0.0
  0
LINE
  5
15B
330
1F
100
AcDbEntity
  8
001
370
    50
100
AcDbLine
 10
52.408799
 20
63.270835
 30
0.0
 11
52.408799
 21
67.970834
 31
0.0
  0
POLYLINE
  5
15C
330
1F
100
AcDbEntity
  8
001
370
    50
100
AcDb2dPolyline
 66
     1
 10
0.0
 20
0.0
 30
0.0
  0
VERTEX
  5
15E
330
15C
100
AcDbEntity
  8
001
370
    50
100
AcDbVertex
100
AcDb2dVertex
 10
54.632681
 20
70.607721
 30
0.0
  0
VERTEX
  5
15F
330
15C
100
AcDbEntity
  8
001
370
    50
100
AcDbVertex
100
AcDb2dVertex
 10
54.650467
 20
70.298633
 30
0.0
  0
VERTEX
  5
160
330
15C
100
AcDbEntity
  8
001
370
    50
100
AcDbVertex
100
AcDb2dVertex
 10
54.703641
 20
69.876132
 30
0.0
  0
VERTEX
  5
161
330
15C
100
AcDbEntity
  8
001
370
    50
100
AcDbVertex
100
AcDb2dVertex
 10
54.791692
 20
69.503676
 30
0.0
  0
VERTEX
  5
162
330
15C
100
AcDbEntity
  8
001
370
    50
100
AcDbVertex
100
AcDb2dVertex
 10
54.913796
 20
69.172658
 30
0.0
  0
VERTEX
  5
163
330
15C
100
AcDbEntity
  8
001
370
    50
100
AcDbVertex
100
AcDb2dVertex
 10
55.068575
 20
68.844363
 30
0.0
  0
VERTEX
  5
164
330
15C
100
AcDbEntity
  8
001
370
    50
100
AcDbVertex
100
AcDb2dVertex
 10
55.255068
 20
68.524333
 30
0.0
  0
VERTEX
  5
165
330
15C
100
AcDbEntity
  8
001
370
    50
100
AcDbVertex
100
AcDb2dVertex
 10
55.471103
 20
68.22785
 30
0.0
  0
VERTEX
  5
166
330
15C
100
AcDbEntity
  8
001
370
    50
100
AcDbVertex
100
AcDb2dVertex
 10
55.714344
 20
67.956071
 30
0.0
  0
VERTEX
  5
167
330
15C
100
AcDbEntity
  8
001
370
    50
100
AcDbVertex
100
AcDb2dVertex
 10
55.981562
 20
67.709412
 30
0.0
  0
VERTEX
  5
168
330
15C
100
AcDbEntity
  8
001
370
    50
100
AcDbVertex
100
AcDb2dVertex
 10
56.273973
 20
67.48971
 30
0.0
  0
VERTEX
  5
169
330
15C
100
AcDbEntity
  8
001
370
    50
100
AcDbVertex
100
AcDb2dVertex
 10
56.58879
 20
67.30056
 30
0.0
  0
VERTEX
  5
16A
330
15C
100
AcDbEntity
  8
001
370
    50
100
AcDbVertex
100
AcDb2dVertex
 10
56.912449
 20
67.143173
 30
0.0
  0
VERTEX
  5
16B
330
15C
100
AcDbEntity
  8
001
370
    50
100
AcDbVertex
100
AcDb2dVertex
 10
57.238082
 20
67.019276
 30
0.0
  0
VERTEX
  5
16C
330
15C
100
AcDbEntity
  8
001
370
    50
100
AcDbVertex
100
AcDb2dVertex
 10
57.605236
 20
66.929776
 30
0.0
  0
VERTEX
  5
16D
330
15C
100
AcDbEntity
  8
001
370
    50
100
AcDbVertex
100
AcDb2dVertex
 10
58.021255
 20
66.875796
 30
0.0
  0
VERTEX
  5
16E
330
15C
100
AcDbEntity
  8
001
370
    50
100
AcDbVertex
100
AcDb2dVertex
 10
58.32571
 20
66.857721
 30
0.0
  0
SEQEND
  5
15D
330
15C
100
AcDbEntity
  8
001
370
    50
  0
POLYLINE
  5
16F
330
1F
100
AcDbEntity
  8
001
370
    50
100
AcDb2dPolyline
 66
     1
 10
0.0
 20
0.0
 30
0.0
  0
VERTEX
  5
171
330
16F
100
AcDbEntity
  8
001
370
    50
100
AcDbVertex
100
AcDb2dVertex
 10
58.32571
 20
66.857721
 30
0.0
  0
VERTEX
  5
172
330
16F
100
AcDbEntity
  8
001
370
    50
100
AcDbVertex
100
AcDb2dVertex
 10
58.596457
 20
66.872005
 30
0.0
  0
VERTEX
  5
173
330
16F
100
AcDbEntity
  8
001
370
    50
100
AcDbVertex
100
AcDb2dVertex
 10
58.966998
 20
66.914692
 30
0.0
  0
VERTEX
  5
174
330
16F
100
AcDbEntity
  8
001
370
    50
100
AcDbVertex
100
AcDb2dVertex
 10
59.295367
 20
66.985538
 30
0.0
  0
VERTEX
  5
175
330
16F
100
AcDbEntity
  8
001
370
    50
100
AcDbVertex
100
AcDb2dVertex
 10
59.5888
 20
67.083874
 30
0.0
  0
VERTEX
  5
176
330
16F
100
AcDbEntity
  8
001
370
    50
100
AcDbVertex
100
AcDb2dVertex
 10
59.882909
 20
67.209147
 30
0.0
  0
VERTEX
  5
177
330
16F
100
AcDbEntity
  8
001
370
    50
100
AcDbVertex
100
AcDb2dVertex
 10
60.172224
 20
67.360126
 30
0.0
  0
VERTEX
  5
178
330
16F
100
AcDbEntity
  8
001
370
    50
100
AcDbVertex
100
AcDb2dVertex
 10
60.445097
 20
67.536027
 30
0.0
  0
VERTEX
  5
179
330
16F
100
AcDbEntity
  8
001
370
    50
100
AcDbVertex
100
AcDb2dVertex
 10
60.699543
 20
67.735054
 30
0.0
  0
VERTEX
  5
17A
330
16F
100
AcDbEntity
  8
001
370
    50
100
AcDbVertex
100
AcDb2dVertex
 10
60.936954
 20
67.956231
 30
0.0
  0
VERTEX
  5
17B
330
16F
100
AcDbEntity
  8
001
370
    50
100
AcDbVertex
100
AcDb2dVertex
 10
61.154734
 20
68.197268
 30
0.0
  0
VERTEX
  5
17C
330
16F
100
AcDbEntity
  8
001
370
    50
100
AcDbVertex
100
AcDb2dVertex
 10
61.351042
 20
68.456981
 30
0.0
  0
VERTEX
  5
17D
330
16F
100
AcDbEntity
  8
001
370
    50
100
AcDbVertex
100
AcDb2dVertex
 10
61.523967
 20
68.732721
 30
0.0
  0
VERTEX
  5
17E
330
16F
100
AcDbEntity
  8
001
370
    50
100
AcDbVertex
100
AcDb2dVertex
 10
61.672773
 20
69.023056
 30
0.0
  0
VERTEX
  5
17F
330
16F
100
AcDbEntity
  8
001
370
    50
100
AcDbVertex
100
AcDb2dVertex
 10
61.796022
 20
69.325146
 30
0.0
  0
VERTEX
  5
180
330
16F
100
AcDbEntity
  8
001
370
    50
100
AcDbVertex
100
AcDb2dVertex
 10
61.892927
 20
69.637256
 30
0.0
  0
VERTEX
  5
181
330
16F
100
AcDbEntity
  8
001
370
    50
100
AcDbVertex
100
AcDb2dVertex
 10
61.962634
 20
69.95654
 30
0.0
  0
VERTEX
  5
182
330
16F
100
AcDbEntity
  8
001
370
    50
100
AcDbVertex
100
AcDb2dVertex
 10
62.00468
 20
70.280925
 30
0.0
  0
VERTEX
  5
183
330
16F
100
AcDbEntity
  8
001
370
    50
100
AcDbVertex
100
AcDb2dVertex
 10
62.018739
 20
70.607721
 30
0.0
  0
VERTEX
  5
184
330
16F
100
AcDbEntity
  8
001
370
    50
100
AcDbVertex
100
AcDb2dVertex
 10
62.00468
 20
70.934517
 30
0.0
  0
VERTEX
  5
185
330
16F
100
AcDbEntity
  8
001
370
    50
100
AcDbVertex
100
AcDb2dVertex
 10
61.962634
 20
71.258902
 30
0.0
  0
VERTEX
  5
186
330
16F
100
AcDbEntity
  8
001
370
    50
100
AcDbVertex
100
AcDb2dVertex
 10
61.892927
 20
71.578187
 30
0.0
  0
VERTEX
  5
187
330
16F
100
AcDbEntity
  8
001
370
    50
100
AcDbVertex
100
AcDb2dVertex
 10
61.796022
 20
71.890297
 30
0.0
  0
VERTEX
  5
188
330
16F
100
AcDbEntity
  8
001
370
    50
100
AcDbVertex
100
AcDb2dVertex
 10
61.672773
 20
72.192386
 30
0.0
  0
VERTEX
  5
189
330
16F
100
AcDbEntity
  8
001
370
    50
100
AcDbVertex
100
AcDb2dVertex
 10
61.523967
 20
72.482721
 30
0.0
  0
VERTEX
  5
18A
330
16F
100
AcDbEntity
  8
001
370
    50
100
AcDbVertex
100
AcDb2dVertex
 10
61.351042
 20
72.758461
 30
0.0
  0
VERTEX
  5
18B
330
16F
100
AcDbEntity
  8
001
370
    50
100
AcDbVertex
100
AcDb2dVertex
 10
61.154734
 20
73.018175
 30
0.0
  0
VERTEX
  5
18C
330
16F
100
AcDbEntity
  8
001
370
    50
100
AcDbVertex
100
AcDb2dVertex
 10
60.936954
 20
73.259211
 30
0.0
  0
VERTEX
  5
18D
330
16F
100
AcDbEntity
  8
001
370
    50
100
AcDbVertex
100
AcDb2dVertex
 10
60.699543
 20
73.480388
 30
0.0
  0
VERTEX
  5
18E
330
16F
100
AcDbEntity
  8
001
370
    50
100
AcDbVertex
100
AcDb2dVertex
 10
60.445097
 20
73.679416
 30
0.0
  0
VERTEX
  5
18F
330
16F
100
AcDbEntity
  8
001
370
    50
100
AcDbVertex
100
AcDb2dVertex
 10
60.172224
 20
73.855316
 30
0.0
  0
VERTEX
  5
190
330
16F
100
AcDbEntity
  8
001
370
    50
100
AcDbVertex
100
AcDb2dVertex
 10
59.882909
 20
74.006295
 30
0.0
  0
VERTEX
  5
191
330
16F
100
AcDbEntity
  8
001
370
    50
100
AcDbVertex
100
AcDb2dVertex
 10
59.5888
 20
74.131568
 30
0.0
  0
VERTEX
  5
192
330
16F
100
AcDbEntity
  8
001
370
    50
100
AcDbVertex
100
AcDb2dVertex
 10
59.295367
 20
74.229905
 30
0.0
  0
VERTEX
  5
193
330
16F
100
AcDbEntity
  8
001
370
    50
100
AcDbVertex
100
AcDb2dVertex
 10
58.966998
 20
74.30075
 30
0.0
  0
VERTEX
  5
194
330
16F
100
AcDbEntity
  8
001
370
    50
100
AcDbVertex
100
AcDb2dVertex
 10
58.596457
 20
74.343438
 30
0.0
  0
VERTEX
  5
195
330
16F
100
AcDbEntity
  8
001
370
    50
100
AcDbVertex
100
AcDb2dVertex
 10
58.32571
 20
74.357721
 30
0.0
  0
SEQEND
  5
170
330
16F
100
AcDbEntity
  8
001
370
    50
  0
POLYLINE
  5
196
330
1F
100
AcDbEntity
  8
001
370
    50
100
AcDb2dPolyline
 66
     1
 10
0.0
 20
0.0
 30
0.0
  0
VERTEX
  5
198
330
196
100
AcDbEntity
  8
001
370
    50
100
AcDbVertex
100
AcDb2dVertex
 10
132.477924
 20
63.970835
 30
0.0
  0
VERTEX
  5
199
330
196
100
AcDbEntity
  8
001
370
    50
100
AcDbVertex
100
AcDb2dVertex
 10
132.447974
 20
63.975704
 30
0.0
  0
VERTEX
  5
19A
330
196
100
AcDbEntity
  8
001
370
    50
100
AcDbVertex
100
AcDb2dVertex
 10
132.418459
 20
63.982016
 30
0.0
  0
VERTEX
  5
19B
330
196
100
AcDbEntity
  8
001
370
    50
100
AcDbVertex
100
AcDb2dVertex
 10
132.343416
 20
64.01059
 30
0.0
  0
VERTEX
  5
19C
330
196
100
AcDbEntity
  8
001
370
    50
100
AcDbVertex
100
AcDb2dVertex
 10
132.271966
 20
64.049464
 30
0.0
  0
VERTEX
  5
19D
330
196
100
AcDbEntity
  8
001
370
    50
100
AcDbVertex
100
AcDb2dVertex
 10
132.165174
 20
64.111889
 30
0.0
  0
VERTEX
  5
19E
330
196
100
AcDbEntity
  8
001
370
    50
100
AcDbVertex
100
AcDb2dVertex
 10
132.05999
 20
64.175551
 30
0.0
  0
VERTEX
  5
19F
330
196
100
AcDbEntity
  8
001
370
    50
100
AcDbVertex
100
AcDb2dVertex
 10
131.918917
 20
64.264751
 30
0.0
  0
VERTEX
  5
1A0
330
196
100
AcDbEntity
  8
001
370
    50
100
AcDbVertex
100
AcDb2dVertex
 10
131.778682
 20
64.35586
 30
0.0
  0
VERTEX
  5
1A1
330
196
100
AcDbEntity
  8
001
370
    50
100
AcDbVertex
100
AcDb2dVertex
 10
131.601531
 20
64.471177
 30
0.0
  0
VERTEX
  5
1A2
330
196
100
AcDbEntity
  8
001
370
    50
100
AcDbVertex
100
AcDb2dVertex
 10
131.424193
 20
64.585975
 30
0.0
  0
VERTEX
  5
1A3
330
196
100
AcDbEntity
  8
001
370
    50
100
AcDbVertex
100
AcDb2dVertex
 10
131.207245
 20
64.725068
 30
0.0
  0
VERTEX
  5
1A4
330
196
100
AcDbEntity
  8
001
370
    50
100
AcDbVertex
100
AcDb2dVertex
 10
130.989345
 20
64.862746
 30
0.0
  0
VERTEX
  5
1A5
330
196
100
AcDbEntity
  8
001
370
    50
100
AcDbVertex
100
AcDb2dVertex
 10
130.732875
 20
65.021588
 30
0.0
  0
VERTEX
  5
1A6
330
196
100
AcDbEntity
  8
001
370
    50
100
AcDbVertex
100
AcDb2dVertex
 10
130.474813
 20
65.177804
 30
0.0
  0
VERTEX
  5
1A7
330
196
100
AcDbEntity
  8
001
370
    50
100
AcDbVertex
100
AcDb2dVertex
 10
130.181021
 20
65.351232
 30
0.0
  0
VERTEX
  5
1A8
330
196
100
AcDbEntity
  8
001
370
    50
100
AcDbVertex
100
AcDb2dVertex
 10
129.885143
 20
65.521088
 30
0.0
  0
VERTEX
  5
1A9
330
196
100
AcDbEntity
  8
001
370
    50
100
AcDbVertex
100
AcDb2dVertex
 10
129.556295
 20
65.704156
 30
0.0
  0
VERTEX
  5
1AA
330
196
100
AcDbEntity
  8
001
370
    50
100
AcDbVertex
100
AcDb2dVertex
 10
129.224883
 20
65.882537
 30
0.0
  0
VERTEX
  5
1AB
330
196
100
AcDbEntity
  8
001
370
    50
100
AcDbVertex
100
AcDb2dVertex
 10
128.881954
 20
66.060701
 30
0.0
  0
VERTEX
  5
1AC
330
196
100
AcDbEntity
  8
001
370
    50
100
AcDbVertex
100
AcDb2dVertex
 10
128.536479
 20
66.23388
 30
0.0
  0
VERTEX
  5
1AD
330
196
100
AcDbEntity
  8
001
370
    50
100
AcDbVertex
100
AcDb2dVertex
 10
128.164438
 20
66.413654
 30
0.0
  0
VERTEX
  5
1AE
330
196
100
AcDbEntity
  8
001
370
    50
100
AcDbVertex
100
AcDb2dVertex
 10
127.789781
 20
66.58791
 30
0.0
  0
VERTEX
  5
1AF
330
196
100
AcDbEntity
  8
001
370
    50
100
AcDbVertex
100
AcDb2dVertex
 10
127.392349
 20
66.765546
 30
0.0
  0
VERTEX
  5
1B0
330
196
100
AcDbEntity
  8
001
370
    50
100
AcDbVertex
100
AcDb2dVertex
 10
126.992218
 20
66.937019
 30
0.0
  0
VERTEX
  5
1B1
330
196
100
AcDbEntity
  8
001
370
    50
100
AcDbVertex
100
AcDb2dVertex
 10
126.57311
 20
67.108784
 30
0.0
  0
VERTEX
  5
1B2
330
196
100
AcDbEntity
  8
001
370
    50
100
AcDbVertex
100
AcDb2dVertex
 10
126.151222
 20
67.273603
 30
0.0
  0
VERTEX
  5
1B3
330
196
100
AcDbEntity
  8
001
370
    50
100
AcDbVertex
100
AcDb2dVertex
 10
125.662442
 20
67.454489
 30
0.0
  0
VERTEX
  5
1B4
330
196
100
AcDbEntity
  8
001
370
    50
100
AcDbVertex
100
AcDb2dVertex
 10
125.170322
 20
67.626097
 30
0.0
  0
VERTEX
  5
1B5
330
196
100
AcDbEntity
  8
001
370
    50
100
AcDbVertex
100
AcDb2dVertex
 10
124.658626
 20
67.793799
 30
0.0
  0
VERTEX
  5
1B6
330
196
100
AcDbEntity
  8
001
370
    50
100
AcDbVertex
100
AcDb2dVertex
 10
124.143844
 20
67.951773
 30
0.0
  0
VERTEX
  5
1B7
330
196
100
AcDbEntity
  8
001
370
    50
100
AcDbVertex
100
AcDb2dVertex
 10
123.613697
 20
68.103442
 30
0.0
  0
VERTEX
  5
1B8
330
196
100
AcDbEntity
  8
001
370
    50
100
AcDbVertex
100
AcDb2dVertex
 10
123.080699
 20
68.24477
 30
0.0
  0
VERTEX
  5
1B9
330
196
100
AcDbEntity
  8
001
370
    50
100
AcDbVertex
100
AcDb2dVertex
 10
122.536549
 20
68.377568
 30
0.0
  0
VERTEX
  5
1BA
330
196
100
AcDbEntity
  8
001
370
    50
100
AcDbVertex
100
AcDb2dVertex
 10
121.989799
 20
68.499226
 30
0.0
  0
VERTEX
  5
1BB
330
196
100
AcDbEntity
  8
001
370
    50
100
AcDbVertex
100
AcDb2dVertex
 10
121.336671
 20
68.629041
 30
0.0
  0
VERTEX
  5
1BC
330
196
100
AcDbEntity
  8
001
370
    50
100
AcDbVertex
100
AcDb2dVertex
 10
120.680556
 20
68.742874
 30
0.0
  0
VERTEX
  5
1BD
330
196
100
AcDbEntity
  8
001
370
    50
100
AcDbVertex
100
AcDb2dVertex
 10
120.01237
 20
68.842218
 30
0.0
  0
VERTEX
  5
1BE
330
196
100
AcDbEntity
  8
001
370
    50
100
AcDbVertex
100
AcDb2dVertex
 10
119.34198
 20
68.925383
 30
0.0
  0
VERTEX
  5
1BF
330
196
100
AcDbEntity
  8
001
370
    50
100
AcDbVertex
100
AcDb2dVertex
 10
118.664681
 20
68.992819
 30
0.0
  0
VERTEX
  5
1C0
330
196
100
AcDbEntity
  8
001
370
    50
100
AcDbVertex
100
AcDb2dVertex
 10
117.985935
 20
69.043699
 30
0.0
  0
VERTEX
  5
1C1
330
196
100
AcDbEntity
  8
001
370
    50
100
AcDbVertex
100
AcDb2dVertex
 10
117.305429
 20
69.077837
 30
0.0
  0
VERTEX
  5
1C2
330
196
100
AcDbEntity
  8
001
370
    50
100
AcDbVertex
100
AcDb2dVertex
 10
116.624283
 20
69.094767
 30
0.0
  0
VERTEX
  5
1C3
330
196
100
AcDbEntity
  8
001
370
    50
100
AcDbVertex
100
AcDb2dVertex
 10
115.869955
 20
69.093103
 30
0.0
  0
VERTEX
  5
1C4
330
196
100
AcDbEntity
  8
001
370
    50
100
AcDbVertex
100
AcDb2dVertex
 10
115.115949
 20
69.07043
 30
0.0
  0
VERTEX
  5
1C5
330
196
100
AcDbEntity
  8
001
370
    50
100
AcDbVertex
100
AcDb2dVertex
 10
114.362525
 20
69.02732
 30
0.0
  0
VERTEX
  5
1C6
330
196
100
AcDbEntity
  8
001
370
    50
100
AcDbVertex
100
AcDb2dVertex
 10
113.610522
 20
68.964208
 30
0.0
  0
VERTEX
  5
1C7
330
196
100
AcDbEntity
  8
001
370
    50
100
AcDbVertex
100
AcDb2dVertex
 10
112.865509
 20
68.882075
 30
0.0
  0
VERTEX
  5
1C8
330
196
100
AcDbEntity
  8
001
370
    50
100
AcDbVertex
100
AcDb2dVertex
 10
112.122842
 20
68.780778
 30
0.0
  0
VERTEX
  5
1C9
330
196
100
AcDbEntity
  8
001
370
    50
100
AcDbVertex
100
AcDb2dVertex
 10
111.393604
 20
68.662252
 30
0.0
  0
VERTEX
  5
1CA
330
196
100
AcDbEntity
  8
001
370
    50
100
AcDbVertex
100
AcDb2dVertex
 10
110.667749
 20
68.524821
 30
0.0
  0
VERTEX
  5
1CB
330
196
100
AcDbEntity
  8
001
370
    50
100
AcDbVertex
100
AcDb2dVertex
 10
110.627704
 20
68.516662
 30
0.0
  0
VERTEX
  5
1CC
330
196
100
AcDbEntity
  8
001
370
    50
100
AcDbVertex
100
AcDb2dVertex
 10
110.587664
 20
68.508473
 30
0.0
  0
SEQEND
  5
197
330
196
100
AcDbEntity
  8
001
370
    50
  0
LINE
  5
1CD
330
1F
100
AcDbEntity
  8
001
370
    50
100
AcDbLine
 10
134.508798
 20
103.970835
 30
0.0
 11
53.008798
 21
103.970835
 31
0.0
  0
LINE
  5
1CE
330
1F
100
AcDbEntity
  8
001
370
    50
100
AcDbLine
 10
132.467728
 20
63.970835
 30
0.0
 11
134.508798
 21
63.970835
 31
0.0
  0
LINE
  5
1CF
330
1F
100
AcDbEntity
  8
001
370
    50
100
AcDbLine
 10
66.775664
 20
64.005323
 30
0.0
 11
65.633102
 21
63.988877
 31
0.0
  0
POLYLINE
  5
1D0
330
1F
100
AcDbEntity
  8
001
370
    50
100
AcDb2dPolyline
 66
     1
 10
0.0
 20
0.0
 30
0.0
  0
VERTEX
  5
1D2
330
1D0
100
AcDbEntity
  8
001
370
    50
100
AcDbVertex
100
AcDb2dVertex
 10
67.992664
 20
64.028853
 30
0.0
  0
VERTEX
  5
1D3
330
1D0
100
AcDbEntity
  8
001
370
    50
100
AcDbVertex
100
AcDb2dVertex
 10
67.944138
 20
64.027926
 30
0.0
  0
VERTEX
  5
1D4
330
1D0
100
AcDbEntity
  8
001
370
    50
100
AcDbVertex
100
AcDb2dVertex
 10
67.895611
 20
64.026999
 30
0.0
  0
VERTEX
  5
1D5
330
1D0
100
AcDbEntity
  8
001
370
    50
100
AcDbVertex
100
AcDb2dVertex
 10
67.335637
 20
64.016208
 30
0.0
  0
VERTEX
  5
1D6
330
1D0
100
AcDbEntity
  8
001
370
    50
100
AcDbVertex
100
AcDb2dVertex
 10
66.775664
 20
64.005323
 30
0.0
  0
SEQEND
  5
1D1
330
1D0
100
AcDbEntity
  8
001
370
    50
  0
LINE
  5
1D7
330
1F
100
AcDbEntity
  8
001
370
    50
100
AcDbLine
 10
69.209664
 20
64.058458
 30
0.0
 11
67.992664
 21
64.028853
 31
0.0
  0
LINE
  5
1D8
330
1F
100
AcDbEntity
  8
001
370
    50
100
AcDbLine
 10
70.426664
 20
64.094129
 30
0.0
 11
69.209664
 21
64.058458
 31
0.0
  0
LINE
  5
1D9
330
1F
100
AcDbEntity
  8
001
370
    50
100
AcDbLine
 10
71.643664
 20
64.135854
 30
0.0
 11
70.426664
 21
64.094129
 31
0.0
  0
POLYLINE
  5
1DA
330
1F
100
AcDbEntity
  8
001
370
    50
100
AcDb2dPolyline
 66
     1
 10
0.0
 20
0.0
 30
0.0
  0
VERTEX
  5
1DC
330
1DA
100
AcDbEntity
  8
001
370
    50
100
AcDbVertex
100
AcDb2dVertex
 10
72.860664
 20
64.183621
 30
0.0
  0
VERTEX
  5
1DD
330
1DA
100
AcDbEntity
  8
001
370
    50
100
AcDbVertex
100
AcDb2dVertex
 10
72.339924
 20
64.163759
 30
0.0
  0
VERTEX
  5
1DE
330
1DA
100
AcDbEntity
  8
001
370
    50
100
AcDbVertex
100
AcDb2dVertex
 10
71.819215
 20
64.143102
 30
0.0
  0
VERTEX
  5
1DF
330
1DA
100
AcDbEntity
  8
001
370
    50
100
AcDbVertex
100
AcDb2dVertex
 10
71.731439
 20
64.139489
 30
0.0
  0
VERTEX
  5
1E0
330
1DA
100
AcDbEntity
  8
001
370
    50
100
AcDbVertex
100
AcDb2dVertex
 10
71.643664
 20
64.135854
 30
0.0
  0
SEQEND
  5
1DB
330
1DA
100
AcDbEntity
  8
001
370
    50
  0
POLYLINE
  5
1E1
330
1F
100
AcDbEntity
  8
001
370
    50
100
AcDb2dPolyline
 66
     1
 10
0.0
 20
0.0
 30
0.0
  0
VERTEX
  5
1E3
330
1E1
100
AcDbEntity
  8
001
370
    50
100
AcDbVertex
100
AcDb2dVertex
 10
74.077664
 20
64.237416
 30
0.0
  0
VERTEX
  5
1E4
330
1E1
100
AcDbEntity
  8
001
370
    50
100
AcDbVertex
100
AcDb2dVertex
 10
73.556917
 20
64.215131
 30
0.0
  0
VERTEX
  5
1E5
330
1E1
100
AcDbEntity
  8
001
370
    50
100
AcDbVertex
100
AcDb2dVertex
 10
73.036215
 20
64.191836
 30
0.0
  0
VERTEX
  5
1E6
330
1E1
100
AcDbEntity
  8
001
370
    50
100
AcDbVertex
100
AcDb2dVertex
 10
72.948439
 20
64.187743
 30
0.0
  0
VERTEX
  5
1E7
330
1E1
100
AcDbEntity
  8
001
370
    50
100
AcDbVertex
100
AcDb2dVertex
 10
72.860664
 20
64.183621
 30
0.0
  0
SEQEND
  5
1E2
330
1E1
100
AcDbEntity
  8
001
370
    50
  0
POLYLINE
  5
1E8
330
1F
100
AcDbEntity
  8
001
370
    50
100
AcDb2dPolyline
 66
     1
 10
0.0
 20
0.0
 30
0.0
  0
VERTEX
  5
1EA
330
1E8
100
AcDbEntity
  8
001
370
    50
100
AcDbVertex
100
AcDb2dVertex
 10
75.294664
 20
64.297221
 30
0.0
  0
VERTEX
  5
1EB
330
1E8
100
AcDbEntity
  8
001
370
    50
100
AcDbVertex
100
AcDb2dVertex
 10
74.773909
 20
64.272521
 30
0.0
  0
VERTEX
  5
1EC
330
1E8
100
AcDbEntity
  8
001
370
    50
100
AcDbVertex
100
AcDb2dVertex
 10
74.253215
 20
64.246595
 30
0.0
  0
VERTEX
  5
1ED
330
1E8
100
AcDbEntity
  8
001
370
    50
100
AcDbVertex
100
AcDb2dVertex
 10
74.165439
 20
64.242023
 30
0.0
  0
VERTEX
  5
1EE
330
1E8
100
AcDbEntity
  8
001
370
    50
100
AcDbVertex
100
AcDb2dVertex
 10
74.077664
 20
64.237416
 30
0.0
  0
SEQEND
  5
1E9
330
1E8
100
AcDbEntity
  8
001
370
    50
  0
POLYLINE
  5
1EF
330
1F
100
AcDbEntity
  8
001
370
    50
100
AcDb2dPolyline
 66
     1
 10
0.0
 20
0.0
 30
0.0
  0
VERTEX
  5
1F1
330
1EF
100
AcDbEntity
  8
001
370
    50
100
AcDbVertex
100
AcDb2dVertex
 10
76.511664
 20
64.363019
 30
0.0
  0
VERTEX
  5
1F2
330
1EF
100
AcDbEntity
  8
001
370
    50
100
AcDbVertex
100
AcDb2dVertex
 10
75.9909
 20
64.335911
 30
0.0
  0
VERTEX
  5
1F3
330
1EF
100
AcDbEntity
  8
001
370
    50
100
AcDbVertex
100
AcDb2dVertex
 10
75.470215
 20
64.307362
 30
0.0
  0
VERTEX
  5
1F4
330
1EF
100
AcDbEntity
  8
001
370
    50
100
AcDbVertex
100
AcDb2dVertex
 10
75.382439
 20
64.302312
 30
0.0
  0
VERTEX
  5
1F5
330
1EF
100
AcDbEntity
  8
001
370
    50
100
AcDbVertex
100
AcDb2dVertex
 10
75.294664
 20
64.297221
 30
0.0
  0
SEQEND
  5
1F0
330
1EF
100
AcDbEntity
  8
001
370
    50
  0
POLYLINE
  5
1F6
330
1F
100
AcDbEntity
  8
001
370
    50
100
AcDb2dPolyline
 66
     1
 10
0.0
 20
0.0
 30
0.0
  0
VERTEX
  5
1F8
330
1F6
100
AcDbEntity
  8
001
370
    50
100
AcDbVertex
100
AcDb2dVertex
 10
77.728664
 20
64.43479
 30
0.0
  0
VERTEX
  5
1F9
330
1F6
100
AcDbEntity
  8
001
370
    50
100
AcDbVertex
100
AcDb2dVertex
 10
77.20789
 20
64.405282
 30
0.0
  0
VERTEX
  5
1FA
330
1F6
100
AcDbEntity
  8
001
370
    50
100
AcDbVertex
100
AcDb2dVertex
 10
76.687215
 20
64.374119
 30
0.0
  0
VERTEX
  5
1FB
330
1F6
100
AcDbEntity
  8
001
370
    50
100
AcDbVertex
100
AcDb2dVertex
 10
76.599438
 20
64.368592
 30
0.0
  0
VERTEX
  5
1FC
330
1F6
100
AcDbEntity
  8
001
370
    50
100
AcDbVertex
100
AcDb2dVertex
 10
76.511664
 20
64.363019
 30
0.0
  0
SEQEND
  5
1F7
330
1F6
100
AcDbEntity
  8
001
370
    50
  0
POLYLINE
  5
1FD
330
1F
100
AcDbEntity
  8
001
370
    50
100
AcDb2dPolyline
 66
     1
 10
0.0
 20
0.0
 30
0.0
  0
VERTEX
  5
1FF
330
1FD
100
AcDbEntity
  8
001
370
    50
100
AcDbVertex
100
AcDb2dVertex
 10
78.945664
 20
64.512512
 30
0.0
  0
VERTEX
  5
200
330
1FD
100
AcDbEntity
  8
001
370
    50
100
AcDbVertex
100
AcDb2dVertex
 10
78.424878
 20
64.480612
 30
0.0
  0
VERTEX
  5
201
330
1FD
100
AcDbEntity
  8
001
370
    50
100
AcDbVertex
100
AcDb2dVertex
 10
77.904215
 20
64.446845
 30
0.0
  0
VERTEX
  5
202
330
1FD
100
AcDbEntity
  8
001
370
    50
100
AcDbVertex
100
AcDb2dVertex
 10
77.816438
 20
64.440844
 30
0.0
  0
VERTEX
  5
203
330
1FD
100
AcDbEntity
  8
001
370
    50
100
AcDbVertex
100
AcDb2dVertex
 10
77.728664
 20
64.43479
 30
0.0
  0
SEQEND
  5
1FE
330
1FD
100
AcDbEntity
  8
001
370
    50
  0
POLYLINE
  5
204
330
1F
100
AcDbEntity
  8
001
370
    50
100
AcDb2dPolyline
 66
     1
 10
0.0
 20
0.0
 30
0.0
  0
VERTEX
  5
206
330
204
100
AcDbEntity
  8
001
370
    50
100
AcDbVertex
100
AcDb2dVertex
 10
80.162664
 20
64.596161
 30
0.0
  0
VERTEX
  5
207
330
204
100
AcDbEntity
  8
001
370
    50
100
AcDbVertex
100
AcDb2dVertex
 10
79.641866
 20
64.561879
 30
0.0
  0
VERTEX
  5
208
330
204
100
AcDbEntity
  8
001
370
    50
100
AcDbVertex
100
AcDb2dVertex
 10
79.121215
 20
64.525518
 30
0.0
  0
VERTEX
  5
209
330
204
100
AcDbEntity
  8
001
370
    50
100
AcDbVertex
100
AcDb2dVertex
 10
79.033438
 20
64.519044
 30
0.0
  0
VERTEX
  5
20A
330
204
100
AcDbEntity
  8
001
370
    50
100
AcDbVertex
100
AcDb2dVertex
 10
78.945664
 20
64.512512
 30
0.0
  0
SEQEND
  5
205
330
204
100
AcDbEntity
  8
001
370
    50
  0
POLYLINE
  5
20B
330
1F
100
AcDbEntity
  8
001
370
    50
100
AcDb2dPolyline
 66
     1
 10
0.0
 20
0.0
 30
0.0
  0
VERTEX
  5
20D
330
20B
100
AcDbEntity
  8
001
370
    50
100
AcDbVertex
100
AcDb2dVertex
 10
81.379664
 20
64.685711
 30
0.0
  0
VERTEX
  5
20E
330
20B
100
AcDbEntity
  8
001
370
    50
100
AcDbVertex
100
AcDb2dVertex
 10
80.858853
 20
64.649058
 30
0.0
  0
VERTEX
  5
20F
330
20B
100
AcDbEntity
  8
001
370
    50
100
AcDbVertex
100
AcDb2dVertex
 10
80.338215
 20
64.610114
 30
0.0
  0
VERTEX
  5
210
330
20B
100
AcDbEntity
  8
001
370
    50
100
AcDbVertex
100
AcDb2dVertex
 10
80.250437
 20
64.60317
 30
0.0
  0
VERTEX
  5
211
330
20B
100
AcDbEntity
  8
001
370
    50
100
AcDbVertex
100
AcDb2dVertex
 10
80.162664
 20
64.596161
 30
0.0
  0
SEQEND
  5
20C
330
20B
100
AcDbEntity
  8
001
370
    50
  0
POLYLINE
  5
212
330
1F
100
AcDbEntity
  8
001
370
    50
100
AcDb2dPolyline
 66
     1
 10
0.0
 20
0.0
 30
0.0
  0
VERTEX
  5
214
330
212
100
AcDbEntity
  8
001
370
    50
100
AcDbVertex
100
AcDb2dVertex
 10
82.596664
 20
64.781137
 30
0.0
  0
VERTEX
  5
215
330
212
100
AcDbEntity
  8
001
370
    50
100
AcDbVertex
100
AcDb2dVertex
 10
82.075838
 20
64.742123
 30
0.0
  0
VERTEX
  5
216
330
212
100
AcDbEntity
  8
001
370
    50
100
AcDbVertex
100
AcDb2dVertex
 10
81.555215
 20
64.700608
 30
0.0
  0
VERTEX
  5
217
330
212
100
AcDbEntity
  8
001
370
    50
100
AcDbVertex
100
AcDb2dVertex
 10
81.467437
 20
64.693195
 30
0.0
  0
VERTEX
  5
218
330
212
100
AcDbEntity
  8
001
370
    50
100
AcDbVertex
100
AcDb2dVertex
 10
81.379664
 20
64.685711
 30
0.0
  0
SEQEND
  5
213
330
212
100
AcDbEntity
  8
001
370
    50
  0
POLYLINE
  5
219
330
1F
100
AcDbEntity
  8
001
370
    50
100
AcDb2dPolyline
 66
     1
 10
0.0
 20
0.0
 30
0.0
  0
VERTEX
  5
21B
330
219
100
AcDbEntity
  8
001
370
    50
100
AcDbVertex
100
AcDb2dVertex
 10
83.813664
 20
64.882407
 30
0.0
  0
VERTEX
  5
21C
330
219
100
AcDbEntity
  8
001
370
    50
100
AcDbVertex
100
AcDb2dVertex
 10
83.292823
 20
64.841044
 30
0.0
  0
VERTEX
  5
21D
330
219
100
AcDbEntity
  8
001
370
    50
100
AcDbVertex
100
AcDb2dVertex
 10
82.772215
 20
64.796972
 30
0.0
  0
VERTEX
  5
21E
330
219
100
AcDbEntity
  8
001
370
    50
100
AcDbVertex
100
AcDb2dVertex
 10
82.684436
 20
64.789093
 30
0.0
  0
VERTEX
  5
21F
330
219
100
AcDbEntity
  8
001
370
    50
100
AcDbVertex
100
AcDb2dVertex
 10
82.596664
 20
64.781137
 30
0.0
  0
SEQEND
  5
21A
330
219
100
AcDbEntity
  8
001
370
    50
  0
POLYLINE
  5
220
330
1F
100
AcDbEntity
  8
001
370
    50
100
AcDb2dPolyline
 66
     1
 10
0.0
 20
0.0
 30
0.0
  0
VERTEX
  5
222
330
220
100
AcDbEntity
  8
001
370
    50
100
AcDbVertex
100
AcDb2dVertex
 10
85.030664
 20
64.989492
 30
0.0
  0
VERTEX
  5
223
330
220
100
AcDbEntity
  8
001
370
    50
100
AcDbVertex
100
AcDb2dVertex
 10
84.509807
 20
64.945792
 30
0.0
  0
VERTEX
  5
224
330
220
100
AcDbEntity
  8
001
370
    50
100
AcDbVertex
100
AcDb2dVertex
 10
83.989215
 20
64.899176
 30
0.0
  0
VERTEX
  5
225
330
220
100
AcDbEntity
  8
001
370
    50
100
AcDbVertex
100
AcDb2dVertex
 10
83.901436
 20
64.890833
 30
0.0
  0
VERTEX
  5
226
330
220
100
AcDbEntity
  8
001
370
    50
100
AcDbVertex
100
AcDb2dVertex
 10
83.813664
 20
64.882407
 30
0.0
  0
SEQEND
  5
221
330
220
100
AcDbEntity
  8
001
370
    50
  0
POLYLINE
  5
227
330
1F
100
AcDbEntity
  8
001
370
    50
100
AcDb2dPolyline
 66
     1
 10
0.0
 20
0.0
 30
0.0
  0
VERTEX
  5
229
330
227
100
AcDbEntity
  8
001
370
    50
100
AcDbVertex
100
AcDb2dVertex
 10
86.247664
 20
65.102359
 30
0.0
  0
VERTEX
  5
22A
330
227
100
AcDbEntity
  8
001
370
    50
100
AcDbVertex
100
AcDb2dVertex
 10
85.72679
 20
65.056336
 30
0.0
  0
VERTEX
  5
22B
330
227
100
AcDbEntity
  8
001
370
    50
100
AcDbVertex
100
AcDb2dVertex
 10
85.206215
 20
65.00719
 30
0.0
  0
VERTEX
  5
22C
330
227
100
AcDbEntity
  8
001
370
    50
100
AcDbVertex
100
AcDb2dVertex
 10
85.118435
 20
64.998386
 30
0.0
  0
VERTEX
  5
22D
330
227
100
AcDbEntity
  8
001
370
    50
100
AcDbVertex
100
AcDb2dVertex
 10
85.030664
 20
64.989492
 30
0.0
  0
SEQEND
  5
228
330
227
100
AcDbEntity
  8
001
370
    50
  0
POLYLINE
  5
22E
330
1F
100
AcDbEntity
  8
001
370
    50
100
AcDb2dPolyline
 66
     1
 10
0.0
 20
0.0
 30
0.0
  0
VERTEX
  5
230
330
22E
100
AcDbEntity
  8
001
370
    50
100
AcDbVertex
100
AcDb2dVertex
 10
87.464664
 20
65.220973
 30
0.0
  0
VERTEX
  5
231
330
22E
100
AcDbEntity
  8
001
370
    50
100
AcDbVertex
100
AcDb2dVertex
 10
86.943772
 20
65.17264
 30
0.0
  0
VERTEX
  5
232
330
22E
100
AcDbEntity
  8
001
370
    50
100
AcDbVertex
100
AcDb2dVertex
 10
86.423215
 20
65.12098
 30
0.0
  0
VERTEX
  5
233
330
22E
100
AcDbEntity
  8
001
370
    50
100
AcDbVertex
100
AcDb2dVertex
 10
86.335435
 20
65.111717
 30
0.0
  0
VERTEX
  5
234
330
22E
100
AcDbEntity
  8
001
370
    50
100
AcDbVertex
100
AcDb2dVertex
 10
86.247664
 20
65.102359
 30
0.0
  0
SEQEND
  5
22F
330
22E
100
AcDbEntity
  8
001
370
    50
  0
POLYLINE
  5
235
330
1F
100
AcDbEntity
  8
001
370
    50
100
AcDb2dPolyline
 66
     1
 10
0.0
 20
0.0
 30
0.0
  0
VERTEX
  5
237
330
235
100
AcDbEntity
  8
001
370
    50
100
AcDbVertex
100
AcDb2dVertex
 10
88.681664
 20
65.345299
 30
0.0
  0
VERTEX
  5
238
330
235
100
AcDbEntity
  8
001
370
    50
100
AcDbVertex
100
AcDb2dVertex
 10
88.160753
 20
65.29467
 30
0.0
  0
VERTEX
  5
239
330
235
100
AcDbEntity
  8
001
370
    50
100
AcDbVertex
100
AcDb2dVertex
 10
87.640215
 20
65.240513
 30
0.0
  0
VERTEX
  5
23A
330
235
100
AcDbEntity
  8
001
370
    50
100
AcDbVertex
100
AcDb2dVertex
 10
87.552434
 20
65.230793
 30
0.0
  0
VERTEX
  5
23B
330
235
100
AcDbEntity
  8
001
370
    50
100
AcDbVertex
100
AcDb2dVertex
 10
87.464664
 20
65.220973
 30
0.0
  0
SEQEND
  5
236
330
235
100
AcDbEntity
  8
001
370
    50
  0
LINE
  5
23C
330
1F
100
AcDbEntity
  8
001
370
    50
100
AcDbLine
 10
89.898664
 20
65.475299
 30
0.0
 11
88.681664
 21
65.345299
 31
0.0
  0
LINE
  5
23D
330
1F
100
AcDbEntity
  8
001
370
    50
100
AcDbLine
 10
91.115664
 20
65.610932
 30
0.0
 11
89.898664
 21
65.475299
 31
0.0
  0
LINE
  5
23E
330
1F
100
AcDbEntity
  8
001
370
    50
100
AcDbLine
 10
92.332664
 20
65.752158
 30
0.0
 11
91.115664
 21
65.610932
 31
0.0
  0
LINE
  5
23F
330
1F
100
AcDbEntity
  8
001
370
    50
100
AcDbLine
 10
93.549664
 20
65.898933
 30
0.0
 11
92.332664
 21
65.752158
 31
0.0
  0
LINE
  5
240
330
1F
100
AcDbEntity
  8
001
370
    50
100
AcDbLine
 10
94.766664
 20
66.051213
 30
0.0
 11
93.549664
 21
65.898933
 31
0.0
  0
LINE
  5
241
330
1F
100
AcDbEntity
  8
001
370
    50
100
AcDbLine
 10
95.983664
 20
66.208952
 30
0.0
 11
94.766664
 21
66.051213
 31
0.0
  0
LINE
  5
242
330
1F
100
AcDbEntity
  8
001
370
    50
100
AcDbLine
 10
97.200664
 20
66.372102
 30
0.0
 11
95.983664
 21
66.208952
 31
0.0
  0
LINE
  5
243
330
1F
100
AcDbEntity
  8
001
370
    50
100
AcDbLine
 10
98.417664
 20
66.540612
 30
0.0
 11
97.200664
 21
66.372102
 31
0.0
  0
LINE
  5
244
330
1F
100
AcDbEntity
  8
001
370
    50
100
AcDbLine
 10
99.634664
 20
66.714431
 30
0.0
 11
98.417664
 21
66.540612
 31
0.0
  0
LINE
  5
245
330
1F
100
AcDbEntity
  8
001
370
    50
100
AcDbLine
 10
100.851664
 20
66.893507
 30
0.0
 11
99.634664
 21
66.714431
 31
0.0
  0
LINE
  5
246
330
1F
100
AcDbEntity
  8
001
370
    50
100
AcDbLine
 10
102.068664
 20
67.077785
 30
0.0
 11
100.851664
 21
66.893507
 31
0.0
  0
LINE
  5
247
330
1F
100
AcDbEntity
  8
001
370
    50
100
AcDbLine
 10
103.285664
 20
67.267208
 30
0.0
 11
102.068664
 21
67.077785
 31
0.0
  0
LINE
  5
248
330
1F
100
AcDbEntity
  8
001
370
    50
100
AcDbLine
 10
104.502664
 20
67.46172
 30
0.0
 11
103.285664
 21
67.267208
 31
0.0
  0
LINE
  5
249
330
1F
100
AcDbEntity
  8
001
370
    50
100
AcDbLine
 10
105.719664
 20
67.66126
 30
0.0
 11
104.502664
 21
67.46172
 31
0.0
  0
LINE
  5
24A
330
1F
100
AcDbEntity
  8
001
370
    50
100
AcDbLine
 10
106.936664
 20
67.865769
 30
0.0
 11
105.719664
 21
67.66126
 31
0.0
  0
LINE
  5
24B
330
1F
100
AcDbEntity
  8
001
370
    50
100
AcDbLine
 10
108.153664
 20
68.075183
 30
0.0
 11
106.936664
 21
67.865769
 31
0.0
  0
LINE
  5
24C
330
1F
100
AcDbEntity
  8
001
370
    50
100
AcDbLine
 10
109.370664
 20
68.28944
 30
0.0
 11
108.153664
 21
68.075183
 31
0.0
  0
LINE
  5
24D
330
1F
100
AcDbEntity
  8
001
370
    50
100
AcDbLine
 10
110.587664
 20
68.508473
 30
0.0
 11
109.370664
 21
68.28944
 31
0.0
  0
POLYLINE
  5
24E
330
1F
100
AcDbEntity
  8
001
370
    50
100
AcDb2dPolyline
 66
     1
 10
0.0
 20
0.0
 30
0.0
  0
VERTEX
  5
250
330
24E
100
AcDbEntity
  8
001
370
    50
100
AcDbVertex
100
AcDb2dVertex
 10
131.557502
 20
66.9588
 30
0.0
  0
VERTEX
  5
251
330
24E
100
AcDbEntity
  8
001
370
    50
100
AcDbVertex
100
AcDb2dVertex
 10
131.659312
 20
66.644289
 30
0.0
  0
VERTEX
  5
252
330
24E
100
AcDbEntity
  8
001
370
    50
100
AcDbVertex
100
AcDb2dVertex
 10
131.763033
 20
66.330416
 30
0.0
  0
VERTEX
  5
253
330
24E
100
AcDbEntity
  8
001
370
    50
100
AcDbVertex
100
AcDb2dVertex
 10
131.85897
 20
66.049714
 30
0.0
  0
VERTEX
  5
254
330
24E
100
AcDbEntity
  8
001
370
    50
100
AcDbVertex
100
AcDb2dVertex
 10
131.957329
 20
65.769847
 30
0.0
  0
VERTEX
  5
255
330
24E
100
AcDbEntity
  8
001
370
    50
100
AcDbVertex
100
AcDb2dVertex
 10
132.045154
 20
65.524872
 30
0.0
  0
VERTEX
  5
256
330
24E
100
AcDbEntity
  8
001
370
    50
100
AcDbVertex
100
AcDb2dVertex
 10
132.134262
 20
65.280357
 30
0.0
  0
VERTEX
  5
257
330
24E
100
AcDbEntity
  8
001
370
    50
100
AcDbVertex
100
AcDb2dVertex
 10
132.210886
 20
65.072735
 30
0.0
  0
VERTEX
  5
258
330
24E
100
AcDbEntity
  8
001
370
    50
100
AcDbVertex
100
AcDb2dVertex
 10
132.287708
 20
64.865208
 30
0.0
  0
VERTEX
  5
259
330
24E
100
AcDbEntity
  8
001
370
    50
100
AcDbVertex
100
AcDb2dVertex
 10
132.349835
 20
64.696545
 30
0.0
  0
VERTEX
  5
25A
330
24E
100
AcDbEntity
  8
001
370
    50
100
AcDbVertex
100
AcDb2dVertex
 10
132.411539
 20
64.527664
 30
0.0
  0
VERTEX
  5
25B
330
24E
100
AcDbEntity
  8
001
370
    50
100
AcDbVertex
100
AcDb2dVertex
 10
132.459394
 20
64.393217
 30
0.0
  0
VERTEX
  5
25C
330
24E
100
AcDbEntity
  8
001
370
    50
100
AcDbVertex
100
AcDb2dVertex
 10
132.502477
 20
64.257267
 30
0.0
  0
VERTEX
  5
25D
330
24E
100
AcDbEntity
  8
001
370
    50
100
AcDbVertex
100
AcDb2dVertex
 10
132.507476
 20
64.239543
 30
0.0
  0
VERTEX
  5
25E
330
24E
100
AcDbEntity
  8
001
370
    50
100
AcDbVertex
100
AcDb2dVertex
 10
132.512398
 20
64.221797
 30
0.0
  0
SEQEND
  5
24F
330
24E
100
AcDbEntity
  8
001
370
    50
  0
POLYLINE
  5
25F
330
1F
100
AcDbEntity
  8
001
370
    50
100
AcDb2dPolyline
 66
     1
 10
0.0
 20
0.0
 30
0.0
  0
VERTEX
  5
261
330
25F
100
AcDbEntity
  8
001
370
    50
100
AcDbVertex
100
AcDb2dVertex
 10
117.942892
 20
78.290769
 30
0.0
  0
VERTEX
  5
262
330
25F
100
AcDbEntity
  8
001
370
    50
100
AcDbVertex
100
AcDb2dVertex
 10
118.563316
 20
78.127163
 30
0.0
  0
VERTEX
  5
263
330
25F
100
AcDbEntity
  8
001
370
    50
100
AcDbVertex
100
AcDb2dVertex
 10
119.179719
 20
77.950053
 30
0.0
  0
VERTEX
  5
264
330
25F
100
AcDbEntity
  8
001
370
    50
100
AcDbVertex
100
AcDb2dVertex
 10
119.788882
 20
77.748914
 30
0.0
  0
VERTEX
  5
265
330
25F
100
AcDbEntity
  8
001
370
    50
100
AcDbVertex
100
AcDb2dVertex
 10
120.390395
 20
77.52527
 30
0.0
  0
VERTEX
  5
266
330
25F
100
AcDbEntity
  8
001
370
    50
100
AcDbVertex
100
AcDb2dVertex
 10
120.982287
 20
77.283714
 30
0.0
  0
VERTEX
  5
267
330
25F
100
AcDbEntity
  8
001
370
    50
100
AcDbVertex
100
AcDb2dVertex
 10
121.566217
 20
77.023748
 30
0.0
  0
VERTEX
  5
268
330
25F
100
AcDbEntity
  8
001
370
    50
100
AcDbVertex
100
AcDb2dVertex
 10
122.136893
 20
76.747319
 30
0.0
  0
VERTEX
  5
269
330
25F
100
AcDbEntity
  8
001
370
    50
100
AcDbVertex
100
AcDb2dVertex
 10
122.698484
 20
76.452813
 30
0.0
  0
VERTEX
  5
26A
330
25F
100
AcDbEntity
  8
001
370
    50
100
AcDbVertex
100
AcDb2dVertex
 10
123.205408
 20
76.167192
 30
0.0
  0
VERTEX
  5
26B
330
25F
100
AcDbEntity
  8
001
370
    50
100
AcDbVertex
100
AcDb2dVertex
 10
123.704082
 20
75.867419
 30
0.0
  0
VERTEX
  5
26C
330
25F
100
AcDbEntity
  8
001
370
    50
100
AcDbVertex
100
AcDb2dVertex
 10
124.191506
 20
75.555919
 30
0.0
  0
VERTEX
  5
26D
330
25F
100
AcDbEntity
  8
001
370
    50
100
AcDbVertex
100
AcDb2dVertex
 10
124.670431
 20
75.231499
 30
0.0
  0
VERTEX
  5
26E
330
25F
100
AcDbEntity
  8
001
370
    50
100
AcDbVertex
100
AcDb2dVertex
 10
125.135566
 20
74.898386
 30
0.0
  0
VERTEX
  5
26F
330
25F
100
AcDbEntity
  8
001
370
    50
100
AcDbVertex
100
AcDb2dVertex
 10
125.591994
 20
74.553441
 30
0.0
  0
VERTEX
  5
270
330
25F
100
AcDbEntity
  8
001
370
    50
100
AcDbVertex
100
AcDb2dVertex
 10
126.032084
 20
74.203006
 30
0.0
  0
VERTEX
  5
271
330
25F
100
AcDbEntity
  8
001
370
    50
100
AcDbVertex
100
AcDb2dVertex
 10
126.463236
 20
73.841631
 30
0.0
  0
VERTEX
  5
272
330
25F
100
AcDbEntity
  8
001
370
    50
100
AcDbVertex
100
AcDb2dVertex
 10
126.875546
 20
73.478147
 30
0.0
  0
VERTEX
  5
273
330
25F
100
AcDbEntity
  8
001
370
    50
100
AcDbVertex
100
AcDb2dVertex
 10
127.278623
 20
73.104456
 30
0.0
  0
VERTEX
  5
274
330
25F
100
AcDbEntity
  8
001
370
    50
100
AcDbVertex
100
AcDb2dVertex
 10
127.66356
 20
72.729179
 30
0.0
  0
VERTEX
  5
275
330
25F
100
AcDbEntity
  8
001
370
    50
100
AcDbVertex
100
AcDb2dVertex
 10
128.039067
 20
72.344465
 30
0.0
  0
VERTEX
  5
276
330
25F
100
AcDbEntity
  8
001
370
    50
100
AcDbVertex
100
AcDb2dVertex
 10
128.395449
 20
71.961003
 30
0.0
  0
VERTEX
  5
277
330
25F
100
AcDbEntity
  8
001
370
    50
100
AcDbVertex
100
AcDb2dVertex
 10
128.742356
 20
71.568951
 30
0.0
  0
VERTEX
  5
278
330
25F
100
AcDbEntity
  8
001
370
    50
100
AcDbVertex
100
AcDb2dVertex
 10
129.067469
 20
71.182928
 30
0.0
  0
VERTEX
  5
279
330
25F
100
AcDbEntity
  8
001
370
    50
100
AcDbVertex
100
AcDb2dVertex
 10
129.382929
 20
70.788979
 30
0.0
  0
VERTEX
  5
27A
330
25F
100
AcDbEntity
  8
001
370
    50
100
AcDbVertex
100
AcDb2dVertex
 10
129.674105
 20
70.406017
 30
0.0
  0
VERTEX
  5
27B
330
25F
100
AcDbEntity
  8
001
370
    50
100
AcDbVertex
100
AcDb2dVertex
 10
129.955224
 20
70.015617
 30
0.0
  0
VERTEX
  5
27C
330
25F
100
AcDbEntity
  8
001
370
    50
100
AcDbVertex
100
AcDb2dVertex
 10
130.209774
 20
69.641281
 30
0.0
  0
VERTEX
  5
27D
330
25F
100
AcDbEntity
  8
001
370
    50
100
AcDbVertex
100
AcDb2dVertex
 10
130.453678
 20
69.259928
 30
0.0
  0
VERTEX
  5
27E
330
25F
100
AcDbEntity
  8
001
370
    50
100
AcDbVertex
100
AcDb2dVertex
 10
130.636373
 20
68.956491
 30
0.0
  0
VERTEX
  5
27F
330
25F
100
AcDbEntity
  8
001
370
    50
100
AcDbVertex
100
AcDb2dVertex
 10
130.81112
 20
68.648441
 30
0.0
  0
VERTEX
  5
280
330
25F
100
AcDbEntity
  8
001
370
    50
100
AcDbVertex
100
AcDb2dVertex
 10
130.967431
 20
68.354681
 30
0.0
  0
VERTEX
  5
281
330
25F
100
AcDbEntity
  8
001
370
    50
100
AcDbVertex
100
AcDb2dVertex
 10
131.115819
 20
68.056768
 30
0.0
  0
VERTEX
  5
282
330
25F
100
AcDbEntity
  8
001
370
    50
100
AcDbVertex
100
AcDb2dVertex
 10
131.245809
 20
67.776296
 30
0.0
  0
VERTEX
  5
283
330
25F
100
AcDbEntity
  8
001
370
    50
100
AcDbVertex
100
AcDb2dVertex
 10
131.365403
 20
67.491393
 30
0.0
  0
VERTEX
  5
284
330
25F
100
AcDbEntity
  8
001
370
    50
100
AcDbVertex
100
AcDb2dVertex
 10
131.464346
 20
67.226215
 30
0.0
  0
VERTEX
  5
285
330
25F
100
AcDbEntity
  8
001
370
    50
100
AcDbVertex
100
AcDb2dVertex
 10
131.557502
 20
66.9588
 30
0.0
  0
SEQEND
  5
260
330
25F
100
AcDbEntity
  8
001
370
    50
  0
LINE
  5
286
330
1F
100
AcDbEntity
  8
001
370
    50
100
AcDbLine
 10
116.725892
 20
78.62631
 30
0.0
 11
117.942892
 21
78.290769
 31
0.0
  0
LINE
  5
287
330
1F
100
AcDbEntity
  8
001
370
    50
100
AcDbLine
 10
115.508892
 20
78.963479
 30
0.0
 11
116.725892
 21
78.62631
 31
0.0
  0
LINE
  5
288
330
1F
100
AcDbEntity
  8
001
370
    50
100
AcDbLine
 10
114.291892
 20
79.302172
 30
0.0
 11
115.508892
 21
78.963479
 31
0.0
  0
LINE
  5
289
330
1F
100
AcDbEntity
  8
001
370
    50
100
AcDbLine
 10
113.074892
 20
79.642288
 30
0.0
 11
114.291892
 21
79.302172
 31
0.0
  0
LINE
  5
28A
330
1F
100
AcDbEntity
  8
001
370
    50
100
AcDbLine
 10
111.857892
 20
79.983723
 30
0.0
 11
113.074892
 21
79.642288
 31
0.0
  0
LINE
  5
28B
330
1F
100
AcDbEntity
  8
001
370
    50
100
AcDbLine
 10
110.640892
 20
80.326372
 30
0.0
 11
111.857892
 21
79.983723
 31
0.0
  0
LINE
  5
28C
330
1F
100
AcDbEntity
  8
001
370
    50
100
AcDbLine
 10
109.423892
 20
80.670131
 30
0.0
 11
110.640892
 21
80.326372
 31
0.0
  0
LINE
  5
28D
330
1F
100
AcDbEntity
  8
001
370
    50
100
AcDbLine
 10
108.206892
 20
81.014896
 30
0.0
 11
109.423892
 21
80.670131
 31
0.0
  0
LINE
  5
28E
330
1F
100
AcDbEntity
  8
001
370
    50
100
AcDbLine
 10
106.989892
 20
81.360561
 30
0.0
 11
108.206892
 21
81.014896
 31
0.0
  0
LINE
  5
28F
330
1F
100
AcDbEntity
  8
001
370
    50
100
AcDbLine
 10
105.772892
 20
81.707021
 30
0.0
 11
106.989892
 21
81.360561
 31
0.0
  0
LINE
  5
290
330
1F
100
AcDbEntity
  8
001
370
    50
100
AcDbLine
 10
104.555892
 20
82.05417
 30
0.0
 11
105.772892
 21
81.707021
 31
0.0
  0
LINE
  5
291
330
1F
100
AcDbEntity
  8
001
370
    50
100
AcDbLine
 10
103.338892
 20
82.401904
 30
0.0
 11
104.555892
 21
82.05417
 31
0.0
  0
LINE
  5
292
330
1F
100
AcDbEntity
  8
001
370
    50
100
AcDbLine
 10
102.121892
 20
82.750115
 30
0.0
 11
103.338892
 21
82.401904
 31
0.0
  0
LINE
  5
293
330
1F
100
AcDbEntity
  8
001
370
    50
100
AcDbLine
 10
100.904892
 20
83.098699
 30
0.0
 11
102.121892
 21
82.750115
 31
0.0
  0
LINE
  5
294
330
1F
100
AcDbEntity
  8
001
370
    50
100
AcDbLine
 10
99.687892
 20
83.447548
 30
0.0
 11
100.904892
 21
83.098699
 31
0.0
  0
LINE
  5
295
330
1F
100
AcDbEntity
  8
001
370
    50
100
AcDbLine
 10
98.470892
 20
83.796556
 30
0.0
 11
99.687892
 21
83.447548
 31
0.0
  0
LINE
  5
296
330
1F
100
AcDbEntity
  8
001
370
    50
100
AcDbLine
 10
97.253892
 20
84.145617
 30
0.0
 11
98.470892
 21
83.796556
 31
0.0
  0
LINE
  5
297
330
1F
100
AcDbEntity
  8
001
370
    50
100
AcDbLine
 10
96.036892
 20
84.494626
 30
0.0
 11
97.253892
 21
84.145617
 31
0.0
  0
LINE
  5
298
330
1F
100
AcDbEntity
  8
001
370
    50
100
AcDbLine
 10
94.819892
 20
84.843474
 30
0.0
 11
96.036892
 21
84.494626
 31
0.0
  0
LINE
  5
299
330
1F
100
AcDbEntity
  8
001
370
    50
100
AcDbLine
 10
93.602892
 20
85.192057
 30
0.0
 11
94.819892
 21
84.843474
 31
0.0
  0
LINE
  5
29A
330
1F
100
AcDbEntity
  8
001
370
    50
100
AcDbLine
 10
92.385892
 20
85.540268
 30
0.0
 11
93.602892
 21
85.192057
 31
0.0
  0
LINE
  5
29B
330
1F
100
AcDbEntity
  8
001
370
    50
100
AcDbLine
 10
91.168892
 20
85.888001
 30
0.0
 11
92.385892
 21
85.540268
 31
0.0
  0
LINE
  5
29C
330
1F
100
AcDbEntity
  8
001
370
    50
100
AcDbLine
 10
89.951892
 20
86.235149
 30
0.0
 11
91.168892
 21
85.888001
 31
0.0
  0
LINE
  5
29D
330
1F
100
AcDbEntity
  8
001
370
    50
100
AcDbLine
 10
88.734892
 20
86.581608
 30
0.0
 11
89.951892
 21
86.235149
 31
0.0
  0
POLYLINE
  5
29E
330
1F
100
AcDbEntity
  8
001
370
    50
100
AcDb2dPolyline
 66
     1
 10
0.0
 20
0.0
 30
0.0
  0
VERTEX
  5
2A0
330
29E
100
AcDbEntity
  8
001
370
    50
100
AcDbVertex
100
AcDb2dVertex
 10
87.517892
 20
86.927272
 30
0.0
  0
VERTEX
  5
2A1
330
29E
100
AcDbEntity
  8
001
370
    50
100
AcDbVertex
100
AcDb2dVertex
 10
88.096535
 20
86.772152
 30
0.0
  0
VERTEX
  5
2A2
330
29E
100
AcDbEntity
  8
001
370
    50
100
AcDbVertex
100
AcDb2dVertex
 10
88.670717
 20
86.602245
 30
0.0
  0
VERTEX
  5
2A3
330
29E
100
AcDbEntity
  8
001
370
    50
100
AcDbVertex
100
AcDb2dVertex
 10
88.702812
 20
86.59195
 30
0.0
  0
VERTEX
  5
2A4
330
29E
100
AcDbEntity
  8
001
370
    50
100
AcDbVertex
100
AcDb2dVertex
 10
88.734892
 20
86.581608
 30
0.0
  0
SEQEND
  5
29F
330
29E
100
AcDbEntity
  8
001
370
    50
  0
LINE
  5
2A5
330
1F
100
AcDbEntity
  8
001
370
    50
100
AcDbLine
 10
86.300892
 20
87.272035
 30
0.0
 11
87.517892
 21
86.927272
 31
0.0
  0
LINE
  5
2A6
330
1F
100
AcDbEntity
  8
001
370
    50
100
AcDbLine
 10
85.083892
 20
87.615793
 30
0.0
 11
86.300892
 21
87.272035
 31
0.0
  0
LINE
  5
2A7
330
1F
100
AcDbEntity
  8
001
370
    50
100
AcDbLine
 10
83.866892
 20
87.95844
 30
0.0
 11
85.083892
 21
87.615793
 31
0.0
  0
LINE
  5
2A8
330
1F
100
AcDbEntity
  8
001
370
    50
100
AcDbLine
 10
82.649892
 20
88.299873
 30
0.0
 11
83.866892
 21
87.95844
 31
0.0
  0
LINE
  5
2A9
330
1F
100
AcDbEntity
  8
001
370
    50
100
AcDbLine
 10
81.432892
 20
88.639987
 30
0.0
 11
82.649892
 21
88.299873
 31
0.0
  0
LINE
  5
2AA
330
1F
100
AcDbEntity
  8
001
370
    50
100
AcDbLine
 10
80.215892
 20
88.978679
 30
0.0
 11
81.432892
 21
88.639987
 31
0.0
  0
LINE
  5
2AB
330
1F
100
AcDbEntity
  8
001
370
    50
100
AcDbLine
 10
78.998892
 20
89.315845
 30
0.0
 11
80.215892
 21
88.978679
 31
0.0
  0
LINE
  5
2AC
330
1F
100
AcDbEntity
  8
001
370
    50
100
AcDbLine
 10
77.781892
 20
89.651383
 30
0.0
 11
78.998892
 21
89.315845
 31
0.0
  0
LINE
  5
2AD
330
1F
100
AcDbEntity
  8
001
370
    50
100
AcDbLine
 10
76.564892
 20
89.985191
 30
0.0
 11
77.781892
 21
89.651383
 31
0.0
  0
LINE
  5
2AE
330
1F
100
AcDbEntity
  8
001
370
    50
100
AcDbLine
 10
75.347892
 20
90.317167
 30
0.0
 11
76.564892
 21
89.985191
 31
0.0
  0
LINE
  5
2AF
330
1F
100
AcDbEntity
  8
001
370
    50
100
AcDbLine
 10
74.130892
 20
90.647209
 30
0.0
 11
75.347892
 21
90.317167
 31
0.0
  0
LINE
  5
2B0
330
1F
100
AcDbEntity
  8
001
370
    50
100
AcDbLine
 10
72.913892
 20
90.975218
 30
0.0
 11
74.130892
 21
90.647209
 31
0.0
  0
LINE
  5
2B1
330
1F
100
AcDbEntity
  8
001
370
    50
100
AcDbLine
 10
71.696892
 20
91.301094
 30
0.0
 11
72.913892
 21
90.975218
 31
0.0
  0
LINE
  5
2B2
330
1F
100
AcDbEntity
  8
001
370
    50
100
AcDbLine
 10
70.479892
 20
91.624736
 30
0.0
 11
71.696892
 21
91.301094
 31
0.0
  0
LINE
  5
2B3
330
1F
100
AcDbEntity
  8
001
370
    50
100
AcDbLine
 10
69.262892
 20
91.946047
 30
0.0
 11
70.479892
 21
91.624736
 31
0.0
  0
LINE
  5
2B4
330
1F
100
AcDbEntity
  8
001
370
    50
100
AcDbLine
 10
68.045892
 20
92.264929
 30
0.0
 11
69.262892
 21
91.946047
 31
0.0
  0
LINE
  5
2B5
330
1F
100
AcDbEntity
  8
001
370
    50
100
AcDbLine
 10
66.828892
 20
92.581284
 30
0.0
 11
68.045892
 21
92.264929
 31
0.0
  0
LINE
  5
2B6
330
1F
100
AcDbEntity
  8
001
370
    50
100
AcDbLine
 10
65.611892
 20
92.895016
 30
0.0
 11
66.828892
 21
92.581284
 31
0.0
  0
LINE
  5
2B7
330
1F
100
AcDbEntity
  8
001
370
    50
100
AcDbLine
 10
64.394892
 20
93.20603
 30
0.0
 11
65.611892
 21
92.895016
 31
0.0
  0
LINE
  5
2B8
330
1F
100
AcDbEntity
  8
001
370
    50
100
AcDbLine
 10
63.177892
 20
93.514231
 30
0.0
 11
64.394892
 21
93.20603
 31
0.0
  0
LINE
  5
2B9
330
1F
100
AcDbEntity
  8
001
370
    50
100
AcDbLine
 10
61.960892
 20
93.819525
 30
0.0
 11
63.177892
 21
93.514231
 31
0.0
  0
LINE
  5
2BA
330
1F
100
AcDbEntity
  8
001
370
    50
100
AcDbLine
 10
60.743892
 20
94.121819
 30
0.0
 11
61.960892
 21
93.819525
 31
0.0
  0
LINE
  5
2BB
330
1F
100
AcDbEntity
  8
001
370
    50
100
AcDbLine
 10
59.526892
 20
94.421021
 30
0.0
 11
60.743892
 21
94.121819
 31
0.0
  0
LINE
  5
2BC
330
1F
100
AcDbEntity
  8
001
370
    50
100
AcDbLine
 10
58.309892
 20
94.717039
 30
0.0
 11
59.526892
 21
94.421021
 31
0.0
  0
LINE
  5
2BD
330
1F
100
AcDbEntity
  8
001
370
    50
100
AcDbLine
 10
57.092892
 20
95.009785
 30
0.0
 11
58.309892
 21
94.717039
 31
0.0
  0
LINE
  5
2BE
330
1F
100
AcDbEntity
  8
001
370
    50
100
AcDbLine
 10
55.875892
 20
95.299167
 30
0.0
 11
57.092892
 21
95.009785
 31
0.0
  0
LINE
  5
2BF
330
1F
100
AcDbEntity
  8
001
370
    50
100
AcDbLine
 10
54.658892
 20
95.585099
 30
0.0
 11
55.875892
 21
95.299167
 31
0.0
  0
LINE
  5
2C0
330
1F
100
AcDbEntity
  8
001
370
    50
100
AcDbLine
 10
53.441892
 20
95.867493
 30
0.0
 11
54.658892
 21
95.585099
 31
0.0
  0
LINE
  5
2C1
330
1F
100
AcDbEntity
  8
001
370
    50
100
AcDbLine
 10
53.008798
 20
95.975921
 30
0.0
 11
53.441892
 21
95.867493
 31
0.0
  0
POLYLINE
  5
2C2
330
1F
100
AcDbEntity
  8
001
370
    50
100
AcDb2dPolyline
 66
     1
 10
0.0
 20
0.0
 30
0.0
  0
VERTEX
  5
2C4
330
2C2
100
AcDbEntity
  8
001
370
    50
100
AcDbVertex
100
AcDb2dVertex
 10
64.05912
 20
64.422139
 30
0.0
  0
VERTEX
  5
2C5
330
2C2
100
AcDbEntity
  8
001
370
    50
100
AcDbVertex
100
AcDb2dVertex
 10
64.372223
 20
64.290237
 30
0.0
  0
VERTEX
  5
2C6
330
2C2
100
AcDbEntity
  8
001
370
    50
100
AcDbVertex
100
AcDb2dVertex
 10
64.841806
 20
64.133585
 30
0.0
  0
VERTEX
  5
2C7
330
2C2
100
AcDbEntity
  8
001
370
    50
100
AcDbVertex
100
AcDb2dVertex
 10
65.308449
 20
64.03272
 30
0.0
  0
VERTEX
  5
2C8
330
2C2
100
AcDbEntity
  8
001
370
    50
100
AcDbVertex
100
AcDb2dVertex
 10
65.633102
 20
63.988877
 30
0.0
  0
SEQEND
  5
2C3
330
2C2
100
AcDbEntity
  8
001
370
    50
  0
ARC
  5
2C9
330
1F
100
AcDbEntity
  8
001
370
    50
100
AcDbCircle
 10
134.508798
 20
101.970835
 30
0.0
 40
1.999999999999988
100
AcDbArc
 50
0.0
 51
90.0
  0
ARC
  5
2CA
330
1F
100
AcDbEntity
  8
001
370
    50
100
AcDbCircle
 10
134.508798
 20
65.970835
 30
0.0
 40
1.999999999999988
100
AcDbArc
 50
270.0
 51
0.0
  0
LINE
  5
2CB
330
1F
100
AcDbEntity
  8
001
370
    50
100
AcDbLine
 10
136.508798
 20
101.970835
 30
0.0
 11
136.508798
 21
65.970835
 31
0.0
  0
POLYLINE
  5
2CC
330
1F
100
AcDbEntity
  8
001
  6
DASHED
370
    50
100
AcDb2dPolyline
 66
     1
 10
0.0
 20
0.0
 30
0.0
  0
VERTEX
  5
2CE
330
2CC
100
AcDbEntity
  8
001
  6
DASHED
370
    50
100
AcDbVertex
100
AcDb2dVertex
 10
86.310326
 20
87.270624
 30
0.0
  0
VERTEX
  5
2CF
330
2CC
100
AcDbEntity
  8
001
  6
DASHED
370
    50
100
AcDbVertex
100
AcDb2dVertex
 10
86.309567
 20
87.270205
 30
0.0
  0
VERTEX
  5
2D0
330
2CC
100
AcDbEntity
  8
001
  6
DASHED
370
    50
100
AcDbVertex
100
AcDb2dVertex
 10
86.308459
 20
87.269592
 30
0.0
  0
VERTEX
  5
2D1
330
2CC
100
AcDbEntity
  8
001
  6
DASHED
370
    50
100
AcDbVertex
100
AcDb2dVertex
 10
86.30735
 20
87.268978
 30
0.0
  0
VERTEX
  5
2D2
330
2CC
100
AcDbEntity
  8
001
  6
DASHED
370
    50
100
AcDbVertex
100
AcDb2dVertex
 10
86.306591
 20
87.268556
 30
0.0
  0
SEQEND
  5
2CD
330
2CC
100
AcDbEntity
  8
001
  6
DASHED
370
    50
  0
POLYLINE
  5
2D3
330
1F
100
AcDbEntity
  8
001
370
    50
100
AcDb2dPolyline
 66
     1
 10
0.0
 20
0.0
 30
0.0
  0
VERTEX
  5
2D5
330
2D3
100
AcDbEntity
  8
001
370
    50
100
AcDbVertex
100
AcDb2dVertex
 10
74.130892
 20
90.647209
 30
0.0
  0
VERTEX
  5
2D6
330
2D3
100
AcDbEntity
  8
001
370
    50
100
AcDbVertex
100
AcDb2dVertex
 10
74.127353
 20
90.648186
 30
0.0
  0
VERTEX
  5
2D7
330
2D3
100
AcDbEntity
  8
001
370
    50
100
AcDbVertex
100
AcDb2dVertex
 10
74.122166
 20
90.649559
 30
0.0
  0
VERTEX
  5
2D8
330
2D3
100
AcDbEntity
  8
001
370
    50
100
AcDbVertex
100
AcDb2dVertex
 10
74.116957
 20
90.650856
 30
0.0
  0
VERTEX
  5
2D9
330
2D3
100
AcDbEntity
  8
001
370
    50
100
AcDbVertex
100
AcDb2dVertex
 10
74.113384
 20
90.651705
 30
0.0
  0
SEQEND
  5
2D4
330
2D3
100
AcDbEntity
  8
001
370
    50
  0
POLYLINE
  5
2DA
330
1F
100
AcDbEntity
  8
001
370
    50
100
AcDb2dPolyline
 66
     1
 10
0.0
 20
0.0
 30
0.0
  0
VERTEX
  5
2DC
330
2DA
100
AcDbEntity
  8
001
370
    50
100
AcDbVertex
100
AcDb2dVertex
 10
67.282654
 20
77.213488
 30
0.0
  0
VERTEX
  5
2DD
330
2DA
100
AcDbEntity
  8
001
370
    50
100
AcDbVertex
100
AcDb2dVertex
 10
67.227035
 20
77.43892
 30
0.0
  0
VERTEX
  5
2DE
330
2DA
100
AcDbEntity
  8
001
370
    50
100
AcDbVertex
100
AcDb2dVertex
 10
67.160656
 20
77.66102
 30
0.0
  0
VERTEX
  5
2DF
330
2DA
100
AcDbEntity
  8
001
370
    50
100
AcDbVertex
100
AcDb2dVertex
 10
67.073343
 20
77.880358
 30
0.0
  0
VERTEX
  5
2E0
330
2DA
100
AcDbEntity
  8
001
370
    50
100
AcDbVertex
100
AcDb2dVertex
 10
66.966505
 20
78.09103
 30
0.0
  0
VERTEX
  5
2E1
330
2DA
100
AcDbEntity
  8
001
370
    50
100
AcDbVertex
100
AcDb2dVertex
 10
66.932621
 20
78.1499
 30
0.0
  0
VERTEX
  5
2E2
330
2DA
100
AcDbEntity
  8
001
370
    50
100
AcDbVertex
100
AcDb2dVertex
 10
66.898042
 20
78.208338
 30
0.0
  0
SEQEND
  5
2DB
330
2DA
100
AcDbEntity
  8
001
370
    50
  0
POLYLINE
  5
2E3
330
1F
100
AcDbEntity
  8
001
370
    50
100
AcDb2dPolyline
 66
     1
 10
0.0
 20
0.0
 30
0.0
  0
VERTEX
  5
2E5
330
2E3
100
AcDbEntity
  8
001
370
    50
100
AcDbVertex
100
AcDb2dVertex
 10
66.172268
 20
78.99171
 30
0.0
  0
VERTEX
  5
2E6
330
2E3
100
AcDbEntity
  8
001
370
    50
100
AcDbVertex
100
AcDb2dVertex
 10
66.130569
 20
79.021713
 30
0.0
  0
VERTEX
  5
2E7
330
2E3
100
AcDbEntity
  8
001
370
    50
100
AcDbVertex
100
AcDb2dVertex
 10
66.088479
 20
79.051137
 30
0.0
  0
VERTEX
  5
2E8
330
2E3
100
AcDbEntity
  8
001
370
    50
100
AcDbVertex
100
AcDb2dVertex
 10
66.024663
 20
79.093122
 30
0.0
  0
VERTEX
  5
2E9
330
2E3
100
AcDbEntity
  8
001
370
    50
100
AcDbVertex
100
AcDb2dVertex
 10
65.959981
 20
79.133826
 30
0.0
  0
SEQEND
  5
2E4
330
2E3
100
AcDbEntity
  8
001
370
    50
  0
LINE
  5
2EA
330
1F
100
AcDbEntity
  8
001
370
    50
100
AcDbLine
 10
66.898042
 20
78.208338
 30
0.0
 11
66.821696
 21
78.323854
 31
0.0
  0
POLYLINE
  5
2EB
330
1F
100
AcDbEntity
  8
001
370
    50
100
AcDb2dPolyline
 66
     1
 10
0.0
 20
0.0
 30
0.0
  0
VERTEX
  5
2ED
330
2EB
100
AcDbEntity
  8
001
370
    50
100
AcDbVertex
100
AcDb2dVertex
 10
65.959981
 20
79.133826
 30
0.0
  0
VERTEX
  5
2EE
330
2EB
100
AcDbEntity
  8
001
370
    50
100
AcDbVertex
100
AcDb2dVertex
 10
65.794411
 20
79.222711
 30
0.0
  0
VERTEX
  5
2EF
330
2EB
100
AcDbEntity
  8
001
370
    50
100
AcDbVertex
100
AcDb2dVertex
 10
65.625649
 20
79.305031
 30
0.0
  0
VERTEX
  5
2F0
330
2EB
100
AcDbEntity
  8
001
370
    50
100
AcDbVertex
100
AcDb2dVertex
 10
65.447956
 20
79.376407
 30
0.0
  0
VERTEX
  5
2F1
330
2EB
100
AcDbEntity
  8
001
370
    50
100
AcDbVertex
100
AcDb2dVertex
 10
65.265198
 20
79.433538
 30
0.0
  0
VERTEX
  5
2F2
330
2EB
100
AcDbEntity
  8
001
370
    50
100
AcDbVertex
100
AcDb2dVertex
 10
65.060391
 20
79.480791
 30
0.0
  0
VERTEX
  5
2F3
330
2EB
100
AcDbEntity
  8
001
370
    50
100
AcDbVertex
100
AcDb2dVertex
 10
64.853469
 20
79.519072
 30
0.0
  0
SEQEND
  5
2EC
330
2EB
100
AcDbEntity
  8
001
370
    50
  0
POLYLINE
  5
2F4
330
1F
100
AcDbEntity
  8
001
370
    50
100
AcDb2dPolyline
 66
     1
 10
0.0
 20
0.0
 30
0.0
  0
VERTEX
  5
2F6
330
2F4
100
AcDbEntity
  8
001
370
    50
100
AcDbVertex
100
AcDb2dVertex
 10
64.853469
 20
79.519072
 30
0.0
  0
VERTEX
  5
2F7
330
2F4
100
AcDbEntity
  8
001
370
    50
100
AcDbVertex
100
AcDb2dVertex
 10
64.708058
 20
79.533841
 30
0.0
  0
VERTEX
  5
2F8
330
2F4
100
AcDbEntity
  8
001
370
    50
100
AcDbVertex
100
AcDb2dVertex
 10
64.562382
 20
79.54335
 30
0.0
  0
VERTEX
  5
2F9
330
2F4
100
AcDbEntity
  8
001
370
    50
100
AcDbVertex
100
AcDb2dVertex
 10
64.509117
 20
79.544636
 30
0.0
  0
VERTEX
  5
2FA
330
2F4
100
AcDbEntity
  8
001
370
    50
100
AcDbVertex
100
AcDb2dVertex
 10
64.455817
 20
79.545221
 30
0.0
  0
SEQEND
  5
2F5
330
2F4
100
AcDbEntity
  8
001
370
    50
  0
POLYLINE
  5
2FB
330
1F
100
AcDbEntity
  8
001
370
    50
100
AcDb2dPolyline
 66
     1
 10
0.0
 20
0.0
 30
0.0
  0
VERTEX
  5
2FD
330
2FB
100
AcDbEntity
  8
001
370
    50
100
AcDbVertex
100
AcDb2dVertex
 10
63.593501
 20
79.421465
 30
0.0
  0
VERTEX
  5
2FE
330
2FB
100
AcDbEntity
  8
001
370
    50
100
AcDbVertex
100
AcDb2dVertex
 10
63.577022
 20
79.416628
 30
0.0
  0
VERTEX
  5
2FF
330
2FB
100
AcDbEntity
  8
001
370
    50
100
AcDbVertex
100
AcDb2dVertex
 10
63.560556
 20
79.411745
 30
0.0
  0
VERTEX
  5
300
330
2FB
100
AcDbEntity
  8
001
370
    50
100
AcDbVertex
100
AcDb2dVertex
 10
63.31514
 20
79.32676
 30
0.0
  0
VERTEX
  5
301
330
2FB
100
AcDbEntity
  8
001
370
    50
100
AcDbVertex
100
AcDb2dVertex
 10
63.077347
 20
79.221639
 30
0.0
  0
VERTEX
  5
302
330
2FB
100
AcDbEntity
  8
001
370
    50
100
AcDbVertex
100
AcDb2dVertex
 10
62.842606
 20
79.093867
 30
0.0
  0
VERTEX
  5
303
330
2FB
100
AcDbEntity
  8
001
370
    50
100
AcDbVertex
100
AcDb2dVertex
 10
62.620233
 20
78.946164
 30
0.0
  0
VERTEX
  5
304
330
2FB
100
AcDbEntity
  8
001
370
    50
100
AcDbVertex
100
AcDb2dVertex
 10
62.57343
 20
78.911242
 30
0.0
  0
VERTEX
  5
305
330
2FB
100
AcDbEntity
  8
001
370
    50
100
AcDbVertex
100
AcDb2dVertex
 10
62.526989
 20
78.875838
 30
0.0
  0
SEQEND
  5
2FC
330
2FB
100
AcDbEntity
  8
001
370
    50
  0
POLYLINE
  5
306
330
1F
100
AcDbEntity
  8
001
370
    50
100
AcDb2dPolyline
 66
     1
 10
0.0
 20
0.0
 30
0.0
  0
VERTEX
  5
308
330
306
100
AcDbEntity
  8
001
370
    50
100
AcDbVertex
100
AcDb2dVertex
 10
62.192135
 20
78.867876
 30
0.0
  0
VERTEX
  5
309
330
306
100
AcDbEntity
  8
001
370
    50
100
AcDbVertex
100
AcDb2dVertex
 10
62.260126
 20
78.86935
 30
0.0
  0
VERTEX
  5
30A
330
306
100
AcDbEntity
  8
001
370
    50
100
AcDbVertex
100
AcDb2dVertex
 10
62.359494
 20
78.871628
 30
0.0
  0
VERTEX
  5
30B
330
306
100
AcDbEntity
  8
001
370
    50
100
AcDbVertex
100
AcDb2dVertex
 10
62.458946
 20
78.874078
 30
0.0
  0
VERTEX
  5
30C
330
306
100
AcDbEntity
  8
001
370
    50
100
AcDbVertex
100
AcDb2dVertex
 10
62.526989
 20
78.875838
 30
0.0
  0
SEQEND
  5
307
330
306
100
AcDbEntity
  8
001
370
    50
  0
POLYLINE
  5
30D
330
1F
100
AcDbEntity
  8
001
370
    50
100
AcDb2dPolyline
 66
     1
 10
0.0
 20
0.0
 30
0.0
  0
VERTEX
  5
30F
330
30D
100
AcDbEntity
  8
001
370
    50
100
AcDbVertex
100
AcDb2dVertex
 10
60.951642
 20
78.829899
 30
0.0
  0
VERTEX
  5
310
330
30D
100
AcDbEntity
  8
001
370
    50
100
AcDbVertex
100
AcDb2dVertex
 10
61.203389
 20
78.835685
 30
0.0
  0
VERTEX
  5
311
330
30D
100
AcDbEntity
  8
001
370
    50
100
AcDbVertex
100
AcDb2dVertex
 10
61.571283
 20
78.845795
 30
0.0
  0
VERTEX
  5
312
330
30D
100
AcDbEntity
  8
001
370
    50
100
AcDbVertex
100
AcDb2dVertex
 10
61.939936
 20
78.858234
 30
0.0
  0
VERTEX
  5
313
330
30D
100
AcDbEntity
  8
001
370
    50
100
AcDbVertex
100
AcDb2dVertex
 10
62.192135
 20
78.867876
 30
0.0
  0
SEQEND
  5
30E
330
30D
100
AcDbEntity
  8
001
370
    50
  0
POLYLINE
  5
314
330
1F
100
AcDbEntity
  8
001
370
    50
100
AcDb2dPolyline
 66
     1
 10
0.0
 20
0.0
 30
0.0
  0
VERTEX
  5
316
330
314
100
AcDbEntity
  8
001
370
    50
100
AcDbVertex
100
AcDb2dVertex
 10
59.711045
 20
78.79252
 30
0.0
  0
VERTEX
  5
317
330
314
100
AcDbEntity
  8
001
370
    50
100
AcDbVertex
100
AcDb2dVertex
 10
59.962807
 20
78.798204
 30
0.0
  0
VERTEX
  5
318
330
314
100
AcDbEntity
  8
001
370
    50
100
AcDbVertex
100
AcDb2dVertex
 10
60.330722
 20
78.808148
 30
0.0
  0
VERTEX
  5
319
330
314
100
AcDbEntity
  8
001
370
    50
100
AcDbVertex
100
AcDb2dVertex
 10
60.699415
 20
78.820398
 30
0.0
  0
VERTEX
  5
31A
330
314
100
AcDbEntity
  8
001
370
    50
100
AcDbVertex
100
AcDb2dVertex
 10
60.951642
 20
78.829899
 30
0.0
  0
SEQEND
  5
315
330
314
100
AcDbEntity
  8
001
370
    50
  0
POLYLINE
  5
31B
330
1F
100
AcDbEntity
  8
001
370
    50
100
AcDb2dPolyline
 66
     1
 10
0.0
 20
0.0
 30
0.0
  0
VERTEX
  5
31D
330
31B
100
AcDbEntity
  8
001
370
    50
100
AcDbVertex
100
AcDb2dVertex
 10
58.470324
 20
78.755739
 30
0.0
  0
VERTEX
  5
31E
330
31B
100
AcDbEntity
  8
001
370
    50
100
AcDbVertex
100
AcDb2dVertex
 10
58.722104
 20
78.76132
 30
0.0
  0
VERTEX
  5
31F
330
31B
100
AcDbEntity
  8
001
370
    50
100
AcDbVertex
100
AcDb2dVertex
 10
59.090046
 20
78.771097
 30
0.0
  0
VERTEX
  5
320
330
31B
100
AcDbEntity
  8
001
370
    50
100
AcDbVertex
100
AcDb2dVertex
 10
59.458786
 20
78.783158
 30
0.0
  0
VERTEX
  5
321
330
31B
100
AcDbEntity
  8
001
370
    50
100
AcDbVertex
100
AcDb2dVertex
 10
59.711045
 20
78.79252
 30
0.0
  0
SEQEND
  5
31C
330
31B
100
AcDbEntity
  8
001
370
    50
  0
POLYLINE
  5
322
330
1F
100
AcDbEntity
  8
001
370
    50
100
AcDb2dPolyline
 66
     1
 10
0.0
 20
0.0
 30
0.0
  0
VERTEX
  5
324
330
322
100
AcDbEntity
  8
001
370
    50
100
AcDbVertex
100
AcDb2dVertex
 10
57.458249
 20
78.72443
 30
0.0
  0
VERTEX
  5
325
330
322
100
AcDbEntity
  8
001
370
    50
100
AcDbVertex
100
AcDb2dVertex
 10
57.663684
 20
78.729545
 30
0.0
  0
VERTEX
  5
326
330
322
100
AcDbEntity
  8
001
370
    50
100
AcDbVertex
100
AcDb2dVertex
 10
57.963905
 20
78.738089
 30
0.0
  0
VERTEX
  5
327
330
322
100
AcDbEntity
  8
001
370
    50
100
AcDbVertex
100
AcDb2dVertex
 10
58.264606
 20
78.748135
 30
0.0
  0
VERTEX
  5
328
330
322
100
AcDbEntity
  8
001
370
    50
100
AcDbVertex
100
AcDb2dVertex
 10
58.470324
 20
78.755739
 30
0.0
  0
SEQEND
  5
323
330
322
100
AcDbEntity
  8
001
370
    50
  0
LINE
  5
329
330
1F
100
AcDbEntity
  8
001
370
    50
100
AcDbLine
 10
57.458249
 20
78.72443
 30
0.0
 11
57.227316
 21
78.712486
 31
0.0
  0
POLYLINE
  5
32A
330
1F
100
AcDbEntity
  8
001
370
    50
100
AcDb2dPolyline
 66
     1
 10
0.0
 20
0.0
 30
0.0
  0
VERTEX
  5
32C
330
32A
100
AcDbEntity
  8
001
370
    50
100
AcDbVertex
100
AcDb2dVertex
 10
57.227316
 20
78.712486
 30
0.0
  0
VERTEX
  5
32D
330
32A
100
AcDbEntity
  8
001
370
    50
100
AcDbVertex
100
AcDb2dVertex
 10
56.944699
 20
78.671141
 30
0.0
  0
VERTEX
  5
32E
330
32A
100
AcDbEntity
  8
001
370
    50
100
AcDbVertex
100
AcDb2dVertex
 10
56.664443
 20
78.617876
 30
0.0
  0
VERTEX
  5
32F
330
32A
100
AcDbEntity
  8
001
370
    50
100
AcDbVertex
100
AcDb2dVertex
 10
56.383575
 20
78.541442
 30
0.0
  0
VERTEX
  5
330
330
32A
100
AcDbEntity
  8
001
370
    50
100
AcDbVertex
100
AcDb2dVertex
 10
56.109711
 20
78.442457
 30
0.0
  0
VERTEX
  5
331
330
32A
100
AcDbEntity
  8
001
370
    50
100
AcDbVertex
100
AcDb2dVertex
 10
55.997923
 20
78.395314
 30
0.0
  0
VERTEX
  5
332
330
32A
100
AcDbEntity
  8
001
370
    50
100
AcDbVertex
100
AcDb2dVertex
 10
55.886926
 20
78.346404
 30
0.0
  0
SEQEND
  5
32B
330
32A
100
AcDbEntity
  8
001
370
    50
  0
POLYLINE
  5
333
330
1F
100
AcDbEntity
  8
001
370
    50
100
AcDb2dPolyline
 66
     1
 10
0.0
 20
0.0
 30
0.0
  0
VERTEX
  5
335
330
333
100
AcDbEntity
  8
001
370
    50
100
AcDbVertex
100
AcDb2dVertex
 10
55.886926
 20
78.346404
 30
0.0
  0
VERTEX
  5
336
330
333
100
AcDbEntity
  8
001
370
    50
100
AcDbVertex
100
AcDb2dVertex
 10
55.625585
 20
78.204848
 30
0.0
  0
VERTEX
  5
337
330
333
100
AcDbEntity
  8
001
370
    50
100
AcDbVertex
100
AcDb2dVertex
 10
55.371187
 20
78.051971
 30
0.0
  0
VERTEX
  5
338
330
333
100
AcDbEntity
  8
001
370
    50
100
AcDbVertex
100
AcDb2dVertex
 10
55.124675
 20
77.874951
 30
0.0
  0
VERTEX
  5
339
330
333
100
AcDbEntity
  8
001
370
    50
100
AcDbVertex
100
AcDb2dVertex
 10
54.893748
 20
77.677801
 30
0.0
  0
VERTEX
  5
33A
330
333
100
AcDbEntity
  8
001
370
    50
100
AcDbVertex
100
AcDb2dVertex
 10
54.8249
 20
77.61282
 30
0.0
  0
VERTEX
  5
33B
330
333
100
AcDbEntity
  8
001
370
    50
100
AcDbVertex
100
AcDb2dVertex
 10
54.756864
 20
77.547027
 30
0.0
  0
SEQEND
  5
334
330
333
100
AcDbEntity
  8
001
370
    50
  0
POLYLINE
  5
33C
330
1F
100
AcDbEntity
  8
001
370
    50
100
AcDb2dPolyline
 66
     1
 10
0.0
 20
0.0
 30
0.0
  0
VERTEX
  5
33E
330
33C
100
AcDbEntity
  8
001
370
    50
100
AcDbVertex
100
AcDb2dVertex
 10
54.689625
 20
77.479762
 30
0.0
  0
VERTEX
  5
33F
330
33C
100
AcDbEntity
  8
001
370
    50
100
AcDbVertex
100
AcDb2dVertex
 10
54.703286
 20
77.49342
 30
0.0
  0
VERTEX
  5
340
330
33C
100
AcDbEntity
  8
001
370
    50
100
AcDbVertex
100
AcDb2dVertex
 10
54.723249
 20
77.513386
 30
0.0
  0
VERTEX
  5
341
330
33C
100
AcDbEntity
  8
001
370
    50
100
AcDbVertex
100
AcDb2dVertex
 10
54.743209
 20
77.533359
 30
0.0
  0
VERTEX
  5
342
330
33C
100
AcDbEntity
  8
001
370
    50
100
AcDbVertex
100
AcDb2dVertex
 10
54.756864
 20
77.547027
 30
0.0
  0
SEQEND
  5
33D
330
33C
100
AcDbEntity
  8
001
370
    50
  0
LINE
  5
343
330
1F
100
AcDbEntity
  8
001
370
    50
100
AcDbLine
 10
52.442705
 20
93.691585
 30
0.0
 11
53.008798
 21
93.944535
 31
0.0
  0
LINE
  5
344
330
1F
100
AcDbEntity
  8
001
370
    50
100
AcDbLine
 10
139.508798
 20
99.970835
 30
0.0
 11
208.508798
 21
99.970835
 31
0.0
  0
LINE
  5
345
330
1F
100
AcDbEntity
  8
001
370
    50
100
AcDbLine
 10
139.508798
 20
67.970835
 30
0.0
 11
208.508798
 21
67.970835
 31
0.0
  0
ARC
  5
346
330
1F
100
AcDbEntity
  8
001
370
    50
100
AcDbCircle
 10
208.508798
 20
91.970835
 30
0.0
 40
8.000000000000007
100
AcDbArc
 50
0.0
 51
90.0
  0
ARC
  5
347
330
1F
100
AcDbEntity
  8
001
370
    50
100
AcDbCircle
 10
208.508798
 20
75.970835
 30
0.0
 40
8.000000000000007
100
AcDbArc
 50
270.0
 51
0.0
  0
LINE
  5
348
330
1F
100
AcDbEntity
  8
001
370
    50
100
AcDbLine
 10
216.508798
 20
91.970835
 30
0.0
 11
216.508798
 21
75.970835
 31
0.0
  0
LINE
  5
349
330
1F
100
AcDbEntity
  8
001
370
    50
100
AcDbLine
 10
53.008798
 20
99.294129
 30
0.0
 11
51.108798
 21
97.270835
 31
0.0
  0
POLYLINE
  5
34A
330
1F
100
AcDbEntity
  8
001
370
    50
100
AcDb2dPolyline
 66
     1
 10
0.0
 20
0.0
 30
0.0
  0
VERTEX
  5
34C
330
34A
100
AcDbEntity
  8
001
370
    50
100
AcDbVertex
100
AcDb2dVertex
 10
51.108798
 20
93.024927
 30
0.0
  0
VERTEX
  5
34D
330
34A
100
AcDbEntity
  8
001
370
    50
100
AcDbVertex
100
AcDb2dVertex
 10
51.441592
 20
93.206256
 30
0.0
  0
VERTEX
  5
34E
330
34A
100
AcDbEntity
  8
001
370
    50
100
AcDbVertex
100
AcDb2dVertex
 10
51.777732
 20
93.380881
 30
0.0
  0
VERTEX
  5
34F
330
34A
100
AcDbEntity
  8
001
370
    50
100
AcDbVertex
100
AcDb2dVertex
 10
52.108649
 20
93.539378
 30
0.0
  0
VERTEX
  5
350
330
34A
100
AcDbEntity
  8
001
370
    50
100
AcDbVertex
100
AcDb2dVertex
 10
52.442705
 20
93.691585
 30
0.0
  0
SEQEND
  5
34B
330
34A
100
AcDbEntity
  8
001
370
    50
  0
POLYLINE
  5
351
330
1F
100
AcDbEntity
  8
001
370
    50
100
AcDb2dPolyline
 66
     1
 10
0.0
 20
0.0
 30
0.0
  0
VERTEX
  5
353
330
351
100
AcDbEntity
  8
001
370
    50
100
AcDbVertex
100
AcDb2dVertex
 10
132.512398
 20
64.221797
 30
0.0
  0
VERTEX
  5
354
330
351
100
AcDbEntity
  8
001
370
    50
100
AcDbVertex
100
AcDb2dVertex
 10
132.530801
 20
64.152612
 30
0.0
  0
VERTEX
  5
355
330
351
100
AcDbEntity
  8
001
370
    50
100
AcDbVertex
100
AcDb2dVertex
 10
132.541679
 20
64.075355
 30
0.0
  0
VERTEX
  5
356
330
351
100
AcDbEntity
  8
001
370
    50
100
AcDbVertex
100
AcDb2dVertex
 10
132.539336
 20
64.022007
 30
0.0
  0
VERTEX
  5
357
330
351
100
AcDbEntity
  8
001
370
    50
100
AcDbVertex
100
AcDb2dVertex
 10
132.517542
 20
63.983187
 30
0.0
  0
VERTEX
  5
358
330
351
100
AcDbEntity
  8
001
370
    50
100
AcDbVertex
100
AcDb2dVertex
 10
132.499288
 20
63.975321
 30
0.0
  0
VERTEX
  5
359
330
351
100
AcDbEntity
  8
001
370
    50
100
AcDbVertex
100
AcDb2dVertex
 10
132.477924
 20
63.970835
 30
0.0
  0
SEQEND
  5
352
330
351
100
AcDbEntity
  8
001
370
    50
  0
POLYLINE
  5
35A
330
1F
100
AcDbEntity
  8
001
370
    50
100
AcDb2dPolyline
 66
     1
 10
0.0
 20
0.0
 30
0.0
  0
VERTEX
  5
35C
330
35A
100
AcDbEntity
  8
001
370
    50
100
AcDbVertex
100
AcDb2dVertex
 10
51.108798
 20
76.623645
 30
0.0
  0
VERTEX
  5
35D
330
35A
100
AcDbEntity
  8
001
370
    50
100
AcDbVertex
100
AcDb2dVertex
 10
51.269597
 20
76.626406
 30
0.0
  0
VERTEX
  5
35E
330
35A
100
AcDbEntity
  8
001
370
    50
100
AcDbVertex
100
AcDb2dVertex
 10
51.504598
 20
76.631051
 30
0.0
  0
VERTEX
  5
35F
330
35A
100
AcDbEntity
  8
001
370
    50
100
AcDbVertex
100
AcDb2dVertex
 10
51.739864
 20
76.636552
 30
0.0
  0
VERTEX
  5
360
330
35A
100
AcDbEntity
  8
001
370
    50
100
AcDbVertex
100
AcDb2dVertex
 10
51.900826
 20
76.640734
 30
0.0
  0
SEQEND
  5
35B
330
35A
100
AcDbEntity
  8
001
370
    50
  0
POLYLINE
  5
361
330
1F
100
AcDbEntity
  8
001
370
    50
100
AcDb2dPolyline
 66
     1
 10
0.0
 20
0.0
 30
0.0
  0
VERTEX
  5
363
330
361
100
AcDbEntity
  8
001
370
    50
100
AcDbVertex
100
AcDb2dVertex
 10
51.900826
 20
76.640734
 30
0.0
  0
VERTEX
  5
364
330
361
100
AcDbEntity
  8
001
370
    50
100
AcDbVertex
100
AcDb2dVertex
 10
52.149068
 20
76.643704
 30
0.0
  0
VERTEX
  5
365
330
361
100
AcDbEntity
  8
001
370
    50
100
AcDbVertex
100
AcDb2dVertex
 10
52.51186
 20
76.64951
 30
0.0
  0
VERTEX
  5
366
330
361
100
AcDbEntity
  8
001
370
    50
100
AcDbVertex
100
AcDb2dVertex
 10
52.875376
 20
76.657369
 30
0.0
  0
VERTEX
  5
367
330
361
100
AcDbEntity
  8
001
370
    50
100
AcDbVertex
100
AcDb2dVertex
 10
53.124075
 20
76.663749
 30
0.0
  0
SEQEND
  5
362
330
361
100
AcDbEntity
  8
001
370
    50
  0
POLYLINE
  5
368
330
1F
100
AcDbEntity
  8
001
370
    50
100
AcDb2dPolyline
 66
     1
 10
0.0
 20
0.0
 30
0.0
  0
VERTEX
  5
36A
330
368
100
AcDbEntity
  8
001
370
    50
100
AcDbVertex
100
AcDb2dVertex
 10
53.124075
 20
76.663749
 30
0.0
  0
VERTEX
  5
36B
330
368
100
AcDbEntity
  8
001
370
    50
100
AcDbVertex
100
AcDb2dVertex
 10
53.278852
 20
76.665532
 30
0.0
  0
VERTEX
  5
36C
330
368
100
AcDbEntity
  8
001
370
    50
100
AcDbVertex
100
AcDb2dVertex
 10
53.505055
 20
76.668709
 30
0.0
  0
VERTEX
  5
36D
330
368
100
AcDbEntity
  8
001
370
    50
100
AcDbVertex
100
AcDb2dVertex
 10
53.731579
 20
76.672688
 30
0.0
  0
VERTEX
  5
36E
330
368
100
AcDbEntity
  8
001
370
    50
100
AcDbVertex
100
AcDb2dVertex
 10
53.886562
 20
76.675803
 30
0.0
  0
SEQEND
  5
369
330
368
100
AcDbEntity
  8
001
370
    50
  0
POLYLINE
  5
36F
330
1F
100
AcDbEntity
  8
001
370
    50
100
AcDb2dPolyline
 66
     1
 10
0.0
 20
0.0
 30
0.0
  0
VERTEX
  5
371
330
36F
100
AcDbEntity
  8
001
370
    50
100
AcDbVertex
100
AcDb2dVertex
 10
53.886562
 20
76.675803
 30
0.0
  0
VERTEX
  5
372
330
36F
100
AcDbEntity
  8
001
370
    50
100
AcDbVertex
100
AcDb2dVertex
 10
53.988946
 20
76.77823
 30
0.0
  0
VERTEX
  5
373
330
36F
100
AcDbEntity
  8
001
370
    50
100
AcDbVertex
100
AcDb2dVertex
 10
54.138454
 20
76.928059
 30
0.0
  0
VERTEX
  5
374
330
36F
100
AcDbEntity
  8
001
370
    50
100
AcDbVertex
100
AcDb2dVertex
 10
54.288163
 20
77.078449
 30
0.0
  0
VERTEX
  5
375
330
36F
100
AcDbEntity
  8
001
370
    50
100
AcDbVertex
100
AcDb2dVertex
 10
54.390508
 20
77.181436
 30
0.0
  0
SEQEND
  5
370
330
36F
100
AcDbEntity
  8
001
370
    50
  0
POLYLINE
  5
376
330
1F
100
AcDbEntity
  8
001
370
    50
100
AcDb2dPolyline
 66
     1
 10
0.0
 20
0.0
 30
0.0
  0
VERTEX
  5
378
330
376
100
AcDbEntity
  8
001
370
    50
100
AcDbVertex
100
AcDb2dVertex
 10
54.390508
 20
77.181436
 30
0.0
  0
VERTEX
  5
379
330
376
100
AcDbEntity
  8
001
370
    50
100
AcDbVertex
100
AcDb2dVertex
 10
54.451262
 20
77.241922
 30
0.0
  0
VERTEX
  5
37A
330
376
100
AcDbEntity
  8
001
370
    50
100
AcDbVertex
100
AcDb2dVertex
 10
54.540011
 20
77.330373
 30
0.0
  0
VERTEX
  5
37B
330
376
100
AcDbEntity
  8
001
370
    50
100
AcDbVertex
100
AcDb2dVertex
 10
54.628863
 20
77.419054
 30
0.0
  0
VERTEX
  5
37C
330
376
100
AcDbEntity
  8
001
370
    50
100
AcDbVertex
100
AcDb2dVertex
 10
54.689625
 20
77.479762
 30
0.0
  0
SEQEND
  5
377
330
376
100
AcDbEntity
  8
001
370
    50
  0
POLYLINE
  5
37D
330
1F
100
AcDbEntity
  8
001
370
    50
100
AcDb2dPolyline
 66
     1
 10
0.0
 20
0.0
 30
0.0
  0
VERTEX
  5
37F
330
37D
100
AcDbEntity
  8
001
370
    50
100
AcDbVertex
100
AcDb2dVertex
 10
64.455817
 20
79.545221
 30
0.0
  0
VERTEX
  5
380
330
37D
100
AcDbEntity
  8
001
370
    50
100
AcDbVertex
100
AcDb2dVertex
 10
64.267105
 20
79.537905
 30
0.0
  0
VERTEX
  5
381
330
37D
100
AcDbEntity
  8
001
370
    50
100
AcDbVertex
100
AcDb2dVertex
 10
64.079541
 20
79.521989
 30
0.0
  0
VERTEX
  5
382
330
37D
100
AcDbEntity
  8
001
370
    50
100
AcDbVertex
100
AcDb2dVertex
 10
63.835526
 20
79.479179
 30
0.0
  0
VERTEX
  5
383
330
37D
100
AcDbEntity
  8
001
370
    50
100
AcDbVertex
100
AcDb2dVertex
 10
63.593501
 20
79.421465
 30
0.0
  0
SEQEND
  5
37E
330
37D
100
AcDbEntity
  8
001
370
    50
  0
POLYLINE
  5
384
330
1F
100
AcDbEntity
  8
001
370
    50
100
AcDb2dPolyline
 66
     1
 10
0.0
 20
0.0
 30
0.0
  0
VERTEX
  5
386
330
384
100
AcDbEntity
  8
001
370
    50
100
AcDbVertex
100
AcDb2dVertex
 10
66.458849
 20
74.4988
 30
0.0
  0
VERTEX
  5
387
330
384
100
AcDbEntity
  8
001
370
    50
100
AcDbVertex
100
AcDb2dVertex
 10
66.600923
 20
74.661976
 30
0.0
  0
VERTEX
  5
388
330
384
100
AcDbEntity
  8
001
370
    50
100
AcDbVertex
100
AcDb2dVertex
 10
66.735654
 20
74.830788
 30
0.0
  0
VERTEX
  5
389
330
384
100
AcDbEntity
  8
001
370
    50
100
AcDbVertex
100
AcDb2dVertex
 10
66.859097
 20
75.012694
 30
0.0
  0
VERTEX
  5
38A
330
384
100
AcDbEntity
  8
001
370
    50
100
AcDbVertex
100
AcDb2dVertex
 10
66.968627
 20
75.2037
 30
0.0
  0
VERTEX
  5
38B
330
384
100
AcDbEntity
  8
001
370
    50
100
AcDbVertex
100
AcDb2dVertex
 10
67.077396
 20
75.429368
 30
0.0
  0
VERTEX
  5
38C
330
384
100
AcDbEntity
  8
001
370
    50
100
AcDbVertex
100
AcDb2dVertex
 10
67.168154
 20
75.662616
 30
0.0
  0
VERTEX
  5
38D
330
384
100
AcDbEntity
  8
001
370
    50
100
AcDbVertex
100
AcDb2dVertex
 10
67.240933
 20
75.907699
 30
0.0
  0
VERTEX
  5
38E
330
384
100
AcDbEntity
  8
001
370
    50
100
AcDbVertex
100
AcDb2dVertex
 10
67.293732
 20
76.158177
 30
0.0
  0
VERTEX
  5
38F
330
384
100
AcDbEntity
  8
001
370
    50
100
AcDbVertex
100
AcDb2dVertex
 10
67.326791
 20
76.41801
 30
0.0
  0
VERTEX
  5
390
330
384
100
AcDbEntity
  8
001
370
    50
100
AcDbVertex
100
AcDb2dVertex
 10
67.335103
 20
76.679181
 30
0.0
  0
VERTEX
  5
391
330
384
100
AcDbEntity
  8
001
370
    50
100
AcDbVertex
100
AcDb2dVertex
 10
67.316578
 20
76.946677
 30
0.0
  0
VERTEX
  5
392
330
384
100
AcDbEntity
  8
001
370
    50
100
AcDbVertex
100
AcDb2dVertex
 10
67.282654
 20
77.213488
 30
0.0
  0
SEQEND
  5
385
330
384
100
AcDbEntity
  8
001
370
    50
  0
LINE
  5
393
330
1F
100
AcDbEntity
  8
001
370
    50
100
AcDbLine
 10
66.172268
 20
78.99171
 30
0.0
 11
66.821696
 21
78.323854
 31
0.0
  0
LINE
  5
394
330
1F
100
AcDbEntity
  8
001
370
    50
100
AcDbLine
 10
51.108798
 20
76.594854
 30
0.0
 11
51.108798
 21
97.270835
 31
0.0
  0
LINE
  5
395
330
1F
100
AcDbEntity
  8
001
370
    50
100
AcDbLine
 10
53.008798
 20
93.944535
 30
0.0
 11
53.008798
 21
103.970835
 31
0.0
  0
LINE
  5
396
330
1F
100
AcDbEntity
  8
001
370
    50
100
AcDbLine
 10
53.886562
 20
76.675803
 30
0.0
 11
53.871567
 21
76.61591
 31
0.0
  0
POLYLINE
  5
397
330
1F
100
AcDbEntity
  8
001
370
    50
100
AcDb2dPolyline
 66
     1
 10
0.0
 20
0.0
 30
0.0
  0
VERTEX
  5
399
330
397
100
AcDbEntity
  8
001
370
    50
100
AcDbVertex
100
AcDb2dVertex
 10
56.515198
 20
77.269247
 30
0.0
  0
VERTEX
  5
39A
330
397
100
AcDbEntity
  8
001
370
    50
100
AcDbVertex
100
AcDb2dVertex
 10
56.317183
 20
77.258103
 30
0.0
  0
VERTEX
  5
39B
330
397
100
AcDbEntity
  8
001
370
    50
100
AcDbVertex
100
AcDb2dVertex
 10
56.045633
 20
77.223357
 30
0.0
  0
VERTEX
  5
39C
330
397
100
AcDbEntity
  8
001
370
    50
100
AcDbVertex
100
AcDb2dVertex
 10
55.804228
 20
77.164506
 30
0.0
  0
VERTEX
  5
39D
330
397
100
AcDbEntity
  8
001
370
    50
100
AcDbVertex
100
AcDb2dVertex
 10
55.593307
 20
77.08737
 30
0.0
  0
VERTEX
  5
39E
330
397
100
AcDbEntity
  8
001
370
    50
100
AcDbVertex
100
AcDb2dVertex
 10
55.388552
 20
76.993986
 30
0.0
  0
VERTEX
  5
39F
330
397
100
AcDbEntity
  8
001
370
    50
100
AcDbVertex
100
AcDb2dVertex
 10
55.174826
 20
76.86628
 30
0.0
  0
VERTEX
  5
3A0
330
397
100
AcDbEntity
  8
001
370
    50
100
AcDbVertex
100
AcDb2dVertex
 10
55.001134
 20
76.736683
 30
0.0
  0
VERTEX
  5
3A1
330
397
100
AcDbEntity
  8
001
370
    50
100
AcDbVertex
100
AcDb2dVertex
 10
54.857247
 20
76.61591
 30
0.0
  0
SEQEND
  5
398
330
397
100
AcDbEntity
  8
001
370
    50
  0
LINE
  5
3A2
330
1F
100
AcDbEntity
  8
001
370
    50
100
AcDbLine
 10
56.615813
 20
77.269247
 30
0.0
 11
56.515198
 21
77.269247
 31
0.0
  0
POLYLINE
  5
3A3
330
1F
100
AcDbEntity
  8
001
370
    50
100
AcDb2dPolyline
 66
     1
 10
0.0
 20
0.0
 30
0.0
  0
VERTEX
  5
3A5
330
3A3
100
AcDbEntity
  8
001
370
    50
100
AcDbVertex
100
AcDb2dVertex
 10
62.526989
 20
78.875838
 30
0.0
  0
VERTEX
  5
3A6
330
3A3
100
AcDbEntity
  8
001
370
    50
100
AcDbVertex
100
AcDb2dVertex
 10
62.298794
 20
78.7436
 30
0.0
  0
VERTEX
  5
3A7
330
3A3
100
AcDbEntity
  8
001
370
    50
100
AcDbVertex
100
AcDb2dVertex
 10
61.978239
 20
78.545221
 30
0.0
  0
SEQEND
  5
3A4
330
3A3
100
AcDbEntity
  8
001
370
    50
  0
POLYLINE
  5
3A8
330
1F
100
AcDbEntity
  8
001
370
    50
100
AcDb2dPolyline
 66
     1
 10
0.0
 20
0.0
 30
0.0
  0
VERTEX
  5
3AA
330
3A8
100
AcDbEntity
  8
001
370
    50
100
AcDbVertex
100
AcDb2dVertex
 10
64.242621
 20
73.69013
 30
0.0
  0
VERTEX
  5
3AB
330
3A8
100
AcDbEntity
  8
001
370
    50
100
AcDbVertex
100
AcDb2dVertex
 10
64.400897
 20
73.746409
 30
0.0
  0
VERTEX
  5
3AC
330
3A8
100
AcDbEntity
  8
001
370
    50
100
AcDbVertex
100
AcDb2dVertex
 10
64.562337
 20
73.81122
 30
0.0
  0
VERTEX
  5
3AD
330
3A8
100
AcDbEntity
  8
001
370
    50
100
AcDbVertex
100
AcDb2dVertex
 10
64.811285
 20
73.93656
 30
0.0
  0
VERTEX
  5
3AE
330
3A8
100
AcDbEntity
  8
001
370
    50
100
AcDbVertex
100
AcDb2dVertex
 10
65.02602
 20
74.077408
 30
0.0
  0
VERTEX
  5
3AF
330
3A8
100
AcDbEntity
  8
001
370
    50
100
AcDbVertex
100
AcDb2dVertex
 10
65.235423
 20
74.240603
 30
0.0
  0
VERTEX
  5
3B0
330
3A8
100
AcDbEntity
  8
001
370
    50
100
AcDbVertex
100
AcDb2dVertex
 10
65.435098
 20
74.423811
 30
0.0
  0
VERTEX
  5
3B1
330
3A8
100
AcDbEntity
  8
001
370
    50
100
AcDbVertex
100
AcDb2dVertex
 10
65.615832
 20
74.624015
 30
0.0
  0
VERTEX
  5
3B2
330
3A8
100
AcDbEntity
  8
001
370
    50
100
AcDbVertex
100
AcDb2dVertex
 10
65.776273
 20
74.839171
 30
0.0
  0
VERTEX
  5
3B3
330
3A8
100
AcDbEntity
  8
001
370
    50
100
AcDbVertex
100
AcDb2dVertex
 10
65.91769
 20
75.068653
 30
0.0
  0
VERTEX
  5
3B4
330
3A8
100
AcDbEntity
  8
001
370
    50
100
AcDbVertex
100
AcDb2dVertex
 10
66.038456
 20
75.309985
 30
0.0
  0
VERTEX
  5
3B5
330
3A8
100
AcDbEntity
  8
001
370
    50
100
AcDbVertex
100
AcDb2dVertex
 10
66.137241
 20
75.561587
 30
0.0
  0
VERTEX
  5
3B6
330
3A8
100
AcDbEntity
  8
001
370
    50
100
AcDbVertex
100
AcDb2dVertex
 10
66.213124
 20
75.82095
 30
0.0
  0
VERTEX
  5
3B7
330
3A8
100
AcDbEntity
  8
001
370
    50
100
AcDbVertex
100
AcDb2dVertex
 10
66.265734
 20
76.086387
 30
0.0
  0
VERTEX
  5
3B8
330
3A8
100
AcDbEntity
  8
001
370
    50
100
AcDbVertex
100
AcDb2dVertex
 10
66.2946
 20
76.355457
 30
0.0
  0
VERTEX
  5
3B9
330
3A8
100
AcDbEntity
  8
001
370
    50
100
AcDbVertex
100
AcDb2dVertex
 10
66.299444
 20
76.626114
 30
0.0
  0
VERTEX
  5
3BA
330
3A8
100
AcDbEntity
  8
001
370
    50
100
AcDbVertex
100
AcDb2dVertex
 10
66.280236
 20
76.896133
 30
0.0
  0
VERTEX
  5
3BB
330
3A8
100
AcDbEntity
  8
001
370
    50
100
AcDbVertex
100
AcDb2dVertex
 10
66.237128
 20
77.163212
 30
0.0
  0
VERTEX
  5
3BC
330
3A8
100
AcDbEntity
  8
001
370
    50
100
AcDbVertex
100
AcDb2dVertex
 10
66.170498
 20
77.425402
 30
0.0
  0
VERTEX
  5
3BD
330
3A8
100
AcDbEntity
  8
001
370
    50
100
AcDbVertex
100
AcDb2dVertex
 10
66.080959
 20
77.680219
 30
0.0
  0
VERTEX
  5
3BE
330
3A8
100
AcDbEntity
  8
001
370
    50
100
AcDbVertex
100
AcDb2dVertex
 10
65.968953
 20
77.926061
 30
0.0
  0
VERTEX
  5
3BF
330
3A8
100
AcDbEntity
  8
001
370
    50
100
AcDbVertex
100
AcDb2dVertex
 10
65.835554
 20
78.160422
 30
0.0
  0
VERTEX
  5
3C0
330
3A8
100
AcDbEntity
  8
001
370
    50
100
AcDbVertex
100
AcDb2dVertex
 10
65.682153
 20
78.381836
 30
0.0
  0
VERTEX
  5
3C1
330
3A8
100
AcDbEntity
  8
001
370
    50
100
AcDbVertex
100
AcDb2dVertex
 10
65.510522
 20
78.587893
 30
0.0
  0
VERTEX
  5
3C2
330
3A8
100
AcDbEntity
  8
001
370
    50
100
AcDbVertex
100
AcDb2dVertex
 10
65.31942
 20
78.777913
 30
0.0
  0
VERTEX
  5
3C3
330
3A8
100
AcDbEntity
  8
001
370
    50
100
AcDbVertex
100
AcDb2dVertex
 10
65.110306
 20
78.949926
 30
0.0
  0
VERTEX
  5
3C4
330
3A8
100
AcDbEntity
  8
001
370
    50
100
AcDbVertex
100
AcDb2dVertex
 10
64.892544
 20
79.101417
 30
0.0
  0
VERTEX
  5
3C5
330
3A8
100
AcDbEntity
  8
001
370
    50
100
AcDbVertex
100
AcDb2dVertex
 10
64.670627
 20
79.23031
 30
0.0
  0
VERTEX
  5
3C6
330
3A8
100
AcDbEntity
  8
001
370
    50
100
AcDbVertex
100
AcDb2dVertex
 10
64.415401
 20
79.341832
 30
0.0
  0
VERTEX
  5
3C7
330
3A8
100
AcDbEntity
  8
001
370
    50
100
AcDbVertex
100
AcDb2dVertex
 10
64.121265
 20
79.436405
 30
0.0
  0
VERTEX
  5
3C8
330
3A8
100
AcDbEntity
  8
001
370
    50
100
AcDbVertex
100
AcDb2dVertex
 10
63.903501
 20
79.491343
 30
0.0
  0
SEQEND
  5
3A9
330
3A8
100
AcDbEntity
  8
001
370
    50
  0
POLYLINE
  5
3C9
330
1F
100
AcDbEntity
  8
001
370
    50
100
AcDb2dPolyline
 66
     1
 10
0.0
 20
0.0
 30
0.0
  0
VERTEX
  5
3CB
330
3C9
100
AcDbEntity
  8
001
370
    50
100
AcDbVertex
100
AcDb2dVertex
 10
64.242621
 20
73.667095
 30
0.0
  0
VERTEX
  5
3CC
330
3C9
100
AcDbEntity
  8
001
370
    50
100
AcDbVertex
100
AcDb2dVertex
 10
64.580677
 20
73.738459
 30
0.0
  0
VERTEX
  5
3CD
330
3C9
100
AcDbEntity
  8
001
370
    50
100
AcDbVertex
100
AcDb2dVertex
 10
64.945066
 20
73.825711
 30
0.0
  0
VERTEX
  5
3CE
330
3C9
100
AcDbEntity
  8
001
370
    50
100
AcDbVertex
100
AcDb2dVertex
 10
65.35663
 20
73.949766
 30
0.0
  0
VERTEX
  5
3CF
330
3C9
100
AcDbEntity
  8
001
370
    50
100
AcDbVertex
100
AcDb2dVertex
 10
65.754909
 20
74.11759
 30
0.0
  0
VERTEX
  5
3D0
330
3C9
100
AcDbEntity
  8
001
370
    50
100
AcDbVertex
100
AcDb2dVertex
 10
66.165065
 20
74.328563
 30
0.0
  0
VERTEX
  5
3D1
330
3C9
100
AcDbEntity
  8
001
370
    50
100
AcDbVertex
100
AcDb2dVertex
 10
66.458849
 20
74.4988
 30
0.0
  0
SEQEND
  5
3CA
330
3C9
100
AcDbEntity
  8
001
370
    50
  0
POLYLINE
  5
3D2
330
1F
100
AcDbEntity
  8
001
370
    50
100
AcDb2dPolyline
 66
     1
 10
0.0
 20
0.0
 30
0.0
  0
VERTEX
  5
3D4
330
3D2
100
AcDbEntity
  8
001
370
    50
100
AcDbVertex
100
AcDb2dVertex
 10
66.458849
 20
74.4988
 30
0.0
  0
VERTEX
  5
3D5
330
3D2
100
AcDbEntity
  8
001
370
    50
100
AcDbVertex
100
AcDb2dVertex
 10
66.328414
 20
72.978155
 30
0.0
  0
VERTEX
  5
3D6
330
3D2
100
AcDbEntity
  8
001
370
    50
100
AcDbVertex
100
AcDb2dVertex
 10
66.142621
 20
70.738068
 30
0.0
  0
SEQEND
  5
3D3
330
3D2
100
AcDbEntity
  8
001
370
    50
  0
POLYLINE
  5
3D7
330
1F
100
AcDbEntity
  8
001
370
    50
100
AcDb2dPolyline
 66
     1
 10
0.0
 20
0.0
 30
0.0
  0
VERTEX
  5
3D9
330
3D7
100
AcDbEntity
  8
001
370
    50
100
AcDbVertex
100
AcDb2dVertex
 10
65.681298
 20
64.66973
 30
0.0
  0
VERTEX
  5
3DA
330
3D7
100
AcDbEntity
  8
001
370
    50
100
AcDbVertex
100
AcDb2dVertex
 10
65.65454
 20
64.293351
 30
0.0
  0
VERTEX
  5
3DB
330
3D7
100
AcDbEntity
  8
001
370
    50
100
AcDbVertex
100
AcDb2dVertex
 10
65.633102
 20
63.988877
 30
0.0
  0
SEQEND
  5
3D8
330
3D7
100
AcDbEntity
  8
001
370
    50
  0
LINE
  5
3DC
330
1F
100
AcDbEntity
  8
001
370
    50
100
AcDbLine
 10
64.05912
 20
64.422139
 30
0.0
 11
64.05912
 21
64.599532
 31
0.0
  0
POLYLINE
  5
3DD
330
1F
100
AcDbEntity
  8
001
370
    50
100
AcDb2dPolyline
 66
     1
 10
0.0
 20
0.0
 30
0.0
  0
VERTEX
  5
3DF
330
3DD
100
AcDbEntity
  8
001
370
    50
100
AcDbVertex
100
AcDb2dVertex
 10
60.390422
 20
64.293879
 30
0.0
  0
VERTEX
  5
3E0
330
3DD
100
AcDbEntity
  8
001
370
    50
100
AcDbVertex
100
AcDb2dVertex
 10
62.573584
 20
64.367831
 30
0.0
  0
VERTEX
  5
3E1
330
3DD
100
AcDbEntity
  8
001
370
    50
100
AcDbVertex
100
AcDb2dVertex
 10
64.05912
 20
64.422139
 30
0.0
  0
SEQEND
  5
3DE
330
3DD
100
AcDbEntity
  8
001
370
    50
  0
LINE
  5
3E2
330
1F
100
AcDbEntity
  8
001
  6
CENTER
370
     9
100
AcDbLine
 10
48.899616
 20
83.970835
 30
0.0
 11
219.667007
 21
83.970835
 31
0.0
  0
LINE
  5
3E3
330
1F
100
AcDbEntity
  8
001
370
    50
100
AcDbLine
 10
216.508798
 20
83.970835
 30
0.0
 11
219.9729
 21
85.970835
 31
0.0
  0
LINE
  5
3E4
330
1F
100
AcDbEntity
  8
001
370
    50
100
AcDbLine
 10
216.508798
 20
83.970835
 30
0.0
 11
219.9729
 21
81.970835
 31
0.0
  0
LINE
  5
3E5
330
1F
100
AcDbEntity
  8
001
370
    50
100
AcDbLine
 10
139.508798
 20
67.970835
 30
0.0
 11
139.508798
 21
99.970835
 31
0.0
  0
LINE
  5
3E6
330
1F
100
AcDbEntity
  8
001
370
    50
100
AcDbLine
 10
139.508798
 20
99.470835
 30
0.0
 11
136.508798
 21
99.470835
 31
0.0
  0
LINE
  5
3E7
330
1F
100
AcDbEntity
  8
001
370
    50
100
AcDbLine
 10
136.508798
 20
68.470835
 30
0.0
 11
139.508798
 21
68.470835
 31
0.0
  0
LINE
  5
3E8
330
1F
100
AcDbEntity
  8
001
370
    50
100
AcDbLine
 10
51.108798
 20
83.970835
 30
0.0
 11
47.644697
 21
85.970835
 31
0.0
  0
LINE
  5
3E9
330
1F
100
AcDbEntity
  8
001
370
    50
100
AcDbLine
 10
51.108798
 20
83.970835
 30
0.0
 11
47.644697
 21
81.970835
 31
0.0
  0
ARC
  5
3EA
330
1F
100
AcDbEntity
  8
001
370
    50
100
AcDbCircle
 10
58.341173
 20
72.110085
 30
0.0
 40
0.3950000000000001
100
AcDbArc
 50
13.633617
 51
166.366383
  0
ARC
  5
3EB
330
1F
100
AcDbEntity
  8
001
370
    50
100
AcDbCircle
 10
57.280417
 20
72.367368
 30
0.0
 40
0.6965113125890092
100
AcDbArc
 50
253.633617
 51
346.366383
  0
ARC
  5
3EC
330
1F
100
AcDbEntity
  8
001
370
    50
100
AcDbCircle
 10
56.972853
 20
71.320085
 30
0.0
 40
0.3950000000000001
100
AcDbArc
 50
73.633617
 51
226.366383
  0
ARC
  5
3ED
330
1F
100
AcDbEntity
  8
001
370
    50
100
AcDbCircle
 10
56.219662
 20
70.530085
 30
0.0
 40
0.6965113125890092
100
AcDbArc
 50
313.633617
 51
46.366383
  0
ARC
  5
3EE
330
1F
100
AcDbEntity
  8
001
370
    50
100
AcDbCircle
 10
56.972853
 20
69.740085
 30
0.0
 40
0.3950000000000001
100
AcDbArc
 50
133.633617
 51
286.366383
  0
ARC
  5
3EF
330
1F
100
AcDbEntity
  8
001
370
    50
100
AcDbCircle
 10
57.280417
 20
68.692802
 30
0.0
 40
0.6965113125890092
100
AcDbArc
 50
13.633617
 51
106.366383
  0
ARC
  5
3F0
330
1F
100
AcDbEntity
  8
001
370
    50
100
AcDbCircle
 10
58.341173
 20
68.950085
 30
0.0
 40
0.3950000000000001
100
AcDbArc
 50
193.633617
 51
346.366383
  0
ARC
  5
3F1
330
1F
100
AcDbEntity
  8
001
370
    50
100
AcDbCircle
 10
59.401929
 20
68.692802
 30
0.0
 40
0.6965113125890092
100
AcDbArc
 50
73.633617
 51
166.366383
  0
ARC
  5
3F2
330
1F
100
AcDbEntity
  8
001
370
    50
100
AcDbCircle
 10
59.709493
 20
69.740085
 30
0.0
 40
0.3950000000000001
100
AcDbArc
 50
253.633617
 51
46.366383
  0
ARC
  5
3F3
330
1F
100
AcDbEntity
  8
001
370
    50
100
AcDbCircle
 10
60.462684
 20
70.530085
 30
0.0
 40
0.6965113125890092
100
AcDbArc
 50
133.633617
 51
226.366383
  0
ARC
  5
3F4
330
1F
100
AcDbEntity
  8
001
370
    50
100
AcDbCircle
 10
59.709493
 20
71.320085
 30
0.0
 40
0.3950000000000001
100
AcDbArc
 50
313.633617
 51
106.366383
  0
ARC
  5
3F5
330
1F
100
AcDbEntity
  8
001
370
    50
100
AcDbCircle
 10
59.401929
 20
72.367368
 30
0.0
 40
0.6965113125890092
100
AcDbArc
 50
193.633617
 51
286.366383
  0
CIRCLE
  5
3F6
330
1F
100
AcDbEntity
  8
001
370
    50
100
AcDbCircle
 10
58.341173
 20
70.530085
 30
0.0
 40
3.1
  0
LINE
  5
3F7
330
1F
100
AcDbEntity
  8
001
370
    50
100
AcDbLine
 10
52.408799
 20
67.970834
 30
0.0
 11
50.508798
 21
69.870835
 31
0.0
  0
ARC
  5
3F8
330
1F
100
AcDbEntity
  8
001
370
    50
100
AcDbCircle
 10
53.208799
 20
63.270835
 30
0.0
 40
0.8
100
AcDbArc
 50
180.0
 51
270.0
  0
ENDSEC
  0
SECTION
  2
OBJECTS
  0
DICTIONARY
  5
C
330
0
100
AcDbDictionary
281
     1
  3
ACAD_GROUP
350
D
  3
ACAD_LAYOUT
350
1A
  3
ACAD_MLEADERSTYLE
350
3FC
  3
ACAD_MLINESTYLE
350
17
  3
ACAD_PLOTSETTINGS
350
19
  3
ACAD_PLOTSTYLENAME
350
E
  3
ACAD_SCALELIST
350
3B
  3
ACAD_TABLESTYLE
350
3FB
  3
ACAD_VISUALSTYLE
350
2A
  3
AcDbVariableDictionary
350
3F9
  0
DICTIONARY
  5
D
102
{ACAD_REACTORS
330
C
102
}
330
C
100
AcDbDictionary
281
     1
  0
DICTIONARY
  5
1A
102
{ACAD_REACTORS
330
C
102
}
330
C
100
AcDbDictionary
281
     1
  3
Layout1
350
1E
  3
Layout2
350
26
  3
Model
350
22
  0
DICTIONARY
  5
3FC
102
{ACAD_REACTORS
330
C
102
}
330
C
100
AcDbDictionary
281
     1
  0
DICTIONARY
  5
17
102
{ACAD_REACTORS
330
C
102
}
330
C
100
AcDbDictionary
281
     1
  3
Standard
350
18
  0
DICTIONARY
  5
19
102
{ACAD_REACTORS
330
C
102
}
330
C
100
AcDbDictionary
281
     1
  0
ACDBDICTIONARYWDFLT
  5
E
102
{ACAD_REACTORS
330
C
102
}
330
C
100
AcDbDictionary
281
     1
  3
Normal
350
F
100
AcDbDictionaryWithDefault
340
F
  0
DICTIONARY
  5
3B
102
{ACAD_REACTORS
330
C
102
}
330
C
100
AcDbDictionary
281
     1
  3
A0
350
3C
  3
A1
350
3D
  3
A2
350
3E
  3
A3
350
3F
  3
A4
350
40
  3
A5
350
41
  3
A6
350
42
  3
A7
350
43
  3
A8
350
44
  3
A9
350
45
  3
B0
350
46
  3
B1
350
47
  3
B2
350
48
  3
B3
350
49
  3
B4
350
4A
  3
B5
350
4B
  3
B6
350
4C
  3
B7
350
4D
  3
B8
350
4E
  3
B9
350
4F
  3
C0
350
50
  3
C1
350
51
  3
C2
350
52
  3
C3
350
53
  3
C4
350
54
  3
C5
350
55
  3
C6
350
56
  3
C7
350
57
  3
C8
350
58
  3
C9
350
59
  3
D0
350
5A
  3
D1
350
5B
  3
D2
350
5C
  0
DICTIONARY
  5
3FB
102
{ACAD_REACTORS
330
C
102
}
330
C
100
AcDbDictionary
281
     1
  0
DICTIONARY
  5
2A
102
{ACAD_REACTORS
330
C
102
}
330
C
100
AcDbDictionary
281
     1
  3
2dWireframe
350
2F
  3
3D Hidden
350
31
  3
3dWireframe
350
30
  3
Basic
350
32
  3
Brighten
350
36
  3
ColorChange
350
3A
  3
Conceptual
350
34
  3
Dim
350
35
  3
Facepattern
350
39
  3
Flat
350
2B
  3
FlatWithEdges
350
2C
  3
Gouraud
350
2D
  3
GouraudWithEdges
350
2E
  3
Linepattern
350
38
  3
Realistic
350
33
  3
Thicken
350
37
  0
DICTIONARY
  5
3F9
102
{ACAD_REACTORS
330
C
102
}
330
C
100
AcDbDictionary
281
     1
  3
CANNOSCALE
350
3FA
  3
PSOLHEIGHT
350
3FE
  3
PSOLWIDTH
350
3FD
  0
LAYOUT
  5
1E
102
{ACAD_REACTORS
330
1A
102
}
330
1A
100
AcDbPlotSettings
  1

  2
none_device
  4

  6

 40
0.0
 41
0.0
 42
0.0
 43
0.0
 44
0.0
 45
0.0
 46
0.0
 47
0.0
 48
0.0
 49
0.0
140
0.0
141
0.0
142
1.0
143
1.0
 70
   688
 72
     0
 73
     0
 74
     5
  7

 75
    16
147
1.0
148
0.0
149
0.0
100
AcDbLayout
  1
Layout1
 70
     1
 71
     1
 10
0.0
 20
0.0
 11
12.0
 21
9.0
 12
0.0
 22
0.0
 32
0.0
 14
1.000000E+20
 24
1.000000E+20
 34
0.0
 15
-1.000000E+20
 25
-1.000000E+20
 35
0.0
146
0.0
 13
0.0
 23
0.0
 33
0.0
 16
1.0
 26
0.0
 36
0.0
 17
0.0
 27
1.0
 37
0.0
 76
     0
330
1B
  0
LAYOUT
  5
26
102
{ACAD_REACTORS
330
1A
102
}
330
1A
100
AcDbPlotSettings
  1

  2
none_device
  4

  6

 40
0.0
 41
0.0
 42
0.0
 43
0.0
 44
0.0
 45
0.0
 46
0.0
 47
0.0
 48
0.0
 49
0.0
140
0.0
141
0.0
142
1.0
143
1.0
 70
   688
 72
     0
 73
     0
 74
     5
  7

 75
    16
147
1.0
148
0.0
149
0.0
100
AcDbLayout
  1
Layout2
 70
     1
 71
     2
 10
0.0
 20
0.0
 11
0.0
 21
0.0
 12
0.0
 22
0.0
 32
0.0
 14
0.0
 24
0.0
 34
0.0
 15
0.0
 25
0.0
 35
0.0
146
0.0
 13
0.0
 23
0.0
 33
0.0
 16
1.0
 26
0.0
 36
0.0
 17
0.0
 27
1.0
 37
0.0
 76
     0
330
23
  0
LAYOUT
  5
22
102
{ACAD_REACTORS
330
1A
102
}
330
1A
100
AcDbPlotSettings
  1

  2
none_device
  4

  6

 40
0.0
 41
0.0
 42
0.0
 43
0.0
 44
0.0
 45
0.0
 46
0.0
 47
0.0
 48
0.0
 49
0.0
140
0.0
141
0.0
142
1.0
143
1.0
 70
  1712
 72
     0
 73
     0
 74
     0
  7

 75
     0
147
1.0
148
0.0
149
0.0
100
AcDbLayout
  1
Model
 70
     1
 71
     0
 10
0.0
 20
0.0
 11
12.0
 21
9.0
 12
0.0
 22
0.0
 32
0.0
 14
5.865768
 24
15.816742
 34
0.0
 15
243.638046
 25
141.313965
 35
0.0
146
0.0
 13
0.0
 23
0.0
 33
0.0
 16
1.0
 26
0.0
 36
0.0
 17
0.0
 27
1.0
 37
0.0
 76
     0
330
1F
331
29
  0
MLINESTYLE
  5
18
102
{ACAD_REACTORS
330
17
102
}
330
17
100
AcDbMlineStyle
  2
Standard
 70
     0
  3

 62
   256
 51
90.0
 52
90.0
 71
     2
 49
0.5
 62
   256
  6
BYLAYER
 49
-0.5
 62
   256
  6
BYLAYER
  0
ACDBPLACEHOLDER
  5
F
102
{ACAD_REACTORS
330
E
102
}
330
E
  0
SCALE
  5
3C
102
{ACAD_REACTORS
330
3B
102
}
330
3B
100
AcDbScale
 70
     0
300
1:1
140
1.0
141
1.0
290
     1
  0
SCALE
  5
3D
102
{ACAD_REACTORS
330
3B
102
}
330
3B
100
AcDbScale
 70
     0
300
1:2
140
1.0
141
2.0
290
     0
  0
SCALE
  5
3E
102
{ACAD_REACTORS
330
3B
102
}
330
3B
100
AcDbScale
 70
     0
300
1:4
140
1.0
141
4.0
290
     0
  0
SCALE
  5
3F
102
{ACAD_REACTORS
330
3B
102
}
330
3B
100
AcDbScale
 70
     0
300
1:5
140
1.0
141
5.0
290
     0
  0
SCALE
  5
40
102
{ACAD_REACTORS
330
3B
102
}
330
3B
100
AcDbScale
 70
     0
300
1:8
140
1.0
141
8.0
290
     0
  0
SCALE
  5
41
102
{ACAD_REACTORS
330
3B
102
}
330
3B
100
AcDbScale
 70
     0
300
1:10
140
1.0
141
10.0
290
     0
  0
SCALE
  5
42
102
{ACAD_REACTORS
330
3B
102
}
330
3B
100
AcDbScale
 70
     0
300
1:16
140
1.0
141
16.0
290
     0
  0
SCALE
  5
43
102
{ACAD_REACTORS
330
3B
102
}
330
3B
100
AcDbScale
 70
     0
300
1:20
140
1.0
141
20.0
290
     0
  0
SCALE
  5
44
102
{ACAD_REACTORS
330
3B
102
}
330
3B
100
AcDbScale
 70
     0
300
1:30
140
1.0
141
30.0
290
     0
  0
SCALE
  5
45
102
{ACAD_REACTORS
330
3B
102
}
330
3B
100
AcDbScale
 70
     0
300
1:40
140
1.0
141
40.0
290
     0
  0
SCALE
  5
46
102
{ACAD_REACTORS
330
3B
102
}
330
3B
100
AcDbScale
 70
     0
300
1:50
140
1.0
141
50.0
290
     0
  0
SCALE
  5
47
102
{ACAD_REACTORS
330
3B
102
}
330
3B
100
AcDbScale
 70
     0
300
1:100
140
1.0
141
100.0
290
     0
  0
SCALE
  5
48
102
{ACAD_REACTORS
330
3B
102
}
330
3B
100
AcDbScale
 70
     0
300
2:1
140
2.0
141
1.0
290
     0
  0
SCALE
  5
49
102
{ACAD_REACTORS
330
3B
102
}
330
3B
100
AcDbScale
 70
     0
300
4:1
140
4.0
141
1.0
290
     0
  0
SCALE
  5
4A
102
{ACAD_REACTORS
330
3B
102
}
330
3B
100
AcDbScale
 70
     0
300
8:1
140
8.0
141
1.0
290
     0
  0
SCALE
  5
4B
102
{ACAD_REACTORS
330
3B
102
}
330
3B
100
AcDbScale
 70
     0
300
10:1
140
10.0
141
1.0
290
     0
  0
SCALE
  5
4C
102
{ACAD_REACTORS
330
3B
102
}
330
3B
100
AcDbScale
 70
     0
300
100:1
140
100.0
141
1.0
290
     0
  0
SCALE
  5
4D
102
{ACAD_REACTORS
330
3B
102
}
330
3B
100
AcDbScale
 70
     0
300
1/128" = 1'-0"
140
0.007812
141
12.0
290
     0
  0
SCALE
  5
4E
102
{ACAD_REACTORS
330
3B
102
}
330
3B
100
AcDbScale
 70
     0
300
1/64" = 1'-0"
140
0.015625
141
12.0
290
     0
  0
SCALE
  5
4F
102
{ACAD_REACTORS
330
3B
102
}
330
3B
100
AcDbScale
 70
     0
300
1/32" = 1'-0"
140
0.03125
141
12.0
290
     0
  0
SCALE
  5
50
102
{ACAD_REACTORS
330
3B
102
}
330
3B
100
AcDbScale
 70
     0
300
1/16" = 1'-0"
140
0.0625
141
12.0
290
     0
  0
SCALE
  5
51
102
{ACAD_REACTORS
330
3B
102
}
330
3B
100
AcDbScale
 70
     0
300
3/32" = 1'-0"
140
0.09375
141
12.0
290
     0
  0
SCALE
  5
52
102
{ACAD_REACTORS
330
3B
102
}
330
3B
100
AcDbScale
 70
     0
300
1/8" = 1'-0"
140
0.125
141
12.0
290
     0
  0
SCALE
  5
53
102
{ACAD_REACTORS
330
3B
102
}
330
3B
100
AcDbScale
 70
     0
300
3/16" = 1'-0"
140
0.1875
141
12.0
290
     0
  0
SCALE
  5
54
102
{ACAD_REACTORS
330
3B
102
}
330
3B
100
AcDbScale
 70
     0
300
1/4" = 1'-0"
140
0.25
141
12.0
290
     0
  0
SCALE
  5
55
102
{ACAD_REACTORS
330
3B
102
}
330
3B
100
AcDbScale
 70
     0
300
3/8" = 1'-0"
140
0.375
141
12.0
290
     0
  0
SCALE
  5
56
102
{ACAD_REACTORS
330
3B
102
}
330
3B
100
AcDbScale
 70
     0
300
1/2" = 1'-0"
140
0.5
141
12.0
290
     0
  0
SCALE
  5
57
102
{ACAD_REACTORS
330
3B
102
}
330
3B
100
AcDbScale
 70
     0
300
3/4" = 1'-0"
140
0.75
141
12.0
290
     0
  0
SCALE
  5
58
102
{ACAD_REACTORS
330
3B
102
}
330
3B
100
AcDbScale
 70
     0
300
1" = 1'-0"
140
1.0
141
12.0
290
     0
  0
SCALE
  5
59
102
{ACAD_REACTORS
330
3B
102
}
330
3B
100
AcDbScale
 70
     0
300
1-1/2" = 1'-0"
140
1.5
141
12.0
290
     0
  0
SCALE
  5
5A
102
{ACAD_REACTORS
330
3B
102
}
330
3B
100
AcDbScale
 70
     0
300
3" = 1'-0"
140
3.0
141
12.0
290
     0
  0
SCALE
  5
5B
102
{ACAD_REACTORS
330
3B
102
}
330
3B
100
AcDbScale
 70
     0
300
6" = 1'-0"
140
6.0
141
12.0
290
     0
  0
SCALE
  5
5C
102
{ACAD_REACTORS
330
3B
102
}
330
3B
100
AcDbScale
 70
     0
300
1'-0" = 1'-0"
140
12.0
141
12.0
290
     0
  0
VISUALSTYLE
  5
2F
102
{ACAD_REACTORS
330
2A
102
}
330
2A
100
AcDbVisualStyle
  2
2dWireframe
 70
     4
 71
     0
 72
     2
 73
     0
 90
        0
 40
-0.6
 41
-30.0
 62
     5
 63
     7
 74
     1
 91
        4
 64
     7
 65
   257
 75
     1
175
     1
 42
1.0
 92
        0
 66
   257
 43
1.0
 76
     1
 77
     6
 78
     2
 67
     7
 79
     5
170
     0
171
     0
290
     0
174
     0
 93
        1
 44
0.0
173
     0
291
     0
 45
0.0
1001
ACAD
1000
AcDbSavedByObjectVersion
1070
     0
  0
VISUALSTYLE
  5
31
102
{ACAD_REACTORS
330
2A
102
}
330
2A
100
AcDbVisualStyle
  2
3D Hidden
 70
     6
 71
     1
 72
     2
 73
     2
 90
        0
 40
-0.6
 41
-30.0
 62
     5
 63
     7
 74
     2
 91
        2
 64
     7
 65
   257
 75
     2
175
     1
 42
40.0
 92
        0
 66
   257
 43
1.0
 76
     1
 77
     6
 78
     2
 67
     7
 79
     3
170
     0
171
     0
290
     0
174
     0
 93
        1
 44
0.0
173
     0
291
     0
 45
0.0
1001
ACAD
1000
AcDbSavedByObjectVersion
1070
     0
  0
VISUALSTYLE
  5
30
102
{ACAD_REACTORS
330
2A
102
}
330
2A
100
AcDbVisualStyle
  2
3dWireframe
 70
     5
 71
     0
 72
     2
 73
     0
 90
        0
 40
-0.6
 41
-30.0
 62
     5
 63
     7
 74
     1
 91
        4
 64
     7
 65
   257
 75
     1
175
     1
 42
1.0
 92
        0
 66
   257
 43
1.0
 76
     1
 77
     6
 78
     2
 67
     7
 79
     5
170
     0
171
     0
290
     0
174
     0
 93
        1
 44
0.0
173
     0
291
     0
 45
0.0
1001
ACAD
1000
AcDbSavedByObjectVersion
1070
     0
  0
VISUALSTYLE
  5
32
102
{ACAD_REACTORS
330
2A
102
}
330
2A
100
AcDbVisualStyle
  2
Basic
 70
     7
 71
     1
 72
     0
 73
     1
 90
        0
 40
-0.6
 41
-30.0
 62
     5
 63
     7
 74
     0
 91
        4
 64
     7
 65
   257
 75
     1
175
     1
 42
1.0
 92
        8
 66
     7
 43
1.0
 76
     1
 77
     6
 78
     2
 67
     7
 79
     5
170
     0
171
     0
290
     0
174
     0
 93
        1
 44
0.0
173
     0
291
     1
 45
0.0
1001
ACAD
1000
AcDbSavedByObjectVersion
1070
     0
  0
VISUALSTYLE
  5
36
102
{ACAD_REACTORS
330
2A
102
}
330
2A
100
AcDbVisualStyle
  2
Brighten
 70
    12
 71
     2
 72
     2
 73
     0
 90
        0
 40
-0.6
 41
-30.0
 62
     5
 63
     7
 74
     1
 91
        4
 64
     7
 65
   257
 75
     1
175
     1
 42
1.0
 92
        8
 66
     7
 43
1.0
 76
     1
 77
     6
 78
     2
 67
     7
 79
     5
170
     0
171
     0
290
     0
174
     0
 93
        1
 44
50.0
173
     0
291
     1
 45
0.0
1001
ACAD
1000
AcDbSavedByObjectVersion
1070
     0
  0
VISUALSTYLE
  5
3A
102
{ACAD_REACTORS
330
2A
102
}
330
2A
100
AcDbVisualStyle
  2
ColorChange
 70
    16
 71
     2
 72
     2
 73
     3
 90
        0
 40
-0.6
 41
-30.0
 62
     5
 63
     8
 74
     1
 91
        4
 64
     7
 65
   257
 75
     1
175
     1
 42
1.0
 92
        8
 66
     8
 43
1.0
 76
     1
 77
     6
 78
     2
 67
     7
 79
     5
170
     0
171
     0
290
     0
174
     0
 93
        1
 44
0.0
173
     0
291
     1
 45
0.0
1001
ACAD
1000
AcDbSavedByObjectVersion
1070
     0
  0
VISUALSTYLE
  5
34
102
{ACAD_REACTORS
330
2A
102
}
330
2A
100
AcDbVisualStyle
  2
Conceptual
 70
     9
 71
     3
 72
     2
 73
     0
 90
        0
 40
-0.6
 41
-30.0
 62
     5
 63
     7
 74
     2
 91
        2
 64
     7
 65
   257
 75
     1
175
     1
 42
40.0
 92
        8
 66
     7
 43
1.0
 76
     1
 77
     6
 78
     2
 67
     7
 79
     3
170
     0
171
     0
290
     0
174
     0
 93
        1
 44
0.0
173
     0
291
     0
 45
0.0
1001
ACAD
1000
AcDbSavedByObjectVersion
1070
     0
  0
VISUALSTYLE
  5
35
102
{ACAD_REACTORS
330
2A
102
}
330
2A
100
AcDbVisualStyle
  2
Dim
 70
    11
 71
     2
 72
     2
 73
     0
 90
        0
 40
-0.6
 41
-30.0
 62
     5
 63
     7
 74
     1
 91
        4
 64
     7
 65
   257
 75
     1
175
     1
 42
1.0
 92
        8
 66
     7
 43
1.0
 76
     1
 77
     6
 78
     2
 67
     7
 79
     5
170
     0
171
     0
290
     0
174
     0
 93
        1
 44
-50.0
173
     0
291
     1
 45
0.0
1001
ACAD
1000
AcDbSavedByObjectVersion
1070
     0
  0
VISUALSTYLE
  5
39
102
{ACAD_REACTORS
330
2A
102
}
330
2A
100
AcDbVisualStyle
  2
Facepattern
 70
    15
 71
     2
 72
     2
 73
     0
 90
        0
 40
-0.6
 41
-30.0
 62
     5
 63
     7
 74
     1
 91
        4
 64
     7
 65
   257
 75
     1
175
     1
 42
1.0
 92
        8
 66
     7
 43
1.0
 76
     1
 77
     6
 78
     2
 67
     7
 79
     5
170
     0
171
     0
290
     0
174
     0
 93
        1
 44
0.0
173
     0
291
     1
 45
0.0
1001
ACAD
1000
AcDbSavedByObjectVersion
1070
     0
  0
VISUALSTYLE
  5
2B
102
{ACAD_REACTORS
330
2A
102
}
330
2A
100
AcDbVisualStyle
  2
Flat
 70
     0
 71
     2
 72
     1
 73
     1
 90
        2
 40
-0.6
 41
30.0
 62
     5
 63
     7
 74
     0
 91
        4
 64
     7
 65
   257
 75
     1
175
     1
 42
1.0
 92
        8
 66
     7
 43
1.0
 76
     1
 77
     6
 78
     2
 67
     7
 79
     5
170
     0
171
     0
290
     0
174
     0
 93
       13
 44
0.0
173
     0
291
     1
 45
0.0
1001
ACAD
1000
AcDbSavedByObjectVersion
1070
     0
  0
VISUALSTYLE
  5
2C
102
{ACAD_REACTORS
330
2A
102
}
330
2A
100
AcDbVisualStyle
  2
FlatWithEdges
 70
     1
 71
     2
 72
     1
 73
     1
 90
        2
 40
-0.6
 41
30.0
 62
     5
 63
     7
 74
     1
 91
        4
 64
     7
 65
   257
 75
     1
175
     1
 42
1.0
 92
        0
 66
   257
 43
1.0
 76
     1
 77
     6
 78
     2
 67
     7
 79
     5
170
     0
171
     0
290
     0
174
     0
 93
       13
 44
0.0
173
     0
291
     1
 45
0.0
1001
ACAD
1000
AcDbSavedByObjectVersion
1070
     0
  0
VISUALSTYLE
  5
2D
102
{ACAD_REACTORS
330
2A
102
}
330
2A
100
AcDbVisualStyle
  2
Gouraud
 70
     2
 71
     2
 72
     2
 73
     1
 90
        2
 40
-0.6
 41
30.0
 62
     5
 63
     7
 74
     0
 91
        4
 64
     7
 65
   257
 75
     1
175
     1
 42
1.0
 92
        0
 66
     7
 43
1.0
 76
     1
 77
     6
 78
     2
 67
     7
 79
     5
170
     0
171
     0
290
     0
174
     0
 93
       13
 44
0.0
173
     0
291
     1
 45
0.0
1001
ACAD
1000
AcDbSavedByObjectVersion
1070
     0
  0
VISUALSTYLE
  5
2E
102
{ACAD_REACTORS
330
2A
102
}
330
2A
100
AcDbVisualStyle
  2
GouraudWithEdges
 70
     3
 71
     2
 72
     2
 73
     1
 90
        2
 40
-0.6
 41
30.0
 62
     5
 63
     7
 74
     1
 91
        4
 64
     7
 65
   257
 75
     1
175
     1
 42
1.0
 92
        0
 66
   257
 43
1.0
 76
     1
 77
     6
 78
     2
 67
     7
 79
     5
170
     0
171
     0
290
     0
174
     0
 93
       13
 44
0.0
173
     0
291
     1
 45
0.0
1001
ACAD
1000
AcDbSavedByObjectVersion
1070
     0
  0
VISUALSTYLE
  5
38
102
{ACAD_REACTORS
330
2A
102
}
330
2A
100
AcDbVisualStyle
  2
Linepattern
 70
    14
 71
     2
 72
     2
 73
     0
 90
        0
 40
-0.6
 41
-30.0
 62
     5
 63
     7
 74
     1
 91
        4
 64
     7
 65
   257
 75
     7
175
     7
 42
1.0
 92
        8
 66
     7
 43
1.0
 76
     1
 77
     6
 78
     2
 67
     7
 79
     5
170
     0
171
     0
290
     0
174
     0
 93
        1
 44
0.0
173
     0
291
     1
 45
0.0
1001
ACAD
1000
AcDbSavedByObjectVersion
1070
     0
  0
VISUALSTYLE
  5
33
102
{ACAD_REACTORS
330
2A
102
}
330
2A
100
AcDbVisualStyle
  2
Realistic
 70
     8
 71
     2
 72
     2
 73
     0
 90
        0
 40
-0.6
 41
-30.0
 62
     5
 63
     7
 74
     1
 91
        0
 64
     7
 65
   257
 75
     1
175
     1
 42
1.0
 92
        8
 66
     8
 43
1.0
 76
     1
 77
     6
 78
     2
 67
     7
 79
     5
170
     0
171
     0
290
     0
174
     0
 93
       13
 44
0.0
173
     0
291
     0
 45
0.0
1001
ACAD
1000
AcDbSavedByObjectVersion
1070
     0
  0
VISUALSTYLE
  5
37
102
{ACAD_REACTORS
330
2A
102
}
330
2A
100
AcDbVisualStyle
  2
Thicken
 70
    13
 71
     2
 72
     2
 73
     0
 90
        0
 40
-0.6
 41
-30.0
 62
     5
 63
     7
 74
     1
 91
        4
 64
     7
 65
   257
 75
     1
175
     1
 42
1.0
 92
       12
 66
     7
 43
1.0
 76
     1
 77
     6
 78
     2
 67
     7
 79
     5
170
     0
171
     0
290
     0
174
     0
 93
        1
 44
0.0
173
     0
291
     1
 45
0.0
1001
ACAD
1000
AcDbSavedByObjectVersion
1070
     0
  0
DICTIONARYVAR
  5
3FA
102
{ACAD_REACTORS
330
3F9
102
}
330
3F9
100
DictionaryVariables
280
     0
  1
1:1
  0
DICTIONARYVAR
  5
3FE
102
{ACAD_REACTORS
330
3F9
102
}
330
3F9
100
DictionaryVariables
280
     0
  1
80.000000
  0
DICTIONARYVAR
  5
3FD
102
{ACAD_REACTORS
330
3F9
102
}
330
3F9
100
DictionaryVariables
280
     0
  1
5.000000
  0
ENDSEC
  0
EOF
