  0
SECTION
  2
HEADER
  9
$ACADVER
  1
AC1014
  9
$ACADMAINTVER
 70
     9
  9
$DWGCODEPAGE
  3
ANSI_932
  9
$INSBASE
 10
0.0
 20
0.0
 30
0.0
  9
$EXTMIN
 10
3.286690936533482
 20
1.466867000000001
 30
0.0
  9
$EXTMAX
 10
69.00721900000002
 20
42.2424
 30
0.0
  9
$LIMMIN
 10
0.0
 20
0.0
  9
$LIMMAX
 10
12.0
 20
9.0
  9
$ORTHOMODE
 70
     0
  9
$REGENMODE
 70
     1
  9
$FILLMODE
 70
     1
  9
$QTEXTMODE
 70
     0
  9
$MIRRTEXT
 70
     1
  9
$DRAGMODE
 70
     2
  9
$LTSCALE
 40
0.775539
  9
$OSMODE
 70
   511
  9
$ATTMODE
 70
     1
  9
$TEXTSIZE
 40
0.2
  9
$TRACEWID
 40
1.0
  9
$TEXTSTYLE
  7
STANDARD
  9
$CLAYER
  8
0
  9
$CELTYPE
  6
BYLAYER
  9
$CECOLOR
 62
   256
  9
$CELTSCALE
 40
1.0
  9
$DELOBJ
 70
     1
  9
$DISPSILH
 70
     0
  9
$DIMSCALE
 40
1.0
  9
$DIMASZ
 40
2.5
  9
$DIMEXO
 40
0.625
  9
$DIMDLI
 40
3.75
  9
$DIMRND
 40
0.0
  9
$DIMDLE
 40
0.0
  9
$DIMEXE
 40
1.25
  9
$DIMTP
 40
0.0
  9
$DIMTM
 40
0.0
  9
$DIMTXT
 40
2.5
  9
$DIMCEN
 40
0.09
  9
$DIMTSZ
 40
0.0
  9
$DIMTOL
 70
     0
  9
$DIMLIM
 70
     0
  9
$DIMTIH
 70
     0
  9
$DIMTOH
 70
     0
  9
$DIMSE1
 70
     0
  9
$DIMSE2
 70
     0
  9
$DIMTAD
 70
     0
  9
$DIMZIN
 70
     8
  9
$DIMBLK
  1

  9
$DIMASO
 70
     1
  9
$DIMSHO
 70
     0
  9
$DIMPOST
  1

  9
$DIMAPOST
  1

  9
$DIMALT
 70
     0
  9
$DIMALTD
 70
     3
  9
$DIMALTF
 40
0.03937
  9
$DIMLFAC
 40
1.0
  9
$DIMTOFL
 70
     1
  9
$DIMTVP
 40
0.0
  9
$DIMTIX
 70
     0
  9
$DIMSOXD
 70
     0
  9
$DIMSAH
 70
     0
  9
$DIMBLK1
  1

  9
$DIMBLK2
  1

  9
$DIMSTYLE
  2
ISO-25
  9
$DIMCLRD
 70
     0
  9
$DIMCLRE
 70
     0
  9
$DIMCLRT
 70
     0
  9
$DIMTFAC
 40
1.0
  9
$DIMGAP
 40
0.625
  9
$DIMJUST
 70
     0
  9
$DIMSD1
 70
     0
  9
$DIMSD2
 70
     0
  9
$DIMTOLJ
 70
     0
  9
$DIMTZIN
 70
     8
  9
$DIMALTZ
 70
     0
  9
$DIMALTTZ
 70
     0
  9
$DIMFIT
 70
     3
  9
$DIMUPT
 70
     0
  9
$DIMUNIT
 70
     2
  9
$DIMDEC
 70
     2
  9
$DIMTDEC
 70
     2
  9
$DIMALTU
 70
     2
  9
$DIMALTTD
 70
     3
  9
$DIMTXSTY
  7
STANDARD
  9
$DIMAUNIT
 70
     0
  9
$LUNITS
 70
     2
  9
$LUPREC
 70
     4
  9
$SKETCHINC
 40
1.0
  9
$FILLETRAD
 40
0.0
  9
$AUNITS
 70
     0
  9
$AUPREC
 70
     0
  9
$MENU
  1
.
  9
$ELEVATION
 40
0.0
  9
$PELEVATION
 40
0.0
  9
$THICKNESS
 40
0.0
  9
$LIMCHECK
 70
     0
  9
$CHAMFERA
 40
10.0
  9
$CHAMFERB
 40
10.0
  9
$CHAMFERC
 40
20.0
  9
$CHAMFERD
 40
0.0
  9
$SKPOLY
 70
     0
  9
$TDCREATE
 40
2456204.572679757
  9
$TDUPDATE
 40
2457991.633209526
  9
$TDINDWG
 40
0.0002323495
  9
$TDUSRTIMER
 40
2457991.257978079
  9
$USRTIMER
 70
     1
  9
$ANGBASE
 50
0.0
  9
$ANGDIR
 70
     0
  9
$PDMODE
 70
     0
  9
$PDSIZE
 40
0.0
  9
$PLINEWID
 40
0.0
  9
$COORDS
 70
     1
  9
$SPLFRAME
 70
     0
  9
$SPLINETYPE
 70
     6
  9
$SPLINESEGS
 70
     8
  9
$ATTDIA
 70
     0
  9
$ATTREQ
 70
     1
  9
$HANDLING
 70
     1
  9
$HANDSEED
  5
F2
  9
$SURFTAB1
 70
     6
  9
$SURFTAB2
 70
     6
  9
$SURFTYPE
 70
     6
  9
$SURFU
 70
     6
  9
$SURFV
 70
     6
  9
$UCSNAME
  2

  9
$UCSORG
 10
0.0
 20
0.0
 30
0.0
  9
$UCSXDIR
 10
1.0
 20
0.0
 30
0.0
  9
$UCSYDIR
 10
0.0
 20
1.0
 30
0.0
  9
$PUCSNAME
  2

  9
$PUCSORG
 10
0.0
 20
0.0
 30
0.0
  9
$PUCSXDIR
 10
1.0
 20
0.0
 30
0.0
  9
$PUCSYDIR
 10
0.0
 20
1.0
 30
0.0
  9
$USERI1
 70
     0
  9
$USERI2
 70
     0
  9
$USERI3
 70
     0
  9
$USERI4
 70
     0
  9
$USERI5
 70
     0
  9
$USERR1
 40
0.0
  9
$USERR2
 40
0.0
  9
$USERR3
 40
0.0
  9
$USERR4
 40
0.0
  9
$USERR5
 40
0.0
  9
$WORLDVIEW
 70
     1
  9
$SHADEDGE
 70
     3
  9
$SHADEDIF
 70
    70
  9
$TILEMODE
 70
     1
  9
$MAXACTVP
 70
    64
  9
$PINSBASE
 10
0.0
 20
0.0
 30
0.0
  9
$PLIMCHECK
 70
     0
  9
$PEXTMIN
 10
1.000000000000000E+20
 20
1.000000000000000E+20
 30
0.0
  9
$PEXTMAX
 10
-1.000000000000000E+20
 20
-1.000000000000000E+20
 30
0.0
  9
$PLIMMIN
 10
0.0
 20
0.0
  9
$PLIMMAX
 10
0.0
 20
0.0
  9
$UNITMODE
 70
     0
  9
$VISRETAIN
 70
     1
  9
$PLINEGEN
 70
     0
  9
$PSLTSCALE
 70
     1
  9
$TREEDEPTH
 70
  3020
  9
$PICKSTYLE
 70
     1
  9
$CMLSTYLE
  2
STANDARD
  9
$CMLJUST
 70
     0
  9
$CMLSCALE
 40
20.0
  9
$PROXYGRAPHICS
 70
     1
  9
$MEASUREMENT
 70
     1
  0
ENDSEC
  0
SECTION
  2
CLASSES
  0
CLASS
  1
ACDBDICTIONARYWDFLT
  2
AcDbDictionaryWithDefault
  3
ObjectDBX Classes
 90
        0
280
     0
281
     0
  0
CLASS
  1
VISUALSTYLE
  2
AcDbVisualStyle
  3
ObjectDBX Classes
 90
     4095
280
     0
281
     0
  0
CLASS
  1
SCALE
  2
AcDbScale
  3
ObjectDBX Classes
 90
     1153
280
     0
281
     0
  0
CLASS
  1
DICTIONARYVAR
  2
AcDbDictionaryVar
  3
ObjectDBX Classes
 90
        0
280
     0
281
     0
  0
CLASS
  1
ACDBPLACEHOLDER
  2
AcDbPlaceHolder
  3
ObjectDBX Classes
 90
        0
280
     0
281
     0
  0
CLASS
  1
LAYOUT
  2
AcDbLayout
  3
ObjectDBX Classes
 90
        0
280
     0
281
     0
  0
CLASS
  1
MATERIAL
  2
AcDbMaterial
  3
ObjectDBX Classes
 90
     1153
280
     0
281
     0
  0
CLASS
  1
TABLESTYLE
  2
AcDbTableStyle
  3
ObjectDBX Classes
 90
     4095
280
     0
281
     0
  0
CLASS
  1
MLEADERSTYLE
  2
AcDbMLeaderStyle
  3
ACDB_MLEADERSTYLE_CLASS
 90
     4095
280
     0
281
     0
  0
CLASS
  1
SUN
  2
AcDbSun
  3
SCENEOE
 90
     1153
280
     0
281
     0
  0
CLASS
  1
RASTERVARIABLES
  2
AcDbRasterVariables
  3
ISM
 90
        0
280
     0
281
     0
  0
CLASS
  1
XRECORD
  2
AcDbXrecord
  3
ObjectDBX Classes
 90
        0
280
     0
281
     0
  0
CLASS
  1
LWPOLYLINE
  2
AcDbPolyline
  3
ObjectDBX Classes
 90
        0
280
     0
281
     1
  0
CLASS
  1
HATCH
  2
AcDbHatch
  3
ObjectDBX Classes
 90
        0
280
     0
281
     1
  0
ENDSEC
  0
SECTION
  2
TABLES
  0
TABLE
  2
VPORT
  5
8
330
0
100
AcDbSymbolTable
 70
     1
  0
VPORT
  5
29
330
8
100
AcDbSymbolTableRecord
100
AcDbViewportTableRecord
  2
*ACTIVE
 70
     0
 10
0.0
 20
0.0
 11
1.0
 21
1.0
 12
36.146954
 22
22.054632
 13
0.0
 23
0.0
 14
1.0
 24
1.0
 15
0.0
 25
0.0
 16
0.0
 26
0.0
 36
1.0
 17
0.0
 27
0.0
 37
0.0
 40
41.587289
 41
1.691288
 42
50.0
 43
0.0
 44
0.0
 50
0.0
 51
0.0
 71
     0
 72
   100
 73
     1
 74
     3
 75
     0
 76
     0
 77
     0
 78
     0
  0
ENDTAB
  0
TABLE
  2
LTYPE
  5
5
330
0
100
AcDbSymbolTable
 70
     5
  0
LTYPE
  5
14
330
5
100
AcDbSymbolTableRecord
100
AcDbLinetypeTableRecord
  2
BYBLOCK
 70
     0
  3

 72
    65
 73
     0
 40
0.0
  0
LTYPE
  5
15
330
5
100
AcDbSymbolTableRecord
100
AcDbLinetypeTableRecord
  2
BYLAYER
 70
     0
  3

 72
    65
 73
     0
 40
0.0
  0
LTYPE
  5
16
330
5
100
AcDbSymbolTableRecord
100
AcDbLinetypeTableRecord
  2
CONTINUOUS
 70
     0
  3
Solid line
 72
    65
 73
     0
 40
0.0
  0
LTYPE
  5
5D
330
5
100
AcDbSymbolTableRecord
100
AcDbLinetypeTableRecord
  2
DASHED
 70
     0
  3
DASHED
 72
    83
 73
     2
 40
0.75
 49
0.5
 74
     0
 49
-0.25
 74
     0
  0
LTYPE
  5
5E
330
5
100
AcDbSymbolTableRecord
100
AcDbLinetypeTableRecord
  2
HIDDEN
 70
     0
  3
HIDDEN
 72
    83
 73
     2
 40
0.375
 49
0.25
 74
     0
 49
-0.125
 74
     0
  0
LTYPE
  5
5F
330
5
100
AcDbSymbolTableRecord
100
AcDbLinetypeTableRecord
  2
CENTER
 70
     0
  3
CENTER
 72
    83
 73
     4
 40
2.0
 49
1.25
 74
     0
 49
-0.25
 74
     0
 49
0.25
 74
     0
 49
-0.25
 74
     0
  0
LTYPE
  5
60
330
5
100
AcDbSymbolTableRecord
100
AcDbLinetypeTableRecord
  2
PHANTOM
 70
     0
  3
PHANTOM
 72
    83
 73
     6
 40
2.5
 49
1.25
 74
     0
 49
-0.25
 74
     0
 49
0.25
 74
     0
 49
-0.25
 74
     0
 49
0.25
 74
     0
 49
-0.25
 74
     0
  0
ENDTAB
  0
TABLE
  2
LAYER
  5
2
330
0
100
AcDbSymbolTable
 70
     2
  0
LAYER
  5
10
330
2
100
AcDbSymbolTableRecord
100
AcDbLayerTableRecord
  2
0
 70
     0
 62
     7
  6
CONTINUOUS
  0
LAYER
  5
61
330
2
100
AcDbSymbolTableRecord
100
AcDbLayerTableRecord
  2
001
 70
     0
 62
     7
  6
CONTINUOUS
  0
ENDTAB
  0
TABLE
  2
STYLE
  5
3
330
0
100
AcDbSymbolTable
 70
     2
  0
STYLE
  5
11
330
3
100
AcDbSymbolTableRecord
100
AcDbTextStyleTableRecord
  2
STANDARD
 70
     0
 40
0.0
 41
1.0
 50
0.0
 71
     0
 42
0.2
  3
TXT
  4
BIGFONT
  0
STYLE
  5
62
330
3
100
AcDbSymbolTableRecord
100
AcDbTextStyleTableRecord
  2
TATEGAKI
 70
     4
 40
1.0
 41
1.0
 50
0.0
 71
     0
 42
0.2
  3
TXT
  4
BIGFONT
  0
ENDTAB
  0
TABLE
  2
VIEW
  5
6
330
0
100
AcDbSymbolTable
 70
     0
  0
ENDTAB
  0
TABLE
  2
UCS
  5
7
330
0
100
AcDbSymbolTable
 70
     0
  0
ENDTAB
  0
TABLE
  2
APPID
  5
9
330
0
100
AcDbSymbolTable
 70
     1
  0
APPID
  5
12
330
9
100
AcDbSymbolTableRecord
100
AcDbRegAppTableRecord
  2
ACAD
 70
     0
  0
ENDTAB
  0
TABLE
  2
DIMSTYLE
  5
A
330
0
100
AcDbSymbolTable
 70
     2
  0
DIMSTYLE
105
27
330
A
100
AcDbSymbolTableRecord
100
AcDbDimStyleTableRecord
  2
ISO-25
 70
     0
  3

  4

  5

  6

  7

 40
1.0
 41
2.5
 42
0.625
 43
3.75
 44
1.25
 45
0.0
 46
0.0
 47
0.0
 48
0.0
140
2.5
141
2.5
142
0.0
143
0.03937
144
1.0
145
0.0
146
1.0
147
0.625
 71
     0
 72
     0
 73
     0
 74
     0
 75
     0
 76
     0
 77
     1
 78
     8
170
     0
171
     3
172
     1
173
     0
174
     0
175
     0
176
     0
177
     0
178
     0
270
     2
271
     2
272
     2
273
     2
274
     3
340
11
275
     0
280
     0
281
     0
282
     0
283
     0
284
     8
285
     0
286
     0
287
     3
288
     0
  0
DIMSTYLE
105
63
102
{ACAD_REACTORS
330
B8
330
B9
330
BA
330
BB
102
}
330
A
100
AcDbSymbolTableRecord
100
AcDbDimStyleTableRecord
  2
STANDARD
 70
     0
  3

  4

  5

  6

  7

 40
1.0
 41
1.5
 42
0.0
 43
0.38
 44
2.75
 45
0.0
 46
0.0
 47
0.0
 48
0.0
140
4.0
141
0.09
142
0.0
143
25.4
144
1.0
145
0.0
146
0.8
147
1.0
 71
     0
 72
     0
 73
     0
 74
     0
 75
     0
 76
     0
 77
     1
 78
     8
170
     0
171
     2
172
     1
173
     0
174
     0
175
     0
176
     0
177
     0
178
     0
179
     1
270
     2
271
     1
272
     4
273
     2
274
     2
340
11
275
     0
280
     0
281
     0
282
     0
283
     1
284
     0
285
     0
286
     0
287
     3
288
     0
  0
ENDTAB
  0
TABLE
  2
BLOCK_RECORD
  5
1
330
0
100
AcDbSymbolTable
 70
     5
  0
BLOCK_RECORD
  5
1F
330
1
100
AcDbSymbolTableRecord
100
AcDbBlockTableRecord
  2
*MODEL_SPACE
  0
BLOCK_RECORD
  5
1B
330
1
100
AcDbSymbolTableRecord
100
AcDbBlockTableRecord
  2
*PAPER_SPACE
  0
BLOCK_RECORD
  5
23
330
1
100
AcDbSymbolTableRecord
100
AcDbBlockTableRecord
  2
*PAPER_SPACE0
  0
BLOCK_RECORD
  5
64
330
1
100
AcDbSymbolTableRecord
100
AcDbBlockTableRecord
  2
*D1
  0
BLOCK_RECORD
  5
79
330
1
100
AcDbSymbolTableRecord
100
AcDbBlockTableRecord
  2
*D2
  0
BLOCK_RECORD
  5
8E
330
1
100
AcDbSymbolTableRecord
100
AcDbBlockTableRecord
  2
*D3
  0
BLOCK_RECORD
  5
A2
330
1
100
AcDbSymbolTableRecord
100
AcDbBlockTableRecord
  2
*D4
  0
ENDTAB
  0
ENDSEC
  0
SECTION
  2
BLOCKS
  0
BLOCK
  5
20
330
1F
100
AcDbEntity
  8
0
100
AcDbBlockBegin
  2
*MODEL_SPACE
 70
     0
 10
0.0
 20
0.0
 30
0.0
  3
*MODEL_SPACE
  1

  0
ENDBLK
  5
21
330
1F
100
AcDbEntity
  8
0
100
AcDbBlockEnd
  0
BLOCK
  5
1C
330
1B
100
AcDbEntity
 67
     1
  8
0
100
AcDbBlockBegin
  2
*PAPER_SPACE
 70
     0
 10
0.0
 20
0.0
 30
0.0
  3
*PAPER_SPACE
  1

  0
ENDBLK
  5
1D
330
1B
100
AcDbEntity
 67
     1
  8
0
100
AcDbBlockEnd
  0
BLOCK
  5
24
330
23
100
AcDbEntity
  8
0
100
AcDbBlockBegin
  2
*PAPER_SPACE0
 70
     0
 10
0.0
 20
0.0
 30
0.0
  3
*PAPER_SPACE0
  1

  0
ENDBLK
  5
25
330
23
100
AcDbEntity
  8
0
100
AcDbBlockEnd
  0
BLOCK
  5
65
330
64
100
AcDbEntity
  8
0
100
AcDbBlockBegin
  2
*D1
 70
     1
 10
0.0
 20
0.0
 30
0.0
  3
*D1
  1

  0
LINE
  5
67
330
64
100
AcDbEntity
  8
001
100
AcDbLine
 10
8.75772
 20
14.007013
 30
0.0
 11
18.58526
 21
4.179473
 31
0.0
  0
LINE
  5
68
330
64
100
AcDbEntity
  8
001
100
AcDbLine
 10
8.464827
 20
15.714119
 30
0.0
 11
18.58526
 21
25.834552
 31
0.0
  0
ARC
  5
69
330
64
100
AcDbEntity
  8
001
100
AcDbCircle
 10
7.75772
 20
15.007013
 30
0.0
 40
14.7624534051525
100
AcDbArc
 50
315.0
 51
45.0
  0
POLYLINE
  5
6A
330
64
100
AcDbEntity
  8
001
100
AcDb2dPolyline
 66
     1
 10
0.0
 20
0.0
 30
0.0
  0
VERTEX
  5
6C
330
6A
100
AcDbEntity
  8
001
100
AcDbVertex
100
AcDb2dVertex
 10
18.348901
 20
25.175107
 30
0.0
  0
VERTEX
  5
6D
330
6A
100
AcDbEntity
  8
001
100
AcDbVertex
100
AcDb2dVertex
 10
18.196351
 20
25.445644
 30
0.0
  0
VERTEX
  5
6E
330
6A
100
AcDbEntity
  8
001
100
AcDbVertex
100
AcDb2dVertex
 10
18.463732
 20
25.287627
 30
0.0
  0
SEQEND
  5
6B
330
6A
100
AcDbEntity
  8
001
  0
POLYLINE
  5
6F
330
64
100
AcDbEntity
  8
001
100
AcDb2dPolyline
 66
     1
 10
0.0
 20
0.0
 30
0.0
  0
VERTEX
  5
71
330
6F
100
AcDbEntity
  8
001
100
AcDbVertex
100
AcDb2dVertex
 10
18.463732
 20
4.726398
 30
0.0
  0
VERTEX
  5
72
330
6F
100
AcDbEntity
  8
001
100
AcDbVertex
100
AcDb2dVertex
 10
18.196351
 20
4.568382
 30
0.0
  0
VERTEX
  5
73
330
6F
100
AcDbEntity
  8
001
100
AcDbVertex
100
AcDb2dVertex
 10
18.348901
 20
4.838918
 30
0.0
  0
SEQEND
  5
70
330
6F
100
AcDbEntity
  8
001
  0
TEXT
  5
74
330
64
100
AcDbEntity
  8
001
100
AcDbText
 10
21.510219
 20
21.022307
 30
0.0
 40
0.8
  1
９０%%d
 50
289.039071
 41
0.978261
100
AcDbText
  0
POINT
  5
75
330
64
100
AcDbEntity
  8
001
100
AcDbPoint
 10
8.75772
 20
14.007013
 30
0.0
  0
POINT
  5
76
330
64
100
AcDbEntity
  8
001
100
AcDbPoint
 10
7.75772
 20
15.007013
 30
0.0
  0
POINT
  5
77
330
64
100
AcDbEntity
  8
001
100
AcDbPoint
 10
7.75772
 20
15.007013
 30
0.0
  0
POINT
  5
78
330
64
100
AcDbEntity
  8
001
100
AcDbPoint
 10
8.464827
 20
15.714119
 30
0.0
  0
ENDBLK
  5
66
330
64
100
AcDbEntity
  8
0
100
AcDbBlockEnd
  0
BLOCK
  5
7A
330
79
100
AcDbEntity
  8
0
100
AcDbBlockBegin
  2
*D2
 70
     1
 10
0.0
 20
0.0
 30
0.0
  3
*D2
  1

  0
LINE
  5
7C
330
79
100
AcDbEntity
  8
001
100
AcDbLine
 10
62.25772
 20
17.007013
 30
0.0
 11
69.007219
 21
17.007013
 31
0.0
  0
LINE
  5
7D
330
79
100
AcDbEntity
  8
001
100
AcDbLine
 10
62.25772
 20
13.007013
 30
0.0
 11
69.007219
 21
13.007013
 31
0.0
  0
LINE
  5
7E
330
79
100
AcDbEntity
  8
001
100
AcDbLine
 10
68.457219
 20
17.007013
 30
0.0
 11
68.457219
 21
13.007013
 31
0.0
  0
POLYLINE
  5
7F
330
79
100
AcDbEntity
  8
001
100
AcDb2dPolyline
 66
     1
 10
0.0
 20
0.0
 30
0.0
  0
VERTEX
  5
81
330
7F
100
AcDbEntity
  8
001
100
AcDbVertex
100
AcDb2dVertex
 10
68.376835
 20
16.707013
 30
0.0
  0
VERTEX
  5
82
330
7F
100
AcDbEntity
  8
001
100
AcDbVertex
100
AcDb2dVertex
 10
68.457219
 20
17.007013
 30
0.0
  0
VERTEX
  5
83
330
7F
100
AcDbEntity
  8
001
100
AcDbVertex
100
AcDb2dVertex
 10
68.537604
 20
16.707013
 30
0.0
  0
SEQEND
  5
80
330
7F
100
AcDbEntity
  8
001
  0
POLYLINE
  5
84
330
79
100
AcDbEntity
  8
001
100
AcDb2dPolyline
 66
     1
 10
0.0
 20
0.0
 30
0.0
  0
VERTEX
  5
86
330
84
100
AcDbEntity
  8
001
100
AcDbVertex
100
AcDb2dVertex
 10
68.537604
 20
13.307013
 30
0.0
  0
VERTEX
  5
87
330
84
100
AcDbEntity
  8
001
100
AcDbVertex
100
AcDb2dVertex
 10
68.457219
 20
13.007013
 30
0.0
  0
VERTEX
  5
88
330
84
100
AcDbEntity
  8
001
100
AcDbVertex
100
AcDb2dVertex
 10
68.376835
 20
13.307013
 30
0.0
  0
SEQEND
  5
85
330
84
100
AcDbEntity
  8
001
  0
TEXT
  5
89
330
79
100
AcDbEntity
  8
001
100
AcDbText
 10
68.257219
 20
10.707013
 30
0.0
 40
0.8
  1
%%c４
 50
90.000003
 41
0.909091
100
AcDbText
  0
POINT
  5
8A
330
79
100
AcDbEntity
  8
001
100
AcDbPoint
 10
62.25772
 20
17.007013
 30
0.0
  0
POINT
  5
8B
330
79
100
AcDbEntity
  8
001
100
AcDbPoint
 10
62.25772
 20
13.007013
 30
0.0
  0
POINT
  5
8C
330
79
100
AcDbEntity
  8
001
100
AcDbPoint
 10
68.457219
 20
13.007013
 30
0.0
  0
LINE
  5
8D
330
79
100
AcDbEntity
  8
001
100
AcDbLine
 10
68.457219
 20
13.007013
 30
0.0
 11
68.457219
 21
10.107013
 31
0.0
  0
ENDBLK
  5
7B
330
79
100
AcDbEntity
  8
0
100
AcDbBlockEnd
  0
BLOCK
  5
8F
330
8E
100
AcDbEntity
  8
0
100
AcDbBlockBegin
  2
*D3
 70
     1
 10
0.0
 20
0.0
 30
0.0
  3
*D3
  1

  0
LINE
  5
91
330
8E
100
AcDbEntity
  8
001
100
AcDbLine
 10
62.75772
 20
13.507013
 30
0.0
 11
62.75772
 21
1.466867
 31
0.0
  0
LINE
  5
92
330
8E
100
AcDbEntity
  8
001
100
AcDbLine
 10
7.75772
 20
10.527761
 30
0.0
 11
7.75772
 21
1.466867
 31
0.0
  0
LINE
  5
93
330
8E
100
AcDbEntity
  8
001
100
AcDbLine
 10
62.75772
 20
2.016867
 30
0.0
 11
7.75772
 21
2.016867
 31
0.0
  0
POLYLINE
  5
94
330
8E
100
AcDbEntity
  8
001
100
AcDb2dPolyline
 66
     1
 10
0.0
 20
0.0
 30
0.0
  0
VERTEX
  5
96
330
94
100
AcDbEntity
  8
001
100
AcDbVertex
100
AcDb2dVertex
 10
62.45772
 20
2.097251
 30
0.0
  0
VERTEX
  5
97
330
94
100
AcDbEntity
  8
001
100
AcDbVertex
100
AcDb2dVertex
 10
62.75772
 20
2.016867
 30
0.0
  0
VERTEX
  5
98
330
94
100
AcDbEntity
  8
001
100
AcDbVertex
100
AcDb2dVertex
 10
62.45772
 20
1.936482
 30
0.0
  0
SEQEND
  5
95
330
94
100
AcDbEntity
  8
001
  0
POLYLINE
  5
99
330
8E
100
AcDbEntity
  8
001
100
AcDb2dPolyline
 66
     1
 10
0.0
 20
0.0
 30
0.0
  0
VERTEX
  5
9B
330
99
100
AcDbEntity
  8
001
100
AcDbVertex
100
AcDb2dVertex
 10
8.05772
 20
1.936482
 30
0.0
  0
VERTEX
  5
9C
330
99
100
AcDbEntity
  8
001
100
AcDbVertex
100
AcDb2dVertex
 10
7.75772
 20
2.016867
 30
0.0
  0
VERTEX
  5
9D
330
99
100
AcDbEntity
  8
001
100
AcDbVertex
100
AcDb2dVertex
 10
8.05772
 20
2.097251
 30
0.0
  0
SEQEND
  5
9A
330
99
100
AcDbEntity
  8
001
  0
TEXT
  5
9E
330
8E
100
AcDbEntity
  8
001
100
AcDbText
 10
34.102665
 20
2.216867
 30
0.0
 40
0.8
  1
５５
 41
0.833333
100
AcDbText
  0
POINT
  5
9F
330
8E
100
AcDbEntity
  8
001
100
AcDbPoint
 10
62.75772
 20
13.507013
 30
0.0
  0
POINT
  5
A0
330
8E
100
AcDbEntity
  8
001
100
AcDbPoint
 10
7.75772
 20
10.527761
 30
0.0
  0
POINT
  5
A1
330
8E
100
AcDbEntity
  8
001
100
AcDbPoint
 10
7.75772
 20
2.016867
 30
0.0
  0
ENDBLK
  5
90
330
8E
100
AcDbEntity
  8
0
100
AcDbBlockEnd
  0
BLOCK
  5
A3
330
A2
100
AcDbEntity
  8
0
100
AcDbBlockBegin
  2
*D4
 70
     1
 10
0.0
 20
0.0
 30
0.0
  3
*D4
  1

  0
LINE
  5
A5
330
A2
100
AcDbEntity
  8
001
100
AcDbLine
 10
10.171934
 20
17.007013
 30
0.0
 11
3.736691
 21
17.007013
 31
0.0
  0
LINE
  5
A6
330
A2
100
AcDbEntity
  8
001
100
AcDbLine
 10
9.75772
 20
13.007013
 30
0.0
 11
3.736691
 21
13.007013
 31
0.0
  0
LINE
  5
A7
330
A2
100
AcDbEntity
  8
001
100
AcDbLine
 10
4.286691
 20
17.007013
 30
0.0
 11
4.286691
 21
13.007013
 31
0.0
  0
POLYLINE
  5
A8
330
A2
100
AcDbEntity
  8
001
100
AcDb2dPolyline
 66
     1
 10
0.0
 20
0.0
 30
0.0
  0
VERTEX
  5
AA
330
A8
100
AcDbEntity
  8
001
100
AcDbVertex
100
AcDb2dVertex
 10
4.367076
 20
17.307013
 30
0.0
  0
VERTEX
  5
AB
330
A8
100
AcDbEntity
  8
001
100
AcDbVertex
100
AcDb2dVertex
 10
4.286691
 20
17.007013
 30
0.0
  0
VERTEX
  5
AC
330
A8
100
AcDbEntity
  8
001
100
AcDbVertex
100
AcDb2dVertex
 10
4.206306
 20
17.307013
 30
0.0
  0
SEQEND
  5
A9
330
A8
100
AcDbEntity
  8
001
  0
POLYLINE
  5
AD
330
A2
100
AcDbEntity
  8
001
100
AcDb2dPolyline
 66
     1
 10
0.0
 20
0.0
 30
0.0
  0
VERTEX
  5
AF
330
AD
100
AcDbEntity
  8
001
100
AcDbVertex
100
AcDb2dVertex
 10
4.206306
 20
12.707013
 30
0.0
  0
VERTEX
  5
B0
330
AD
100
AcDbEntity
  8
001
100
AcDbVertex
100
AcDb2dVertex
 10
4.286691
 20
13.007013
 30
0.0
  0
VERTEX
  5
B1
330
AD
100
AcDbEntity
  8
001
100
AcDbVertex
100
AcDb2dVertex
 10
4.367076
 20
12.707013
 30
0.0
  0
SEQEND
  5
AE
330
AD
100
AcDbEntity
  8
001
  0
TEXT
  5
B2
330
A2
100
AcDbEntity
  8
001
100
AcDbText
 10
4.086691
 20
10.419296
 30
0.0
 40
0.8
  1
%%c４
 50
90.000003
 41
0.909091
100
AcDbText
  0
POINT
  5
B3
330
A2
100
AcDbEntity
  8
001
100
AcDbPoint
 10
10.171934
 20
17.007013
 30
0.0
  0
POINT
  5
B4
330
A2
100
AcDbEntity
  8
001
100
AcDbPoint
 10
9.75772
 20
13.007013
 30
0.0
  0
POINT
  5
B5
330
A2
100
AcDbEntity
  8
001
100
AcDbPoint
 10
4.286691
 20
13.007013
 30
0.0
  0
LINE
  5
B6
330
A2
100
AcDbEntity
  8
001
100
AcDbLine
 10
4.286691
 20
17.007013
 30
0.0
 11
4.286691
 21
17.507013
 31
0.0
  0
LINE
  5
B7
330
A2
100
AcDbEntity
  8
001
100
AcDbLine
 10
4.286691
 20
13.007013
 30
0.0
 11
4.286691
 21
9.819296
 31
0.0
  0
ENDBLK
  5
A4
330
A2
100
AcDbEntity
  8
0
100
AcDbBlockEnd
  0
ENDSEC
  0
SECTION
  2
ENTITIES
  0
DIMENSION
  5
B8
330
1F
100
AcDbEntity
  8
001
100
AcDbDimension
  2
*D1
 10
7.75772
 20
15.007013
 30
0.0
 11
22.279793
 21
20.018437
 31
0.0
 70
    34
  3
STANDARD
100
AcDb2LineAngularDimension
 13
8.75772
 23
14.007013
 33
0.0
 14
7.75772
 24
15.007013
 34
0.0
 15
8.464827
 25
15.714119
 35
0.0
 16
22.520173
 26
15.007013
 36
0.0
  0
DIMENSION
  5
B9
330
1F
100
AcDbEntity
  8
001
100
AcDbDimension
  2
*D2
 10
68.457219
 20
13.007013
 30
0.0
 11
67.857219
 21
11.507013
 31
0.0
 70
   160
  3
STANDARD
100
AcDbAlignedDimension
 13
62.25772
 23
17.007013
 33
0.0
 14
62.25772
 24
13.007013
 34
0.0
 50
270.0
100
AcDbRotatedDimension
  0
DIMENSION
  5
BA
330
1F
100
AcDbEntity
  8
001
100
AcDbDimension
  2
*D3
 10
7.75772
 20
2.016867
 30
0.0
 11
34.902665
 21
2.616867
 31
0.0
 70
   160
  3
STANDARD
100
AcDbAlignedDimension
 13
62.75772
 23
13.507013
 33
0.0
 14
7.75772
 24
10.527761
 34
0.0
 50
180.0
100
AcDbRotatedDimension
  0
DIMENSION
  5
BB
330
1F
100
AcDbEntity
  8
001
100
AcDbDimension
  2
*D4
 10
4.286691
 20
13.007013
 30
0.0
 11
3.686691
 21
11.219296
 31
0.0
 70
   160
  3
STANDARD
100
AcDbAlignedDimension
 13
10.171934
 23
17.007013
 33
0.0
 14
9.75772
 24
13.007013
 34
0.0
 50
270.0
100
AcDbRotatedDimension
  0
LINE
  5
BC
330
1F
100
AcDbEntity
  8
001
100
AcDbLine
 10
9.75772
 20
13.007013
 30
0.0
 11
62.25772
 21
13.007013
 31
0.0
  0
LINE
  5
BD
330
1F
100
AcDbEntity
  8
001
100
AcDbLine
 10
9.464827
 20
16.714119
 30
0.0
 11
7.75772
 21
15.007013
 31
0.0
  0
LINE
  5
BE
330
1F
100
AcDbEntity
  8
001
100
AcDbLine
 10
9.75772
 20
13.007013
 30
0.0
 11
7.75772
 21
15.007013
 31
0.0
  0
LINE
  5
BF
330
1F
100
AcDbEntity
  8
001
100
AcDbLine
 10
62.25772
 20
13.007013
 30
0.0
 11
62.75772
 21
13.507013
 31
0.0
  0
LINE
  5
C0
330
1F
100
AcDbEntity
  8
001
100
AcDbLine
 10
7.75772
 20
15.007013
 30
0.0
 11
7.75772
 21
10.527761
 31
0.0
  0
LINE
  5
C1
330
1F
100
AcDbEntity
  8
001
  6
CENTER
100
AcDbLine
 10
6.813522
 20
15.007013
 30
0.0
 11
63.713597
 21
15.007013
 31
0.0
  0
LINE
  5
C2
330
1F
100
AcDbEntity
  8
001
100
AcDbLine
 10
62.25772
 20
13.007013
 30
0.0
 11
62.25772
 21
15.007013
 31
0.0
  0
LINE
  5
C3
330
1F
100
AcDbEntity
  8
001
100
AcDbLine
 10
62.75772
 20
13.507013
 30
0.0
 11
62.75772
 21
15.007013
 31
0.0
  0
LINE
  5
C4
330
1F
100
AcDbEntity
  8
001
100
AcDbLine
 10
7.879304
 20
15.128596
 30
0.0
 11
11.25129
 21
13.007013
 31
0.0
  0
LINE
  5
C5
330
1F
100
AcDbEntity
  8
001
100
AcDbLine
 10
10.171934
 20
17.007013
 30
0.0
 11
62.25772
 21
17.007013
 31
0.0
  0
LINE
  5
C6
330
1F
100
AcDbEntity
  8
001
100
AcDbLine
 10
62.25772
 20
17.007013
 30
0.0
 11
62.75772
 21
16.507013
 31
0.0
  0
LINE
  5
C7
330
1F
100
AcDbEntity
  8
001
100
AcDbLine
 10
62.25772
 20
17.007013
 30
0.0
 11
62.25772
 21
15.007013
 31
0.0
  0
LINE
  5
C8
330
1F
100
AcDbEntity
  8
001
100
AcDbLine
 10
62.75772
 20
16.507013
 30
0.0
 11
62.75772
 21
15.007013
 31
0.0
  0
ARC
  5
C9
330
1F
100
AcDbEntity
  8
001
100
AcDbCircle
 10
10.171934
 20
16.007013
 30
0.0
 40
1.0
100
AcDbArc
 50
90.0
 51
135.0
  0
POLYLINE
  5
CA
330
1F
100
AcDbEntity
  8
001
100
AcDb2dPolyline
 66
     1
 10
0.0
 20
0.0
 30
0.0
  0
VERTEX
  5
CC
330
CA
100
AcDbEntity
  8
001
100
AcDbVertex
100
AcDb2dVertex
 10
10.171934
 20
17.007013
 30
0.0
  0
VERTEX
  5
CD
330
CA
100
AcDbEntity
  8
001
100
AcDbVertex
100
AcDb2dVertex
 10
11.451602
 20
16.605008
 30
0.0
  0
VERTEX
  5
CE
330
CA
100
AcDbEntity
  8
001
100
AcDbVertex
100
AcDb2dVertex
 10
12.956055
 20
16.018775
 30
0.0
  0
VERTEX
  5
CF
330
CA
100
AcDbEntity
  8
001
100
AcDbVertex
100
AcDb2dVertex
 10
14.567137
 20
15.177234
 30
0.0
  0
VERTEX
  5
D0
330
CA
100
AcDbEntity
  8
001
100
AcDbVertex
100
AcDb2dVertex
 10
15.202941
 20
14.260343
 30
0.0
  0
VERTEX
  5
D1
330
CA
100
AcDbEntity
  8
001
100
AcDbVertex
100
AcDb2dVertex
 10
14.613767
 20
13.757273
 30
0.0
  0
VERTEX
  5
D2
330
CA
100
AcDbEntity
  8
001
100
AcDbVertex
100
AcDb2dVertex
 10
13.615467
 20
13.381126
 30
0.0
  0
VERTEX
  5
D3
330
CA
100
AcDbEntity
  8
001
100
AcDbVertex
100
AcDb2dVertex
 10
12.3723
 20
13.11761
 30
0.0
  0
VERTEX
  5
D4
330
CA
100
AcDbEntity
  8
001
100
AcDbVertex
100
AcDb2dVertex
 10
11.25129
 20
13.007013
 30
0.0
  0
SEQEND
  5
CB
330
CA
100
AcDbEntity
  8
001
  0
TEXT
  5
D5
330
1F
100
AcDbEntity
  8
001
100
AcDbText
 10
12.510417
 20
38.6424
 30
0.0
 40
4.0
  1
ぴんこ　ＰＫＰ０４４５
 41
0.833333
100
AcDbText
  0
TEXT
  5
D6
330
1F
100
AcDbEntity
  8
001
100
AcDbText
 10
12.510417
 20
32.1424
 30
0.0
 40
4.0
  1
　　　　ＰＫＰ０４４５Ｃ
 41
0.833333
100
AcDbText
  0
TEXT
  5
D7
330
1F
100
AcDbEntity
  8
001
100
AcDbText
 10
12.510417
 20
25.6424
 30
0.0
 40
4.0
  1
　　　　ＰＫＰ０４４５ＤＬＣ
 41
0.833333
100
AcDbText
  0
ENDSEC
  0
SECTION
  2
OBJECTS
  0
DICTIONARY
  5
C
330
0
100
AcDbDictionary
  3
ACAD_GROUP
350
D
  3
ACAD_IMAGE_VARS
350
F0
  3
ACAD_MLINESTYLE
350
17
  3
ACAD_SCALELIST
350
3B
  3
ACDBVARIABLEDICTIONARY
350
D8
  3
APPDATA
350
EE
  3
DWGPROPS
350
F1
  0
DICTIONARY
  5
D
102
{ACAD_REACTORS
330
C
102
}
330
C
100
AcDbDictionary
  0
RASTERVARIABLES
  5
F0
102
{ACAD_REACTORS
330
C
102
}
330
C
100
AcDbRasterVariables
 90
        0
 70
     1
 71
     1
 72
     1
  0
DICTIONARY
  5
17
102
{ACAD_REACTORS
330
C
102
}
330
C
100
AcDbDictionary
  3
STANDARD
350
18
  0
DICTIONARY
  5
3B
102
{ACAD_REACTORS
330
C
102
}
330
C
100
AcDbDictionary
  0
DICTIONARY
  5
D8
102
{ACAD_REACTORS
330
C
102
}
330
C
100
AcDbDictionary
  0
DICTIONARY
  5
EE
102
{ACAD_REACTORS
330
C
102
}
330
C
100
AcDbDictionary
  0
XRECORD
  5
F1
102
{ACAD_REACTORS
330
C
102
}
330
C
100
AcDbXrecord
  1
DWGPROPS COOKIE
  2

  3

  4

  6

  7

  8
kaihatu03
  9

300
=
301
=
302
=
303
=
304
=
305
=
306
=
307
=
308
=
309
=
 40
0.0
 41
2456204.197679757
 42
2457991.258209526
  1

 90
        0
  0
MLINESTYLE
  5
18
102
{ACAD_REACTORS
330
17
102
}
330
17
100
AcDbMlineStyle
  2
Standard
 70
     0
  3

 62
   256
 51
90.0
 52
90.0
 71
     2
 49
0.5
 62
   256
  6
BYLAYER
 49
-0.5
 62
   256
  6
BYLAYER
  0
ENDSEC
  0
EOF
