  0
SECTION
  2
HEADER
  9
$ACADVER
  1
AC1015
  9
$ACADMAINTVER
 70
     6
  9
$DWGCODEPAGE
  3
ANSI_932
  9
$INSBASE
 10
0.0
 20
0.0
 30
0.0
  9
$EXTMIN
 10
3.216133
 20
7.26442
 30
0.0
  9
$EXTMAX
 10
110.070061
 20
48.892811
 30
0.0
  9
$LIMMIN
 10
0.0
 20
0.0
  9
$LIMMAX
 10
12.0
 20
9.0
  9
$ORTHOMODE
 70
     0
  9
$REGENMODE
 70
     1
  9
$FILLMODE
 70
     1
  9
$QTEXTMODE
 70
     0
  9
$MIRRTEXT
 70
     1
  9
$LTSCALE
 40
1.146764
  9
$ATTMODE
 70
     1
  9
$TEXTSIZE
 40
3.2
  9
$TRACEWID
 40
1.0
  9
$TEXTSTYLE
  7
Standard
  9
$CLAYER
  8
0
  9
$CELTYPE
  6
ByLayer
  9
$CECOLOR
 62
   256
  9
$CELTSCALE
 40
1.0
  9
$DISPSILH
 70
     0
  9
$DIMSCALE
 40
1.0
  9
$DIMASZ
 40
2.5
  9
$DIMEXO
 40
0.625
  9
$DIMDLI
 40
3.75
  9
$DIMRND
 40
0.0
  9
$DIMDLE
 40
0.0
  9
$DIMEXE
 40
1.25
  9
$DIMTP
 40
0.0
  9
$DIMTM
 40
0.0
  9
$DIMTXT
 40
2.5
  9
$DIMCEN
 40
0.09
  9
$DIMTSZ
 40
0.0
  9
$DIMTOL
 70
     0
  9
$DIMLIM
 70
     0
  9
$DIMTIH
 70
     0
  9
$DIMTOH
 70
     0
  9
$DIMSE1
 70
     0
  9
$DIMSE2
 70
     0
  9
$DIMTAD
 70
     0
  9
$DIMZIN
 70
     8
  9
$DIMBLK
  1

  9
$DIMASO
 70
     1
  9
$DIMSHO
 70
     0
  9
$DIMPOST
  1

  9
$DIMAPOST
  1

  9
$DIMALT
 70
     0
  9
$DIMALTD
 70
     3
  9
$DIMALTF
 40
0.03937
  9
$DIMLFAC
 40
1.0
  9
$DIMTOFL
 70
     1
  9
$DIMTVP
 40
0.0
  9
$DIMTIX
 70
     0
  9
$DIMSOXD
 70
     0
  9
$DIMSAH
 70
     0
  9
$DIMBLK1
  1

  9
$DIMBLK2
  1

  9
$DIMSTYLE
  2
ISO-25
  9
$DIMCLRD
 70
     0
  9
$DIMCLRE
 70
     0
  9
$DIMCLRT
 70
     0
  9
$DIMTFAC
 40
1.0
  9
$DIMGAP
 40
0.625
  9
$DIMJUST
 70
     0
  9
$DIMSD1
 70
     0
  9
$DIMSD2
 70
     0
  9
$DIMTOLJ
 70
     0
  9
$DIMTZIN
 70
     8
  9
$DIMALTZ
 70
     0
  9
$DIMALTTZ
 70
     0
  9
$DIMUPT
 70
     0
  9
$DIMDEC
 70
     2
  9
$DIMTDEC
 70
     2
  9
$DIMALTU
 70
     2
  9
$DIMALTTD
 70
     3
  9
$DIMTXSTY
  7
Standard
  9
$DIMAUNIT
 70
     0
  9
$DIMADEC
 70
     0
  9
$DIMALTRND
 40
0.0
  9
$DIMAZIN
 70
     0
  9
$DIMDSEP
 70
    44
  9
$DIMATFIT
 70
     3
  9
$DIMFRAC
 70
     0
  9
$DIMLDRBLK
  1

  9
$DIMLUNIT
 70
     2
  9
$DIMLWD
 70
    -2
  9
$DIMLWE
 70
    -2
  9
$DIMTMOVE
 70
     0
  9
$LUNITS
 70
     2
  9
$LUPREC
 70
     4
  9
$SKETCHINC
 40
1.0
  9
$FILLETRAD
 40
0.0
  9
$AUNITS
 70
     0
  9
$AUPREC
 70
     0
  9
$MENU
  1
.
  9
$ELEVATION
 40
0.0
  9
$PELEVATION
 40
0.0
  9
$THICKNESS
 40
0.0
  9
$LIMCHECK
 70
     0
  9
$CHAMFERA
 40
10.0
  9
$CHAMFERB
 40
10.0
  9
$CHAMFERC
 40
20.0
  9
$CHAMFERD
 40
0.0
  9
$SKPOLY
 70
     0
  9
$TDCREATE
 40
2456673.638206551
  9
$TDUCREATE
 40
2456673.263206551
  9
$TDUPDATE
 40
2456673.638206562
  9
$TDUUPDATE
 40
2456673.263206562
  9
$TDINDWG
 40
0.0000000116
  9
$TDUSRTIMER
 40
0.0000000116
  9
$USRTIMER
 70
     1
  9
$ANGBASE
 50
0.0
  9
$ANGDIR
 70
     0
  9
$PDMODE
 70
     0
  9
$PDSIZE
 40
0.0
  9
$PLINEWID
 40
0.0
  9
$SPLFRAME
 70
     0
  9
$SPLINETYPE
 70
     6
  9
$SPLINESEGS
 70
     8
  9
$HANDSEED
  5
3C8
  9
$SURFTAB1
 70
     6
  9
$SURFTAB2
 70
     6
  9
$SURFTYPE
 70
     6
  9
$SURFU
 70
     6
  9
$SURFV
 70
     6
  9
$UCSBASE
  2

  9
$UCSNAME
  2

  9
$UCSORG
 10
0.0
 20
0.0
 30
0.0
  9
$UCSXDIR
 10
1.0
 20
0.0
 30
0.0
  9
$UCSYDIR
 10
0.0
 20
1.0
 30
0.0
  9
$UCSORTHOREF
  2

  9
$UCSORTHOVIEW
 70
     0
  9
$UCSORGTOP
 10
0.0
 20
0.0
 30
0.0
  9
$UCSORGBOTTOM
 10
0.0
 20
0.0
 30
0.0
  9
$UCSORGLEFT
 10
0.0
 20
0.0
 30
0.0
  9
$UCSORGRIGHT
 10
0.0
 20
0.0
 30
0.0
  9
$UCSORGFRONT
 10
0.0
 20
0.0
 30
0.0
  9
$UCSORGBACK
 10
0.0
 20
0.0
 30
0.0
  9
$PUCSBASE
  2

  9
$PUCSNAME
  2

  9
$PUCSORG
 10
0.0
 20
0.0
 30
0.0
  9
$PUCSXDIR
 10
1.0
 20
0.0
 30
0.0
  9
$PUCSYDIR
 10
0.0
 20
1.0
 30
0.0
  9
$PUCSORTHOREF
  2

  9
$PUCSORTHOVIEW
 70
     0
  9
$PUCSORGTOP
 10
0.0
 20
0.0
 30
0.0
  9
$PUCSORGBOTTOM
 10
0.0
 20
0.0
 30
0.0
  9
$PUCSORGLEFT
 10
0.0
 20
0.0
 30
0.0
  9
$PUCSORGRIGHT
 10
0.0
 20
0.0
 30
0.0
  9
$PUCSORGFRONT
 10
0.0
 20
0.0
 30
0.0
  9
$PUCSORGBACK
 10
0.0
 20
0.0
 30
0.0
  9
$USERI1
 70
     0
  9
$USERI2
 70
     0
  9
$USERI3
 70
     0
  9
$USERI4
 70
     0
  9
$USERI5
 70
     0
  9
$USERR1
 40
0.0
  9
$USERR2
 40
0.0
  9
$USERR3
 40
0.0
  9
$USERR4
 40
0.0
  9
$USERR5
 40
0.0
  9
$WORLDVIEW
 70
     1
  9
$SHADEDGE
 70
     3
  9
$SHADEDIF
 70
    70
  9
$TILEMODE
 70
     1
  9
$MAXACTVP
 70
    64
  9
$PINSBASE
 10
0.0
 20
0.0
 30
0.0
  9
$PLIMCHECK
 70
     0
  9
$PEXTMIN
 10
1.000000E+20
 20
1.000000E+20
 30
0.0
  9
$PEXTMAX
 10
-1.000000E+20
 20
-1.000000E+20
 30
0.0
  9
$PLIMMIN
 10
0.0
 20
0.0
  9
$PLIMMAX
 10
12.0
 20
9.0
  9
$UNITMODE
 70
     0
  9
$VISRETAIN
 70
     1
  9
$PLINEGEN
 70
     0
  9
$PSLTSCALE
 70
     1
  9
$TREEDEPTH
 70
  3020
  9
$CMLSTYLE
  2
Standard
  9
$CMLJUST
 70
     0
  9
$CMLSCALE
 40
20.0
  9
$PROXYGRAPHICS
 70
     1
  9
$MEASUREMENT
 70
     1
  9
$CELWEIGHT
370
    -1
  9
$ENDCAPS
280
     0
  9
$JOINSTYLE
280
     0
  9
$LWDISPLAY
290
     0
  9
$INSUNITS
 70
     4
  9
$HYPERLINKBASE
  1

  9
$STYLESHEET
  1

  9
$XEDIT
290
     1
  9
$CEPSNTYPE
380
     0
  9
$PSTYLEMODE
290
     1
  9
$FINGERPRINTGUID
  2
{AFE45A78-1934-4313-9D64-D17EF4BBFF33}
  9
$VERSIONGUID
  2
{FAEB1C32-E019-11D5-929B-00C0DF256EC4}
  9
$EXTNAMES
290
     1
  9
$PSVPSCALE
 40
0.0
  9
$OLESTARTUP
290
     0
  0
ENDSEC
  0
SECTION
  2
CLASSES
  0
CLASS
  1
ACDBDICTIONARYWDFLT
  2
AcDbDictionaryWithDefault
  3
ObjectDBX Classes
 90
        0
280
     0
281
     0
  0
CLASS
  1
VISUALSTYLE
  2
AcDbVisualStyle
  3
ObjectDBX Classes
 90
     4095
280
     0
281
     0
  0
CLASS
  1
SCALE
  2
AcDbScale
  3
ObjectDBX Classes
 90
     1153
280
     0
281
     0
  0
CLASS
  1
DICTIONARYVAR
  2
AcDbDictionaryVar
  3
ObjectDBX Classes
 90
        0
280
     0
281
     0
  0
CLASS
  1
ACDBPLACEHOLDER
  2
AcDbPlaceHolder
  3
ObjectDBX Classes
 90
        0
280
     0
281
     0
  0
CLASS
  1
LAYOUT
  2
AcDbLayout
  3
ObjectDBX Classes
 90
        0
280
     0
281
     0
  0
ENDSEC
  0
SECTION
  2
TABLES
  0
TABLE
  2
VPORT
  5
8
330
0
100
AcDbSymbolTable
 70
     1
  0
VPORT
  5
29
330
8
100
AcDbSymbolTableRecord
100
AcDbViewportTableRecord
  2
*Active
 70
     0
 10
0.0
 20
0.0
 11
1.0
 21
1.0
 12
56.643097
 22
28.078615
 13
0.0
 23
0.0
 14
1.0
 24
1.0
 15
0.0
 25
0.0
 16
0.0
 26
0.0
 36
1.0
 17
0.0
 27
0.0
 37
0.0
 40
63.810816
 41
1.691288
 42
50.0
 43
0.0
 44
0.0
 50
0.0
 51
0.0
 71
     0
 72
   100
 73
     1
 74
     3
 75
     0
 76
     0
 77
     0
 78
     0
281
     0
 65
     1
110
0.0
120
0.0
130
0.0
111
1.0
121
0.0
131
0.0
112
0.0
122
1.0
132
0.0
 79
     0
146
0.0
  0
ENDTAB
  0
TABLE
  2
LTYPE
  5
5
330
0
100
AcDbSymbolTable
 70
     5
  0
LTYPE
  5
14
330
5
100
AcDbSymbolTableRecord
100
AcDbLinetypeTableRecord
  2
ByBlock
 70
     0
  3

 72
    65
 73
     0
 40
0.0
  0
LTYPE
  5
15
330
5
100
AcDbSymbolTableRecord
100
AcDbLinetypeTableRecord
  2
ByLayer
 70
     0
  3

 72
    65
 73
     0
 40
0.0
  0
LTYPE
  5
16
330
5
100
AcDbSymbolTableRecord
100
AcDbLinetypeTableRecord
  2
Continuous
 70
     0
  3
Solid line
 72
    65
 73
     0
 40
0.0
  0
LTYPE
  5
5D
330
5
100
AcDbSymbolTableRecord
100
AcDbLinetypeTableRecord
  2
DASHED
 70
     0
  3
DASHED
 72
    83
 73
     2
 40
0.75
 49
0.5
 74
     0
 49
-0.25
 74
     0
  0
LTYPE
  5
5E
330
5
100
AcDbSymbolTableRecord
100
AcDbLinetypeTableRecord
  2
HIDDEN
 70
     0
  3
HIDDEN
 72
    83
 73
     2
 40
0.375
 49
0.25
 74
     0
 49
-0.125
 74
     0
  0
LTYPE
  5
5F
330
5
100
AcDbSymbolTableRecord
100
AcDbLinetypeTableRecord
  2
CENTER
 70
     0
  3
CENTER
 72
    83
 73
     4
 40
2.0
 49
1.25
 74
     0
 49
-0.25
 74
     0
 49
0.25
 74
     0
 49
-0.25
 74
     0
  0
LTYPE
  5
60
330
5
100
AcDbSymbolTableRecord
100
AcDbLinetypeTableRecord
  2
PHANTOM
 70
     0
  3
PHANTOM
 72
    83
 73
     6
 40
2.5
 49
1.25
 74
     0
 49
-0.25
 74
     0
 49
0.25
 74
     0
 49
-0.25
 74
     0
 49
0.25
 74
     0
 49
-0.25
 74
     0
  0
ENDTAB
  0
TABLE
  2
LAYER
  5
2
330
0
100
AcDbSymbolTable
 70
     2
  0
LAYER
  5
10
330
2
100
AcDbSymbolTableRecord
100
AcDbLayerTableRecord
  2
0
 70
     0
 62
     7
  6
Continuous
370
    -3
390
F
  0
LAYER
  5
61
330
2
100
AcDbSymbolTableRecord
100
AcDbLayerTableRecord
  2
001
 70
     0
 62
     7
  6
Continuous
370
    -3
390
F
  0
ENDTAB
  0
TABLE
  2
STYLE
  5
3
330
0
100
AcDbSymbolTable
 70
     2
  0
STYLE
  5
11
330
3
100
AcDbSymbolTableRecord
100
AcDbTextStyleTableRecord
  2
Standard
 70
     0
 40
0.0
 41
1.0
 50
0.0
 71
     0
 42
0.2
  3
TXT
  4
BIGFONT
  0
STYLE
  5
62
330
3
100
AcDbSymbolTableRecord
100
AcDbTextStyleTableRecord
  2
TATEGAKI
 70
     4
 40
1.0
 41
1.0
 50
0.0
 71
     0
 42
0.2
  3
TXT
  4
BIGFONT
  0
ENDTAB
  0
TABLE
  2
VIEW
  5
6
330
0
100
AcDbSymbolTable
 70
     0
  0
ENDTAB
  0
TABLE
  2
UCS
  5
7
330
0
100
AcDbSymbolTable
 70
     0
  0
ENDTAB
  0
TABLE
  2
APPID
  5
9
330
0
100
AcDbSymbolTable
 70
     1
  0
APPID
  5
12
330
9
100
AcDbSymbolTableRecord
100
AcDbRegAppTableRecord
  2
ACAD
 70
     0
  0
ENDTAB
  0
TABLE
  2
DIMSTYLE
  5
A
330
0
100
AcDbSymbolTable
 70
     2
100
AcDbDimStyleTable
  0
DIMSTYLE
105
27
330
A
100
AcDbSymbolTableRecord
100
AcDbDimStyleTableRecord
  2
ISO-25
 70
     0
 41
2.5
 42
0.625
 43
3.75
 44
1.25
 73
     0
 74
     0
 77
     1
 78
     8
140
2.5
141
2.5
143
0.03937
147
0.625
171
     3
172
     1
271
     2
272
     2
274
     3
278
    44
283
     0
284
     8
340
11
  0
DIMSTYLE
105
63
102
{ACAD_REACTORS
330
CC
330
CD
330
CE
330
CF
330
DC
102
}
330
A
100
AcDbSymbolTableRecord
100
AcDbDimStyleTableRecord
  2
Standard
 70
     0
 41
1.5
 42
0.0
 44
0.5
 73
     0
 74
     0
 77
     1
 78
     8
 79
     2
140
4.0
146
0.8
147
1.0
172
     1
179
     1
271
     1
340
11
  0
ENDTAB
  0
TABLE
  2
BLOCK_RECORD
  5
1
330
0
100
AcDbSymbolTable
 70
     6
  0
BLOCK_RECORD
  5
1F
330
1
100
AcDbSymbolTableRecord
100
AcDbBlockTableRecord
  2
*Model_Space
340
22
  0
BLOCK_RECORD
  5
1B
330
1
100
AcDbSymbolTableRecord
100
AcDbBlockTableRecord
  2
*Paper_Space
340
1E
  0
BLOCK_RECORD
  5
23
330
1
100
AcDbSymbolTableRecord
100
AcDbBlockTableRecord
  2
*Paper_Space0
340
26
  0
BLOCK_RECORD
  5
64
330
1
100
AcDbSymbolTableRecord
100
AcDbBlockTableRecord
  2
*D1
340
0
  0
BLOCK_RECORD
  5
78
330
1
100
AcDbSymbolTableRecord
100
AcDbBlockTableRecord
  2
*D2
340
0
  0
BLOCK_RECORD
  5
8C
330
1
100
AcDbSymbolTableRecord
100
AcDbBlockTableRecord
  2
*D3
340
0
  0
BLOCK_RECORD
  5
A0
330
1
100
AcDbSymbolTableRecord
100
AcDbBlockTableRecord
  2
*D4
340
0
  0
BLOCK_RECORD
  5
B7
330
1
100
AcDbSymbolTableRecord
100
AcDbBlockTableRecord
  2
*D5
340
0
  0
ENDTAB
  0
ENDSEC
  0
SECTION
  2
BLOCKS
  0
BLOCK
  5
20
330
1F
100
AcDbEntity
  8
0
100
AcDbBlockBegin
  2
*Model_Space
 70
     0
 10
0.0
 20
0.0
 30
0.0
  3
*Model_Space
  1

  0
ENDBLK
  5
21
330
1F
100
AcDbEntity
  8
0
100
AcDbBlockEnd
  0
BLOCK
  5
1C
330
1B
100
AcDbEntity
 67
     1
  8
0
100
AcDbBlockBegin
  2
*Paper_Space
 70
     0
 10
0.0
 20
0.0
 30
0.0
  3
*Paper_Space
  1

  0
ENDBLK
  5
1D
330
1B
100
AcDbEntity
 67
     1
  8
0
100
AcDbBlockEnd
  0
BLOCK
  5
24
330
23
100
AcDbEntity
  8
0
100
AcDbBlockBegin
  2
*Paper_Space0
 70
     0
 10
0.0
 20
0.0
 30
0.0
  3
*Paper_Space0
  1

  0
ENDBLK
  5
25
330
23
100
AcDbEntity
  8
0
100
AcDbBlockEnd
  0
BLOCK
  5
65
330
64
100
AcDbEntity
  8
0
100
AcDbBlockBegin
  2
*D1
 70
     1
 10
0.0
 20
0.0
 30
0.0
  3
*D1
  1

  0
LINE
  5
67
330
64
100
AcDbEntity
  8
001
370
     9
100
AcDbLine
 10
38.383618
 20
24.803087
 30
0.0
 11
38.383618
 21
12.625391
 31
0.0
  0
LINE
  5
68
330
64
100
AcDbEntity
  8
001
370
     9
100
AcDbLine
 10
98.383618
 20
25.303087
 30
0.0
 11
98.383618
 21
12.625391
 31
0.0
  0
LINE
  5
69
330
64
100
AcDbEntity
  8
001
370
     9
100
AcDbLine
 10
38.383618
 20
14.000391
 30
0.0
 11
98.383618
 21
14.000391
 31
0.0
  0
POLYLINE
  5
6A
330
64
100
AcDbEntity
  8
001
370
     9
100
AcDb2dPolyline
 66
     1
 10
0.0
 20
0.0
 30
0.0
  0
VERTEX
  5
6C
330
6A
100
AcDbEntity
  8
001
370
     9
100
AcDbVertex
100
AcDb2dVertex
 10
39.133618
 20
13.799429
 30
0.0
  0
VERTEX
  5
6D
330
6A
100
AcDbEntity
  8
001
370
     9
100
AcDbVertex
100
AcDb2dVertex
 10
38.383618
 20
14.000391
 30
0.0
  0
VERTEX
  5
6E
330
6A
100
AcDbEntity
  8
001
370
     9
100
AcDbVertex
100
AcDb2dVertex
 10
39.133618
 20
14.201353
 30
0.0
  0
SEQEND
  5
6B
330
6A
100
AcDbEntity
  8
001
370
     9
  0
POLYLINE
  5
6F
330
64
100
AcDbEntity
  8
001
370
     9
100
AcDb2dPolyline
 66
     1
 10
0.0
 20
0.0
 30
0.0
  0
VERTEX
  5
71
330
6F
100
AcDbEntity
  8
001
370
     9
100
AcDbVertex
100
AcDb2dVertex
 10
97.633618
 20
14.201353
 30
0.0
  0
VERTEX
  5
72
330
6F
100
AcDbEntity
  8
001
370
     9
100
AcDbVertex
100
AcDb2dVertex
 10
98.383618
 20
14.000391
 30
0.0
  0
VERTEX
  5
73
330
6F
100
AcDbEntity
  8
001
370
     9
100
AcDbVertex
100
AcDb2dVertex
 10
97.633618
 20
13.799429
 30
0.0
  0
SEQEND
  5
70
330
6F
100
AcDbEntity
  8
001
370
     9
  0
TEXT
  5
74
330
64
100
AcDbEntity
  8
001
370
    30
100
AcDbText
 10
66.383618
 20
14.500391
 30
0.0
 40
2.0
  1
６０
 41
0.833333
100
AcDbText
  0
POINT
  5
75
330
64
100
AcDbEntity
  8
001
370
     9
100
AcDbPoint
 10
38.383618
 20
24.803087
 30
0.0
  0
POINT
  5
76
330
64
100
AcDbEntity
  8
001
370
     9
100
AcDbPoint
 10
98.383618
 20
25.303087
 30
0.0
  0
POINT
  5
77
330
64
100
AcDbEntity
  8
001
370
     9
100
AcDbPoint
 10
98.383618
 20
14.000391
 30
0.0
  0
ENDBLK
  5
66
330
64
100
AcDbEntity
  8
0
100
AcDbBlockEnd
  0
BLOCK
  5
79
330
78
100
AcDbEntity
  8
0
100
AcDbBlockBegin
  2
*D2
 70
     1
 10
0.0
 20
0.0
 30
0.0
  3
*D2
  1

  0
LINE
  5
7B
330
78
100
AcDbEntity
  8
001
370
     9
100
AcDbLine
 10
16.383618
 20
25.473334
 30
0.0
 11
16.383618
 21
12.625391
 31
0.0
  0
LINE
  5
7C
330
78
100
AcDbEntity
  8
001
370
     9
100
AcDbLine
 10
38.383618
 20
24.803087
 30
0.0
 11
38.383618
 21
12.625391
 31
0.0
  0
LINE
  5
7D
330
78
100
AcDbEntity
  8
001
370
     9
100
AcDbLine
 10
16.383618
 20
14.000391
 30
0.0
 11
38.383618
 21
14.000391
 31
0.0
  0
POLYLINE
  5
7E
330
78
100
AcDbEntity
  8
001
370
     9
100
AcDb2dPolyline
 66
     1
 10
0.0
 20
0.0
 30
0.0
  0
VERTEX
  5
80
330
7E
100
AcDbEntity
  8
001
370
     9
100
AcDbVertex
100
AcDb2dVertex
 10
17.133618
 20
13.799429
 30
0.0
  0
VERTEX
  5
81
330
7E
100
AcDbEntity
  8
001
370
     9
100
AcDbVertex
100
AcDb2dVertex
 10
16.383618
 20
14.000391
 30
0.0
  0
VERTEX
  5
82
330
7E
100
AcDbEntity
  8
001
370
     9
100
AcDbVertex
100
AcDb2dVertex
 10
17.133618
 20
14.201353
 30
0.0
  0
SEQEND
  5
7F
330
7E
100
AcDbEntity
  8
001
370
     9
  0
POLYLINE
  5
83
330
78
100
AcDbEntity
  8
001
370
     9
100
AcDb2dPolyline
 66
     1
 10
0.0
 20
0.0
 30
0.0
  0
VERTEX
  5
85
330
83
100
AcDbEntity
  8
001
370
     9
100
AcDbVertex
100
AcDb2dVertex
 10
37.633618
 20
14.201353
 30
0.0
  0
VERTEX
  5
86
330
83
100
AcDbEntity
  8
001
370
     9
100
AcDbVertex
100
AcDb2dVertex
 10
38.383618
 20
14.000391
 30
0.0
  0
VERTEX
  5
87
330
83
100
AcDbEntity
  8
001
370
     9
100
AcDbVertex
100
AcDb2dVertex
 10
37.633618
 20
13.799429
 30
0.0
  0
SEQEND
  5
84
330
83
100
AcDbEntity
  8
001
370
     9
  0
TEXT
  5
88
330
78
100
AcDbEntity
  8
001
370
    30
100
AcDbText
 10
25.383618
 20
14.500391
 30
0.0
 40
2.0
  1
２２
 41
0.833333
100
AcDbText
  0
POINT
  5
89
330
78
100
AcDbEntity
  8
001
370
     9
100
AcDbPoint
 10
16.383618
 20
25.473334
 30
0.0
  0
POINT
  5
8A
330
78
100
AcDbEntity
  8
001
370
     9
100
AcDbPoint
 10
38.383618
 20
24.803087
 30
0.0
  0
POINT
  5
8B
330
78
100
AcDbEntity
  8
001
370
     9
100
AcDbPoint
 10
38.383618
 20
14.000391
 30
0.0
  0
ENDBLK
  5
7A
330
78
100
AcDbEntity
  8
0
100
AcDbBlockEnd
  0
BLOCK
  5
8D
330
8C
100
AcDbEntity
  8
0
100
AcDbBlockBegin
  2
*D3
 70
     1
 10
0.0
 20
0.0
 30
0.0
  3
*D3
  1

  0
LINE
  5
8F
330
8C
100
AcDbEntity
  8
001
370
     9
100
AcDbLine
 10
98.383618
 20
25.303087
 30
0.0
 11
98.383618
 21
7.264421
 31
0.0
  0
LINE
  5
90
330
8C
100
AcDbEntity
  8
001
370
     9
100
AcDbLine
 10
16.383618
 20
25.473334
 30
0.0
 11
16.383618
 21
7.264421
 31
0.0
  0
LINE
  5
91
330
8C
100
AcDbEntity
  8
001
370
     9
100
AcDbLine
 10
98.383618
 20
8.639421
 30
0.0
 11
16.383618
 21
8.639421
 31
0.0
  0
POLYLINE
  5
92
330
8C
100
AcDbEntity
  8
001
370
     9
100
AcDb2dPolyline
 66
     1
 10
0.0
 20
0.0
 30
0.0
  0
VERTEX
  5
94
330
92
100
AcDbEntity
  8
001
370
     9
100
AcDbVertex
100
AcDb2dVertex
 10
97.633618
 20
8.840383
 30
0.0
  0
VERTEX
  5
95
330
92
100
AcDbEntity
  8
001
370
     9
100
AcDbVertex
100
AcDb2dVertex
 10
98.383618
 20
8.639421
 30
0.0
  0
VERTEX
  5
96
330
92
100
AcDbEntity
  8
001
370
     9
100
AcDbVertex
100
AcDb2dVertex
 10
97.633618
 20
8.438459
 30
0.0
  0
SEQEND
  5
93
330
92
100
AcDbEntity
  8
001
370
     9
  0
POLYLINE
  5
97
330
8C
100
AcDbEntity
  8
001
370
     9
100
AcDb2dPolyline
 66
     1
 10
0.0
 20
0.0
 30
0.0
  0
VERTEX
  5
99
330
97
100
AcDbEntity
  8
001
370
     9
100
AcDbVertex
100
AcDb2dVertex
 10
17.133618
 20
8.438459
 30
0.0
  0
VERTEX
  5
9A
330
97
100
AcDbEntity
  8
001
370
     9
100
AcDbVertex
100
AcDb2dVertex
 10
16.383618
 20
8.639421
 30
0.0
  0
VERTEX
  5
9B
330
97
100
AcDbEntity
  8
001
370
     9
100
AcDbVertex
100
AcDb2dVertex
 10
17.133618
 20
8.840383
 30
0.0
  0
SEQEND
  5
98
330
97
100
AcDbEntity
  8
001
370
     9
  0
TEXT
  5
9C
330
8C
100
AcDbEntity
  8
001
370
    30
100
AcDbText
 10
55.383618
 20
9.139421
 30
0.0
 40
2.0
  1
８２
 41
0.833333
100
AcDbText
  0
POINT
  5
9D
330
8C
100
AcDbEntity
  8
001
370
     9
100
AcDbPoint
 10
98.383618
 20
25.303087
 30
0.0
  0
POINT
  5
9E
330
8C
100
AcDbEntity
  8
001
370
     9
100
AcDbPoint
 10
16.383618
 20
25.473334
 30
0.0
  0
POINT
  5
9F
330
8C
100
AcDbEntity
  8
001
370
     9
100
AcDbPoint
 10
16.383618
 20
8.639421
 30
0.0
  0
ENDBLK
  5
8E
330
8C
100
AcDbEntity
  8
0
100
AcDbBlockEnd
  0
BLOCK
  5
A1
330
A0
100
AcDbEntity
  8
0
100
AcDbBlockBegin
  2
*D4
 70
     1
 10
0.0
 20
0.0
 30
0.0
  3
*D4
  1

  0
LINE
  5
A3
330
A0
100
AcDbEntity
  8
001
370
     9
100
AcDbLine
 10
18.373404
 20
24.603087
 30
0.0
 11
23.454561
 21
15.802265
 31
0.0
  0
LINE
  5
A4
330
A0
100
AcDbEntity
  8
001
370
     9
100
AcDbLine
 10
16.383618
 20
25.473334
 30
0.0
 11
16.383618
 21
13.907611
 31
0.0
  0
ARC
  5
A5
330
A0
100
AcDbEntity
  8
001
370
     9
100
AcDbCircle
 10
16.383618
 20
28.049497
 30
0.0
 40
12.76688600232322
100
AcDbArc
 50
270.0
 51
300.0
  0
POLYLINE
  5
A6
330
A0
100
AcDbEntity
  8
001
370
     9
100
AcDb2dPolyline
 66
     1
 10
0.0
 20
0.0
 30
0.0
  0
VERTEX
  5
A8
330
A6
100
AcDbEntity
  8
001
370
     9
100
AcDbVertex
100
AcDb2dVertex
 10
23.510836
 20
17.215951
 30
0.0
  0
VERTEX
  5
A9
330
A6
100
AcDbEntity
  8
001
370
     9
100
AcDbVertex
100
AcDb2dVertex
 10
22.767061
 20
16.99305
 30
0.0
  0
VERTEX
  5
AA
330
A6
100
AcDbEntity
  8
001
370
     9
100
AcDbVertex
100
AcDb2dVertex
 10
23.299738
 20
17.557975
 30
0.0
  0
SEQEND
  5
A7
330
A6
100
AcDbEntity
  8
001
370
     9
  0
POLYLINE
  5
AB
330
A0
100
AcDbEntity
  8
001
370
     9
100
AcDb2dPolyline
 66
     1
 10
0.0
 20
0.0
 30
0.0
  0
VERTEX
  5
AD
330
AB
100
AcDbEntity
  8
001
370
     9
100
AcDbVertex
100
AcDb2dVertex
 10
15.639844
 20
15.505513
 30
0.0
  0
VERTEX
  5
AE
330
AB
100
AcDbEntity
  8
001
370
     9
100
AcDbVertex
100
AcDb2dVertex
 10
16.383618
 20
15.282611
 30
0.0
  0
VERTEX
  5
AF
330
AB
100
AcDbEntity
  8
001
370
     9
100
AcDbVertex
100
AcDb2dVertex
 10
15.62804
 20
15.103763
 30
0.0
  0
SEQEND
  5
AC
330
AB
100
AcDbEntity
  8
001
370
     9
  0
TEXT
  5
B0
330
A0
100
AcDbEntity
  8
001
370
    30
100
AcDbText
 10
16.660745
 20
15.424138
 30
0.0
 40
2.0
  1
３０%%d
 50
15.0
 41
0.978261
100
AcDbText
  0
POINT
  5
B1
330
A0
100
AcDbEntity
  8
001
370
     9
100
AcDbPoint
 10
18.373404
 20
24.603087
 30
0.0
  0
POINT
  5
B2
330
A0
100
AcDbEntity
  8
001
370
     9
100
AcDbPoint
 10
16.383618
 20
28.049497
 30
0.0
  0
POINT
  5
B3
330
A0
100
AcDbEntity
  8
001
370
     9
100
AcDbPoint
 10
16.383618
 20
28.049497
 30
0.0
  0
POINT
  5
B4
330
A0
100
AcDbEntity
  8
001
370
     9
100
AcDbPoint
 10
16.383618
 20
25.473334
 30
0.0
  0
ARC
  5
B5
330
A0
100
AcDbEntity
  8
001
370
     9
100
AcDbCircle
 10
16.383618
 20
28.049497
 30
0.0
 40
12.76688600232322
100
AcDbArc
 50
264.390196
 51
270.0
  0
ARC
  5
B6
330
A0
100
AcDbEntity
  8
001
370
     9
100
AcDbCircle
 10
16.383618
 20
28.049497
 30
0.0
 40
12.76688600232322
100
AcDbArc
 50
300.0
 51
305.609804
  0
ENDBLK
  5
A2
330
A0
100
AcDbEntity
  8
0
100
AcDbBlockEnd
  0
BLOCK
  5
B8
330
B7
100
AcDbEntity
  8
0
100
AcDbBlockBegin
  2
*D5
 70
     1
 10
0.0
 20
0.0
 30
0.0
  3
*D5
  1

  0
LINE
  5
BA
330
B7
100
AcDbEntity
  8
001
370
     9
100
AcDbLine
 10
97.383618
 20
32.303087
 30
0.0
 11
110.070062
 21
32.303087
 31
0.0
  0
LINE
  5
BB
330
B7
100
AcDbEntity
  8
001
370
     9
100
AcDbLine
 10
97.383618
 20
24.303087
 30
0.0
 11
110.070062
 21
24.303087
 31
0.0
  0
LINE
  5
BC
330
B7
100
AcDbEntity
  8
001
370
     9
100
AcDbLine
 10
108.695062
 20
32.303087
 30
0.0
 11
108.695062
 21
24.303087
 31
0.0
  0
POLYLINE
  5
BD
330
B7
100
AcDbEntity
  8
001
370
     9
100
AcDb2dPolyline
 66
     1
 10
0.0
 20
0.0
 30
0.0
  0
VERTEX
  5
BF
330
BD
100
AcDbEntity
  8
001
370
     9
100
AcDbVertex
100
AcDb2dVertex
 10
108.494101
 20
31.553087
 30
0.0
  0
VERTEX
  5
C0
330
BD
100
AcDbEntity
  8
001
370
     9
100
AcDbVertex
100
AcDb2dVertex
 10
108.695062
 20
32.303087
 30
0.0
  0
VERTEX
  5
C1
330
BD
100
AcDbEntity
  8
001
370
     9
100
AcDbVertex
100
AcDb2dVertex
 10
108.896024
 20
31.553087
 30
0.0
  0
SEQEND
  5
BE
330
BD
100
AcDbEntity
  8
001
370
     9
  0
POLYLINE
  5
C2
330
B7
100
AcDbEntity
  8
001
370
     9
100
AcDb2dPolyline
 66
     1
 10
0.0
 20
0.0
 30
0.0
  0
VERTEX
  5
C4
330
C2
100
AcDbEntity
  8
001
370
     9
100
AcDbVertex
100
AcDb2dVertex
 10
108.896024
 20
25.053087
 30
0.0
  0
VERTEX
  5
C5
330
C2
100
AcDbEntity
  8
001
370
     9
100
AcDbVertex
100
AcDb2dVertex
 10
108.695062
 20
24.303087
 30
0.0
  0
VERTEX
  5
C6
330
C2
100
AcDbEntity
  8
001
370
     9
100
AcDbVertex
100
AcDb2dVertex
 10
108.494101
 20
25.053087
 30
0.0
  0
SEQEND
  5
C3
330
C2
100
AcDbEntity
  8
001
370
     9
  0
TEXT
  5
C7
330
B7
100
AcDbEntity
  8
001
370
    30
100
AcDbText
 10
108.195062
 20
18.553087
 30
0.0
 40
2.0
  1
%%c８
 50
90.000003
 41
0.909091
100
AcDbText
  0
POINT
  5
C8
330
B7
100
AcDbEntity
  8
001
370
     9
100
AcDbPoint
 10
97.383618
 20
32.303087
 30
0.0
  0
POINT
  5
C9
330
B7
100
AcDbEntity
  8
001
370
     9
100
AcDbPoint
 10
97.383618
 20
24.303087
 30
0.0
  0
POINT
  5
CA
330
B7
100
AcDbEntity
  8
001
370
     9
100
AcDbPoint
 10
108.695062
 20
24.303087
 30
0.0
  0
LINE
  5
CB
330
B7
100
AcDbEntity
  8
001
370
     9
100
AcDbLine
 10
108.695062
 20
24.303087
 30
0.0
 11
108.695062
 21
17.053087
 31
0.0
  0
ENDBLK
  5
B9
330
B7
100
AcDbEntity
  8
0
100
AcDbBlockEnd
  0
ENDSEC
  0
SECTION
  2
ENTITIES
  0
DIMENSION
  5
CC
330
1F
100
AcDbEntity
  8
001
370
     9
100
AcDbDimension
  2
*D1
 10
98.383618
 20
14.000391
 30
0.0
 11
68.383618
 21
15.500391
 31
0.0
 70
   160
 71
     5
 42
-1.0
  3
Standard
100
AcDbAlignedDimension
 13
38.383618
 23
24.803087
 33
0.0
 14
98.383618
 24
25.303087
 34
0.0
100
AcDbRotatedDimension
  0
DIMENSION
  5
CD
330
1F
100
AcDbEntity
  8
001
370
     9
100
AcDbDimension
  2
*D2
 10
38.383618
 20
14.000391
 30
0.0
 11
27.383618
 21
15.500391
 31
0.0
 70
   160
 71
     5
 42
-1.0
  3
Standard
100
AcDbAlignedDimension
 13
16.383618
 23
25.473334
 33
0.0
 14
38.383618
 24
24.803087
 34
0.0
100
AcDbRotatedDimension
  0
DIMENSION
  5
CE
330
1F
100
AcDbEntity
  8
001
370
     9
100
AcDbDimension
  2
*D3
 10
16.383618
 20
8.639421
 30
0.0
 11
57.383618
 21
10.139421
 31
0.0
 70
   160
 71
     5
 42
-1.0
  3
Standard
100
AcDbAlignedDimension
 13
98.383618
 23
25.303087
 33
0.0
 14
16.383618
 24
25.473334
 34
0.0
 50
180.0
100
AcDbRotatedDimension
  0
DIMENSION
  5
CF
330
1F
100
AcDbEntity
  8
001
370
     9
100
AcDbDimension
  2
*D4
 10
16.383618
 20
28.049497
 30
0.0
 11
19.299703
 21
17.166521
 31
0.0
 70
    34
 71
     5
 42
-1.0
  3
Standard
100
AcDb2LineAngularDimension
 13
18.373404
 23
24.603087
 33
0.0
 14
16.383618
 24
28.049497
 34
0.0
 15
16.383618
 25
25.473334
 35
0.0
 16
19.687932
 26
15.717632
 36
0.0
  0
TEXT
  5
D0
330
1F
100
AcDbEntity
  8
001
370
    30
100
AcDbText
 10
5.216133
 20
26.382169
 30
0.0
 40
2.0
  1
%%c７．４
 50
90.000003
 41
0.869565
100
AcDbText
  0
POLYLINE
  5
D1
330
1F
100
AcDbEntity
  8
001
370
     9
100
AcDb2dPolyline
 66
     1
 10
0.0
 20
0.0
 30
0.0
  0
VERTEX
  5
D3
330
D1
100
AcDbEntity
  8
001
370
     9
100
AcDbVertex
100
AcDb2dVertex
 10
6.38253
 20
26.103087
 30
0.0
  0
VERTEX
  5
D4
330
D1
100
AcDbEntity
  8
001
370
     9
100
AcDbVertex
100
AcDb2dVertex
 10
5.980606
 20
24.603087
 30
0.0
  0
VERTEX
  5
D5
330
D1
100
AcDbEntity
  8
001
370
     9
100
AcDbVertex
100
AcDb2dVertex
 10
5.578682
 20
26.103087
 30
0.0
  0
SEQEND
  5
D2
330
D1
100
AcDbEntity
  8
001
370
     9
  0
LINE
  5
D6
330
1F
100
AcDbEntity
  8
001
370
     9
100
AcDbLine
 10
5.980606
 20
32.003087
 30
0.0
 11
5.980606
 21
24.603087
 31
0.0
  0
POLYLINE
  5
D7
330
1F
100
AcDbEntity
  8
001
370
     9
100
AcDb2dPolyline
 66
     1
 10
0.0
 20
0.0
 30
0.0
  0
VERTEX
  5
D9
330
D7
100
AcDbEntity
  8
001
370
     9
100
AcDbVertex
100
AcDb2dVertex
 10
14.990816
 20
24.603087
 30
0.0
  0
VERTEX
  5
DA
330
D7
100
AcDbEntity
  8
001
370
     9
100
AcDbVertex
100
AcDb2dVertex
 10
5.980606
 20
24.603087
 30
0.0
  0
VERTEX
  5
DB
330
D7
100
AcDbEntity
  8
001
370
     9
100
AcDbVertex
100
AcDb2dVertex
 10
5.480606
 20
24.603087
 30
0.0
  0
SEQEND
  5
D8
330
D7
100
AcDbEntity
  8
001
370
     9
  0
DIMENSION
  5
DC
330
1F
100
AcDbEntity
  8
001
370
     9
100
AcDbDimension
  2
*D5
 10
108.695062
 20
24.303087
 30
0.0
 11
107.195062
 21
20.553087
 31
0.0
 70
   160
 71
     5
 42
-1.0
  3
Standard
100
AcDbAlignedDimension
 13
97.383618
 23
32.303087
 33
0.0
 14
97.383618
 24
24.303087
 34
0.0
 50
270.0
100
AcDbRotatedDimension
  0
TEXT
  5
DD
330
1F
100
AcDbEntity
  8
001
370
    30
100
AcDbText
 10
12.469868
 20
27.818991
 30
0.0
 40
2.0
  1
%%c０．４
 50
90.000003
 41
0.869565
100
AcDbText
  0
POLYLINE
  5
DE
330
1F
100
AcDbEntity
  8
001
370
     9
100
AcDb2dPolyline
 66
     1
 10
0.0
 20
0.0
 30
0.0
  0
VERTEX
  5
E0
330
DE
100
AcDbEntity
  8
001
370
     9
100
AcDbVertex
100
AcDb2dVertex
 10
13.871791
 20
29.549497
 30
0.0
  0
VERTEX
  5
E1
330
DE
100
AcDbEntity
  8
001
370
     9
100
AcDbVertex
100
AcDb2dVertex
 10
13.469868
 20
28.049497
 30
0.0
  0
VERTEX
  5
E2
330
DE
100
AcDbEntity
  8
001
370
     9
100
AcDbVertex
100
AcDb2dVertex
 10
13.067944
 20
29.549497
 30
0.0
  0
SEQEND
  5
DF
330
DE
100
AcDbEntity
  8
001
370
     9
  0
LINE
  5
E3
330
1F
100
AcDbEntity
  8
001
370
     9
100
AcDbLine
 10
13.469868
 20
28.649497
 30
0.0
 11
13.469868
 21
28.049497
 31
0.0
  0
POLYLINE
  5
E4
330
1F
100
AcDbEntity
  8
001
370
     9
100
AcDb2dPolyline
 66
     1
 10
0.0
 20
0.0
 30
0.0
  0
VERTEX
  5
E6
330
E4
100
AcDbEntity
  8
001
370
     9
100
AcDbVertex
100
AcDb2dVertex
 10
15.032373
 20
28.049497
 30
0.0
  0
VERTEX
  5
E7
330
E4
100
AcDbEntity
  8
001
370
     9
100
AcDbVertex
100
AcDb2dVertex
 10
13.469868
 20
28.049497
 30
0.0
  0
VERTEX
  5
E8
330
E4
100
AcDbEntity
  8
001
370
     9
100
AcDbVertex
100
AcDb2dVertex
 10
12.969868
 20
28.049497
 30
0.0
  0
SEQEND
  5
E5
330
E4
100
AcDbEntity
  8
001
370
     9
  0
LINE
  5
E9
330
1F
100
AcDbEntity
  8
001
 62
   253
370
    50
100
AcDbLine
 10
38.883618
 20
24.303087
 30
0.0
 11
38.883618
 21
32.303087
 31
0.0
  0
LINE
  5
EA
330
1F
100
AcDbEntity
  8
001
 62
   253
370
    50
100
AcDbLine
 10
97.383618
 20
24.303087
 30
0.0
 11
97.383618
 21
32.303087
 31
0.0
  0
LINE
  5
EB
330
1F
100
AcDbEntity
  8
001
 62
   253
370
    50
100
AcDbLine
 10
38.883618
 20
24.303087
 30
0.0
 11
97.383618
 21
24.303087
 31
0.0
  0
LINE
  5
EC
330
1F
100
AcDbEntity
  8
001
 62
   253
370
    50
100
AcDbLine
 10
97.383618
 20
32.303087
 30
0.0
 11
38.883618
 21
32.303087
 31
0.0
  0
LINE
  5
ED
330
1F
100
AcDbEntity
  8
001
 62
   253
370
    50
100
AcDbLine
 10
98.383618
 20
25.303087
 30
0.0
 11
98.383618
 21
31.303087
 31
0.0
  0
LINE
  5
EE
330
1F
100
AcDbEntity
  8
001
 62
   253
370
    50
100
AcDbLine
 10
97.383618
 20
24.303087
 30
0.0
 11
98.383618
 21
25.303087
 31
0.0
  0
LINE
  5
EF
330
1F
100
AcDbEntity
  8
001
 62
   253
370
    50
100
AcDbLine
 10
98.383618
 20
31.303087
 30
0.0
 11
97.383618
 21
32.303087
 31
0.0
  0
LINE
  5
F0
330
1F
100
AcDbEntity
  8
001
 62
   253
370
    50
100
AcDbLine
 10
38.383618
 20
24.803087
 30
0.0
 11
38.383618
 21
31.803087
 31
0.0
  0
LINE
  5
F1
330
1F
100
AcDbEntity
  8
001
 62
   253
370
    50
100
AcDbLine
 10
38.883618
 20
32.303087
 30
0.0
 11
38.383618
 21
31.803087
 31
0.0
  0
LINE
  5
F2
330
1F
100
AcDbEntity
  8
001
 62
   253
370
    50
100
AcDbLine
 10
38.383618
 20
24.803087
 30
0.0
 11
38.883618
 21
24.303087
 31
0.0
  0
LINE
  5
F3
330
1F
100
AcDbEntity
  8
001
 62
   253
370
    50
100
AcDbLine
 10
21.598487
 20
24.803087
 30
0.0
 11
38.383618
 21
24.803087
 31
0.0
  0
LINE
  5
F4
330
1F
100
AcDbEntity
  8
001
 62
   253
370
    50
100
AcDbLine
 10
38.383618
 20
31.803087
 30
0.0
 11
18.736094
 21
31.803087
 31
0.0
  0
POLYLINE
  5
F5
330
1F
100
AcDbEntity
  8
001
 62
   253
370
    50
100
AcDb2dPolyline
 66
     1
 10
0.0
 20
0.0
 30
0.0
  0
VERTEX
  5
F7
330
F5
100
AcDbEntity
  8
001
 62
   253
370
    50
100
AcDbVertex
100
AcDb2dVertex
 10
22.34149
 20
31.37154
 30
0.0
  0
VERTEX
  5
F8
330
F5
100
AcDbEntity
  8
001
 62
   253
370
    50
100
AcDbVertex
100
AcDb2dVertex
 10
20.936308
 20
31.567499
 30
0.0
  0
VERTEX
  5
F9
330
F5
100
AcDbEntity
  8
001
 62
   253
370
    50
100
AcDbVertex
100
AcDb2dVertex
 10
18.872257
 20
31.749914
 30
0.0
  0
VERTEX
  5
FA
330
F5
100
AcDbEntity
  8
001
 62
   253
370
    50
100
AcDbVertex
100
AcDb2dVertex
 10
18.791414
 20
31.754237
 30
0.0
  0
VERTEX
  5
FB
330
F5
100
AcDbEntity
  8
001
 62
   253
370
    50
100
AcDbVertex
100
AcDb2dVertex
 10
18.736094
 20
31.757094
 30
0.0
  0
SEQEND
  5
F6
330
F5
100
AcDbEntity
  8
001
370
    50
  0
LINE
  5
FC
330
1F
100
AcDbEntity
  8
001
 62
   253
370
    50
100
AcDbLine
 10
18.736094
 20
31.757094
 30
0.0
 11
18.736094
 21
31.803087
 31
0.0
  0
POLYLINE
  5
FD
330
1F
100
AcDbEntity
  8
001
 62
   253
370
    50
100
AcDb2dPolyline
 66
     1
 10
0.0
 20
0.0
 30
0.0
  0
VERTEX
  5
FF
330
FD
100
AcDbEntity
  8
001
 62
   253
370
    50
100
AcDbVertex
100
AcDb2dVertex
 10
21.598484
 20
24.803087
 30
0.0
  0
VERTEX
  5
100
330
FD
100
AcDbEntity
  8
001
 62
   253
370
    50
100
AcDbVertex
100
AcDb2dVertex
 10
21.922866
 20
24.804725
 30
0.0
  0
VERTEX
  5
101
330
FD
100
AcDbEntity
  8
001
 62
   253
370
    50
100
AcDbVertex
100
AcDb2dVertex
 10
22.396891
 20
24.811856
 30
0.0
  0
VERTEX
  5
102
330
FD
100
AcDbEntity
  8
001
 62
   253
370
    50
100
AcDbVertex
100
AcDb2dVertex
 10
22.868625
 20
24.825527
 30
0.0
  0
VERTEX
  5
103
330
FD
100
AcDbEntity
  8
001
 62
   253
370
    50
100
AcDbVertex
100
AcDb2dVertex
 10
23.191296
 20
24.838118
 30
0.0
  0
SEQEND
  5
FE
330
FD
100
AcDbEntity
  8
001
370
    50
  0
POLYLINE
  5
104
330
1F
100
AcDbEntity
  8
001
 62
   253
370
    50
100
AcDb2dPolyline
 66
     1
 10
0.0
 20
0.0
 30
0.0
  0
VERTEX
  5
106
330
104
100
AcDbEntity
  8
001
 62
   253
370
    50
100
AcDbVertex
100
AcDb2dVertex
 10
22.439283
 20
25.344105
 30
0.0
  0
VERTEX
  5
107
330
104
100
AcDbEntity
  8
001
 62
   253
370
    50
100
AcDbVertex
100
AcDb2dVertex
 10
22.596789
 20
25.213853
 30
0.0
  0
VERTEX
  5
108
330
104
100
AcDbEntity
  8
001
 62
   253
370
    50
100
AcDbVertex
100
AcDb2dVertex
 10
22.810086
 20
25.04835
 30
0.0
  0
VERTEX
  5
109
330
104
100
AcDbEntity
  8
001
 62
   253
370
    50
100
AcDbVertex
100
AcDb2dVertex
 10
22.946334
 20
24.954988
 30
0.0
  0
VERTEX
  5
10A
330
104
100
AcDbEntity
  8
001
 62
   253
370
    50
100
AcDbVertex
100
AcDb2dVertex
 10
23.103388
 20
24.87429
 30
0.0
  0
VERTEX
  5
10B
330
104
100
AcDbEntity
  8
001
 62
   253
370
    50
100
AcDbVertex
100
AcDb2dVertex
 10
23.154689
 20
24.852494
 30
0.0
  0
VERTEX
  5
10C
330
104
100
AcDbEntity
  8
001
 62
   253
370
    50
100
AcDbVertex
100
AcDb2dVertex
 10
23.191296
 20
24.838118
 30
0.0
  0
SEQEND
  5
105
330
104
100
AcDbEntity
  8
001
370
    50
  0
POLYLINE
  5
10D
330
1F
100
AcDbEntity
  8
001
 62
   253
370
    50
100
AcDb2dPolyline
 66
     1
 10
0.0
 20
0.0
 30
0.0
  0
VERTEX
  5
10F
330
10D
100
AcDbEntity
  8
001
 62
   253
370
    50
100
AcDbVertex
100
AcDb2dVertex
 10
22.439283
 20
25.344105
 30
0.0
  0
VERTEX
  5
110
330
10D
100
AcDbEntity
  8
001
 62
   253
370
    50
100
AcDbVertex
100
AcDb2dVertex
 10
22.73669
 20
25.83429
 30
0.0
  0
VERTEX
  5
111
330
10D
100
AcDbEntity
  8
001
 62
   253
370
    50
100
AcDbVertex
100
AcDb2dVertex
 10
23.051043
 20
26.553087
 30
0.0
  0
VERTEX
  5
112
330
10D
100
AcDbEntity
  8
001
 62
   253
370
    50
100
AcDbVertex
100
AcDb2dVertex
 10
23.203162
 20
27.135907
 30
0.0
  0
VERTEX
  5
113
330
10D
100
AcDbEntity
  8
001
 62
   253
370
    50
100
AcDbVertex
100
AcDb2dVertex
 10
23.269965
 20
27.695319
 30
0.0
  0
VERTEX
  5
114
330
10D
100
AcDbEntity
  8
001
 62
   253
370
    50
100
AcDbVertex
100
AcDb2dVertex
 10
23.289341
 20
27.997297
 30
0.0
  0
VERTEX
  5
115
330
10D
100
AcDbEntity
  8
001
 62
   253
370
    50
100
AcDbVertex
100
AcDb2dVertex
 10
23.297965
 20
28.303087
 30
0.0
  0
VERTEX
  5
116
330
10D
100
AcDbEntity
  8
001
 62
   253
370
    50
100
AcDbVertex
100
AcDb2dVertex
 10
23.292102
 20
28.607156
 30
0.0
  0
VERTEX
  5
117
330
10D
100
AcDbEntity
  8
001
 62
   253
370
    50
100
AcDbVertex
100
AcDb2dVertex
 10
23.269965
 20
28.910856
 30
0.0
  0
VERTEX
  5
118
330
10D
100
AcDbEntity
  8
001
 62
   253
370
    50
100
AcDbVertex
100
AcDb2dVertex
 10
23.182516
 20
29.492718
 30
0.0
  0
VERTEX
  5
119
330
10D
100
AcDbEntity
  8
001
 62
   253
370
    50
100
AcDbVertex
100
AcDb2dVertex
 10
23.051043
 20
30.053087
 30
0.0
  0
VERTEX
  5
11A
330
10D
100
AcDbEntity
  8
001
 62
   253
370
    50
100
AcDbVertex
100
AcDb2dVertex
 10
22.820471
 20
30.696141
 30
0.0
  0
VERTEX
  5
11B
330
10D
100
AcDbEntity
  8
001
 62
   253
370
    50
100
AcDbVertex
100
AcDb2dVertex
 10
22.376441
 20
31.334176
 30
0.0
  0
VERTEX
  5
11C
330
10D
100
AcDbEntity
  8
001
 62
   253
370
    50
100
AcDbVertex
100
AcDb2dVertex
 10
22.355794
 20
31.356392
 30
0.0
  0
VERTEX
  5
11D
330
10D
100
AcDbEntity
  8
001
 62
   253
370
    50
100
AcDbVertex
100
AcDb2dVertex
 10
22.34149
 20
31.37154
 30
0.0
  0
SEQEND
  5
10E
330
10D
100
AcDbEntity
  8
001
370
    50
  0
LINE
  5
11E
330
1F
100
AcDbEntity
  8
001
 62
   253
370
    50
100
AcDbLine
 10
22.34149
 20
25.585661
 30
0.0
 11
22.439283
 21
25.344105
 31
0.0
  0
LINE
  5
11F
330
1F
100
AcDbEntity
  8
001
 62
   253
370
    50
100
AcDbLine
 10
22.34149
 20
31.37154
 30
0.0
 11
22.34149
 21
25.585661
 31
0.0
  0
POLYLINE
  5
120
330
1F
100
AcDbEntity
  8
001
 62
   253
370
    50
100
AcDb2dPolyline
 66
     1
 10
0.0
 20
0.0
 30
0.0
  0
VERTEX
  5
122
330
120
100
AcDbEntity
  8
001
 62
   253
370
    50
100
AcDbVertex
100
AcDb2dVertex
 10
20.889304
 20
28.060277
 30
0.0
  0
VERTEX
  5
123
330
120
100
AcDbEntity
  8
001
 62
   253
370
    50
100
AcDbVertex
100
AcDb2dVertex
 10
20.911224
 20
28.138889
 30
0.0
  0
VERTEX
  5
124
330
120
100
AcDbEntity
  8
001
 62
   253
370
    50
100
AcDbVertex
100
AcDb2dVertex
 10
20.935793
 20
28.248902
 30
0.0
  0
VERTEX
  5
125
330
120
100
AcDbEntity
  8
001
 62
   253
370
    50
100
AcDbVertex
100
AcDb2dVertex
 10
20.950914
 20
28.361721
 30
0.0
  0
VERTEX
  5
126
330
120
100
AcDbEntity
  8
001
 62
   253
370
    50
100
AcDbVertex
100
AcDb2dVertex
 10
20.953932
 20
28.465962
 30
0.0
  0
VERTEX
  5
127
330
120
100
AcDbEntity
  8
001
 62
   253
370
    50
100
AcDbVertex
100
AcDb2dVertex
 10
20.948958
 20
28.573493
 30
0.0
  0
VERTEX
  5
128
330
120
100
AcDbEntity
  8
001
 62
   253
370
    50
100
AcDbVertex
100
AcDb2dVertex
 10
20.935793
 20
28.683023
 30
0.0
  0
VERTEX
  5
129
330
120
100
AcDbEntity
  8
001
 62
   253
370
    50
100
AcDbVertex
100
AcDb2dVertex
 10
20.882454
 20
28.893575
 30
0.0
  0
VERTEX
  5
12A
330
120
100
AcDbEntity
  8
001
 62
   253
370
    50
100
AcDbVertex
100
AcDb2dVertex
 10
20.793978
 20
29.090962
 30
0.0
  0
VERTEX
  5
12B
330
120
100
AcDbEntity
  8
001
 62
   253
370
    50
100
AcDbVertex
100
AcDb2dVertex
 10
20.605885
 20
29.348008
 30
0.0
  0
VERTEX
  5
12C
330
120
100
AcDbEntity
  8
001
 62
   253
370
    50
100
AcDbVertex
100
AcDb2dVertex
 10
20.356977
 20
29.548494
 30
0.0
  0
VERTEX
  5
12D
330
120
100
AcDbEntity
  8
001
 62
   253
370
    50
100
AcDbVertex
100
AcDb2dVertex
 10
20.263347
 20
29.598883
 30
0.0
  0
VERTEX
  5
12E
330
120
100
AcDbEntity
  8
001
 62
   253
370
    50
100
AcDbVertex
100
AcDb2dVertex
 10
20.168364
 20
29.640578
 30
0.0
  0
VERTEX
  5
12F
330
120
100
AcDbEntity
  8
001
 62
   253
370
    50
100
AcDbVertex
100
AcDb2dVertex
 10
20.073637
 20
29.673307
 30
0.0
  0
VERTEX
  5
130
330
120
100
AcDbEntity
  8
001
 62
   253
370
    50
100
AcDbVertex
100
AcDb2dVertex
 10
19.967343
 20
29.696972
 30
0.0
  0
VERTEX
  5
131
330
120
100
AcDbEntity
  8
001
 62
   253
370
    50
100
AcDbVertex
100
AcDb2dVertex
 10
19.847558
 20
29.711204
 30
0.0
  0
VERTEX
  5
132
330
120
100
AcDbEntity
  8
001
 62
   253
370
    50
100
AcDbVertex
100
AcDb2dVertex
 10
19.760023
 20
29.715962
 30
0.0
  0
SEQEND
  5
121
330
120
100
AcDbEntity
  8
001
370
    50
  0
LINE
  5
133
330
1F
100
AcDbEntity
  8
001
 62
   253
370
    50
100
AcDbLine
 10
16.883618
 20
28.399535
 30
0.0
 11
18.660443
 21
28.952938
 31
0.0
  0
LINE
  5
134
330
1F
100
AcDbEntity
  8
001
 62
   253
370
    50
100
AcDbLine
 10
16.883618
 20
28.972501
 30
0.0
 11
16.883618
 21
28.399535
 31
0.0
  0
POLYLINE
  5
135
330
1F
100
AcDbEntity
  8
001
 62
   253
370
    50
100
AcDb2dPolyline
 66
     1
 10
0.0
 20
0.0
 30
0.0
  0
VERTEX
  5
137
330
135
100
AcDbEntity
  8
001
 62
   253
370
    50
100
AcDbVertex
100
AcDb2dVertex
 10
18.736094
 20
31.757094
 30
0.0
  0
VERTEX
  5
138
330
135
100
AcDbEntity
  8
001
 62
   253
370
    50
100
AcDbVertex
100
AcDb2dVertex
 10
18.272131
 20
31.061573
 30
0.0
  0
VERTEX
  5
139
330
135
100
AcDbEntity
  8
001
 62
   253
370
    50
100
AcDbVertex
100
AcDb2dVertex
 10
17.8079
 20
30.36623
 30
0.0
  0
VERTEX
  5
13A
330
135
100
AcDbEntity
  8
001
 62
   253
370
    50
100
AcDbVertex
100
AcDb2dVertex
 10
17.575715
 20
30.018586
 30
0.0
  0
VERTEX
  5
13B
330
135
100
AcDbEntity
  8
001
 62
   253
370
    50
100
AcDbVertex
100
AcDb2dVertex
 10
17.344102
 20
29.670564
 30
0.0
  0
VERTEX
  5
13C
330
135
100
AcDbEntity
  8
001
 62
   253
370
    50
100
AcDbVertex
100
AcDb2dVertex
 10
17.127889
 20
29.343613
 30
0.0
  0
VERTEX
  5
13D
330
135
100
AcDbEntity
  8
001
 62
   253
370
    50
100
AcDbVertex
100
AcDb2dVertex
 10
16.912238
 20
29.01629
 30
0.0
  0
SEQEND
  5
136
330
135
100
AcDbEntity
  8
001
370
    50
  0
LINE
  5
13E
330
1F
100
AcDbEntity
  8
001
 62
   253
370
    50
100
AcDbLine
 10
20.889304
 20
28.060277
 30
0.0
 11
22.34149
 21
25.585661
 31
0.0
  0
POLYLINE
  5
13F
330
1F
100
AcDbEntity
  8
001
 62
   253
370
    50
100
AcDb2dPolyline
 66
     1
 10
0.0
 20
0.0
 30
0.0
  0
VERTEX
  5
141
330
13F
100
AcDbEntity
  8
001
 62
   253
370
    50
100
AcDbVertex
100
AcDb2dVertex
 10
19.965584
 20
29.697296
 30
0.0
  0
VERTEX
  5
142
330
13F
100
AcDbEntity
  8
001
 62
   253
370
    50
100
AcDbVertex
100
AcDb2dVertex
 10
19.964869
 20
29.697164
 30
0.0
  0
VERTEX
  5
143
330
13F
100
AcDbEntity
  8
001
 62
   253
370
    50
100
AcDbVertex
100
AcDb2dVertex
 10
19.963825
 20
29.696972
 30
0.0
  0
VERTEX
  5
144
330
13F
100
AcDbEntity
  8
001
 62
   253
370
    50
100
AcDbVertex
100
AcDb2dVertex
 10
19.853714
 20
29.671437
 30
0.0
  0
VERTEX
  5
145
330
13F
100
AcDbEntity
  8
001
 62
   253
370
    50
100
AcDbVertex
100
AcDb2dVertex
 10
19.762805
 20
29.640578
 30
0.0
  0
VERTEX
  5
146
330
13F
100
AcDbEntity
  8
001
 62
   253
370
    50
100
AcDbVertex
100
AcDb2dVertex
 10
19.670022
 20
29.601317
 30
0.0
  0
VERTEX
  5
147
330
13F
100
AcDbEntity
  8
001
 62
   253
370
    50
100
AcDbVertex
100
AcDb2dVertex
 10
19.574191
 20
29.548494
 30
0.0
  0
VERTEX
  5
148
330
13F
100
AcDbEntity
  8
001
 62
   253
370
    50
100
AcDbVertex
100
AcDb2dVertex
 10
19.304237
 20
29.310505
 30
0.0
  0
VERTEX
  5
149
330
13F
100
AcDbEntity
  8
001
 62
   253
370
    50
100
AcDbVertex
100
AcDb2dVertex
 10
19.140001
 20
29.09603
 30
0.0
  0
SEQEND
  5
140
330
13F
100
AcDbEntity
  8
001
370
    50
  0
POLYLINE
  5
14A
330
1F
100
AcDbEntity
  8
001
 62
   253
370
    50
100
AcDb2dPolyline
 66
     1
 10
0.0
 20
0.0
 30
0.0
  0
VERTEX
  5
14C
330
14A
100
AcDbEntity
  8
001
 62
   253
370
    50
100
AcDbVertex
100
AcDb2dVertex
 10
19.760023
 20
29.715962
 30
0.0
  0
VERTEX
  5
14D
330
14A
100
AcDbEntity
  8
001
 62
   253
370
    50
100
AcDbVertex
100
AcDb2dVertex
 10
19.672471
 20
29.711159
 30
0.0
  0
VERTEX
  5
14E
330
14A
100
AcDbEntity
  8
001
 62
   253
370
    50
100
AcDbVertex
100
AcDb2dVertex
 10
19.552703
 20
29.696972
 30
0.0
  0
VERTEX
  5
14F
330
14A
100
AcDbEntity
  8
001
 62
   253
370
    50
100
AcDbVertex
100
AcDb2dVertex
 10
19.446498
 20
29.673533
 30
0.0
  0
VERTEX
  5
150
330
14A
100
AcDbEntity
  8
001
 62
   253
370
    50
100
AcDbVertex
100
AcDb2dVertex
 10
19.351683
 20
29.640578
 30
0.0
  0
VERTEX
  5
151
330
14A
100
AcDbEntity
  8
001
 62
   253
370
    50
100
AcDbVertex
100
AcDb2dVertex
 10
19.256364
 20
29.598017
 30
0.0
  0
VERTEX
  5
152
330
14A
100
AcDbEntity
  8
001
 62
   253
370
    50
100
AcDbVertex
100
AcDb2dVertex
 10
19.163069
 20
29.548494
 30
0.0
  0
VERTEX
  5
153
330
14A
100
AcDbEntity
  8
001
 62
   253
370
    50
100
AcDbVertex
100
AcDb2dVertex
 10
18.920754
 20
29.364965
 30
0.0
  0
VERTEX
  5
154
330
14A
100
AcDbEntity
  8
001
 62
   253
370
    50
100
AcDbVertex
100
AcDb2dVertex
 10
18.726069
 20
29.090962
 30
0.0
  0
VERTEX
  5
155
330
14A
100
AcDbEntity
  8
001
 62
   253
370
    50
100
AcDbVertex
100
AcDb2dVertex
 10
18.686116
 20
29.010418
 30
0.0
  0
VERTEX
  5
156
330
14A
100
AcDbEntity
  8
001
 62
   253
370
    50
100
AcDbVertex
100
AcDb2dVertex
 10
18.660443
 20
28.952938
 30
0.0
  0
SEQEND
  5
14B
330
14A
100
AcDbEntity
  8
001
370
    50
  0
LINE
  5
157
330
1F
100
AcDbEntity
  8
001
 62
   253
370
    50
100
AcDbLine
 10
18.660443
 20
28.952938
 30
0.0
 11
18.680569
 21
28.952938
 31
0.0
  0
LINE
  5
158
330
1F
100
AcDbEntity
  8
001
 62
   253
370
    50
100
AcDbLine
 10
16.912238
 20
29.01629
 30
0.0
 11
16.883618
 21
28.972501
 31
0.0
  0
LINE
  5
159
330
1F
100
AcDbEntity
  8
001
 62
   253
370
    50
100
AcDbLine
 10
18.736094
 20
31.803087
 30
0.0
 11
16.912232
 21
29.016282
 31
0.0
  0
POLYLINE
  5
15A
330
1F
100
AcDbEntity
  8
001
 62
     2
370
    50
100
AcDb2dPolyline
 66
     1
 10
0.0
 20
0.0
 30
0.0
  0
VERTEX
  5
15C
330
15A
100
AcDbEntity
  8
001
 62
     2
370
    50
100
AcDbVertex
100
AcDb2dVertex
 10
21.979766
 20
25.70067
 30
0.0
  0
VERTEX
  5
15D
330
15A
100
AcDbEntity
  8
001
 62
     2
370
    50
100
AcDbVertex
100
AcDb2dVertex
 10
21.982496
 20
25.702261
 30
0.0
  0
VERTEX
  5
15E
330
15A
100
AcDbEntity
  8
001
 62
     2
370
    50
100
AcDbVertex
100
AcDb2dVertex
 10
21.986303
 20
25.704646
 30
0.0
  0
VERTEX
  5
15F
330
15A
100
AcDbEntity
  8
001
 62
     2
370
    50
100
AcDbVertex
100
AcDb2dVertex
 10
21.996002
 20
25.71196
 30
0.0
  0
VERTEX
  5
160
330
15A
100
AcDbEntity
  8
001
 62
     2
370
    50
100
AcDbVertex
100
AcDb2dVertex
 10
22.003516
 20
25.719479
 30
0.0
  0
VERTEX
  5
161
330
15A
100
AcDbEntity
  8
001
 62
     2
370
    50
100
AcDbVertex
100
AcDb2dVertex
 10
22.026537
 20
25.753073
 30
0.0
  0
VERTEX
  5
162
330
15A
100
AcDbEntity
  8
001
 62
     2
370
    50
100
AcDbVertex
100
AcDb2dVertex
 10
22.04317
 20
25.792914
 30
0.0
  0
VERTEX
  5
163
330
15A
100
AcDbEntity
  8
001
 62
     2
370
    50
100
AcDbVertex
100
AcDb2dVertex
 10
22.051317
 20
25.825945
 30
0.0
  0
VERTEX
  5
164
330
15A
100
AcDbEntity
  8
001
 62
     2
370
    50
100
AcDbVertex
100
AcDb2dVertex
 10
22.0558
 20
25.858259
 30
0.0
  0
VERTEX
  5
165
330
15A
100
AcDbEntity
  8
001
 62
     2
370
    50
100
AcDbVertex
100
AcDb2dVertex
 10
22.057011
 20
25.874785
 30
0.0
  0
VERTEX
  5
166
330
15A
100
AcDbEntity
  8
001
 62
     2
370
    50
100
AcDbVertex
100
AcDb2dVertex
 10
22.057263
 20
25.892998
 30
0.0
  0
VERTEX
  5
167
330
15A
100
AcDbEntity
  8
001
 62
     2
370
    50
100
AcDbVertex
100
AcDb2dVertex
 10
22.05653
 20
25.912313
 30
0.0
  0
VERTEX
  5
168
330
15A
100
AcDbEntity
  8
001
 62
     2
370
    50
100
AcDbVertex
100
AcDb2dVertex
 10
22.055545
 20
25.926277
 30
0.0
  0
SEQEND
  5
15B
330
15A
100
AcDbEntity
  8
001
370
    50
  0
POLYLINE
  5
169
330
1F
100
AcDbEntity
  8
001
 62
     2
370
    50
100
AcDb2dPolyline
 66
     1
 10
0.0
 20
0.0
 30
0.0
  0
VERTEX
  5
16B
330
169
100
AcDbEntity
  8
001
 62
     2
370
    50
100
AcDbVertex
100
AcDb2dVertex
 10
19.174342
 20
29.106726
 30
0.0
  0
VERTEX
  5
16C
330
169
100
AcDbEntity
  8
001
 62
     2
370
    50
100
AcDbVertex
100
AcDb2dVertex
 10
19.353758
 20
29.163444
 30
0.0
  0
VERTEX
  5
16D
330
169
100
AcDbEntity
  8
001
 62
     2
370
    50
100
AcDbVertex
100
AcDb2dVertex
 10
19.614961
 20
29.24943
 30
0.0
  0
VERTEX
  5
16E
330
169
100
AcDbEntity
  8
001
 62
     2
370
    50
100
AcDbVertex
100
AcDb2dVertex
 10
19.869521
 20
29.33838
 30
0.0
  0
VERTEX
  5
16F
330
169
100
AcDbEntity
  8
001
 62
     2
370
    50
100
AcDbVertex
100
AcDb2dVertex
 10
20.042748
 20
29.401915
 30
0.0
  0
SEQEND
  5
16A
330
169
100
AcDbEntity
  8
001
370
    50
  0
LINE
  5
170
330
1F
100
AcDbEntity
  8
001
 62
     2
370
    50
100
AcDbLine
 10
21.967447
 20
26.122103
 30
0.0
 11
20.042748
 21
29.401915
 31
0.0
  0
POLYLINE
  5
171
330
1F
100
AcDbEntity
  8
001
 62
     2
370
    50
100
AcDb2dPolyline
 66
     1
 10
0.0
 20
0.0
 30
0.0
  0
VERTEX
  5
173
330
171
100
AcDbEntity
  8
001
 62
     2
370
    50
100
AcDbVertex
100
AcDb2dVertex
 10
19.504252
 20
28.544537
 30
0.0
  0
VERTEX
  5
174
330
171
100
AcDbEntity
  8
001
 62
     2
370
    50
100
AcDbVertex
100
AcDb2dVertex
 10
19.581743
 20
28.527665
 30
0.0
  0
VERTEX
  5
175
330
171
100
AcDbEntity
  8
001
 62
     2
370
    50
100
AcDbVertex
100
AcDb2dVertex
 10
19.658438
 20
28.507894
 30
0.0
  0
VERTEX
  5
176
330
171
100
AcDbEntity
  8
001
 62
     2
370
    50
100
AcDbVertex
100
AcDb2dVertex
 10
19.733318
 20
28.483082
 30
0.0
  0
VERTEX
  5
177
330
171
100
AcDbEntity
  8
001
 62
     2
370
    50
100
AcDbVertex
100
AcDb2dVertex
 10
19.806503
 20
28.453418
 30
0.0
  0
VERTEX
  5
178
330
171
100
AcDbEntity
  8
001
 62
     2
370
    50
100
AcDbVertex
100
AcDb2dVertex
 10
19.877469
 20
28.419816
 30
0.0
  0
VERTEX
  5
179
330
171
100
AcDbEntity
  8
001
 62
     2
370
    50
100
AcDbVertex
100
AcDb2dVertex
 10
19.946338
 20
28.382184
 30
0.0
  0
VERTEX
  5
17A
330
171
100
AcDbEntity
  8
001
 62
     2
370
    50
100
AcDbVertex
100
AcDb2dVertex
 10
20.012982
 20
28.340389
 30
0.0
  0
VERTEX
  5
17B
330
171
100
AcDbEntity
  8
001
 62
     2
370
    50
100
AcDbVertex
100
AcDb2dVertex
 10
20.077093
 20
28.294773
 30
0.0
  0
VERTEX
  5
17C
330
171
100
AcDbEntity
  8
001
 62
     2
370
    50
100
AcDbVertex
100
AcDb2dVertex
 10
20.139242
 20
28.245071
 30
0.0
  0
VERTEX
  5
17D
330
171
100
AcDbEntity
  8
001
 62
     2
370
    50
100
AcDbVertex
100
AcDb2dVertex
 10
20.198551
 20
28.19202
 30
0.0
  0
VERTEX
  5
17E
330
171
100
AcDbEntity
  8
001
 62
     2
370
    50
100
AcDbVertex
100
AcDb2dVertex
 10
20.255343
 20
28.135363
 30
0.0
  0
VERTEX
  5
17F
330
171
100
AcDbEntity
  8
001
 62
     2
370
    50
100
AcDbVertex
100
AcDb2dVertex
 10
20.308991
 20
28.075721
 30
0.0
  0
VERTEX
  5
180
330
171
100
AcDbEntity
  8
001
 62
     2
370
    50
100
AcDbVertex
100
AcDb2dVertex
 10
20.360596
 20
28.011712
 30
0.0
  0
VERTEX
  5
181
330
171
100
AcDbEntity
  8
001
 62
     2
370
    50
100
AcDbVertex
100
AcDb2dVertex
 10
20.408746
 20
27.945061
 30
0.0
  0
VERTEX
  5
182
330
171
100
AcDbEntity
  8
001
 62
     2
370
    50
100
AcDbVertex
100
AcDb2dVertex
 10
20.454029
 20
27.875049
 30
0.0
  0
VERTEX
  5
183
330
171
100
AcDbEntity
  8
001
 62
     2
370
    50
100
AcDbVertex
100
AcDb2dVertex
 10
20.49569
 20
27.802822
 30
0.0
  0
VERTEX
  5
184
330
171
100
AcDbEntity
  8
001
 62
     2
370
    50
100
AcDbVertex
100
AcDb2dVertex
 10
20.533821
 20
27.728252
 30
0.0
  0
VERTEX
  5
185
330
171
100
AcDbEntity
  8
001
 62
     2
370
    50
100
AcDbVertex
100
AcDb2dVertex
 10
20.568112
 20
27.651843
 30
0.0
  0
VERTEX
  5
186
330
171
100
AcDbEntity
  8
001
 62
     2
370
    50
100
AcDbVertex
100
AcDb2dVertex
 10
20.597699
 20
27.575869
 30
0.0
  0
VERTEX
  5
187
330
171
100
AcDbEntity
  8
001
 62
     2
370
    50
100
AcDbVertex
100
AcDb2dVertex
 10
20.623506
 20
27.498527
 30
0.0
  0
VERTEX
  5
188
330
171
100
AcDbEntity
  8
001
 62
     2
370
    50
100
AcDbVertex
100
AcDb2dVertex
 10
20.645591
 20
27.419661
 30
0.0
  0
VERTEX
  5
189
330
171
100
AcDbEntity
  8
001
 62
     2
370
    50
100
AcDbVertex
100
AcDb2dVertex
 10
20.663754
 20
27.339802
 30
0.0
  0
VERTEX
  5
18A
330
171
100
AcDbEntity
  8
001
 62
     2
370
    50
100
AcDbVertex
100
AcDb2dVertex
 10
20.67785
 20
27.259423
 30
0.0
  0
VERTEX
  5
18B
330
171
100
AcDbEntity
  8
001
 62
     2
370
    50
100
AcDbVertex
100
AcDb2dVertex
 10
20.687809
 20
27.178428
 30
0.0
  0
VERTEX
  5
18C
330
171
100
AcDbEntity
  8
001
 62
     2
370
    50
100
AcDbVertex
100
AcDb2dVertex
 10
20.693576
 20
27.095014
 30
0.0
  0
VERTEX
  5
18D
330
171
100
AcDbEntity
  8
001
 62
     2
370
    50
100
AcDbVertex
100
AcDb2dVertex
 10
20.694773
 20
27.011414
 30
0.0
  0
VERTEX
  5
18E
330
171
100
AcDbEntity
  8
001
 62
     2
370
    50
100
AcDbVertex
100
AcDb2dVertex
 10
20.691343
 20
26.927753
 30
0.0
  0
VERTEX
  5
18F
330
171
100
AcDbEntity
  8
001
 62
     2
370
    50
100
AcDbVertex
100
AcDb2dVertex
 10
20.683305
 20
26.844387
 30
0.0
  0
VERTEX
  5
190
330
171
100
AcDbEntity
  8
001
 62
     2
370
    50
100
AcDbVertex
100
AcDb2dVertex
 10
20.670661
 20
26.76191
 30
0.0
  0
VERTEX
  5
191
330
171
100
AcDbEntity
  8
001
 62
     2
370
    50
100
AcDbVertex
100
AcDb2dVertex
 10
20.652917
 20
26.68043
 30
0.0
  0
VERTEX
  5
192
330
171
100
AcDbEntity
  8
001
 62
     2
370
    50
100
AcDbVertex
100
AcDb2dVertex
 10
20.644442
 20
26.648546
 30
0.0
  0
VERTEX
  5
193
330
171
100
AcDbEntity
  8
001
 62
     2
370
    50
100
AcDbVertex
100
AcDb2dVertex
 10
20.635522
 20
26.616779
 30
0.0
  0
SEQEND
  5
172
330
171
100
AcDbEntity
  8
001
370
    50
  0
LINE
  5
194
330
1F
100
AcDbEntity
  8
001
 62
     2
370
    50
100
AcDbLine
 10
20.042748
 20
29.401915
 30
0.0
 11
20.394632
 21
29.401915
 31
0.0
  0
LINE
  5
195
330
1F
100
AcDbEntity
  8
001
 62
     2
370
    50
100
AcDbLine
 10
20.953822
 20
28.449018
 30
0.0
 11
20.394632
 21
29.401915
 31
0.0
  0
LINE
  5
196
330
1F
100
AcDbEntity
  8
001
 62
     2
370
    50
100
AcDbLine
 10
19.218712
 20
24.857521
 30
0.0
 11
21.216678
 21
25.479799
 31
0.0
  0
LINE
  5
197
330
1F
100
AcDbEntity
  8
001
 62
     2
370
    50
100
AcDbLine
 10
21.529425
 20
25.455428
 30
0.0
 11
21.979766
 21
25.70067
 31
0.0
  0
LINE
  5
198
330
1F
100
AcDbEntity
  8
001
 62
     2
370
    50
100
AcDbLine
 10
19.171899
 20
24.721163
 30
0.0
 11
21.529425
 21
25.455428
 31
0.0
  0
LINE
  5
199
330
1F
100
AcDbEntity
  8
001
 62
     2
370
    50
100
AcDbLine
 10
19.171899
 20
24.721163
 30
0.0
 11
18.674311
 21
24.603087
 31
0.0
  0
LINE
  5
19A
330
1F
100
AcDbEntity
  8
001
 62
     2
370
    50
100
AcDbLine
 10
18.373404
 20
24.603087
 30
0.0
 11
18.674311
 21
24.603087
 31
0.0
  0
POLYLINE
  5
19B
330
1F
100
AcDbEntity
  8
001
 62
     2
370
    50
100
AcDb2dPolyline
 66
     1
 10
0.0
 20
0.0
 30
0.0
  0
VERTEX
  5
19D
330
19B
100
AcDbEntity
  8
001
 62
     2
370
    50
100
AcDbVertex
100
AcDb2dVertex
 10
19.268297
 20
25.56502
 30
0.0
  0
VERTEX
  5
19E
330
19B
100
AcDbEntity
  8
001
 62
     2
370
    50
100
AcDbVertex
100
AcDb2dVertex
 10
19.373352
 20
25.57078
 30
0.0
  0
VERTEX
  5
19F
330
19B
100
AcDbEntity
  8
001
 62
     2
370
    50
100
AcDbVertex
100
AcDb2dVertex
 10
19.517081
 20
25.587808
 30
0.0
  0
VERTEX
  5
1A0
330
19B
100
AcDbEntity
  8
001
 62
     2
370
    50
100
AcDbVertex
100
AcDb2dVertex
 10
19.644562
 20
25.615958
 30
0.0
  0
VERTEX
  5
1A1
330
19B
100
AcDbEntity
  8
001
 62
     2
370
    50
100
AcDbVertex
100
AcDb2dVertex
 10
19.758306
 20
25.655481
 30
0.0
  0
VERTEX
  5
1A2
330
19B
100
AcDbEntity
  8
001
 62
     2
370
    50
100
AcDbVertex
100
AcDb2dVertex
 10
19.872555
 20
25.706465
 30
0.0
  0
VERTEX
  5
1A3
330
19B
100
AcDbEntity
  8
001
 62
     2
370
    50
100
AcDbVertex
100
AcDb2dVertex
 10
19.984642
 20
25.765982
 30
0.0
  0
VERTEX
  5
1A4
330
19B
100
AcDbEntity
  8
001
 62
     2
370
    50
100
AcDbVertex
100
AcDb2dVertex
 10
20.278036
 20
25.98796
 30
0.0
  0
VERTEX
  5
1A5
330
19B
100
AcDbEntity
  8
001
 62
     2
370
    50
100
AcDbVertex
100
AcDb2dVertex
 10
20.509042
 20
26.31502
 30
0.0
  0
VERTEX
  5
1A6
330
19B
100
AcDbEntity
  8
001
 62
     2
370
    50
100
AcDbVertex
100
AcDb2dVertex
 10
20.588379
 20
26.489298
 30
0.0
  0
VERTEX
  5
1A7
330
19B
100
AcDbEntity
  8
001
 62
     2
370
    50
100
AcDbVertex
100
AcDb2dVertex
 10
20.635522
 20
26.616779
 30
0.0
  0
SEQEND
  5
19C
330
19B
100
AcDbEntity
  8
001
370
    50
  0
POLYLINE
  5
1A8
330
1F
100
AcDbEntity
  8
001
 62
     2
370
    50
100
AcDb2dPolyline
 66
     1
 10
0.0
 20
0.0
 30
0.0
  0
VERTEX
  5
1AA
330
1A8
100
AcDbEntity
  8
001
 62
     2
370
    50
100
AcDbVertex
100
AcDb2dVertex
 10
19.03234
 20
25.585503
 30
0.0
  0
VERTEX
  5
1AB
330
1A8
100
AcDbEntity
  8
001
 62
     2
370
    50
100
AcDbVertex
100
AcDb2dVertex
 10
19.079977
 20
25.578151
 30
0.0
  0
VERTEX
  5
1AC
330
1A8
100
AcDbEntity
  8
001
 62
     2
370
    50
100
AcDbVertex
100
AcDb2dVertex
 10
19.149914
 20
25.570149
 30
0.0
  0
VERTEX
  5
1AD
330
1A8
100
AcDbEntity
  8
001
 62
     2
370
    50
100
AcDbVertex
100
AcDb2dVertex
 10
19.220138
 20
25.565984
 30
0.0
  0
VERTEX
  5
1AE
330
1A8
100
AcDbEntity
  8
001
 62
     2
370
    50
100
AcDbVertex
100
AcDb2dVertex
 10
19.268297
 20
25.56502
 30
0.0
  0
SEQEND
  5
1A9
330
1A8
100
AcDbEntity
  8
001
370
    50
  0
POLYLINE
  5
1AF
330
1F
100
AcDbEntity
  8
001
 62
     2
370
    50
100
AcDb2dPolyline
 66
     1
 10
0.0
 20
0.0
 30
0.0
  0
VERTEX
  5
1B1
330
1AF
100
AcDbEntity
  8
001
 62
     2
370
    50
100
AcDbVertex
100
AcDb2dVertex
 10
19.504252
 20
28.544537
 30
0.0
  0
VERTEX
  5
1B2
330
1AF
100
AcDbEntity
  8
001
 62
     2
370
    50
100
AcDbVertex
100
AcDb2dVertex
 10
19.456616
 20
28.551888
 30
0.0
  0
VERTEX
  5
1B3
330
1AF
100
AcDbEntity
  8
001
 62
     2
370
    50
100
AcDbVertex
100
AcDb2dVertex
 10
19.386679
 20
28.55989
 30
0.0
  0
VERTEX
  5
1B4
330
1AF
100
AcDbEntity
  8
001
 62
     2
370
    50
100
AcDbVertex
100
AcDb2dVertex
 10
19.316455
 20
28.564055
 30
0.0
  0
VERTEX
  5
1B5
330
1AF
100
AcDbEntity
  8
001
 62
     2
370
    50
100
AcDbVertex
100
AcDb2dVertex
 10
19.268296
 20
28.56502
 30
0.0
  0
SEQEND
  5
1B0
330
1AF
100
AcDbEntity
  8
001
370
    50
  0
POLYLINE
  5
1B6
330
1F
100
AcDbEntity
  8
001
 62
     2
370
    50
100
AcDb2dPolyline
 66
     1
 10
0.0
 20
0.0
 30
0.0
  0
VERTEX
  5
1B8
330
1B6
100
AcDbEntity
  8
001
 62
     2
370
    50
100
AcDbVertex
100
AcDb2dVertex
 10
19.292884
 20
28.564799
 30
0.0
  0
VERTEX
  5
1B9
330
1B6
100
AcDbEntity
  8
001
 62
     2
370
    50
100
AcDbVertex
100
AcDb2dVertex
 10
19.198415
 20
28.558459
 30
0.0
  0
VERTEX
  5
1BA
330
1B6
100
AcDbEntity
  8
001
 62
     2
370
    50
100
AcDbVertex
100
AcDb2dVertex
 10
19.068688
 20
28.542231
 30
0.0
  0
VERTEX
  5
1BB
330
1B6
100
AcDbEntity
  8
001
 62
     2
370
    50
100
AcDbVertex
100
AcDb2dVertex
 10
18.940888
 20
28.513738
 30
0.0
  0
VERTEX
  5
1BC
330
1B6
100
AcDbEntity
  8
001
 62
     2
370
    50
100
AcDbVertex
100
AcDb2dVertex
 10
18.827463
 20
28.474559
 30
0.0
  0
VERTEX
  5
1BD
330
1B6
100
AcDbEntity
  8
001
 62
     2
370
    50
100
AcDbVertex
100
AcDb2dVertex
 10
18.713566
 20
28.424533
 30
0.0
  0
VERTEX
  5
1BE
330
1B6
100
AcDbEntity
  8
001
 62
     2
370
    50
100
AcDbVertex
100
AcDb2dVertex
 10
18.601127
 20
28.364058
 30
0.0
  0
VERTEX
  5
1BF
330
1B6
100
AcDbEntity
  8
001
 62
     2
370
    50
100
AcDbVertex
100
AcDb2dVertex
 10
18.302224
 20
28.123867
 30
0.0
  0
VERTEX
  5
1C0
330
1B6
100
AcDbEntity
  8
001
 62
     2
370
    50
100
AcDbVertex
100
AcDb2dVertex
 10
18.076727
 20
27.815019
 30
0.0
  0
VERTEX
  5
1C1
330
1B6
100
AcDbEntity
  8
001
 62
     2
370
    50
100
AcDbVertex
100
AcDb2dVertex
 10
17.970921
 20
27.577074
 30
0.0
  0
VERTEX
  5
1C2
330
1B6
100
AcDbEntity
  8
001
 62
     2
370
    50
100
AcDbVertex
100
AcDb2dVertex
 10
17.906549
 20
27.325492
 30
0.0
  0
VERTEX
  5
1C3
330
1B6
100
AcDbEntity
  8
001
 62
     2
370
    50
100
AcDbVertex
100
AcDb2dVertex
 10
17.890222
 20
27.195671
 30
0.0
  0
VERTEX
  5
1C4
330
1B6
100
AcDbEntity
  8
001
 62
     2
370
    50
100
AcDbVertex
100
AcDb2dVertex
 10
17.884783
 20
27.065019
 30
0.0
  0
VERTEX
  5
1C5
330
1B6
100
AcDbEntity
  8
001
 62
     2
370
    50
100
AcDbVertex
100
AcDb2dVertex
 10
17.890222
 20
26.934367
 30
0.0
  0
VERTEX
  5
1C6
330
1B6
100
AcDbEntity
  8
001
 62
     2
370
    50
100
AcDbVertex
100
AcDb2dVertex
 10
17.906549
 20
26.804547
 30
0.0
  0
VERTEX
  5
1C7
330
1B6
100
AcDbEntity
  8
001
 62
     2
370
    50
100
AcDbVertex
100
AcDb2dVertex
 10
17.970921
 20
26.552965
 30
0.0
  0
VERTEX
  5
1C8
330
1B6
100
AcDbEntity
  8
001
 62
     2
370
    50
100
AcDbVertex
100
AcDb2dVertex
 10
18.076727
 20
26.315019
 30
0.0
  0
VERTEX
  5
1C9
330
1B6
100
AcDbEntity
  8
001
 62
     2
370
    50
100
AcDbVertex
100
AcDb2dVertex
 10
18.302225
 20
26.006172
 30
0.0
  0
VERTEX
  5
1CA
330
1B6
100
AcDbEntity
  8
001
 62
     2
370
    50
100
AcDbVertex
100
AcDb2dVertex
 10
18.601128
 20
25.765981
 30
0.0
  0
VERTEX
  5
1CB
330
1B6
100
AcDbEntity
  8
001
 62
     2
370
    50
100
AcDbVertex
100
AcDb2dVertex
 10
18.713567
 20
25.705506
 30
0.0
  0
VERTEX
  5
1CC
330
1B6
100
AcDbEntity
  8
001
 62
     2
370
    50
100
AcDbVertex
100
AcDb2dVertex
 10
18.827465
 20
25.655481
 30
0.0
  0
VERTEX
  5
1CD
330
1B6
100
AcDbEntity
  8
001
 62
     2
370
    50
100
AcDbVertex
100
AcDb2dVertex
 10
18.940889
 20
25.616301
 30
0.0
  0
VERTEX
  5
1CE
330
1B6
100
AcDbEntity
  8
001
 62
     2
370
    50
100
AcDbVertex
100
AcDb2dVertex
 10
19.068689
 20
25.587808
 30
0.0
  0
VERTEX
  5
1CF
330
1B6
100
AcDbEntity
  8
001
 62
     2
370
    50
100
AcDbVertex
100
AcDb2dVertex
 10
19.198417
 20
25.571581
 30
0.0
  0
VERTEX
  5
1D0
330
1B6
100
AcDbEntity
  8
001
 62
     2
370
    50
100
AcDbVertex
100
AcDb2dVertex
 10
19.292885
 20
25.565241
 30
0.0
  0
SEQEND
  5
1B7
330
1B6
100
AcDbEntity
  8
001
370
    50
  0
POLYLINE
  5
1D1
330
1F
100
AcDbEntity
  8
001
 62
     2
370
    50
100
AcDb2dPolyline
 66
     1
 10
0.0
 20
0.0
 30
0.0
  0
VERTEX
  5
1D3
330
1D1
100
AcDbEntity
  8
001
 62
     2
370
    50
100
AcDbVertex
100
AcDb2dVertex
 10
19.03234
 20
25.585503
 30
0.0
  0
VERTEX
  5
1D4
330
1D1
100
AcDbEntity
  8
001
 62
     2
370
    50
100
AcDbVertex
100
AcDb2dVertex
 10
18.974226
 20
25.597401
 30
0.0
  0
VERTEX
  5
1D5
330
1D1
100
AcDbEntity
  8
001
 62
     2
370
    50
100
AcDbVertex
100
AcDb2dVertex
 10
18.916478
 20
25.610802
 30
0.0
  0
VERTEX
  5
1D6
330
1D1
100
AcDbEntity
  8
001
 62
     2
370
    50
100
AcDbVertex
100
AcDb2dVertex
 10
18.858891
 20
25.627042
 30
0.0
  0
VERTEX
  5
1D7
330
1D1
100
AcDbEntity
  8
001
 62
     2
370
    50
100
AcDbVertex
100
AcDb2dVertex
 10
18.802068
 20
25.645879
 30
0.0
  0
VERTEX
  5
1D8
330
1D1
100
AcDbEntity
  8
001
 62
     2
370
    50
100
AcDbVertex
100
AcDb2dVertex
 10
18.74398
 20
25.66776
 30
0.0
  0
VERTEX
  5
1D9
330
1D1
100
AcDbEntity
  8
001
 62
     2
370
    50
100
AcDbVertex
100
AcDb2dVertex
 10
18.686849
 20
25.691994
 30
0.0
  0
VERTEX
  5
1DA
330
1D1
100
AcDbEntity
  8
001
 62
     2
370
    50
100
AcDbVertex
100
AcDb2dVertex
 10
18.630521
 20
25.718745
 30
0.0
  0
VERTEX
  5
1DB
330
1D1
100
AcDbEntity
  8
001
 62
     2
370
    50
100
AcDbVertex
100
AcDb2dVertex
 10
18.575371
 20
25.747855
 30
0.0
  0
VERTEX
  5
1DC
330
1D1
100
AcDbEntity
  8
001
 62
     2
370
    50
100
AcDbVertex
100
AcDb2dVertex
 10
18.522933
 20
25.778376
 30
0.0
  0
VERTEX
  5
1DD
330
1D1
100
AcDbEntity
  8
001
 62
     2
370
    50
100
AcDbVertex
100
AcDb2dVertex
 10
18.471785
 20
25.811011
 30
0.0
  0
VERTEX
  5
1DE
330
1D1
100
AcDbEntity
  8
001
 62
     2
370
    50
100
AcDbVertex
100
AcDb2dVertex
 10
18.421919
 20
25.84578
 30
0.0
  0
VERTEX
  5
1DF
330
1D1
100
AcDbEntity
  8
001
 62
     2
370
    50
100
AcDbVertex
100
AcDb2dVertex
 10
18.373531
 20
25.882579
 30
0.0
  0
VERTEX
  5
1E0
330
1D1
100
AcDbEntity
  8
001
 62
     2
370
    50
100
AcDbVertex
100
AcDb2dVertex
 10
18.325362
 20
25.922528
 30
0.0
  0
VERTEX
  5
1E1
330
1D1
100
AcDbEntity
  8
001
 62
     2
370
    50
100
AcDbVertex
100
AcDb2dVertex
 10
18.278949
 20
25.964507
 30
0.0
  0
VERTEX
  5
1E2
330
1D1
100
AcDbEntity
  8
001
 62
     2
370
    50
100
AcDbVertex
100
AcDb2dVertex
 10
18.234361
 20
26.008466
 30
0.0
  0
VERTEX
  5
1E3
330
1D1
100
AcDbEntity
  8
001
 62
     2
370
    50
100
AcDbVertex
100
AcDb2dVertex
 10
18.191724
 20
26.054319
 30
0.0
  0
VERTEX
  5
1E4
330
1D1
100
AcDbEntity
  8
001
 62
     2
370
    50
100
AcDbVertex
100
AcDb2dVertex
 10
18.151801
 20
26.101184
 30
0.0
  0
VERTEX
  5
1E5
330
1D1
100
AcDbEntity
  8
001
 62
     2
370
    50
100
AcDbVertex
100
AcDb2dVertex
 10
18.113936
 20
26.149727
 30
0.0
  0
VERTEX
  5
1E6
330
1D1
100
AcDbEntity
  8
001
 62
     2
370
    50
100
AcDbVertex
100
AcDb2dVertex
 10
18.078201
 20
26.199854
 30
0.0
  0
VERTEX
  5
1E7
330
1D1
100
AcDbEntity
  8
001
 62
     2
370
    50
100
AcDbVertex
100
AcDb2dVertex
 10
18.044677
 20
26.251486
 30
0.0
  0
VERTEX
  5
1E8
330
1D1
100
AcDbEntity
  8
001
 62
     2
370
    50
100
AcDbVertex
100
AcDb2dVertex
 10
18.012513
 20
26.306194
 30
0.0
  0
VERTEX
  5
1E9
330
1D1
100
AcDbEntity
  8
001
 62
     2
370
    50
100
AcDbVertex
100
AcDb2dVertex
 10
17.982833
 20
26.362291
 30
0.0
  0
VERTEX
  5
1EA
330
1D1
100
AcDbEntity
  8
001
 62
     2
370
    50
100
AcDbVertex
100
AcDb2dVertex
 10
17.955676
 20
26.419668
 30
0.0
  0
VERTEX
  5
1EB
330
1D1
100
AcDbEntity
  8
001
 62
     2
370
    50
100
AcDbVertex
100
AcDb2dVertex
 10
17.931106
 20
26.478197
 30
0.0
  0
VERTEX
  5
1EC
330
1D1
100
AcDbEntity
  8
001
 62
     2
370
    50
100
AcDbVertex
100
AcDb2dVertex
 10
17.910371
 20
26.534278
 30
0.0
  0
VERTEX
  5
1ED
330
1D1
100
AcDbEntity
  8
001
 62
     2
370
    50
100
AcDbVertex
100
AcDb2dVertex
 10
17.891983
 20
26.591173
 30
0.0
  0
VERTEX
  5
1EE
330
1D1
100
AcDbEntity
  8
001
 62
     2
370
    50
100
AcDbVertex
100
AcDb2dVertex
 10
17.875927
 20
26.648843
 30
0.0
  0
VERTEX
  5
1EF
330
1D1
100
AcDbEntity
  8
001
 62
     2
370
    50
100
AcDbVertex
100
AcDb2dVertex
 10
17.862238
 20
26.707119
 30
0.0
  0
VERTEX
  5
1F0
330
1D1
100
AcDbEntity
  8
001
 62
     2
370
    50
100
AcDbVertex
100
AcDb2dVertex
 10
17.850625
 20
26.76764
 30
0.0
  0
VERTEX
  5
1F1
330
1D1
100
AcDbEntity
  8
001
 62
     2
370
    50
100
AcDbVertex
100
AcDb2dVertex
 10
17.841505
 20
26.828587
 30
0.0
  0
VERTEX
  5
1F2
330
1D1
100
AcDbEntity
  8
001
 62
     2
370
    50
100
AcDbVertex
100
AcDb2dVertex
 10
17.834838
 20
26.889991
 30
0.0
  0
VERTEX
  5
1F3
330
1D1
100
AcDbEntity
  8
001
 62
     2
370
    50
100
AcDbVertex
100
AcDb2dVertex
 10
17.830631
 20
26.951612
 30
0.0
  0
VERTEX
  5
1F4
330
1D1
100
AcDbEntity
  8
001
 62
     2
370
    50
100
AcDbVertex
100
AcDb2dVertex
 10
17.828862
 20
27.013372
 30
0.0
  0
VERTEX
  5
1F5
330
1D1
100
AcDbEntity
  8
001
 62
     2
370
    50
100
AcDbVertex
100
AcDb2dVertex
 10
17.829485
 20
27.075155
 30
0.0
  0
VERTEX
  5
1F6
330
1D1
100
AcDbEntity
  8
001
 62
     2
370
    50
100
AcDbVertex
100
AcDb2dVertex
 10
17.832464
 20
27.137007
 30
0.0
  0
VERTEX
  5
1F7
330
1D1
100
AcDbEntity
  8
001
 62
     2
370
    50
100
AcDbVertex
100
AcDb2dVertex
 10
17.837778
 20
27.198699
 30
0.0
  0
VERTEX
  5
1F8
330
1D1
100
AcDbEntity
  8
001
 62
     2
370
    50
100
AcDbVertex
100
AcDb2dVertex
 10
17.84567
 20
27.262028
 30
0.0
  0
VERTEX
  5
1F9
330
1D1
100
AcDbEntity
  8
001
 62
     2
370
    50
100
AcDbVertex
100
AcDb2dVertex
 10
17.855901
 20
27.32503
 30
0.0
  0
VERTEX
  5
1FA
330
1D1
100
AcDbEntity
  8
001
 62
     2
370
    50
100
AcDbVertex
100
AcDb2dVertex
 10
17.868395
 20
27.387596
 30
0.0
  0
VERTEX
  5
1FB
330
1D1
100
AcDbEntity
  8
001
 62
     2
370
    50
100
AcDbVertex
100
AcDb2dVertex
 10
17.88332
 20
27.44961
 30
0.0
  0
VERTEX
  5
1FC
330
1D1
100
AcDbEntity
  8
001
 62
     2
370
    50
100
AcDbVertex
100
AcDb2dVertex
 10
17.892017
 20
27.481483
 30
0.0
  0
VERTEX
  5
1FD
330
1D1
100
AcDbEntity
  8
001
 62
     2
370
    50
100
AcDbVertex
100
AcDb2dVertex
 10
17.90107
 20
27.513261
 30
0.0
  0
SEQEND
  5
1D2
330
1D1
100
AcDbEntity
  8
001
370
    50
  0
POLYLINE
  5
1FE
330
1F
100
AcDbEntity
  8
001
 62
     2
370
    50
100
AcDb2dPolyline
 66
     1
 10
0.0
 20
0.0
 30
0.0
  0
VERTEX
  5
200
330
1FE
100
AcDbEntity
  8
001
 62
     2
370
    50
100
AcDbVertex
100
AcDb2dVertex
 10
19.268296
 20
28.56502
 30
0.0
  0
VERTEX
  5
201
330
1FE
100
AcDbEntity
  8
001
 62
     2
370
    50
100
AcDbVertex
100
AcDb2dVertex
 10
19.16324
 20
28.55926
 30
0.0
  0
VERTEX
  5
202
330
1FE
100
AcDbEntity
  8
001
 62
     2
370
    50
100
AcDbVertex
100
AcDb2dVertex
 10
19.019512
 20
28.542231
 30
0.0
  0
VERTEX
  5
203
330
1FE
100
AcDbEntity
  8
001
 62
     2
370
    50
100
AcDbVertex
100
AcDb2dVertex
 10
18.89203
 20
28.514082
 30
0.0
  0
VERTEX
  5
204
330
1FE
100
AcDbEntity
  8
001
 62
     2
370
    50
100
AcDbVertex
100
AcDb2dVertex
 10
18.778287
 20
28.474559
 30
0.0
  0
VERTEX
  5
205
330
1FE
100
AcDbEntity
  8
001
 62
     2
370
    50
100
AcDbVertex
100
AcDb2dVertex
 10
18.664038
 20
28.423575
 30
0.0
  0
VERTEX
  5
206
330
1FE
100
AcDbEntity
  8
001
 62
     2
370
    50
100
AcDbVertex
100
AcDb2dVertex
 10
18.551951
 20
28.364058
 30
0.0
  0
VERTEX
  5
207
330
1FE
100
AcDbEntity
  8
001
 62
     2
370
    50
100
AcDbVertex
100
AcDb2dVertex
 10
18.258557
 20
28.14208
 30
0.0
  0
VERTEX
  5
208
330
1FE
100
AcDbEntity
  8
001
 62
     2
370
    50
100
AcDbVertex
100
AcDb2dVertex
 10
18.02755
 20
27.815019
 30
0.0
  0
VERTEX
  5
209
330
1FE
100
AcDbEntity
  8
001
 62
     2
370
    50
100
AcDbVertex
100
AcDb2dVertex
 10
17.948214
 20
27.640741
 30
0.0
  0
VERTEX
  5
20A
330
1FE
100
AcDbEntity
  8
001
 62
     2
370
    50
100
AcDbVertex
100
AcDb2dVertex
 10
17.90107
 20
27.513261
 30
0.0
  0
SEQEND
  5
1FF
330
1FE
100
AcDbEntity
  8
001
370
    50
  0
LINE
  5
20B
330
1F
100
AcDbEntity
  8
001
 62
     2
370
    50
100
AcDbLine
 10
17.30723
 20
28.525204
 30
0.0
 11
19.174342
 21
29.106726
 31
0.0
  0
POLYLINE
  5
20C
330
1F
100
AcDbEntity
  8
001
 62
   134
370
    30
100
AcDb2dPolyline
 66
     1
 10
0.0
 20
0.0
 30
0.0
  0
VERTEX
  5
20E
330
20C
100
AcDbEntity
  8
001
 62
   134
370
    30
100
AcDbVertex
100
AcDb2dVertex
 10
19.084178
 20
28.291109
 30
0.0
  0
VERTEX
  5
20F
330
20C
100
AcDbEntity
  8
001
 62
   134
370
    30
100
AcDbVertex
100
AcDb2dVertex
 10
19.058085
 20
28.285268
 30
0.0
  0
VERTEX
  5
210
330
20C
100
AcDbEntity
  8
001
 62
   134
370
    30
100
AcDbVertex
100
AcDb2dVertex
 10
19.032081
 20
28.279063
 30
0.0
  0
VERTEX
  5
211
330
20C
100
AcDbEntity
  8
001
 62
   134
370
    30
100
AcDbVertex
100
AcDb2dVertex
 10
18.992665
 20
28.268298
 30
0.0
  0
VERTEX
  5
212
330
20C
100
AcDbEntity
  8
001
 62
   134
370
    30
100
AcDbVertex
100
AcDb2dVertex
 10
18.953676
 20
28.25604
 30
0.0
  0
VERTEX
  5
213
330
20C
100
AcDbEntity
  8
001
 62
   134
370
    30
100
AcDbVertex
100
AcDb2dVertex
 10
18.915067
 20
28.242437
 30
0.0
  0
VERTEX
  5
214
330
20C
100
AcDbEntity
  8
001
 62
   134
370
    30
100
AcDbVertex
100
AcDb2dVertex
 10
18.876952
 20
28.227517
 30
0.0
  0
VERTEX
  5
215
330
20C
100
AcDbEntity
  8
001
 62
   134
370
    30
100
AcDbVertex
100
AcDb2dVertex
 10
18.83931
 20
28.211226
 30
0.0
  0
VERTEX
  5
216
330
20C
100
AcDbEntity
  8
001
 62
   134
370
    30
100
AcDbVertex
100
AcDb2dVertex
 10
18.802262
 20
28.193622
 30
0.0
  0
VERTEX
  5
217
330
20C
100
AcDbEntity
  8
001
 62
   134
370
    30
100
AcDbVertex
100
AcDb2dVertex
 10
18.765766
 20
28.174696
 30
0.0
  0
VERTEX
  5
218
330
20C
100
AcDbEntity
  8
001
 62
   134
370
    30
100
AcDbVertex
100
AcDb2dVertex
 10
18.72995
 20
28.154513
 30
0.0
  0
VERTEX
  5
219
330
20C
100
AcDbEntity
  8
001
 62
   134
370
    30
100
AcDbVertex
100
AcDb2dVertex
 10
18.694767
 20
28.133043
 30
0.0
  0
VERTEX
  5
21A
330
20C
100
AcDbEntity
  8
001
 62
   134
370
    30
100
AcDbVertex
100
AcDb2dVertex
 10
18.660348
 20
28.110367
 30
0.0
  0
VERTEX
  5
21B
330
20C
100
AcDbEntity
  8
001
 62
   134
370
    30
100
AcDbVertex
100
AcDb2dVertex
 10
18.626641
 20
28.08645
 30
0.0
  0
VERTEX
  5
21C
330
20C
100
AcDbEntity
  8
001
 62
   134
370
    30
100
AcDbVertex
100
AcDb2dVertex
 10
18.593778
 20
28.061386
 30
0.0
  0
VERTEX
  5
21D
330
20C
100
AcDbEntity
  8
001
 62
   134
370
    30
100
AcDbVertex
100
AcDb2dVertex
 10
18.561703
 20
28.035133
 30
0.0
  0
VERTEX
  5
21E
330
20C
100
AcDbEntity
  8
001
 62
   134
370
    30
100
AcDbVertex
100
AcDb2dVertex
 10
18.530547
 20
28.007797
 30
0.0
  0
VERTEX
  5
21F
330
20C
100
AcDbEntity
  8
001
 62
   134
370
    30
100
AcDbVertex
100
AcDb2dVertex
 10
18.500253
 20
27.979328
 30
0.0
  0
VERTEX
  5
220
330
20C
100
AcDbEntity
  8
001
 62
   134
370
    30
100
AcDbVertex
100
AcDb2dVertex
 10
18.470948
 20
27.949843
 30
0.0
  0
VERTEX
  5
221
330
20C
100
AcDbEntity
  8
001
 62
   134
370
    30
100
AcDbVertex
100
AcDb2dVertex
 10
18.442577
 20
27.91929
 30
0.0
  0
VERTEX
  5
222
330
20C
100
AcDbEntity
  8
001
 62
   134
370
    30
100
AcDbVertex
100
AcDb2dVertex
 10
18.415257
 20
27.887792
 30
0.0
  0
VERTEX
  5
223
330
20C
100
AcDbEntity
  8
001
 62
   134
370
    30
100
AcDbVertex
100
AcDb2dVertex
 10
18.38894
 20
27.855295
 30
0.0
  0
VERTEX
  5
224
330
20C
100
AcDbEntity
  8
001
 62
   134
370
    30
100
AcDbVertex
100
AcDb2dVertex
 10
18.363733
 20
27.821929
 30
0.0
  0
VERTEX
  5
225
330
20C
100
AcDbEntity
  8
001
 62
   134
370
    30
100
AcDbVertex
100
AcDb2dVertex
 10
18.339593
 20
27.787639
 30
0.0
  0
VERTEX
  5
226
330
20C
100
AcDbEntity
  8
001
 62
   134
370
    30
100
AcDbVertex
100
AcDb2dVertex
 10
18.316615
 20
27.752558
 30
0.0
  0
VERTEX
  5
227
330
20C
100
AcDbEntity
  8
001
 62
   134
370
    30
100
AcDbVertex
100
AcDb2dVertex
 10
18.294765
 20
27.716632
 30
0.0
  0
VERTEX
  5
228
330
20C
100
AcDbEntity
  8
001
 62
   134
370
    30
100
AcDbVertex
100
AcDb2dVertex
 10
18.274123
 20
27.679998
 30
0.0
  0
VERTEX
  5
229
330
20C
100
AcDbEntity
  8
001
 62
   134
370
    30
100
AcDbVertex
100
AcDb2dVertex
 10
18.254664
 20
27.642603
 30
0.0
  0
VERTEX
  5
22A
330
20C
100
AcDbEntity
  8
001
 62
   134
370
    30
100
AcDbVertex
100
AcDb2dVertex
 10
18.236455
 20
27.604583
 30
0.0
  0
VERTEX
  5
22B
330
20C
100
AcDbEntity
  8
001
 62
   134
370
    30
100
AcDbVertex
100
AcDb2dVertex
 10
18.219477
 20
27.565893
 30
0.0
  0
VERTEX
  5
22C
330
20C
100
AcDbEntity
  8
001
 62
   134
370
    30
100
AcDbVertex
100
AcDb2dVertex
 10
18.203787
 20
27.526664
 30
0.0
  0
VERTEX
  5
22D
330
20C
100
AcDbEntity
  8
001
 62
   134
370
    30
100
AcDbVertex
100
AcDb2dVertex
 10
18.18937
 20
27.486858
 30
0.0
  0
VERTEX
  5
22E
330
20C
100
AcDbEntity
  8
001
 62
   134
370
    30
100
AcDbVertex
100
AcDb2dVertex
 10
18.176271
 20
27.446599
 30
0.0
  0
VERTEX
  5
22F
330
20C
100
AcDbEntity
  8
001
 62
   134
370
    30
100
AcDbVertex
100
AcDb2dVertex
 10
18.164482
 20
27.405862
 30
0.0
  0
VERTEX
  5
230
330
20C
100
AcDbEntity
  8
001
 62
   134
370
    30
100
AcDbVertex
100
AcDb2dVertex
 10
18.154036
 20
27.36476
 30
0.0
  0
VERTEX
  5
231
330
20C
100
AcDbEntity
  8
001
 62
   134
370
    30
100
AcDbVertex
100
AcDb2dVertex
 10
18.14493
 20
27.323281
 30
0.0
  0
VERTEX
  5
232
330
20C
100
AcDbEntity
  8
001
 62
   134
370
    30
100
AcDbVertex
100
AcDb2dVertex
 10
18.137187
 20
27.281525
 30
0.0
  0
VERTEX
  5
233
330
20C
100
AcDbEntity
  8
001
 62
   134
370
    30
100
AcDbVertex
100
AcDb2dVertex
 10
18.130807
 20
27.239496
 30
0.0
  0
VERTEX
  5
234
330
20C
100
AcDbEntity
  8
001
 62
   134
370
    30
100
AcDbVertex
100
AcDb2dVertex
 10
18.125803
 20
27.19728
 30
0.0
  0
VERTEX
  5
235
330
20C
100
AcDbEntity
  8
001
 62
   134
370
    30
100
AcDbVertex
100
AcDb2dVertex
 10
18.122179
 20
27.154896
 30
0.0
  0
VERTEX
  5
236
330
20C
100
AcDbEntity
  8
001
 62
   134
370
    30
100
AcDbVertex
100
AcDb2dVertex
 10
18.119939
 20
27.112416
 30
0.0
  0
VERTEX
  5
237
330
20C
100
AcDbEntity
  8
001
 62
   134
370
    30
100
AcDbVertex
100
AcDb2dVertex
 10
18.119086
 20
27.069874
 30
0.0
  0
VERTEX
  5
238
330
20C
100
AcDbEntity
  8
001
 62
   134
370
    30
100
AcDbVertex
100
AcDb2dVertex
 10
18.119622
 20
27.027326
 30
0.0
  0
VERTEX
  5
239
330
20C
100
AcDbEntity
  8
001
 62
   134
370
    30
100
AcDbVertex
100
AcDb2dVertex
 10
18.121546
 20
26.984822
 30
0.0
  0
VERTEX
  5
23A
330
20C
100
AcDbEntity
  8
001
 62
   134
370
    30
100
AcDbVertex
100
AcDb2dVertex
 10
18.124856
 20
26.942404
 30
0.0
  0
VERTEX
  5
23B
330
20C
100
AcDbEntity
  8
001
 62
   134
370
    30
100
AcDbVertex
100
AcDb2dVertex
 10
18.129547
 20
26.900138
 30
0.0
  0
VERTEX
  5
23C
330
20C
100
AcDbEntity
  8
001
 62
   134
370
    30
100
AcDbVertex
100
AcDb2dVertex
 10
18.135617
 20
26.858047
 30
0.0
  0
VERTEX
  5
23D
330
20C
100
AcDbEntity
  8
001
 62
   134
370
    30
100
AcDbVertex
100
AcDb2dVertex
 10
18.143053
 20
26.816213
 30
0.0
  0
VERTEX
  5
23E
330
20C
100
AcDbEntity
  8
001
 62
   134
370
    30
100
AcDbVertex
100
AcDb2dVertex
 10
18.151856
 20
26.774645
 30
0.0
  0
VERTEX
  5
23F
330
20C
100
AcDbEntity
  8
001
 62
   134
370
    30
100
AcDbVertex
100
AcDb2dVertex
 10
18.162004
 20
26.733438
 30
0.0
  0
VERTEX
  5
240
330
20C
100
AcDbEntity
  8
001
 62
   134
370
    30
100
AcDbVertex
100
AcDb2dVertex
 10
18.173498
 20
26.692586
 30
0.0
  0
VERTEX
  5
241
330
20C
100
AcDbEntity
  8
001
 62
   134
370
    30
100
AcDbVertex
100
AcDb2dVertex
 10
18.186305
 20
26.652194
 30
0.0
  0
VERTEX
  5
242
330
20C
100
AcDbEntity
  8
001
 62
   134
370
    30
100
AcDbVertex
100
AcDb2dVertex
 10
18.200444
 20
26.612251
 30
0.0
  0
VERTEX
  5
243
330
20C
100
AcDbEntity
  8
001
 62
   134
370
    30
100
AcDbVertex
100
AcDb2dVertex
 10
18.215875
 20
26.572877
 30
0.0
  0
VERTEX
  5
244
330
20C
100
AcDbEntity
  8
001
 62
   134
370
    30
100
AcDbVertex
100
AcDb2dVertex
 10
18.232568
 20
26.534014
 30
0.0
  0
VERTEX
  5
245
330
20C
100
AcDbEntity
  8
001
 62
   134
370
    30
100
AcDbVertex
100
AcDb2dVertex
 10
18.250457
 20
26.495781
 30
0.0
  0
VERTEX
  5
246
330
20C
100
AcDbEntity
  8
001
 62
   134
370
    30
100
AcDbVertex
100
AcDb2dVertex
 10
18.269722
 20
26.458238
 30
0.0
  0
VERTEX
  5
247
330
20C
100
AcDbEntity
  8
001
 62
   134
370
    30
100
AcDbVertex
100
AcDb2dVertex
 10
18.290339
 20
26.421543
 30
0.0
  0
VERTEX
  5
248
330
20C
100
AcDbEntity
  8
001
 62
   134
370
    30
100
AcDbVertex
100
AcDb2dVertex
 10
18.311734
 20
26.385277
 30
0.0
  0
SEQEND
  5
20D
330
20C
100
AcDbEntity
  8
001
370
    30
  0
POLYLINE
  5
249
330
1F
100
AcDbEntity
  8
001
 62
   134
370
    30
100
AcDb2dPolyline
 66
     1
 10
0.0
 20
0.0
 30
0.0
  0
VERTEX
  5
24B
330
249
100
AcDbEntity
  8
001
 62
   134
370
    30
100
AcDbVertex
100
AcDb2dVertex
 10
18.311734
 20
26.385277
 30
0.0
  0
VERTEX
  5
24C
330
249
100
AcDbEntity
  8
001
 62
   134
370
    30
100
AcDbVertex
100
AcDb2dVertex
 10
18.334703
 20
26.350117
 30
0.0
  0
VERTEX
  5
24D
330
249
100
AcDbEntity
  8
001
 62
   134
370
    30
100
AcDbVertex
100
AcDb2dVertex
 10
18.358407
 20
26.315468
 30
0.0
  0
VERTEX
  5
24E
330
249
100
AcDbEntity
  8
001
 62
   134
370
    30
100
AcDbVertex
100
AcDb2dVertex
 10
18.383348
 20
26.281836
 30
0.0
  0
VERTEX
  5
24F
330
249
100
AcDbEntity
  8
001
 62
   134
370
    30
100
AcDbVertex
100
AcDb2dVertex
 10
18.409524
 20
26.249137
 30
0.0
  0
VERTEX
  5
250
330
249
100
AcDbEntity
  8
001
 62
   134
370
    30
100
AcDbVertex
100
AcDb2dVertex
 10
18.436671
 20
26.217405
 30
0.0
  0
VERTEX
  5
251
330
249
100
AcDbEntity
  8
001
 62
   134
370
    30
100
AcDbVertex
100
AcDb2dVertex
 10
18.464848
 20
26.186592
 30
0.0
  0
VERTEX
  5
252
330
249
100
AcDbEntity
  8
001
 62
   134
370
    30
100
AcDbVertex
100
AcDb2dVertex
 10
18.493981
 20
26.156849
 30
0.0
  0
VERTEX
  5
253
330
249
100
AcDbEntity
  8
001
 62
   134
370
    30
100
AcDbVertex
100
AcDb2dVertex
 10
18.524119
 20
26.128122
 30
0.0
  0
VERTEX
  5
254
330
249
100
AcDbEntity
  8
001
 62
   134
370
    30
100
AcDbVertex
100
AcDb2dVertex
 10
18.555127
 20
26.100522
 30
0.0
  0
VERTEX
  5
255
330
249
100
AcDbEntity
  8
001
 62
   134
370
    30
100
AcDbVertex
100
AcDb2dVertex
 10
18.587061
 20
26.074
 30
0.0
  0
VERTEX
  5
256
330
249
100
AcDbEntity
  8
001
 62
   134
370
    30
100
AcDbVertex
100
AcDb2dVertex
 10
18.619794
 20
26.048665
 30
0.0
  0
VERTEX
  5
257
330
249
100
AcDbEntity
  8
001
 62
   134
370
    30
100
AcDbVertex
100
AcDb2dVertex
 10
18.653381
 20
26.024474
 30
0.0
  0
VERTEX
  5
258
330
249
100
AcDbEntity
  8
001
 62
   134
370
    30
100
AcDbVertex
100
AcDb2dVertex
 10
18.687688
 20
26.001522
 30
0.0
  0
VERTEX
  5
259
330
249
100
AcDbEntity
  8
001
 62
   134
370
    30
100
AcDbVertex
100
AcDb2dVertex
 10
18.72277
 20
25.979774
 30
0.0
  0
VERTEX
  5
25A
330
249
100
AcDbEntity
  8
001
 62
   134
370
    30
100
AcDbVertex
100
AcDb2dVertex
 10
18.758491
 20
25.959312
 30
0.0
  0
VERTEX
  5
25B
330
249
100
AcDbEntity
  8
001
 62
   134
370
    30
100
AcDbVertex
100
AcDb2dVertex
 10
18.794903
 20
25.940104
 30
0.0
  0
VERTEX
  5
25C
330
249
100
AcDbEntity
  8
001
 62
   134
370
    30
100
AcDbVertex
100
AcDb2dVertex
 10
18.831873
 20
25.92222
 30
0.0
  0
VERTEX
  5
25D
330
249
100
AcDbEntity
  8
001
 62
   134
370
    30
100
AcDbVertex
100
AcDb2dVertex
 10
18.869447
 20
25.905648
 30
0.0
  0
VERTEX
  5
25E
330
249
100
AcDbEntity
  8
001
 62
   134
370
    30
100
AcDbVertex
100
AcDb2dVertex
 10
18.907497
 20
25.890447
 30
0.0
  0
VERTEX
  5
25F
330
249
100
AcDbEntity
  8
001
 62
   134
370
    30
100
AcDbVertex
100
AcDb2dVertex
 10
18.946053
 20
25.876562
 30
0.0
  0
VERTEX
  5
260
330
249
100
AcDbEntity
  8
001
 62
   134
370
    30
100
AcDbVertex
100
AcDb2dVertex
 10
18.984991
 20
25.864025
 30
0.0
  0
VERTEX
  5
261
330
249
100
AcDbEntity
  8
001
 62
   134
370
    30
100
AcDbVertex
100
AcDb2dVertex
 10
19.024367
 20
25.852978
 30
0.0
  0
VERTEX
  5
262
330
249
100
AcDbEntity
  8
001
 62
   134
370
    30
100
AcDbVertex
100
AcDb2dVertex
 10
19.049598
 20
25.846762
 30
0.0
  0
VERTEX
  5
263
330
249
100
AcDbEntity
  8
001
 62
   134
370
    30
100
AcDbVertex
100
AcDb2dVertex
 10
19.074915
 20
25.840888
 30
0.0
  0
SEQEND
  5
24A
330
249
100
AcDbEntity
  8
001
370
    30
  0
POLYLINE
  5
264
330
1F
100
AcDbEntity
  8
001
 62
   134
370
    30
100
AcDb2dPolyline
 66
     1
 10
0.0
 20
0.0
 30
0.0
  0
VERTEX
  5
266
330
264
100
AcDbEntity
  8
001
 62
   134
370
    30
100
AcDbVertex
100
AcDb2dVertex
 10
19.317473
 20
25.81502
 30
0.0
  0
VERTEX
  5
267
330
264
100
AcDbEntity
  8
001
 62
   134
370
    30
100
AcDbVertex
100
AcDb2dVertex
 10
19.402162
 20
25.818612
 30
0.0
  0
VERTEX
  5
268
330
264
100
AcDbEntity
  8
001
 62
   134
370
    30
100
AcDbVertex
100
AcDb2dVertex
 10
19.524793
 20
25.83401
 30
0.0
  0
VERTEX
  5
269
330
264
100
AcDbEntity
  8
001
 62
   134
370
    30
100
AcDbVertex
100
AcDb2dVertex
 10
19.539001
 20
25.836732
 30
0.0
  0
VERTEX
  5
26A
330
264
100
AcDbEntity
  8
001
 62
   134
370
    30
100
AcDbVertex
100
AcDb2dVertex
 10
19.548705
 20
25.838688
 30
0.0
  0
SEQEND
  5
265
330
264
100
AcDbEntity
  8
001
370
    30
  0
POLYLINE
  5
26B
330
1F
100
AcDbEntity
  8
001
 62
   134
370
    30
100
AcDb2dPolyline
 66
     1
 10
0.0
 20
0.0
 30
0.0
  0
VERTEX
  5
26D
330
26B
100
AcDbEntity
  8
001
 62
   134
370
    30
100
AcDbVertex
100
AcDb2dVertex
 10
19.317473
 20
28.31502
 30
0.0
  0
VERTEX
  5
26E
330
26B
100
AcDbEntity
  8
001
 62
   134
370
    30
100
AcDbVertex
100
AcDb2dVertex
 10
19.232783
 20
28.311428
 30
0.0
  0
VERTEX
  5
26F
330
26B
100
AcDbEntity
  8
001
 62
   134
370
    30
100
AcDbVertex
100
AcDb2dVertex
 10
19.110153
 20
28.29603
 30
0.0
  0
VERTEX
  5
270
330
26B
100
AcDbEntity
  8
001
 62
   134
370
    30
100
AcDbVertex
100
AcDb2dVertex
 10
19.095758
 20
28.293271
 30
0.0
  0
VERTEX
  5
271
330
26B
100
AcDbEntity
  8
001
 62
   134
370
    30
100
AcDbVertex
100
AcDb2dVertex
 10
19.085927
 20
28.291287
 30
0.0
  0
SEQEND
  5
26C
330
26B
100
AcDbEntity
  8
001
370
    30
  0
LINE
  5
272
330
1F
100
AcDbEntity
  8
001
 62
   134
370
    30
100
AcDbLine
 10
18.852422
 20
27.657721
 30
0.0
 11
19.060314
 21
27.555233
 31
0.0
  0
POLYLINE
  5
273
330
1F
100
AcDbEntity
  8
001
 62
   134
370
    30
100
AcDb2dPolyline
 66
     1
 10
0.0
 20
0.0
 30
0.0
  0
VERTEX
  5
275
330
273
100
AcDbEntity
  8
001
 62
   134
370
    30
100
AcDbVertex
100
AcDb2dVertex
 10
18.811733
 20
27.667249
 30
0.0
  0
VERTEX
  5
276
330
273
100
AcDbEntity
  8
001
 62
   134
370
    30
100
AcDbVertex
100
AcDb2dVertex
 10
18.80473
 20
27.666869
 30
0.0
  0
VERTEX
  5
277
330
273
100
AcDbEntity
  8
001
 62
   134
370
    30
100
AcDbVertex
100
AcDb2dVertex
 10
18.795147
 20
27.66573
 30
0.0
  0
VERTEX
  5
278
330
273
100
AcDbEntity
  8
001
 62
   134
370
    30
100
AcDbVertex
100
AcDb2dVertex
 10
18.786644
 20
27.663837
 30
0.0
  0
VERTEX
  5
279
330
273
100
AcDbEntity
  8
001
 62
   134
370
    30
100
AcDbVertex
100
AcDb2dVertex
 10
18.779066
 20
27.661219
 30
0.0
  0
VERTEX
  5
27A
330
273
100
AcDbEntity
  8
001
 62
   134
370
    30
100
AcDbVertex
100
AcDb2dVertex
 10
18.771467
 20
27.657883
 30
0.0
  0
VERTEX
  5
27B
330
273
100
AcDbEntity
  8
001
 62
   134
370
    30
100
AcDbVertex
100
AcDb2dVertex
 10
18.763977
 20
27.653852
 30
0.0
  0
VERTEX
  5
27C
330
273
100
AcDbEntity
  8
001
 62
   134
370
    30
100
AcDbVertex
100
AcDb2dVertex
 10
18.744064
 20
27.63782
 30
0.0
  0
VERTEX
  5
27D
330
273
100
AcDbEntity
  8
001
 62
   134
370
    30
100
AcDbVertex
100
AcDb2dVertex
 10
18.729017
 20
27.617249
 30
0.0
  0
VERTEX
  5
27E
330
273
100
AcDbEntity
  8
001
 62
   134
370
    30
100
AcDbVertex
100
AcDb2dVertex
 10
18.721938
 20
27.601441
 30
0.0
  0
VERTEX
  5
27F
330
273
100
AcDbEntity
  8
001
 62
   134
370
    30
100
AcDbVertex
100
AcDb2dVertex
 10
18.717671
 20
27.584614
 30
0.0
  0
VERTEX
  5
280
330
273
100
AcDbEntity
  8
001
 62
   134
370
    30
100
AcDbVertex
100
AcDb2dVertex
 10
18.716619
 20
27.575878
 30
0.0
  0
VERTEX
  5
281
330
273
100
AcDbEntity
  8
001
 62
   134
370
    30
100
AcDbVertex
100
AcDb2dVertex
 10
18.71622
 20
27.567249
 30
0.0
  0
VERTEX
  5
282
330
273
100
AcDbEntity
  8
001
 62
   134
370
    30
100
AcDbVertex
100
AcDb2dVertex
 10
18.716459
 20
27.55882
 30
0.0
  0
VERTEX
  5
283
330
273
100
AcDbEntity
  8
001
 62
   134
370
    30
100
AcDbVertex
100
AcDb2dVertex
 10
18.717671
 20
27.549884
 30
0.0
  0
VERTEX
  5
284
330
273
100
AcDbEntity
  8
001
 62
   134
370
    30
100
AcDbVertex
100
AcDb2dVertex
 10
18.721375
 20
27.535581
 30
0.0
  0
VERTEX
  5
285
330
273
100
AcDbEntity
  8
001
 62
   134
370
    30
100
AcDbVertex
100
AcDb2dVertex
 10
18.725019
 20
27.525326
 30
0.0
  0
SEQEND
  5
274
330
273
100
AcDbEntity
  8
001
370
    30
  0
LINE
  5
286
330
1F
100
AcDbEntity
  8
001
 62
   134
370
    30
100
AcDbLine
 10
18.821352
 20
27.306907
 30
0.0
 11
18.725019
 21
27.525326
 31
0.0
  0
POLYLINE
  5
287
330
1F
100
AcDbEntity
  8
001
 62
   134
370
    30
100
AcDb2dPolyline
 66
     1
 10
0.0
 20
0.0
 30
0.0
  0
VERTEX
  5
289
330
287
100
AcDbEntity
  8
001
 62
   134
370
    30
100
AcDbVertex
100
AcDb2dVertex
 10
18.821352
 20
27.306907
 30
0.0
  0
VERTEX
  5
28A
330
287
100
AcDbEntity
  8
001
 62
   134
370
    30
100
AcDbVertex
100
AcDb2dVertex
 10
18.79815
 20
27.24831
 30
0.0
  0
VERTEX
  5
28B
330
287
100
AcDbEntity
  8
001
 62
   134
370
    30
100
AcDbVertex
100
AcDb2dVertex
 10
18.775186
 20
27.159664
 30
0.0
  0
VERTEX
  5
28C
330
287
100
AcDbEntity
  8
001
 62
   134
370
    30
100
AcDbVertex
100
AcDb2dVertex
 10
18.770671
 20
27.126593
 30
0.0
  0
VERTEX
  5
28D
330
287
100
AcDbEntity
  8
001
 62
   134
370
    30
100
AcDbVertex
100
AcDb2dVertex
 10
18.768597
 20
27.103814
 30
0.0
  0
SEQEND
  5
288
330
287
100
AcDbEntity
  8
001
370
    30
  0
LINE
  5
28E
330
1F
100
AcDbEntity
  8
001
 62
   134
370
    30
100
AcDbLine
 10
18.579876
 20
26.96656
 30
0.0
 11
18.768597
 21
27.103814
 31
0.0
  0
POLYLINE
  5
28F
330
1F
100
AcDbEntity
  8
001
 62
   134
370
    30
100
AcDb2dPolyline
 66
     1
 10
0.0
 20
0.0
 30
0.0
  0
VERTEX
  5
291
330
28F
100
AcDbEntity
  8
001
 62
   134
370
    30
100
AcDbVertex
100
AcDb2dVertex
 10
18.579876
 20
26.96656
 30
0.0
  0
VERTEX
  5
292
330
28F
100
AcDbEntity
  8
001
 62
   134
370
    30
100
AcDbVertex
100
AcDb2dVertex
 10
18.56672
 20
26.954011
 30
0.0
  0
VERTEX
  5
293
330
28F
100
AcDbEntity
  8
001
 62
   134
370
    30
100
AcDbVertex
100
AcDb2dVertex
 10
18.551651
 20
26.934431
 30
0.0
  0
VERTEX
  5
294
330
28F
100
AcDbEntity
  8
001
 62
   134
370
    30
100
AcDbVertex
100
AcDb2dVertex
 10
18.544101
 20
26.918214
 30
0.0
  0
VERTEX
  5
295
330
28F
100
AcDbEntity
  8
001
 62
   134
370
    30
100
AcDbVertex
100
AcDb2dVertex
 10
18.540305
 20
26.901795
 30
0.0
  0
VERTEX
  5
296
330
28F
100
AcDbEntity
  8
001
 62
   134
370
    30
100
AcDbVertex
100
AcDb2dVertex
 10
18.539267
 20
26.893176
 30
0.0
  0
VERTEX
  5
297
330
28F
100
AcDbEntity
  8
001
 62
   134
370
    30
100
AcDbVertex
100
AcDb2dVertex
 10
18.538854
 20
26.884431
 30
0.0
  0
VERTEX
  5
298
330
28F
100
AcDbEntity
  8
001
 62
   134
370
    30
100
AcDbVertex
100
AcDb2dVertex
 10
18.539202
 20
26.87571
 30
0.0
  0
VERTEX
  5
299
330
28F
100
AcDbEntity
  8
001
 62
   134
370
    30
100
AcDbVertex
100
AcDb2dVertex
 10
18.540305
 20
26.867066
 30
0.0
  0
VERTEX
  5
29A
330
28F
100
AcDbEntity
  8
001
 62
   134
370
    30
100
AcDbVertex
100
AcDb2dVertex
 10
18.544611
 20
26.850299
 30
0.0
  0
VERTEX
  5
29B
330
28F
100
AcDbEntity
  8
001
 62
   134
370
    30
100
AcDbVertex
100
AcDb2dVertex
 10
18.551651
 20
26.834431
 30
0.0
  0
VERTEX
  5
29C
330
28F
100
AcDbEntity
  8
001
 62
   134
370
    30
100
AcDbVertex
100
AcDb2dVertex
 10
18.566652
 20
26.81385
 30
0.0
  0
VERTEX
  5
29D
330
28F
100
AcDbEntity
  8
001
 62
   134
370
    30
100
AcDbVertex
100
AcDb2dVertex
 10
18.586611
 20
26.797828
 30
0.0
  0
VERTEX
  5
29E
330
28F
100
AcDbEntity
  8
001
 62
   134
370
    30
100
AcDbVertex
100
AcDb2dVertex
 10
18.594135
 20
26.793785
 30
0.0
  0
VERTEX
  5
29F
330
28F
100
AcDbEntity
  8
001
 62
   134
370
    30
100
AcDbVertex
100
AcDb2dVertex
 10
18.6017
 20
26.790461
 30
0.0
  0
VERTEX
  5
2A0
330
28F
100
AcDbEntity
  8
001
 62
   134
370
    30
100
AcDbVertex
100
AcDb2dVertex
 10
18.609169
 20
26.787887
 30
0.0
  0
VERTEX
  5
2A1
330
28F
100
AcDbEntity
  8
001
 62
   134
370
    30
100
AcDbVertex
100
AcDb2dVertex
 10
18.617781
 20
26.78595
 30
0.0
  0
VERTEX
  5
2A2
330
28F
100
AcDbEntity
  8
001
 62
   134
370
    30
100
AcDbVertex
100
AcDb2dVertex
 10
18.622395
 20
26.785246
 30
0.0
  0
VERTEX
  5
2A3
330
28F
100
AcDbEntity
  8
001
 62
   134
370
    30
100
AcDbVertex
100
AcDb2dVertex
 10
18.625687
 20
26.784844
 30
0.0
  0
SEQEND
  5
290
330
28F
100
AcDbEntity
  8
001
370
    30
  0
LINE
  5
2A4
330
1F
100
AcDbEntity
  8
001
 62
   134
370
    30
100
AcDbLine
 10
18.854522
 20
26.762981
 30
0.0
 11
18.625687
 21
26.784844
 31
0.0
  0
POLYLINE
  5
2A5
330
1F
100
AcDbEntity
  8
001
 62
   134
370
    30
100
AcDb2dPolyline
 66
     1
 10
0.0
 20
0.0
 30
0.0
  0
VERTEX
  5
2A7
330
2A5
100
AcDbEntity
  8
001
 62
   134
370
    30
100
AcDbVertex
100
AcDb2dVertex
 10
18.854522
 20
26.762981
 30
0.0
  0
VERTEX
  5
2A8
330
2A5
100
AcDbEntity
  8
001
 62
   134
370
    30
100
AcDbVertex
100
AcDb2dVertex
 10
18.878783
 20
26.728295
 30
0.0
  0
VERTEX
  5
2A9
330
2A5
100
AcDbEntity
  8
001
 62
   134
370
    30
100
AcDbVertex
100
AcDb2dVertex
 10
18.918377
 20
26.681066
 30
0.0
  0
VERTEX
  5
2AA
330
2A5
100
AcDbEntity
  8
001
 62
   134
370
    30
100
AcDbVertex
100
AcDb2dVertex
 10
18.963058
 20
26.639407
 30
0.0
  0
VERTEX
  5
2AB
330
2A5
100
AcDbEntity
  8
001
 62
   134
370
    30
100
AcDbVertex
100
AcDb2dVertex
 10
18.996136
 20
26.613601
 30
0.0
  0
SEQEND
  5
2A6
330
2A5
100
AcDbEntity
  8
001
370
    30
  0
LINE
  5
2AC
330
1F
100
AcDbEntity
  8
001
 62
   134
370
    30
100
AcDbLine
 10
19.015307
 20
26.373858
 30
0.0
 11
18.996136
 21
26.613601
 31
0.0
  0
POLYLINE
  5
2AD
330
1F
100
AcDbEntity
  8
001
 62
   134
370
    30
100
AcDb2dPolyline
 66
     1
 10
0.0
 20
0.0
 30
0.0
  0
VERTEX
  5
2AF
330
2AD
100
AcDbEntity
  8
001
 62
   134
370
    30
100
AcDbVertex
100
AcDb2dVertex
 10
19.110487
 20
26.282201
 30
0.0
  0
VERTEX
  5
2B0
330
2AD
100
AcDbEntity
  8
001
 62
   134
370
    30
100
AcDbVertex
100
AcDb2dVertex
 10
19.117484
 20
26.282573
 30
0.0
  0
VERTEX
  5
2B1
330
2AD
100
AcDbEntity
  8
001
 62
   134
370
    30
100
AcDbVertex
100
AcDb2dVertex
 10
19.127073
 20
26.28372
 30
0.0
  0
VERTEX
  5
2B2
330
2AD
100
AcDbEntity
  8
001
 62
   134
370
    30
100
AcDbVertex
100
AcDb2dVertex
 10
19.135606
 20
26.285659
 30
0.0
  0
VERTEX
  5
2B3
330
2AD
100
AcDbEntity
  8
001
 62
   134
370
    30
100
AcDbVertex
100
AcDb2dVertex
 10
19.143154
 20
26.288232
 30
0.0
  0
VERTEX
  5
2B4
330
2AD
100
AcDbEntity
  8
001
 62
   134
370
    30
100
AcDbVertex
100
AcDb2dVertex
 10
19.150636
 20
26.291395
 30
0.0
  0
VERTEX
  5
2B5
330
2AD
100
AcDbEntity
  8
001
 62
   134
370
    30
100
AcDbVertex
100
AcDb2dVertex
 10
19.158243
 20
26.295599
 30
0.0
  0
VERTEX
  5
2B6
330
2AD
100
AcDbEntity
  8
001
 62
   134
370
    30
100
AcDbVertex
100
AcDb2dVertex
 10
19.176715
 20
26.310967
 30
0.0
  0
VERTEX
  5
2B7
330
2AD
100
AcDbEntity
  8
001
 62
   134
370
    30
100
AcDbVertex
100
AcDb2dVertex
 10
19.188521
 20
26.324538
 30
0.0
  0
SEQEND
  5
2AE
330
2AD
100
AcDbEntity
  8
001
370
    30
  0
LINE
  5
2B8
330
1F
100
AcDbEntity
  8
001
 62
   134
370
    30
100
AcDbLine
 10
19.321024
 20
26.521094
 30
0.0
 11
19.188521
 21
26.324538
 31
0.0
  0
POLYLINE
  5
2B9
330
1F
100
AcDbEntity
  8
001
 62
   134
370
    30
100
AcDb2dPolyline
 66
     1
 10
0.0
 20
0.0
 30
0.0
  0
VERTEX
  5
2BB
330
2B9
100
AcDbEntity
  8
001
 62
   134
370
    30
100
AcDbVertex
100
AcDb2dVertex
 10
19.321024
 20
26.521094
 30
0.0
  0
VERTEX
  5
2BC
330
2B9
100
AcDbEntity
  8
001
 62
   134
370
    30
100
AcDbVertex
100
AcDb2dVertex
 10
19.345197
 20
26.523637
 30
0.0
  0
VERTEX
  5
2BD
330
2B9
100
AcDbEntity
  8
001
 62
   134
370
    30
100
AcDbVertex
100
AcDb2dVertex
 10
19.37825
 20
26.528267
 30
0.0
  0
VERTEX
  5
2BE
330
2B9
100
AcDbEntity
  8
001
 62
   134
370
    30
100
AcDbVertex
100
AcDb2dVertex
 10
19.422803
 20
26.537716
 30
0.0
  0
VERTEX
  5
2BF
330
2B9
100
AcDbEntity
  8
001
 62
   134
370
    30
100
AcDbVertex
100
AcDb2dVertex
 10
19.4659
 20
26.552856
 30
0.0
  0
VERTEX
  5
2C0
330
2B9
100
AcDbEntity
  8
001
 62
   134
370
    30
100
AcDbVertex
100
AcDb2dVertex
 10
19.494742
 20
26.565195
 30
0.0
  0
VERTEX
  5
2C1
330
2B9
100
AcDbEntity
  8
001
 62
   134
370
    30
100
AcDbVertex
100
AcDb2dVertex
 10
19.515391
 20
26.574807
 30
0.0
  0
SEQEND
  5
2BA
330
2B9
100
AcDbEntity
  8
001
370
    30
  0
LINE
  5
2C2
330
1F
100
AcDbEntity
  8
001
 62
   134
370
    30
100
AcDbLine
 10
19.723284
 20
26.472318
 30
0.0
 11
19.515391
 21
26.574807
 31
0.0
  0
POLYLINE
  5
2C3
330
1F
100
AcDbEntity
  8
001
 62
   134
370
    30
100
AcDb2dPolyline
 66
     1
 10
0.0
 20
0.0
 30
0.0
  0
VERTEX
  5
2C5
330
2C3
100
AcDbEntity
  8
001
 62
   134
370
    30
100
AcDbVertex
100
AcDb2dVertex
 10
19.763973
 20
26.462791
 30
0.0
  0
VERTEX
  5
2C6
330
2C3
100
AcDbEntity
  8
001
 62
   134
370
    30
100
AcDbVertex
100
AcDb2dVertex
 10
19.770976
 20
26.463171
 30
0.0
  0
VERTEX
  5
2C7
330
2C3
100
AcDbEntity
  8
001
 62
   134
370
    30
100
AcDbVertex
100
AcDb2dVertex
 10
19.780558
 20
26.46431
 30
0.0
  0
VERTEX
  5
2C8
330
2C3
100
AcDbEntity
  8
001
 62
   134
370
    30
100
AcDbVertex
100
AcDb2dVertex
 10
19.789062
 20
26.466203
 30
0.0
  0
VERTEX
  5
2C9
330
2C3
100
AcDbEntity
  8
001
 62
   134
370
    30
100
AcDbVertex
100
AcDb2dVertex
 10
19.79664
 20
26.468821
 30
0.0
  0
VERTEX
  5
2CA
330
2C3
100
AcDbEntity
  8
001
 62
   134
370
    30
100
AcDbVertex
100
AcDb2dVertex
 10
19.804239
 20
26.472157
 30
0.0
  0
VERTEX
  5
2CB
330
2C3
100
AcDbEntity
  8
001
 62
   134
370
    30
100
AcDbVertex
100
AcDb2dVertex
 10
19.811729
 20
26.476188
 30
0.0
  0
VERTEX
  5
2CC
330
2C3
100
AcDbEntity
  8
001
 62
   134
370
    30
100
AcDbVertex
100
AcDb2dVertex
 10
19.831642
 20
26.49222
 30
0.0
  0
VERTEX
  5
2CD
330
2C3
100
AcDbEntity
  8
001
 62
   134
370
    30
100
AcDbVertex
100
AcDb2dVertex
 10
19.846689
 20
26.512791
 30
0.0
  0
VERTEX
  5
2CE
330
2C3
100
AcDbEntity
  8
001
 62
   134
370
    30
100
AcDbVertex
100
AcDb2dVertex
 10
19.853768
 20
26.528599
 30
0.0
  0
VERTEX
  5
2CF
330
2C3
100
AcDbEntity
  8
001
 62
   134
370
    30
100
AcDbVertex
100
AcDb2dVertex
 10
19.858034
 20
26.545426
 30
0.0
  0
VERTEX
  5
2D0
330
2C3
100
AcDbEntity
  8
001
 62
   134
370
    30
100
AcDbVertex
100
AcDb2dVertex
 10
19.859087
 20
26.554162
 30
0.0
  0
VERTEX
  5
2D1
330
2C3
100
AcDbEntity
  8
001
 62
   134
370
    30
100
AcDbVertex
100
AcDb2dVertex
 10
19.859485
 20
26.562791
 30
0.0
  0
VERTEX
  5
2D2
330
2C3
100
AcDbEntity
  8
001
 62
   134
370
    30
100
AcDbVertex
100
AcDb2dVertex
 10
19.859246
 20
26.57122
 30
0.0
  0
VERTEX
  5
2D3
330
2C3
100
AcDbEntity
  8
001
 62
   134
370
    30
100
AcDbVertex
100
AcDb2dVertex
 10
19.858034
 20
26.580155
 30
0.0
  0
VERTEX
  5
2D4
330
2C3
100
AcDbEntity
  8
001
 62
   134
370
    30
100
AcDbVertex
100
AcDb2dVertex
 10
19.854331
 20
26.594459
 30
0.0
  0
VERTEX
  5
2D5
330
2C3
100
AcDbEntity
  8
001
 62
   134
370
    30
100
AcDbVertex
100
AcDb2dVertex
 10
19.850687
 20
26.604713
 30
0.0
  0
SEQEND
  5
2C4
330
2C3
100
AcDbEntity
  8
001
370
    30
  0
LINE
  5
2D6
330
1F
100
AcDbEntity
  8
001
 62
   134
370
    30
100
AcDbLine
 10
19.754354
 20
26.823133
 30
0.0
 11
19.850687
 21
26.604713
 31
0.0
  0
POLYLINE
  5
2D7
330
1F
100
AcDbEntity
  8
001
 62
   134
370
    30
100
AcDb2dPolyline
 66
     1
 10
0.0
 20
0.0
 30
0.0
  0
VERTEX
  5
2D9
330
2D7
100
AcDbEntity
  8
001
 62
   134
370
    30
100
AcDbVertex
100
AcDb2dVertex
 10
19.754354
 20
26.823133
 30
0.0
  0
VERTEX
  5
2DA
330
2D7
100
AcDbEntity
  8
001
 62
   134
370
    30
100
AcDbVertex
100
AcDb2dVertex
 10
19.777556
 20
26.88173
 30
0.0
  0
VERTEX
  5
2DB
330
2D7
100
AcDbEntity
  8
001
 62
   134
370
    30
100
AcDbVertex
100
AcDb2dVertex
 10
19.80052
 20
26.970376
 30
0.0
  0
VERTEX
  5
2DC
330
2D7
100
AcDbEntity
  8
001
 62
   134
370
    30
100
AcDbVertex
100
AcDb2dVertex
 10
19.805035
 20
27.003447
 30
0.0
  0
VERTEX
  5
2DD
330
2D7
100
AcDbEntity
  8
001
 62
   134
370
    30
100
AcDbVertex
100
AcDb2dVertex
 10
19.807109
 20
27.026226
 30
0.0
  0
SEQEND
  5
2D8
330
2D7
100
AcDbEntity
  8
001
370
    30
  0
LINE
  5
2DE
330
1F
100
AcDbEntity
  8
001
 62
   134
370
    30
100
AcDbLine
 10
19.99583
 20
27.16348
 30
0.0
 11
19.807109
 21
27.026226
 31
0.0
  0
POLYLINE
  5
2DF
330
1F
100
AcDbEntity
  8
001
 62
   134
370
    30
100
AcDb2dPolyline
 66
     1
 10
0.0
 20
0.0
 30
0.0
  0
VERTEX
  5
2E1
330
2DF
100
AcDbEntity
  8
001
 62
   134
370
    30
100
AcDbVertex
100
AcDb2dVertex
 10
19.99583
 20
27.16348
 30
0.0
  0
VERTEX
  5
2E2
330
2DF
100
AcDbEntity
  8
001
 62
   134
370
    30
100
AcDbVertex
100
AcDb2dVertex
 10
20.008986
 20
27.176029
 30
0.0
  0
VERTEX
  5
2E3
330
2DF
100
AcDbEntity
  8
001
 62
   134
370
    30
100
AcDbVertex
100
AcDb2dVertex
 10
20.024055
 20
27.195609
 30
0.0
  0
VERTEX
  5
2E4
330
2DF
100
AcDbEntity
  8
001
 62
   134
370
    30
100
AcDbVertex
100
AcDb2dVertex
 10
20.031605
 20
27.211825
 30
0.0
  0
VERTEX
  5
2E5
330
2DF
100
AcDbEntity
  8
001
 62
   134
370
    30
100
AcDbVertex
100
AcDb2dVertex
 10
20.0354
 20
27.228244
 30
0.0
  0
VERTEX
  5
2E6
330
2DF
100
AcDbEntity
  8
001
 62
   134
370
    30
100
AcDbVertex
100
AcDb2dVertex
 10
20.036439
 20
27.236864
 30
0.0
  0
VERTEX
  5
2E7
330
2DF
100
AcDbEntity
  8
001
 62
   134
370
    30
100
AcDbVertex
100
AcDb2dVertex
 10
20.036851
 20
27.245609
 30
0.0
  0
VERTEX
  5
2E8
330
2DF
100
AcDbEntity
  8
001
 62
   134
370
    30
100
AcDbVertex
100
AcDb2dVertex
 10
20.036504
 20
27.254329
 30
0.0
  0
VERTEX
  5
2E9
330
2DF
100
AcDbEntity
  8
001
 62
   134
370
    30
100
AcDbVertex
100
AcDb2dVertex
 10
20.0354
 20
27.262974
 30
0.0
  0
VERTEX
  5
2EA
330
2DF
100
AcDbEntity
  8
001
 62
   134
370
    30
100
AcDbVertex
100
AcDb2dVertex
 10
20.031095
 20
27.279741
 30
0.0
  0
VERTEX
  5
2EB
330
2DF
100
AcDbEntity
  8
001
 62
   134
370
    30
100
AcDbVertex
100
AcDb2dVertex
 10
20.024055
 20
27.295609
 30
0.0
  0
VERTEX
  5
2EC
330
2DF
100
AcDbEntity
  8
001
 62
   134
370
    30
100
AcDbVertex
100
AcDb2dVertex
 10
20.009054
 20
27.31619
 30
0.0
  0
VERTEX
  5
2ED
330
2DF
100
AcDbEntity
  8
001
 62
   134
370
    30
100
AcDbVertex
100
AcDb2dVertex
 10
19.989095
 20
27.332212
 30
0.0
  0
VERTEX
  5
2EE
330
2DF
100
AcDbEntity
  8
001
 62
   134
370
    30
100
AcDbVertex
100
AcDb2dVertex
 10
19.981571
 20
27.336255
 30
0.0
  0
VERTEX
  5
2EF
330
2DF
100
AcDbEntity
  8
001
 62
   134
370
    30
100
AcDbVertex
100
AcDb2dVertex
 10
19.974006
 20
27.339579
 30
0.0
  0
VERTEX
  5
2F0
330
2DF
100
AcDbEntity
  8
001
 62
   134
370
    30
100
AcDbVertex
100
AcDb2dVertex
 10
19.966537
 20
27.342153
 30
0.0
  0
VERTEX
  5
2F1
330
2DF
100
AcDbEntity
  8
001
 62
   134
370
    30
100
AcDbVertex
100
AcDb2dVertex
 10
19.957924
 20
27.34409
 30
0.0
  0
VERTEX
  5
2F2
330
2DF
100
AcDbEntity
  8
001
 62
   134
370
    30
100
AcDbVertex
100
AcDb2dVertex
 10
19.95331
 20
27.344794
 30
0.0
  0
VERTEX
  5
2F3
330
2DF
100
AcDbEntity
  8
001
 62
   134
370
    30
100
AcDbVertex
100
AcDb2dVertex
 10
19.950019
 20
27.345195
 30
0.0
  0
SEQEND
  5
2E0
330
2DF
100
AcDbEntity
  8
001
370
    30
  0
LINE
  5
2F4
330
1F
100
AcDbEntity
  8
001
 62
   134
370
    30
100
AcDbLine
 10
19.721183
 20
27.367059
 30
0.0
 11
19.950019
 21
27.345195
 31
0.0
  0
POLYLINE
  5
2F5
330
1F
100
AcDbEntity
  8
001
 62
   134
370
    30
100
AcDb2dPolyline
 66
     1
 10
0.0
 20
0.0
 30
0.0
  0
VERTEX
  5
2F7
330
2F5
100
AcDbEntity
  8
001
 62
   134
370
    30
100
AcDbVertex
100
AcDb2dVertex
 10
19.721183
 20
27.367059
 30
0.0
  0
VERTEX
  5
2F8
330
2F5
100
AcDbEntity
  8
001
 62
   134
370
    30
100
AcDbVertex
100
AcDb2dVertex
 10
19.696923
 20
27.401745
 30
0.0
  0
VERTEX
  5
2F9
330
2F5
100
AcDbEntity
  8
001
 62
   134
370
    30
100
AcDbVertex
100
AcDb2dVertex
 10
19.657329
 20
27.448974
 30
0.0
  0
VERTEX
  5
2FA
330
2F5
100
AcDbEntity
  8
001
 62
   134
370
    30
100
AcDbVertex
100
AcDb2dVertex
 10
19.612648
 20
27.490632
 30
0.0
  0
VERTEX
  5
2FB
330
2F5
100
AcDbEntity
  8
001
 62
   134
370
    30
100
AcDbVertex
100
AcDb2dVertex
 10
19.57957
 20
27.516438
 30
0.0
  0
SEQEND
  5
2F6
330
2F5
100
AcDbEntity
  8
001
370
    30
  0
LINE
  5
2FC
330
1F
100
AcDbEntity
  8
001
 62
   134
370
    30
100
AcDbLine
 10
19.560399
 20
27.756182
 30
0.0
 11
19.57957
 21
27.516438
 31
0.0
  0
POLYLINE
  5
2FD
330
1F
100
AcDbEntity
  8
001
 62
   134
370
    30
100
AcDb2dPolyline
 66
     1
 10
0.0
 20
0.0
 30
0.0
  0
VERTEX
  5
2FF
330
2FD
100
AcDbEntity
  8
001
 62
   134
370
    30
100
AcDbVertex
100
AcDb2dVertex
 10
19.465219
 20
27.847839
 30
0.0
  0
VERTEX
  5
300
330
2FD
100
AcDbEntity
  8
001
 62
   134
370
    30
100
AcDbVertex
100
AcDb2dVertex
 10
19.458222
 20
27.847467
 30
0.0
  0
VERTEX
  5
301
330
2FD
100
AcDbEntity
  8
001
 62
   134
370
    30
100
AcDbVertex
100
AcDb2dVertex
 10
19.448633
 20
27.846319
 30
0.0
  0
VERTEX
  5
302
330
2FD
100
AcDbEntity
  8
001
 62
   134
370
    30
100
AcDbVertex
100
AcDb2dVertex
 10
19.440099
 20
27.844381
 30
0.0
  0
VERTEX
  5
303
330
2FD
100
AcDbEntity
  8
001
 62
   134
370
    30
100
AcDbVertex
100
AcDb2dVertex
 10
19.432552
 20
27.841808
 30
0.0
  0
VERTEX
  5
304
330
2FD
100
AcDbEntity
  8
001
 62
   134
370
    30
100
AcDbVertex
100
AcDb2dVertex
 10
19.425069
 20
27.838645
 30
0.0
  0
VERTEX
  5
305
330
2FD
100
AcDbEntity
  8
001
 62
   134
370
    30
100
AcDbVertex
100
AcDb2dVertex
 10
19.417463
 20
27.834441
 30
0.0
  0
VERTEX
  5
306
330
2FD
100
AcDbEntity
  8
001
 62
   134
370
    30
100
AcDbVertex
100
AcDb2dVertex
 10
19.39899
 20
27.819073
 30
0.0
  0
VERTEX
  5
307
330
2FD
100
AcDbEntity
  8
001
 62
   134
370
    30
100
AcDbVertex
100
AcDb2dVertex
 10
19.387185
 20
27.805502
 30
0.0
  0
SEQEND
  5
2FE
330
2FD
100
AcDbEntity
  8
001
370
    30
  0
LINE
  5
308
330
1F
100
AcDbEntity
  8
001
 62
   134
370
    30
100
AcDbLine
 10
19.254682
 20
27.608946
 30
0.0
 11
19.387185
 21
27.805502
 31
0.0
  0
POLYLINE
  5
309
330
1F
100
AcDbEntity
  8
001
 62
   134
370
    30
100
AcDb2dPolyline
 66
     1
 10
0.0
 20
0.0
 30
0.0
  0
VERTEX
  5
30B
330
309
100
AcDbEntity
  8
001
 62
   134
370
    30
100
AcDbVertex
100
AcDb2dVertex
 10
19.254682
 20
27.608946
 30
0.0
  0
VERTEX
  5
30C
330
309
100
AcDbEntity
  8
001
 62
   134
370
    30
100
AcDbVertex
100
AcDb2dVertex
 10
19.230509
 20
27.606403
 30
0.0
  0
VERTEX
  5
30D
330
309
100
AcDbEntity
  8
001
 62
   134
370
    30
100
AcDbVertex
100
AcDb2dVertex
 10
19.197456
 20
27.601773
 30
0.0
  0
VERTEX
  5
30E
330
309
100
AcDbEntity
  8
001
 62
   134
370
    30
100
AcDbVertex
100
AcDb2dVertex
 10
19.152903
 20
27.592324
 30
0.0
  0
VERTEX
  5
30F
330
309
100
AcDbEntity
  8
001
 62
   134
370
    30
100
AcDbVertex
100
AcDb2dVertex
 10
19.109805
 20
27.577184
 30
0.0
  0
VERTEX
  5
310
330
309
100
AcDbEntity
  8
001
 62
   134
370
    30
100
AcDbVertex
100
AcDb2dVertex
 10
19.080964
 20
27.564845
 30
0.0
  0
VERTEX
  5
311
330
309
100
AcDbEntity
  8
001
 62
   134
370
    30
100
AcDbVertex
100
AcDb2dVertex
 10
19.060314
 20
27.555233
 30
0.0
  0
SEQEND
  5
30A
330
309
100
AcDbEntity
  8
001
370
    30
  0
POLYLINE
  5
312
330
1F
100
AcDbEntity
  8
001
 62
   134
370
    30
100
AcDb2dPolyline
 66
     1
 10
0.0
 20
0.0
 30
0.0
  0
VERTEX
  5
314
330
312
100
AcDbEntity
  8
001
 62
   134
370
    30
100
AcDbVertex
100
AcDb2dVertex
 10
19.560755
 20
28.288793
 30
0.0
  0
VERTEX
  5
315
330
312
100
AcDbEntity
  8
001
 62
   134
370
    30
100
AcDbVertex
100
AcDb2dVertex
 10
19.546169
 20
28.29186
 30
0.0
  0
VERTEX
  5
316
330
312
100
AcDbEntity
  8
001
 62
   134
370
    30
100
AcDbVertex
100
AcDb2dVertex
 10
19.524792
 20
28.29603
 30
0.0
  0
VERTEX
  5
317
330
312
100
AcDbEntity
  8
001
 62
   134
370
    30
100
AcDbVertex
100
AcDb2dVertex
 10
19.402165
 20
28.311427
 30
0.0
  0
VERTEX
  5
318
330
312
100
AcDbEntity
  8
001
 62
   134
370
    30
100
AcDbVertex
100
AcDb2dVertex
 10
19.317473
 20
28.31502
 30
0.0
  0
SEQEND
  5
313
330
312
100
AcDbEntity
  8
001
370
    30
  0
POLYLINE
  5
319
330
1F
100
AcDbEntity
  8
001
 62
   134
370
    30
100
AcDb2dPolyline
 66
     1
 10
0.0
 20
0.0
 30
0.0
  0
VERTEX
  5
31B
330
319
100
AcDbEntity
  8
001
 62
   134
370
    30
100
AcDbVertex
100
AcDb2dVertex
 10
19.076729
 20
25.840696
 30
0.0
  0
VERTEX
  5
31C
330
319
100
AcDbEntity
  8
001
 62
   134
370
    30
100
AcDbVertex
100
AcDb2dVertex
 10
19.090288
 20
25.837871
 30
0.0
  0
VERTEX
  5
31D
330
319
100
AcDbEntity
  8
001
 62
   134
370
    30
100
AcDbVertex
100
AcDb2dVertex
 10
19.110153
 20
25.83401
 30
0.0
  0
VERTEX
  5
31E
330
319
100
AcDbEntity
  8
001
 62
   134
370
    30
100
AcDbVertex
100
AcDb2dVertex
 10
19.232782
 20
25.818613
 30
0.0
  0
VERTEX
  5
31F
330
319
100
AcDbEntity
  8
001
 62
   134
370
    30
100
AcDbVertex
100
AcDb2dVertex
 10
19.317473
 20
25.81502
 30
0.0
  0
SEQEND
  5
31A
330
319
100
AcDbEntity
  8
001
370
    30
  0
LINE
  5
320
330
1F
100
AcDbEntity
  8
001
 62
   134
370
    30
100
AcDbLine
 10
19.455793
 20
28.31502
 30
0.0
 11
19.317473
 21
28.31502
 31
0.0
  0
LINE
  5
321
330
1F
100
AcDbEntity
  8
001
 62
   134
370
    30
100
AcDbLine
 10
19.317473
 20
25.81502
 30
0.0
 11
19.455794
 21
25.81502
 31
0.0
  0
POLYLINE
  5
322
330
1F
100
AcDbEntity
  8
001
 62
   134
370
    30
100
AcDb2dPolyline
 66
     1
 10
0.0
 20
0.0
 30
0.0
  0
VERTEX
  5
324
330
322
100
AcDbEntity
  8
001
 62
   134
370
    30
100
AcDbVertex
100
AcDb2dVertex
 10
19.723284
 20
26.472318
 30
0.0
  0
VERTEX
  5
325
330
322
100
AcDbEntity
  8
001
 62
   134
370
    30
100
AcDbVertex
100
AcDb2dVertex
 10
19.726619
 20
26.470801
 30
0.0
  0
VERTEX
  5
326
330
322
100
AcDbEntity
  8
001
 62
   134
370
    30
100
AcDbVertex
100
AcDb2dVertex
 10
19.731306
 20
26.468821
 30
0.0
  0
VERTEX
  5
327
330
322
100
AcDbEntity
  8
001
 62
   134
370
    30
100
AcDbVertex
100
AcDb2dVertex
 10
19.739323
 20
26.466004
 30
0.0
  0
VERTEX
  5
328
330
322
100
AcDbEntity
  8
001
 62
   134
370
    30
100
AcDbVertex
100
AcDb2dVertex
 10
19.747387
 20
26.46431
 30
0.0
  0
VERTEX
  5
329
330
322
100
AcDbEntity
  8
001
 62
   134
370
    30
100
AcDbVertex
100
AcDb2dVertex
 10
19.756883
 20
26.463211
 30
0.0
  0
VERTEX
  5
32A
330
322
100
AcDbEntity
  8
001
 62
   134
370
    30
100
AcDbVertex
100
AcDb2dVertex
 10
19.763973
 20
26.462791
 30
0.0
  0
SEQEND
  5
323
330
322
100
AcDbEntity
  8
001
370
    30
  0
LINE
  5
32B
330
1F
100
AcDbEntity
  8
001
 62
   134
370
    30
100
AcDbLine
 10
19.515391
 20
26.574807
 30
0.0
 11
19.683332
 21
26.574807
 31
0.0
  0
LINE
  5
32C
330
1F
100
AcDbEntity
  8
001
 62
   134
370
    30
100
AcDbLine
 10
19.683332
 20
26.574807
 30
0.0
 11
19.837409
 21
26.498849
 31
0.0
  0
POLYLINE
  5
32D
330
1F
100
AcDbEntity
  8
001
 62
   134
370
    30
100
AcDb2dPolyline
 66
     1
 10
0.0
 20
0.0
 30
0.0
  0
VERTEX
  5
32F
330
32D
100
AcDbEntity
  8
001
 62
   134
370
    30
100
AcDbVertex
100
AcDb2dVertex
 10
19.560399
 20
27.756182
 30
0.0
  0
VERTEX
  5
330
330
32D
100
AcDbEntity
  8
001
 62
   134
370
    30
100
AcDbVertex
100
AcDb2dVertex
 10
19.560002
 20
27.759906
 30
0.0
  0
VERTEX
  5
331
330
32D
100
AcDbEntity
  8
001
 62
   134
370
    30
100
AcDbVertex
100
AcDb2dVertex
 10
19.55928
 20
27.765203
 30
0.0
  0
VERTEX
  5
332
330
32D
100
AcDbEntity
  8
001
 62
   134
370
    30
100
AcDbVertex
100
AcDb2dVertex
 10
19.554899
 20
27.783119
 30
0.0
  0
VERTEX
  5
333
330
32D
100
AcDbEntity
  8
001
 62
   134
370
    30
100
AcDbVertex
100
AcDb2dVertex
 10
19.547935
 20
27.797839
 30
0.0
  0
VERTEX
  5
334
330
32D
100
AcDbEntity
  8
001
 62
   134
370
    30
100
AcDbVertex
100
AcDb2dVertex
 10
19.532932
 20
27.817984
 30
0.0
  0
VERTEX
  5
335
330
32D
100
AcDbEntity
  8
001
 62
   134
370
    30
100
AcDbVertex
100
AcDb2dVertex
 10
19.512975
 20
27.834441
 30
0.0
  0
VERTEX
  5
336
330
32D
100
AcDbEntity
  8
001
 62
   134
370
    30
100
AcDbVertex
100
AcDb2dVertex
 10
19.505482
 20
27.838494
 30
0.0
  0
VERTEX
  5
337
330
32D
100
AcDbEntity
  8
001
 62
   134
370
    30
100
AcDbVertex
100
AcDb2dVertex
 10
19.497886
 20
27.841808
 30
0.0
  0
VERTEX
  5
338
330
32D
100
AcDbEntity
  8
001
 62
   134
370
    30
100
AcDbVertex
100
AcDb2dVertex
 10
19.490309
 20
27.844421
 30
0.0
  0
VERTEX
  5
339
330
32D
100
AcDbEntity
  8
001
 62
   134
370
    30
100
AcDbVertex
100
AcDb2dVertex
 10
19.481804
 20
27.846319
 30
0.0
  0
VERTEX
  5
33A
330
32D
100
AcDbEntity
  8
001
 62
   134
370
    30
100
AcDbVertex
100
AcDb2dVertex
 10
19.472221
 20
27.847459
 30
0.0
  0
VERTEX
  5
33B
330
32D
100
AcDbEntity
  8
001
 62
   134
370
    30
100
AcDbVertex
100
AcDb2dVertex
 10
19.465219
 20
27.847839
 30
0.0
  0
SEQEND
  5
32E
330
32D
100
AcDbEntity
  8
001
370
    30
  0
LINE
  5
33C
330
1F
100
AcDbEntity
  8
001
 62
   134
370
    30
100
AcDbLine
 10
19.254682
 20
27.608946
 30
0.0
 11
19.422623
 21
27.608946
 31
0.0
  0
LINE
  5
33D
330
1F
100
AcDbEntity
  8
001
 62
   134
370
    30
100
AcDbLine
 10
19.548835
 20
27.796171
 30
0.0
 11
19.422623
 21
27.608946
 31
0.0
  0
POLYLINE
  5
33E
330
1F
100
AcDbEntity
  8
001
 62
   134
370
    30
100
AcDb2dPolyline
 66
     1
 10
0.0
 20
0.0
 30
0.0
  0
VERTEX
  5
340
330
33E
100
AcDbEntity
  8
001
 62
   134
370
    30
100
AcDbVertex
100
AcDb2dVertex
 10
19.422623
 20
27.608946
 30
0.0
  0
VERTEX
  5
341
330
33E
100
AcDbEntity
  8
001
 62
   134
370
    30
100
AcDbVertex
100
AcDb2dVertex
 10
19.39845
 20
27.606403
 30
0.0
  0
VERTEX
  5
342
330
33E
100
AcDbEntity
  8
001
 62
   134
370
    30
100
AcDbVertex
100
AcDb2dVertex
 10
19.365396
 20
27.601773
 30
0.0
  0
VERTEX
  5
343
330
33E
100
AcDbEntity
  8
001
 62
   134
370
    30
100
AcDbVertex
100
AcDb2dVertex
 10
19.320844
 20
27.592324
 30
0.0
  0
VERTEX
  5
344
330
33E
100
AcDbEntity
  8
001
 62
   134
370
    30
100
AcDbVertex
100
AcDb2dVertex
 10
19.277746
 20
27.577184
 30
0.0
  0
VERTEX
  5
345
330
33E
100
AcDbEntity
  8
001
 62
   134
370
    30
100
AcDbVertex
100
AcDb2dVertex
 10
19.248905
 20
27.564845
 30
0.0
  0
VERTEX
  5
346
330
33E
100
AcDbEntity
  8
001
 62
   134
370
    30
100
AcDbVertex
100
AcDb2dVertex
 10
19.228255
 20
27.555233
 30
0.0
  0
SEQEND
  5
33F
330
33E
100
AcDbEntity
  8
001
370
    30
  0
LINE
  5
347
330
1F
100
AcDbEntity
  8
001
 62
   134
370
    30
100
AcDbLine
 10
19.060314
 20
27.555233
 30
0.0
 11
19.228255
 21
27.555233
 31
0.0
  0
POLYLINE
  5
348
330
1F
100
AcDbEntity
  8
001
 62
   134
370
    30
100
AcDb2dPolyline
 66
     1
 10
0.0
 20
0.0
 30
0.0
  0
VERTEX
  5
34A
330
348
100
AcDbEntity
  8
001
 62
   134
370
    30
100
AcDbVertex
100
AcDb2dVertex
 10
19.015307
 20
26.373858
 30
0.0
  0
VERTEX
  5
34B
330
348
100
AcDbEntity
  8
001
 62
   134
370
    30
100
AcDbVertex
100
AcDb2dVertex
 10
19.015704
 20
26.370134
 30
0.0
  0
VERTEX
  5
34C
330
348
100
AcDbEntity
  8
001
 62
   134
370
    30
100
AcDbVertex
100
AcDb2dVertex
 10
19.016425
 20
26.364836
 30
0.0
  0
VERTEX
  5
34D
330
348
100
AcDbEntity
  8
001
 62
   134
370
    30
100
AcDbVertex
100
AcDb2dVertex
 10
19.020807
 20
26.346921
 30
0.0
  0
VERTEX
  5
34E
330
348
100
AcDbEntity
  8
001
 62
   134
370
    30
100
AcDbVertex
100
AcDb2dVertex
 10
19.027771
 20
26.332201
 30
0.0
  0
VERTEX
  5
34F
330
348
100
AcDbEntity
  8
001
 62
   134
370
    30
100
AcDbVertex
100
AcDb2dVertex
 10
19.042773
 20
26.312056
 30
0.0
  0
VERTEX
  5
350
330
348
100
AcDbEntity
  8
001
 62
   134
370
    30
100
AcDbVertex
100
AcDb2dVertex
 10
19.062731
 20
26.295599
 30
0.0
  0
VERTEX
  5
351
330
348
100
AcDbEntity
  8
001
 62
   134
370
    30
100
AcDbVertex
100
AcDb2dVertex
 10
19.070223
 20
26.291546
 30
0.0
  0
VERTEX
  5
352
330
348
100
AcDbEntity
  8
001
 62
   134
370
    30
100
AcDbVertex
100
AcDb2dVertex
 10
19.07782
 20
26.288232
 30
0.0
  0
VERTEX
  5
353
330
348
100
AcDbEntity
  8
001
 62
   134
370
    30
100
AcDbVertex
100
AcDb2dVertex
 10
19.085397
 20
26.285619
 30
0.0
  0
VERTEX
  5
354
330
348
100
AcDbEntity
  8
001
 62
   134
370
    30
100
AcDbVertex
100
AcDb2dVertex
 10
19.093901
 20
26.28372
 30
0.0
  0
VERTEX
  5
355
330
348
100
AcDbEntity
  8
001
 62
   134
370
    30
100
AcDbVertex
100
AcDb2dVertex
 10
19.103484
 20
26.282581
 30
0.0
  0
VERTEX
  5
356
330
348
100
AcDbEntity
  8
001
 62
   134
370
    30
100
AcDbVertex
100
AcDb2dVertex
 10
19.110487
 20
26.282201
 30
0.0
  0
SEQEND
  5
349
330
348
100
AcDbEntity
  8
001
370
    30
  0
POLYLINE
  5
357
330
1F
100
AcDbEntity
  8
001
 62
   134
370
    30
100
AcDb2dPolyline
 66
     1
 10
0.0
 20
0.0
 30
0.0
  0
VERTEX
  5
359
330
357
100
AcDbEntity
  8
001
 62
   134
370
    30
100
AcDbVertex
100
AcDb2dVertex
 10
19.183248
 20
26.373858
 30
0.0
  0
VERTEX
  5
35A
330
357
100
AcDbEntity
  8
001
 62
   134
370
    30
100
AcDbVertex
100
AcDb2dVertex
 10
19.183616
 20
26.37018
 30
0.0
  0
VERTEX
  5
35B
330
357
100
AcDbEntity
  8
001
 62
   134
370
    30
100
AcDbVertex
100
AcDb2dVertex
 10
19.184366
 20
26.364836
 30
0.0
  0
VERTEX
  5
35C
330
357
100
AcDbEntity
  8
001
 62
   134
370
    30
100
AcDbVertex
100
AcDb2dVertex
 10
19.189485
 20
26.346131
 30
0.0
  0
VERTEX
  5
35D
330
357
100
AcDbEntity
  8
001
 62
   134
370
    30
100
AcDbVertex
100
AcDb2dVertex
 10
19.194812
 20
26.333869
 30
0.0
  0
SEQEND
  5
358
330
357
100
AcDbEntity
  8
001
370
    30
  0
LINE
  5
35E
330
1F
100
AcDbEntity
  8
001
 62
   134
370
    30
100
AcDbLine
 10
18.996136
 20
26.613601
 30
0.0
 11
19.164077
 21
26.613601
 31
0.0
  0
LINE
  5
35F
330
1F
100
AcDbEntity
  8
001
 62
   134
370
    30
100
AcDbLine
 10
19.164077
 20
26.613601
 30
0.0
 11
19.183248
 21
26.373858
 31
0.0
  0
LINE
  5
360
330
1F
100
AcDbEntity
  8
001
 62
   134
370
    30
100
AcDbLine
 10
18.854522
 20
26.762981
 30
0.0
 11
19.022463
 21
26.762981
 31
0.0
  0
POLYLINE
  5
361
330
1F
100
AcDbEntity
  8
001
 62
   134
370
    30
100
AcDb2dPolyline
 66
     1
 10
0.0
 20
0.0
 30
0.0
  0
VERTEX
  5
363
330
361
100
AcDbEntity
  8
001
 62
   134
370
    30
100
AcDbVertex
100
AcDb2dVertex
 10
19.022463
 20
26.762981
 30
0.0
  0
VERTEX
  5
364
330
361
100
AcDbEntity
  8
001
 62
   134
370
    30
100
AcDbVertex
100
AcDb2dVertex
 10
19.046723
 20
26.728295
 30
0.0
  0
VERTEX
  5
365
330
361
100
AcDbEntity
  8
001
 62
   134
370
    30
100
AcDbVertex
100
AcDb2dVertex
 10
19.086317
 20
26.681066
 30
0.0
  0
VERTEX
  5
366
330
361
100
AcDbEntity
  8
001
 62
   134
370
    30
100
AcDbVertex
100
AcDb2dVertex
 10
19.130998
 20
26.639407
 30
0.0
  0
VERTEX
  5
367
330
361
100
AcDbEntity
  8
001
 62
   134
370
    30
100
AcDbVertex
100
AcDb2dVertex
 10
19.164077
 20
26.613601
 30
0.0
  0
SEQEND
  5
362
330
361
100
AcDbEntity
  8
001
370
    30
  0
LINE
  5
368
330
1F
100
AcDbEntity
  8
001
 62
   134
370
    30
100
AcDbLine
 10
18.793628
 20
26.784844
 30
0.0
 11
19.022463
 21
26.762981
 31
0.0
  0
POLYLINE
  5
369
330
1F
100
AcDbEntity
  8
001
 62
   134
370
    30
100
AcDb2dPolyline
 66
     1
 10
0.0
 20
0.0
 30
0.0
  0
VERTEX
  5
36B
330
369
100
AcDbEntity
  8
001
 62
   134
370
    30
100
AcDbVertex
100
AcDb2dVertex
 10
18.906238
 20
27.631191
 30
0.0
  0
VERTEX
  5
36C
330
369
100
AcDbEntity
  8
001
 62
   134
370
    30
100
AcDbVertex
100
AcDb2dVertex
 10
18.902187
 20
27.625521
 30
0.0
  0
VERTEX
  5
36D
330
369
100
AcDbEntity
  8
001
 62
   134
370
    30
100
AcDbVertex
100
AcDb2dVertex
 10
18.896957
 20
27.617249
 30
0.0
  0
VERTEX
  5
36E
330
369
100
AcDbEntity
  8
001
 62
   134
370
    30
100
AcDbVertex
100
AcDb2dVertex
 10
18.889343
 20
27.600761
 30
0.0
  0
VERTEX
  5
36F
330
369
100
AcDbEntity
  8
001
 62
   134
370
    30
100
AcDbVertex
100
AcDb2dVertex
 10
18.885612
 20
27.584614
 30
0.0
  0
VERTEX
  5
370
330
369
100
AcDbEntity
  8
001
 62
   134
370
    30
100
AcDbVertex
100
AcDb2dVertex
 10
18.884613
 20
27.575946
 30
0.0
  0
VERTEX
  5
371
330
369
100
AcDbEntity
  8
001
 62
   134
370
    30
100
AcDbVertex
100
AcDb2dVertex
 10
18.884161
 20
27.567249
 30
0.0
  0
VERTEX
  5
372
330
369
100
AcDbEntity
  8
001
 62
   134
370
    30
100
AcDbVertex
100
AcDb2dVertex
 10
18.884385
 20
27.558801
 30
0.0
  0
VERTEX
  5
373
330
369
100
AcDbEntity
  8
001
 62
   134
370
    30
100
AcDbVertex
100
AcDb2dVertex
 10
18.885612
 20
27.549884
 30
0.0
  0
VERTEX
  5
374
330
369
100
AcDbEntity
  8
001
 62
   134
370
    30
100
AcDbVertex
100
AcDb2dVertex
 10
18.889321
 20
27.535588
 30
0.0
  0
VERTEX
  5
375
330
369
100
AcDbEntity
  8
001
 62
   134
370
    30
100
AcDbVertex
100
AcDb2dVertex
 10
18.89296
 20
27.525327
 30
0.0
  0
SEQEND
  5
36A
330
369
100
AcDbEntity
  8
001
370
    30
  0
POLYLINE
  5
376
330
1F
100
AcDbEntity
  8
001
 62
   134
370
    30
100
AcDb2dPolyline
 66
     1
 10
0.0
 20
0.0
 30
0.0
  0
VERTEX
  5
378
330
376
100
AcDbEntity
  8
001
 62
   134
370
    30
100
AcDbVertex
100
AcDb2dVertex
 10
18.852422
 20
27.657721
 30
0.0
  0
VERTEX
  5
379
330
376
100
AcDbEntity
  8
001
 62
   134
370
    30
100
AcDbVertex
100
AcDb2dVertex
 10
18.849087
 20
27.659239
 30
0.0
  0
VERTEX
  5
37A
330
376
100
AcDbEntity
  8
001
 62
   134
370
    30
100
AcDbVertex
100
AcDb2dVertex
 10
18.8444
 20
27.661219
 30
0.0
  0
VERTEX
  5
37B
330
376
100
AcDbEntity
  8
001
 62
   134
370
    30
100
AcDbVertex
100
AcDb2dVertex
 10
18.836383
 20
27.664036
 30
0.0
  0
VERTEX
  5
37C
330
376
100
AcDbEntity
  8
001
 62
   134
370
    30
100
AcDbVertex
100
AcDb2dVertex
 10
18.828319
 20
27.66573
 30
0.0
  0
VERTEX
  5
37D
330
376
100
AcDbEntity
  8
001
 62
   134
370
    30
100
AcDbVertex
100
AcDb2dVertex
 10
18.818823
 20
27.666829
 30
0.0
  0
VERTEX
  5
37E
330
376
100
AcDbEntity
  8
001
 62
   134
370
    30
100
AcDbVertex
100
AcDb2dVertex
 10
18.811733
 20
27.667249
 30
0.0
  0
SEQEND
  5
377
330
376
100
AcDbEntity
  8
001
370
    30
  0
LINE
  5
37F
330
1F
100
AcDbEntity
  8
001
 62
   134
370
    30
100
AcDbLine
 10
18.821352
 20
27.306907
 30
0.0
 11
18.989292
 21
27.306907
 31
0.0
  0
POLYLINE
  5
380
330
1F
100
AcDbEntity
  8
001
 62
   134
370
    30
100
AcDb2dPolyline
 66
     1
 10
0.0
 20
0.0
 30
0.0
  0
VERTEX
  5
382
330
380
100
AcDbEntity
  8
001
 62
   134
370
    30
100
AcDbVertex
100
AcDb2dVertex
 10
18.989292
 20
27.306907
 30
0.0
  0
VERTEX
  5
383
330
380
100
AcDbEntity
  8
001
 62
   134
370
    30
100
AcDbVertex
100
AcDb2dVertex
 10
18.966091
 20
27.24831
 30
0.0
  0
VERTEX
  5
384
330
380
100
AcDbEntity
  8
001
 62
   134
370
    30
100
AcDbVertex
100
AcDb2dVertex
 10
18.943126
 20
27.159664
 30
0.0
  0
VERTEX
  5
385
330
380
100
AcDbEntity
  8
001
 62
   134
370
    30
100
AcDbVertex
100
AcDb2dVertex
 10
18.938611
 20
27.126593
 30
0.0
  0
VERTEX
  5
386
330
380
100
AcDbEntity
  8
001
 62
   134
370
    30
100
AcDbVertex
100
AcDb2dVertex
 10
18.936538
 20
27.103814
 30
0.0
  0
SEQEND
  5
381
330
380
100
AcDbEntity
  8
001
370
    30
  0
LINE
  5
387
330
1F
100
AcDbEntity
  8
001
 62
   134
370
    30
100
AcDbLine
 10
18.768597
 20
27.103814
 30
0.0
 11
18.936538
 21
27.103814
 31
0.0
  0
LINE
  5
388
330
1F
100
AcDbEntity
  8
001
 62
   134
370
    30
100
AcDbLine
 10
18.89296
 20
27.525327
 30
0.0
 11
18.989292
 21
27.306907
 31
0.0
  0
LINE
  5
389
330
1F
100
AcDbEntity
  8
001
 62
   134
370
    30
100
AcDbLine
 10
18.936538
 20
27.103814
 30
0.0
 11
18.747817
 21
26.96656
 31
0.0
  0
POLYLINE
  5
38A
330
1F
100
AcDbEntity
  8
001
 62
   134
370
    30
100
AcDb2dPolyline
 66
     1
 10
0.0
 20
0.0
 30
0.0
  0
VERTEX
  5
38C
330
38A
100
AcDbEntity
  8
001
 62
   134
370
    30
100
AcDbVertex
100
AcDb2dVertex
 10
18.747817
 20
26.96656
 30
0.0
  0
VERTEX
  5
38D
330
38A
100
AcDbEntity
  8
001
 62
   134
370
    30
100
AcDbVertex
100
AcDb2dVertex
 10
18.734661
 20
26.954011
 30
0.0
  0
VERTEX
  5
38E
330
38A
100
AcDbEntity
  8
001
 62
   134
370
    30
100
AcDbVertex
100
AcDb2dVertex
 10
18.719591
 20
26.934431
 30
0.0
  0
VERTEX
  5
38F
330
38A
100
AcDbEntity
  8
001
 62
   134
370
    30
100
AcDbVertex
100
AcDb2dVertex
 10
18.712042
 20
26.918214
 30
0.0
  0
VERTEX
  5
390
330
38A
100
AcDbEntity
  8
001
 62
   134
370
    30
100
AcDbVertex
100
AcDb2dVertex
 10
18.708246
 20
26.901795
 30
0.0
  0
VERTEX
  5
391
330
38A
100
AcDbEntity
  8
001
 62
   134
370
    30
100
AcDbVertex
100
AcDb2dVertex
 10
18.707207
 20
26.893176
 30
0.0
  0
VERTEX
  5
392
330
38A
100
AcDbEntity
  8
001
 62
   134
370
    30
100
AcDbVertex
100
AcDb2dVertex
 10
18.706795
 20
26.884431
 30
0.0
  0
VERTEX
  5
393
330
38A
100
AcDbEntity
  8
001
 62
   134
370
    30
100
AcDbVertex
100
AcDb2dVertex
 10
18.707143
 20
26.87571
 30
0.0
  0
VERTEX
  5
394
330
38A
100
AcDbEntity
  8
001
 62
   134
370
    30
100
AcDbVertex
100
AcDb2dVertex
 10
18.708246
 20
26.867066
 30
0.0
  0
VERTEX
  5
395
330
38A
100
AcDbEntity
  8
001
 62
   134
370
    30
100
AcDbVertex
100
AcDb2dVertex
 10
18.712551
 20
26.850299
 30
0.0
  0
VERTEX
  5
396
330
38A
100
AcDbEntity
  8
001
 62
   134
370
    30
100
AcDbVertex
100
AcDb2dVertex
 10
18.719591
 20
26.834431
 30
0.0
  0
VERTEX
  5
397
330
38A
100
AcDbEntity
  8
001
 62
   134
370
    30
100
AcDbVertex
100
AcDb2dVertex
 10
18.734592
 20
26.81385
 30
0.0
  0
VERTEX
  5
398
330
38A
100
AcDbEntity
  8
001
 62
   134
370
    30
100
AcDbVertex
100
AcDb2dVertex
 10
18.754551
 20
26.797828
 30
0.0
  0
VERTEX
  5
399
330
38A
100
AcDbEntity
  8
001
 62
   134
370
    30
100
AcDbVertex
100
AcDb2dVertex
 10
18.762075
 20
26.793785
 30
0.0
  0
VERTEX
  5
39A
330
38A
100
AcDbEntity
  8
001
 62
   134
370
    30
100
AcDbVertex
100
AcDb2dVertex
 10
18.76964
 20
26.790461
 30
0.0
  0
VERTEX
  5
39B
330
38A
100
AcDbEntity
  8
001
 62
   134
370
    30
100
AcDbVertex
100
AcDb2dVertex
 10
18.77711
 20
26.787887
 30
0.0
  0
VERTEX
  5
39C
330
38A
100
AcDbEntity
  8
001
 62
   134
370
    30
100
AcDbVertex
100
AcDb2dVertex
 10
18.785722
 20
26.78595
 30
0.0
  0
VERTEX
  5
39D
330
38A
100
AcDbEntity
  8
001
 62
   134
370
    30
100
AcDbVertex
100
AcDb2dVertex
 10
18.790336
 20
26.785246
 30
0.0
  0
VERTEX
  5
39E
330
38A
100
AcDbEntity
  8
001
 62
   134
370
    30
100
AcDbVertex
100
AcDb2dVertex
 10
18.793628
 20
26.784844
 30
0.0
  0
SEQEND
  5
38B
330
38A
100
AcDbEntity
  8
001
370
    30
  0
LINE
  5
39F
330
1F
100
AcDbEntity
  8
001
  6
CENTER
 62
   253
370
     9
100
AcDbLine
 10
15.302531
 20
28.303087
 30
0.0
 11
99.925456
 21
28.303087
 31
0.0
  0
LINE
  5
3A0
330
1F
100
AcDbEntity
  8
001
370
    50
100
AcDbLine
 10
98.383618
 20
28.303087
 30
0.0
 11
100.080582
 21
29.282829
 31
0.0
  0
LINE
  5
3A1
330
1F
100
AcDbEntity
  8
001
370
    50
100
AcDbLine
 10
98.383618
 20
28.303087
 30
0.0
 11
100.080582
 21
27.323345
 31
0.0
  0
LINE
  5
3A2
330
1F
100
AcDbEntity
  8
001
 62
   253
370
     9
100
AcDbLine
 10
16.383618
 20
25.473334
 30
0.0
 11
16.383618
 21
28.303087
 31
0.0
  0
TEXT
  5
3A3
330
1F
100
AcDbEntity
  8
001
370
    30
100
AcDbText
 10
16.298807
 20
44.89281
 30
0.0
 40
4.0
  1
モミメンｎａｎｏ　ＳＣＮ０８３０Ｅ
 41
0.833333
100
AcDbText
  0
ARC
  5
3A4
330
1F
100
AcDbEntity
  8
001
370
    50
100
AcDbCircle
 10
16.583618
 20
28.103087
 30
0.0
 40
0.2
100
AcDbArc
 50
105.851604
 51
210.0
  0
POLYLINE
  5
3A5
330
1F
100
AcDbEntity
  8
001
 62
     2
370
    50
100
AcDb2dPolyline
 66
     1
 10
0.0
 20
0.0
 30
0.0
  0
VERTEX
  5
3A7
330
3A5
100
AcDbEntity
  8
001
 62
     2
370
    50
100
AcDbVertex
100
AcDb2dVertex
 10
16.883618
 20
28.397627
 30
0.0
  0
VERTEX
  5
3A8
330
3A5
100
AcDbEntity
  8
001
 62
     2
370
    50
100
AcDbVertex
100
AcDb2dVertex
 10
16.9738
 20
28.424104
 30
0.0
  0
VERTEX
  5
3A9
330
3A5
100
AcDbEntity
  8
001
 62
     2
370
    50
100
AcDbVertex
100
AcDb2dVertex
 10
17.105435
 20
28.463368
 30
0.0
  0
VERTEX
  5
3AA
330
3A5
100
AcDbEntity
  8
001
 62
     2
370
    50
100
AcDbVertex
100
AcDb2dVertex
 10
17.225311
 20
28.499885
 30
0.0
  0
VERTEX
  5
3AB
330
3A5
100
AcDbEntity
  8
001
 62
     2
370
    50
100
AcDbVertex
100
AcDb2dVertex
 10
17.30723
 20
28.525204
 30
0.0
  0
SEQEND
  5
3A6
330
3A5
100
AcDbEntity
  8
001
370
    50
  0
LINE
  5
3AC
330
1F
100
AcDbEntity
  8
001
370
    50
100
AcDbLine
 10
16.883618
 20
28.397627
 30
0.0
 11
16.528989
 21
28.295482
 31
0.0
  0
ARC
  5
3AD
330
1F
100
AcDbEntity
  8
001
370
    50
100
AcDbCircle
 10
21.695933
 20
25.966609
 30
0.0
 40
0.3128692992929092
100
AcDbArc
 50
289.206406
 51
30.405774
  0
POLYLINE
  5
3AE
330
1F
100
AcDbEntity
  8
001
 62
     2
370
    50
100
AcDb2dPolyline
 66
     1
 10
0.0
 20
0.0
 30
0.0
  0
VERTEX
  5
3B0
330
3AE
100
AcDbEntity
  8
001
 62
     2
370
    50
100
AcDbVertex
100
AcDb2dVertex
 10
21.216678
 20
25.479799
 30
0.0
  0
VERTEX
  5
3B1
330
3AE
100
AcDbEntity
  8
001
 62
     2
370
    50
100
AcDbVertex
100
AcDb2dVertex
 10
21.396077
 20
25.536561
 30
0.0
  0
VERTEX
  5
3B2
330
3AE
100
AcDbEntity
  8
001
 62
     2
370
    50
100
AcDbVertex
100
AcDb2dVertex
 10
21.657297
 20
25.622503
 30
0.0
  0
VERTEX
  5
3B3
330
3AE
100
AcDbEntity
  8
001
 62
     2
370
    50
100
AcDbVertex
100
AcDb2dVertex
 10
21.731312
 20
25.647769
 30
0.0
  0
VERTEX
  5
3B4
330
3AE
100
AcDbEntity
  8
001
 62
     2
370
    50
100
AcDbVertex
100
AcDb2dVertex
 10
21.798858
 20
25.671154
 30
0.0
  0
SEQEND
  5
3AF
330
3AE
100
AcDbEntity
  8
001
370
    50
  0
LINE
  5
3B5
330
1F
100
AcDbEntity
  8
001
370
    50
100
AcDbLine
 10
21.965771
 20
26.124958
 30
0.0
 11
22.055545
 21
25.926277
 31
0.0
  0
LINE
  5
3B6
330
1F
100
AcDbEntity
  8
001
370
    50
100
AcDbLine
 10
19.218712
 20
24.857521
 30
0.0
 11
18.373404
 21
24.603087
 31
0.0
  0
POLYLINE
  5
3B7
330
1F
100
AcDbEntity
  8
001
 62
   253
370
    50
100
AcDb2dPolyline
 66
     1
 10
0.0
 20
0.0
 30
0.0
  0
VERTEX
  5
3B9
330
3B7
100
AcDbEntity
  8
001
 62
   253
370
    50
100
AcDbVertex
100
AcDb2dVertex
 10
19.610631
 20
24.857809
 30
0.0
  0
VERTEX
  5
3BA
330
3B7
100
AcDbEntity
  8
001
 62
   253
370
    50
100
AcDbVertex
100
AcDb2dVertex
 10
19.624638
 20
24.857031
 30
0.0
  0
VERTEX
  5
3BB
330
3B7
100
AcDbEntity
  8
001
 62
   253
370
    50
100
AcDbVertex
100
AcDb2dVertex
 10
19.638661
 20
24.85626
 30
0.0
  0
VERTEX
  5
3BC
330
3B7
100
AcDbEntity
  8
001
 62
   253
370
    50
100
AcDbVertex
100
AcDb2dVertex
 10
20.801907
 20
24.812926
 30
0.0
  0
VERTEX
  5
3BD
330
3B7
100
AcDbEntity
  8
001
 62
   253
370
    50
100
AcDbVertex
100
AcDb2dVertex
 10
21.598484
 20
24.803087
 30
0.0
  0
SEQEND
  5
3B8
330
3B7
100
AcDbEntity
  8
001
370
    50
  0
LINE
  5
3BE
330
1F
100
AcDbEntity
  8
001
 62
   253
370
     9
100
AcDbLine
 10
15.032373
 20
28.049497
 30
0.0
 11
16.383618
 21
28.049497
 31
0.0
  0
LINE
  5
3BF
330
1F
100
AcDbEntity
  8
001
370
     9
100
AcDbLine
 10
18.373404
 20
24.603087
 30
0.0
 11
14.990816
 21
24.603087
 31
0.0
  0
LINE
  5
3C0
330
1F
100
AcDbEntity
  8
001
370
    50
100
AcDbLine
 10
16.410413
 20
28.003087
 30
0.0
 11
18.373404
 21
24.603087
 31
0.0
  0
LINE
  5
3C1
330
1F
100
AcDbEntity
  8
001
370
     9
100
AcDbLine
 10
16.410413
 20
28.003087
 30
0.0
 11
16.383618
 21
28.049497
 31
0.0
  0
ENDSEC
  0
SECTION
  2
OBJECTS
  0
DICTIONARY
  5
C
330
0
100
AcDbDictionary
281
     1
  3
ACAD_GROUP
350
D
  3
ACAD_LAYOUT
350
1A
  3
ACAD_MLEADERSTYLE
350
3C5
  3
ACAD_MLINESTYLE
350
17
  3
ACAD_PLOTSETTINGS
350
19
  3
ACAD_PLOTSTYLENAME
350
E
  3
ACAD_SCALELIST
350
3B
  3
ACAD_TABLESTYLE
350
3C4
  3
ACAD_VISUALSTYLE
350
2A
  3
AcDbVariableDictionary
350
3C2
  0
DICTIONARY
  5
D
102
{ACAD_REACTORS
330
C
102
}
330
C
100
AcDbDictionary
281
     1
  0
DICTIONARY
  5
1A
102
{ACAD_REACTORS
330
C
102
}
330
C
100
AcDbDictionary
281
     1
  3
Layout1
350
1E
  3
Layout2
350
26
  3
Model
350
22
  0
DICTIONARY
  5
3C5
102
{ACAD_REACTORS
330
C
102
}
330
C
100
AcDbDictionary
281
     1
  0
DICTIONARY
  5
17
102
{ACAD_REACTORS
330
C
102
}
330
C
100
AcDbDictionary
281
     1
  3
Standard
350
18
  0
DICTIONARY
  5
19
102
{ACAD_REACTORS
330
C
102
}
330
C
100
AcDbDictionary
281
     1
  0
ACDBDICTIONARYWDFLT
  5
E
102
{ACAD_REACTORS
330
C
102
}
330
C
100
AcDbDictionary
281
     1
  3
Normal
350
F
100
AcDbDictionaryWithDefault
340
F
  0
DICTIONARY
  5
3B
102
{ACAD_REACTORS
330
C
102
}
330
C
100
AcDbDictionary
281
     1
  3
A0
350
3C
  3
A1
350
3D
  3
A2
350
3E
  3
A3
350
3F
  3
A4
350
40
  3
A5
350
41
  3
A6
350
42
  3
A7
350
43
  3
A8
350
44
  3
A9
350
45
  3
B0
350
46
  3
B1
350
47
  3
B2
350
48
  3
B3
350
49
  3
B4
350
4A
  3
B5
350
4B
  3
B6
350
4C
  3
B7
350
4D
  3
B8
350
4E
  3
B9
350
4F
  3
C0
350
50
  3
C1
350
51
  3
C2
350
52
  3
C3
350
53
  3
C4
350
54
  3
C5
350
55
  3
C6
350
56
  3
C7
350
57
  3
C8
350
58
  3
C9
350
59
  3
D0
350
5A
  3
D1
350
5B
  3
D2
350
5C
  0
DICTIONARY
  5
3C4
102
{ACAD_REACTORS
330
C
102
}
330
C
100
AcDbDictionary
281
     1
  0
DICTIONARY
  5
2A
102
{ACAD_REACTORS
330
C
102
}
330
C
100
AcDbDictionary
281
     1
  3
2dWireframe
350
2F
  3
3D Hidden
350
31
  3
3dWireframe
350
30
  3
Basic
350
32
  3
Brighten
350
36
  3
ColorChange
350
3A
  3
Conceptual
350
34
  3
Dim
350
35
  3
Facepattern
350
39
  3
Flat
350
2B
  3
FlatWithEdges
350
2C
  3
Gouraud
350
2D
  3
GouraudWithEdges
350
2E
  3
Linepattern
350
38
  3
Realistic
350
33
  3
Thicken
350
37
  0
DICTIONARY
  5
3C2
102
{ACAD_REACTORS
330
C
102
}
330
C
100
AcDbDictionary
281
     1
  3
CANNOSCALE
350
3C3
  3
PSOLHEIGHT
350
3C7
  3
PSOLWIDTH
350
3C6
  0
LAYOUT
  5
1E
102
{ACAD_REACTORS
330
1A
102
}
330
1A
100
AcDbPlotSettings
  1

  2
none_device
  4

  6

 40
0.0
 41
0.0
 42
0.0
 43
0.0
 44
0.0
 45
0.0
 46
0.0
 47
0.0
 48
0.0
 49
0.0
140
0.0
141
0.0
142
1.0
143
1.0
 70
   688
 72
     0
 73
     0
 74
     5
  7

 75
    16
147
1.0
148
0.0
149
0.0
100
AcDbLayout
  1
Layout1
 70
     1
 71
     1
 10
0.0
 20
0.0
 11
12.0
 21
9.0
 12
0.0
 22
0.0
 32
0.0
 14
1.000000E+20
 24
1.000000E+20
 34
0.0
 15
-1.000000E+20
 25
-1.000000E+20
 35
0.0
146
0.0
 13
0.0
 23
0.0
 33
0.0
 16
1.0
 26
0.0
 36
0.0
 17
0.0
 27
1.0
 37
0.0
 76
     0
330
1B
  0
LAYOUT
  5
26
102
{ACAD_REACTORS
330
1A
102
}
330
1A
100
AcDbPlotSettings
  1

  2
none_device
  4

  6

 40
0.0
 41
0.0
 42
0.0
 43
0.0
 44
0.0
 45
0.0
 46
0.0
 47
0.0
 48
0.0
 49
0.0
140
0.0
141
0.0
142
1.0
143
1.0
 70
   688
 72
     0
 73
     0
 74
     5
  7

 75
    16
147
1.0
148
0.0
149
0.0
100
AcDbLayout
  1
Layout2
 70
     1
 71
     2
 10
0.0
 20
0.0
 11
0.0
 21
0.0
 12
0.0
 22
0.0
 32
0.0
 14
0.0
 24
0.0
 34
0.0
 15
0.0
 25
0.0
 35
0.0
146
0.0
 13
0.0
 23
0.0
 33
0.0
 16
1.0
 26
0.0
 36
0.0
 17
0.0
 27
1.0
 37
0.0
 76
     0
330
23
  0
LAYOUT
  5
22
102
{ACAD_REACTORS
330
1A
102
}
330
1A
100
AcDbPlotSettings
  1

  2
none_device
  4

  6

 40
0.0
 41
0.0
 42
0.0
 43
0.0
 44
0.0
 45
0.0
 46
0.0
 47
0.0
 48
0.0
 49
0.0
140
0.0
141
0.0
142
1.0
143
1.0
 70
  1712
 72
     0
 73
     0
 74
     0
  7

 75
     0
147
1.0
148
0.0
149
0.0
100
AcDbLayout
  1
Model
 70
     1
 71
     0
 10
0.0
 20
0.0
 11
12.0
 21
9.0
 12
0.0
 22
0.0
 32
0.0
 14
3.216133
 24
7.26442
 34
0.0
 15
110.070061
 25
48.892811
 35
0.0
146
0.0
 13
0.0
 23
0.0
 33
0.0
 16
1.0
 26
0.0
 36
0.0
 17
0.0
 27
1.0
 37
0.0
 76
     0
330
1F
331
29
  0
MLINESTYLE
  5
18
102
{ACAD_REACTORS
330
17
102
}
330
17
100
AcDbMlineStyle
  2
Standard
 70
     0
  3

 62
   256
 51
90.0
 52
90.0
 71
     2
 49
0.5
 62
   256
  6
BYLAYER
 49
-0.5
 62
   256
  6
BYLAYER
  0
ACDBPLACEHOLDER
  5
F
102
{ACAD_REACTORS
330
E
102
}
330
E
  0
SCALE
  5
3C
102
{ACAD_REACTORS
330
3B
102
}
330
3B
100
AcDbScale
 70
     0
300
1:1
140
1.0
141
1.0
290
     1
  0
SCALE
  5
3D
102
{ACAD_REACTORS
330
3B
102
}
330
3B
100
AcDbScale
 70
     0
300
1:2
140
1.0
141
2.0
290
     0
  0
SCALE
  5
3E
102
{ACAD_REACTORS
330
3B
102
}
330
3B
100
AcDbScale
 70
     0
300
1:4
140
1.0
141
4.0
290
     0
  0
SCALE
  5
3F
102
{ACAD_REACTORS
330
3B
102
}
330
3B
100
AcDbScale
 70
     0
300
1:5
140
1.0
141
5.0
290
     0
  0
SCALE
  5
40
102
{ACAD_REACTORS
330
3B
102
}
330
3B
100
AcDbScale
 70
     0
300
1:8
140
1.0
141
8.0
290
     0
  0
SCALE
  5
41
102
{ACAD_REACTORS
330
3B
102
}
330
3B
100
AcDbScale
 70
     0
300
1:10
140
1.0
141
10.0
290
     0
  0
SCALE
  5
42
102
{ACAD_REACTORS
330
3B
102
}
330
3B
100
AcDbScale
 70
     0
300
1:16
140
1.0
141
16.0
290
     0
  0
SCALE
  5
43
102
{ACAD_REACTORS
330
3B
102
}
330
3B
100
AcDbScale
 70
     0
300
1:20
140
1.0
141
20.0
290
     0
  0
SCALE
  5
44
102
{ACAD_REACTORS
330
3B
102
}
330
3B
100
AcDbScale
 70
     0
300
1:30
140
1.0
141
30.0
290
     0
  0
SCALE
  5
45
102
{ACAD_REACTORS
330
3B
102
}
330
3B
100
AcDbScale
 70
     0
300
1:40
140
1.0
141
40.0
290
     0
  0
SCALE
  5
46
102
{ACAD_REACTORS
330
3B
102
}
330
3B
100
AcDbScale
 70
     0
300
1:50
140
1.0
141
50.0
290
     0
  0
SCALE
  5
47
102
{ACAD_REACTORS
330
3B
102
}
330
3B
100
AcDbScale
 70
     0
300
1:100
140
1.0
141
100.0
290
     0
  0
SCALE
  5
48
102
{ACAD_REACTORS
330
3B
102
}
330
3B
100
AcDbScale
 70
     0
300
2:1
140
2.0
141
1.0
290
     0
  0
SCALE
  5
49
102
{ACAD_REACTORS
330
3B
102
}
330
3B
100
AcDbScale
 70
     0
300
4:1
140
4.0
141
1.0
290
     0
  0
SCALE
  5
4A
102
{ACAD_REACTORS
330
3B
102
}
330
3B
100
AcDbScale
 70
     0
300
8:1
140
8.0
141
1.0
290
     0
  0
SCALE
  5
4B
102
{ACAD_REACTORS
330
3B
102
}
330
3B
100
AcDbScale
 70
     0
300
10:1
140
10.0
141
1.0
290
     0
  0
SCALE
  5
4C
102
{ACAD_REACTORS
330
3B
102
}
330
3B
100
AcDbScale
 70
     0
300
100:1
140
100.0
141
1.0
290
     0
  0
SCALE
  5
4D
102
{ACAD_REACTORS
330
3B
102
}
330
3B
100
AcDbScale
 70
     0
300
1/128" = 1'-0"
140
0.007812
141
12.0
290
     0
  0
SCALE
  5
4E
102
{ACAD_REACTORS
330
3B
102
}
330
3B
100
AcDbScale
 70
     0
300
1/64" = 1'-0"
140
0.015625
141
12.0
290
     0
  0
SCALE
  5
4F
102
{ACAD_REACTORS
330
3B
102
}
330
3B
100
AcDbScale
 70
     0
300
1/32" = 1'-0"
140
0.03125
141
12.0
290
     0
  0
SCALE
  5
50
102
{ACAD_REACTORS
330
3B
102
}
330
3B
100
AcDbScale
 70
     0
300
1/16" = 1'-0"
140
0.0625
141
12.0
290
     0
  0
SCALE
  5
51
102
{ACAD_REACTORS
330
3B
102
}
330
3B
100
AcDbScale
 70
     0
300
3/32" = 1'-0"
140
0.09375
141
12.0
290
     0
  0
SCALE
  5
52
102
{ACAD_REACTORS
330
3B
102
}
330
3B
100
AcDbScale
 70
     0
300
1/8" = 1'-0"
140
0.125
141
12.0
290
     0
  0
SCALE
  5
53
102
{ACAD_REACTORS
330
3B
102
}
330
3B
100
AcDbScale
 70
     0
300
3/16" = 1'-0"
140
0.1875
141
12.0
290
     0
  0
SCALE
  5
54
102
{ACAD_REACTORS
330
3B
102
}
330
3B
100
AcDbScale
 70
     0
300
1/4" = 1'-0"
140
0.25
141
12.0
290
     0
  0
SCALE
  5
55
102
{ACAD_REACTORS
330
3B
102
}
330
3B
100
AcDbScale
 70
     0
300
3/8" = 1'-0"
140
0.375
141
12.0
290
     0
  0
SCALE
  5
56
102
{ACAD_REACTORS
330
3B
102
}
330
3B
100
AcDbScale
 70
     0
300
1/2" = 1'-0"
140
0.5
141
12.0
290
     0
  0
SCALE
  5
57
102
{ACAD_REACTORS
330
3B
102
}
330
3B
100
AcDbScale
 70
     0
300
3/4" = 1'-0"
140
0.75
141
12.0
290
     0
  0
SCALE
  5
58
102
{ACAD_REACTORS
330
3B
102
}
330
3B
100
AcDbScale
 70
     0
300
1" = 1'-0"
140
1.0
141
12.0
290
     0
  0
SCALE
  5
59
102
{ACAD_REACTORS
330
3B
102
}
330
3B
100
AcDbScale
 70
     0
300
1-1/2" = 1'-0"
140
1.5
141
12.0
290
     0
  0
SCALE
  5
5A
102
{ACAD_REACTORS
330
3B
102
}
330
3B
100
AcDbScale
 70
     0
300
3" = 1'-0"
140
3.0
141
12.0
290
     0
  0
SCALE
  5
5B
102
{ACAD_REACTORS
330
3B
102
}
330
3B
100
AcDbScale
 70
     0
300
6" = 1'-0"
140
6.0
141
12.0
290
     0
  0
SCALE
  5
5C
102
{ACAD_REACTORS
330
3B
102
}
330
3B
100
AcDbScale
 70
     0
300
1'-0" = 1'-0"
140
12.0
141
12.0
290
     0
  0
VISUALSTYLE
  5
2F
102
{ACAD_REACTORS
330
2A
102
}
330
2A
100
AcDbVisualStyle
  2
2dWireframe
 70
     4
 71
     0
 72
     2
 73
     0
 90
        0
 40
-0.6
 41
-30.0
 62
     5
 63
     7
 74
     1
 91
        4
 64
     7
 65
   257
 75
     1
175
     1
 42
1.0
 92
        0
 66
   257
 43
1.0
 76
     1
 77
     6
 78
     2
 67
     7
 79
     5
170
     0
171
     0
290
     0
174
     0
 93
        1
 44
0.0
173
     0
291
     0
 45
0.0
1001
ACAD
1000
AcDbSavedByObjectVersion
1070
     0
  0
VISUALSTYLE
  5
31
102
{ACAD_REACTORS
330
2A
102
}
330
2A
100
AcDbVisualStyle
  2
3D Hidden
 70
     6
 71
     1
 72
     2
 73
     2
 90
        0
 40
-0.6
 41
-30.0
 62
     5
 63
     7
 74
     2
 91
        2
 64
     7
 65
   257
 75
     2
175
     1
 42
40.0
 92
        0
 66
   257
 43
1.0
 76
     1
 77
     6
 78
     2
 67
     7
 79
     3
170
     0
171
     0
290
     0
174
     0
 93
        1
 44
0.0
173
     0
291
     0
 45
0.0
1001
ACAD
1000
AcDbSavedByObjectVersion
1070
     0
  0
VISUALSTYLE
  5
30
102
{ACAD_REACTORS
330
2A
102
}
330
2A
100
AcDbVisualStyle
  2
3dWireframe
 70
     5
 71
     0
 72
     2
 73
     0
 90
        0
 40
-0.6
 41
-30.0
 62
     5
 63
     7
 74
     1
 91
        4
 64
     7
 65
   257
 75
     1
175
     1
 42
1.0
 92
        0
 66
   257
 43
1.0
 76
     1
 77
     6
 78
     2
 67
     7
 79
     5
170
     0
171
     0
290
     0
174
     0
 93
        1
 44
0.0
173
     0
291
     0
 45
0.0
1001
ACAD
1000
AcDbSavedByObjectVersion
1070
     0
  0
VISUALSTYLE
  5
32
102
{ACAD_REACTORS
330
2A
102
}
330
2A
100
AcDbVisualStyle
  2
Basic
 70
     7
 71
     1
 72
     0
 73
     1
 90
        0
 40
-0.6
 41
-30.0
 62
     5
 63
     7
 74
     0
 91
        4
 64
     7
 65
   257
 75
     1
175
     1
 42
1.0
 92
        8
 66
     7
 43
1.0
 76
     1
 77
     6
 78
     2
 67
     7
 79
     5
170
     0
171
     0
290
     0
174
     0
 93
        1
 44
0.0
173
     0
291
     1
 45
0.0
1001
ACAD
1000
AcDbSavedByObjectVersion
1070
     0
  0
VISUALSTYLE
  5
36
102
{ACAD_REACTORS
330
2A
102
}
330
2A
100
AcDbVisualStyle
  2
Brighten
 70
    12
 71
     2
 72
     2
 73
     0
 90
        0
 40
-0.6
 41
-30.0
 62
     5
 63
     7
 74
     1
 91
        4
 64
     7
 65
   257
 75
     1
175
     1
 42
1.0
 92
        8
 66
     7
 43
1.0
 76
     1
 77
     6
 78
     2
 67
     7
 79
     5
170
     0
171
     0
290
     0
174
     0
 93
        1
 44
50.0
173
     0
291
     1
 45
0.0
1001
ACAD
1000
AcDbSavedByObjectVersion
1070
     0
  0
VISUALSTYLE
  5
3A
102
{ACAD_REACTORS
330
2A
102
}
330
2A
100
AcDbVisualStyle
  2
ColorChange
 70
    16
 71
     2
 72
     2
 73
     3
 90
        0
 40
-0.6
 41
-30.0
 62
     5
 63
     8
 74
     1
 91
        4
 64
     7
 65
   257
 75
     1
175
     1
 42
1.0
 92
        8
 66
     8
 43
1.0
 76
     1
 77
     6
 78
     2
 67
     7
 79
     5
170
     0
171
     0
290
     0
174
     0
 93
        1
 44
0.0
173
     0
291
     1
 45
0.0
1001
ACAD
1000
AcDbSavedByObjectVersion
1070
     0
  0
VISUALSTYLE
  5
34
102
{ACAD_REACTORS
330
2A
102
}
330
2A
100
AcDbVisualStyle
  2
Conceptual
 70
     9
 71
     3
 72
     2
 73
     0
 90
        0
 40
-0.6
 41
-30.0
 62
     5
 63
     7
 74
     2
 91
        2
 64
     7
 65
   257
 75
     1
175
     1
 42
40.0
 92
        8
 66
     7
 43
1.0
 76
     1
 77
     6
 78
     2
 67
     7
 79
     3
170
     0
171
     0
290
     0
174
     0
 93
        1
 44
0.0
173
     0
291
     0
 45
0.0
1001
ACAD
1000
AcDbSavedByObjectVersion
1070
     0
  0
VISUALSTYLE
  5
35
102
{ACAD_REACTORS
330
2A
102
}
330
2A
100
AcDbVisualStyle
  2
Dim
 70
    11
 71
     2
 72
     2
 73
     0
 90
        0
 40
-0.6
 41
-30.0
 62
     5
 63
     7
 74
     1
 91
        4
 64
     7
 65
   257
 75
     1
175
     1
 42
1.0
 92
        8
 66
     7
 43
1.0
 76
     1
 77
     6
 78
     2
 67
     7
 79
     5
170
     0
171
     0
290
     0
174
     0
 93
        1
 44
-50.0
173
     0
291
     1
 45
0.0
1001
ACAD
1000
AcDbSavedByObjectVersion
1070
     0
  0
VISUALSTYLE
  5
39
102
{ACAD_REACTORS
330
2A
102
}
330
2A
100
AcDbVisualStyle
  2
Facepattern
 70
    15
 71
     2
 72
     2
 73
     0
 90
        0
 40
-0.6
 41
-30.0
 62
     5
 63
     7
 74
     1
 91
        4
 64
     7
 65
   257
 75
     1
175
     1
 42
1.0
 92
        8
 66
     7
 43
1.0
 76
     1
 77
     6
 78
     2
 67
     7
 79
     5
170
     0
171
     0
290
     0
174
     0
 93
        1
 44
0.0
173
     0
291
     1
 45
0.0
1001
ACAD
1000
AcDbSavedByObjectVersion
1070
     0
  0
VISUALSTYLE
  5
2B
102
{ACAD_REACTORS
330
2A
102
}
330
2A
100
AcDbVisualStyle
  2
Flat
 70
     0
 71
     2
 72
     1
 73
     1
 90
        2
 40
-0.6
 41
30.0
 62
     5
 63
     7
 74
     0
 91
        4
 64
     7
 65
   257
 75
     1
175
     1
 42
1.0
 92
        8
 66
     7
 43
1.0
 76
     1
 77
     6
 78
     2
 67
     7
 79
     5
170
     0
171
     0
290
     0
174
     0
 93
       13
 44
0.0
173
     0
291
     1
 45
0.0
1001
ACAD
1000
AcDbSavedByObjectVersion
1070
     0
  0
VISUALSTYLE
  5
2C
102
{ACAD_REACTORS
330
2A
102
}
330
2A
100
AcDbVisualStyle
  2
FlatWithEdges
 70
     1
 71
     2
 72
     1
 73
     1
 90
        2
 40
-0.6
 41
30.0
 62
     5
 63
     7
 74
     1
 91
        4
 64
     7
 65
   257
 75
     1
175
     1
 42
1.0
 92
        0
 66
   257
 43
1.0
 76
     1
 77
     6
 78
     2
 67
     7
 79
     5
170
     0
171
     0
290
     0
174
     0
 93
       13
 44
0.0
173
     0
291
     1
 45
0.0
1001
ACAD
1000
AcDbSavedByObjectVersion
1070
     0
  0
VISUALSTYLE
  5
2D
102
{ACAD_REACTORS
330
2A
102
}
330
2A
100
AcDbVisualStyle
  2
Gouraud
 70
     2
 71
     2
 72
     2
 73
     1
 90
        2
 40
-0.6
 41
30.0
 62
     5
 63
     7
 74
     0
 91
        4
 64
     7
 65
   257
 75
     1
175
     1
 42
1.0
 92
        0
 66
     7
 43
1.0
 76
     1
 77
     6
 78
     2
 67
     7
 79
     5
170
     0
171
     0
290
     0
174
     0
 93
       13
 44
0.0
173
     0
291
     1
 45
0.0
1001
ACAD
1000
AcDbSavedByObjectVersion
1070
     0
  0
VISUALSTYLE
  5
2E
102
{ACAD_REACTORS
330
2A
102
}
330
2A
100
AcDbVisualStyle
  2
GouraudWithEdges
 70
     3
 71
     2
 72
     2
 73
     1
 90
        2
 40
-0.6
 41
30.0
 62
     5
 63
     7
 74
     1
 91
        4
 64
     7
 65
   257
 75
     1
175
     1
 42
1.0
 92
        0
 66
   257
 43
1.0
 76
     1
 77
     6
 78
     2
 67
     7
 79
     5
170
     0
171
     0
290
     0
174
     0
 93
       13
 44
0.0
173
     0
291
     1
 45
0.0
1001
ACAD
1000
AcDbSavedByObjectVersion
1070
     0
  0
VISUALSTYLE
  5
38
102
{ACAD_REACTORS
330
2A
102
}
330
2A
100
AcDbVisualStyle
  2
Linepattern
 70
    14
 71
     2
 72
     2
 73
     0
 90
        0
 40
-0.6
 41
-30.0
 62
     5
 63
     7
 74
     1
 91
        4
 64
     7
 65
   257
 75
     7
175
     7
 42
1.0
 92
        8
 66
     7
 43
1.0
 76
     1
 77
     6
 78
     2
 67
     7
 79
     5
170
     0
171
     0
290
     0
174
     0
 93
        1
 44
0.0
173
     0
291
     1
 45
0.0
1001
ACAD
1000
AcDbSavedByObjectVersion
1070
     0
  0
VISUALSTYLE
  5
33
102
{ACAD_REACTORS
330
2A
102
}
330
2A
100
AcDbVisualStyle
  2
Realistic
 70
     8
 71
     2
 72
     2
 73
     0
 90
        0
 40
-0.6
 41
-30.0
 62
     5
 63
     7
 74
     1
 91
        0
 64
     7
 65
   257
 75
     1
175
     1
 42
1.0
 92
        8
 66
     8
 43
1.0
 76
     1
 77
     6
 78
     2
 67
     7
 79
     5
170
     0
171
     0
290
     0
174
     0
 93
       13
 44
0.0
173
     0
291
     0
 45
0.0
1001
ACAD
1000
AcDbSavedByObjectVersion
1070
     0
  0
VISUALSTYLE
  5
37
102
{ACAD_REACTORS
330
2A
102
}
330
2A
100
AcDbVisualStyle
  2
Thicken
 70
    13
 71
     2
 72
     2
 73
     0
 90
        0
 40
-0.6
 41
-30.0
 62
     5
 63
     7
 74
     1
 91
        4
 64
     7
 65
   257
 75
     1
175
     1
 42
1.0
 92
       12
 66
     7
 43
1.0
 76
     1
 77
     6
 78
     2
 67
     7
 79
     5
170
     0
171
     0
290
     0
174
     0
 93
        1
 44
0.0
173
     0
291
     1
 45
0.0
1001
ACAD
1000
AcDbSavedByObjectVersion
1070
     0
  0
DICTIONARYVAR
  5
3C3
102
{ACAD_REACTORS
330
3C2
102
}
330
3C2
100
DictionaryVariables
280
     0
  1
1:1
  0
DICTIONARYVAR
  5
3C7
102
{ACAD_REACTORS
330
3C2
102
}
330
3C2
100
DictionaryVariables
280
     0
  1
80.000000
  0
DICTIONARYVAR
  5
3C6
102
{ACAD_REACTORS
330
3C2
102
}
330
3C2
100
DictionaryVariables
280
     0
  1
5.000000
  0
ENDSEC
  0
EOF
