  0
SECTION
  2
HEADER
  9
$ACADVER
  1
AC1015
  9
$ACADMAINTVER
 70
     6
  9
$DWGCODEPAGE
  3
ANSI_932
  9
$INSBASE
 10
0.0
 20
0.0
 30
0.0
  9
$EXTMIN
 10
0.0
 20
0.0
 30
0.0
  9
$EXTMAX
 10
420.0
 20
156.038727
 30
0.0
  9
$LIMMIN
 10
0.0
 20
0.0
  9
$LIMMAX
 10
12.0
 20
9.0
  9
$ORTHOMODE
 70
     0
  9
$REGENMODE
 70
     1
  9
$FILLMODE
 70
     1
  9
$QTEXTMODE
 70
     0
  9
$MIRRTEXT
 70
     1
  9
$LTSCALE
 40
4.480492
  9
$ATTMODE
 70
     1
  9
$TEXTSIZE
 40
3.2
  9
$TRACEWID
 40
1.0
  9
$TEXTSTYLE
  7
Standard
  9
$CLAYER
  8
0
  9
$CELTYPE
  6
ByLayer
  9
$CECOLOR
 62
   256
  9
$CELTSCALE
 40
1.0
  9
$DISPSILH
 70
     0
  9
$DIMSCALE
 40
1.0
  9
$DIMASZ
 40
2.5
  9
$DIMEXO
 40
0.625
  9
$DIMDLI
 40
3.75
  9
$DIMRND
 40
0.0
  9
$DIMDLE
 40
0.0
  9
$DIMEXE
 40
1.25
  9
$DIMTP
 40
0.0
  9
$DIMTM
 40
0.0
  9
$DIMTXT
 40
2.5
  9
$DIMCEN
 40
0.09
  9
$DIMTSZ
 40
0.0
  9
$DIMTOL
 70
     0
  9
$DIMLIM
 70
     0
  9
$DIMTIH
 70
     0
  9
$DIMTOH
 70
     0
  9
$DIMSE1
 70
     0
  9
$DIMSE2
 70
     0
  9
$DIMTAD
 70
     0
  9
$DIMZIN
 70
     8
  9
$DIMBLK
  1

  9
$DIMASO
 70
     1
  9
$DIMSHO
 70
     0
  9
$DIMPOST
  1

  9
$DIMAPOST
  1

  9
$DIMALT
 70
     0
  9
$DIMALTD
 70
     3
  9
$DIMALTF
 40
0.03937
  9
$DIMLFAC
 40
1.0
  9
$DIMTOFL
 70
     1
  9
$DIMTVP
 40
0.0
  9
$DIMTIX
 70
     0
  9
$DIMSOXD
 70
     0
  9
$DIMSAH
 70
     0
  9
$DIMBLK1
  1

  9
$DIMBLK2
  1

  9
$DIMSTYLE
  2
ISO-25
  9
$DIMCLRD
 70
     0
  9
$DIMCLRE
 70
     0
  9
$DIMCLRT
 70
     0
  9
$DIMTFAC
 40
1.0
  9
$DIMGAP
 40
0.625
  9
$DIMJUST
 70
     0
  9
$DIMSD1
 70
     0
  9
$DIMSD2
 70
     0
  9
$DIMTOLJ
 70
     0
  9
$DIMTZIN
 70
     8
  9
$DIMALTZ
 70
     0
  9
$DIMALTTZ
 70
     0
  9
$DIMUPT
 70
     0
  9
$DIMDEC
 70
     2
  9
$DIMTDEC
 70
     2
  9
$DIMALTU
 70
     2
  9
$DIMALTTD
 70
     3
  9
$DIMTXSTY
  7
Standard
  9
$DIMAUNIT
 70
     0
  9
$DIMADEC
 70
     0
  9
$DIMALTRND
 40
0.0
  9
$DIMAZIN
 70
     0
  9
$DIMDSEP
 70
    44
  9
$DIMATFIT
 70
     3
  9
$DIMFRAC
 70
     0
  9
$DIMLDRBLK
  1

  9
$DIMLUNIT
 70
     2
  9
$DIMLWD
 70
    -2
  9
$DIMLWE
 70
    -2
  9
$DIMTMOVE
 70
     0
  9
$LUNITS
 70
     2
  9
$LUPREC
 70
     4
  9
$SKETCHINC
 40
1.0
  9
$FILLETRAD
 40
0.0
  9
$AUNITS
 70
     0
  9
$AUPREC
 70
     0
  9
$MENU
  1
.
  9
$ELEVATION
 40
0.0
  9
$PELEVATION
 40
0.0
  9
$THICKNESS
 40
0.0
  9
$LIMCHECK
 70
     0
  9
$CHAMFERA
 40
10.0
  9
$CHAMFERB
 40
10.0
  9
$CHAMFERC
 40
20.0
  9
$CHAMFERD
 40
0.0
  9
$SKPOLY
 70
     0
  9
$TDCREATE
 40
2456244.582838171
  9
$TDUCREATE
 40
2456244.207838171
  9
$TDUPDATE
 40
2456244.582838183
  9
$TDUUPDATE
 40
2456244.207838183
  9
$TDINDWG
 40
0.0000000116
  9
$TDUSRTIMER
 40
0.0000000116
  9
$USRTIMER
 70
     1
  9
$ANGBASE
 50
0.0
  9
$ANGDIR
 70
     0
  9
$PDMODE
 70
     0
  9
$PDSIZE
 40
0.0
  9
$PLINEWID
 40
0.0
  9
$SPLFRAME
 70
     0
  9
$SPLINETYPE
 70
     6
  9
$SPLINESEGS
 70
     8
  9
$HANDSEED
  5
22B
  9
$SURFTAB1
 70
     6
  9
$SURFTAB2
 70
     6
  9
$SURFTYPE
 70
     6
  9
$SURFU
 70
     6
  9
$SURFV
 70
     6
  9
$UCSBASE
  2

  9
$UCSNAME
  2

  9
$UCSORG
 10
0.0
 20
0.0
 30
0.0
  9
$UCSXDIR
 10
1.0
 20
0.0
 30
0.0
  9
$UCSYDIR
 10
0.0
 20
1.0
 30
0.0
  9
$UCSORTHOREF
  2

  9
$UCSORTHOVIEW
 70
     0
  9
$UCSORGTOP
 10
0.0
 20
0.0
 30
0.0
  9
$UCSORGBOTTOM
 10
0.0
 20
0.0
 30
0.0
  9
$UCSORGLEFT
 10
0.0
 20
0.0
 30
0.0
  9
$UCSORGRIGHT
 10
0.0
 20
0.0
 30
0.0
  9
$UCSORGFRONT
 10
0.0
 20
0.0
 30
0.0
  9
$UCSORGBACK
 10
0.0
 20
0.0
 30
0.0
  9
$PUCSBASE
  2

  9
$PUCSNAME
  2

  9
$PUCSORG
 10
0.0
 20
0.0
 30
0.0
  9
$PUCSXDIR
 10
1.0
 20
0.0
 30
0.0
  9
$PUCSYDIR
 10
0.0
 20
1.0
 30
0.0
  9
$PUCSORTHOREF
  2

  9
$PUCSORTHOVIEW
 70
     0
  9
$PUCSORGTOP
 10
0.0
 20
0.0
 30
0.0
  9
$PUCSORGBOTTOM
 10
0.0
 20
0.0
 30
0.0
  9
$PUCSORGLEFT
 10
0.0
 20
0.0
 30
0.0
  9
$PUCSORGRIGHT
 10
0.0
 20
0.0
 30
0.0
  9
$PUCSORGFRONT
 10
0.0
 20
0.0
 30
0.0
  9
$PUCSORGBACK
 10
0.0
 20
0.0
 30
0.0
  9
$USERI1
 70
     0
  9
$USERI2
 70
     0
  9
$USERI3
 70
     0
  9
$USERI4
 70
     0
  9
$USERI5
 70
     0
  9
$USERR1
 40
0.0
  9
$USERR2
 40
0.0
  9
$USERR3
 40
0.0
  9
$USERR4
 40
0.0
  9
$USERR5
 40
0.0
  9
$WORLDVIEW
 70
     1
  9
$SHADEDGE
 70
     3
  9
$SHADEDIF
 70
    70
  9
$TILEMODE
 70
     1
  9
$MAXACTVP
 70
    64
  9
$PINSBASE
 10
0.0
 20
0.0
 30
0.0
  9
$PLIMCHECK
 70
     0
  9
$PEXTMIN
 10
1.000000E+20
 20
1.000000E+20
 30
0.0
  9
$PEXTMAX
 10
-1.000000E+20
 20
-1.000000E+20
 30
0.0
  9
$PLIMMIN
 10
0.0
 20
0.0
  9
$PLIMMAX
 10
12.0
 20
9.0
  9
$UNITMODE
 70
     0
  9
$VISRETAIN
 70
     1
  9
$PLINEGEN
 70
     0
  9
$PSLTSCALE
 70
     1
  9
$TREEDEPTH
 70
  3020
  9
$CMLSTYLE
  2
Standard
  9
$CMLJUST
 70
     0
  9
$CMLSCALE
 40
20.0
  9
$PROXYGRAPHICS
 70
     1
  9
$MEASUREMENT
 70
     1
  9
$CELWEIGHT
370
    -1
  9
$ENDCAPS
280
     0
  9
$JOINSTYLE
280
     0
  9
$LWDISPLAY
290
     0
  9
$INSUNITS
 70
     4
  9
$HYPERLINKBASE
  1

  9
$STYLESHEET
  1

  9
$XEDIT
290
     1
  9
$CEPSNTYPE
380
     0
  9
$PSTYLEMODE
290
     1
  9
$FINGERPRINTGUID
  2
{3E22694E-D061-48D9-B337-C54FF101FCD2}
  9
$VERSIONGUID
  2
{FAEB1C32-E019-11D5-929B-00C0DF256EC4}
  9
$EXTNAMES
290
     1
  9
$PSVPSCALE
 40
0.0
  9
$OLESTARTUP
290
     0
  0
ENDSEC
  0
SECTION
  2
CLASSES
  0
CLASS
  1
ACDBDICTIONARYWDFLT
  2
AcDbDictionaryWithDefault
  3
ObjectDBX Classes
 90
        0
280
     0
281
     0
  0
CLASS
  1
VISUALSTYLE
  2
AcDbVisualStyle
  3
ObjectDBX Classes
 90
     4095
280
     0
281
     0
  0
CLASS
  1
SCALE
  2
AcDbScale
  3
ObjectDBX Classes
 90
     1153
280
     0
281
     0
  0
CLASS
  1
DICTIONARYVAR
  2
AcDbDictionaryVar
  3
ObjectDBX Classes
 90
        0
280
     0
281
     0
  0
CLASS
  1
ACDBPLACEHOLDER
  2
AcDbPlaceHolder
  3
ObjectDBX Classes
 90
        0
280
     0
281
     0
  0
CLASS
  1
LAYOUT
  2
AcDbLayout
  3
ObjectDBX Classes
 90
        0
280
     0
281
     0
  0
ENDSEC
  0
SECTION
  2
TABLES
  0
TABLE
  2
VPORT
  5
8
330
0
100
AcDbSymbolTable
 70
     1
  0
VPORT
  5
29
330
8
100
AcDbSymbolTableRecord
100
AcDbViewportTableRecord
  2
*Active
 70
     0
 10
0.0
 20
0.0
 11
1.0
 21
1.0
 12
210.0
 22
78.019363
 13
0.0
 23
0.0
 14
1.0
 24
1.0
 15
0.0
 25
0.0
 16
0.0
 26
0.0
 36
1.0
 17
0.0
 27
0.0
 37
0.0
 40
250.814764
 41
1.691288
 42
50.0
 43
0.0
 44
0.0
 50
0.0
 51
0.0
 71
     0
 72
   100
 73
     1
 74
     3
 75
     0
 76
     0
 77
     0
 78
     0
281
     0
 65
     1
110
0.0
120
0.0
130
0.0
111
1.0
121
0.0
131
0.0
112
0.0
122
1.0
132
0.0
 79
     0
146
0.0
  0
ENDTAB
  0
TABLE
  2
LTYPE
  5
5
330
0
100
AcDbSymbolTable
 70
     5
  0
LTYPE
  5
14
330
5
100
AcDbSymbolTableRecord
100
AcDbLinetypeTableRecord
  2
ByBlock
 70
     0
  3

 72
    65
 73
     0
 40
0.0
  0
LTYPE
  5
15
330
5
100
AcDbSymbolTableRecord
100
AcDbLinetypeTableRecord
  2
ByLayer
 70
     0
  3

 72
    65
 73
     0
 40
0.0
  0
LTYPE
  5
16
330
5
100
AcDbSymbolTableRecord
100
AcDbLinetypeTableRecord
  2
Continuous
 70
     0
  3
Solid line
 72
    65
 73
     0
 40
0.0
  0
LTYPE
  5
5D
330
5
100
AcDbSymbolTableRecord
100
AcDbLinetypeTableRecord
  2
DASHED
 70
     0
  3
DASHED
 72
    83
 73
     2
 40
0.75
 49
0.5
 74
     0
 49
-0.25
 74
     0
  0
LTYPE
  5
5E
330
5
100
AcDbSymbolTableRecord
100
AcDbLinetypeTableRecord
  2
HIDDEN
 70
     0
  3
HIDDEN
 72
    83
 73
     2
 40
0.375
 49
0.25
 74
     0
 49
-0.125
 74
     0
  0
LTYPE
  5
5F
330
5
100
AcDbSymbolTableRecord
100
AcDbLinetypeTableRecord
  2
CENTER
 70
     0
  3
CENTER
 72
    83
 73
     4
 40
2.0
 49
1.25
 74
     0
 49
-0.25
 74
     0
 49
0.25
 74
     0
 49
-0.25
 74
     0
  0
LTYPE
  5
60
330
5
100
AcDbSymbolTableRecord
100
AcDbLinetypeTableRecord
  2
PHANTOM
 70
     0
  3
PHANTOM
 72
    83
 73
     6
 40
2.5
 49
1.25
 74
     0
 49
-0.25
 74
     0
 49
0.25
 74
     0
 49
-0.25
 74
     0
 49
0.25
 74
     0
 49
-0.25
 74
     0
  0
ENDTAB
  0
TABLE
  2
LAYER
  5
2
330
0
100
AcDbSymbolTable
 70
     2
  0
LAYER
  5
10
330
2
100
AcDbSymbolTableRecord
100
AcDbLayerTableRecord
  2
0
 70
     0
 62
     7
  6
Continuous
370
    -3
390
F
  0
LAYER
  5
61
330
2
100
AcDbSymbolTableRecord
100
AcDbLayerTableRecord
  2
001
 70
     0
 62
     7
  6
Continuous
370
    -3
390
F
  0
ENDTAB
  0
TABLE
  2
STYLE
  5
3
330
0
100
AcDbSymbolTable
 70
     2
  0
STYLE
  5
11
330
3
100
AcDbSymbolTableRecord
100
AcDbTextStyleTableRecord
  2
Standard
 70
     0
 40
0.0
 41
1.0
 50
0.0
 71
     0
 42
0.2
  3
TXT
  4
BIGFONT
  0
STYLE
  5
62
330
3
100
AcDbSymbolTableRecord
100
AcDbTextStyleTableRecord
  2
TATEGAKI
 70
     4
 40
1.0
 41
1.0
 50
0.0
 71
     0
 42
0.2
  3
TXT
  4
BIGFONT
  0
ENDTAB
  0
TABLE
  2
VIEW
  5
6
330
0
100
AcDbSymbolTable
 70
     0
  0
ENDTAB
  0
TABLE
  2
UCS
  5
7
330
0
100
AcDbSymbolTable
 70
     0
  0
ENDTAB
  0
TABLE
  2
APPID
  5
9
330
0
100
AcDbSymbolTable
 70
     1
  0
APPID
  5
12
330
9
100
AcDbSymbolTableRecord
100
AcDbRegAppTableRecord
  2
ACAD
 70
     0
  0
ENDTAB
  0
TABLE
  2
DIMSTYLE
  5
A
330
0
100
AcDbSymbolTable
 70
     2
100
AcDbDimStyleTable
  0
DIMSTYLE
105
27
330
A
100
AcDbSymbolTableRecord
100
AcDbDimStyleTableRecord
  2
ISO-25
 70
     0
 41
2.5
 42
0.625
 43
3.75
 44
1.25
 73
     0
 74
     0
 77
     1
 78
     8
140
2.5
141
2.5
143
0.03937
147
0.625
171
     3
172
     1
271
     2
272
     2
274
     3
278
    44
283
     0
284
     8
340
11
  0
DIMSTYLE
105
63
102
{ACAD_REACTORS
330
DE
330
DF
330
E0
330
ED
330
FA
330
FB
102
}
330
A
100
AcDbSymbolTableRecord
100
AcDbDimStyleTableRecord
  2
Standard
 70
     0
 41
1.5
 42
0.0
 44
2.75
 73
     0
 74
     0
 77
     1
 78
     8
 79
     2
140
4.0
146
0.8
147
1.0
172
     1
179
     1
271
     1
340
11
  0
ENDTAB
  0
TABLE
  2
BLOCK_RECORD
  5
1
330
0
100
AcDbSymbolTable
 70
     7
  0
BLOCK_RECORD
  5
1F
330
1
100
AcDbSymbolTableRecord
100
AcDbBlockTableRecord
  2
*Model_Space
340
22
  0
BLOCK_RECORD
  5
1B
330
1
100
AcDbSymbolTableRecord
100
AcDbBlockTableRecord
  2
*Paper_Space
340
1E
  0
BLOCK_RECORD
  5
23
330
1
100
AcDbSymbolTableRecord
100
AcDbBlockTableRecord
  2
*Paper_Space0
340
26
  0
BLOCK_RECORD
  5
64
330
1
100
AcDbSymbolTableRecord
100
AcDbBlockTableRecord
  2
*D1
340
0
  0
BLOCK_RECORD
  5
78
330
1
100
AcDbSymbolTableRecord
100
AcDbBlockTableRecord
  2
*D2
340
0
  0
BLOCK_RECORD
  5
8C
330
1
100
AcDbSymbolTableRecord
100
AcDbBlockTableRecord
  2
*D3
340
0
  0
BLOCK_RECORD
  5
A0
330
1
100
AcDbSymbolTableRecord
100
AcDbBlockTableRecord
  2
*D4
340
0
  0
BLOCK_RECORD
  5
B5
330
1
100
AcDbSymbolTableRecord
100
AcDbBlockTableRecord
  2
*D5
340
0
  0
BLOCK_RECORD
  5
CA
330
1
100
AcDbSymbolTableRecord
100
AcDbBlockTableRecord
  2
*D6
340
0
  0
ENDTAB
  0
ENDSEC
  0
SECTION
  2
BLOCKS
  0
BLOCK
  5
20
330
1F
100
AcDbEntity
  8
0
100
AcDbBlockBegin
  2
*Model_Space
 70
     0
 10
0.0
 20
0.0
 30
0.0
  3
*Model_Space
  1

  0
ENDBLK
  5
21
330
1F
100
AcDbEntity
  8
0
100
AcDbBlockEnd
  0
BLOCK
  5
1C
330
1B
100
AcDbEntity
 67
     1
  8
0
100
AcDbBlockBegin
  2
*Paper_Space
 70
     0
 10
0.0
 20
0.0
 30
0.0
  3
*Paper_Space
  1

  0
ENDBLK
  5
1D
330
1B
100
AcDbEntity
 67
     1
  8
0
100
AcDbBlockEnd
  0
BLOCK
  5
24
330
23
100
AcDbEntity
  8
0
100
AcDbBlockBegin
  2
*Paper_Space0
 70
     0
 10
0.0
 20
0.0
 30
0.0
  3
*Paper_Space0
  1

  0
ENDBLK
  5
25
330
23
100
AcDbEntity
  8
0
100
AcDbBlockEnd
  0
BLOCK
  5
65
330
64
100
AcDbEntity
  8
0
100
AcDbBlockBegin
  2
*D1
 70
     1
 10
0.0
 20
0.0
 30
0.0
  3
*D1
  1

  0
LINE
  5
67
330
64
100
AcDbEntity
  8
001
370
     9
100
AcDbLine
 10
96.984834
 20
106.7652
 30
0.0
 11
96.984834
 21
88.457384
 31
0.0
  0
LINE
  5
68
330
64
100
AcDbEntity
  8
001
370
     9
100
AcDbLine
 10
66.984834
 20
118.08104
 30
0.0
 11
66.984834
 21
88.457384
 31
0.0
  0
LINE
  5
69
330
64
100
AcDbEntity
  8
001
370
     9
100
AcDbLine
 10
96.984834
 20
89.832384
 30
0.0
 11
66.984834
 21
89.832384
 31
0.0
  0
POLYLINE
  5
6A
330
64
100
AcDbEntity
  8
001
370
     9
100
AcDb2dPolyline
 66
     1
 10
0.0
 20
0.0
 30
0.0
  0
VERTEX
  5
6C
330
6A
100
AcDbEntity
  8
001
370
     9
100
AcDbVertex
100
AcDb2dVertex
 10
96.234834
 20
90.033346
 30
0.0
  0
VERTEX
  5
6D
330
6A
100
AcDbEntity
  8
001
370
     9
100
AcDbVertex
100
AcDb2dVertex
 10
96.984834
 20
89.832384
 30
0.0
  0
VERTEX
  5
6E
330
6A
100
AcDbEntity
  8
001
370
     9
100
AcDbVertex
100
AcDb2dVertex
 10
96.234834
 20
89.631422
 30
0.0
  0
SEQEND
  5
6B
330
6A
100
AcDbEntity
  8
001
370
     9
  0
POLYLINE
  5
6F
330
64
100
AcDbEntity
  8
001
370
     9
100
AcDb2dPolyline
 66
     1
 10
0.0
 20
0.0
 30
0.0
  0
VERTEX
  5
71
330
6F
100
AcDbEntity
  8
001
370
     9
100
AcDbVertex
100
AcDb2dVertex
 10
67.734834
 20
89.631422
 30
0.0
  0
VERTEX
  5
72
330
6F
100
AcDbEntity
  8
001
370
     9
100
AcDbVertex
100
AcDb2dVertex
 10
66.984834
 20
89.832384
 30
0.0
  0
VERTEX
  5
73
330
6F
100
AcDbEntity
  8
001
370
     9
100
AcDbVertex
100
AcDb2dVertex
 10
67.734834
 20
90.033346
 30
0.0
  0
SEQEND
  5
70
330
6F
100
AcDbEntity
  8
001
370
     9
  0
TEXT
  5
74
330
64
100
AcDbEntity
  8
001
370
    30
100
AcDbText
 10
79.984834
 20
90.332384
 30
0.0
 40
2.0
  1
３０
 41
0.833333
100
AcDbText
  0
POINT
  5
75
330
64
100
AcDbEntity
  8
001
370
     9
100
AcDbPoint
 10
96.984834
 20
106.7652
 30
0.0
  0
POINT
  5
76
330
64
100
AcDbEntity
  8
001
370
     9
100
AcDbPoint
 10
66.984834
 20
118.08104
 30
0.0
  0
POINT
  5
77
330
64
100
AcDbEntity
  8
001
370
     9
100
AcDbPoint
 10
66.984834
 20
89.832384
 30
0.0
  0
ENDBLK
  5
66
330
64
100
AcDbEntity
  8
0
100
AcDbBlockEnd
  0
BLOCK
  5
79
330
78
100
AcDbEntity
  8
0
100
AcDbBlockBegin
  2
*D2
 70
     1
 10
0.0
 20
0.0
 30
0.0
  3
*D2
  1

  0
LINE
  5
7B
330
78
100
AcDbEntity
  8
001
370
     9
100
AcDbLine
 10
176.984834
 20
111.2652
 30
0.0
 11
176.984834
 21
88.457384
 31
0.0
  0
LINE
  5
7C
330
78
100
AcDbEntity
  8
001
370
     9
100
AcDbLine
 10
96.984834
 20
106.7652
 30
0.0
 11
96.984834
 21
88.457384
 31
0.0
  0
LINE
  5
7D
330
78
100
AcDbEntity
  8
001
370
     9
100
AcDbLine
 10
176.984834
 20
89.832384
 30
0.0
 11
96.984834
 21
89.832384
 31
0.0
  0
POLYLINE
  5
7E
330
78
100
AcDbEntity
  8
001
370
     9
100
AcDb2dPolyline
 66
     1
 10
0.0
 20
0.0
 30
0.0
  0
VERTEX
  5
80
330
7E
100
AcDbEntity
  8
001
370
     9
100
AcDbVertex
100
AcDb2dVertex
 10
176.234834
 20
90.033346
 30
0.0
  0
VERTEX
  5
81
330
7E
100
AcDbEntity
  8
001
370
     9
100
AcDbVertex
100
AcDb2dVertex
 10
176.984834
 20
89.832384
 30
0.0
  0
VERTEX
  5
82
330
7E
100
AcDbEntity
  8
001
370
     9
100
AcDbVertex
100
AcDb2dVertex
 10
176.234834
 20
89.631422
 30
0.0
  0
SEQEND
  5
7F
330
7E
100
AcDbEntity
  8
001
370
     9
  0
POLYLINE
  5
83
330
78
100
AcDbEntity
  8
001
370
     9
100
AcDb2dPolyline
 66
     1
 10
0.0
 20
0.0
 30
0.0
  0
VERTEX
  5
85
330
83
100
AcDbEntity
  8
001
370
     9
100
AcDbVertex
100
AcDb2dVertex
 10
97.734834
 20
89.631422
 30
0.0
  0
VERTEX
  5
86
330
83
100
AcDbEntity
  8
001
370
     9
100
AcDbVertex
100
AcDb2dVertex
 10
96.984834
 20
89.832384
 30
0.0
  0
VERTEX
  5
87
330
83
100
AcDbEntity
  8
001
370
     9
100
AcDbVertex
100
AcDb2dVertex
 10
97.734834
 20
90.033346
 30
0.0
  0
SEQEND
  5
84
330
83
100
AcDbEntity
  8
001
370
     9
  0
TEXT
  5
88
330
78
100
AcDbEntity
  8
001
370
    30
100
AcDbText
 10
135.984834
 20
90.332384
 30
0.0
 40
2.0
  1
ｌ
 41
0.833333
100
AcDbText
  0
POINT
  5
89
330
78
100
AcDbEntity
  8
001
370
     9
100
AcDbPoint
 10
176.984834
 20
111.2652
 30
0.0
  0
POINT
  5
8A
330
78
100
AcDbEntity
  8
001
370
     9
100
AcDbPoint
 10
96.984834
 20
106.7652
 30
0.0
  0
POINT
  5
8B
330
78
100
AcDbEntity
  8
001
370
     9
100
AcDbPoint
 10
96.984834
 20
89.832384
 30
0.0
  0
ENDBLK
  5
7A
330
78
100
AcDbEntity
  8
0
100
AcDbBlockEnd
  0
BLOCK
  5
8D
330
8C
100
AcDbEntity
  8
0
100
AcDbBlockBegin
  2
*D3
 70
     1
 10
0.0
 20
0.0
 30
0.0
  3
*D3
  1

  0
LINE
  5
8F
330
8C
100
AcDbEntity
  8
001
370
     9
100
AcDbLine
 10
176.984834
 20
111.2652
 30
0.0
 11
176.984834
 21
83.977047
 31
0.0
  0
LINE
  5
90
330
8C
100
AcDbEntity
  8
001
370
     9
100
AcDbLine
 10
66.984834
 20
118.08104
 30
0.0
 11
66.984834
 21
83.977047
 31
0.0
  0
LINE
  5
91
330
8C
100
AcDbEntity
  8
001
370
     9
100
AcDbLine
 10
176.984834
 20
85.352047
 30
0.0
 11
66.984834
 21
85.352047
 31
0.0
  0
POLYLINE
  5
92
330
8C
100
AcDbEntity
  8
001
370
     9
100
AcDb2dPolyline
 66
     1
 10
0.0
 20
0.0
 30
0.0
  0
VERTEX
  5
94
330
92
100
AcDbEntity
  8
001
370
     9
100
AcDbVertex
100
AcDb2dVertex
 10
176.234834
 20
85.553009
 30
0.0
  0
VERTEX
  5
95
330
92
100
AcDbEntity
  8
001
370
     9
100
AcDbVertex
100
AcDb2dVertex
 10
176.984834
 20
85.352047
 30
0.0
  0
VERTEX
  5
96
330
92
100
AcDbEntity
  8
001
370
     9
100
AcDbVertex
100
AcDb2dVertex
 10
176.234834
 20
85.151086
 30
0.0
  0
SEQEND
  5
93
330
92
100
AcDbEntity
  8
001
370
     9
  0
POLYLINE
  5
97
330
8C
100
AcDbEntity
  8
001
370
     9
100
AcDb2dPolyline
 66
     1
 10
0.0
 20
0.0
 30
0.0
  0
VERTEX
  5
99
330
97
100
AcDbEntity
  8
001
370
     9
100
AcDbVertex
100
AcDb2dVertex
 10
67.734834
 20
85.151086
 30
0.0
  0
VERTEX
  5
9A
330
97
100
AcDbEntity
  8
001
370
     9
100
AcDbVertex
100
AcDb2dVertex
 10
66.984834
 20
85.352047
 30
0.0
  0
VERTEX
  5
9B
330
97
100
AcDbEntity
  8
001
370
     9
100
AcDbVertex
100
AcDb2dVertex
 10
67.734834
 20
85.553009
 30
0.0
  0
SEQEND
  5
98
330
97
100
AcDbEntity
  8
001
370
     9
  0
TEXT
  5
9C
330
8C
100
AcDbEntity
  8
001
370
    30
100
AcDbText
 10
120.984834
 20
85.852047
 30
0.0
 40
2.0
  1
Ｌ
 41
0.833333
100
AcDbText
  0
POINT
  5
9D
330
8C
100
AcDbEntity
  8
001
370
     9
100
AcDbPoint
 10
176.984834
 20
111.2652
 30
0.0
  0
POINT
  5
9E
330
8C
100
AcDbEntity
  8
001
370
     9
100
AcDbPoint
 10
66.984834
 20
118.08104
 30
0.0
  0
POINT
  5
9F
330
8C
100
AcDbEntity
  8
001
370
     9
100
AcDbPoint
 10
66.984834
 20
85.352047
 30
0.0
  0
ENDBLK
  5
8E
330
8C
100
AcDbEntity
  8
0
100
AcDbBlockEnd
  0
BLOCK
  5
A1
330
A0
100
AcDbEntity
  8
0
100
AcDbBlockBegin
  2
*D4
 70
     1
 10
0.0
 20
0.0
 30
0.0
  3
*D4
  1

  0
LINE
  5
A3
330
A0
100
AcDbEntity
  8
001
370
     9
100
AcDbLine
 10
66.984834
 20
118.08104
 30
0.0
 11
66.984834
 21
92.245323
 31
0.0
  0
LINE
  5
A4
330
A0
100
AcDbEntity
  8
001
370
     9
100
AcDbLine
 10
74.315296
 20
105.213468
 30
0.0
 11
79.817273
 21
95.683764
 31
0.0
  0
ARC
  5
A5
330
A0
100
AcDbEntity
  8
001
370
     9
100
AcDbCircle
 10
66.984834
 20
117.9102
 30
0.0
 40
24.28987777749074
100
AcDbArc
 50
270.0
 51
300.0
  0
POLYLINE
  5
A6
330
A0
100
AcDbEntity
  8
001
370
     9
100
AcDb2dPolyline
 66
     1
 10
0.0
 20
0.0
 30
0.0
  0
VERTEX
  5
A8
330
A6
100
AcDbEntity
  8
001
370
     9
100
AcDbVertex
100
AcDb2dVertex
 10
78.37676
 20
96.68519
 30
0.0
  0
VERTEX
  5
A9
330
A6
100
AcDbEntity
  8
001
370
     9
100
AcDbVertex
100
AcDb2dVertex
 10
79.129773
 20
96.874549
 30
0.0
  0
VERTEX
  5
AA
330
A6
100
AcDbEntity
  8
001
370
     9
100
AcDbVertex
100
AcDb2dVertex
 10
78.572324
 20
96.334053
 30
0.0
  0
SEQEND
  5
A7
330
A6
100
AcDbEntity
  8
001
370
     9
  0
POLYLINE
  5
AB
330
A0
100
AcDbEntity
  8
001
370
     9
100
AcDb2dPolyline
 66
     1
 10
0.0
 20
0.0
 30
0.0
  0
VERTEX
  5
AD
330
AB
100
AcDbEntity
  8
001
370
     9
100
AcDbVertex
100
AcDb2dVertex
 10
67.737847
 20
93.430963
 30
0.0
  0
VERTEX
  5
AE
330
AB
100
AcDbEntity
  8
001
370
     9
100
AcDbVertex
100
AcDb2dVertex
 10
66.984834
 20
93.620323
 30
0.0
  0
VERTEX
  5
AF
330
AB
100
AcDbEntity
  8
001
370
     9
100
AcDbVertex
100
AcDb2dVertex
 10
67.731642
 20
93.832839
 30
0.0
  0
SEQEND
  5
AC
330
AB
100
AcDbEntity
  8
001
370
     9
  0
TEXT
  5
B0
330
A0
100
AcDbEntity
  8
001
370
    30
100
AcDbText
 10
70.24433
 20
94.154486
 30
0.0
 40
2.0
  1
３０%%d
 50
15.0
 41
0.978261
100
AcDbText
  0
POINT
  5
B1
330
A0
100
AcDbEntity
  8
001
370
     9
100
AcDbPoint
 10
66.984834
 20
118.08104
 30
0.0
  0
POINT
  5
B2
330
A0
100
AcDbEntity
  8
001
370
     9
100
AcDbPoint
 10
66.984834
 20
117.9102
 30
0.0
  0
POINT
  5
B3
330
A0
100
AcDbEntity
  8
001
370
     9
100
AcDbPoint
 10
66.984834
 20
117.9102
 30
0.0
  0
POINT
  5
B4
330
A0
100
AcDbEntity
  8
001
370
     9
100
AcDbPoint
 10
74.315296
 20
105.213468
 30
0.0
  0
ENDBLK
  5
A2
330
A0
100
AcDbEntity
  8
0
100
AcDbBlockEnd
  0
BLOCK
  5
B6
330
B5
100
AcDbEntity
  8
0
100
AcDbBlockBegin
  2
*D5
 70
     1
 10
0.0
 20
0.0
 30
0.0
  3
*D5
  1

  0
LINE
  5
B8
330
B5
100
AcDbEntity
  8
001
370
     9
100
AcDbLine
 10
74.455746
 20
104.9702
 30
0.0
 11
74.455746
 21
98.680099
 31
0.0
  0
LINE
  5
B9
330
B5
100
AcDbEntity
  8
001
370
     9
100
AcDbLine
 10
74.455746
 20
100.055099
 30
0.0
 11
66.984834
 21
100.055099
 31
0.0
  0
POLYLINE
  5
BA
330
B5
100
AcDbEntity
  8
001
370
     9
100
AcDb2dPolyline
 66
     1
 10
0.0
 20
0.0
 30
0.0
  0
VERTEX
  5
BC
330
BA
100
AcDbEntity
  8
001
370
     9
100
AcDbVertex
100
AcDb2dVertex
 10
75.205746
 20
99.854138
 30
0.0
  0
VERTEX
  5
BD
330
BA
100
AcDbEntity
  8
001
370
     9
100
AcDbVertex
100
AcDb2dVertex
 10
74.455746
 20
100.055099
 30
0.0
  0
VERTEX
  5
BE
330
BA
100
AcDbEntity
  8
001
370
     9
100
AcDbVertex
100
AcDb2dVertex
 10
75.205746
 20
100.256061
 30
0.0
  0
SEQEND
  5
BB
330
BA
100
AcDbEntity
  8
001
370
     9
  0
POLYLINE
  5
BF
330
B5
100
AcDbEntity
  8
001
370
     9
100
AcDb2dPolyline
 66
     1
 10
0.0
 20
0.0
 30
0.0
  0
VERTEX
  5
C1
330
BF
100
AcDbEntity
  8
001
370
     9
100
AcDbVertex
100
AcDb2dVertex
 10
66.234834
 20
100.256061
 30
0.0
  0
VERTEX
  5
C2
330
BF
100
AcDbEntity
  8
001
370
     9
100
AcDbVertex
100
AcDb2dVertex
 10
66.984834
 20
100.055099
 30
0.0
  0
VERTEX
  5
C3
330
BF
100
AcDbEntity
  8
001
370
     9
100
AcDbVertex
100
AcDb2dVertex
 10
66.234834
 20
99.854138
 30
0.0
  0
SEQEND
  5
C0
330
BF
100
AcDbEntity
  8
001
370
     9
  0
TEXT
  5
C4
330
B5
100
AcDbEntity
  8
001
370
    30
100
AcDbText
 10
59.234834
 20
100.555099
 30
0.0
 40
2.0
  1
７．５
 41
0.833333
100
AcDbText
  0
POINT
  5
C5
330
B5
100
AcDbEntity
  8
001
370
     9
100
AcDbPoint
 10
74.455746
 20
104.9702
 30
0.0
  0
POINT
  5
C6
330
B5
100
AcDbEntity
  8
001
370
     9
100
AcDbPoint
 10
66.984834
 20
101.430099
 30
0.0
  0
POINT
  5
C7
330
B5
100
AcDbEntity
  8
001
370
     9
100
AcDbPoint
 10
66.984834
 20
100.055099
 30
0.0
  0
LINE
  5
C8
330
B5
100
AcDbEntity
  8
001
370
     9
100
AcDbLine
 10
74.455746
 20
100.055099
 30
0.0
 11
75.705746
 21
100.055099
 31
0.0
  0
LINE
  5
C9
330
B5
100
AcDbEntity
  8
001
370
     9
100
AcDbLine
 10
66.984834
 20
100.055099
 30
0.0
 11
57.734834
 21
100.055099
 31
0.0
  0
ENDBLK
  5
B7
330
B5
100
AcDbEntity
  8
0
100
AcDbBlockEnd
  0
BLOCK
  5
CB
330
CA
100
AcDbEntity
  8
0
100
AcDbBlockBegin
  2
*D6
 70
     1
 10
0.0
 20
0.0
 30
0.0
  3
*D6
  1

  0
LINE
  5
CD
330
CA
100
AcDbEntity
  8
001
370
     9
100
AcDbLine
 10
173.984834
 20
108.2652
 30
0.0
 11
188.676787
 21
108.2652
 31
0.0
  0
LINE
  5
CE
330
CA
100
AcDbEntity
  8
001
370
     9
100
AcDbLine
 10
173.984834
 20
128.2652
 30
0.0
 11
188.676787
 21
128.2652
 31
0.0
  0
LINE
  5
CF
330
CA
100
AcDbEntity
  8
001
370
     9
100
AcDbLine
 10
187.301787
 20
108.2652
 30
0.0
 11
187.301787
 21
128.2652
 31
0.0
  0
POLYLINE
  5
D0
330
CA
100
AcDbEntity
  8
001
370
     9
100
AcDb2dPolyline
 66
     1
 10
0.0
 20
0.0
 30
0.0
  0
VERTEX
  5
D2
330
D0
100
AcDbEntity
  8
001
370
     9
100
AcDbVertex
100
AcDb2dVertex
 10
187.502749
 20
109.0152
 30
0.0
  0
VERTEX
  5
D3
330
D0
100
AcDbEntity
  8
001
370
     9
100
AcDbVertex
100
AcDb2dVertex
 10
187.301787
 20
108.2652
 30
0.0
  0
VERTEX
  5
D4
330
D0
100
AcDbEntity
  8
001
370
     9
100
AcDbVertex
100
AcDb2dVertex
 10
187.100825
 20
109.0152
 30
0.0
  0
SEQEND
  5
D1
330
D0
100
AcDbEntity
  8
001
370
     9
  0
POLYLINE
  5
D5
330
CA
100
AcDbEntity
  8
001
370
     9
100
AcDb2dPolyline
 66
     1
 10
0.0
 20
0.0
 30
0.0
  0
VERTEX
  5
D7
330
D5
100
AcDbEntity
  8
001
370
     9
100
AcDbVertex
100
AcDb2dVertex
 10
187.100825
 20
127.5152
 30
0.0
  0
VERTEX
  5
D8
330
D5
100
AcDbEntity
  8
001
370
     9
100
AcDbVertex
100
AcDb2dVertex
 10
187.301787
 20
128.2652
 30
0.0
  0
VERTEX
  5
D9
330
D5
100
AcDbEntity
  8
001
370
     9
100
AcDbVertex
100
AcDb2dVertex
 10
187.502749
 20
127.5152
 30
0.0
  0
SEQEND
  5
D6
330
D5
100
AcDbEntity
  8
001
370
     9
  0
TEXT
  5
DA
330
CA
100
AcDbEntity
  8
001
370
    30
100
AcDbText
 10
186.801787
 20
115.2652
 30
0.0
 40
2.0
  1
%%c２０
 50
90.000003
 41
0.882353
100
AcDbText
  0
POINT
  5
DB
330
CA
100
AcDbEntity
  8
001
370
     9
100
AcDbPoint
 10
173.984834
 20
108.2652
 30
0.0
  0
POINT
  5
DC
330
CA
100
AcDbEntity
  8
001
370
     9
100
AcDbPoint
 10
173.984834
 20
128.2652
 30
0.0
  0
POINT
  5
DD
330
CA
100
AcDbEntity
  8
001
370
     9
100
AcDbPoint
 10
187.301787
 20
128.2652
 30
0.0
  0
ENDBLK
  5
CC
330
CA
100
AcDbEntity
  8
0
100
AcDbBlockEnd
  0
ENDSEC
  0
SECTION
  2
ENTITIES
  0
DIMENSION
  5
DE
330
1F
100
AcDbEntity
  8
001
370
     9
100
AcDbDimension
  2
*D1
 10
66.984834
 20
89.832384
 30
0.0
 11
81.984834
 21
91.332384
 31
0.0
 70
   160
 71
     5
 42
-1.0
  3
Standard
100
AcDbAlignedDimension
 13
96.984834
 23
106.7652
 33
0.0
 14
66.984834
 24
118.08104
 34
0.0
 50
180.0
100
AcDbRotatedDimension
  0
DIMENSION
  5
DF
330
1F
100
AcDbEntity
  8
001
370
     9
100
AcDbDimension
  2
*D2
 10
96.984834
 20
89.832384
 30
0.0
 11
136.984834
 21
91.332384
 31
0.0
 70
   160
 71
     5
 42
-1.0
  3
Standard
100
AcDbAlignedDimension
 13
176.984834
 23
111.2652
 33
0.0
 14
96.984834
 24
106.7652
 34
0.0
 50
180.0
100
AcDbRotatedDimension
  0
DIMENSION
  5
E0
330
1F
100
AcDbEntity
  8
001
370
     9
100
AcDbDimension
  2
*D3
 10
66.984834
 20
85.352047
 30
0.0
 11
121.984834
 21
86.852047
 31
0.0
 70
   160
 71
     5
 42
-1.0
  3
Standard
100
AcDbAlignedDimension
 13
176.984834
 23
111.2652
 33
0.0
 14
66.984834
 24
118.08104
 34
0.0
 50
180.0
100
AcDbRotatedDimension
  0
TEXT
  5
E1
330
1F
100
AcDbEntity
  8
001
370
    30
100
AcDbText
 10
59.804532
 20
120.3702
 30
0.0
 40
2.0
  1
%%c０．７
 50
90.000003
 41
0.869565
100
AcDbText
  0
POLYLINE
  5
E2
330
1F
100
AcDbEntity
  8
001
370
     9
100
AcDb2dPolyline
 66
     1
 10
0.0
 20
0.0
 30
0.0
  0
VERTEX
  5
E4
330
E2
100
AcDbEntity
  8
001
370
     9
100
AcDbVertex
100
AcDb2dVertex
 10
60.10357
 20
117.1602
 30
0.0
  0
VERTEX
  5
E5
330
E2
100
AcDbEntity
  8
001
370
     9
100
AcDbVertex
100
AcDb2dVertex
 10
60.304532
 20
117.9102
 30
0.0
  0
VERTEX
  5
E6
330
E2
100
AcDbEntity
  8
001
370
     9
100
AcDbVertex
100
AcDb2dVertex
 10
60.505494
 20
117.1602
 30
0.0
  0
SEQEND
  5
E3
330
E2
100
AcDbEntity
  8
001
370
     9
  0
LINE
  5
E7
330
1F
100
AcDbEntity
  8
001
370
     9
100
AcDbLine
 10
60.304532
 20
129.8702
 30
0.0
 11
60.304532
 21
116.6602
 31
0.0
  0
POLYLINE
  5
E8
330
1F
100
AcDbEntity
  8
001
370
     9
100
AcDb2dPolyline
 66
     1
 10
0.0
 20
0.0
 30
0.0
  0
VERTEX
  5
EA
330
E8
100
AcDbEntity
  8
001
370
     9
100
AcDbVertex
100
AcDb2dVertex
 10
66.984834
 20
117.9102
 30
0.0
  0
VERTEX
  5
EB
330
E8
100
AcDbEntity
  8
001
370
     9
100
AcDbVertex
100
AcDb2dVertex
 10
60.304532
 20
117.9102
 30
0.0
  0
VERTEX
  5
EC
330
E8
100
AcDbEntity
  8
001
370
     9
100
AcDbVertex
100
AcDb2dVertex
 10
58.929532
 20
117.9102
 30
0.0
  0
SEQEND
  5
E9
330
E8
100
AcDbEntity
  8
001
370
     9
  0
DIMENSION
  5
ED
330
1F
100
AcDbEntity
  8
001
370
     9
100
AcDbDimension
  2
*D4
 10
66.984834
 20
117.9102
 30
0.0
 11
72.883288
 21
95.896869
 31
0.0
 70
    34
 71
     5
 42
-1.0
  3
Standard
100
AcDb2LineAngularDimension
 13
66.984834
 23
118.08104
 33
0.0
 14
66.984834
 24
117.9102
 34
0.0
 15
74.315296
 25
105.213468
 35
0.0
 16
73.271517
 26
94.44798
 36
0.0
  0
TEXT
  5
EE
330
1F
100
AcDbEntity
  8
001
370
    30
100
AcDbText
 10
54.203007
 20
109.8677
 30
0.0
 40
2.0
  1
（%%c２６．５９）
 50
90.000003
 41
0.851064
100
AcDbText
  0
POLYLINE
  5
EF
330
1F
100
AcDbEntity
  8
001
370
     9
100
AcDb2dPolyline
 66
     1
 10
0.0
 20
0.0
 30
0.0
  0
VERTEX
  5
F1
330
EF
100
AcDbEntity
  8
001
370
     9
100
AcDbVertex
100
AcDb2dVertex
 10
54.903969
 20
105.7202
 30
0.0
  0
VERTEX
  5
F2
330
EF
100
AcDbEntity
  8
001
370
     9
100
AcDbVertex
100
AcDb2dVertex
 10
54.703007
 20
104.9702
 30
0.0
  0
VERTEX
  5
F3
330
EF
100
AcDbEntity
  8
001
370
     9
100
AcDbVertex
100
AcDb2dVertex
 10
54.502045
 20
105.7202
 30
0.0
  0
SEQEND
  5
F0
330
EF
100
AcDbEntity
  8
001
370
     9
  0
LINE
  5
F4
330
1F
100
AcDbEntity
  8
001
370
     9
100
AcDbLine
 10
54.703007
 20
130.7652
 30
0.0
 11
54.703007
 21
104.9702
 31
0.0
  0
POLYLINE
  5
F5
330
1F
100
AcDbEntity
  8
001
370
     9
100
AcDb2dPolyline
 66
     1
 10
0.0
 20
0.0
 30
0.0
  0
VERTEX
  5
F7
330
F5
100
AcDbEntity
  8
001
370
     9
100
AcDbVertex
100
AcDb2dVertex
 10
74.736648
 20
104.9702
 30
0.0
  0
VERTEX
  5
F8
330
F5
100
AcDbEntity
  8
001
370
     9
100
AcDbVertex
100
AcDb2dVertex
 10
54.703007
 20
104.9702
 30
0.0
  0
VERTEX
  5
F9
330
F5
100
AcDbEntity
  8
001
370
     9
100
AcDbVertex
100
AcDb2dVertex
 10
53.328007
 20
104.9702
 30
0.0
  0
SEQEND
  5
F6
330
F5
100
AcDbEntity
  8
001
370
     9
  0
DIMENSION
  5
FA
330
1F
100
AcDbEntity
  8
001
370
     9
100
AcDbDimension
  2
*D5
 10
66.984834
 20
100.055099
 30
0.0
 11
62.234834
 21
101.555099
 31
0.0
 70
   160
 71
     5
 42
-1.0
  3
Standard
100
AcDbAlignedDimension
 13
74.455746
 23
104.9702
 33
0.0
 14
66.984834
 24
101.430099
 34
0.0
 50
180.0
100
AcDbRotatedDimension
  0
DIMENSION
  5
FB
330
1F
100
AcDbEntity
  8
001
370
     9
100
AcDbDimension
  2
*D6
 10
187.301787
 20
128.2652
 30
0.0
 11
185.801787
 21
118.2652
 31
0.0
 70
   160
 71
     5
 42
-1.0
  3
Standard
100
AcDbAlignedDimension
 13
173.984834
 23
108.2652
 33
0.0
 14
173.984834
 24
128.2652
 34
0.0
 50
90.0
100
AcDbRotatedDimension
  0
TEXT
  5
FC
330
1F
100
AcDbEntity
  8
001
370
    30
100
AcDbText
 10
66.75352
 20
151.038731
 30
0.0
 40
5.0
  1
エコメン　ＥＭＬ２０３０Ｔ
 41
0.833333
100
AcDbText
  0
TEXT
  5
FD
330
1F
100
AcDbEntity
  8
001
370
    30
100
AcDbText
 10
73.542242
 20
57.952925
 30
0.0
 40
4.0
  1
ＮＯ．
 41
0.833333
100
AcDbText
  0
TEXT
  5
FE
330
1F
100
AcDbEntity
  8
001
370
    30
100
AcDbText
 10
105.542242
 20
57.952925
 30
0.0
 40
4.0
  1
型番
 41
0.833333
100
AcDbText
  0
TEXT
  5
FF
330
1F
100
AcDbEntity
  8
001
370
    30
100
AcDbText
 10
137.542242
 20
57.952925
 30
0.0
 40
4.0
  1
ｌ
 41
0.833333
100
AcDbText
  0
TEXT
  5
100
330
1F
100
AcDbEntity
  8
001
370
    30
100
AcDbText
 10
157.542242
 20
57.952925
 30
0.0
 40
4.0
  1
Ｌ
 41
0.833333
100
AcDbText
  0
TEXT
  5
101
330
1F
100
AcDbEntity
  8
001
370
    30
100
AcDbText
 10
77.542242
 20
49.952925
 30
0.0
 40
4.0
  1
１
 41
0.833333
100
AcDbText
  0
TEXT
  5
102
330
1F
100
AcDbEntity
  8
001
370
    30
100
AcDbText
 10
77.542242
 20
41.952925
 30
0.0
 40
4.0
  1
２
 41
0.833333
100
AcDbText
  0
LINE
  5
103
330
1F
100
AcDbEntity
  8
001
370
    50
100
AcDbLine
 10
169.542242
 20
63.952925
 30
0.0
 11
169.542242
 21
39.952925
 31
0.0
  0
LINE
  5
104
330
1F
100
AcDbEntity
  8
001
370
    30
100
AcDbLine
 10
149.542242
 20
63.952925
 30
0.0
 11
149.542242
 21
39.952925
 31
0.0
  0
LINE
  5
105
330
1F
100
AcDbEntity
  8
001
370
    30
100
AcDbLine
 10
129.542242
 20
63.952925
 30
0.0
 11
129.542242
 21
39.952925
 31
0.0
  0
LINE
  5
106
330
1F
100
AcDbEntity
  8
001
370
    50
100
AcDbLine
 10
89.542242
 20
63.952925
 30
0.0
 11
89.542242
 21
39.952925
 31
0.0
  0
LINE
  5
107
330
1F
100
AcDbEntity
  8
001
370
    50
100
AcDbLine
 10
69.542242
 20
63.952925
 30
0.0
 11
69.542242
 21
39.952925
 31
0.0
  0
LINE
  5
108
330
1F
100
AcDbEntity
  8
001
370
    50
100
AcDbLine
 10
169.542242
 20
63.952925
 30
0.0
 11
69.542242
 21
63.952925
 31
0.0
  0
LINE
  5
109
330
1F
100
AcDbEntity
  8
001
370
    50
100
AcDbLine
 10
169.542242
 20
55.952925
 30
0.0
 11
69.542242
 21
55.952925
 31
0.0
  0
LINE
  5
10A
330
1F
100
AcDbEntity
  8
001
370
    30
100
AcDbLine
 10
169.542242
 20
47.952925
 30
0.0
 11
69.542242
 21
47.952925
 31
0.0
  0
LINE
  5
10B
330
1F
100
AcDbEntity
  8
001
370
    50
100
AcDbLine
 10
169.542242
 20
39.952925
 30
0.0
 11
69.542242
 21
39.952925
 31
0.0
  0
TEXT
  5
10C
330
1F
100
AcDbEntity
  8
001
370
    30
100
AcDbText
 10
135.542242
 20
49.952925
 30
0.0
 40
4.0
  1
８０
 41
0.833333
100
AcDbText
  0
TEXT
  5
10D
330
1F
100
AcDbEntity
  8
001
370
    30
100
AcDbText
 10
133.542242
 20
41.952925
 30
0.0
 40
4.0
  1
１４０
 41
0.833333
100
AcDbText
  0
TEXT
  5
10E
330
1F
100
AcDbEntity
  8
001
370
    30
100
AcDbText
 10
93.542242
 20
49.952925
 30
0.0
 40
4.0
  1
ＥＭＬ２０３０Ｔ
 41
0.833333
100
AcDbText
  0
TEXT
  5
10F
330
1F
100
AcDbEntity
  8
001
370
    30
100
AcDbText
 10
91.542242
 20
41.952925
 30
0.0
 40
4.0
  1
ＥＭＬ２０３０ＴＬ
 41
0.833333
100
AcDbText
  0
TEXT
  5
110
330
1F
100
AcDbEntity
  8
001
370
    30
100
AcDbText
 10
153.542242
 20
49.952925
 30
0.0
 40
4.0
  1
１１０
 41
0.833333
100
AcDbText
  0
TEXT
  5
111
330
1F
100
AcDbEntity
  8
001
370
    30
100
AcDbText
 10
153.542242
 20
41.952925
 30
0.0
 40
4.0
  1
１７０
 41
0.833333
100
AcDbText
  0
POLYLINE
  5
112
330
1F
100
AcDbEntity
  8
001
370
    50
100
AcDb2dPolyline
 66
     1
 10
0.0
 20
0.0
 30
0.0
  0
VERTEX
  5
114
330
112
100
AcDbEntity
  8
001
370
    50
100
AcDbVertex
100
AcDb2dVertex
 10
74.617282
 20
117.060259
 30
0.0
  0
VERTEX
  5
115
330
112
100
AcDbEntity
  8
001
370
    50
100
AcDbVertex
100
AcDb2dVertex
 10
74.404516
 20
117.04884
 30
0.0
  0
VERTEX
  5
116
330
112
100
AcDbEntity
  8
001
370
    50
100
AcDbVertex
100
AcDb2dVertex
 10
74.11332
 20
117.014682
 30
0.0
  0
VERTEX
  5
117
330
112
100
AcDbEntity
  8
001
370
    50
100
AcDbVertex
100
AcDb2dVertex
 10
73.855021
 20
116.957916
 30
0.0
  0
VERTEX
  5
118
330
112
100
AcDbEntity
  8
001
370
    50
100
AcDbVertex
100
AcDb2dVertex
 10
73.62467
 20
116.879337
 30
0.0
  0
VERTEX
  5
119
330
112
100
AcDbEntity
  8
001
370
    50
100
AcDbVertex
100
AcDb2dVertex
 10
73.393894
 20
116.779283
 30
0.0
  0
VERTEX
  5
11A
330
112
100
AcDbEntity
  8
001
370
    50
100
AcDbVertex
100
AcDb2dVertex
 10
73.166181
 20
116.658335
 30
0.0
  0
VERTEX
  5
11B
330
112
100
AcDbEntity
  8
001
370
    50
100
AcDbVertex
100
AcDb2dVertex
 10
72.56167
 20
116.178837
 30
0.0
  0
VERTEX
  5
11C
330
112
100
AcDbEntity
  8
001
370
    50
100
AcDbVertex
100
AcDb2dVertex
 10
72.103901
 20
115.560259
 30
0.0
  0
VERTEX
  5
11D
330
112
100
AcDbEntity
  8
001
370
    50
100
AcDbVertex
100
AcDb2dVertex
 10
71.88969
 20
115.084688
 30
0.0
  0
VERTEX
  5
11E
330
112
100
AcDbEntity
  8
001
370
    50
100
AcDbVertex
100
AcDb2dVertex
 10
71.759171
 20
114.581203
 30
0.0
  0
VERTEX
  5
11F
330
112
100
AcDbEntity
  8
001
370
    50
100
AcDbVertex
100
AcDb2dVertex
 10
71.726099
 20
114.321584
 30
0.0
  0
VERTEX
  5
120
330
112
100
AcDbEntity
  8
001
370
    50
100
AcDbVertex
100
AcDb2dVertex
 10
71.71508
 20
114.060259
 30
0.0
  0
VERTEX
  5
121
330
112
100
AcDbEntity
  8
001
370
    50
100
AcDbVertex
100
AcDb2dVertex
 10
71.726099
 20
113.798934
 30
0.0
  0
VERTEX
  5
122
330
112
100
AcDbEntity
  8
001
370
    50
100
AcDbVertex
100
AcDb2dVertex
 10
71.759171
 20
113.539314
 30
0.0
  0
VERTEX
  5
123
330
112
100
AcDbEntity
  8
001
370
    50
100
AcDbVertex
100
AcDb2dVertex
 10
71.88969
 20
113.03583
 30
0.0
  0
VERTEX
  5
124
330
112
100
AcDbEntity
  8
001
370
    50
100
AcDbVertex
100
AcDb2dVertex
 10
72.103901
 20
112.560259
 30
0.0
  0
VERTEX
  5
125
330
112
100
AcDbEntity
  8
001
370
    50
100
AcDbVertex
100
AcDb2dVertex
 10
72.56167
 20
111.941681
 30
0.0
  0
VERTEX
  5
126
330
112
100
AcDbEntity
  8
001
370
    50
100
AcDbVertex
100
AcDb2dVertex
 10
73.166181
 20
111.462183
 30
0.0
  0
VERTEX
  5
127
330
112
100
AcDbEntity
  8
001
370
    50
100
AcDbVertex
100
AcDb2dVertex
 10
73.393894
 20
111.341235
 30
0.0
  0
VERTEX
  5
128
330
112
100
AcDbEntity
  8
001
370
    50
100
AcDbVertex
100
AcDb2dVertex
 10
73.62467
 20
111.241181
 30
0.0
  0
VERTEX
  5
129
330
112
100
AcDbEntity
  8
001
370
    50
100
AcDbVertex
100
AcDb2dVertex
 10
73.855021
 20
111.162601
 30
0.0
  0
VERTEX
  5
12A
330
112
100
AcDbEntity
  8
001
370
    50
100
AcDbVertex
100
AcDb2dVertex
 10
74.11332
 20
111.105836
 30
0.0
  0
VERTEX
  5
12B
330
112
100
AcDbEntity
  8
001
370
    50
100
AcDbVertex
100
AcDb2dVertex
 10
74.404516
 20
111.071678
 30
0.0
  0
VERTEX
  5
12C
330
112
100
AcDbEntity
  8
001
370
    50
100
AcDbVertex
100
AcDb2dVertex
 10
74.617282
 20
111.060259
 30
0.0
  0
SEQEND
  5
113
330
112
100
AcDbEntity
  8
001
370
    50
  0
LINE
  5
12D
330
1F
100
AcDbEntity
  8
001
370
    50
100
AcDbLine
 10
75.165898
 20
105.227691
 30
0.0
 11
82.020122
 21
118.073101
 31
0.0
  0
POLYLINE
  5
12E
330
1F
100
AcDbEntity
  8
001
370
    50
100
AcDb2dPolyline
 66
     1
 10
0.0
 20
0.0
 30
0.0
  0
VERTEX
  5
130
330
12E
100
AcDbEntity
  8
001
370
    50
100
AcDbVertex
100
AcDb2dVertex
 10
75.250376
 20
105.393008
 30
0.0
  0
VERTEX
  5
131
330
12E
100
AcDbEntity
  8
001
370
    50
100
AcDbVertex
100
AcDb2dVertex
 10
75.261757
 20
105.410571
 30
0.0
  0
VERTEX
  5
132
330
12E
100
AcDbEntity
  8
001
370
    50
100
AcDbVertex
100
AcDb2dVertex
 10
75.277377
 20
105.436849
 30
0.0
  0
VERTEX
  5
133
330
12E
100
AcDbEntity
  8
001
370
    50
100
AcDbVertex
100
AcDb2dVertex
 10
75.28071
 20
105.442902
 30
0.0
  0
VERTEX
  5
134
330
12E
100
AcDbEntity
  8
001
370
    50
100
AcDbVertex
100
AcDb2dVertex
 10
75.282954
 20
105.447063
 30
0.0
  0
SEQEND
  5
12F
330
12E
100
AcDbEntity
  8
001
370
    50
  0
LINE
  5
135
330
1F
100
AcDbEntity
  8
001
370
    50
100
AcDbLine
 10
67.580468
 20
118.681462
 30
0.0
 11
81.500524
 21
118.962772
 31
0.0
  0
POLYLINE
  5
136
330
1F
100
AcDbEntity
  8
001
370
    50
100
AcDb2dPolyline
 66
     1
 10
0.0
 20
0.0
 30
0.0
  0
VERTEX
  5
138
330
136
100
AcDbEntity
  8
001
370
    50
100
AcDbVertex
100
AcDb2dVertex
 10
82.05127
 20
118.141284
 30
0.0
  0
VERTEX
  5
139
330
136
100
AcDbEntity
  8
001
370
    50
100
AcDbVertex
100
AcDb2dVertex
 10
82.066864
 20
118.190292
 30
0.0
  0
VERTEX
  5
13A
330
136
100
AcDbEntity
  8
001
370
    50
100
AcDbVertex
100
AcDb2dVertex
 10
82.083491
 20
118.258698
 30
0.0
  0
VERTEX
  5
13B
330
136
100
AcDbEntity
  8
001
370
    50
100
AcDbVertex
100
AcDb2dVertex
 10
82.090852
 20
118.312557
 30
0.0
  0
VERTEX
  5
13C
330
136
100
AcDbEntity
  8
001
370
    50
100
AcDbVertex
100
AcDb2dVertex
 10
82.09231
 20
118.362887
 30
0.0
  0
VERTEX
  5
13D
330
136
100
AcDbEntity
  8
001
370
    50
100
AcDbVertex
100
AcDb2dVertex
 10
82.089877
 20
118.41459
 30
0.0
  0
VERTEX
  5
13E
330
136
100
AcDbEntity
  8
001
370
    50
100
AcDbVertex
100
AcDb2dVertex
 10
82.083491
 20
118.467076
 30
0.0
  0
VERTEX
  5
13F
330
136
100
AcDbEntity
  8
001
370
    50
100
AcDbVertex
100
AcDb2dVertex
 10
82.05767
 20
118.568152
 30
0.0
  0
VERTEX
  5
140
330
136
100
AcDbEntity
  8
001
370
    50
100
AcDbVertex
100
AcDb2dVertex
 10
82.014545
 20
118.662887
 30
0.0
  0
VERTEX
  5
141
330
136
100
AcDbEntity
  8
001
370
    50
100
AcDbVertex
100
AcDb2dVertex
 10
81.921965
 20
118.786448
 30
0.0
  0
VERTEX
  5
142
330
136
100
AcDbEntity
  8
001
370
    50
100
AcDbVertex
100
AcDb2dVertex
 10
81.80209
 20
118.882502
 30
0.0
  0
VERTEX
  5
143
330
136
100
AcDbEntity
  8
001
370
    50
100
AcDbVertex
100
AcDb2dVertex
 10
81.757506
 20
118.906705
 30
0.0
  0
VERTEX
  5
144
330
136
100
AcDbEntity
  8
001
370
    50
100
AcDbVertex
100
AcDb2dVertex
 10
81.710392
 20
118.926702
 30
0.0
  0
VERTEX
  5
145
330
136
100
AcDbEntity
  8
001
370
    50
100
AcDbVertex
100
AcDb2dVertex
 10
81.661152
 20
118.942396
 30
0.0
  0
VERTEX
  5
146
330
136
100
AcDbEntity
  8
001
370
    50
100
AcDbVertex
100
AcDb2dVertex
 10
81.612662
 20
118.953772
 30
0.0
  0
VERTEX
  5
147
330
136
100
AcDbEntity
  8
001
370
    50
100
AcDbVertex
100
AcDb2dVertex
 10
81.566108
 20
118.960677
 30
0.0
  0
VERTEX
  5
148
330
136
100
AcDbEntity
  8
001
370
    50
100
AcDbVertex
100
AcDb2dVertex
 10
81.511869
 20
118.962887
 30
0.0
  0
VERTEX
  5
149
330
136
100
AcDbEntity
  8
001
370
    50
100
AcDbVertex
100
AcDb2dVertex
 10
81.505164
 20
118.962837
 30
0.0
  0
VERTEX
  5
14A
330
136
100
AcDbEntity
  8
001
370
    50
100
AcDbVertex
100
AcDb2dVertex
 10
81.500524
 20
118.962772
 30
0.0
  0
SEQEND
  5
137
330
136
100
AcDbEntity
  8
001
370
    50
  0
POLYLINE
  5
14B
330
1F
100
AcDbEntity
  8
001
370
    50
100
AcDb2dPolyline
 66
     1
 10
0.0
 20
0.0
 30
0.0
  0
VERTEX
  5
14D
330
14B
100
AcDbEntity
  8
001
370
    50
100
AcDbVertex
100
AcDb2dVertex
 10
82.020122
 20
118.073101
 30
0.0
  0
VERTEX
  5
14E
330
14B
100
AcDbEntity
  8
001
370
    50
100
AcDbVertex
100
AcDb2dVertex
 10
82.027098
 20
118.086635
 30
0.0
  0
VERTEX
  5
14F
330
14B
100
AcDbEntity
  8
001
370
    50
100
AcDbVertex
100
AcDb2dVertex
 10
82.036733
 20
118.106686
 30
0.0
  0
VERTEX
  5
150
330
14B
100
AcDbEntity
  8
001
370
    50
100
AcDbVertex
100
AcDb2dVertex
 10
82.045596
 20
118.127128
 30
0.0
  0
VERTEX
  5
151
330
14B
100
AcDbEntity
  8
001
370
    50
100
AcDbVertex
100
AcDb2dVertex
 10
82.05127
 20
118.141284
 30
0.0
  0
SEQEND
  5
14C
330
14B
100
AcDbEntity
  8
001
370
    50
  0
LINE
  5
152
330
1F
100
AcDbEntity
  8
001
370
    50
100
AcDbLine
 10
81.319546
 20
116.240756
 30
0.0
 11
81.23486
 21
116.057307
 31
0.0
  0
POLYLINE
  5
153
330
1F
100
AcDbEntity
  8
001
370
    50
100
AcDb2dPolyline
 66
     1
 10
0.0
 20
0.0
 30
0.0
  0
VERTEX
  5
155
330
153
100
AcDbEntity
  8
001
370
    50
100
AcDbVertex
100
AcDb2dVertex
 10
81.319567
 20
116.240812
 30
0.0
  0
VERTEX
  5
156
330
153
100
AcDbEntity
  8
001
370
    50
100
AcDbVertex
100
AcDb2dVertex
 10
81.404584
 20
116.461628
 30
0.0
  0
VERTEX
  5
157
330
153
100
AcDbEntity
  8
001
370
    50
100
AcDbVertex
100
AcDb2dVertex
 10
81.4896
 20
116.682443
 30
0.0
  0
VERTEX
  5
158
330
153
100
AcDbEntity
  8
001
370
    50
100
AcDbVertex
100
AcDb2dVertex
 10
81.770598
 20
117.41229
 30
0.0
  0
VERTEX
  5
159
330
153
100
AcDbEntity
  8
001
370
    50
100
AcDbVertex
100
AcDb2dVertex
 10
82.051597
 20
118.142136
 30
0.0
  0
SEQEND
  5
154
330
153
100
AcDbEntity
  8
001
370
    50
  0
LINE
  5
15A
330
1F
100
AcDbEntity
  8
001
370
    50
100
AcDbLine
 10
80.438412
 20
114.564695
 30
0.0
 11
81.23486
 21
116.057307
 31
0.0
  0
POLYLINE
  5
15B
330
1F
100
AcDbEntity
  8
001
370
    50
100
AcDb2dPolyline
 66
     1
 10
0.0
 20
0.0
 30
0.0
  0
VERTEX
  5
15D
330
15B
100
AcDbEntity
  8
001
370
    50
100
AcDbVertex
100
AcDb2dVertex
 10
74.617282
 20
111.060259
 30
0.0
  0
VERTEX
  5
15E
330
15B
100
AcDbEntity
  8
001
370
    50
100
AcDbVertex
100
AcDb2dVertex
 10
74.830047
 20
111.071678
 30
0.0
  0
VERTEX
  5
15F
330
15B
100
AcDbEntity
  8
001
370
    50
100
AcDbVertex
100
AcDb2dVertex
 10
75.121244
 20
111.105836
 30
0.0
  0
VERTEX
  5
160
330
15B
100
AcDbEntity
  8
001
370
    50
100
AcDbVertex
100
AcDb2dVertex
 10
75.379542
 20
111.162601
 30
0.0
  0
VERTEX
  5
161
330
15B
100
AcDbEntity
  8
001
370
    50
100
AcDbVertex
100
AcDb2dVertex
 10
75.609893
 20
111.241181
 30
0.0
  0
VERTEX
  5
162
330
15B
100
AcDbEntity
  8
001
370
    50
100
AcDbVertex
100
AcDb2dVertex
 10
75.840669
 20
111.341235
 30
0.0
  0
VERTEX
  5
163
330
15B
100
AcDbEntity
  8
001
370
    50
100
AcDbVertex
100
AcDb2dVertex
 10
76.068382
 20
111.462183
 30
0.0
  0
VERTEX
  5
164
330
15B
100
AcDbEntity
  8
001
370
    50
100
AcDbVertex
100
AcDb2dVertex
 10
76.672893
 20
111.941681
 30
0.0
  0
VERTEX
  5
165
330
15B
100
AcDbEntity
  8
001
370
    50
100
AcDbVertex
100
AcDb2dVertex
 10
77.130662
 20
112.560259
 30
0.0
  0
VERTEX
  5
166
330
15B
100
AcDbEntity
  8
001
370
    50
100
AcDbVertex
100
AcDb2dVertex
 10
77.344873
 20
113.03583
 30
0.0
  0
VERTEX
  5
167
330
15B
100
AcDbEntity
  8
001
370
    50
100
AcDbVertex
100
AcDb2dVertex
 10
77.475392
 20
113.539314
 30
0.0
  0
VERTEX
  5
168
330
15B
100
AcDbEntity
  8
001
370
    50
100
AcDbVertex
100
AcDb2dVertex
 10
77.508464
 20
113.798934
 30
0.0
  0
VERTEX
  5
169
330
15B
100
AcDbEntity
  8
001
370
    50
100
AcDbVertex
100
AcDb2dVertex
 10
77.519483
 20
114.060259
 30
0.0
  0
VERTEX
  5
16A
330
15B
100
AcDbEntity
  8
001
370
    50
100
AcDbVertex
100
AcDb2dVertex
 10
77.508464
 20
114.321584
 30
0.0
  0
VERTEX
  5
16B
330
15B
100
AcDbEntity
  8
001
370
    50
100
AcDbVertex
100
AcDb2dVertex
 10
77.475392
 20
114.581203
 30
0.0
  0
VERTEX
  5
16C
330
15B
100
AcDbEntity
  8
001
370
    50
100
AcDbVertex
100
AcDb2dVertex
 10
77.344873
 20
115.084688
 30
0.0
  0
VERTEX
  5
16D
330
15B
100
AcDbEntity
  8
001
370
    50
100
AcDbVertex
100
AcDb2dVertex
 10
77.130662
 20
115.560259
 30
0.0
  0
VERTEX
  5
16E
330
15B
100
AcDbEntity
  8
001
370
    50
100
AcDbVertex
100
AcDb2dVertex
 10
76.672893
 20
116.178837
 30
0.0
  0
VERTEX
  5
16F
330
15B
100
AcDbEntity
  8
001
370
    50
100
AcDbVertex
100
AcDb2dVertex
 10
76.068382
 20
116.658335
 30
0.0
  0
VERTEX
  5
170
330
15B
100
AcDbEntity
  8
001
370
    50
100
AcDbVertex
100
AcDb2dVertex
 10
75.840669
 20
116.779283
 30
0.0
  0
VERTEX
  5
171
330
15B
100
AcDbEntity
  8
001
370
    50
100
AcDbVertex
100
AcDb2dVertex
 10
75.609893
 20
116.879337
 30
0.0
  0
VERTEX
  5
172
330
15B
100
AcDbEntity
  8
001
370
    50
100
AcDbVertex
100
AcDb2dVertex
 10
75.379542
 20
116.957916
 30
0.0
  0
VERTEX
  5
173
330
15B
100
AcDbEntity
  8
001
370
    50
100
AcDbVertex
100
AcDb2dVertex
 10
75.121244
 20
117.014682
 30
0.0
  0
VERTEX
  5
174
330
15B
100
AcDbEntity
  8
001
370
    50
100
AcDbVertex
100
AcDb2dVertex
 10
74.830047
 20
117.04884
 30
0.0
  0
VERTEX
  5
175
330
15B
100
AcDbEntity
  8
001
370
    50
100
AcDbVertex
100
AcDb2dVertex
 10
74.617282
 20
117.060259
 30
0.0
  0
SEQEND
  5
15C
330
15B
100
AcDbEntity
  8
001
370
    50
  0
LINE
  5
176
330
1F
100
AcDbEntity
  8
001
370
    50
100
AcDbLine
 10
75.249049
 20
105.391055
 30
0.0
 11
75.583409
 21
105.89612
 31
0.0
  0
LINE
  5
177
330
1F
100
AcDbEntity
  8
001
370
    50
100
AcDbLine
 10
74.758337
 20
130.7652
 30
0.0
 11
74.758337
 21
130.623282
 31
0.0
  0
LINE
  5
178
330
1F
100
AcDbEntity
  8
001
370
    50
100
AcDbLine
 10
95.984834
 20
130.7652
 30
0.0
 11
74.758337
 21
130.7652
 31
0.0
  0
LINE
  5
179
330
1F
100
AcDbEntity
  8
001
370
    50
100
AcDbLine
 10
75.718505
 20
105.7652
 30
0.0
 11
95.984834
 21
105.7652
 31
0.0
  0
POLYLINE
  5
17A
330
1F
100
AcDbEntity
  8
001
370
    50
100
AcDb2dPolyline
 66
     1
 10
0.0
 20
0.0
 30
0.0
  0
VERTEX
  5
17C
330
17A
100
AcDbEntity
  8
001
370
    50
100
AcDbVertex
100
AcDb2dVertex
 10
75.570193
 20
105.941296
 30
0.0
  0
VERTEX
  5
17D
330
17A
100
AcDbEntity
  8
001
370
    50
100
AcDbVertex
100
AcDb2dVertex
 10
75.571846
 20
105.930496
 30
0.0
  0
VERTEX
  5
17E
330
17A
100
AcDbEntity
  8
001
370
    50
100
AcDbVertex
100
AcDb2dVertex
 10
75.574697
 20
105.914791
 30
0.0
  0
VERTEX
  5
17F
330
17A
100
AcDbEntity
  8
001
370
    50
100
AcDbVertex
100
AcDb2dVertex
 10
75.577925
 20
105.900291
 30
0.0
  0
VERTEX
  5
180
330
17A
100
AcDbEntity
  8
001
370
    50
100
AcDbVertex
100
AcDb2dVertex
 10
75.580423
 20
105.890435
 30
0.0
  0
SEQEND
  5
17B
330
17A
100
AcDbEntity
  8
001
370
    50
  0
POLYLINE
  5
181
330
1F
100
AcDbEntity
  8
001
370
    50
100
AcDb2dPolyline
 66
     1
 10
0.0
 20
0.0
 30
0.0
  0
VERTEX
  5
183
330
181
100
AcDbEntity
  8
001
370
    50
100
AcDbVertex
100
AcDb2dVertex
 10
75.580423
 20
105.890435
 30
0.0
  0
VERTEX
  5
184
330
181
100
AcDbEntity
  8
001
370
    50
100
AcDbVertex
100
AcDb2dVertex
 10
75.601843
 20
105.837031
 30
0.0
  0
VERTEX
  5
185
330
181
100
AcDbEntity
  8
001
370
    50
100
AcDbVertex
100
AcDb2dVertex
 10
75.653982
 20
105.780744
 30
0.0
  0
VERTEX
  5
186
330
181
100
AcDbEntity
  8
001
370
    50
100
AcDbVertex
100
AcDb2dVertex
 10
75.690903
 20
105.768245
 30
0.0
  0
VERTEX
  5
187
330
181
100
AcDbEntity
  8
001
370
    50
100
AcDbVertex
100
AcDb2dVertex
 10
75.718505
 20
105.7652
 30
0.0
  0
SEQEND
  5
182
330
181
100
AcDbEntity
  8
001
370
    50
  0
POLYLINE
  5
188
330
1F
100
AcDbEntity
  8
001
370
    50
100
AcDb2dPolyline
 66
     1
 10
0.0
 20
0.0
 30
0.0
  0
VERTEX
  5
18A
330
188
100
AcDbEntity
  8
001
370
    50
100
AcDbVertex
100
AcDb2dVertex
 10
75.570193
 20
105.941296
 30
0.0
  0
VERTEX
  5
18B
330
188
100
AcDbEntity
  8
001
370
    50
100
AcDbVertex
100
AcDb2dVertex
 10
75.694062
 20
105.946846
 30
0.0
  0
VERTEX
  5
18C
330
188
100
AcDbEntity
  8
001
370
    50
100
AcDbVertex
100
AcDb2dVertex
 10
75.875096
 20
105.955104
 30
0.0
  0
VERTEX
  5
18D
330
188
100
AcDbEntity
  8
001
370
    50
100
AcDbVertex
100
AcDb2dVertex
 10
78.966812
 20
106.131492
 30
0.0
  0
VERTEX
  5
18E
330
188
100
AcDbEntity
  8
001
370
    50
100
AcDbVertex
100
AcDb2dVertex
 10
81.905753
 20
106.353422
 30
0.0
  0
VERTEX
  5
18F
330
188
100
AcDbEntity
  8
001
370
    50
100
AcDbVertex
100
AcDb2dVertex
 10
84.543156
 20
106.592174
 30
0.0
  0
VERTEX
  5
190
330
188
100
AcDbEntity
  8
001
370
    50
100
AcDbVertex
100
AcDb2dVertex
 10
86.730258
 20
106.819027
 30
0.0
  0
VERTEX
  5
191
330
188
100
AcDbEntity
  8
001
370
    50
100
AcDbVertex
100
AcDb2dVertex
 10
88.318295
 20
107.00526
 30
0.0
  0
SEQEND
  5
189
330
188
100
AcDbEntity
  8
001
370
    50
  0
POLYLINE
  5
192
330
1F
100
AcDbEntity
  8
001
370
    50
100
AcDb2dPolyline
 66
     1
 10
0.0
 20
0.0
 30
0.0
  0
VERTEX
  5
194
330
192
100
AcDbEntity
  8
001
370
    50
100
AcDbVertex
100
AcDb2dVertex
 10
88.318295
 20
107.00526
 30
0.0
  0
VERTEX
  5
195
330
192
100
AcDbEntity
  8
001
370
    50
100
AcDbVertex
100
AcDb2dVertex
 10
88.518151
 20
107.179851
 30
0.0
  0
VERTEX
  5
196
330
192
100
AcDbEntity
  8
001
370
    50
100
AcDbVertex
100
AcDb2dVertex
 10
88.79918
 20
107.439883
 30
0.0
  0
VERTEX
  5
197
330
192
100
AcDbEntity
  8
001
370
    50
100
AcDbVertex
100
AcDb2dVertex
 10
90.537913
 20
109.674708
 30
0.0
  0
VERTEX
  5
198
330
192
100
AcDbEntity
  8
001
370
    50
100
AcDbVertex
100
AcDb2dVertex
 10
91.475995
 20
112.0152
 30
0.0
  0
VERTEX
  5
199
330
192
100
AcDbEntity
  8
001
370
    50
100
AcDbVertex
100
AcDb2dVertex
 10
92.000846
 20
114.015184
 30
0.0
  0
VERTEX
  5
19A
330
192
100
AcDbEntity
  8
001
370
    50
100
AcDbVertex
100
AcDb2dVertex
 10
92.344673
 20
116.094598
 30
0.0
  0
VERTEX
  5
19B
330
192
100
AcDbEntity
  8
001
370
    50
100
AcDbVertex
100
AcDb2dVertex
 10
92.429844
 20
117.180891
 30
0.0
  0
VERTEX
  5
19C
330
192
100
AcDbEntity
  8
001
370
    50
100
AcDbVertex
100
AcDb2dVertex
 10
92.455777
 20
118.2652
 30
0.0
  0
VERTEX
  5
19D
330
192
100
AcDbEntity
  8
001
370
    50
100
AcDbVertex
100
AcDb2dVertex
 10
92.429844
 20
119.349509
 30
0.0
  0
VERTEX
  5
19E
330
192
100
AcDbEntity
  8
001
370
    50
100
AcDbVertex
100
AcDb2dVertex
 10
92.344673
 20
120.435803
 30
0.0
  0
VERTEX
  5
19F
330
192
100
AcDbEntity
  8
001
370
    50
100
AcDbVertex
100
AcDb2dVertex
 10
92.000846
 20
122.515217
 30
0.0
  0
VERTEX
  5
1A0
330
192
100
AcDbEntity
  8
001
370
    50
100
AcDbVertex
100
AcDb2dVertex
 10
91.475995
 20
124.5152
 30
0.0
  0
VERTEX
  5
1A1
330
192
100
AcDbEntity
  8
001
370
    50
100
AcDbVertex
100
AcDb2dVertex
 10
90.537913
 20
126.855693
 30
0.0
  0
VERTEX
  5
1A2
330
192
100
AcDbEntity
  8
001
370
    50
100
AcDbVertex
100
AcDb2dVertex
 10
88.79918
 20
129.090518
 30
0.0
  0
VERTEX
  5
1A3
330
192
100
AcDbEntity
  8
001
370
    50
100
AcDbVertex
100
AcDb2dVertex
 10
88.518151
 20
129.35055
 30
0.0
  0
VERTEX
  5
1A4
330
192
100
AcDbEntity
  8
001
370
    50
100
AcDbVertex
100
AcDb2dVertex
 10
88.318295
 20
129.525141
 30
0.0
  0
SEQEND
  5
193
330
192
100
AcDbEntity
  8
001
370
    50
  0
POLYLINE
  5
1A5
330
1F
100
AcDbEntity
  8
001
370
    50
100
AcDb2dPolyline
 66
     1
 10
0.0
 20
0.0
 30
0.0
  0
VERTEX
  5
1A7
330
1A5
100
AcDbEntity
  8
001
370
    50
100
AcDbVertex
100
AcDb2dVertex
 10
88.318295
 20
129.525141
 30
0.0
  0
VERTEX
  5
1A8
330
1A5
100
AcDbEntity
  8
001
370
    50
100
AcDbVertex
100
AcDb2dVertex
 10
86.730248
 20
129.711335
 30
0.0
  0
VERTEX
  5
1A9
330
1A5
100
AcDbEntity
  8
001
370
    50
100
AcDbVertex
100
AcDb2dVertex
 10
84.543127
 20
129.938111
 30
0.0
  0
VERTEX
  5
1AA
330
1A5
100
AcDbEntity
  8
001
370
    50
100
AcDbVertex
100
AcDb2dVertex
 10
81.90571
 20
130.176806
 30
0.0
  0
VERTEX
  5
1AB
330
1A5
100
AcDbEntity
  8
001
370
    50
100
AcDbVertex
100
AcDb2dVertex
 10
78.966773
 20
130.398756
 30
0.0
  0
VERTEX
  5
1AC
330
1A5
100
AcDbEntity
  8
001
370
    50
100
AcDbVertex
100
AcDb2dVertex
 10
75.875096
 20
130.575297
 30
0.0
  0
VERTEX
  5
1AD
330
1A5
100
AcDbEntity
  8
001
370
    50
100
AcDbVertex
100
AcDb2dVertex
 10
75.212059
 20
130.604584
 30
0.0
  0
VERTEX
  5
1AE
330
1A5
100
AcDbEntity
  8
001
370
    50
100
AcDbVertex
100
AcDb2dVertex
 10
74.758337
 20
130.623282
 30
0.0
  0
SEQEND
  5
1A6
330
1A5
100
AcDbEntity
  8
001
370
    50
  0
LINE
  5
1AF
330
1F
100
AcDbEntity
  8
001
370
    50
100
AcDbLine
 10
88.318295
 20
129.525141
 30
0.0
 11
88.318295
 21
107.00526
 31
0.0
  0
ARC
  5
1B0
330
1F
100
AcDbEntity
  8
001
370
    50
100
AcDbCircle
 10
95.984834
 20
129.7652
 30
0.0
 40
1.0
100
AcDbArc
 50
0.0
 51
90.0
  0
ARC
  5
1B1
330
1F
100
AcDbEntity
  8
001
370
    50
100
AcDbCircle
 10
95.984834
 20
106.7652
 30
0.0
 40
1.0
100
AcDbArc
 50
270.0
 51
0.0
  0
LINE
  5
1B2
330
1F
100
AcDbEntity
  8
001
370
    50
100
AcDbLine
 10
96.984834
 20
129.7652
 30
0.0
 11
96.984834
 21
106.7652
 31
0.0
  0
LINE
  5
1B3
330
1F
100
AcDbEntity
  8
001
370
    50
100
AcDbLine
 10
98.984834
 20
128.2652
 30
0.0
 11
173.984834
 21
128.2652
 31
0.0
  0
LINE
  5
1B4
330
1F
100
AcDbEntity
  8
001
370
    50
100
AcDbLine
 10
98.984834
 20
108.2652
 30
0.0
 11
173.984834
 21
108.2652
 31
0.0
  0
ARC
  5
1B5
330
1F
100
AcDbEntity
  8
001
370
    50
100
AcDbCircle
 10
173.984834
 20
125.2652
 30
0.0
 40
3.0
100
AcDbArc
 50
0.0
 51
90.0
  0
ARC
  5
1B6
330
1F
100
AcDbEntity
  8
001
370
    50
100
AcDbCircle
 10
173.984834
 20
111.2652
 30
0.0
 40
3.0
100
AcDbArc
 50
270.0
 51
0.0
  0
LINE
  5
1B7
330
1F
100
AcDbEntity
  8
001
370
    50
100
AcDbLine
 10
176.984834
 20
125.2652
 30
0.0
 11
176.984834
 21
111.2652
 31
0.0
  0
LINE
  5
1B8
330
1F
100
AcDbEntity
  8
001
370
    50
100
AcDbLine
 10
80.158568
 20
114.540308
 30
0.0
 11
75.570193
 21
105.941296
 31
0.0
  0
POLYLINE
  5
1B9
330
1F
100
AcDbEntity
  8
001
370
    50
100
AcDb2dPolyline
 66
     1
 10
0.0
 20
0.0
 30
0.0
  0
VERTEX
  5
1BB
330
1B9
100
AcDbEntity
  8
001
370
    50
100
AcDbVertex
100
AcDb2dVertex
 10
80.158568
 20
114.540308
 30
0.0
  0
VERTEX
  5
1BC
330
1B9
100
AcDbEntity
  8
001
370
    50
100
AcDbVertex
100
AcDb2dVertex
 10
80.175594
 20
114.539858
 30
0.0
  0
VERTEX
  5
1BD
330
1B9
100
AcDbEntity
  8
001
370
    50
100
AcDbVertex
100
AcDb2dVertex
 10
80.200481
 20
114.539369
 30
0.0
  0
VERTEX
  5
1BE
330
1B9
100
AcDbEntity
  8
001
370
    50
100
AcDbVertex
100
AcDb2dVertex
 10
80.225371
 20
114.539115
 30
0.0
  0
VERTEX
  5
1BF
330
1B9
100
AcDbEntity
  8
001
370
    50
100
AcDbVertex
100
AcDb2dVertex
 10
80.242403
 20
114.539056
 30
0.0
  0
SEQEND
  5
1BA
330
1B9
100
AcDbEntity
  8
001
370
    50
  0
LINE
  5
1C0
330
1F
100
AcDbEntity
  8
001
370
    50
100
AcDbLine
 10
68.984834
 20
120.738141
 30
0.0
 11
68.984834
 21
118.709843
 31
0.0
  0
LINE
  5
1C1
330
1F
100
AcDbEntity
  8
001
370
    50
100
AcDbLine
 10
74.758337
 20
130.623282
 30
0.0
 11
68.984834
 21
120.738141
 31
0.0
  0
POLYLINE
  5
1C2
330
1F
100
AcDbEntity
  8
001
370
    50
100
AcDb2dPolyline
 66
     1
 10
0.0
 20
0.0
 30
0.0
  0
VERTEX
  5
1C4
330
1C2
100
AcDbEntity
  8
001
370
    50
100
AcDbVertex
100
AcDb2dVertex
 10
80.242403
 20
120.539056
 30
0.0
  0
VERTEX
  5
1C5
330
1C2
100
AcDbEntity
  8
001
370
    50
100
AcDbVertex
100
AcDb2dVertex
 10
80.029581
 20
120.527522
 30
0.0
  0
VERTEX
  5
1C6
330
1C2
100
AcDbEntity
  8
001
370
    50
100
AcDbVertex
100
AcDb2dVertex
 10
79.738441
 20
120.49348
 30
0.0
  0
VERTEX
  5
1C7
330
1C2
100
AcDbEntity
  8
001
370
    50
100
AcDbVertex
100
AcDb2dVertex
 10
79.480423
 20
120.437291
 30
0.0
  0
VERTEX
  5
1C8
330
1C2
100
AcDbEntity
  8
001
370
    50
100
AcDbVertex
100
AcDb2dVertex
 10
79.249791
 20
120.358134
 30
0.0
  0
VERTEX
  5
1C9
330
1C2
100
AcDbEntity
  8
001
370
    50
100
AcDbVertex
100
AcDb2dVertex
 10
79.017942
 20
120.255875
 30
0.0
  0
VERTEX
  5
1CA
330
1C2
100
AcDbEntity
  8
001
370
    50
100
AcDbVertex
100
AcDb2dVertex
 10
78.791302
 20
120.137133
 30
0.0
  0
VERTEX
  5
1CB
330
1C2
100
AcDbEntity
  8
001
370
    50
100
AcDbVertex
100
AcDb2dVertex
 10
78.207659
 20
119.700531
 30
0.0
  0
VERTEX
  5
1CC
330
1C2
100
AcDbEntity
  8
001
370
    50
100
AcDbVertex
100
AcDb2dVertex
 10
77.729023
 20
119.039056
 30
0.0
  0
VERTEX
  5
1CD
330
1C2
100
AcDbEntity
  8
001
370
    50
100
AcDbVertex
100
AcDb2dVertex
 10
77.680821
 20
118.948356
 30
0.0
  0
VERTEX
  5
1CE
330
1C2
100
AcDbEntity
  8
001
370
    50
100
AcDbVertex
100
AcDb2dVertex
 10
77.648646
 20
118.88493
 30
0.0
  0
SEQEND
  5
1C3
330
1C2
100
AcDbEntity
  8
001
370
    50
  0
POLYLINE
  5
1CF
330
1F
100
AcDbEntity
  8
001
370
    50
100
AcDb2dPolyline
 66
     1
 10
0.0
 20
0.0
 30
0.0
  0
VERTEX
  5
1D1
330
1CF
100
AcDbEntity
  8
001
370
    50
100
AcDbVertex
100
AcDb2dVertex
 10
80.242403
 20
114.539056
 30
0.0
  0
VERTEX
  5
1D2
330
1CF
100
AcDbEntity
  8
001
370
    50
100
AcDbVertex
100
AcDb2dVertex
 10
80.455168
 20
114.550475
 30
0.0
  0
VERTEX
  5
1D3
330
1CF
100
AcDbEntity
  8
001
370
    50
100
AcDbVertex
100
AcDb2dVertex
 10
80.746365
 20
114.584633
 30
0.0
  0
VERTEX
  5
1D4
330
1CF
100
AcDbEntity
  8
001
370
    50
100
AcDbVertex
100
AcDb2dVertex
 10
81.004663
 20
114.641399
 30
0.0
  0
VERTEX
  5
1D5
330
1CF
100
AcDbEntity
  8
001
370
    50
100
AcDbVertex
100
AcDb2dVertex
 10
81.235014
 20
114.719979
 30
0.0
  0
VERTEX
  5
1D6
330
1CF
100
AcDbEntity
  8
001
370
    50
100
AcDbVertex
100
AcDb2dVertex
 10
81.465791
 20
114.820033
 30
0.0
  0
VERTEX
  5
1D7
330
1CF
100
AcDbEntity
  8
001
370
    50
100
AcDbVertex
100
AcDb2dVertex
 10
81.693504
 20
114.94098
 30
0.0
  0
VERTEX
  5
1D8
330
1CF
100
AcDbEntity
  8
001
370
    50
100
AcDbVertex
100
AcDb2dVertex
 10
82.298014
 20
115.420478
 30
0.0
  0
VERTEX
  5
1D9
330
1CF
100
AcDbEntity
  8
001
370
    50
100
AcDbVertex
100
AcDb2dVertex
 10
82.755783
 20
116.039056
 30
0.0
  0
VERTEX
  5
1DA
330
1CF
100
AcDbEntity
  8
001
370
    50
100
AcDbVertex
100
AcDb2dVertex
 10
82.969994
 20
116.514627
 30
0.0
  0
VERTEX
  5
1DB
330
1CF
100
AcDbEntity
  8
001
370
    50
100
AcDbVertex
100
AcDb2dVertex
 10
83.100513
 20
117.018112
 30
0.0
  0
VERTEX
  5
1DC
330
1CF
100
AcDbEntity
  8
001
370
    50
100
AcDbVertex
100
AcDb2dVertex
 10
83.133585
 20
117.277731
 30
0.0
  0
VERTEX
  5
1DD
330
1CF
100
AcDbEntity
  8
001
370
    50
100
AcDbVertex
100
AcDb2dVertex
 10
83.144604
 20
117.539056
 30
0.0
  0
VERTEX
  5
1DE
330
1CF
100
AcDbEntity
  8
001
370
    50
100
AcDbVertex
100
AcDb2dVertex
 10
83.133585
 20
117.800382
 30
0.0
  0
VERTEX
  5
1DF
330
1CF
100
AcDbEntity
  8
001
370
    50
100
AcDbVertex
100
AcDb2dVertex
 10
83.100513
 20
118.060001
 30
0.0
  0
VERTEX
  5
1E0
330
1CF
100
AcDbEntity
  8
001
370
    50
100
AcDbVertex
100
AcDb2dVertex
 10
82.969994
 20
118.563486
 30
0.0
  0
VERTEX
  5
1E1
330
1CF
100
AcDbEntity
  8
001
370
    50
100
AcDbVertex
100
AcDb2dVertex
 10
82.755783
 20
119.039056
 30
0.0
  0
VERTEX
  5
1E2
330
1CF
100
AcDbEntity
  8
001
370
    50
100
AcDbVertex
100
AcDb2dVertex
 10
82.298014
 20
119.657635
 30
0.0
  0
VERTEX
  5
1E3
330
1CF
100
AcDbEntity
  8
001
370
    50
100
AcDbVertex
100
AcDb2dVertex
 10
81.693504
 20
120.137133
 30
0.0
  0
VERTEX
  5
1E4
330
1CF
100
AcDbEntity
  8
001
370
    50
100
AcDbVertex
100
AcDb2dVertex
 10
81.465791
 20
120.25808
 30
0.0
  0
VERTEX
  5
1E5
330
1CF
100
AcDbEntity
  8
001
370
    50
100
AcDbVertex
100
AcDb2dVertex
 10
81.235014
 20
120.358134
 30
0.0
  0
VERTEX
  5
1E6
330
1CF
100
AcDbEntity
  8
001
370
    50
100
AcDbVertex
100
AcDb2dVertex
 10
81.004663
 20
120.436714
 30
0.0
  0
VERTEX
  5
1E7
330
1CF
100
AcDbEntity
  8
001
370
    50
100
AcDbVertex
100
AcDb2dVertex
 10
80.746365
 20
120.49348
 30
0.0
  0
VERTEX
  5
1E8
330
1CF
100
AcDbEntity
  8
001
370
    50
100
AcDbVertex
100
AcDb2dVertex
 10
80.455168
 20
120.527637
 30
0.0
  0
VERTEX
  5
1E9
330
1CF
100
AcDbEntity
  8
001
370
    50
100
AcDbVertex
100
AcDb2dVertex
 10
80.242403
 20
120.539056
 30
0.0
  0
SEQEND
  5
1D0
330
1CF
100
AcDbEntity
  8
001
370
    50
  0
POLYLINE
  5
1EA
330
1F
100
AcDbEntity
  8
001
370
    50
100
AcDb2dPolyline
 66
     1
 10
0.0
 20
0.0
 30
0.0
  0
VERTEX
  5
1EC
330
1EA
100
AcDbEntity
  8
001
370
    50
100
AcDbVertex
100
AcDb2dVertex
 10
80.719655
 20
120.498215
 30
0.0
  0
VERTEX
  5
1ED
330
1EA
100
AcDbEntity
  8
001
370
    50
100
AcDbVertex
100
AcDb2dVertex
 10
80.708764
 20
120.496305
 30
0.0
  0
VERTEX
  5
1EE
330
1EA
100
AcDbEntity
  8
001
370
    50
100
AcDbVertex
100
AcDb2dVertex
 10
80.692946
 20
120.49348
 30
0.0
  0
VERTEX
  5
1EF
330
1EA
100
AcDbEntity
  8
001
370
    50
100
AcDbVertex
100
AcDb2dVertex
 10
80.426828
 20
120.433909
 30
0.0
  0
VERTEX
  5
1F0
330
1EA
100
AcDbEntity
  8
001
370
    50
100
AcDbVertex
100
AcDb2dVertex
 10
80.204296
 20
120.358134
 30
0.0
  0
VERTEX
  5
1F1
330
1EA
100
AcDbEntity
  8
001
370
    50
100
AcDbVertex
100
AcDb2dVertex
 10
79.974846
 20
120.256871
 30
0.0
  0
VERTEX
  5
1F2
330
1EA
100
AcDbEntity
  8
001
370
    50
100
AcDbVertex
100
AcDb2dVertex
 10
79.745807
 20
120.137133
 30
0.0
  0
VERTEX
  5
1F3
330
1EA
100
AcDbEntity
  8
001
370
    50
100
AcDbVertex
100
AcDb2dVertex
 10
79.160634
 20
119.70001
 30
0.0
  0
VERTEX
  5
1F4
330
1EA
100
AcDbEntity
  8
001
370
    50
100
AcDbVertex
100
AcDb2dVertex
 10
78.683527
 20
119.039056
 30
0.0
  0
VERTEX
  5
1F5
330
1EA
100
AcDbEntity
  8
001
370
    50
100
AcDbVertex
100
AcDb2dVertex
 10
78.641121
 20
118.959742
 30
0.0
  0
VERTEX
  5
1F6
330
1EA
100
AcDbEntity
  8
001
370
    50
100
AcDbVertex
100
AcDb2dVertex
 10
78.612698
 20
118.904412
 30
0.0
  0
SEQEND
  5
1EB
330
1EA
100
AcDbEntity
  8
001
370
    50
  0
POLYLINE
  5
1F7
330
1F
100
AcDbEntity
  8
001
370
    50
100
AcDb2dPolyline
 66
     1
 10
0.0
 20
0.0
 30
0.0
  0
VERTEX
  5
1F9
330
1F7
100
AcDbEntity
  8
001
370
    50
100
AcDbVertex
100
AcDb2dVertex
 10
80.438412
 20
114.564695
 30
0.0
  0
VERTEX
  5
1FA
330
1F7
100
AcDbEntity
  8
001
370
    50
100
AcDbVertex
100
AcDb2dVertex
 10
80.477186
 20
114.570228
 30
0.0
  0
VERTEX
  5
1FB
330
1F7
100
AcDbEntity
  8
001
370
    50
100
AcDbVertex
100
AcDb2dVertex
 10
80.533745
 20
114.579019
 30
0.0
  0
VERTEX
  5
1FC
330
1F7
100
AcDbEntity
  8
001
370
    50
100
AcDbVertex
100
AcDb2dVertex
 10
80.591999
 20
114.5891
 30
0.0
  0
VERTEX
  5
1FD
330
1F7
100
AcDbEntity
  8
001
370
    50
100
AcDbVertex
100
AcDb2dVertex
 10
80.631773
 20
114.596484
 30
0.0
  0
SEQEND
  5
1F8
330
1F7
100
AcDbEntity
  8
001
370
    50
  0
POLYLINE
  5
1FE
330
1F
100
AcDbEntity
  8
001
370
    50
100
AcDb2dPolyline
 66
     1
 10
0.0
 20
0.0
 30
0.0
  0
VERTEX
  5
200
330
1FE
100
AcDbEntity
  8
001
370
    50
100
AcDbVertex
100
AcDb2dVertex
 10
80.158568
 20
114.540308
 30
0.0
  0
VERTEX
  5
201
330
1FE
100
AcDbEntity
  8
001
370
    50
100
AcDbVertex
100
AcDb2dVertex
 10
80.199439
 20
114.542087
 30
0.0
  0
VERTEX
  5
202
330
1FE
100
AcDbEntity
  8
001
370
    50
100
AcDbVertex
100
AcDb2dVertex
 10
80.259109
 20
114.545737
 30
0.0
  0
VERTEX
  5
203
330
1FE
100
AcDbEntity
  8
001
370
    50
100
AcDbVertex
100
AcDb2dVertex
 10
80.365688
 20
114.555752
 30
0.0
  0
VERTEX
  5
204
330
1FE
100
AcDbEntity
  8
001
370
    50
100
AcDbVertex
100
AcDb2dVertex
 10
80.438412
 20
114.564695
 30
0.0
  0
SEQEND
  5
1FF
330
1FE
100
AcDbEntity
  8
001
370
    50
  0
POLYLINE
  5
205
330
1F
100
AcDbEntity
  8
001
370
    50
100
AcDb2dPolyline
 66
     1
 10
0.0
 20
0.0
 30
0.0
  0
VERTEX
  5
207
330
205
100
AcDbEntity
  8
001
370
    50
100
AcDbVertex
100
AcDb2dVertex
 10
80.631773
 20
114.596484
 30
0.0
  0
VERTEX
  5
208
330
205
100
AcDbEntity
  8
001
370
    50
100
AcDbVertex
100
AcDb2dVertex
 10
80.656596
 20
114.591521
 30
0.0
  0
VERTEX
  5
209
330
205
100
AcDbEntity
  8
001
370
    50
100
AcDbVertex
100
AcDb2dVertex
 10
80.692946
 20
114.584633
 30
0.0
  0
VERTEX
  5
20A
330
205
100
AcDbEntity
  8
001
370
    50
100
AcDbVertex
100
AcDb2dVertex
 10
80.708799
 20
114.581793
 30
0.0
  0
VERTEX
  5
20B
330
205
100
AcDbEntity
  8
001
370
    50
100
AcDbVertex
100
AcDb2dVertex
 10
80.719655
 20
114.579898
 30
0.0
  0
SEQEND
  5
206
330
205
100
AcDbEntity
  8
001
370
    50
  0
LINE
  5
20C
330
1F
100
AcDbEntity
  8
001
370
    50
100
AcDbLine
 10
68.984834
 20
120.7652
 30
0.0
 11
68.984834
 21
120.738141
 31
0.0
  0
LINE
  5
20D
330
1F
100
AcDbEntity
  8
001
370
    50
100
AcDbLine
 10
74.758337
 20
130.7652
 30
0.0
 11
68.984834
 21
120.7652
 31
0.0
  0
LINE
  5
20E
330
1F
100
AcDbEntity
  8
001
  6
CENTER
370
     9
100
AcDbLine
 10
66.129113
 20
118.2652
 30
0.0
 11
178.850847
 21
118.2652
 31
0.0
  0
ARC
  5
20F
330
1F
100
AcDbEntity
  8
001
370
    50
100
AcDbCircle
 10
74.617282
 20
115.400259
 30
0.0
 40
0.3350000000000001
100
AcDbArc
 50
12.404463
 51
167.595537
  0
ARC
  5
210
330
1F
100
AcDbEntity
  8
001
370
    50
100
AcDbCircle
 10
73.7311
 20
115.595171
 30
0.0
 40
0.5723638195136747
100
AcDbArc
 50
252.404463
 51
347.595537
  0
ARC
  5
211
330
1F
100
AcDbEntity
  8
001
370
    50
100
AcDbCircle
 10
73.456807
 20
114.730259
 30
0.0
 40
0.3350000000000001
100
AcDbArc
 50
72.404463
 51
227.595537
  0
ARC
  5
212
330
1F
100
AcDbEntity
  8
001
370
    50
100
AcDbCircle
 10
72.844918
 20
114.060259
 30
0.0
 40
0.5723638195136747
100
AcDbArc
 50
312.404463
 51
47.595537
  0
ARC
  5
213
330
1F
100
AcDbEntity
  8
001
370
    50
100
AcDbCircle
 10
73.456807
 20
113.390259
 30
0.0
 40
0.3350000000000001
100
AcDbArc
 50
132.404463
 51
287.595537
  0
ARC
  5
214
330
1F
100
AcDbEntity
  8
001
370
    50
100
AcDbCircle
 10
73.7311
 20
112.525347
 30
0.0
 40
0.5723638195136747
100
AcDbArc
 50
12.404463
 51
107.595537
  0
ARC
  5
215
330
1F
100
AcDbEntity
  8
001
370
    50
100
AcDbCircle
 10
74.617282
 20
112.720259
 30
0.0
 40
0.3350000000000001
100
AcDbArc
 50
192.404463
 51
347.595537
  0
ARC
  5
216
330
1F
100
AcDbEntity
  8
001
370
    50
100
AcDbCircle
 10
75.503463
 20
112.525347
 30
0.0
 40
0.5723638195136747
100
AcDbArc
 50
72.404463
 51
167.595537
  0
ARC
  5
217
330
1F
100
AcDbEntity
  8
001
370
    50
100
AcDbCircle
 10
75.777756
 20
113.390259
 30
0.0
 40
0.3350000000000001
100
AcDbArc
 50
252.404463
 51
47.595537
  0
ARC
  5
218
330
1F
100
AcDbEntity
  8
001
370
    50
100
AcDbCircle
 10
76.389645
 20
114.060259
 30
0.0
 40
0.5723638195136747
100
AcDbArc
 50
132.404463
 51
227.595537
  0
ARC
  5
219
330
1F
100
AcDbEntity
  8
001
370
    50
100
AcDbCircle
 10
75.777756
 20
114.730259
 30
0.0
 40
0.3350000000000001
100
AcDbArc
 50
312.404463
 51
107.595537
  0
ARC
  5
21A
330
1F
100
AcDbEntity
  8
001
370
    50
100
AcDbCircle
 10
75.503463
 20
115.595171
 30
0.0
 40
0.5723638195136747
100
AcDbArc
 50
192.404463
 51
287.595537
  0
CIRCLE
  5
21B
330
1F
100
AcDbEntity
  8
001
370
    50
100
AcDbCircle
 10
74.617282
 20
114.060259
 30
0.0
 40
2.35
  0
LINE
  5
21C
330
1F
100
AcDbEntity
  8
001
370
    50
100
AcDbLine
 10
98.984834
 20
108.2652
 30
0.0
 11
98.984834
 21
128.2652
 31
0.0
  0
LINE
  5
21D
330
1F
100
AcDbEntity
  8
001
370
    50
100
AcDbLine
 10
98.984834
 20
127.7652
 30
0.0
 11
96.984834
 21
127.7652
 31
0.0
  0
LINE
  5
21E
330
1F
100
AcDbEntity
  8
001
370
    50
100
AcDbLine
 10
96.984834
 20
108.7652
 30
0.0
 11
98.984834
 21
108.7652
 31
0.0
  0
LINE
  5
21F
330
1F
100
AcDbEntity
  8
001
370
    50
100
AcDbLine
 10
176.984834
 20
118.2652
 30
0.0
 11
179.58291
 21
119.7652
 31
0.0
  0
LINE
  5
220
330
1F
100
AcDbEntity
  8
001
370
    50
100
AcDbLine
 10
176.984834
 20
118.2652
 30
0.0
 11
179.58291
 21
116.7652
 31
0.0
  0
ARC
  5
221
330
1F
100
AcDbEntity
  8
001
370
    50
100
AcDbCircle
 10
67.592751
 20
118.073659
 30
0.0
 40
0.6079269658450117
100
AcDbArc
 50
91.157732
 51
210.096469
  0
LINE
  5
222
330
1F
100
AcDbEntity
  8
001
370
    50
100
AcDbLine
 10
66.984834
 20
117.9102
 30
0.0
 11
67.058092
 21
117.783314
 31
0.0
  0
LINE
  5
223
330
1F
100
AcDbEntity
  8
001
370
    50
100
AcDbLine
 10
74.315296
 20
105.213468
 30
0.0
 11
67.066545
 21
117.768672
 31
0.0
  0
ARC
  5
224
330
1F
100
AcDbEntity
  8
001
370
    50
100
AcDbCircle
 10
74.736648
 20
105.456736
 30
0.0
 40
0.4865360362145077
100
AcDbArc
 50
210.0
 51
331.91592
  0
ENDSEC
  0
SECTION
  2
OBJECTS
  0
DICTIONARY
  5
C
330
0
100
AcDbDictionary
281
     1
  3
ACAD_GROUP
350
D
  3
ACAD_LAYOUT
350
1A
  3
ACAD_MLEADERSTYLE
350
228
  3
ACAD_MLINESTYLE
350
17
  3
ACAD_PLOTSETTINGS
350
19
  3
ACAD_PLOTSTYLENAME
350
E
  3
ACAD_SCALELIST
350
3B
  3
ACAD_TABLESTYLE
350
227
  3
ACAD_VISUALSTYLE
350
2A
  3
AcDbVariableDictionary
350
225
  0
DICTIONARY
  5
D
102
{ACAD_REACTORS
330
C
102
}
330
C
100
AcDbDictionary
281
     1
  0
DICTIONARY
  5
1A
102
{ACAD_REACTORS
330
C
102
}
330
C
100
AcDbDictionary
281
     1
  3
Layout1
350
1E
  3
Layout2
350
26
  3
Model
350
22
  0
DICTIONARY
  5
228
102
{ACAD_REACTORS
330
C
102
}
330
C
100
AcDbDictionary
281
     1
  0
DICTIONARY
  5
17
102
{ACAD_REACTORS
330
C
102
}
330
C
100
AcDbDictionary
281
     1
  3
Standard
350
18
  0
DICTIONARY
  5
19
102
{ACAD_REACTORS
330
C
102
}
330
C
100
AcDbDictionary
281
     1
  0
ACDBDICTIONARYWDFLT
  5
E
102
{ACAD_REACTORS
330
C
102
}
330
C
100
AcDbDictionary
281
     1
  3
Normal
350
F
100
AcDbDictionaryWithDefault
340
F
  0
DICTIONARY
  5
3B
102
{ACAD_REACTORS
330
C
102
}
330
C
100
AcDbDictionary
281
     1
  3
A0
350
3C
  3
A1
350
3D
  3
A2
350
3E
  3
A3
350
3F
  3
A4
350
40
  3
A5
350
41
  3
A6
350
42
  3
A7
350
43
  3
A8
350
44
  3
A9
350
45
  3
B0
350
46
  3
B1
350
47
  3
B2
350
48
  3
B3
350
49
  3
B4
350
4A
  3
B5
350
4B
  3
B6
350
4C
  3
B7
350
4D
  3
B8
350
4E
  3
B9
350
4F
  3
C0
350
50
  3
C1
350
51
  3
C2
350
52
  3
C3
350
53
  3
C4
350
54
  3
C5
350
55
  3
C6
350
56
  3
C7
350
57
  3
C8
350
58
  3
C9
350
59
  3
D0
350
5A
  3
D1
350
5B
  3
D2
350
5C
  0
DICTIONARY
  5
227
102
{ACAD_REACTORS
330
C
102
}
330
C
100
AcDbDictionary
281
     1
  0
DICTIONARY
  5
2A
102
{ACAD_REACTORS
330
C
102
}
330
C
100
AcDbDictionary
281
     1
  3
2dWireframe
350
2F
  3
3D Hidden
350
31
  3
3dWireframe
350
30
  3
Basic
350
32
  3
Brighten
350
36
  3
ColorChange
350
3A
  3
Conceptual
350
34
  3
Dim
350
35
  3
Facepattern
350
39
  3
Flat
350
2B
  3
FlatWithEdges
350
2C
  3
Gouraud
350
2D
  3
GouraudWithEdges
350
2E
  3
Linepattern
350
38
  3
Realistic
350
33
  3
Thicken
350
37
  0
DICTIONARY
  5
225
102
{ACAD_REACTORS
330
C
102
}
330
C
100
AcDbDictionary
281
     1
  3
CANNOSCALE
350
226
  3
PSOLHEIGHT
350
22A
  3
PSOLWIDTH
350
229
  0
LAYOUT
  5
1E
102
{ACAD_REACTORS
330
1A
102
}
330
1A
100
AcDbPlotSettings
  1

  2
none_device
  4

  6

 40
0.0
 41
0.0
 42
0.0
 43
0.0
 44
0.0
 45
0.0
 46
0.0
 47
0.0
 48
0.0
 49
0.0
140
0.0
141
0.0
142
1.0
143
1.0
 70
   688
 72
     0
 73
     0
 74
     5
  7

 75
    16
147
1.0
148
0.0
149
0.0
100
AcDbLayout
  1
Layout1
 70
     1
 71
     1
 10
0.0
 20
0.0
 11
12.0
 21
9.0
 12
0.0
 22
0.0
 32
0.0
 14
1.000000E+20
 24
1.000000E+20
 34
0.0
 15
-1.000000E+20
 25
-1.000000E+20
 35
0.0
146
0.0
 13
0.0
 23
0.0
 33
0.0
 16
1.0
 26
0.0
 36
0.0
 17
0.0
 27
1.0
 37
0.0
 76
     0
330
1B
  0
LAYOUT
  5
26
102
{ACAD_REACTORS
330
1A
102
}
330
1A
100
AcDbPlotSettings
  1

  2
none_device
  4

  6

 40
0.0
 41
0.0
 42
0.0
 43
0.0
 44
0.0
 45
0.0
 46
0.0
 47
0.0
 48
0.0
 49
0.0
140
0.0
141
0.0
142
1.0
143
1.0
 70
   688
 72
     0
 73
     0
 74
     5
  7

 75
    16
147
1.0
148
0.0
149
0.0
100
AcDbLayout
  1
Layout2
 70
     1
 71
     2
 10
0.0
 20
0.0
 11
0.0
 21
0.0
 12
0.0
 22
0.0
 32
0.0
 14
0.0
 24
0.0
 34
0.0
 15
0.0
 25
0.0
 35
0.0
146
0.0
 13
0.0
 23
0.0
 33
0.0
 16
1.0
 26
0.0
 36
0.0
 17
0.0
 27
1.0
 37
0.0
 76
     0
330
23
  0
LAYOUT
  5
22
102
{ACAD_REACTORS
330
1A
102
}
330
1A
100
AcDbPlotSettings
  1

  2
none_device
  4

  6

 40
0.0
 41
0.0
 42
0.0
 43
0.0
 44
0.0
 45
0.0
 46
0.0
 47
0.0
 48
0.0
 49
0.0
140
0.0
141
0.0
142
1.0
143
1.0
 70
  1712
 72
     0
 73
     0
 74
     0
  7

 75
     0
147
1.0
148
0.0
149
0.0
100
AcDbLayout
  1
Model
 70
     1
 71
     0
 10
0.0
 20
0.0
 11
12.0
 21
9.0
 12
0.0
 22
0.0
 32
0.0
 14
0.0
 24
0.0
 34
0.0
 15
420.0
 25
156.038727
 35
0.0
146
0.0
 13
0.0
 23
0.0
 33
0.0
 16
1.0
 26
0.0
 36
0.0
 17
0.0
 27
1.0
 37
0.0
 76
     0
330
1F
331
29
  0
MLINESTYLE
  5
18
102
{ACAD_REACTORS
330
17
102
}
330
17
100
AcDbMlineStyle
  2
Standard
 70
     0
  3

 62
   256
 51
90.0
 52
90.0
 71
     2
 49
0.5
 62
   256
  6
BYLAYER
 49
-0.5
 62
   256
  6
BYLAYER
  0
ACDBPLACEHOLDER
  5
F
102
{ACAD_REACTORS
330
E
102
}
330
E
  0
SCALE
  5
3C
102
{ACAD_REACTORS
330
3B
102
}
330
3B
100
AcDbScale
 70
     0
300
1:1
140
1.0
141
1.0
290
     1
  0
SCALE
  5
3D
102
{ACAD_REACTORS
330
3B
102
}
330
3B
100
AcDbScale
 70
     0
300
1:2
140
1.0
141
2.0
290
     0
  0
SCALE
  5
3E
102
{ACAD_REACTORS
330
3B
102
}
330
3B
100
AcDbScale
 70
     0
300
1:4
140
1.0
141
4.0
290
     0
  0
SCALE
  5
3F
102
{ACAD_REACTORS
330
3B
102
}
330
3B
100
AcDbScale
 70
     0
300
1:5
140
1.0
141
5.0
290
     0
  0
SCALE
  5
40
102
{ACAD_REACTORS
330
3B
102
}
330
3B
100
AcDbScale
 70
     0
300
1:8
140
1.0
141
8.0
290
     0
  0
SCALE
  5
41
102
{ACAD_REACTORS
330
3B
102
}
330
3B
100
AcDbScale
 70
     0
300
1:10
140
1.0
141
10.0
290
     0
  0
SCALE
  5
42
102
{ACAD_REACTORS
330
3B
102
}
330
3B
100
AcDbScale
 70
     0
300
1:16
140
1.0
141
16.0
290
     0
  0
SCALE
  5
43
102
{ACAD_REACTORS
330
3B
102
}
330
3B
100
AcDbScale
 70
     0
300
1:20
140
1.0
141
20.0
290
     0
  0
SCALE
  5
44
102
{ACAD_REACTORS
330
3B
102
}
330
3B
100
AcDbScale
 70
     0
300
1:30
140
1.0
141
30.0
290
     0
  0
SCALE
  5
45
102
{ACAD_REACTORS
330
3B
102
}
330
3B
100
AcDbScale
 70
     0
300
1:40
140
1.0
141
40.0
290
     0
  0
SCALE
  5
46
102
{ACAD_REACTORS
330
3B
102
}
330
3B
100
AcDbScale
 70
     0
300
1:50
140
1.0
141
50.0
290
     0
  0
SCALE
  5
47
102
{ACAD_REACTORS
330
3B
102
}
330
3B
100
AcDbScale
 70
     0
300
1:100
140
1.0
141
100.0
290
     0
  0
SCALE
  5
48
102
{ACAD_REACTORS
330
3B
102
}
330
3B
100
AcDbScale
 70
     0
300
2:1
140
2.0
141
1.0
290
     0
  0
SCALE
  5
49
102
{ACAD_REACTORS
330
3B
102
}
330
3B
100
AcDbScale
 70
     0
300
4:1
140
4.0
141
1.0
290
     0
  0
SCALE
  5
4A
102
{ACAD_REACTORS
330
3B
102
}
330
3B
100
AcDbScale
 70
     0
300
8:1
140
8.0
141
1.0
290
     0
  0
SCALE
  5
4B
102
{ACAD_REACTORS
330
3B
102
}
330
3B
100
AcDbScale
 70
     0
300
10:1
140
10.0
141
1.0
290
     0
  0
SCALE
  5
4C
102
{ACAD_REACTORS
330
3B
102
}
330
3B
100
AcDbScale
 70
     0
300
100:1
140
100.0
141
1.0
290
     0
  0
SCALE
  5
4D
102
{ACAD_REACTORS
330
3B
102
}
330
3B
100
AcDbScale
 70
     0
300
1/128" = 1'-0"
140
0.007812
141
12.0
290
     0
  0
SCALE
  5
4E
102
{ACAD_REACTORS
330
3B
102
}
330
3B
100
AcDbScale
 70
     0
300
1/64" = 1'-0"
140
0.015625
141
12.0
290
     0
  0
SCALE
  5
4F
102
{ACAD_REACTORS
330
3B
102
}
330
3B
100
AcDbScale
 70
     0
300
1/32" = 1'-0"
140
0.03125
141
12.0
290
     0
  0
SCALE
  5
50
102
{ACAD_REACTORS
330
3B
102
}
330
3B
100
AcDbScale
 70
     0
300
1/16" = 1'-0"
140
0.0625
141
12.0
290
     0
  0
SCALE
  5
51
102
{ACAD_REACTORS
330
3B
102
}
330
3B
100
AcDbScale
 70
     0
300
3/32" = 1'-0"
140
0.09375
141
12.0
290
     0
  0
SCALE
  5
52
102
{ACAD_REACTORS
330
3B
102
}
330
3B
100
AcDbScale
 70
     0
300
1/8" = 1'-0"
140
0.125
141
12.0
290
     0
  0
SCALE
  5
53
102
{ACAD_REACTORS
330
3B
102
}
330
3B
100
AcDbScale
 70
     0
300
3/16" = 1'-0"
140
0.1875
141
12.0
290
     0
  0
SCALE
  5
54
102
{ACAD_REACTORS
330
3B
102
}
330
3B
100
AcDbScale
 70
     0
300
1/4" = 1'-0"
140
0.25
141
12.0
290
     0
  0
SCALE
  5
55
102
{ACAD_REACTORS
330
3B
102
}
330
3B
100
AcDbScale
 70
     0
300
3/8" = 1'-0"
140
0.375
141
12.0
290
     0
  0
SCALE
  5
56
102
{ACAD_REACTORS
330
3B
102
}
330
3B
100
AcDbScale
 70
     0
300
1/2" = 1'-0"
140
0.5
141
12.0
290
     0
  0
SCALE
  5
57
102
{ACAD_REACTORS
330
3B
102
}
330
3B
100
AcDbScale
 70
     0
300
3/4" = 1'-0"
140
0.75
141
12.0
290
     0
  0
SCALE
  5
58
102
{ACAD_REACTORS
330
3B
102
}
330
3B
100
AcDbScale
 70
     0
300
1" = 1'-0"
140
1.0
141
12.0
290
     0
  0
SCALE
  5
59
102
{ACAD_REACTORS
330
3B
102
}
330
3B
100
AcDbScale
 70
     0
300
1-1/2" = 1'-0"
140
1.5
141
12.0
290
     0
  0
SCALE
  5
5A
102
{ACAD_REACTORS
330
3B
102
}
330
3B
100
AcDbScale
 70
     0
300
3" = 1'-0"
140
3.0
141
12.0
290
     0
  0
SCALE
  5
5B
102
{ACAD_REACTORS
330
3B
102
}
330
3B
100
AcDbScale
 70
     0
300
6" = 1'-0"
140
6.0
141
12.0
290
     0
  0
SCALE
  5
5C
102
{ACAD_REACTORS
330
3B
102
}
330
3B
100
AcDbScale
 70
     0
300
1'-0" = 1'-0"
140
12.0
141
12.0
290
     0
  0
VISUALSTYLE
  5
2F
102
{ACAD_REACTORS
330
2A
102
}
330
2A
100
AcDbVisualStyle
  2
2dWireframe
 70
     4
 71
     0
 72
     2
 73
     0
 90
        0
 40
-0.6
 41
-30.0
 62
     5
 63
     7
 74
     1
 91
        4
 64
     7
 65
   257
 75
     1
175
     1
 42
1.0
 92
        0
 66
   257
 43
1.0
 76
     1
 77
     6
 78
     2
 67
     7
 79
     5
170
     0
171
     0
290
     0
174
     0
 93
        1
 44
0.0
173
     0
291
     0
 45
0.0
1001
ACAD
1000
AcDbSavedByObjectVersion
1070
     0
  0
VISUALSTYLE
  5
31
102
{ACAD_REACTORS
330
2A
102
}
330
2A
100
AcDbVisualStyle
  2
3D Hidden
 70
     6
 71
     1
 72
     2
 73
     2
 90
        0
 40
-0.6
 41
-30.0
 62
     5
 63
     7
 74
     2
 91
        2
 64
     7
 65
   257
 75
     2
175
     1
 42
40.0
 92
        0
 66
   257
 43
1.0
 76
     1
 77
     6
 78
     2
 67
     7
 79
     3
170
     0
171
     0
290
     0
174
     0
 93
        1
 44
0.0
173
     0
291
     0
 45
0.0
1001
ACAD
1000
AcDbSavedByObjectVersion
1070
     0
  0
VISUALSTYLE
  5
30
102
{ACAD_REACTORS
330
2A
102
}
330
2A
100
AcDbVisualStyle
  2
3dWireframe
 70
     5
 71
     0
 72
     2
 73
     0
 90
        0
 40
-0.6
 41
-30.0
 62
     5
 63
     7
 74
     1
 91
        4
 64
     7
 65
   257
 75
     1
175
     1
 42
1.0
 92
        0
 66
   257
 43
1.0
 76
     1
 77
     6
 78
     2
 67
     7
 79
     5
170
     0
171
     0
290
     0
174
     0
 93
        1
 44
0.0
173
     0
291
     0
 45
0.0
1001
ACAD
1000
AcDbSavedByObjectVersion
1070
     0
  0
VISUALSTYLE
  5
32
102
{ACAD_REACTORS
330
2A
102
}
330
2A
100
AcDbVisualStyle
  2
Basic
 70
     7
 71
     1
 72
     0
 73
     1
 90
        0
 40
-0.6
 41
-30.0
 62
     5
 63
     7
 74
     0
 91
        4
 64
     7
 65
   257
 75
     1
175
     1
 42
1.0
 92
        8
 66
     7
 43
1.0
 76
     1
 77
     6
 78
     2
 67
     7
 79
     5
170
     0
171
     0
290
     0
174
     0
 93
        1
 44
0.0
173
     0
291
     1
 45
0.0
1001
ACAD
1000
AcDbSavedByObjectVersion
1070
     0
  0
VISUALSTYLE
  5
36
102
{ACAD_REACTORS
330
2A
102
}
330
2A
100
AcDbVisualStyle
  2
Brighten
 70
    12
 71
     2
 72
     2
 73
     0
 90
        0
 40
-0.6
 41
-30.0
 62
     5
 63
     7
 74
     1
 91
        4
 64
     7
 65
   257
 75
     1
175
     1
 42
1.0
 92
        8
 66
     7
 43
1.0
 76
     1
 77
     6
 78
     2
 67
     7
 79
     5
170
     0
171
     0
290
     0
174
     0
 93
        1
 44
50.0
173
     0
291
     1
 45
0.0
1001
ACAD
1000
AcDbSavedByObjectVersion
1070
     0
  0
VISUALSTYLE
  5
3A
102
{ACAD_REACTORS
330
2A
102
}
330
2A
100
AcDbVisualStyle
  2
ColorChange
 70
    16
 71
     2
 72
     2
 73
     3
 90
        0
 40
-0.6
 41
-30.0
 62
     5
 63
     8
 74
     1
 91
        4
 64
     7
 65
   257
 75
     1
175
     1
 42
1.0
 92
        8
 66
     8
 43
1.0
 76
     1
 77
     6
 78
     2
 67
     7
 79
     5
170
     0
171
     0
290
     0
174
     0
 93
        1
 44
0.0
173
     0
291
     1
 45
0.0
1001
ACAD
1000
AcDbSavedByObjectVersion
1070
     0
  0
VISUALSTYLE
  5
34
102
{ACAD_REACTORS
330
2A
102
}
330
2A
100
AcDbVisualStyle
  2
Conceptual
 70
     9
 71
     3
 72
     2
 73
     0
 90
        0
 40
-0.6
 41
-30.0
 62
     5
 63
     7
 74
     2
 91
        2
 64
     7
 65
   257
 75
     1
175
     1
 42
40.0
 92
        8
 66
     7
 43
1.0
 76
     1
 77
     6
 78
     2
 67
     7
 79
     3
170
     0
171
     0
290
     0
174
     0
 93
        1
 44
0.0
173
     0
291
     0
 45
0.0
1001
ACAD
1000
AcDbSavedByObjectVersion
1070
     0
  0
VISUALSTYLE
  5
35
102
{ACAD_REACTORS
330
2A
102
}
330
2A
100
AcDbVisualStyle
  2
Dim
 70
    11
 71
     2
 72
     2
 73
     0
 90
        0
 40
-0.6
 41
-30.0
 62
     5
 63
     7
 74
     1
 91
        4
 64
     7
 65
   257
 75
     1
175
     1
 42
1.0
 92
        8
 66
     7
 43
1.0
 76
     1
 77
     6
 78
     2
 67
     7
 79
     5
170
     0
171
     0
290
     0
174
     0
 93
        1
 44
-50.0
173
     0
291
     1
 45
0.0
1001
ACAD
1000
AcDbSavedByObjectVersion
1070
     0
  0
VISUALSTYLE
  5
39
102
{ACAD_REACTORS
330
2A
102
}
330
2A
100
AcDbVisualStyle
  2
Facepattern
 70
    15
 71
     2
 72
     2
 73
     0
 90
        0
 40
-0.6
 41
-30.0
 62
     5
 63
     7
 74
     1
 91
        4
 64
     7
 65
   257
 75
     1
175
     1
 42
1.0
 92
        8
 66
     7
 43
1.0
 76
     1
 77
     6
 78
     2
 67
     7
 79
     5
170
     0
171
     0
290
     0
174
     0
 93
        1
 44
0.0
173
     0
291
     1
 45
0.0
1001
ACAD
1000
AcDbSavedByObjectVersion
1070
     0
  0
VISUALSTYLE
  5
2B
102
{ACAD_REACTORS
330
2A
102
}
330
2A
100
AcDbVisualStyle
  2
Flat
 70
     0
 71
     2
 72
     1
 73
     1
 90
        2
 40
-0.6
 41
30.0
 62
     5
 63
     7
 74
     0
 91
        4
 64
     7
 65
   257
 75
     1
175
     1
 42
1.0
 92
        8
 66
     7
 43
1.0
 76
     1
 77
     6
 78
     2
 67
     7
 79
     5
170
     0
171
     0
290
     0
174
     0
 93
       13
 44
0.0
173
     0
291
     1
 45
0.0
1001
ACAD
1000
AcDbSavedByObjectVersion
1070
     0
  0
VISUALSTYLE
  5
2C
102
{ACAD_REACTORS
330
2A
102
}
330
2A
100
AcDbVisualStyle
  2
FlatWithEdges
 70
     1
 71
     2
 72
     1
 73
     1
 90
        2
 40
-0.6
 41
30.0
 62
     5
 63
     7
 74
     1
 91
        4
 64
     7
 65
   257
 75
     1
175
     1
 42
1.0
 92
        0
 66
   257
 43
1.0
 76
     1
 77
     6
 78
     2
 67
     7
 79
     5
170
     0
171
     0
290
     0
174
     0
 93
       13
 44
0.0
173
     0
291
     1
 45
0.0
1001
ACAD
1000
AcDbSavedByObjectVersion
1070
     0
  0
VISUALSTYLE
  5
2D
102
{ACAD_REACTORS
330
2A
102
}
330
2A
100
AcDbVisualStyle
  2
Gouraud
 70
     2
 71
     2
 72
     2
 73
     1
 90
        2
 40
-0.6
 41
30.0
 62
     5
 63
     7
 74
     0
 91
        4
 64
     7
 65
   257
 75
     1
175
     1
 42
1.0
 92
        0
 66
     7
 43
1.0
 76
     1
 77
     6
 78
     2
 67
     7
 79
     5
170
     0
171
     0
290
     0
174
     0
 93
       13
 44
0.0
173
     0
291
     1
 45
0.0
1001
ACAD
1000
AcDbSavedByObjectVersion
1070
     0
  0
VISUALSTYLE
  5
2E
102
{ACAD_REACTORS
330
2A
102
}
330
2A
100
AcDbVisualStyle
  2
GouraudWithEdges
 70
     3
 71
     2
 72
     2
 73
     1
 90
        2
 40
-0.6
 41
30.0
 62
     5
 63
     7
 74
     1
 91
        4
 64
     7
 65
   257
 75
     1
175
     1
 42
1.0
 92
        0
 66
   257
 43
1.0
 76
     1
 77
     6
 78
     2
 67
     7
 79
     5
170
     0
171
     0
290
     0
174
     0
 93
       13
 44
0.0
173
     0
291
     1
 45
0.0
1001
ACAD
1000
AcDbSavedByObjectVersion
1070
     0
  0
VISUALSTYLE
  5
38
102
{ACAD_REACTORS
330
2A
102
}
330
2A
100
AcDbVisualStyle
  2
Linepattern
 70
    14
 71
     2
 72
     2
 73
     0
 90
        0
 40
-0.6
 41
-30.0
 62
     5
 63
     7
 74
     1
 91
        4
 64
     7
 65
   257
 75
     7
175
     7
 42
1.0
 92
        8
 66
     7
 43
1.0
 76
     1
 77
     6
 78
     2
 67
     7
 79
     5
170
     0
171
     0
290
     0
174
     0
 93
        1
 44
0.0
173
     0
291
     1
 45
0.0
1001
ACAD
1000
AcDbSavedByObjectVersion
1070
     0
  0
VISUALSTYLE
  5
33
102
{ACAD_REACTORS
330
2A
102
}
330
2A
100
AcDbVisualStyle
  2
Realistic
 70
     8
 71
     2
 72
     2
 73
     0
 90
        0
 40
-0.6
 41
-30.0
 62
     5
 63
     7
 74
     1
 91
        0
 64
     7
 65
   257
 75
     1
175
     1
 42
1.0
 92
        8
 66
     8
 43
1.0
 76
     1
 77
     6
 78
     2
 67
     7
 79
     5
170
     0
171
     0
290
     0
174
     0
 93
       13
 44
0.0
173
     0
291
     0
 45
0.0
1001
ACAD
1000
AcDbSavedByObjectVersion
1070
     0
  0
VISUALSTYLE
  5
37
102
{ACAD_REACTORS
330
2A
102
}
330
2A
100
AcDbVisualStyle
  2
Thicken
 70
    13
 71
     2
 72
     2
 73
     0
 90
        0
 40
-0.6
 41
-30.0
 62
     5
 63
     7
 74
     1
 91
        4
 64
     7
 65
   257
 75
     1
175
     1
 42
1.0
 92
       12
 66
     7
 43
1.0
 76
     1
 77
     6
 78
     2
 67
     7
 79
     5
170
     0
171
     0
290
     0
174
     0
 93
        1
 44
0.0
173
     0
291
     1
 45
0.0
1001
ACAD
1000
AcDbSavedByObjectVersion
1070
     0
  0
DICTIONARYVAR
  5
226
102
{ACAD_REACTORS
330
225
102
}
330
225
100
DictionaryVariables
280
     0
  1
1:1
  0
DICTIONARYVAR
  5
22A
102
{ACAD_REACTORS
330
225
102
}
330
225
100
DictionaryVariables
280
     0
  1
80.000000
  0
DICTIONARYVAR
  5
229
102
{ACAD_REACTORS
330
225
102
}
330
225
100
DictionaryVariables
280
     0
  1
5.000000
  0
ENDSEC
  0
EOF
