  0
SECTION
  2
HEADER
  9
$ACADVER
  1
AC1014
  9
$ACADMAINTVER
 70
     9
  9
$DWGCODEPAGE
  3
ANSI_932
  9
$INSBASE
 10
0.0
 20
0.0
 30
0.0
  9
$EXTMIN
 10
16.37500748373986
 20
26.33340963331739
 30
0.0
  9
$EXTMAX
 10
212.675201270361
 20
90.65034267628836
 30
0.0
  9
$LIMMIN
 10
5.016151428222656
 20
-95.65082713680235
  9
$LIMMAX
 10
201.3163452148438
 20
100.0986289978027
  9
$ORTHOMODE
 70
     0
  9
$REGENMODE
 70
     1
  9
$FILLMODE
 70
     1
  9
$QTEXTMODE
 70
     0
  9
$MIRRTEXT
 70
     1
  9
$DRAGMODE
 70
     2
  9
$LTSCALE
 40
0.113031182019982
  9
$OSMODE
 70
   511
  9
$ATTMODE
 70
     1
  9
$TEXTSIZE
 40
2.5
  9
$TRACEWID
 40
1.0
  9
$TEXTSTYLE
  7
STANDARD
  9
$CLAYER
  8
0
  9
$CELTYPE
  6
BYLAYER
  9
$CECOLOR
 62
   256
  9
$CELTSCALE
 40
1.0
  9
$DELOBJ
 70
     1
  9
$DISPSILH
 70
     0
  9
$DIMSCALE
 40
1.0
  9
$DIMASZ
 40
2.5
  9
$DIMEXO
 40
0.625
  9
$DIMDLI
 40
3.75
  9
$DIMRND
 40
0.0
  9
$DIMDLE
 40
0.0
  9
$DIMEXE
 40
1.25
  9
$DIMTP
 40
0.0
  9
$DIMTM
 40
0.0
  9
$DIMTXT
 40
2.5
  9
$DIMCEN
 40
2.5
  9
$DIMTSZ
 40
0.0
  9
$DIMTOL
 70
     0
  9
$DIMLIM
 70
     0
  9
$DIMTIH
 70
     0
  9
$DIMTOH
 70
     0
  9
$DIMSE1
 70
     0
  9
$DIMSE2
 70
     0
  9
$DIMTAD
 70
     1
  9
$DIMZIN
 70
     0
  9
$DIMBLK
  1

  9
$DIMASO
 70
     1
  9
$DIMSHO
 70
     1
  9
$DIMPOST
  1

  9
$DIMAPOST
  1

  9
$DIMALT
 70
     0
  9
$DIMALTD
 70
     3
  9
$DIMALTF
 40
0.03937007874016
  9
$DIMLFAC
 40
1.0
  9
$DIMTOFL
 70
     1
  9
$DIMTVP
 40
0.0
  9
$DIMTIX
 70
     0
  9
$DIMSOXD
 70
     0
  9
$DIMSAH
 70
     0
  9
$DIMBLK1
  1

  9
$DIMBLK2
  1

  9
$DIMSTYLE
  2
STANDARD
  9
$DIMCLRD
 70
     0
  9
$DIMCLRE
 70
     0
  9
$DIMCLRT
 70
     0
  9
$DIMTFAC
 40
0.75
  9
$DIMGAP
 40
0.625
  9
$DIMJUST
 70
     0
  9
$DIMSD1
 70
     0
  9
$DIMSD2
 70
     0
  9
$DIMTOLJ
 70
     0
  9
$DIMTZIN
 70
     8
  9
$DIMALTZ
 70
     0
  9
$DIMALTTZ
 70
     0
  9
$DIMFIT
 70
     3
  9
$DIMUPT
 70
     0
  9
$DIMUNIT
 70
     2
  9
$DIMDEC
 70
     2
  9
$DIMTDEC
 70
     2
  9
$DIMALTU
 70
     2
  9
$DIMALTTD
 70
     3
  9
$DIMTXSTY
  7
STANDARD
  9
$DIMAUNIT
 70
     0
  9
$LUNITS
 70
     2
  9
$LUPREC
 70
     4
  9
$SKETCHINC
 40
1.0
  9
$FILLETRAD
 40
10.0
  9
$AUNITS
 70
     0
  9
$AUPREC
 70
     0
  9
$MENU
  1
.
  9
$ELEVATION
 40
0.0
  9
$PELEVATION
 40
0.0
  9
$THICKNESS
 40
0.0
  9
$LIMCHECK
 70
     0
  9
$CHAMFERA
 40
10.0
  9
$CHAMFERB
 40
10.0
  9
$CHAMFERC
 40
20.0
  9
$CHAMFERD
 40
0.0
  9
$SKPOLY
 70
     0
  9
$TDCREATE
 40
2455188.75
  9
$TDUPDATE
 40
2457991.651763044
  9
$TDINDWG
 40
0.0005426389
  9
$TDUSRTIMER
 40
2457991.275874433
  9
$USRTIMER
 70
     1
  9
$ANGBASE
 50
0.0
  9
$ANGDIR
 70
     0
  9
$PDMODE
 70
     0
  9
$PDSIZE
 40
0.0
  9
$PLINEWID
 40
0.0
  9
$COORDS
 70
     1
  9
$SPLFRAME
 70
     0
  9
$SPLINETYPE
 70
     6
  9
$SPLINESEGS
 70
     8
  9
$ATTDIA
 70
     0
  9
$ATTREQ
 70
     1
  9
$HANDLING
 70
     1
  9
$HANDSEED
  5
232
  9
$SURFTAB1
 70
     6
  9
$SURFTAB2
 70
     6
  9
$SURFTYPE
 70
     6
  9
$SURFU
 70
     6
  9
$SURFV
 70
     6
  9
$UCSNAME
  2

  9
$UCSORG
 10
0.0
 20
0.0
 30
0.0
  9
$UCSXDIR
 10
1.0
 20
0.0
 30
0.0
  9
$UCSYDIR
 10
0.0
 20
1.0
 30
0.0
  9
$PUCSNAME
  2

  9
$PUCSORG
 10
0.0
 20
0.0
 30
0.0
  9
$PUCSXDIR
 10
1.0
 20
0.0
 30
0.0
  9
$PUCSYDIR
 10
0.0
 20
1.0
 30
0.0
  9
$USERI1
 70
     0
  9
$USERI2
 70
     0
  9
$USERI3
 70
     0
  9
$USERI4
 70
     0
  9
$USERI5
 70
     0
  9
$USERR1
 40
0.0
  9
$USERR2
 40
0.0
  9
$USERR3
 40
0.0
  9
$USERR4
 40
0.0
  9
$USERR5
 40
0.0
  9
$WORLDVIEW
 70
     1
  9
$SHADEDGE
 70
     3
  9
$SHADEDIF
 70
    70
  9
$TILEMODE
 70
     1
  9
$MAXACTVP
 70
    64
  9
$PINSBASE
 10
0.0
 20
0.0
 30
0.0
  9
$PLIMCHECK
 70
     0
  9
$PEXTMIN
 10
1.000000000000000E+20
 20
1.000000000000000E+20
 30
1.000000000000000E+20
  9
$PEXTMAX
 10
-1.000000000000000E+20
 20
-1.000000000000000E+20
 30
-1.000000000000000E+20
  9
$PLIMMIN
 10
0.0
 20
0.0
  9
$PLIMMAX
 10
0.0
 20
0.0
  9
$UNITMODE
 70
     0
  9
$VISRETAIN
 70
     1
  9
$PLINEGEN
 70
     0
  9
$PSLTSCALE
 70
     1
  9
$TREEDEPTH
 70
  3020
  9
$PICKSTYLE
 70
     1
  9
$CMLSTYLE
  2
STANDARD
  9
$CMLJUST
 70
     0
  9
$CMLSCALE
 40
20.0
  9
$PROXYGRAPHICS
 70
     1
  9
$MEASUREMENT
 70
     1
  0
ENDSEC
  0
SECTION
  2
CLASSES
  0
CLASS
  1
ACDBDICTIONARYWDFLT
  2
AcDbDictionaryWithDefault
  3
ObjectDBX Classes
 90
        0
280
     0
281
     0
  0
CLASS
  1
VISUALSTYLE
  2
AcDbVisualStyle
  3
ObjectDBX Classes
 90
     4095
280
     0
281
     0
  0
CLASS
  1
MATERIAL
  2
AcDbMaterial
  3
ObjectDBX Classes
 90
     1153
280
     0
281
     0
  0
CLASS
  1
SCALE
  2
AcDbScale
  3
ObjectDBX Classes
 90
     1153
280
     0
281
     0
  0
CLASS
  1
TABLESTYLE
  2
AcDbTableStyle
  3
ObjectDBX Classes
 90
     4095
280
     0
281
     0
  0
CLASS
  1
MLEADERSTYLE
  2
AcDbMLeaderStyle
  3
ACDB_MLEADERSTYLE_CLASS
 90
     4095
280
     0
281
     0
  0
CLASS
  1
SUN
  2
AcDbSun
  3
SCENEOE
 90
     1153
280
     0
281
     0
  0
CLASS
  1
DICTIONARYVAR
  2
AcDbDictionaryVar
  3
ObjectDBX Classes
 90
        0
280
     0
281
     0
  0
CLASS
  1
ACDBPLACEHOLDER
  2
AcDbPlaceHolder
  3
ObjectDBX Classes
 90
        0
280
     0
281
     0
  0
CLASS
  1
LAYOUT
  2
AcDbLayout
  3
ObjectDBX Classes
 90
        0
280
     0
281
     0
  0
CLASS
  1
RASTERVARIABLES
  2
AcDbRasterVariables
  3
ISM
 90
        0
280
     0
281
     0
  0
CLASS
  1
XRECORD
  2
AcDbXrecord
  3
ObjectDBX Classes
 90
        0
280
     0
281
     0
  0
CLASS
  1
LWPOLYLINE
  2
AcDbPolyline
  3
ObjectDBX Classes
 90
        0
280
     0
281
     1
  0
CLASS
  1
HATCH
  2
AcDbHatch
  3
ObjectDBX Classes
 90
        0
280
     0
281
     1
  0
ENDSEC
  0
SECTION
  2
TABLES
  0
TABLE
  2
VPORT
  5
8
330
0
100
AcDbSymbolTable
 70
     1
  0
VPORT
  5
29
330
8
100
AcDbSymbolTableRecord
100
AcDbViewportTableRecord
  2
*ACTIVE
 70
     0
 10
0.0
 20
0.0
 11
1.0
 21
1.0
 12
111.7235166104531
 22
56.11979623336372
 13
0.0
 23
0.0
 14
10.0
 24
10.0
 15
10.0
 25
10.0
 16
0.0
 26
0.0
 36
1.0
 17
0.0
 27
0.0
 37
0.0
 40
88.19687495600768
 41
3.061926605504587
 42
50.0
 43
0.0
 44
0.0
 50
0.0
 51
0.0
 71
    16
 72
 20000
 73
     1
 74
     3
 75
     0
 76
     0
 77
     0
 78
     0
  0
ENDTAB
  0
TABLE
  2
LTYPE
  5
5
330
0
100
AcDbSymbolTable
 70
     7
  0
LTYPE
  5
14
330
5
100
AcDbSymbolTableRecord
100
AcDbLinetypeTableRecord
  2
BYBLOCK
 70
     0
  3

 72
    65
 73
     0
 40
0.0
  0
LTYPE
  5
15
330
5
100
AcDbSymbolTableRecord
100
AcDbLinetypeTableRecord
  2
BYLAYER
 70
     0
  3

 72
    65
 73
     0
 40
0.0
  0
LTYPE
  5
16
330
5
100
AcDbSymbolTableRecord
100
AcDbLinetypeTableRecord
  2
CONTINUOUS
 70
     0
  3
Solid line
 72
    65
 73
     0
 40
0.0
  0
LTYPE
  5
6F
330
5
100
AcDbSymbolTableRecord
100
AcDbLinetypeTableRecord
  2
DASHED
 70
     0
  3
ICAD/SX(2) Dashed __ __ __ __ __ __ __ __ __ __ __ __ __ _
 72
    65
 73
     2
 40
19.05
 49
12.7
 74
     0
 49
-6.35
 74
     0
  0
LTYPE
  5
70
330
5
100
AcDbSymbolTableRecord
100
AcDbLinetypeTableRecord
  2
CENTER
 70
     0
  3
ICAD/SX(3) Center ____ _ ____ _ ____ _ ____ _ ____ _ ____
 72
    65
 73
     4
 40
50.8
 49
31.75
 74
     0
 49
-6.35
 74
     0
 49
6.35
 74
     0
 49
-6.35
 74
     0
  0
LTYPE
  5
71
330
5
100
AcDbSymbolTableRecord
100
AcDbLinetypeTableRecord
  2
PHANTOM
 70
     0
  3
ICAD/SX(4) Phantom ______  __  __  ______  __  __  ______
 72
    65
 73
     6
 40
63.5
 49
31.75
 74
     0
 49
-6.35
 74
     0
 49
6.35
 74
     0
 49
-6.35
 74
     0
 49
6.35
 74
     0
 49
-6.35
 74
     0
  0
LTYPE
  5
72
330
5
100
AcDbSymbolTableRecord
100
AcDbLinetypeTableRecord
  2
DOT
 70
     0
  3
ICAD/SX(5) Dot . . . . . . . . . . . . . . . . . . . . . . . .
 72
    65
 73
     2
 40
6.35
 49
0.0
 74
     0
 49
-6.35
 74
     0
  0
LTYPE
  5
73
330
5
100
AcDbSymbolTableRecord
100
AcDbLinetypeTableRecord
  2
HIDDEN
 70
     0
  3
ICAD/SX(6) Hidden __ __ __ __ __ __ __ __ __ __ __ __ __ __
 72
    65
 73
     2
 40
9.525
 49
6.35
 74
     0
 49
-3.175
 74
     0
  0
LTYPE
  5
74
330
5
100
AcDbSymbolTableRecord
100
AcDbLinetypeTableRecord
  2
DOTSX
 70
     0
  3
ICAD/SX(5) Dot . . . . . . . . . . . . . . . . . . . . . . . .
 72
    65
 73
     2
 40
6.35
 49
3.175
 74
     0
 49
-3.175
 74
     0
  0
ENDTAB
  0
TABLE
  2
LAYER
  5
2
330
0
100
AcDbSymbolTable
 70
     3
  0
LAYER
  5
10
330
2
100
AcDbSymbolTableRecord
100
AcDbLayerTableRecord
  2
0
 70
     0
 62
     7
  6
CONTINUOUS
  0
LAYER
  5
75
330
2
100
AcDbSymbolTableRecord
100
AcDbLayerTableRecord
  2
NOLAYERNAME_001
 70
     0
 62
     7
  6
CONTINUOUS
  0
LAYER
  5
76
330
2
100
AcDbSymbolTableRecord
100
AcDbLayerTableRecord
  2
DEFPOINTS
 70
     0
 62
     7
  6
CONTINUOUS
  0
ENDTAB
  0
TABLE
  2
STYLE
  5
3
330
0
100
AcDbSymbolTable
 70
     2
  0
STYLE
  5
11
330
3
100
AcDbSymbolTableRecord
100
AcDbTextStyleTableRecord
  2
STANDARD
 70
     0
 40
0.0
 41
1.0
 50
0.0
 71
     0
 42
2.5
  3
txt
  4
extfont2
  0
STYLE
  5
6E
330
3
100
AcDbSymbolTableRecord
100
AcDbTextStyleTableRecord
  2

 70
     1
 40
0.0
 41
1.0
 50
0.0
 71
     0
 42
2.5
  3
ltypeshp.shx
  4

  0
ENDTAB
  0
TABLE
  2
VIEW
  5
6
330
0
100
AcDbSymbolTable
 70
     0
  0
ENDTAB
  0
TABLE
  2
UCS
  5
7
330
0
100
AcDbSymbolTable
 70
     0
  0
ENDTAB
  0
TABLE
  2
APPID
  5
9
330
0
100
AcDbSymbolTable
 70
     5
  0
APPID
  5
12
330
9
100
AcDbSymbolTableRecord
100
AcDbRegAppTableRecord
  2
ACAD
 70
     0
  0
APPID
  5
1EA
330
9
100
AcDbSymbolTableRecord
100
AcDbRegAppTableRecord
  2
ACAD_DSTYLE_DIM_LINETYPE
 70
     0
  0
APPID
  5
1EB
330
9
100
AcDbSymbolTableRecord
100
AcDbRegAppTableRecord
  2
ACAD_DSTYLE_DIM_EXT1_LINET
 70
     0
  0
APPID
  5
1EC
330
9
100
AcDbSymbolTableRecord
100
AcDbRegAppTableRecord
  2
ACAD_DSTYLE_DIM_EXT2_LINET
 70
     0
  0
APPID
  5
227
330
9
100
AcDbSymbolTableRecord
100
AcDbRegAppTableRecord
  2
ACAD_MLEADERVER
 70
     0
  0
ENDTAB
  0
TABLE
  2
DIMSTYLE
  5
A
330
0
100
AcDbSymbolTable
 70
     1
  0
DIMSTYLE
105
27
102
{ACAD_REACTORS
330
FF
330
10E
330
11F
330
12D
330
1A4
330
1B4
330
1C3
330
1D0
102
}
330
A
100
AcDbSymbolTableRecord
100
AcDbDimStyleTableRecord
  2
STANDARD
 70
     0
  3

  4

  5

  6

  7

 40
1.0
 41
2.5
 42
0.625
 43
3.75
 44
1.25
 45
0.0
 46
0.0
 47
0.0
 48
0.0
140
2.5
141
2.5
142
0.0
143
0.03937007874016
144
1.0
145
0.0
146
0.75
147
0.625
 71
     0
 72
     0
 73
     0
 74
     0
 75
     0
 76
     0
 77
     1
 78
     0
170
     0
171
     3
172
     1
173
     0
174
     0
175
     0
176
     0
177
     0
178
     0
270
     2
271
     2
272
     2
273
     2
274
     3
340
11
275
     0
280
     0
281
     0
282
     0
283
     0
284
     8
285
     0
286
     0
287
     3
288
     0
  0
ENDTAB
  0
TABLE
  2
BLOCK_RECORD
  5
1
330
0
100
AcDbSymbolTable
 70
    19
  0
BLOCK_RECORD
  5
1F
330
1
100
AcDbSymbolTableRecord
100
AcDbBlockTableRecord
  2
*MODEL_SPACE
  0
BLOCK_RECORD
  5
1B
330
1
100
AcDbSymbolTableRecord
100
AcDbBlockTableRecord
  2
*PAPER_SPACE
  0
BLOCK_RECORD
  5
23
330
1
100
AcDbSymbolTableRecord
100
AcDbBlockTableRecord
  2
*PAPER_SPACE0
  0
BLOCK_RECORD
  5
B4
330
1
100
AcDbSymbolTableRecord
100
AcDbBlockTableRecord
  2
_OPEN30
  0
BLOCK_RECORD
  5
BA
330
1
100
AcDbSymbolTableRecord
100
AcDbBlockTableRecord
  2
*D2
  0
BLOCK_RECORD
  5
101
330
1
100
AcDbSymbolTableRecord
100
AcDbBlockTableRecord
  2
*D3
  0
BLOCK_RECORD
  5
110
330
1
100
AcDbSymbolTableRecord
100
AcDbBlockTableRecord
  2
*D4
  0
BLOCK_RECORD
  5
121
330
1
100
AcDbSymbolTableRecord
100
AcDbBlockTableRecord
  2
*D5
  0
BLOCK_RECORD
  5
12F
330
1
100
AcDbSymbolTableRecord
100
AcDbBlockTableRecord
  2
*D6
  0
BLOCK_RECORD
  5
13D
330
1
100
AcDbSymbolTableRecord
100
AcDbBlockTableRecord
  2
_NONE
  0
BLOCK_RECORD
  5
140
330
1
100
AcDbSymbolTableRecord
100
AcDbBlockTableRecord
  2
*D8
  0
BLOCK_RECORD
  5
14E
330
1
100
AcDbSymbolTableRecord
100
AcDbBlockTableRecord
  2
*D9
  0
BLOCK_RECORD
  5
15B
330
1
100
AcDbSymbolTableRecord
100
AcDbBlockTableRecord
  2
*D10
  0
BLOCK_RECORD
  5
16A
330
1
100
AcDbSymbolTableRecord
100
AcDbBlockTableRecord
  2
*D11
  0
BLOCK_RECORD
  5
178
330
1
100
AcDbSymbolTableRecord
100
AcDbBlockTableRecord
  2
*D12
  0
BLOCK_RECORD
  5
186
330
1
100
AcDbSymbolTableRecord
100
AcDbBlockTableRecord
  2
*D13
  0
BLOCK_RECORD
  5
194
330
1
100
AcDbSymbolTableRecord
100
AcDbBlockTableRecord
  2
*D14
  0
BLOCK_RECORD
  5
1A6
330
1
100
AcDbSymbolTableRecord
100
AcDbBlockTableRecord
  2
*D15
  0
BLOCK_RECORD
  5
1B6
330
1
100
AcDbSymbolTableRecord
100
AcDbBlockTableRecord
  2
*D16
  0
BLOCK_RECORD
  5
1C5
330
1
100
AcDbSymbolTableRecord
100
AcDbBlockTableRecord
  2
*D17
  0
BLOCK_RECORD
  5
1D2
330
1
100
AcDbSymbolTableRecord
100
AcDbBlockTableRecord
  2
*D18
  0
ENDTAB
  0
ENDSEC
  0
SECTION
  2
BLOCKS
  0
BLOCK
  5
20
330
1F
100
AcDbEntity
  8
0
100
AcDbBlockBegin
  2
*MODEL_SPACE
 70
     0
 10
0.0
 20
0.0
 30
0.0
  3
*MODEL_SPACE
  1

  0
ENDBLK
  5
21
330
1F
100
AcDbEntity
  8
0
100
AcDbBlockEnd
  0
BLOCK
  5
1C
330
1B
100
AcDbEntity
 67
     1
  8
0
100
AcDbBlockBegin
  2
*PAPER_SPACE
 70
     0
 10
0.0
 20
0.0
 30
0.0
  3
*PAPER_SPACE
  1

  0
ENDBLK
  5
1D
330
1B
100
AcDbEntity
 67
     1
  8
0
100
AcDbBlockEnd
  0
BLOCK
  5
24
330
23
100
AcDbEntity
  8
0
100
AcDbBlockBegin
  2
*PAPER_SPACE0
 70
     0
 10
0.0
 20
0.0
 30
0.0
  3
*PAPER_SPACE0
  1

  0
ENDBLK
  5
25
330
23
100
AcDbEntity
  8
0
100
AcDbBlockEnd
  0
BLOCK
  5
B8
330
B4
100
AcDbEntity
  8
0
100
AcDbBlockBegin
  2
_OPEN30
 70
     0
 10
0.0
 20
0.0
 30
0.0
  3
_OPEN30
  1

  0
LINE
  5
B5
330
B4
100
AcDbEntity
  8
0
  6
BYBLOCK
 62
     0
100
AcDbLine
 10
-1.0
 20
0.267949
 30
0.0
 11
0.0
 21
0.0
 31
0.0
  0
LINE
  5
B6
330
B4
100
AcDbEntity
  8
0
  6
BYBLOCK
 62
     0
100
AcDbLine
 10
0.0
 20
0.0
 30
0.0
 11
-1.0
 21
-0.267949
 31
0.0
  0
LINE
  5
B7
330
B4
100
AcDbEntity
  8
0
  6
BYBLOCK
 62
     0
100
AcDbLine
 10
0.0
 20
0.0
 30
0.0
 11
-1.0
 21
0.0
 31
0.0
  0
ENDBLK
  5
B9
330
B4
100
AcDbEntity
  8
0
100
AcDbBlockEnd
  0
BLOCK
  5
BB
330
BA
100
AcDbEntity
  8
0
100
AcDbBlockBegin
  2
*D2
 70
     1
 10
0.0
 20
0.0
 30
0.0
  3
*D2
  1

  0
LINE
  5
BD
330
BA
100
AcDbEntity
  8
NOLAYERNAME_001
  6
CONTINUOUS
 62
     0
100
AcDbLine
 10
130.5012219474924
 20
55.79807931696034
 30
0.0
 11
147.2484436035156
 21
55.79807931696033
 31
0.0
  0
LINE
  5
BE
330
BA
100
AcDbEntity
  8
NOLAYERNAME_001
  6
CONTINUOUS
 62
     0
100
AcDbLine
 10
130.5012219474924
 20
65.79807931696034
 30
0.0
 11
147.2484436035156
 21
65.79807931696033
 31
0.0
  0
LINE
  5
BF
330
BA
100
AcDbEntity
  8
NOLAYERNAME_001
  6
CONTINUOUS
 62
     0
100
AcDbLine
 10
144.4984436035156
 20
55.79807931696033
 30
0.0
 11
144.4984436035156
 21
40.25046018191851
 31
0.0
  0
LINE
  5
C0
330
BA
100
AcDbEntity
  8
NOLAYERNAME_001
  6
CONTINUOUS
 62
     0
100
AcDbLine
 10
144.4984436035156
 20
57.29807931696033
 30
0.0
 11
144.4984436035156
 21
64.29807931696033
 31
0.0
  0
INSERT
  5
C1
330
BA
100
AcDbEntity
  8
NOLAYERNAME_001
 62
     0
100
AcDbBlockReference
  2
_OPEN30
 10
144.4984436035156
 20
55.79807931696033
 30
0.0
 41
1.5
 42
1.5
 43
1.5
 50
270.0
  0
INSERT
  5
C2
330
BA
100
AcDbEntity
  8
NOLAYERNAME_001
 62
     0
100
AcDbBlockReference
  2
_OPEN30
 10
144.4984436035156
 20
65.79807931696033
 30
0.0
 41
1.5
 42
1.5
 43
1.5
 50
90.0
  0
MTEXT
  5
C3
330
BA
100
AcDbEntity
  8
NOLAYERNAME_001
 62
     0
100
AcDbMText
 10
141.4984436035156
 20
46.29807922953754
 30
0.0
 40
4.0
 41
0.0
 71
     5
 72
     1
  1
%%c10
 11
0.0
 21
1.0
 31
0.0
  0
POINT
  5
C4
330
BA
100
AcDbEntity
  8
DEFPOINTS
 62
     0
100
AcDbPoint
 10
129.8762219474924
 20
55.79807931696034
 30
0.0
  0
POINT
  5
C5
330
BA
100
AcDbEntity
  8
DEFPOINTS
 62
     0
100
AcDbPoint
 10
129.8762219474924
 20
65.79807931696034
 30
0.0
  0
POINT
  5
C6
330
BA
100
AcDbEntity
  8
DEFPOINTS
 62
     0
100
AcDbPoint
 10
144.4984436035156
 20
65.79807931696034
 30
0.0
  0
ENDBLK
  5
BC
330
BA
100
AcDbEntity
  8
0
100
AcDbBlockEnd
  0
BLOCK
  5
102
330
101
100
AcDbEntity
  8
0
100
AcDbBlockBegin
  2
*D3
 70
     1
 10
0.0
 20
0.0
 30
0.0
  3
*D3
  1

  0
LINE
  5
104
330
101
100
AcDbEntity
  8
NOLAYERNAME_001
  6
CONTINUOUS
 62
     0
100
AcDbLine
 10
195.9279796143377
 20
56.60454451878175
 30
0.0
 11
212.675201270361
 21
56.60454451878175
 31
0.0
  0
LINE
  5
105
330
101
100
AcDbEntity
  8
NOLAYERNAME_001
  6
CONTINUOUS
 62
     0
100
AcDbLine
 10
195.9279796143377
 20
66.60454451878175
 30
0.0
 11
212.675201270361
 21
66.60454451878175
 31
0.0
  0
LINE
  5
106
330
101
100
AcDbEntity
  8
NOLAYERNAME_001
  6
CONTINUOUS
 62
     0
100
AcDbLine
 10
209.925201270361
 20
56.60454451878175
 30
0.0
 11
209.925201270361
 21
41.7712110980256
 31
0.0
  0
LINE
  5
107
330
101
100
AcDbEntity
  8
NOLAYERNAME_001
  6
CONTINUOUS
 62
     0
100
AcDbLine
 10
209.925201270361
 20
58.10454451878175
 30
0.0
 11
209.925201270361
 21
65.10454451878175
 31
0.0
  0
INSERT
  5
108
330
101
100
AcDbEntity
  8
NOLAYERNAME_001
 62
     0
100
AcDbBlockReference
  2
_OPEN30
 10
209.925201270361
 20
56.60454451878175
 30
0.0
 41
1.5
 42
1.5
 43
1.5
 50
270.0
  0
INSERT
  5
109
330
101
100
AcDbEntity
  8
NOLAYERNAME_001
 62
     0
100
AcDbBlockReference
  2
_OPEN30
 10
209.925201270361
 20
66.60454451878175
 30
0.0
 41
1.5
 42
1.5
 43
1.5
 50
90.0
  0
MTEXT
  5
10A
330
101
100
AcDbEntity
  8
NOLAYERNAME_001
 62
     0
100
AcDbMText
 10
206.925201270361
 20
47.10454443135895
 30
0.0
 40
4.0
 41
0.0
 71
     5
 72
     1
  1
%%c10
 11
0.0
 21
1.0
 31
0.0
  0
POINT
  5
10B
330
101
100
AcDbEntity
  8
DEFPOINTS
 62
     0
100
AcDbPoint
 10
195.3029796143377
 20
56.60454451878175
 30
0.0
  0
POINT
  5
10C
330
101
100
AcDbEntity
  8
DEFPOINTS
 62
     0
100
AcDbPoint
 10
195.3029796143377
 20
66.60454451878175
 30
0.0
  0
POINT
  5
10D
330
101
100
AcDbEntity
  8
DEFPOINTS
 62
     0
100
AcDbPoint
 10
209.925201270361
 20
66.60454451878175
 30
0.0
  0
ENDBLK
  5
103
330
101
100
AcDbEntity
  8
0
100
AcDbBlockEnd
  0
BLOCK
  5
111
330
110
100
AcDbEntity
  8
0
100
AcDbBlockBegin
  2
*D4
 70
     1
 10
0.0
 20
0.0
 30
0.0
  3
*D4
  1

  0
LINE
  5
113
330
110
100
AcDbEntity
  8
NOLAYERNAME_001
  6
CONTINUOUS
 62
     0
100
AcDbLine
 10
42.30296996523852
 20
60.78607048773711
 30
0.0
 11
42.30296996523852
 21
34.9492085835127
 31
0.0
  0
LINE
  5
114
330
110
100
AcDbEntity
  8
NOLAYERNAME_001
  6
CONTINUOUS
 62
     0
100
AcDbLine
 10
57.30297961433769
 20
55.77954451878175
 30
0.0
 11
57.30297961433769
 21
34.9492085835127
 31
0.0
  0
LINE
  5
115
330
110
100
AcDbEntity
  8
NOLAYERNAME_001
  6
CONTINUOUS
 62
     0
100
AcDbLine
 10
43.80296996523852
 20
37.6992085835127
 30
0.0
 11
55.80297961433769
 21
37.6992085835127
 31
0.0
  0
INSERT
  5
116
330
110
100
AcDbEntity
  8
NOLAYERNAME_001
 62
     0
100
AcDbBlockReference
  2
_OPEN30
 10
42.30296996523852
 20
37.6992085835127
 30
0.0
 41
1.5
 42
1.5
 43
1.5
 50
180.0
  0
INSERT
  5
117
330
110
100
AcDbEntity
  8
NOLAYERNAME_001
 62
     0
100
AcDbBlockReference
  2
_OPEN30
 10
57.30297961433769
 20
37.6992085835127
 30
0.0
 41
1.5
 42
1.5
 43
1.5
  0
MTEXT
  5
118
330
110
100
AcDbEntity
  8
NOLAYERNAME_001
 62
     0
100
AcDbMText
 10
49.8029747897881
 20
40.6992085835127
 30
0.0
 40
4.0
 41
0.0
 71
     5
 72
     1
  1
15
  0
POINT
  5
119
330
110
100
AcDbEntity
  8
DEFPOINTS
 62
     0
100
AcDbPoint
 10
42.30296996523852
 20
61.41107048773711
 30
0.0
  0
POINT
  5
11A
330
110
100
AcDbEntity
  8
DEFPOINTS
 62
     0
100
AcDbPoint
 10
57.30297961433769
 20
56.40454451878175
 30
0.0
  0
POINT
  5
11B
330
110
100
AcDbEntity
  8
DEFPOINTS
 62
     0
100
AcDbPoint
 10
57.30297961433769
 20
37.6992085835127
 30
0.0
  0
ENDBLK
  5
112
330
110
100
AcDbEntity
  8
0
100
AcDbBlockEnd
  0
BLOCK
  5
122
330
121
100
AcDbEntity
  8
0
100
AcDbBlockBegin
  2
*D5
 70
     1
 10
0.0
 20
0.0
 30
0.0
  3
*D5
  1

  0
LINE
  5
124
330
121
100
AcDbEntity
  8
NOLAYERNAME_001
  6
CONTINUOUS
 62
     0
100
AcDbLine
 10
42.30296996523852
 20
37.0742085835127
 30
0.0
 11
42.30296996523854
 21
26.33340963331739
 31
0.0
  0
LINE
  5
125
330
121
100
AcDbEntity
  8
NOLAYERNAME_001
  6
CONTINUOUS
 62
     0
100
AcDbLine
 10
197.3029796143377
 20
57.97954451878174
 30
0.0
 11
197.3029796143377
 21
26.33340963331739
 31
0.0
  0
LINE
  5
126
330
121
100
AcDbEntity
  8
NOLAYERNAME_001
  6
CONTINUOUS
 62
     0
100
AcDbLine
 10
43.80296996523853
 20
29.08340963331739
 30
0.0
 11
195.8029796143377
 21
29.08340963331739
 31
0.0
  0
INSERT
  5
127
330
121
100
AcDbEntity
  8
NOLAYERNAME_001
 62
     0
100
AcDbBlockReference
  2
_OPEN30
 10
42.30296996523853
 20
29.08340963331739
 30
0.0
 41
1.5
 42
1.5
 43
1.5
 50
180.0
  0
INSERT
  5
128
330
121
100
AcDbEntity
  8
NOLAYERNAME_001
 62
     0
100
AcDbBlockReference
  2
_OPEN30
 10
197.3029796143377
 20
29.08340963331739
 30
0.0
 41
1.5
 42
1.5
 43
1.5
  0
MTEXT
  5
129
330
121
100
AcDbEntity
  8
NOLAYERNAME_001
 62
     0
100
AcDbMText
 10
119.8029747897881
 20
32.08340963331739
 30
0.0
 40
4.0
 41
0.0
 71
     5
 72
     1
  1
155
  0
POINT
  5
12A
330
121
100
AcDbEntity
  8
DEFPOINTS
 62
     0
100
AcDbPoint
 10
42.30296996523852
 20
37.6992085835127
 30
0.0
  0
POINT
  5
12B
330
121
100
AcDbEntity
  8
DEFPOINTS
 62
     0
100
AcDbPoint
 10
197.3029796143377
 20
58.60454451878174
 30
0.0
  0
POINT
  5
12C
330
121
100
AcDbEntity
  8
DEFPOINTS
 62
     0
100
AcDbPoint
 10
197.3029796143377
 20
29.08340963331739
 30
0.0
  0
ENDBLK
  5
123
330
121
100
AcDbEntity
  8
0
100
AcDbBlockEnd
  0
BLOCK
  5
130
330
12F
100
AcDbEntity
  8
0
100
AcDbBlockBegin
  2
*D6
 70
     1
 10
0.0
 20
0.0
 30
0.0
  3
*D6
  1

  0
LINE
  5
132
330
12F
100
AcDbEntity
  8
NOLAYERNAME_001
  6
CONTINUOUS
 62
     0
100
AcDbLine
 10
57.30297961433769
 20
55.77954451878175
 30
0.0
 11
57.30297961433769
 21
34.9492085835127
 31
0.0
  0
LINE
  5
133
330
12F
100
AcDbEntity
  8
NOLAYERNAME_001
  6
CONTINUOUS
 62
     0
100
AcDbLine
 10
197.3029796143377
 20
57.97954451878174
 30
0.0
 11
197.3029796143377
 21
34.9492085835127
 31
0.0
  0
LINE
  5
134
330
12F
100
AcDbEntity
  8
NOLAYERNAME_001
  6
CONTINUOUS
 62
     0
100
AcDbLine
 10
58.80297961433769
 20
37.6992085835127
 30
0.0
 11
195.8029796143377
 21
37.6992085835127
 31
0.0
  0
INSERT
  5
135
330
12F
100
AcDbEntity
  8
NOLAYERNAME_001
 62
     0
100
AcDbBlockReference
  2
_OPEN30
 10
57.30297961433769
 20
37.6992085835127
 30
0.0
 41
1.5
 42
1.5
 43
1.5
 50
180.0
  0
INSERT
  5
136
330
12F
100
AcDbEntity
  8
NOLAYERNAME_001
 62
     0
100
AcDbBlockReference
  2
_OPEN30
 10
197.3029796143377
 20
37.6992085835127
 30
0.0
 41
1.5
 42
1.5
 43
1.5
  0
MTEXT
  5
137
330
12F
100
AcDbEntity
  8
NOLAYERNAME_001
 62
     0
100
AcDbMText
 10
127.3029796143377
 20
40.6992085835127
 30
0.0
 40
4.0
 41
0.0
 71
     5
 72
     1
  1
140
  0
POINT
  5
138
330
12F
100
AcDbEntity
  8
DEFPOINTS
 62
     0
100
AcDbPoint
 10
57.30297961433769
 20
56.40454451878175
 30
0.0
  0
POINT
  5
139
330
12F
100
AcDbEntity
  8
DEFPOINTS
 62
     0
100
AcDbPoint
 10
197.3029796143377
 20
58.60454451878174
 30
0.0
  0
POINT
  5
13A
330
12F
100
AcDbEntity
  8
DEFPOINTS
 62
     0
100
AcDbPoint
 10
197.3029796143377
 20
37.6992085835127
 30
0.0
  0
ENDBLK
  5
131
330
12F
100
AcDbEntity
  8
0
100
AcDbBlockEnd
  0
BLOCK
  5
13E
330
13D
100
AcDbEntity
  8
0
100
AcDbBlockBegin
  2
_NONE
 70
     0
 10
0.0
 20
0.0
 30
0.0
  3
_NONE
  1

  0
ENDBLK
  5
13F
330
13D
100
AcDbEntity
  8
0
100
AcDbBlockEnd
  0
BLOCK
  5
141
330
140
100
AcDbEntity
  8
0
100
AcDbBlockBegin
  2
*D8
 70
     1
 10
0.0
 20
0.0
 30
0.0
  3
*D8
  1

  0
LINE
  5
143
330
140
100
AcDbEntity
  8
NOLAYERNAME_001
  6
CONTINUOUS
 62
     0
100
AcDbLine
 10
36.25121229839318
 20
60.44332854100592
 30
0.0
 11
24.96208000183105
 21
60.44332854100592
 31
0.0
  0
LINE
  5
144
330
140
100
AcDbEntity
  8
NOLAYERNAME_001
  6
CONTINUOUS
 62
     0
100
AcDbLine
 10
27.71208000183105
 20
61.15283009291478
 30
0.0
 11
27.71208000183105
 21
78.15283009291477
 31
0.0
  0
LINE
  5
145
330
140
100
AcDbEntity
  8
NOLAYERNAME_001
  6
CONTINUOUS
 62
     0
100
AcDbLine
 10
27.71208000183105
 20
60.44332854100592
 30
0.0
 11
27.71208000183105
 21
61.15283009291478
 31
0.0
  0
LINE
  5
146
330
140
100
AcDbEntity
  8
NOLAYERNAME_001
  6
CONTINUOUS
 62
     0
100
AcDbLine
 10
27.71208000183105
 20
58.94332854100592
 30
0.0
 11
27.71208000183105
 21
57.44332854100592
 31
0.0
  0
INSERT
  5
147
330
140
100
AcDbEntity
  8
NOLAYERNAME_001
 62
     0
100
AcDbBlockReference
  2
_OPEN30
 10
27.71208000183105
 20
60.44332854100592
 30
0.0
 41
1.5
 42
1.5
 43
1.5
 50
90.0
  0
MTEXT
  5
148
330
140
100
AcDbEntity
  8
NOLAYERNAME_001
 62
     0
100
AcDbMText
 10
24.71208000183105
 20
71.15283009291477
 30
0.0
 40
4.0
 41
0.0
 71
     5
 72
     1
  1
%%c0.7
 11
0.0
 21
1.0
 31
0.0
  0
POINT
  5
149
330
140
100
AcDbEntity
  8
DEFPOINTS
 62
     0
100
AcDbPoint
 10
36.87621229839318
 20
60.44332854100592
 30
0.0
  0
POINT
  5
14A
330
140
100
AcDbEntity
  8
DEFPOINTS
 62
     0
100
AcDbPoint
 10
36.87621229839319
 20
61.15283009291478
 30
0.0
  0
POINT
  5
14B
330
140
100
AcDbEntity
  8
DEFPOINTS
 62
     0
100
AcDbPoint
 10
27.71208000183105
 20
61.15283009291478
 30
0.0
  0
ENDBLK
  5
142
330
140
100
AcDbEntity
  8
0
100
AcDbBlockEnd
  0
BLOCK
  5
14F
330
14E
100
AcDbEntity
  8
0
100
AcDbBlockBegin
  2
*D9
 70
     1
 10
0.0
 20
0.0
 30
0.0
  3
*D9
  1

  0
LINE
  5
151
330
14E
100
AcDbEntity
  8
NOLAYERNAME_001
  6
CONTINUOUS
 62
     0
100
AcDbLine
 10
39.89309603233913
 20
54.64807931696033
 30
0.0
 11
13.19824981689453
 21
54.64807931696033
 31
0.0
  0
LINE
  5
152
330
14E
100
AcDbEntity
  8
NOLAYERNAME_001
  6
CONTINUOUS
 62
     0
100
AcDbLine
 10
15.94824981689453
 20
66.94807931696035
 30
0.0
 11
15.94824981689453
 21
86.25760312648416
 31
0.0
  0
LINE
  5
153
330
14E
100
AcDbEntity
  8
NOLAYERNAME_001
  6
CONTINUOUS
 62
     0
100
AcDbLine
 10
15.94824981689453
 20
66.94807931696035
 30
0.0
 11
15.94824981689453
 21
56.14807931696033
 31
0.0
  0
INSERT
  5
154
330
14E
100
AcDbEntity
  8
NOLAYERNAME_001
 62
     0
100
AcDbBlockReference
  2
_OPEN30
 10
15.94824981689453
 20
54.64807931696033
 30
0.0
 41
1.5
 42
1.5
 43
1.5
 50
270.0
  0
MTEXT
  5
155
330
14E
100
AcDbEntity
  8
NOLAYERNAME_001
 62
     0
100
AcDbMText
 10
12.94824981689453
 20
77.35284122172226
 30
0.0
 40
4.0
 41
0.0
 71
     5
 72
     1
  1
%%c12.3
 11
0.0
 21
1.0
 31
0.0
  0
POINT
  5
156
330
14E
100
AcDbEntity
  8
DEFPOINTS
 62
     0
100
AcDbPoint
 10
40.51809603233913
 20
66.94807931696035
 30
0.0
  0
POINT
  5
157
330
14E
100
AcDbEntity
  8
DEFPOINTS
 62
     0
100
AcDbPoint
 10
40.51809603233913
 20
54.64807931696033
 30
0.0
  0
POINT
  5
158
330
14E
100
AcDbEntity
  8
DEFPOINTS
 62
     0
100
AcDbPoint
 10
15.94824981689453
 20
54.64807931696033
 30
0.0
  0
ENDBLK
  5
150
330
14E
100
AcDbEntity
  8
0
100
AcDbBlockEnd
  0
BLOCK
  5
15C
330
15B
100
AcDbEntity
  8
0
100
AcDbBlockBegin
  2
*D10
 70
     1
 10
0.0
 20
0.0
 30
0.0
  3
*D10
  1

  0
LINE
  5
15E
330
15B
100
AcDbEntity
  8
NOLAYERNAME_001
  6
CONTINUOUS
 62
     0
100
AcDbLine
 10
40.38639194592411
 20
54.36326893032147
 30
0.0
 11
46.80507488070687
 21
43.2453266070528
 31
0.0
  0
ARC
  5
15F
330
15B
100
AcDbEntity
  8
NOLAYERNAME_001
  6
CONTINUOUS
 62
     0
100
AcDbCircle
 10
36.87621229839318
 20
60.44332854100564
 30
0.0
 40
17.10833786344453
100
AcDbArc
 50
275.0251065570584
 51
294.9738728233085
  0
INSERT
  5
160
330
15B
100
AcDbEntity
  8
NOLAYERNAME_001
 62
     0
100
AcDbBlockReference
  2
_OPEN30
 10
36.87621229839318
 20
43.33499067756112
 30
0.0
 41
1.5
 42
1.5
 43
1.5
 50
182.5125532785292
  0
INSERT
  5
161
330
15B
100
AcDbEntity
  8
NOLAYERNAME_001
 62
     0
100
AcDbBlockReference
  2
_OPEN30
 10
45.43011730424097
 20
45.62692096019504
 30
0.0
 41
1.5
 42
1.5
 43
1.5
 50
27.48642610183769
  0
MTEXT
  5
162
330
15B
100
AcDbEntity
  8
NOLAYERNAME_001
 62
     0
100
AcDbMText
 10
29.80398057527639
 20
48.3457873210615
 30
0.0
 40
4.0
 41
0.0
 71
     5
 72
     1
  1
30%%d
 11
0.8633022971399663
 21
-0.5046871741513324
 31
0.0
  0
POINT
  5
163
330
15B
100
AcDbEntity
  8
DEFPOINTS
 62
     0
100
AcDbPoint
 10
42.72741754951296
 20
44.36668020999342
 30
0.0
  0
POINT
  5
164
330
15B
100
AcDbEntity
  8
DEFPOINTS
 62
     0
100
AcDbPoint
 10
36.87621229839318
 20
36.8927433816913
 30
0.0
  0
POINT
  5
165
330
15B
100
AcDbEntity
  8
DEFPOINTS
 62
     0
100
AcDbPoint
 10
40.07390158763641
 20
54.90454037421744
 30
0.0
  0
POINT
  5
166
330
15B
100
AcDbEntity
  8
DEFPOINTS
 62
     0
100
AcDbPoint
 10
40.02390313031037
 20
54.9911438052408
 30
0.0
  0
POINT
  5
167
330
15B
100
AcDbEntity
  8
DEFPOINTS
 62
     0
100
AcDbPoint
 10
36.87621229839318
 20
36.7927433816913
 30
0.0
  0
ENDBLK
  5
15D
330
15B
100
AcDbEntity
  8
0
100
AcDbBlockEnd
  0
BLOCK
  5
16B
330
16A
100
AcDbEntity
  8
0
100
AcDbBlockBegin
  2
*D11
 70
     1
 10
0.0
 20
0.0
 30
0.0
  3
*D11
  1

  0
LINE
  5
16D
330
16A
100
AcDbEntity
  8
NOLAYERNAME_001
  6
CONTINUOUS
 62
     0
100
AcDbLine
 10
36.87621229839318
 20
36.2677433816913
 30
0.0
 11
36.87621229839318
 21
14.88280296325684
 31
0.0
  0
LINE
  5
16E
330
16A
100
AcDbEntity
  8
NOLAYERNAME_001
  6
CONTINUOUS
 62
     0
100
AcDbLine
 10
131.8762219474924
 20
57.17307931696034
 30
0.0
 11
131.8762219474924
 21
14.88280296325684
 31
0.0
  0
LINE
  5
16F
330
16A
100
AcDbEntity
  8
NOLAYERNAME_001
  6
CONTINUOUS
 62
     0
100
AcDbLine
 10
38.37621229839318
 20
17.63280296325684
 30
0.0
 11
130.3762219474924
 21
17.63280296325684
 31
0.0
  0
INSERT
  5
170
330
16A
100
AcDbEntity
  8
NOLAYERNAME_001
 62
     0
100
AcDbBlockReference
  2
_OPEN30
 10
36.87621229839318
 20
17.63280296325684
 30
0.0
 41
1.5
 42
1.5
 43
1.5
 50
180.0
  0
INSERT
  5
171
330
16A
100
AcDbEntity
  8
NOLAYERNAME_001
 62
     0
100
AcDbBlockReference
  2
_OPEN30
 10
131.8762219474924
 20
17.63280296325684
 30
0.0
 41
1.5
 42
1.5
 43
1.5
  0
MTEXT
  5
172
330
16A
100
AcDbEntity
  8
NOLAYERNAME_001
 62
     0
100
AcDbMText
 10
88.03899383544922
 20
20.63280296325684
 30
0.0
 40
4.0
 41
0.0
 71
     5
 72
     1
  1
95
  0
POINT
  5
173
330
16A
100
AcDbEntity
  8
DEFPOINTS
 62
     0
100
AcDbPoint
 10
36.87621229839318
 20
36.8927433816913
 30
0.0
  0
POINT
  5
174
330
16A
100
AcDbEntity
  8
DEFPOINTS
 62
     0
100
AcDbPoint
 10
131.8762219474924
 20
57.79807931696034
 30
0.0
  0
POINT
  5
175
330
16A
100
AcDbEntity
  8
DEFPOINTS
 62
     0
100
AcDbPoint
 10
131.8762219474924
 20
17.63280296325684
 30
0.0
  0
ENDBLK
  5
16C
330
16A
100
AcDbEntity
  8
0
100
AcDbBlockEnd
  0
BLOCK
  5
179
330
178
100
AcDbEntity
  8
0
100
AcDbBlockBegin
  2
*D12
 70
     1
 10
0.0
 20
0.0
 30
0.0
  3
*D12
  1

  0
LINE
  5
17B
330
178
100
AcDbEntity
  8
NOLAYERNAME_001
  6
CONTINUOUS
 62
     0
100
AcDbLine
 10
51.87622194749235
 20
54.97307931696035
 30
0.0
 11
51.87622194749235
 21
25.61434936523438
 31
0.0
  0
LINE
  5
17C
330
178
100
AcDbEntity
  8
NOLAYERNAME_001
  6
CONTINUOUS
 62
     0
100
AcDbLine
 10
131.8762219474924
 20
57.17307931696034
 30
0.0
 11
131.8762219474924
 21
25.61434936523438
 31
0.0
  0
LINE
  5
17D
330
178
100
AcDbEntity
  8
NOLAYERNAME_001
  6
CONTINUOUS
 62
     0
100
AcDbLine
 10
53.37622194749235
 20
28.36434936523438
 30
0.0
 11
130.3762219474924
 21
28.36434936523438
 31
0.0
  0
INSERT
  5
17E
330
178
100
AcDbEntity
  8
NOLAYERNAME_001
 62
     0
100
AcDbBlockReference
  2
_OPEN30
 10
51.87622194749235
 20
28.36434936523438
 30
0.0
 41
1.5
 42
1.5
 43
1.5
 50
180.0
  0
INSERT
  5
17F
330
178
100
AcDbEntity
  8
NOLAYERNAME_001
 62
     0
100
AcDbBlockReference
  2
_OPEN30
 10
131.8762219474924
 20
28.36434936523438
 30
0.0
 41
1.5
 42
1.5
 43
1.5
  0
MTEXT
  5
180
330
178
100
AcDbEntity
  8
NOLAYERNAME_001
 62
     0
100
AcDbMText
 10
91.87622194749235
 20
31.36434936523438
 30
0.0
 40
4.0
 41
0.0
 71
     5
 72
     1
  1
80
  0
POINT
  5
181
330
178
100
AcDbEntity
  8
DEFPOINTS
 62
     0
100
AcDbPoint
 10
51.87622194749235
 20
55.59807931696035
 30
0.0
  0
POINT
  5
182
330
178
100
AcDbEntity
  8
DEFPOINTS
 62
     0
100
AcDbPoint
 10
131.8762219474924
 20
57.79807931696034
 30
0.0
  0
POINT
  5
183
330
178
100
AcDbEntity
  8
DEFPOINTS
 62
     0
100
AcDbPoint
 10
131.8762219474924
 20
28.36434936523438
 30
0.0
  0
ENDBLK
  5
17A
330
178
100
AcDbEntity
  8
0
100
AcDbBlockEnd
  0
BLOCK
  5
187
330
186
100
AcDbEntity
  8
0
100
AcDbBlockBegin
  2
*D13
 70
     1
 10
0.0
 20
0.0
 30
0.0
  3
*D13
  1

  0
LINE
  5
189
330
186
100
AcDbEntity
  8
NOLAYERNAME_001
  6
CONTINUOUS
 62
     0
100
AcDbLine
 10
36.87621229839318
 20
59.97960528591571
 30
0.0
 11
36.87621229839318
 21
25.61434936523438
 31
0.0
  0
LINE
  5
18A
330
186
100
AcDbEntity
  8
NOLAYERNAME_001
  6
CONTINUOUS
 62
     0
100
AcDbLine
 10
51.87622194749235
 20
54.97307931696035
 30
0.0
 11
51.87622194749235
 21
25.61434936523438
 31
0.0
  0
LINE
  5
18B
330
186
100
AcDbEntity
  8
NOLAYERNAME_001
  6
CONTINUOUS
 62
     0
100
AcDbLine
 10
38.37621229839318
 20
28.36434936523438
 30
0.0
 11
50.37622194749235
 21
28.36434936523438
 31
0.0
  0
INSERT
  5
18C
330
186
100
AcDbEntity
  8
NOLAYERNAME_001
 62
     0
100
AcDbBlockReference
  2
_OPEN30
 10
36.87621229839318
 20
28.36434936523438
 30
0.0
 41
1.5
 42
1.5
 43
1.5
 50
180.0
  0
INSERT
  5
18D
330
186
100
AcDbEntity
  8
NOLAYERNAME_001
 62
     0
100
AcDbBlockReference
  2
_OPEN30
 10
51.87622194749235
 20
28.36434936523438
 30
0.0
 41
1.5
 42
1.5
 43
1.5
  0
MTEXT
  5
18E
330
186
100
AcDbEntity
  8
NOLAYERNAME_001
 62
     0
100
AcDbMText
 10
44.37621712294277
 20
31.36434936523438
 30
0.0
 40
4.0
 41
0.0
 71
     5
 72
     1
  1
15
  0
POINT
  5
18F
330
186
100
AcDbEntity
  8
DEFPOINTS
 62
     0
100
AcDbPoint
 10
36.87621229839318
 20
60.60460528591571
 30
0.0
  0
POINT
  5
190
330
186
100
AcDbEntity
  8
DEFPOINTS
 62
     0
100
AcDbPoint
 10
51.87622194749235
 20
55.59807931696035
 30
0.0
  0
POINT
  5
191
330
186
100
AcDbEntity
  8
DEFPOINTS
 62
     0
100
AcDbPoint
 10
51.87622194749235
 20
28.36434936523438
 30
0.0
  0
ENDBLK
  5
188
330
186
100
AcDbEntity
  8
0
100
AcDbBlockEnd
  0
BLOCK
  5
195
330
194
100
AcDbEntity
  8
0
100
AcDbBlockBegin
  2
*D14
 70
     1
 10
0.0
 20
0.0
 30
0.0
  3
*D14
  1

  0
LINE
  5
197
330
194
100
AcDbEntity
  8
NOLAYERNAME_001
  6
CONTINUOUS
 62
     0
100
AcDbLine
 10
40.22196335696285
 20
54.02307931696033
 30
0.0
 11
40.22196335696285
 21
35.06017684936523
 31
0.0
  0
LINE
  5
198
330
194
100
AcDbEntity
  8
NOLAYERNAME_001
  6
CONTINUOUS
 62
     0
100
AcDbLine
 10
36.87621229839318
 20
37.81017684936523
 30
0.0
 11
22.18573610791699
 21
37.81017684936523
 31
0.0
  0
LINE
  5
199
330
194
100
AcDbEntity
  8
NOLAYERNAME_001
  6
CONTINUOUS
 62
     0
100
AcDbLine
 10
36.87621229839318
 20
37.81017684936523
 30
0.0
 11
40.22196335696285
 21
37.81017684936523
 31
0.0
  0
LINE
  5
19A
330
194
100
AcDbEntity
  8
NOLAYERNAME_001
  6
CONTINUOUS
 62
     0
100
AcDbLine
 10
35.37621229839318
 20
37.81017684936523
 30
0.0
 11
33.87621229839318
 21
37.81017684936523
 31
0.0
  0
LINE
  5
19B
330
194
100
AcDbEntity
  8
NOLAYERNAME_001
  6
CONTINUOUS
 62
     0
100
AcDbLine
 10
41.72196335696285
 20
37.81017684936523
 30
0.0
 11
43.22196335696285
 21
37.81017684936523
 31
0.0
  0
INSERT
  5
19C
330
194
100
AcDbEntity
  8
NOLAYERNAME_001
 62
     0
100
AcDbBlockReference
  2
_OPEN30
 10
36.87621229839318
 20
37.81017684936523
 30
0.0
 41
1.5
 42
1.5
 43
1.5
  0
INSERT
  5
19D
330
194
100
AcDbEntity
  8
NOLAYERNAME_001
 62
     0
100
AcDbBlockReference
  2
_OPEN30
 10
40.22196335696285
 20
37.81017684936523
 30
0.0
 41
1.5
 42
1.5
 43
1.5
 50
180.0
  0
MTEXT
  5
19E
330
194
100
AcDbEntity
  8
NOLAYERNAME_001
 62
     0
100
AcDbMText
 10
27.37621229839318
 20
40.81017684936523
 30
0.0
 40
4.0
 41
0.0
 71
     5
 72
     1
  1
3.3
  0
POINT
  5
19F
330
194
100
AcDbEntity
  8
DEFPOINTS
 62
     0
100
AcDbPoint
 10
36.87621229839318
 20
28.36434936523438
 30
0.0
  0
POINT
  5
1A0
330
194
100
AcDbEntity
  8
DEFPOINTS
 62
     0
100
AcDbPoint
 10
40.22196335696285
 20
54.64807931696033
 30
0.0
  0
POINT
  5
1A1
330
194
100
AcDbEntity
  8
DEFPOINTS
 62
     0
100
AcDbPoint
 10
40.22196335696285
 20
37.81017684936523
 30
0.0
  0
ENDBLK
  5
196
330
194
100
AcDbEntity
  8
0
100
AcDbBlockEnd
  0
BLOCK
  5
1A7
330
1A6
100
AcDbEntity
  8
0
100
AcDbBlockBegin
  2
*D15
 70
     1
 10
0.0
 20
0.0
 30
0.0
  3
*D15
  1

  0
LINE
  5
1A9
330
1A6
100
AcDbEntity
  8
NOLAYERNAME_001
  6
CONTINUOUS
 62
     0
100
AcDbLine
 10
45.64872102380818
 20
54.82954451878173
 30
0.0
 11
45.64872102380818
 21
35.86664205118663
 31
0.0
  0
LINE
  5
1AA
330
1A6
100
AcDbEntity
  8
NOLAYERNAME_001
  6
CONTINUOUS
 62
     0
100
AcDbLine
 10
42.30296996523852
 20
38.61664205118663
 30
0.0
 11
27.80296996523852
 21
38.61664205118663
 31
0.0
  0
LINE
  5
1AB
330
1A6
100
AcDbEntity
  8
NOLAYERNAME_001
  6
CONTINUOUS
 62
     0
100
AcDbLine
 10
42.30296996523852
 20
38.61664205118663
 30
0.0
 11
45.64872102380818
 21
38.61664205118663
 31
0.0
  0
LINE
  5
1AC
330
1A6
100
AcDbEntity
  8
NOLAYERNAME_001
  6
CONTINUOUS
 62
     0
100
AcDbLine
 10
40.80296996523852
 20
38.61664205118663
 30
0.0
 11
39.30296996523852
 21
38.61664205118663
 31
0.0
  0
LINE
  5
1AD
330
1A6
100
AcDbEntity
  8
NOLAYERNAME_001
  6
CONTINUOUS
 62
     0
100
AcDbLine
 10
47.14872102380818
 20
38.61664205118663
 30
0.0
 11
48.64872102380818
 21
38.61664205118663
 31
0.0
  0
INSERT
  5
1AE
330
1A6
100
AcDbEntity
  8
NOLAYERNAME_001
 62
     0
100
AcDbBlockReference
  2
_OPEN30
 10
42.30296996523852
 20
38.61664205118663
 30
0.0
 41
1.5
 42
1.5
 43
1.5
  0
INSERT
  5
1AF
330
1A6
100
AcDbEntity
  8
NOLAYERNAME_001
 62
     0
100
AcDbBlockReference
  2
_OPEN30
 10
45.64872102380818
 20
38.61664205118663
 30
0.0
 41
1.5
 42
1.5
 43
1.5
 50
180.0
  0
MTEXT
  5
1B0
330
1A6
100
AcDbEntity
  8
NOLAYERNAME_001
 62
     0
100
AcDbMText
 10
32.80296996523852
 20
41.61664205118663
 30
0.0
 40
4.0
 41
0.0
 71
     5
 72
     1
  1
3.3
  0
POINT
  5
1B1
330
1A6
100
AcDbEntity
  8
DEFPOINTS
 62
     0
100
AcDbPoint
 10
42.30296996523852
 20
29.17081456705577
 30
0.0
  0
POINT
  5
1B2
330
1A6
100
AcDbEntity
  8
DEFPOINTS
 62
     0
100
AcDbPoint
 10
45.64872102380818
 20
55.45454451878173
 30
0.0
  0
POINT
  5
1B3
330
1A6
100
AcDbEntity
  8
DEFPOINTS
 62
     0
100
AcDbPoint
 10
45.64872102380818
 20
38.61664205118663
 30
0.0
  0
ENDBLK
  5
1A8
330
1A6
100
AcDbEntity
  8
0
100
AcDbBlockEnd
  0
BLOCK
  5
1B7
330
1B6
100
AcDbEntity
  8
0
100
AcDbBlockBegin
  2
*D16
 70
     1
 10
0.0
 20
0.0
 30
0.0
  3
*D16
  1

  0
LINE
  5
1B9
330
1B6
100
AcDbEntity
  8
NOLAYERNAME_001
  6
CONTINUOUS
 62
     0
100
AcDbLine
 10
45.81314961276946
 20
55.16973413214289
 30
0.0
 11
52.23183254755262
 21
44.05179180887444
 31
0.0
  0
ARC
  5
1BA
330
1B6
100
AcDbEntity
  8
NOLAYERNAME_001
  6
CONTINUOUS
 62
     0
100
AcDbCircle
 10
42.30296996523852
 20
61.2497937428266
 30
0.0
 40
17.10833786344414
100
AcDbArc
 50
275.0251065570585
 51
294.9738728233105
  0
INSERT
  5
1BB
330
1B6
100
AcDbEntity
  8
NOLAYERNAME_001
 62
     0
100
AcDbBlockReference
  2
_OPEN30
 10
42.30296996523852
 20
44.14145587938246
 30
0.0
 41
1.5
 42
1.5
 43
1.5
 50
182.5125532785292
  0
INSERT
  5
1BC
330
1B6
100
AcDbEntity
  8
NOLAYERNAME_001
 62
     0
100
AcDbBlockReference
  2
_OPEN30
 10
50.85687497108664
 20
46.43338616201664
 30
0.0
 41
1.5
 42
1.5
 43
1.5
 50
27.48642610183965
  0
MTEXT
  5
1BD
330
1B6
100
AcDbEntity
  8
NOLAYERNAME_001
 62
     0
100
AcDbMText
 10
35.1826727969645
 20
49.07003325648859
 30
0.0
 40
4.0
 41
0.0
 71
     5
 72
     1
  1
30%%d
 11
0.8633022971399602
 21
-0.5046871741513431
 31
0.0
  0
POINT
  5
1BE
330
1B6
100
AcDbEntity
  8
DEFPOINTS
 62
     0
100
AcDbPoint
 10
48.15417521635854
 20
45.17314541181488
 30
0.0
  0
POINT
  5
1BF
330
1B6
100
AcDbEntity
  8
DEFPOINTS
 62
     0
100
AcDbPoint
 10
42.30296996523852
 20
37.6992085835127
 30
0.0
  0
POINT
  5
1C0
330
1B6
100
AcDbEntity
  8
DEFPOINTS
 62
     0
100
AcDbPoint
 10
45.50065925448174
 20
55.71100557603884
 30
0.0
  0
POINT
  5
1C1
330
1B6
100
AcDbEntity
  8
DEFPOINTS
 62
     0
100
AcDbPoint
 10
45.45066079715571
 20
55.79760900706219
 30
0.0
  0
POINT
  5
1C2
330
1B6
100
AcDbEntity
  8
DEFPOINTS
 62
     0
100
AcDbPoint
 10
42.30296996523852
 20
37.59920858351271
 30
0.0
  0
ENDBLK
  5
1B8
330
1B6
100
AcDbEntity
  8
0
100
AcDbBlockEnd
  0
BLOCK
  5
1C6
330
1C5
100
AcDbEntity
  8
0
100
AcDbBlockBegin
  2
*D17
 70
     1
 10
0.0
 20
0.0
 30
0.0
  3
*D17
  1

  0
LINE
  5
1C8
330
1C5
100
AcDbEntity
  8
NOLAYERNAME_001
  6
CONTINUOUS
 62
     0
100
AcDbLine
 10
45.31985369918447
 20
55.45454451878173
 30
0.0
 11
18.62500748373987
 21
55.45454451878173
 31
0.0
  0
LINE
  5
1C9
330
1C5
100
AcDbEntity
  8
NOLAYERNAME_001
  6
CONTINUOUS
 62
     0
100
AcDbLine
 10
21.37500748373987
 20
67.75454451878176
 30
0.0
 11
21.37500748373987
 21
86.49263975687698
 31
0.0
  0
LINE
  5
1CA
330
1C5
100
AcDbEntity
  8
NOLAYERNAME_001
  6
CONTINUOUS
 62
     0
100
AcDbLine
 10
21.37500748373987
 20
67.75454451878176
 30
0.0
 11
21.37500748373987
 21
56.95454451878173
 31
0.0
  0
LINE
  5
1CB
330
1C5
100
AcDbEntity
  8
NOLAYERNAME_001
  6
CONTINUOUS
 62
     0
100
AcDbLine
 10
21.37500748373987
 20
66.25454451878176
 30
0.0
 11
21.37500748373987
 21
64.75454451878176
 31
0.0
  0
INSERT
  5
1CC
330
1C5
100
AcDbEntity
  8
NOLAYERNAME_001
 62
     0
100
AcDbBlockReference
  2
_OPEN30
 10
21.37500748373987
 20
55.45454451878173
 30
0.0
 41
1.5
 42
1.5
 43
1.5
 50
270.0
  0
MTEXT
  5
1CD
330
1C5
100
AcDbEntity
  8
NOLAYERNAME_001
 62
     0
100
AcDbMText
 10
18.37500748373987
 20
78.15930642354365
 30
0.0
 40
4.0
 41
0.0
 71
     5
 72
     1
  1
%%c12.3
 11
0.0
 21
1.0
 31
0.0
  0
POINT
  5
1CE
330
1C5
100
AcDbEntity
  8
DEFPOINTS
 62
     0
100
AcDbPoint
 10
45.94485369918447
 20
67.75454451878176
 30
0.0
  0
POINT
  5
1CF
330
1C5
100
AcDbEntity
  8
DEFPOINTS
 62
     0
100
AcDbPoint
 10
45.94485369918447
 20
55.45454451878173
 30
0.0
  0
POINT
  5
230
330
1C5
100
AcDbEntity
  8
DEFPOINTS
 62
     0
100
AcDbPoint
 10
21.37500748373987
 20
55.45454451878173
 30
0.0
  0
ENDBLK
  5
1C7
330
1C5
100
AcDbEntity
  8
0
100
AcDbBlockEnd
  0
BLOCK
  5
1D3
330
1D2
100
AcDbEntity
  8
0
100
AcDbBlockBegin
  2
*D18
 70
     1
 10
0.0
 20
0.0
 30
0.0
  3
*D18
  1

  0
LINE
  5
1D5
330
1D2
100
AcDbEntity
  8
NOLAYERNAME_001
  6
CONTINUOUS
 62
     0
100
AcDbLine
 10
41.67796996523852
 20
61.24979374282731
 30
0.0
 11
30.38883766867639
 21
61.24979374282731
 31
0.0
  0
LINE
  5
1D6
330
1D2
100
AcDbEntity
  8
NOLAYERNAME_001
  6
CONTINUOUS
 62
     0
100
AcDbLine
 10
33.13883766867639
 20
61.24979374282731
 30
0.0
 11
33.13883766867639
 21
78.62596196140285
 31
0.0
  0
LINE
  5
1D7
330
1D2
100
AcDbEntity
  8
NOLAYERNAME_001
  6
CONTINUOUS
 62
     0
100
AcDbLine
 10
33.13883766867639
 20
61.24979374282731
 30
0.0
 11
33.13883766867639
 21
61.95929529473618
 31
0.0
  0
LINE
  5
1D8
330
1D2
100
AcDbEntity
  8
NOLAYERNAME_001
  6
CONTINUOUS
 62
     0
100
AcDbLine
 10
33.13883766867639
 20
59.74979374282731
 30
0.0
 11
33.13883766867639
 21
58.24979374282731
 31
0.0
  0
INSERT
  5
1D9
330
1D2
100
AcDbEntity
  8
NOLAYERNAME_001
 62
     0
100
AcDbBlockReference
  2
_OPEN30
 10
33.13883766867639
 20
61.24979374282731
 30
0.0
 41
1.5
 42
1.5
 43
1.5
 50
90.0
  0
MTEXT
  5
1DA
330
1D2
100
AcDbEntity
  8
NOLAYERNAME_001
 62
     0
100
AcDbMText
 10
30.13883766867639
 20
71.95929529473618
 30
0.0
 40
4.0
 41
0.0
 71
     5
 72
     1
  1
%%c0.7
 11
0.0
 21
1.0
 31
0.0
  0
POINT
  5
1DB
330
1D2
100
AcDbEntity
  8
DEFPOINTS
 62
     0
100
AcDbPoint
 10
42.30296996523852
 20
61.24979374282731
 30
0.0
  0
POINT
  5
1DC
330
1D2
100
AcDbEntity
  8
DEFPOINTS
 62
     0
100
AcDbPoint
 10
42.30296996523853
 20
61.95929529473618
 30
0.0
  0
POINT
  5
1DD
330
1D2
100
AcDbEntity
  8
DEFPOINTS
 62
     0
100
AcDbPoint
 10
33.13883766867639
 20
61.95929529473618
 30
0.0
  0
ENDBLK
  5
1D4
330
1D2
100
AcDbEntity
  8
0
100
AcDbBlockEnd
  0
ENDSEC
  0
SECTION
  2
ENTITIES
  0
LINE
  5
C7
330
1F
100
AcDbEntity
  8
NOLAYERNAME_001
  6
CONTINUOUS
 62
     7
100
AcDbLine
 10
49.35959165255274
 20
61.21101792940735
 30
0.0
 11
46.39615236193811
 21
55.7237247759351
 31
0.0
  0
LINE
  5
C8
330
1F
100
AcDbEntity
  8
NOLAYERNAME_001
  6
CONTINUOUS
 62
     7
100
AcDbLine
 10
42.89574158786289
 20
62.01291549592329
 30
0.0
 11
48.84446250481733
 21
62.10328449121582
 31
0.0
  0
LINE
  5
C9
330
1F
100
AcDbEntity
  8
NOLAYERNAME_001
  6
CONTINUOUS
 62
     7
100
AcDbLine
 10
48.99739273088842
 20
60.29933143980254
 30
0.0
 11
48.99876299076925
 21
60.30289045863302
 31
0.0
  0
LINE
  5
CA
330
1F
100
AcDbEntity
  8
NOLAYERNAME_001
  6
CONTINUOUS
 62
     7
100
AcDbLine
 10
52.99503526706724
 20
66.42826979042022
 30
0.0
 11
52.99503526706724
 21
56.78081924714331
 31
0.0
  0
LINE
  5
CB
330
1F
100
AcDbEntity
  8
NOLAYERNAME_001
  6
CONTINUOUS
 62
     7
100
AcDbLine
 10
46.01652587952893
 20
67.10454451878174
 30
0.0
 11
46.01652587952893
 21
67.0437633532293
 31
0.0
  0
LINE
  5
CC
330
1F
100
AcDbEntity
  8
NOLAYERNAME_001
  6
CONTINUOUS
 62
     7
100
AcDbLine
 10
57.00297961433768
 20
67.10454451878174
 30
0.0
 11
46.01652587952893
 21
67.10454451878174
 31
0.0
  0
LINE
  5
CD
330
1F
100
AcDbEntity
  8
NOLAYERNAME_001
  6
CONTINUOUS
 62
     7
100
AcDbLine
 10
46.75091354190923
 20
56.10454451878174
 30
0.0
 11
57.00297961433768
 21
56.10454451878174
 31
0.0
  0
ARC
  5
CE
330
1F
100
AcDbEntity
  8
NOLAYERNAME_001
  6
CONTINUOUS
 62
     7
100
AcDbCircle
 10
57.00297961433768
 20
66.80454451878175
 30
0.0
 40
0.3000000000000007
100
AcDbArc
 50
0.0
 51
90.0
  0
ARC
  5
CF
330
1F
100
AcDbEntity
  8
NOLAYERNAME_001
  6
CONTINUOUS
 62
     7
100
AcDbCircle
 10
57.00297961433768
 20
56.40454451878175
 30
0.0
 40
0.3000000000000007
100
AcDbArc
 50
270.0
 51
0.0
  0
LINE
  5
D0
330
1F
100
AcDbEntity
  8
NOLAYERNAME_001
  6
CONTINUOUS
 62
     7
100
AcDbLine
 10
57.30297961433769
 20
66.80454451878175
 30
0.0
 11
57.30297961433769
 21
56.40454451878175
 31
0.0
  0
ARC
  5
D1
330
1F
100
AcDbEntity
  8
NOLAYERNAME_001
  6
CONTINUOUS
 62
     7
100
AcDbCircle
 10
195.3029796143377
 20
64.60454451878175
 30
0.0
 40
2.0
100
AcDbArc
 50
0.0
 51
90.0
  0
ARC
  5
D2
330
1F
100
AcDbEntity
  8
NOLAYERNAME_001
  6
CONTINUOUS
 62
     7
100
AcDbCircle
 10
195.3029796143377
 20
58.60454451878174
 30
0.0
 40
2.0
100
AcDbArc
 50
270.0
 51
0.0
  0
LINE
  5
D3
330
1F
100
AcDbEntity
  8
NOLAYERNAME_001
  6
CONTINUOUS
 62
     7
100
AcDbLine
 10
197.3029796143377
 20
64.60454451878175
 30
0.0
 11
197.3029796143377
 21
58.60454451878174
 31
0.0
  0
LINE
  5
D4
330
1F
100
AcDbEntity
  8
NOLAYERNAME_001
  6
CONTINUOUS
 62
     7
100
AcDbLine
 10
48.87034819667868
 20
60.29138895906497
 30
0.0
 11
46.6842312557464
 21
56.19441635185683
 31
0.0
  0
LINE
  5
D5
330
1F
100
AcDbEntity
  8
NOLAYERNAME_001
  6
CONTINUOUS
 62
     7
100
AcDbLine
 10
46.01652587952893
 20
67.0437633532293
 30
0.0
 11
43.30297961433769
 21
62.39761787903396
 31
0.0
  0
LINE
  5
D6
330
1F
100
AcDbEntity
  8
NOLAYERNAME_001
  6
CONTINUOUS
 62
     7
100
AcDbLine
 10
43.30297961433769
 20
62.40454451878175
 30
0.0
 11
43.30297961433769
 21
62.39761787903397
 31
0.0
  0
LINE
  5
D7
330
1F
100
AcDbEntity
  8
NOLAYERNAME_001
  6
CONTINUOUS
 62
     7
100
AcDbLine
 10
46.01652587952893
 20
67.10454451878174
 30
0.0
 11
43.30297961433769
 21
62.40454451878173
 31
0.0
  0
ARC
  5
D8
330
1F
100
AcDbEntity
  8
NOLAYERNAME_001
  6
CONTINUOUS
 62
     7
100
AcDbCircle
 10
45.89714028144603
 20
60.37720504449727
 30
0.0
 40
0.175
100
AcDbArc
 50
14.36566196627713
 51
165.0595391468052
  0
ARC
  5
D9
330
1F
100
AcDbEntity
  8
NOLAYERNAME_001
  6
CONTINUOUS
 62
     7
100
AcDbCircle
 10
45.4217682733388
 20
60.50405128605779
 30
0.0
 40
0.3170045884846417
100
AcDbArc
 50
254.3656619662772
 51
345.0595391468051
  0
ARC
  5
DA
330
1F
100
AcDbEntity
  8
NOLAYERNAME_001
  6
CONTINUOUS
 62
     7
100
AcDbCircle
 10
45.28917450934795
 20
60.03025026364367
 30
0.0
 40
0.175
100
AcDbArc
 50
74.3656619662758
 51
225.0595391468045
  0
ARC
  5
DB
330
1F
100
AcDbEntity
  8
NOLAYERNAME_001
  6
CONTINUOUS
 62
     7
100
AcDbCircle
 10
44.94163643772831
 20
59.68198914915508
 30
0.0
 40
0.3170045884846417
100
AcDbArc
 50
314.3656619662773
 51
45.05953914680543
  0
ARC
  5
DC
330
1F
100
AcDbEntity
  8
NOLAYERNAME_001
  6
CONTINUOUS
 62
     7
100
AcDbCircle
 10
45.28566327748257
 20
59.3302590699485
 30
0.0
 40
0.175
100
AcDbArc
 50
134.3656619662775
 51
285.0595391468053
  0
ARC
  5
DD
330
1F
100
AcDbEntity
  8
NOLAYERNAME_001
  6
CONTINUOUS
 62
     7
100
AcDbCircle
 10
45.41349721397017
 20
58.85515171389934
 30
0.0
 40
0.3170045884846417
100
AcDbArc
 50
14.36566196627781
 51
105.0595391468054
  0
ARC
  5
DE
330
1F
100
AcDbEntity
  8
NOLAYERNAME_001
  6
CONTINUOUS
 62
     7
100
AcDbCircle
 10
45.89011781771528
 20
58.97722265710693
 30
0.0
 40
0.175
100
AcDbArc
 50
194.3656619662771
 51
345.0595391468052
  0
ARC
  5
DF
330
1F
100
AcDbEntity
  8
NOLAYERNAME_001
  6
CONTINUOUS
 62
     7
100
AcDbCircle
 10
46.36548982582251
 20
58.85037641554638
 30
0.0
 40
0.3170045884846417
100
AcDbArc
 50
74.36566196627714
 51
165.0595391468052
  0
ARC
  5
E0
330
1F
100
AcDbEntity
  8
NOLAYERNAME_001
  6
CONTINUOUS
 62
     7
100
AcDbCircle
 10
46.49808358981335
 20
59.32417743796051
 30
0.0
 40
0.175
100
AcDbArc
 50
254.3656619662758
 51
45.05953914680449
  0
ARC
  5
E1
330
1F
100
AcDbEntity
  8
NOLAYERNAME_001
  6
CONTINUOUS
 62
     7
100
AcDbCircle
 10
46.845621661433
 20
59.67243855244914
 30
0.0
 40
0.3170045884846417
100
AcDbArc
 50
134.3656619662774
 51
225.0595391468054
  0
ARC
  5
E2
330
1F
100
AcDbEntity
  8
NOLAYERNAME_001
  6
CONTINUOUS
 62
     7
100
AcDbCircle
 10
46.50159482167875
 20
60.02416863165567
 30
0.0
 40
0.175
100
AcDbArc
 50
314.3656619662775
 51
105.0595391468053
  0
ARC
  5
E3
330
1F
100
AcDbEntity
  8
NOLAYERNAME_001
  6
CONTINUOUS
 62
     7
100
AcDbCircle
 10
46.37376088519115
 20
60.49927598770483
 30
0.0
 40
0.3170045884846417
100
AcDbArc
 50
194.3656619662778
 51
285.0595391468054
  0
CIRCLE
  5
E4
330
1F
100
AcDbEntity
  8
NOLAYERNAME_001
  6
CONTINUOUS
 62
     7
100
AcDbCircle
 10
45.89362904958066
 20
59.67721385080212
 30
0.0
 40
1.15
  0
LINE
  5
E5
330
1F
100
AcDbEntity
  8
NOLAYERNAME_001
  6
CONTINUOUS
 62
     7
100
AcDbLine
 10
59.30297961433769
 20
56.60454451878174
 30
0.0
 11
59.30297961433769
 21
66.60454451878174
 31
0.0
  0
LINE
  5
E6
330
1F
100
AcDbEntity
  8
NOLAYERNAME_001
  6
CONTINUOUS
 62
     7
100
AcDbLine
 10
59.30297961433769
 20
66.10454451878174
 30
0.0
 11
57.30297961433769
 21
66.10454451878174
 31
0.0
  0
LINE
  5
E7
330
1F
100
AcDbEntity
  8
NOLAYERNAME_001
  6
CONTINUOUS
 62
     7
100
AcDbLine
 10
57.30297961433769
 20
57.10454451878174
 30
0.0
 11
59.30297961433769
 21
57.10454451878174
 31
0.0
  0
LINE
  5
E8
330
1F
100
AcDbEntity
  8
NOLAYERNAME_001
  6
CONTINUOUS
 62
     7
100
AcDbLine
 10
197.3029796143377
 20
61.60454451878174
 30
0.0
 11
199.0350304219065
 21
62.60454451878174
 31
0.0
  0
LINE
  5
E9
330
1F
100
AcDbEntity
  8
NOLAYERNAME_001
  6
CONTINUOUS
 62
     7
100
AcDbLine
 10
197.3029796143377
 20
61.60454451878174
 30
0.0
 11
199.0350304219065
 21
60.60454451878174
 31
0.0
  0
ELLIPSE
  5
EA
330
1F
100
AcDbEntity
  8
NOLAYERNAME_001
  6
CONTINUOUS
 62
     7
100
AcDbEllipse
 10
45.94314523977934
 20
56.12079888764862
 30
0.0
 11
0.003009627313183218
 21
0.5999924517387143
 31
0.0
210
0.0
220
0.0
230
1.0
 40
0.9674004875279184
 41
4.1151128669572
 42
4.208337892408727
  0
ELLIPSE
  5
EB
330
1F
100
AcDbEntity
  8
NOLAYERNAME_001
  6
CONTINUOUS
 62
     7
100
AcDbEllipse
 10
45.89362904958066
 20
59.67721385080212
 30
0.0
 11
0.007524068282954487
 21
1.499981129346793
 31
0.0
210
0.0
220
0.0
230
1.0
 40
0.9674004875279185
 41
0.0
 42
3.141592653589793
  0
ELLIPSE
  5
EC
330
1F
100
AcDbEntity
  8
NOLAYERNAME_001
  6
CONTINUOUS
 62
     7
100
AcDbEllipse
 10
45.89362904958066
 20
59.67721385080212
 30
0.0
 11
0.007524068282954487
 21
1.499981129346793
 31
0.0
210
0.0
220
0.0
230
1.0
 40
0.9674004875279185
 41
3.141592653589793
 42
6.283185307179586
  0
ELLIPSE
  5
ED
330
1F
100
AcDbEntity
  8
NOLAYERNAME_001
  6
CONTINUOUS
 62
     7
100
AcDbEllipse
 10
51.44915159704064
 20
61.60454451878174
 30
0.0
 11
0.0
 21
5.5
 31
0.0
210
0.0
220
0.0
230
1.0
 40
0.5850554250450006
 41
3.642721180647957
 42
5.782056780121437
  0
ELLIPSE
  5
EE
330
1F
100
AcDbEntity
  8
NOLAYERNAME_001
  6
CONTINUOUS
 62
     7
100
AcDbEllipse
 10
49.77576279646718
 20
61.60454451878174
 30
0.0
 11
3.053239477034481
 21
5.493160874742324
 31
0.0
210
0.0
220
0.0
230
1.0
 40
0.0898050381516856
 41
3.010442176377825
 42
3.191467198420558
  0
ELLIPSE
  5
EF
330
1F
100
AcDbEntity
  8
NOLAYERNAME_001
  6
CONTINUOUS
 62
     7
100
AcDbEllipse
 10
42.90171251737027
 20
61.60454451878174
 30
0.0
 11
-21.00956456339489
 21
0.0
 31
0.0
210
0.0
220
0.0
230
1.0
 40
0.2617855302714217
 41
1.75182134883763
 42
2.071924853853063
  0
ELLIPSE
  5
F0
330
1F
100
AcDbEntity
  8
NOLAYERNAME_001
  6
CONTINUOUS
 62
     7
100
AcDbEllipse
 10
42.90171251737027
 20
61.60454451878174
 30
0.0
 11
-21.00956456339489
 21
0.0
 31
0.0
210
0.0
220
0.0
230
1.0
 40
0.2617855302714217
 41
4.211260453326526
 42
4.563583498271156
  0
ELLIPSE
  5
F1
330
1F
100
AcDbEntity
  8
NOLAYERNAME_001
  6
CONTINUOUS
 62
     7
100
AcDbEllipse
 10
48.90137009266941
 20
61.54097756735653
 30
0.0
 11
0.0
 21
1.25
 31
0.0
210
0.0
220
0.0
230
1.0
 40
0.9674004875279186
 41
3.11593602010301
 42
3.141592653589793
  0
ELLIPSE
  5
F2
330
1F
100
AcDbEntity
  8
NOLAYERNAME_001
  6
CONTINUOUS
 62
     7
100
AcDbEllipse
 10
48.90137009266941
 20
61.54097756735653
 30
0.0
 11
0.0
 21
1.25
 31
0.0
210
0.0
220
0.0
230
1.0
 40
0.9674004875279186
 41
3.141592653589793
 42
6.283185307179586
  0
ELLIPSE
  5
F3
330
1F
100
AcDbEntity
  8
NOLAYERNAME_001
  6
CONTINUOUS
 62
     7
100
AcDbEllipse
 10
50.08826032616469
 20
61.54097756735653
 30
0.0
 11
-1.579950489467848
 21
-1.121807825894592
 31
0.0
210
0.0
220
0.0
230
1.0
 40
0.3490012863024541
 41
0.4825071446751955
 42
0.712226563162147
  0
ELLIPSE
  5
F4
330
1F
100
AcDbEntity
  8
NOLAYERNAME_001
  6
CONTINUOUS
 62
     7
100
AcDbEllipse
 10
49.4537115042739
 20
61.54097756735653
 30
0.0
 11
0.0
 21
1.25
 31
0.0
210
0.0
220
0.0
230
1.0
 40
0.9674004875279186
 41
2.886216601616272
 42
2.911177529137717
  0
ARC
  5
F5
330
1F
100
AcDbEntity
  8
NOLAYERNAME_001
  6
CONTINUOUS
 62
     7
100
AcDbCircle
 10
45.94485369918447
 20
55.96745080835232
 30
0.0
 40
0.5129062895705978
100
AcDbArc
 50
209.9989793803655
 51
331.6285205208879
  0
ARC
  5
F6
330
1F
100
AcDbEntity
  8
NOLAYERNAME_001
  6
CONTINUOUS
 62
     7
100
AcDbCircle
 10
42.90488441528258
 20
61.41107048773711
 30
0.0
 40
0.6019144500440565
100
AcDbArc
 50
90.8703322704938
 51
209.9989793803654
  0
LINE
  5
F7
330
1F
100
AcDbEntity
  8
NOLAYERNAME_001
  6
CONTINUOUS
 62
     7
100
AcDbLine
 10
43.30297961433769
 20
62.39761787903397
 30
0.0
 11
43.30297961433769
 21
62.0191019840459
 31
0.0
  0
LINE
  5
F8
330
1F
100
AcDbEntity
  8
NOLAYERNAME_001
  6
CONTINUOUS
 62
     7
100
AcDbLine
 10
42.38360584971907
 20
61.11012254829261
 30
0.0
 11
42.30296996523853
 21
61.24979374282729
 31
0.0
  0
LINE
  5
F9
330
1F
100
AcDbEntity
  8
NOLAYERNAME_001
  6
CONTINUOUS
 62
     7
100
AcDbLine
 10
42.38360584971906
 20
61.11012254829261
 30
0.0
 11
45.50065925448174
 21
55.71100557603884
 31
0.0
  0
ELLIPSE
  5
FA
330
1F
100
AcDbEntity
  8
NOLAYERNAME_001
  6
CONTINUOUS
 62
     7
100
AcDbEllipse
 10
49.4537115042739
 20
61.54097756735653
 30
0.0
 11
0.0
 21
1.25
 31
0.0
210
0.0
220
0.0
230
1.0
 40
0.9674004875279186
 41
0.2304151244520308
 42
1.110646582958977
  0
ELLIPSE
  5
FB
330
1F
100
AcDbEntity
  8
NOLAYERNAME_001
  6
CONTINUOUS
 62
     7
100
AcDbEllipse
 10
48.90137009266941
 20
61.54097756735653
 30
0.0
 11
0.0
 21
1.25
 31
0.0
210
0.0
220
0.0
230
1.0
 40
0.9674004875279186
 41
0.0
 42
1.118178945902627
  0
SPLINE
  5
FC
330
1F
100
AcDbEntity
  8
NOLAYERNAME_001
  6
CONTINUOUS
 62
     7
100
AcDbSpline
210
0.0
220
0.0
230
1.0
 70
  1080
 71
     3
 72
     9
 73
     5
 74
     3
 42
0.000000001
 43
0.0000000001
 44
0.0
 12
0.3639768951150193
 22
0.9314079771090811
 32
0.0
 13
0.3639768951150948
 23
0.9314079771090514
 33
0.0
 40
0.0
 40
0.0
 40
0.0
 40
0.0
 40
0.070238160699995
 40
1.00862819397888
 40
1.00862819397888
 40
1.00862819397888
 40
1.00862819397888
 10
49.01022323267572
 20
60.30443864986849
 30
0.0
 10
49.01874492189245
 20
60.32624544425963
 30
0.0
 10
49.14111737468239
 20
60.63939355952937
 30
0.0
 10
49.26348982747242
 20
60.95254167479899
 30
0.0
 10
49.37734059104569
 20
61.24388299567752
 30
0.0
 11
49.01022323267572
 21
60.30443864986849
 31
0.0
 11
49.03578830032589
 21
60.36985903304193
 31
0.0
 11
49.37734059104569
 21
61.24388299567752
 31
0.0
  0
ELLIPSE
  5
FD
330
1F
100
AcDbEntity
  8
NOLAYERNAME_001
  6
CONTINUOUS
 62
     7
100
AcDbEllipse
 10
48.85279885270593
 20
61.50334975825233
 30
0.0
 11
0.003009627313183218
 21
0.5999924517387143
 31
0.0
210
0.0
220
0.0
230
1.0
 40
0.9674004875279184
 41
4.208337892408712
 42
6.302732994802346
  0
LINE
  5
FE
330
1F
100
AcDbEntity
  8
NOLAYERNAME_001
  6
CONTINUOUS
 62
     7
100
AcDbLine
 10
46.42083164715125
 20
55.774956055144
 30
0.0
 11
46.68719099676885
 21
56.17296680839497
 31
0.0
  0
DIMENSION
  5
FF
330
1F
100
AcDbEntity
  8
NOLAYERNAME_001
  6
CONTINUOUS
 62
     7
100
AcDbDimension
  2
*D3
 10
209.925201270361
 20
66.60454451878175
 30
0.0
 11
209.925201270361
 21
47.10454443135895
 31
0.0
 70
   160
  3
STANDARD
100
AcDbAlignedDimension
 13
195.3029796143377
 23
56.60454451878175
 33
0.0
 14
195.3029796143377
 24
66.60454451878175
 34
0.0
 50
90.0
100
AcDbRotatedDimension
1001
ACAD
1000
DSTYLE
1002
{
1070
     5
1000
OPEN30
1070
   347
1005
16
1070
   372
1070
    25
1070
   346
1005
16
1070
   371
1070
    25
1070
   345
1005
16
1070
   178
1070
     0
1070
   177
1070
     0
1070
   176
1070
     0
1070
     3
1000
%%c<>
1070
    47
1040
0.0
1070
    48
1040
0.0
1070
    78
1070
     8
1070
   271
1070
     1
1070
    41
1040
1.5
1070
    44
1040
2.75
1070
   147
1040
1.0
1070
   140
1040
4.0
1002
}
  0
DIMENSION
  5
10E
330
1F
100
AcDbEntity
  8
NOLAYERNAME_001
  6
CONTINUOUS
 62
     7
100
AcDbDimension
  2
*D4
 10
57.30297961433769
 20
37.6992085835127
 30
0.0
 11
49.8029747897881
 21
37.6992085835127
 31
0.0
 70
   160
  3
STANDARD
100
AcDbAlignedDimension
 13
42.30296996523852
 23
61.41107048773711
 33
0.0
 14
57.30297961433769
 24
56.40454451878175
 34
0.0
100
AcDbRotatedDimension
1001
ACAD
1000
DSTYLE
1002
{
1070
     5
1000
OPEN30
1070
   347
1005
16
1070
   372
1070
    25
1070
   346
1005
16
1070
   371
1070
    25
1070
   345
1005
16
1070
   178
1070
     0
1070
   177
1070
     0
1070
   176
1070
     0
1070
    47
1040
0.0
1070
    48
1040
0.0
1070
    78
1070
     8
1070
   271
1070
     1
1070
    41
1040
1.5
1070
    44
1040
2.75
1070
   147
1040
1.0
1070
   140
1040
4.0
1002
}
  0
LINE
  5
11C
330
1F
100
AcDbEntity
  8
NOLAYERNAME_001
  6
CONTINUOUS
 62
     7
100
AcDbLine
 10
59.30297961433769
 20
66.60454451878174
 30
0.0
 11
197.3029796143377
 21
66.60454451878174
 31
0.0
  0
LINE
  5
11D
330
1F
100
AcDbEntity
  8
NOLAYERNAME_001
  6
CONTINUOUS
 62
     7
100
AcDbLine
 10
59.30297961433769
 20
56.60454451878174
 30
0.0
 11
197.3029796143377
 21
56.60454451878174
 31
0.0
  0
LINE
  5
11E
330
1F
100
AcDbEntity
  8
NOLAYERNAME_001
  6
CENTER
 62
     7
100
AcDbLine
 10
41.91094303162824
 20
61.60454451878174
 30
0.0
 11
200.8805082771969
 21
61.60454451878174
 31
0.0
  0
DIMENSION
  5
11F
330
1F
100
AcDbEntity
  8
NOLAYERNAME_001
  6
CONTINUOUS
 62
     7
100
AcDbDimension
  2
*D5
 10
197.3029796143377
 20
29.08340963331739
 30
0.0
 11
119.8029747897881
 21
29.08340963331739
 31
0.0
 70
   160
  3
STANDARD
100
AcDbAlignedDimension
 13
42.30296996523852
 23
37.6992085835127
 33
0.0
 14
197.3029796143377
 24
58.60454451878174
 34
0.0
100
AcDbRotatedDimension
1001
ACAD
1000
DSTYLE
1002
{
1070
     5
1000
OPEN30
1070
   347
1005
16
1070
   372
1070
    25
1070
   346
1005
16
1070
   371
1070
    25
1070
   345
1005
16
1070
   178
1070
     0
1070
   177
1070
     0
1070
   176
1070
     0
1070
    47
1040
0.0
1070
    48
1040
0.0
1070
    78
1070
     8
1070
   271
1070
     1
1070
    41
1040
1.5
1070
    44
1040
2.75
1070
   147
1040
1.0
1070
   140
1040
4.0
1002
}
  0
DIMENSION
  5
12D
330
1F
100
AcDbEntity
  8
NOLAYERNAME_001
  6
CONTINUOUS
 62
     7
100
AcDbDimension
  2
*D6
 10
197.3029796143377
 20
37.6992085835127
 30
0.0
 11
127.3029796143377
 21
37.6992085835127
 31
0.0
 70
   160
  3
STANDARD
100
AcDbAlignedDimension
 13
57.30297961433769
 23
56.40454451878175
 33
0.0
 14
197.3029796143377
 24
58.60454451878174
 34
0.0
100
AcDbRotatedDimension
1001
ACAD
1000
DSTYLE
1002
{
1070
     5
1000
OPEN30
1070
   347
1005
16
1070
   372
1070
    25
1070
   346
1005
16
1070
   371
1070
    25
1070
   345
1005
16
1070
   178
1070
     0
1070
   177
1070
     0
1070
   176
1070
     0
1070
    47
1040
0.0
1070
    48
1040
0.0
1070
    78
1070
     8
1070
   271
1070
     1
1070
    41
1040
1.5
1070
    44
1040
2.75
1070
   147
1040
1.0
1070
   140
1040
4.0
1002
}
  0
MTEXT
  5
1A3
330
1F
100
AcDbEntity
  8
NOLAYERNAME_001
 62
     7
100
AcDbMText
 10
116.5096434090328
 20
88.48367600962169
 30
0.0
 40
5.0
 41
89.25
 71
     5
 72
     5
  1
\A1;\W0.912871;\T0.912871;チビエコ　ＥＭＳ１０３０ＴＬ
1001
ACAD
1000
MTEXTBEGIN
1070
    44
1040
0.6
1000
MTEXTEND
1000
ACAD_MTEXT_DEFINED_HEIGHT_BEGIN
1070
    46
1040
5.0
1000
ACAD_MTEXT_DEFINED_HEIGHT_END
  0
DIMENSION
  5
1A4
330
1F
100
AcDbEntity
  8
NOLAYERNAME_001
  6
CONTINUOUS
 62
     7
100
AcDbDimension
  2
*D15
 10
45.64872102380818
 20
38.61664205118663
 30
0.0
 11
32.80296996523852
 21
38.61664205118663
 31
0.0
 70
   160
  3
STANDARD
100
AcDbAlignedDimension
 13
42.30296996523852
 23
29.17081456705577
 33
0.0
 14
45.64872102380818
 24
55.45454451878173
 34
0.0
100
AcDbRotatedDimension
1001
ACAD
1000
DSTYLE
1002
{
1070
     5
1000
OPEN30
1070
   347
1005
16
1070
   372
1070
    25
1070
   346
1005
16
1070
   371
1070
    25
1070
   345
1005
16
1070
   178
1070
     0
1070
   177
1070
     0
1070
   176
1070
     0
1070
    47
1040
0.0
1070
    48
1040
0.0
1070
    78
1070
     8
1070
   271
1070
     1
1070
    41
1040
1.5
1070
    75
1070
     1
1070
    44
1040
2.75
1070
   147
1040
1.0
1070
   140
1040
4.0
1002
}
  0
DIMENSION
  5
1B4
330
1F
100
AcDbEntity
  8
NOLAYERNAME_001
  6
CONTINUOUS
 62
     7
100
AcDbDimension
  2
*D16
 10
42.30296996523852
 20
37.59920858351271
 30
0.0
 11
33.66861127451047
 21
46.48012636506871
 31
0.0
 70
   162
  3
STANDARD
100
AcDb2LineAngularDimension
 13
45.50065925448174
 23
55.71100557603884
 33
0.0
 14
45.45066079715571
 24
55.79760900706219
 34
0.0
 15
42.30296996523852
 25
37.6992085835127
 35
0.0
 16
48.15417521635854
 26
45.17314541181488
 36
0.0
1001
ACAD
1000
DSTYLE
1002
{
1070
     5
1000
OPEN30
1070
   347
1005
16
1070
   372
1070
    25
1070
   346
1005
16
1070
   371
1070
    25
1070
   345
1005
16
1070
   178
1070
     0
1070
   177
1070
     0
1070
   176
1070
     0
1070
    47
1040
0.0
1070
    48
1040
0.0
1070
    79
1070
     2
1070
   179
1070
     1
1070
    41
1040
1.5
1070
    75
1070
     1
1070
    44
1040
2.750000000000003
1070
   147
1040
1.0
1070
   140
1040
4.0
1002
}
  0
DIMENSION
  5
1C3
330
1F
100
AcDbEntity
  8
NOLAYERNAME_001
  6
CONTINUOUS
 62
     7
100
AcDbDimension
  2
*D17
 10
21.37500748373987
 20
55.45454451878173
 30
0.0
 11
21.37500748373987
 21
78.15930642354365
 31
0.0
 70
   160
  3
STANDARD
100
AcDbAlignedDimension
 13
45.94485369918447
 23
67.75454451878176
 33
0.0
 14
45.94485369918447
 24
55.45454451878173
 34
0.0
 50
-90.0
100
AcDbRotatedDimension
1001
ACAD
1000
DSTYLE
1002
{
1070
     7
1000
OPEN30
1070
     6
1000
NONE
1070
   347
1005
16
1070
   372
1070
    25
1070
   346
1005
16
1070
   371
1070
    25
1070
   345
1005
16
1070
   178
1070
     0
1070
   177
1070
     0
1070
   176
1070
     0
1070
     3
1000
%%c<>
1070
    47
1040
0.0
1070
    48
1040
0.0
1070
    78
1070
     8
1070
    41
1040
1.5
1070
   173
1070
     1
1070
    75
1070
     1
1070
    44
1040
2.75
1070
   147
1040
1.0
1070
   140
1040
4.0
1002
}
  0
DIMENSION
  5
1D0
330
1F
100
AcDbEntity
  8
NOLAYERNAME_001
  6
CONTINUOUS
 62
     7
100
AcDbDimension
  2
*D18
 10
33.13883766867639
 20
61.95929529473618
 30
0.0
 11
33.13883766867639
 21
71.95929529473618
 31
0.0
 70
   160
  3
STANDARD
100
AcDbAlignedDimension
 13
42.30296996523852
 23
61.24979374282731
 33
0.0
 14
42.30296996523853
 24
61.95929529473618
 34
0.0
 50
90.0
100
AcDbRotatedDimension
1001
ACAD
1000
DSTYLE
1002
{
1070
     7
1000
NONE
1070
     6
1000
OPEN30
1070
   347
1005
16
1070
   372
1070
    25
1070
   346
1005
16
1070
   371
1070
    25
1070
   345
1005
16
1070
   178
1070
     0
1070
   177
1070
     0
1070
   176
1070
     0
1070
     3
1000
%%c<>
1070
    47
1040
0.0
1070
    48
1040
0.0
1070
    78
1070
     8
1070
   271
1070
     1
1070
    41
1040
1.5
1070
   173
1070
     1
1070
    76
1070
     1
1070
    44
1040
2.75
1070
   147
1040
1.0
1070
   140
1040
4.0
1002
}
  0
ENDSEC
  0
SECTION
  2
OBJECTS
  0
DICTIONARY
  5
C
330
0
100
AcDbDictionary
  3
ACAD_DETAILVIEWSTYLE
350
22E
  3
ACAD_GROUP
350
D
  3
ACAD_IMAGE_VARS
350
22C
  3
ACAD_MLINESTYLE
350
17
  3
ACAD_SCALELIST
350
47
  3
ACAD_SECTIONVIEWSTYLE
350
22F
  3
ACDBVARIABLEDICTIONARY
350
1DE
  3
APPDATA
350
22A
  3
DWGPROPS
350
231
  0
DICTIONARY
  5
22E
102
{ACAD_REACTORS
330
C
102
}
330
C
100
AcDbDictionary
  0
DICTIONARY
  5
D
102
{ACAD_REACTORS
330
C
102
}
330
C
100
AcDbDictionary
  0
RASTERVARIABLES
  5
22C
102
{ACAD_REACTORS
330
C
102
}
330
C
100
AcDbRasterVariables
 90
        0
 70
     1
 71
     1
 72
     1
  0
DICTIONARY
  5
17
102
{ACAD_REACTORS
330
C
102
}
330
C
100
AcDbDictionary
  3
STANDARD
350
18
  0
DICTIONARY
  5
47
102
{ACAD_REACTORS
330
C
102
}
330
C
100
AcDbDictionary
  0
DICTIONARY
  5
22F
102
{ACAD_REACTORS
330
C
102
}
330
C
100
AcDbDictionary
  0
DICTIONARY
  5
1DE
102
{ACAD_REACTORS
330
C
102
}
330
C
100
AcDbDictionary
  3
CENTEREXE
350
1E5
  3
CENTERLTYPEFILE
350
1E6
  3
DIMASSOC
350
1E7
  3
HIDETEXT
350
1E8
  0
DICTIONARY
  5
22A
102
{ACAD_REACTORS
330
C
102
}
330
C
100
AcDbDictionary
  0
XRECORD
  5
231
102
{ACAD_REACTORS
330
C
102
}
330
C
100
AcDbXrecord
  1
DWGPROPS COOKIE
  2

  3

  4

  6
File was created by TR2_DExp
  7

  8
kaihatu03
  9

300
=
301
=
302
=
303
=
304
=
305
=
306
=
307
=
308
=
309
=
 40
0.0
 41
2455188.375
 42
2457991.276763044
  1

 90
        0
  0
MLINESTYLE
  5
18
102
{ACAD_REACTORS
330
17
102
}
330
17
100
AcDbMlineStyle
  2
Standard
 70
     0
  3

 62
   256
 51
90.0
 52
90.0
 71
     2
 49
0.5
 62
   256
  6
BYLAYER
 49
-0.5
 62
   256
  6
BYLAYER
  0
DICTIONARYVAR
  5
1E5
102
{ACAD_REACTORS
330
1DE
102
}
330
1DE
100
DictionaryVariables
280
     0
  1
3.500000
  0
DICTIONARYVAR
  5
1E6
102
{ACAD_REACTORS
330
1DE
102
}
330
1DE
100
DictionaryVariables
280
     0
  1
acadiso.lin
  0
DICTIONARYVAR
  5
1E7
102
{ACAD_REACTORS
330
1DE
102
}
330
1DE
100
DictionaryVariables
280
     0
  1
2
  0
DICTIONARYVAR
  5
1E8
102
{ACAD_REACTORS
330
1DE
102
}
330
1DE
100
DictionaryVariables
280
     0
  1
1
  0
ENDSEC
  0
EOF
