  0
SECTION
  2
HEADER
  9
$ACADVER
  1
AC1015
  9
$ACADMAINTVER
 70
     6
  9
$DWGCODEPAGE
  3
ANSI_932
  9
$INSBASE
 10
0.0
 20
0.0
 30
0.0
  9
$EXTMIN
 10
4.992874
 20
13.385742
 30
0.0
  9
$EXTMAX
 10
180.8508
 20
140.135818
 30
0.0
  9
$LIMMIN
 10
0.0
 20
0.0
  9
$LIMMAX
 10
12.0
 20
9.0
  9
$ORTHOMODE
 70
     0
  9
$REGENMODE
 70
     1
  9
$FILLMODE
 70
     1
  9
$QTEXTMODE
 70
     0
  9
$MIRRTEXT
 70
     1
  9
$LTSCALE
 40
2.167754
  9
$ATTMODE
 70
     1
  9
$TEXTSIZE
 40
3.2
  9
$TRACEWID
 40
1.0
  9
$TEXTSTYLE
  7
Standard
  9
$CLAYER
  8
0
  9
$CELTYPE
  6
ByLayer
  9
$CECOLOR
 62
   256
  9
$CELTSCALE
 40
1.0
  9
$DISPSILH
 70
     0
  9
$DIMSCALE
 40
1.0
  9
$DIMASZ
 40
2.5
  9
$DIMEXO
 40
0.625
  9
$DIMDLI
 40
3.75
  9
$DIMRND
 40
0.0
  9
$DIMDLE
 40
0.0
  9
$DIMEXE
 40
1.25
  9
$DIMTP
 40
0.0
  9
$DIMTM
 40
0.0
  9
$DIMTXT
 40
2.5
  9
$DIMCEN
 40
0.09
  9
$DIMTSZ
 40
0.0
  9
$DIMTOL
 70
     0
  9
$DIMLIM
 70
     0
  9
$DIMTIH
 70
     0
  9
$DIMTOH
 70
     0
  9
$DIMSE1
 70
     0
  9
$DIMSE2
 70
     0
  9
$DIMTAD
 70
     0
  9
$DIMZIN
 70
     8
  9
$DIMBLK
  1

  9
$DIMASO
 70
     1
  9
$DIMSHO
 70
     0
  9
$DIMPOST
  1

  9
$DIMAPOST
  1

  9
$DIMALT
 70
     0
  9
$DIMALTD
 70
     3
  9
$DIMALTF
 40
0.03937
  9
$DIMLFAC
 40
1.0
  9
$DIMTOFL
 70
     1
  9
$DIMTVP
 40
0.0
  9
$DIMTIX
 70
     0
  9
$DIMSOXD
 70
     0
  9
$DIMSAH
 70
     0
  9
$DIMBLK1
  1

  9
$DIMBLK2
  1

  9
$DIMSTYLE
  2
ISO-25
  9
$DIMCLRD
 70
     0
  9
$DIMCLRE
 70
     0
  9
$DIMCLRT
 70
     0
  9
$DIMTFAC
 40
1.0
  9
$DIMGAP
 40
0.625
  9
$DIMJUST
 70
     0
  9
$DIMSD1
 70
     0
  9
$DIMSD2
 70
     0
  9
$DIMTOLJ
 70
     0
  9
$DIMTZIN
 70
     8
  9
$DIMALTZ
 70
     0
  9
$DIMALTTZ
 70
     0
  9
$DIMUPT
 70
     0
  9
$DIMDEC
 70
     2
  9
$DIMTDEC
 70
     2
  9
$DIMALTU
 70
     2
  9
$DIMALTTD
 70
     3
  9
$DIMTXSTY
  7
Standard
  9
$DIMAUNIT
 70
     0
  9
$DIMADEC
 70
     0
  9
$DIMALTRND
 40
0.0
  9
$DIMAZIN
 70
     0
  9
$DIMDSEP
 70
    44
  9
$DIMATFIT
 70
     3
  9
$DIMFRAC
 70
     0
  9
$DIMLDRBLK
  1

  9
$DIMLUNIT
 70
     2
  9
$DIMLWD
 70
    -2
  9
$DIMLWE
 70
    -2
  9
$DIMTMOVE
 70
     0
  9
$LUNITS
 70
     2
  9
$LUPREC
 70
     4
  9
$SKETCHINC
 40
1.0
  9
$FILLETRAD
 40
0.0
  9
$AUNITS
 70
     0
  9
$AUPREC
 70
     0
  9
$MENU
  1
.
  9
$ELEVATION
 40
0.0
  9
$PELEVATION
 40
0.0
  9
$THICKNESS
 40
0.0
  9
$LIMCHECK
 70
     0
  9
$CHAMFERA
 40
10.0
  9
$CHAMFERB
 40
10.0
  9
$CHAMFERC
 40
20.0
  9
$CHAMFERD
 40
0.0
  9
$SKPOLY
 70
     0
  9
$TDCREATE
 40
2456204.548180694
  9
$TDUCREATE
 40
2456204.173180694
  9
$TDUPDATE
 40
2456204.548180706
  9
$TDUUPDATE
 40
2456204.173180706
  9
$TDINDWG
 40
0.0000000116
  9
$TDUSRTIMER
 40
0.0000000116
  9
$USRTIMER
 70
     1
  9
$ANGBASE
 50
0.0
  9
$ANGDIR
 70
     0
  9
$PDMODE
 70
     0
  9
$PDSIZE
 40
0.0
  9
$PLINEWID
 40
0.0
  9
$SPLFRAME
 70
     0
  9
$SPLINETYPE
 70
     6
  9
$SPLINESEGS
 70
     8
  9
$HANDSEED
  5
385
  9
$SURFTAB1
 70
     6
  9
$SURFTAB2
 70
     6
  9
$SURFTYPE
 70
     6
  9
$SURFU
 70
     6
  9
$SURFV
 70
     6
  9
$UCSBASE
  2

  9
$UCSNAME
  2

  9
$UCSORG
 10
0.0
 20
0.0
 30
0.0
  9
$UCSXDIR
 10
1.0
 20
0.0
 30
0.0
  9
$UCSYDIR
 10
0.0
 20
1.0
 30
0.0
  9
$UCSORTHOREF
  2

  9
$UCSORTHOVIEW
 70
     0
  9
$UCSORGTOP
 10
0.0
 20
0.0
 30
0.0
  9
$UCSORGBOTTOM
 10
0.0
 20
0.0
 30
0.0
  9
$UCSORGLEFT
 10
0.0
 20
0.0
 30
0.0
  9
$UCSORGRIGHT
 10
0.0
 20
0.0
 30
0.0
  9
$UCSORGFRONT
 10
0.0
 20
0.0
 30
0.0
  9
$UCSORGBACK
 10
0.0
 20
0.0
 30
0.0
  9
$PUCSBASE
  2

  9
$PUCSNAME
  2

  9
$PUCSORG
 10
0.0
 20
0.0
 30
0.0
  9
$PUCSXDIR
 10
1.0
 20
0.0
 30
0.0
  9
$PUCSYDIR
 10
0.0
 20
1.0
 30
0.0
  9
$PUCSORTHOREF
  2

  9
$PUCSORTHOVIEW
 70
     0
  9
$PUCSORGTOP
 10
0.0
 20
0.0
 30
0.0
  9
$PUCSORGBOTTOM
 10
0.0
 20
0.0
 30
0.0
  9
$PUCSORGLEFT
 10
0.0
 20
0.0
 30
0.0
  9
$PUCSORGRIGHT
 10
0.0
 20
0.0
 30
0.0
  9
$PUCSORGFRONT
 10
0.0
 20
0.0
 30
0.0
  9
$PUCSORGBACK
 10
0.0
 20
0.0
 30
0.0
  9
$USERI1
 70
     0
  9
$USERI2
 70
     0
  9
$USERI3
 70
     0
  9
$USERI4
 70
     0
  9
$USERI5
 70
     0
  9
$USERR1
 40
0.0
  9
$USERR2
 40
0.0
  9
$USERR3
 40
0.0
  9
$USERR4
 40
0.0
  9
$USERR5
 40
0.0
  9
$WORLDVIEW
 70
     1
  9
$SHADEDGE
 70
     3
  9
$SHADEDIF
 70
    70
  9
$TILEMODE
 70
     1
  9
$MAXACTVP
 70
    64
  9
$PINSBASE
 10
0.0
 20
0.0
 30
0.0
  9
$PLIMCHECK
 70
     0
  9
$PEXTMIN
 10
1.000000E+20
 20
1.000000E+20
 30
0.0
  9
$PEXTMAX
 10
-1.000000E+20
 20
-1.000000E+20
 30
0.0
  9
$PLIMMIN
 10
0.0
 20
0.0
  9
$PLIMMAX
 10
12.0
 20
9.0
  9
$UNITMODE
 70
     0
  9
$VISRETAIN
 70
     1
  9
$PLINEGEN
 70
     0
  9
$PSLTSCALE
 70
     1
  9
$TREEDEPTH
 70
  3020
  9
$CMLSTYLE
  2
Standard
  9
$CMLJUST
 70
     0
  9
$CMLSCALE
 40
20.0
  9
$PROXYGRAPHICS
 70
     1
  9
$MEASUREMENT
 70
     1
  9
$CELWEIGHT
370
    -1
  9
$ENDCAPS
280
     0
  9
$JOINSTYLE
280
     0
  9
$LWDISPLAY
290
     0
  9
$INSUNITS
 70
     4
  9
$HYPERLINKBASE
  1

  9
$STYLESHEET
  1

  9
$XEDIT
290
     1
  9
$CEPSNTYPE
380
     0
  9
$PSTYLEMODE
290
     1
  9
$FINGERPRINTGUID
  2
{705C1B4B-27F1-4344-870E-6FCA0DA8C933}
  9
$VERSIONGUID
  2
{FAEB1C32-E019-11D5-929B-00C0DF256EC4}
  9
$EXTNAMES
290
     1
  9
$PSVPSCALE
 40
0.0
  9
$OLESTARTUP
290
     0
  0
ENDSEC
  0
SECTION
  2
CLASSES
  0
CLASS
  1
ACDBDICTIONARYWDFLT
  2
AcDbDictionaryWithDefault
  3
ObjectDBX Classes
 90
        0
280
     0
281
     0
  0
CLASS
  1
VISUALSTYLE
  2
AcDbVisualStyle
  3
ObjectDBX Classes
 90
     4095
280
     0
281
     0
  0
CLASS
  1
SCALE
  2
AcDbScale
  3
ObjectDBX Classes
 90
     1153
280
     0
281
     0
  0
CLASS
  1
DICTIONARYVAR
  2
AcDbDictionaryVar
  3
ObjectDBX Classes
 90
        0
280
     0
281
     0
  0
CLASS
  1
ACDBPLACEHOLDER
  2
AcDbPlaceHolder
  3
ObjectDBX Classes
 90
        0
280
     0
281
     0
  0
CLASS
  1
LAYOUT
  2
AcDbLayout
  3
ObjectDBX Classes
 90
        0
280
     0
281
     0
  0
ENDSEC
  0
SECTION
  2
TABLES
  0
TABLE
  2
VPORT
  5
8
330
0
100
AcDbSymbolTable
 70
     1
  0
VPORT
  5
29
330
8
100
AcDbSymbolTableRecord
100
AcDbViewportTableRecord
  2
*Active
 70
     0
 10
0.0
 20
0.0
 11
1.0
 21
1.0
 12
92.921837
 22
76.76078
 13
0.0
 23
0.0
 14
1.0
 24
1.0
 15
0.0
 25
0.0
 16
0.0
 26
0.0
 36
1.0
 17
0.0
 27
0.0
 37
0.0
 40
128.017577
 41
1.691288
 42
50.0
 43
0.0
 44
0.0
 50
0.0
 51
0.0
 71
     0
 72
   100
 73
     1
 74
     3
 75
     0
 76
     0
 77
     0
 78
     0
281
     0
 65
     1
110
0.0
120
0.0
130
0.0
111
1.0
121
0.0
131
0.0
112
0.0
122
1.0
132
0.0
 79
     0
146
0.0
  0
ENDTAB
  0
TABLE
  2
LTYPE
  5
5
330
0
100
AcDbSymbolTable
 70
     5
  0
LTYPE
  5
14
330
5
100
AcDbSymbolTableRecord
100
AcDbLinetypeTableRecord
  2
ByBlock
 70
     0
  3

 72
    65
 73
     0
 40
0.0
  0
LTYPE
  5
15
330
5
100
AcDbSymbolTableRecord
100
AcDbLinetypeTableRecord
  2
ByLayer
 70
     0
  3

 72
    65
 73
     0
 40
0.0
  0
LTYPE
  5
16
330
5
100
AcDbSymbolTableRecord
100
AcDbLinetypeTableRecord
  2
Continuous
 70
     0
  3
Solid line
 72
    65
 73
     0
 40
0.0
  0
LTYPE
  5
5D
330
5
100
AcDbSymbolTableRecord
100
AcDbLinetypeTableRecord
  2
DASHED
 70
     0
  3
DASHED
 72
    83
 73
     2
 40
0.75
 49
0.5
 74
     0
 49
-0.25
 74
     0
  0
LTYPE
  5
5E
330
5
100
AcDbSymbolTableRecord
100
AcDbLinetypeTableRecord
  2
HIDDEN
 70
     0
  3
HIDDEN
 72
    83
 73
     2
 40
0.375
 49
0.25
 74
     0
 49
-0.125
 74
     0
  0
LTYPE
  5
5F
330
5
100
AcDbSymbolTableRecord
100
AcDbLinetypeTableRecord
  2
CENTER
 70
     0
  3
CENTER
 72
    83
 73
     4
 40
2.0
 49
1.25
 74
     0
 49
-0.25
 74
     0
 49
0.25
 74
     0
 49
-0.25
 74
     0
  0
LTYPE
  5
60
330
5
100
AcDbSymbolTableRecord
100
AcDbLinetypeTableRecord
  2
PHANTOM
 70
     0
  3
PHANTOM
 72
    83
 73
     6
 40
2.5
 49
1.25
 74
     0
 49
-0.25
 74
     0
 49
0.25
 74
     0
 49
-0.25
 74
     0
 49
0.25
 74
     0
 49
-0.25
 74
     0
  0
ENDTAB
  0
TABLE
  2
LAYER
  5
2
330
0
100
AcDbSymbolTable
 70
     2
  0
LAYER
  5
10
330
2
100
AcDbSymbolTableRecord
100
AcDbLayerTableRecord
  2
0
 70
     0
 62
     7
  6
Continuous
370
    -3
390
F
  0
LAYER
  5
61
330
2
100
AcDbSymbolTableRecord
100
AcDbLayerTableRecord
  2
001
 70
     0
 62
     7
  6
Continuous
370
    -3
390
F
  0
ENDTAB
  0
TABLE
  2
STYLE
  5
3
330
0
100
AcDbSymbolTable
 70
     2
  0
STYLE
  5
11
330
3
100
AcDbSymbolTableRecord
100
AcDbTextStyleTableRecord
  2
Standard
 70
     0
 40
0.0
 41
1.0
 50
0.0
 71
     0
 42
0.2
  3
TXT
  4
BIGFONT
  0
STYLE
  5
62
330
3
100
AcDbSymbolTableRecord
100
AcDbTextStyleTableRecord
  2
TATEGAKI
 70
     4
 40
1.0
 41
1.0
 50
0.0
 71
     0
 42
0.2
  3
TXT
  4
BIGFONT
  0
ENDTAB
  0
TABLE
  2
VIEW
  5
6
330
0
100
AcDbSymbolTable
 70
     0
  0
ENDTAB
  0
TABLE
  2
UCS
  5
7
330
0
100
AcDbSymbolTable
 70
     0
  0
ENDTAB
  0
TABLE
  2
APPID
  5
9
330
0
100
AcDbSymbolTable
 70
     1
  0
APPID
  5
12
330
9
100
AcDbSymbolTableRecord
100
AcDbRegAppTableRecord
  2
ACAD
 70
     0
  0
ENDTAB
  0
TABLE
  2
DIMSTYLE
  5
A
330
0
100
AcDbSymbolTable
 70
     2
100
AcDbDimStyleTable
  0
DIMSTYLE
105
27
330
A
100
AcDbSymbolTableRecord
100
AcDbDimStyleTableRecord
  2
ISO-25
 70
     0
 41
2.5
 42
0.625
 43
3.75
 44
1.25
 73
     0
 74
     0
 77
     1
 78
     8
140
2.5
141
2.5
143
0.03937
147
0.625
171
     3
172
     1
271
     2
272
     2
274
     3
278
    44
283
     0
284
     8
340
11
  0
DIMSTYLE
105
63
102
{ACAD_REACTORS
330
DC
330
DD
330
DE
330
F7
330
F8
330
F9
102
}
330
A
100
AcDbSymbolTableRecord
100
AcDbDimStyleTableRecord
  2
Standard
 70
     0
 41
1.5
 42
0.0
 44
2.75
 73
     0
 74
     0
 77
     1
 78
     8
 79
     2
140
4.0
146
0.8
147
1.0
172
     1
179
     1
271
     1
340
11
  0
ENDTAB
  0
TABLE
  2
BLOCK_RECORD
  5
1
330
0
100
AcDbSymbolTable
 70
     7
  0
BLOCK_RECORD
  5
1F
330
1
100
AcDbSymbolTableRecord
100
AcDbBlockTableRecord
  2
*Model_Space
340
22
  0
BLOCK_RECORD
  5
1B
330
1
100
AcDbSymbolTableRecord
100
AcDbBlockTableRecord
  2
*Paper_Space
340
1E
  0
BLOCK_RECORD
  5
23
330
1
100
AcDbSymbolTableRecord
100
AcDbBlockTableRecord
  2
*Paper_Space0
340
26
  0
BLOCK_RECORD
  5
64
330
1
100
AcDbSymbolTableRecord
100
AcDbBlockTableRecord
  2
*D1
340
0
  0
BLOCK_RECORD
  5
78
330
1
100
AcDbSymbolTableRecord
100
AcDbBlockTableRecord
  2
*D2
340
0
  0
BLOCK_RECORD
  5
8B
330
1
100
AcDbSymbolTableRecord
100
AcDbBlockTableRecord
  2
*D3
340
0
  0
BLOCK_RECORD
  5
9F
330
1
100
AcDbSymbolTableRecord
100
AcDbBlockTableRecord
  2
*D4
340
0
  0
BLOCK_RECORD
  5
B3
330
1
100
AcDbSymbolTableRecord
100
AcDbBlockTableRecord
  2
*D5
340
0
  0
BLOCK_RECORD
  5
C7
330
1
100
AcDbSymbolTableRecord
100
AcDbBlockTableRecord
  2
*D6
340
0
  0
ENDTAB
  0
ENDSEC
  0
SECTION
  2
BLOCKS
  0
BLOCK
  5
20
330
1F
100
AcDbEntity
  8
0
100
AcDbBlockBegin
  2
*Model_Space
 70
     0
 10
0.0
 20
0.0
 30
0.0
  3
*Model_Space
  1

  0
ENDBLK
  5
21
330
1F
100
AcDbEntity
  8
0
100
AcDbBlockEnd
  0
BLOCK
  5
1C
330
1B
100
AcDbEntity
 67
     1
  8
0
100
AcDbBlockBegin
  2
*Paper_Space
 70
     0
 10
0.0
 20
0.0
 30
0.0
  3
*Paper_Space
  1

  0
ENDBLK
  5
1D
330
1B
100
AcDbEntity
 67
     1
  8
0
100
AcDbBlockEnd
  0
BLOCK
  5
24
330
23
100
AcDbEntity
  8
0
100
AcDbBlockBegin
  2
*Paper_Space0
 70
     0
 10
0.0
 20
0.0
 30
0.0
  3
*Paper_Space0
  1

  0
ENDBLK
  5
25
330
23
100
AcDbEntity
  8
0
100
AcDbBlockEnd
  0
BLOCK
  5
65
330
64
100
AcDbEntity
  8
0
100
AcDbBlockBegin
  2
*D1
 70
     1
 10
0.0
 20
0.0
 30
0.0
  3
*D1
  1

  0
LINE
  5
67
330
64
100
AcDbEntity
  8
001
370
     9
100
AcDbLine
 10
158.661553
 20
40.36832
 30
0.0
 11
158.661553
 21
13.385745
 31
0.0
  0
LINE
  5
68
330
64
100
AcDbEntity
  8
001
370
     9
100
AcDbLine
 10
38.661553
 20
40.36832
 30
0.0
 11
38.661553
 21
13.385745
 31
0.0
  0
LINE
  5
69
330
64
100
AcDbEntity
  8
001
370
     9
100
AcDbLine
 10
158.661553
 20
16.135745
 30
0.0
 11
38.661553
 21
16.135745
 31
0.0
  0
POLYLINE
  5
6A
330
64
100
AcDbEntity
  8
001
370
     9
100
AcDb2dPolyline
 66
     1
 10
0.0
 20
0.0
 30
0.0
  0
VERTEX
  5
6C
330
6A
100
AcDbEntity
  8
001
370
     9
100
AcDbVertex
100
AcDb2dVertex
 10
157.161553
 20
16.537669
 30
0.0
  0
VERTEX
  5
6D
330
6A
100
AcDbEntity
  8
001
370
     9
100
AcDbVertex
100
AcDb2dVertex
 10
158.661553
 20
16.135745
 30
0.0
  0
VERTEX
  5
6E
330
6A
100
AcDbEntity
  8
001
370
     9
100
AcDbVertex
100
AcDb2dVertex
 10
157.161553
 20
15.733821
 30
0.0
  0
SEQEND
  5
6B
330
6A
100
AcDbEntity
  8
001
370
     9
  0
POLYLINE
  5
6F
330
64
100
AcDbEntity
  8
001
370
     9
100
AcDb2dPolyline
 66
     1
 10
0.0
 20
0.0
 30
0.0
  0
VERTEX
  5
71
330
6F
100
AcDbEntity
  8
001
370
     9
100
AcDbVertex
100
AcDb2dVertex
 10
40.161553
 20
15.733821
 30
0.0
  0
VERTEX
  5
72
330
6F
100
AcDbEntity
  8
001
370
     9
100
AcDbVertex
100
AcDb2dVertex
 10
38.661553
 20
16.135745
 30
0.0
  0
VERTEX
  5
73
330
6F
100
AcDbEntity
  8
001
370
     9
100
AcDbVertex
100
AcDb2dVertex
 10
40.161553
 20
16.537669
 30
0.0
  0
SEQEND
  5
70
330
6F
100
AcDbEntity
  8
001
370
     9
  0
TEXT
  5
74
330
64
100
AcDbEntity
  8
001
370
    30
100
AcDbText
 10
94.161553
 20
17.135745
 30
0.0
 40
3.0
  1
１２０
 41
0.833333
100
AcDbText
  0
POINT
  5
75
330
64
100
AcDbEntity
  8
001
370
     9
100
AcDbPoint
 10
158.661553
 20
40.36832
 30
0.0
  0
POINT
  5
76
330
64
100
AcDbEntity
  8
001
370
     9
100
AcDbPoint
 10
38.661553
 20
40.36832
 30
0.0
  0
POINT
  5
77
330
64
100
AcDbEntity
  8
001
370
     9
100
AcDbPoint
 10
38.661553
 20
16.135745
 30
0.0
  0
ENDBLK
  5
66
330
64
100
AcDbEntity
  8
0
100
AcDbBlockEnd
  0
BLOCK
  5
79
330
78
100
AcDbEntity
  8
0
100
AcDbBlockBegin
  2
*D2
 70
     1
 10
0.0
 20
0.0
 30
0.0
  3
*D2
  1

  0
LINE
  5
7B
330
78
100
AcDbEntity
  8
001
370
     9
100
AcDbLine
 10
158.661553
 20
83.093713
 30
0.0
 11
158.661553
 21
21.941155
 31
0.0
  0
LINE
  5
7C
330
78
100
AcDbEntity
  8
001
370
     9
100
AcDbLine
 10
158.661553
 20
24.691155
 30
0.0
 11
78.661553
 21
24.691155
 31
0.0
  0
POLYLINE
  5
7D
330
78
100
AcDbEntity
  8
001
370
     9
100
AcDb2dPolyline
 66
     1
 10
0.0
 20
0.0
 30
0.0
  0
VERTEX
  5
7F
330
7D
100
AcDbEntity
  8
001
370
     9
100
AcDbVertex
100
AcDb2dVertex
 10
157.161553
 20
25.093079
 30
0.0
  0
VERTEX
  5
80
330
7D
100
AcDbEntity
  8
001
370
     9
100
AcDbVertex
100
AcDb2dVertex
 10
158.661553
 20
24.691155
 30
0.0
  0
VERTEX
  5
81
330
7D
100
AcDbEntity
  8
001
370
     9
100
AcDbVertex
100
AcDb2dVertex
 10
157.161553
 20
24.289231
 30
0.0
  0
SEQEND
  5
7E
330
7D
100
AcDbEntity
  8
001
370
     9
  0
POLYLINE
  5
82
330
78
100
AcDbEntity
  8
001
370
     9
100
AcDb2dPolyline
 66
     1
 10
0.0
 20
0.0
 30
0.0
  0
VERTEX
  5
84
330
82
100
AcDbEntity
  8
001
370
     9
100
AcDbVertex
100
AcDb2dVertex
 10
80.161553
 20
24.289231
 30
0.0
  0
VERTEX
  5
85
330
82
100
AcDbEntity
  8
001
370
     9
100
AcDbVertex
100
AcDb2dVertex
 10
78.661553
 20
24.691155
 30
0.0
  0
VERTEX
  5
86
330
82
100
AcDbEntity
  8
001
370
     9
100
AcDbVertex
100
AcDb2dVertex
 10
80.161553
 20
25.093079
 30
0.0
  0
SEQEND
  5
83
330
82
100
AcDbEntity
  8
001
370
     9
  0
TEXT
  5
87
330
78
100
AcDbEntity
  8
001
370
    30
100
AcDbText
 10
115.661553
 20
25.691155
 30
0.0
 40
3.0
  1
８０
 41
0.833333
100
AcDbText
  0
POINT
  5
88
330
78
100
AcDbEntity
  8
001
370
     9
100
AcDbPoint
 10
158.661553
 20
83.093713
 30
0.0
  0
POINT
  5
89
330
78
100
AcDbEntity
  8
001
370
     9
100
AcDbPoint
 10
78.661553
 20
40.36832
 30
0.0
  0
POINT
  5
8A
330
78
100
AcDbEntity
  8
001
370
     9
100
AcDbPoint
 10
78.661553
 20
24.691155
 30
0.0
  0
ENDBLK
  5
7A
330
78
100
AcDbEntity
  8
0
100
AcDbBlockEnd
  0
BLOCK
  5
8C
330
8B
100
AcDbEntity
  8
0
100
AcDbBlockBegin
  2
*D3
 70
     1
 10
0.0
 20
0.0
 30
0.0
  3
*D3
  1

  0
LINE
  5
8E
330
8B
100
AcDbEntity
  8
001
370
     9
100
AcDbLine
 10
78.661553
 20
68.443713
 30
0.0
 11
78.661553
 21
21.941155
 31
0.0
  0
LINE
  5
8F
330
8B
100
AcDbEntity
  8
001
370
     9
100
AcDbLine
 10
38.661553
 20
81.155335
 30
0.0
 11
38.661553
 21
21.941155
 31
0.0
  0
LINE
  5
90
330
8B
100
AcDbEntity
  8
001
370
     9
100
AcDbLine
 10
78.661553
 20
24.691155
 30
0.0
 11
38.661553
 21
24.691155
 31
0.0
  0
POLYLINE
  5
91
330
8B
100
AcDbEntity
  8
001
370
     9
100
AcDb2dPolyline
 66
     1
 10
0.0
 20
0.0
 30
0.0
  0
VERTEX
  5
93
330
91
100
AcDbEntity
  8
001
370
     9
100
AcDbVertex
100
AcDb2dVertex
 10
77.161553
 20
25.093079
 30
0.0
  0
VERTEX
  5
94
330
91
100
AcDbEntity
  8
001
370
     9
100
AcDbVertex
100
AcDb2dVertex
 10
78.661553
 20
24.691155
 30
0.0
  0
VERTEX
  5
95
330
91
100
AcDbEntity
  8
001
370
     9
100
AcDbVertex
100
AcDb2dVertex
 10
77.161553
 20
24.289231
 30
0.0
  0
SEQEND
  5
92
330
91
100
AcDbEntity
  8
001
370
     9
  0
POLYLINE
  5
96
330
8B
100
AcDbEntity
  8
001
370
     9
100
AcDb2dPolyline
 66
     1
 10
0.0
 20
0.0
 30
0.0
  0
VERTEX
  5
98
330
96
100
AcDbEntity
  8
001
370
     9
100
AcDbVertex
100
AcDb2dVertex
 10
40.161553
 20
24.289231
 30
0.0
  0
VERTEX
  5
99
330
96
100
AcDbEntity
  8
001
370
     9
100
AcDbVertex
100
AcDb2dVertex
 10
38.661553
 20
24.691155
 30
0.0
  0
VERTEX
  5
9A
330
96
100
AcDbEntity
  8
001
370
     9
100
AcDbVertex
100
AcDb2dVertex
 10
40.161553
 20
25.093079
 30
0.0
  0
SEQEND
  5
97
330
96
100
AcDbEntity
  8
001
370
     9
  0
TEXT
  5
9B
330
8B
100
AcDbEntity
  8
001
370
    30
100
AcDbText
 10
55.661553
 20
25.691155
 30
0.0
 40
3.0
  1
４０
 41
0.833333
100
AcDbText
  0
POINT
  5
9C
330
8B
100
AcDbEntity
  8
001
370
     9
100
AcDbPoint
 10
78.661553
 20
68.443713
 30
0.0
  0
POINT
  5
9D
330
8B
100
AcDbEntity
  8
001
370
     9
100
AcDbPoint
 10
38.661553
 20
81.155335
 30
0.0
  0
POINT
  5
9E
330
8B
100
AcDbEntity
  8
001
370
     9
100
AcDbPoint
 10
38.661553
 20
24.691155
 30
0.0
  0
ENDBLK
  5
8D
330
8B
100
AcDbEntity
  8
0
100
AcDbBlockEnd
  0
BLOCK
  5
A0
330
9F
100
AcDbEntity
  8
0
100
AcDbBlockBegin
  2
*D4
 70
     1
 10
0.0
 20
0.0
 30
0.0
  3
*D4
  1

  0
LINE
  5
A2
330
9F
100
AcDbEntity
  8
001
370
     9
100
AcDbLine
 10
150.661553
 20
107.093713
 30
0.0
 11
180.850793
 21
107.093713
 31
0.0
  0
LINE
  5
A3
330
9F
100
AcDbEntity
  8
001
370
     9
100
AcDbLine
 10
150.661553
 20
75.093713
 30
0.0
 11
180.850793
 21
75.093713
 31
0.0
  0
LINE
  5
A4
330
9F
100
AcDbEntity
  8
001
370
     9
100
AcDbLine
 10
178.100793
 20
107.093713
 30
0.0
 11
178.100793
 21
75.093713
 31
0.0
  0
POLYLINE
  5
A5
330
9F
100
AcDbEntity
  8
001
370
     9
100
AcDb2dPolyline
 66
     1
 10
0.0
 20
0.0
 30
0.0
  0
VERTEX
  5
A7
330
A5
100
AcDbEntity
  8
001
370
     9
100
AcDbVertex
100
AcDb2dVertex
 10
177.698869
 20
105.593713
 30
0.0
  0
VERTEX
  5
A8
330
A5
100
AcDbEntity
  8
001
370
     9
100
AcDbVertex
100
AcDb2dVertex
 10
178.100793
 20
107.093713
 30
0.0
  0
VERTEX
  5
A9
330
A5
100
AcDbEntity
  8
001
370
     9
100
AcDbVertex
100
AcDb2dVertex
 10
178.502717
 20
105.593713
 30
0.0
  0
SEQEND
  5
A6
330
A5
100
AcDbEntity
  8
001
370
     9
  0
POLYLINE
  5
AA
330
9F
100
AcDbEntity
  8
001
370
     9
100
AcDb2dPolyline
 66
     1
 10
0.0
 20
0.0
 30
0.0
  0
VERTEX
  5
AC
330
AA
100
AcDbEntity
  8
001
370
     9
100
AcDbVertex
100
AcDb2dVertex
 10
178.502717
 20
76.593713
 30
0.0
  0
VERTEX
  5
AD
330
AA
100
AcDbEntity
  8
001
370
     9
100
AcDbVertex
100
AcDb2dVertex
 10
178.100793
 20
75.093713
 30
0.0
  0
VERTEX
  5
AE
330
AA
100
AcDbEntity
  8
001
370
     9
100
AcDbVertex
100
AcDb2dVertex
 10
177.698869
 20
76.593713
 30
0.0
  0
SEQEND
  5
AB
330
AA
100
AcDbEntity
  8
001
370
     9
  0
TEXT
  5
AF
330
9F
100
AcDbEntity
  8
001
370
    30
100
AcDbText
 10
177.100793
 20
85.093713
 30
0.0
 40
4.0
  1
%%c３２
 50
90.000003
 41
0.882353
100
AcDbText
  0
POINT
  5
B0
330
9F
100
AcDbEntity
  8
001
370
     9
100
AcDbPoint
 10
150.661553
 20
107.093713
 30
0.0
  0
POINT
  5
B1
330
9F
100
AcDbEntity
  8
001
370
     9
100
AcDbPoint
 10
150.661553
 20
75.093713
 30
0.0
  0
POINT
  5
B2
330
9F
100
AcDbEntity
  8
001
370
     9
100
AcDbPoint
 10
178.100793
 20
75.093713
 30
0.0
  0
ENDBLK
  5
A1
330
9F
100
AcDbEntity
  8
0
100
AcDbBlockEnd
  0
BLOCK
  5
B4
330
B3
100
AcDbEntity
  8
0
100
AcDbBlockBegin
  2
*D5
 70
     1
 10
0.0
 20
0.0
 30
0.0
  3
*D5
  1

  0
LINE
  5
B6
330
B3
100
AcDbEntity
  8
001
370
     9
100
AcDbLine
 10
50.525961
 20
60.533229
 30
0.0
 11
65.544848
 21
34.506172
 31
0.0
  0
ARC
  5
B7
330
B3
100
AcDbEntity
  8
001
370
     9
100
AcDbCircle
 10
38.661553
 20
81.093713
 30
0.0
 40
51.03764322712082
100
AcDbArc
 50
270.0
 51
299.987053
  0
POLYLINE
  5
B8
330
B3
100
AcDbEntity
  8
001
370
     9
100
AcDb2dPolyline
 66
     1
 10
0.0
 20
0.0
 30
0.0
  0
VERTEX
  5
BA
330
B8
100
AcDbEntity
  8
001
370
     9
100
AcDbVertex
100
AcDb2dVertex
 10
62.664557
 20
36.508554
 30
0.0
  0
VERTEX
  5
BB
330
B8
100
AcDbEntity
  8
001
370
     9
100
AcDbVertex
100
AcDb2dVertex
 10
64.170387
 20
36.888052
 30
0.0
  0
VERTEX
  5
BC
330
B8
100
AcDbEntity
  8
001
370
     9
100
AcDbVertex
100
AcDb2dVertex
 10
63.056049
 20
35.806482
 30
0.0
  0
SEQEND
  5
B9
330
B8
100
AcDbEntity
  8
001
370
     9
  0
POLYLINE
  5
BD
330
B3
100
AcDbEntity
  8
001
370
     9
100
AcDb2dPolyline
 66
     1
 10
0.0
 20
0.0
 30
0.0
  0
VERTEX
  5
BF
330
BD
100
AcDbEntity
  8
001
370
     9
100
AcDbVertex
100
AcDb2dVertex
 10
40.167297
 20
29.676231
 30
0.0
  0
VERTEX
  5
C0
330
BD
100
AcDbEntity
  8
001
370
     9
100
AcDbVertex
100
AcDb2dVertex
 10
38.661553
 20
30.05607
 30
0.0
  0
VERTEX
  5
C1
330
BD
100
AcDbEntity
  8
001
370
     9
100
AcDbVertex
100
AcDb2dVertex
 10
40.155485
 20
30.479992
 30
0.0
  0
SEQEND
  5
BE
330
BD
100
AcDbEntity
  8
001
370
     9
  0
TEXT
  5
C2
330
B3
100
AcDbEntity
  8
001
370
    30
100
AcDbText
 10
45.811057
 20
31.207339
 30
0.0
 40
4.0
  1
３０%%d
 50
14.993527
 41
0.978261
100
AcDbText
  0
POINT
  5
C3
330
B3
100
AcDbEntity
  8
001
370
     9
100
AcDbPoint
 10
50.525961
 20
60.533229
 30
0.0
  0
POINT
  5
C4
330
B3
100
AcDbEntity
  8
001
370
     9
100
AcDbPoint
 10
38.661553
 20
81.093713
 30
0.0
  0
POINT
  5
C5
330
B3
100
AcDbEntity
  8
001
370
     9
100
AcDbPoint
 10
38.661553
 20
81.093713
 30
0.0
  0
POINT
  5
C6
330
B3
100
AcDbEntity
  8
001
370
     9
100
AcDbPoint
 10
38.661553
 20
32.80607
 30
0.0
  0
ENDBLK
  5
B5
330
B3
100
AcDbEntity
  8
0
100
AcDbBlockEnd
  0
BLOCK
  5
C8
330
C7
100
AcDbEntity
  8
0
100
AcDbBlockBegin
  2
*D6
 70
     1
 10
0.0
 20
0.0
 30
0.0
  3
*D6
  1

  0
LINE
  5
CA
330
C7
100
AcDbEntity
  8
001
370
     9
100
AcDbLine
 10
50.837288
 20
59.993713
 30
0.0
 11
50.837288
 21
37.96567
 31
0.0
  0
LINE
  5
CB
330
C7
100
AcDbEntity
  8
001
370
     9
100
AcDbLine
 10
50.837288
 20
40.71567
 30
0.0
 11
38.661553
 21
40.71567
 31
0.0
  0
POLYLINE
  5
CC
330
C7
100
AcDbEntity
  8
001
370
     9
100
AcDb2dPolyline
 66
     1
 10
0.0
 20
0.0
 30
0.0
  0
VERTEX
  5
CE
330
CC
100
AcDbEntity
  8
001
370
     9
100
AcDbVertex
100
AcDb2dVertex
 10
52.337288
 20
40.313746
 30
0.0
  0
VERTEX
  5
CF
330
CC
100
AcDbEntity
  8
001
370
     9
100
AcDbVertex
100
AcDb2dVertex
 10
50.837288
 20
40.71567
 30
0.0
  0
VERTEX
  5
D0
330
CC
100
AcDbEntity
  8
001
370
     9
100
AcDbVertex
100
AcDb2dVertex
 10
52.337288
 20
41.117594
 30
0.0
  0
SEQEND
  5
CD
330
CC
100
AcDbEntity
  8
001
370
     9
  0
POLYLINE
  5
D1
330
C7
100
AcDbEntity
  8
001
370
     9
100
AcDb2dPolyline
 66
     1
 10
0.0
 20
0.0
 30
0.0
  0
VERTEX
  5
D3
330
D1
100
AcDbEntity
  8
001
370
     9
100
AcDbVertex
100
AcDb2dVertex
 10
37.161553
 20
41.117594
 30
0.0
  0
VERTEX
  5
D4
330
D1
100
AcDbEntity
  8
001
370
     9
100
AcDbVertex
100
AcDb2dVertex
 10
38.661553
 20
40.71567
 30
0.0
  0
VERTEX
  5
D5
330
D1
100
AcDbEntity
  8
001
370
     9
100
AcDbVertex
100
AcDb2dVertex
 10
37.161553
 20
40.313746
 30
0.0
  0
SEQEND
  5
D2
330
D1
100
AcDbEntity
  8
001
370
     9
  0
TEXT
  5
D6
330
C7
100
AcDbEntity
  8
001
370
    30
100
AcDbText
 10
19.161553
 20
41.71567
 30
0.0
 40
4.0
  1
１２．２
 41
0.833333
100
AcDbText
  0
POINT
  5
D7
330
C7
100
AcDbEntity
  8
001
370
     9
100
AcDbPoint
 10
50.837288
 20
59.993713
 30
0.0
  0
POINT
  5
D8
330
C7
100
AcDbEntity
  8
001
370
     9
100
AcDbPoint
 10
38.661553
 20
43.46567
 30
0.0
  0
POINT
  5
D9
330
C7
100
AcDbEntity
  8
001
370
     9
100
AcDbPoint
 10
38.661553
 20
40.71567
 30
0.0
  0
LINE
  5
DA
330
C7
100
AcDbEntity
  8
001
370
     9
100
AcDbLine
 10
50.837288
 20
40.71567
 30
0.0
 11
53.337288
 21
40.71567
 31
0.0
  0
LINE
  5
DB
330
C7
100
AcDbEntity
  8
001
370
     9
100
AcDbLine
 10
38.661553
 20
40.71567
 30
0.0
 11
16.161553
 21
40.71567
 31
0.0
  0
ENDBLK
  5
C9
330
C7
100
AcDbEntity
  8
0
100
AcDbBlockEnd
  0
ENDSEC
  0
SECTION
  2
ENTITIES
  0
DIMENSION
  5
DC
330
1F
100
AcDbEntity
  8
001
370
     9
100
AcDbDimension
  2
*D1
 10
38.661553
 20
16.135745
 30
0.0
 11
98.661553
 21
18.635745
 31
0.0
 70
   160
 71
     5
 42
-1.0
  3
Standard
100
AcDbAlignedDimension
 13
158.661553
 23
40.36832
 33
0.0
 14
38.661553
 24
40.36832
 34
0.0
 50
180.0
100
AcDbRotatedDimension
  0
DIMENSION
  5
DD
330
1F
100
AcDbEntity
  8
001
370
     9
100
AcDbDimension
  2
*D2
 10
78.661553
 20
24.691155
 30
0.0
 11
118.661553
 21
27.191155
 31
0.0
 70
   160
 71
     5
 42
-1.0
  3
Standard
100
AcDbAlignedDimension
 13
158.661553
 23
83.093713
 33
0.0
 14
78.661553
 24
40.36832
 34
0.0
 50
180.0
100
AcDbRotatedDimension
  0
DIMENSION
  5
DE
330
1F
100
AcDbEntity
  8
001
370
     9
100
AcDbDimension
  2
*D3
 10
38.661553
 20
24.691155
 30
0.0
 11
58.661553
 21
27.191155
 31
0.0
 70
   160
 71
     5
 42
-1.0
  3
Standard
100
AcDbAlignedDimension
 13
78.661553
 23
68.443713
 33
0.0
 14
38.661553
 24
81.155335
 34
0.0
 50
180.0
100
AcDbRotatedDimension
  0
TEXT
  5
DF
330
1F
100
AcDbEntity
  8
001
370
    30
100
AcDbText
 10
20.330216
 20
85.093713
 30
0.0
 40
4.0
  1
%%c２０
 50
90.000003
 41
0.882353
100
AcDbText
  0
POLYLINE
  5
E0
330
1F
100
AcDbEntity
  8
001
370
     9
100
AcDb2dPolyline
 66
     1
 10
0.0
 20
0.0
 30
0.0
  0
VERTEX
  5
E2
330
E0
100
AcDbEntity
  8
001
370
     9
100
AcDbVertex
100
AcDb2dVertex
 10
21.73214
 20
82.593713
 30
0.0
  0
VERTEX
  5
E3
330
E0
100
AcDbEntity
  8
001
370
     9
100
AcDbVertex
100
AcDb2dVertex
 10
21.330216
 20
81.093713
 30
0.0
  0
VERTEX
  5
E4
330
E0
100
AcDbEntity
  8
001
370
     9
100
AcDbVertex
100
AcDb2dVertex
 10
20.928292
 20
82.593713
 30
0.0
  0
SEQEND
  5
E1
330
E0
100
AcDbEntity
  8
001
370
     9
  0
LINE
  5
E5
330
1F
100
AcDbEntity
  8
001
370
     9
100
AcDbLine
 10
21.330216
 20
81.093713
 30
0.0
 11
21.330216
 21
101.093713
 31
0.0
  0
POLYLINE
  5
E6
330
1F
100
AcDbEntity
  8
001
370
     9
100
AcDb2dPolyline
 66
     1
 10
0.0
 20
0.0
 30
0.0
  0
VERTEX
  5
E8
330
E6
100
AcDbEntity
  8
001
370
     9
100
AcDbVertex
100
AcDb2dVertex
 10
38.661553
 20
81.093713
 30
0.0
  0
VERTEX
  5
E9
330
E6
100
AcDbEntity
  8
001
370
     9
100
AcDbVertex
100
AcDb2dVertex
 10
21.330216
 20
81.093713
 30
0.0
  0
VERTEX
  5
EA
330
E6
100
AcDbEntity
  8
001
370
     9
100
AcDbVertex
100
AcDb2dVertex
 10
18.580216
 20
81.093713
 30
0.0
  0
SEQEND
  5
E7
330
E6
100
AcDbEntity
  8
001
370
     9
  0
TEXT
  5
EB
330
1F
100
AcDbEntity
  8
001
370
    30
100
AcDbText
 10
8.992869
 20
81.093713
 30
0.0
 40
4.0
  1
%%c６２．２
 50
90.000003
 41
0.862069
100
AcDbText
  0
POLYLINE
  5
EC
330
1F
100
AcDbEntity
  8
001
370
     9
100
AcDb2dPolyline
 66
     1
 10
0.0
 20
0.0
 30
0.0
  0
VERTEX
  5
EE
330
EC
100
AcDbEntity
  8
001
370
     9
100
AcDbVertex
100
AcDb2dVertex
 10
10.394793
 20
61.493713
 30
0.0
  0
VERTEX
  5
EF
330
EC
100
AcDbEntity
  8
001
370
     9
100
AcDbVertex
100
AcDb2dVertex
 10
9.992869
 20
59.993713
 30
0.0
  0
VERTEX
  5
F0
330
EC
100
AcDbEntity
  8
001
370
     9
100
AcDbVertex
100
AcDb2dVertex
 10
9.590945
 20
61.493713
 30
0.0
  0
SEQEND
  5
ED
330
EC
100
AcDbEntity
  8
001
370
     9
  0
LINE
  5
F1
330
1F
100
AcDbEntity
  8
001
370
     9
100
AcDbLine
 10
9.992869
 20
122.193713
 30
0.0
 11
9.992869
 21
59.993713
 31
0.0
  0
POLYLINE
  5
F2
330
1F
100
AcDbEntity
  8
001
370
     9
100
AcDb2dPolyline
 66
     1
 10
0.0
 20
0.0
 30
0.0
  0
VERTEX
  5
F4
330
F2
100
AcDbEntity
  8
001
370
     9
100
AcDbVertex
100
AcDb2dVertex
 10
50.837288
 20
59.993713
 30
0.0
  0
VERTEX
  5
F5
330
F2
100
AcDbEntity
  8
001
370
     9
100
AcDbVertex
100
AcDb2dVertex
 10
9.992869
 20
59.993713
 30
0.0
  0
VERTEX
  5
F6
330
F2
100
AcDbEntity
  8
001
370
     9
100
AcDbVertex
100
AcDb2dVertex
 10
7.242869
 20
59.993713
 30
0.0
  0
SEQEND
  5
F3
330
F2
100
AcDbEntity
  8
001
370
     9
  0
DIMENSION
  5
F7
330
1F
100
AcDbEntity
  8
001
370
     9
100
AcDbDimension
  2
*D4
 10
178.100793
 20
75.093713
 30
0.0
 11
175.100793
 21
91.093713
 31
0.0
 70
   160
 71
     5
 42
-1.0
  3
Standard
100
AcDbAlignedDimension
 13
150.661553
 23
107.093713
 33
0.0
 14
150.661553
 24
75.093713
 34
0.0
 50
270.0
100
AcDbRotatedDimension
  0
DIMENSION
  5
F8
330
1F
100
AcDbEntity
  8
001
370
     9
100
AcDbDimension
  2
*D5
 10
38.661553
 20
81.093713
 30
0.0
 11
51.089368
 21
34.691508
 31
0.0
 70
    34
 71
     5
 42
-1.0
  3
Standard
100
AcDb2LineAngularDimension
 13
50.525961
 23
60.533229
 33
0.0
 14
38.661553
 24
81.093713
 34
0.0
 15
38.661553
 25
32.80607
 35
0.0
 16
51.865497
 26
31.793643
 36
0.0
  0
DIMENSION
  5
F9
330
1F
100
AcDbEntity
  8
001
370
     9
100
AcDbDimension
  2
*D6
 10
38.661553
 20
40.71567
 30
0.0
 11
27.161553
 21
43.71567
 31
0.0
 70
   160
 71
     5
 42
-1.0
  3
Standard
100
AcDbAlignedDimension
 13
50.837288
 23
59.993713
 33
0.0
 14
38.661553
 24
43.46567
 34
0.0
 50
180.0
100
AcDbRotatedDimension
  0
CIRCLE
  5
FA
330
1F
100
AcDbEntity
  8
001
370
    50
100
AcDbCircle
 10
51.384017
 20
74.857851
 30
0.0
 40
3.75
  0
POLYLINE
  5
FB
330
1F
100
AcDbEntity
  8
001
370
    50
100
AcDb2dPolyline
 66
     1
 10
0.0
 20
0.0
 30
0.0
  0
VERTEX
  5
FD
330
FB
100
AcDbEntity
  8
001
370
    50
100
AcDbVertex
100
AcDb2dVertex
 10
58.201883
 20
89.20706
 30
0.0
  0
VERTEX
  5
FE
330
FB
100
AcDbEntity
  8
001
370
    50
100
AcDbVertex
100
AcDb2dVertex
 10
58.312836
 20
89.205899
 30
0.0
  0
VERTEX
  5
FF
330
FB
100
AcDbEntity
  8
001
370
    50
100
AcDbVertex
100
AcDb2dVertex
 10
58.423772
 20
89.203838
 30
0.0
  0
VERTEX
  5
100
330
FB
100
AcDbEntity
  8
001
370
    50
100
AcDbVertex
100
AcDb2dVertex
 10
58.740887
 20
89.188611
 30
0.0
  0
VERTEX
  5
101
330
FB
100
AcDbEntity
  8
001
370
    50
100
AcDbVertex
100
AcDb2dVertex
 10
59.057137
 20
89.159772
 30
0.0
  0
VERTEX
  5
102
330
FB
100
AcDbEntity
  8
001
370
    50
100
AcDbVertex
100
AcDb2dVertex
 10
59.380765
 20
89.116891
 30
0.0
  0
VERTEX
  5
103
330
FB
100
AcDbEntity
  8
001
370
    50
100
AcDbVertex
100
AcDb2dVertex
 10
59.702311
 20
89.060667
 30
0.0
  0
VERTEX
  5
104
330
FB
100
AcDbEntity
  8
001
370
    50
100
AcDbVertex
100
AcDb2dVertex
 10
60.021205
 20
88.99101
 30
0.0
  0
VERTEX
  5
105
330
FB
100
AcDbEntity
  8
001
370
    50
100
AcDbVertex
100
AcDb2dVertex
 10
60.336902
 20
88.908027
 30
0.0
  0
VERTEX
  5
106
330
FB
100
AcDbEntity
  8
001
370
    50
100
AcDbVertex
100
AcDb2dVertex
 10
60.644965
 20
88.813179
 30
0.0
  0
VERTEX
  5
107
330
FB
100
AcDbEntity
  8
001
370
    50
100
AcDbVertex
100
AcDb2dVertex
 10
60.948859
 20
88.705728
 30
0.0
  0
VERTEX
  5
108
330
FB
100
AcDbEntity
  8
001
370
    50
100
AcDbVertex
100
AcDb2dVertex
 10
61.248019
 20
88.585927
 30
0.0
  0
VERTEX
  5
109
330
FB
100
AcDbEntity
  8
001
370
    50
100
AcDbVertex
100
AcDb2dVertex
 10
61.542
 20
88.453931
 30
0.0
  0
VERTEX
  5
10A
330
FB
100
AcDbEntity
  8
001
370
    50
100
AcDbVertex
100
AcDb2dVertex
 10
61.83837
 20
88.30569
 30
0.0
  0
VERTEX
  5
10B
330
FB
100
AcDbEntity
  8
001
370
    50
100
AcDbVertex
100
AcDb2dVertex
 10
62.128239
 20
88.145096
 30
0.0
  0
VERTEX
  5
10C
330
FB
100
AcDbEntity
  8
001
370
    50
100
AcDbVertex
100
AcDb2dVertex
 10
62.410953
 20
87.972607
 30
0.0
  0
VERTEX
  5
10D
330
FB
100
AcDbEntity
  8
001
370
    50
100
AcDbVertex
100
AcDb2dVertex
 10
62.686181
 20
87.788417
 30
0.0
  0
VERTEX
  5
10E
330
FB
100
AcDbEntity
  8
001
370
    50
100
AcDbVertex
100
AcDb2dVertex
 10
62.947363
 20
87.597457
 30
0.0
  0
VERTEX
  5
10F
330
FB
100
AcDbEntity
  8
001
370
    50
100
AcDbVertex
100
AcDb2dVertex
 10
63.200538
 20
87.395997
 30
0.0
  0
VERTEX
  5
110
330
FB
100
AcDbEntity
  8
001
370
    50
100
AcDbVertex
100
AcDb2dVertex
 10
63.445026
 20
87.184706
 30
0.0
  0
VERTEX
  5
111
330
FB
100
AcDbEntity
  8
001
370
    50
100
AcDbVertex
100
AcDb2dVertex
 10
63.680738
 20
86.96367
 30
0.0
  0
VERTEX
  5
112
330
FB
100
AcDbEntity
  8
001
370
    50
100
AcDbVertex
100
AcDb2dVertex
 10
63.913222
 20
86.726924
 30
0.0
  0
VERTEX
  5
113
330
FB
100
AcDbEntity
  8
001
370
    50
100
AcDbVertex
100
AcDb2dVertex
 10
64.13569
 20
86.480733
 30
0.0
  0
VERTEX
  5
114
330
FB
100
AcDbEntity
  8
001
370
    50
100
AcDbVertex
100
AcDb2dVertex
 10
64.347321
 20
86.226194
 30
0.0
  0
VERTEX
  5
115
330
FB
100
AcDbEntity
  8
001
370
    50
100
AcDbVertex
100
AcDb2dVertex
 10
64.548277
 20
85.963152
 30
0.0
  0
VERTEX
  5
116
330
FB
100
AcDbEntity
  8
001
370
    50
100
AcDbVertex
100
AcDb2dVertex
 10
64.73374
 20
85.698673
 30
0.0
  0
VERTEX
  5
117
330
FB
100
AcDbEntity
  8
001
370
    50
100
AcDbVertex
100
AcDb2dVertex
 10
64.908449
 20
85.426967
 30
0.0
  0
VERTEX
  5
118
330
FB
100
AcDbEntity
  8
001
370
    50
100
AcDbVertex
100
AcDb2dVertex
 10
65.071582
 20
85.149551
 30
0.0
  0
VERTEX
  5
119
330
FB
100
AcDbEntity
  8
001
370
    50
100
AcDbVertex
100
AcDb2dVertex
 10
65.223519
 20
84.865851
 30
0.0
  0
VERTEX
  5
11A
330
FB
100
AcDbEntity
  8
001
370
    50
100
AcDbVertex
100
AcDb2dVertex
 10
65.367147
 20
84.569417
 30
0.0
  0
VERTEX
  5
11B
330
FB
100
AcDbEntity
  8
001
370
    50
100
AcDbVertex
100
AcDb2dVertex
 10
65.498555
 20
84.267362
 30
0.0
  0
VERTEX
  5
11C
330
FB
100
AcDbEntity
  8
001
370
    50
100
AcDbVertex
100
AcDb2dVertex
 10
65.616946
 20
83.961875
 30
0.0
  0
VERTEX
  5
11D
330
FB
100
AcDbEntity
  8
001
370
    50
100
AcDbVertex
100
AcDb2dVertex
 10
65.722811
 20
83.651829
 30
0.0
  0
VERTEX
  5
11E
330
FB
100
AcDbEntity
  8
001
370
    50
100
AcDbVertex
100
AcDb2dVertex
 10
65.814243
 20
83.343758
 30
0.0
  0
VERTEX
  5
11F
330
FB
100
AcDbEntity
  8
001
370
    50
100
AcDbVertex
100
AcDb2dVertex
 10
65.89324
 20
83.032271
 30
0.0
  0
VERTEX
  5
120
330
FB
100
AcDbEntity
  8
001
370
    50
100
AcDbVertex
100
AcDb2dVertex
 10
65.959268
 20
82.719965
 30
0.0
  0
VERTEX
  5
121
330
FB
100
AcDbEntity
  8
001
370
    50
100
AcDbVertex
100
AcDb2dVertex
 10
66.012744
 20
82.405251
 30
0.0
  0
VERTEX
  5
122
330
FB
100
AcDbEntity
  8
001
370
    50
100
AcDbVertex
100
AcDb2dVertex
 10
66.054179
 20
82.082227
 30
0.0
  0
VERTEX
  5
123
330
FB
100
AcDbEntity
  8
001
370
    50
100
AcDbVertex
100
AcDb2dVertex
 10
66.0821
 20
81.757808
 30
0.0
  0
VERTEX
  5
124
330
FB
100
AcDbEntity
  8
001
370
    50
100
AcDbVertex
100
AcDb2dVertex
 10
66.09631
 20
81.435002
 30
0.0
  0
VERTEX
  5
125
330
FB
100
AcDbEntity
  8
001
370
    50
100
AcDbVertex
100
AcDb2dVertex
 10
66.097529
 20
81.111716
 30
0.0
  0
VERTEX
  5
126
330
FB
100
AcDbEntity
  8
001
370
    50
100
AcDbVertex
100
AcDb2dVertex
 10
66.074037
 20
80.614475
 30
0.0
  0
VERTEX
  5
127
330
FB
100
AcDbEntity
  8
001
370
    50
100
AcDbVertex
100
AcDb2dVertex
 10
66.015083
 20
80.120735
 30
0.0
  0
VERTEX
  5
128
330
FB
100
AcDbEntity
  8
001
370
    50
100
AcDbVertex
100
AcDb2dVertex
 10
65.918335
 20
79.630299
 30
0.0
  0
VERTEX
  5
129
330
FB
100
AcDbEntity
  8
001
370
    50
100
AcDbVertex
100
AcDb2dVertex
 10
65.800535
 20
79.143655
 30
0.0
  0
SEQEND
  5
FC
330
FB
100
AcDbEntity
  8
001
370
    50
  0
POLYLINE
  5
12A
330
1F
100
AcDbEntity
  8
001
370
    50
100
AcDb2dPolyline
 66
     1
 10
0.0
 20
0.0
 30
0.0
  0
VERTEX
  5
12C
330
12A
100
AcDbEntity
  8
001
370
    50
100
AcDbVertex
100
AcDb2dVertex
 10
60.580675
 20
88.842479
 30
0.0
  0
VERTEX
  5
12D
330
12A
100
AcDbEntity
  8
001
370
    50
100
AcDbVertex
100
AcDb2dVertex
 10
60.476984
 20
88.806935
 30
0.0
  0
VERTEX
  5
12E
330
12A
100
AcDbEntity
  8
001
370
    50
100
AcDbVertex
100
AcDb2dVertex
 10
60.329628
 20
88.754755
 30
0.0
  0
VERTEX
  5
12F
330
12A
100
AcDbEntity
  8
001
370
    50
100
AcDbVertex
100
AcDb2dVertex
 10
59.709821
 20
88.504886
 30
0.0
  0
VERTEX
  5
130
330
12A
100
AcDbEntity
  8
001
370
    50
100
AcDbVertex
100
AcDb2dVertex
 10
59.164144
 20
88.20225
 30
0.0
  0
VERTEX
  5
131
330
12A
100
AcDbEntity
  8
001
370
    50
100
AcDbVertex
100
AcDb2dVertex
 10
58.489788
 20
87.738397
 30
0.0
  0
VERTEX
  5
132
330
12A
100
AcDbEntity
  8
001
370
    50
100
AcDbVertex
100
AcDb2dVertex
 10
58.004498
 20
87.360007
 30
0.0
  0
SEQEND
  5
12B
330
12A
100
AcDbEntity
  8
001
370
    50
  0
LINE
  5
133
330
1F
100
AcDbEntity
  8
001
370
    50
100
AcDbLine
 10
53.222077
 20
87.360007
 30
0.0
 11
54.522651
 21
87.360007
 31
0.0
  0
POLYLINE
  5
134
330
1F
100
AcDbEntity
  8
001
370
    50
100
AcDb2dPolyline
 66
     1
 10
0.0
 20
0.0
 30
0.0
  0
VERTEX
  5
136
330
134
100
AcDbEntity
  8
001
370
    50
100
AcDbVertex
100
AcDb2dVertex
 10
53.222077
 20
87.360007
 30
0.0
  0
VERTEX
  5
137
330
134
100
AcDbEntity
  8
001
370
    50
100
AcDbVertex
100
AcDb2dVertex
 10
53.460085
 20
87.556206
 30
0.0
  0
VERTEX
  5
138
330
134
100
AcDbEntity
  8
001
370
    50
100
AcDbVertex
100
AcDb2dVertex
 10
53.703074
 20
87.745874
 30
0.0
  0
VERTEX
  5
139
330
134
100
AcDbEntity
  8
001
370
    50
100
AcDbVertex
100
AcDb2dVertex
 10
53.955132
 20
87.923972
 30
0.0
  0
VERTEX
  5
13A
330
134
100
AcDbEntity
  8
001
370
    50
100
AcDbVertex
100
AcDb2dVertex
 10
54.215252
 20
88.09037
 30
0.0
  0
VERTEX
  5
13B
330
134
100
AcDbEntity
  8
001
370
    50
100
AcDbVertex
100
AcDb2dVertex
 10
54.490071
 20
88.250732
 30
0.0
  0
VERTEX
  5
13C
330
134
100
AcDbEntity
  8
001
370
    50
100
AcDbVertex
100
AcDb2dVertex
 10
54.771251
 20
88.39951
 30
0.0
  0
VERTEX
  5
13D
330
134
100
AcDbEntity
  8
001
370
    50
100
AcDbVertex
100
AcDb2dVertex
 10
55.058686
 20
88.536222
 30
0.0
  0
VERTEX
  5
13E
330
134
100
AcDbEntity
  8
001
370
    50
100
AcDbVertex
100
AcDb2dVertex
 10
55.351696
 20
88.660588
 30
0.0
  0
VERTEX
  5
13F
330
134
100
AcDbEntity
  8
001
370
    50
100
AcDbVertex
100
AcDb2dVertex
 10
55.64088
 20
88.769399
 30
0.0
  0
VERTEX
  5
140
330
134
100
AcDbEntity
  8
001
370
    50
100
AcDbVertex
100
AcDb2dVertex
 10
55.934236
 20
88.866397
 30
0.0
  0
VERTEX
  5
141
330
134
100
AcDbEntity
  8
001
370
    50
100
AcDbVertex
100
AcDb2dVertex
 10
56.23133
 20
88.951495
 30
0.0
  0
VERTEX
  5
142
330
134
100
AcDbEntity
  8
001
370
    50
100
AcDbVertex
100
AcDb2dVertex
 10
56.53162
 20
89.024446
 30
0.0
  0
VERTEX
  5
143
330
134
100
AcDbEntity
  8
001
370
    50
100
AcDbVertex
100
AcDb2dVertex
 10
56.843012
 20
89.086605
 30
0.0
  0
VERTEX
  5
144
330
134
100
AcDbEntity
  8
001
370
    50
100
AcDbVertex
100
AcDb2dVertex
 10
57.156719
 20
89.136128
 30
0.0
  0
VERTEX
  5
145
330
134
100
AcDbEntity
  8
001
370
    50
100
AcDbVertex
100
AcDb2dVertex
 10
57.472215
 20
89.173096
 30
0.0
  0
VERTEX
  5
146
330
134
100
AcDbEntity
  8
001
370
    50
100
AcDbVertex
100
AcDb2dVertex
 10
57.788922
 20
89.196052
 30
0.0
  0
VERTEX
  5
147
330
134
100
AcDbEntity
  8
001
370
    50
100
AcDbVertex
100
AcDb2dVertex
 10
57.995334
 20
89.203233
 30
0.0
  0
VERTEX
  5
148
330
134
100
AcDbEntity
  8
001
370
    50
100
AcDbVertex
100
AcDb2dVertex
 10
58.201883
 20
89.20706
 30
0.0
  0
SEQEND
  5
135
330
134
100
AcDbEntity
  8
001
370
    50
  0
LINE
  5
149
330
1F
100
AcDbEntity
  8
001
370
    50
100
AcDbLine
 10
55.352385
 20
87.360007
 30
0.0
 11
58.004498
 21
87.360007
 31
0.0
  0
POLYLINE
  5
14A
330
1F
100
AcDbEntity
  8
001
370
    50
100
AcDb2dPolyline
 66
     1
 10
0.0
 20
0.0
 30
0.0
  0
VERTEX
  5
14C
330
14A
100
AcDbEntity
  8
001
370
    50
100
AcDbVertex
100
AcDb2dVertex
 10
55.352385
 20
87.360007
 30
0.0
  0
VERTEX
  5
14D
330
14A
100
AcDbEntity
  8
001
370
    50
100
AcDbVertex
100
AcDb2dVertex
 10
55.548256
 20
87.529791
 30
0.0
  0
VERTEX
  5
14E
330
14A
100
AcDbEntity
  8
001
370
    50
100
AcDbVertex
100
AcDb2dVertex
 10
55.745539
 20
87.697647
 30
0.0
  0
VERTEX
  5
14F
330
14A
100
AcDbEntity
  8
001
370
    50
100
AcDbVertex
100
AcDb2dVertex
 10
55.83427
 20
87.771336
 30
0.0
  0
VERTEX
  5
150
330
14A
100
AcDbEntity
  8
001
370
    50
100
AcDbVertex
100
AcDb2dVertex
 10
55.92381
 20
87.844335
 30
0.0
  0
VERTEX
  5
151
330
14A
100
AcDbEntity
  8
001
370
    50
100
AcDbVertex
100
AcDb2dVertex
 10
56.002996
 20
87.908069
 30
0.0
  0
VERTEX
  5
152
330
14A
100
AcDbEntity
  8
001
370
    50
100
AcDbVertex
100
AcDb2dVertex
 10
56.081233
 20
87.972142
 30
0.0
  0
VERTEX
  5
153
330
14A
100
AcDbEntity
  8
001
370
    50
100
AcDbVertex
100
AcDb2dVertex
 10
56.194255
 20
88.068284
 30
0.0
  0
VERTEX
  5
154
330
14A
100
AcDbEntity
  8
001
370
    50
100
AcDbVertex
100
AcDb2dVertex
 10
56.312226
 20
88.163551
 30
0.0
  0
VERTEX
  5
155
330
14A
100
AcDbEntity
  8
001
370
    50
100
AcDbVertex
100
AcDb2dVertex
 10
56.385582
 20
88.221627
 30
0.0
  0
VERTEX
  5
156
330
14A
100
AcDbEntity
  8
001
370
    50
100
AcDbVertex
100
AcDb2dVertex
 10
56.43896
 20
88.292478
 30
0.0
  0
VERTEX
  5
157
330
14A
100
AcDbEntity
  8
001
370
    50
100
AcDbVertex
100
AcDb2dVertex
 10
56.445438
 20
88.310224
 30
0.0
  0
VERTEX
  5
158
330
14A
100
AcDbEntity
  8
001
370
    50
100
AcDbVertex
100
AcDb2dVertex
 10
56.450906
 20
88.32857
 30
0.0
  0
SEQEND
  5
14B
330
14A
100
AcDbEntity
  8
001
370
    50
  0
LINE
  5
159
330
1F
100
AcDbEntity
  8
001
370
    50
100
AcDbLine
 10
70.661553
 20
111.783938
 30
0.0
 11
70.661553
 21
69.498374
 31
0.0
  0
POLYLINE
  5
15A
330
1F
100
AcDbEntity
  8
001
370
    50
100
AcDb2dPolyline
 66
     1
 10
0.0
 20
0.0
 30
0.0
  0
VERTEX
  5
15C
330
15A
100
AcDbEntity
  8
001
370
    50
100
AcDbVertex
100
AcDb2dVertex
 10
65.800535
 20
79.143655
 30
0.0
  0
VERTEX
  5
15D
330
15A
100
AcDbEntity
  8
001
370
    50
100
AcDbVertex
100
AcDb2dVertex
 10
66.753922
 20
77.101836
 30
0.0
  0
VERTEX
  5
15E
330
15A
100
AcDbEntity
  8
001
370
    50
100
AcDbVertex
100
AcDb2dVertex
 10
68.198557
 20
74.1427
 30
0.0
  0
VERTEX
  5
15F
330
15A
100
AcDbEntity
  8
001
370
    50
100
AcDbVertex
100
AcDb2dVertex
 10
69.638679
 20
71.373463
 30
0.0
  0
VERTEX
  5
160
330
15A
100
AcDbEntity
  8
001
370
    50
100
AcDbVertex
100
AcDb2dVertex
 10
70.661553
 20
69.498374
 30
0.0
  0
SEQEND
  5
15B
330
15A
100
AcDbEntity
  8
001
370
    50
  0
POLYLINE
  5
161
330
1F
100
AcDbEntity
  8
001
370
    50
100
AcDb2dPolyline
 66
     1
 10
0.0
 20
0.0
 30
0.0
  0
VERTEX
  5
163
330
161
100
AcDbEntity
  8
001
370
    50
100
AcDbVertex
100
AcDb2dVertex
 10
53.222077
 20
87.360007
 30
0.0
  0
VERTEX
  5
164
330
161
100
AcDbEntity
  8
001
370
    50
100
AcDbVertex
100
AcDb2dVertex
 10
52.948372
 20
87.357422
 30
0.0
  0
VERTEX
  5
165
330
161
100
AcDbEntity
  8
001
370
    50
100
AcDbVertex
100
AcDb2dVertex
 10
52.548342
 20
87.353644
 30
0.0
  0
VERTEX
  5
166
330
161
100
AcDbEntity
  8
001
370
    50
100
AcDbVertex
100
AcDb2dVertex
 10
52.148322
 20
87.349866
 30
0.0
  0
VERTEX
  5
167
330
161
100
AcDbEntity
  8
001
370
    50
100
AcDbVertex
100
AcDb2dVertex
 10
51.874625
 20
87.347281
 30
0.0
  0
SEQEND
  5
162
330
161
100
AcDbEntity
  8
001
370
    50
  0
LINE
  5
168
330
1F
100
AcDbEntity
  8
001
370
    50
100
AcDbLine
 10
51.874625
 20
105.224829
 30
0.0
 11
51.874625
 21
87.347281
 31
0.0
  0
POLYLINE
  5
169
330
1F
100
AcDbEntity
  8
001
370
    50
100
AcDb2dPolyline
 66
     1
 10
0.0
 20
0.0
 30
0.0
  0
VERTEX
  5
16B
330
169
100
AcDbEntity
  8
001
370
    50
100
AcDbVertex
100
AcDb2dVertex
 10
53.213215
 20
105.441983
 30
0.0
  0
VERTEX
  5
16C
330
169
100
AcDbEntity
  8
001
370
    50
100
AcDbVertex
100
AcDb2dVertex
 10
52.941287
 20
105.397946
 30
0.0
  0
VERTEX
  5
16D
330
169
100
AcDbEntity
  8
001
370
    50
100
AcDbVertex
100
AcDb2dVertex
 10
52.543865
 20
105.33352
 30
0.0
  0
VERTEX
  5
16E
330
169
100
AcDbEntity
  8
001
370
    50
100
AcDbVertex
100
AcDb2dVertex
 10
52.146499
 20
105.269011
 30
0.0
  0
VERTEX
  5
16F
330
169
100
AcDbEntity
  8
001
370
    50
100
AcDbVertex
100
AcDb2dVertex
 10
51.874625
 20
105.224829
 30
0.0
  0
SEQEND
  5
16A
330
169
100
AcDbEntity
  8
001
370
    50
  0
POLYLINE
  5
170
330
1F
100
AcDbEntity
  8
001
370
    50
100
AcDb2dPolyline
 66
     1
 10
0.0
 20
0.0
 30
0.0
  0
VERTEX
  5
172
330
170
100
AcDbEntity
  8
001
370
    50
100
AcDbVertex
100
AcDb2dVertex
 10
52.497045
 20
109.176888
 30
0.0
  0
VERTEX
  5
173
330
170
100
AcDbEntity
  8
001
370
    50
100
AcDbVertex
100
AcDb2dVertex
 10
52.615857
 20
108.433901
 30
0.0
  0
VERTEX
  5
174
330
170
100
AcDbEntity
  8
001
370
    50
100
AcDbVertex
100
AcDb2dVertex
 10
52.809144
 20
107.351481
 30
0.0
  0
VERTEX
  5
175
330
170
100
AcDbEntity
  8
001
370
    50
100
AcDbVertex
100
AcDb2dVertex
 10
53.041004
 20
106.216075
 30
0.0
  0
VERTEX
  5
176
330
170
100
AcDbEntity
  8
001
370
    50
100
AcDbVertex
100
AcDb2dVertex
 10
53.213215
 20
105.441983
 30
0.0
  0
SEQEND
  5
171
330
170
100
AcDbEntity
  8
001
370
    50
  0
POLYLINE
  5
177
330
1F
100
AcDbEntity
  8
001
370
    50
100
AcDb2dPolyline
 66
     1
 10
0.0
 20
0.0
 30
0.0
  0
VERTEX
  5
179
330
177
100
AcDbEntity
  8
001
370
    50
100
AcDbVertex
100
AcDb2dVertex
 10
70.661553
 20
111.783938
 30
0.0
  0
VERTEX
  5
17A
330
177
100
AcDbEntity
  8
001
370
    50
100
AcDbVertex
100
AcDb2dVertex
 10
69.08215
 20
111.564474
 30
0.0
  0
VERTEX
  5
17B
330
177
100
AcDbEntity
  8
001
370
    50
100
AcDbVertex
100
AcDb2dVertex
 10
66.841928
 20
111.250794
 30
0.0
  0
VERTEX
  5
17C
330
177
100
AcDbEntity
  8
001
370
    50
100
AcDbVertex
100
AcDb2dVertex
 10
64.161454
 20
110.872255
 30
0.0
  0
VERTEX
  5
17D
330
177
100
AcDbEntity
  8
001
370
    50
100
AcDbVertex
100
AcDb2dVertex
 10
61.261297
 20
110.458211
 30
0.0
  0
VERTEX
  5
17E
330
177
100
AcDbEntity
  8
001
370
    50
100
AcDbVertex
100
AcDb2dVertex
 10
58.556089
 20
110.067047
 30
0.0
  0
VERTEX
  5
17F
330
177
100
AcDbEntity
  8
001
370
    50
100
AcDbVertex
100
AcDb2dVertex
 10
56.056847
 20
109.702074
 30
0.0
  0
VERTEX
  5
180
330
177
100
AcDbEntity
  8
001
370
    50
100
AcDbVertex
100
AcDb2dVertex
 10
53.968767
 20
109.39484
 30
0.0
  0
VERTEX
  5
181
330
177
100
AcDbEntity
  8
001
370
    50
100
AcDbVertex
100
AcDb2dVertex
 10
52.497045
 20
109.176888
 30
0.0
  0
SEQEND
  5
178
330
177
100
AcDbEntity
  8
001
370
    50
  0
LINE
  5
182
330
1F
100
AcDbEntity
  8
001
370
    50
100
AcDbLine
 10
70.661553
 20
121.743713
 30
0.0
 11
70.661553
 21
120.727462
 31
0.0
  0
LINE
  5
183
330
1F
100
AcDbEntity
  8
001
370
    50
100
AcDbLine
 10
70.661553
 20
60.443713
 30
0.0
 11
78.661553
 21
68.443713
 31
0.0
  0
LINE
  5
184
330
1F
100
AcDbEntity
  8
001
370
    50
100
AcDbLine
 10
78.661553
 20
113.743713
 30
0.0
 11
70.661553
 21
121.743713
 31
0.0
  0
LINE
  5
185
330
1F
100
AcDbEntity
  8
001
370
    50
100
AcDbLine
 10
74.778837
 20
65.603835
 30
0.0
 11
70.661553
 21
61.165373
 31
0.0
  0
POLYLINE
  5
186
330
1F
100
AcDbEntity
  8
001
370
    50
100
AcDb2dPolyline
 66
     1
 10
0.0
 20
0.0
 30
0.0
  0
VERTEX
  5
188
330
186
100
AcDbEntity
  8
001
370
    50
100
AcDbVertex
100
AcDb2dVertex
 10
70.661553
 20
69.498374
 30
0.0
  0
VERTEX
  5
189
330
186
100
AcDbEntity
  8
001
370
    50
100
AcDbVertex
100
AcDb2dVertex
 10
71.46166
 20
68.520416
 30
0.0
  0
VERTEX
  5
18A
330
186
100
AcDbEntity
  8
001
370
    50
100
AcDbVertex
100
AcDb2dVertex
 10
72.560654
 20
67.247489
 30
0.0
  0
VERTEX
  5
18B
330
186
100
AcDbEntity
  8
001
370
    50
100
AcDbVertex
100
AcDb2dVertex
 10
73.352102
 20
66.437822
 30
0.0
  0
VERTEX
  5
18C
330
186
100
AcDbEntity
  8
001
370
    50
100
AcDbVertex
100
AcDb2dVertex
 10
74.361172
 20
65.786595
 30
0.0
  0
VERTEX
  5
18D
330
186
100
AcDbEntity
  8
001
370
    50
100
AcDbVertex
100
AcDb2dVertex
 10
74.604742
 20
65.674327
 30
0.0
  0
VERTEX
  5
18E
330
186
100
AcDbEntity
  8
001
370
    50
100
AcDbVertex
100
AcDb2dVertex
 10
74.778837
 20
65.603835
 30
0.0
  0
SEQEND
  5
187
330
186
100
AcDbEntity
  8
001
370
    50
  0
LINE
  5
18F
330
1F
100
AcDbEntity
  8
001
370
    50
100
AcDbLine
 10
74.778837
 20
110.217394
 30
0.0
 11
70.661553
 21
111.783938
 31
0.0
  0
POLYLINE
  5
190
330
1F
100
AcDbEntity
  8
001
370
    50
100
AcDb2dPolyline
 66
     1
 10
0.0
 20
0.0
 30
0.0
  0
VERTEX
  5
192
330
190
100
AcDbEntity
  8
001
370
    50
100
AcDbVertex
100
AcDb2dVertex
 10
74.778837
 20
110.217394
 30
0.0
  0
VERTEX
  5
193
330
190
100
AcDbEntity
  8
001
370
    50
100
AcDbVertex
100
AcDb2dVertex
 10
74.126712
 20
112.567166
 30
0.0
  0
VERTEX
  5
194
330
190
100
AcDbEntity
  8
001
370
    50
100
AcDbVertex
100
AcDb2dVertex
 10
72.967003
 20
115.929349
 30
0.0
  0
VERTEX
  5
195
330
190
100
AcDbEntity
  8
001
370
    50
100
AcDbVertex
100
AcDb2dVertex
 10
71.676397
 20
118.814107
 30
0.0
  0
VERTEX
  5
196
330
190
100
AcDbEntity
  8
001
370
    50
100
AcDbVertex
100
AcDb2dVertex
 10
70.661553
 20
120.727462
 30
0.0
  0
SEQEND
  5
191
330
190
100
AcDbEntity
  8
001
370
    50
  0
LINE
  5
197
330
1F
100
AcDbEntity
  8
001
370
    50
100
AcDbLine
 10
70.661553
 20
61.165373
 30
0.0
 11
70.661553
 21
60.443713
 31
0.0
  0
LINE
  5
198
330
1F
100
AcDbEntity
  8
001
370
    50
100
AcDbLine
 10
78.661553
 20
113.743713
 30
0.0
 11
78.661553
 21
68.443713
 31
0.0
  0
POLYLINE
  5
199
330
1F
100
AcDbEntity
  8
001
370
    50
100
AcDb2dPolyline
 66
     1
 10
0.0
 20
0.0
 30
0.0
  0
VERTEX
  5
19B
330
199
100
AcDbEntity
  8
001
370
    50
100
AcDbVertex
100
AcDb2dVertex
 10
39.815098
 20
87.197679
 30
0.0
  0
VERTEX
  5
19C
330
199
100
AcDbEntity
  8
001
370
    50
100
AcDbVertex
100
AcDb2dVertex
 10
41.210676
 20
87.215122
 30
0.0
  0
VERTEX
  5
19D
330
199
100
AcDbEntity
  8
001
370
    50
100
AcDbVertex
100
AcDb2dVertex
 10
42.606254
 20
87.232528
 30
0.0
  0
VERTEX
  5
19E
330
199
100
AcDbEntity
  8
001
370
    50
100
AcDbVertex
100
AcDb2dVertex
 10
44.028975
 20
87.250206
 30
0.0
  0
VERTEX
  5
19F
330
199
100
AcDbEntity
  8
001
370
    50
100
AcDbVertex
100
AcDb2dVertex
 10
45.451697
 20
87.267837
 30
0.0
  0
VERTEX
  5
1A0
330
199
100
AcDbEntity
  8
001
370
    50
100
AcDbVertex
100
AcDb2dVertex
 10
47.592672
 20
87.294336
 30
0.0
  0
VERTEX
  5
1A1
330
199
100
AcDbEntity
  8
001
370
    50
100
AcDbVertex
100
AcDb2dVertex
 10
49.733648
 20
87.320814
 30
0.0
  0
VERTEX
  5
1A2
330
199
100
AcDbEntity
  8
001
370
    50
100
AcDbVertex
100
AcDb2dVertex
 10
51.874625
 20
87.347281
 30
0.0
  0
SEQEND
  5
19A
330
199
100
AcDbEntity
  8
001
370
    50
  0
POLYLINE
  5
1A3
330
1F
100
AcDbEntity
  8
001
370
    50
100
AcDb2dPolyline
 66
     1
 10
0.0
 20
0.0
 30
0.0
  0
VERTEX
  5
1A5
330
1A3
100
AcDbEntity
  8
001
370
    50
100
AcDbVertex
100
AcDb2dVertex
 10
51.874625
 20
105.224829
 30
0.0
  0
VERTEX
  5
1A6
330
1A3
100
AcDbEntity
  8
001
370
    50
100
AcDbVertex
100
AcDb2dVertex
 10
50.345052
 20
103.694966
 30
0.0
  0
VERTEX
  5
1A7
330
1A3
100
AcDbEntity
  8
001
370
    50
100
AcDbVertex
100
AcDb2dVertex
 10
48.816598
 20
102.163994
 30
0.0
  0
VERTEX
  5
1A8
330
1A3
100
AcDbEntity
  8
001
370
    50
100
AcDbVertex
100
AcDb2dVertex
 10
47.290382
 20
100.630806
 30
0.0
  0
VERTEX
  5
1A9
330
1A3
100
AcDbEntity
  8
001
370
    50
100
AcDbVertex
100
AcDb2dVertex
 10
45.767521
 20
99.094293
 30
0.0
  0
VERTEX
  5
1AA
330
1A3
100
AcDbEntity
  8
001
370
    50
100
AcDbVertex
100
AcDb2dVertex
 10
44.257354
 20
97.561584
 30
0.0
  0
VERTEX
  5
1AB
330
1A3
100
AcDbEntity
  8
001
370
    50
100
AcDbVertex
100
AcDb2dVertex
 10
42.753128
 20
96.023021
 30
0.0
  0
VERTEX
  5
1AC
330
1A3
100
AcDbEntity
  8
001
370
    50
100
AcDbVertex
100
AcDb2dVertex
 10
42.008658
 20
95.255477
 30
0.0
  0
VERTEX
  5
1AD
330
1A3
100
AcDbEntity
  8
001
370
    50
100
AcDbVertex
100
AcDb2dVertex
 10
41.268382
 20
94.483915
 30
0.0
  0
VERTEX
  5
1AE
330
1A3
100
AcDbEntity
  8
001
370
    50
100
AcDbVertex
100
AcDb2dVertex
 10
40.540132
 20
93.713847
 30
0.0
  0
VERTEX
  5
1AF
330
1A3
100
AcDbEntity
  8
001
370
    50
100
AcDbVertex
100
AcDb2dVertex
 10
39.815098
 20
92.940718
 30
0.0
  0
SEQEND
  5
1A4
330
1A3
100
AcDbEntity
  8
001
370
    50
  0
LINE
  5
1B0
330
1F
100
AcDbEntity
  8
001
370
    50
100
AcDbLine
 10
58.004498
 20
87.360007
 30
0.0
 11
39.815098
 21
87.182495
 31
0.0
  0
POLYLINE
  5
1B1
330
1F
100
AcDbEntity
  8
001
370
    50
100
AcDb2dPolyline
 66
     1
 10
0.0
 20
0.0
 30
0.0
  0
VERTEX
  5
1B3
330
1B1
100
AcDbEntity
  8
001
370
    50
100
AcDbVertex
100
AcDb2dVertex
 10
54.533209
 20
87.351779
 30
0.0
  0
VERTEX
  5
1B4
330
1B1
100
AcDbEntity
  8
001
370
    50
100
AcDbVertex
100
AcDb2dVertex
 10
54.67496
 20
87.353158
 30
0.0
  0
VERTEX
  5
1B5
330
1B1
100
AcDbEntity
  8
001
370
    50
100
AcDbVertex
100
AcDb2dVertex
 10
54.882135
 20
87.355204
 30
0.0
  0
VERTEX
  5
1B6
330
1B1
100
AcDbEntity
  8
001
370
    50
100
AcDbVertex
100
AcDb2dVertex
 10
55.161347
 20
87.358031
 30
0.0
  0
VERTEX
  5
1B7
330
1B1
100
AcDbEntity
  8
001
370
    50
100
AcDbVertex
100
AcDb2dVertex
 10
55.352385
 20
87.360007
 30
0.0
  0
SEQEND
  5
1B2
330
1B1
100
AcDbEntity
  8
001
370
    50
  0
POLYLINE
  5
1B8
330
1F
100
AcDbEntity
  8
001
370
    50
100
AcDb2dPolyline
 66
     1
 10
0.0
 20
0.0
 30
0.0
  0
VERTEX
  5
1BA
330
1B8
100
AcDbEntity
  8
001
370
    50
100
AcDbVertex
100
AcDb2dVertex
 10
56.450906
 20
88.32857
 30
0.0
  0
VERTEX
  5
1BB
330
1B8
100
AcDbEntity
  8
001
370
    50
100
AcDbVertex
100
AcDb2dVertex
 10
56.433508
 20
88.339541
 30
0.0
  0
VERTEX
  5
1BC
330
1B8
100
AcDbEntity
  8
001
370
    50
100
AcDbVertex
100
AcDb2dVertex
 10
56.415521
 20
88.347781
 30
0.0
  0
VERTEX
  5
1BD
330
1B8
100
AcDbEntity
  8
001
370
    50
100
AcDbVertex
100
AcDb2dVertex
 10
56.370163
 20
88.349534
 30
0.0
  0
VERTEX
  5
1BE
330
1B8
100
AcDbEntity
  8
001
370
    50
100
AcDbVertex
100
AcDb2dVertex
 10
56.322642
 20
88.337573
 30
0.0
  0
VERTEX
  5
1BF
330
1B8
100
AcDbEntity
  8
001
370
    50
100
AcDbVertex
100
AcDb2dVertex
 10
56.248755
 20
88.317468
 30
0.0
  0
VERTEX
  5
1C0
330
1B8
100
AcDbEntity
  8
001
370
    50
100
AcDbVertex
100
AcDb2dVertex
 10
56.177435
 20
88.297754
 30
0.0
  0
VERTEX
  5
1C1
330
1B8
100
AcDbEntity
  8
001
370
    50
100
AcDbVertex
100
AcDb2dVertex
 10
56.070632
 20
88.261699
 30
0.0
  0
VERTEX
  5
1C2
330
1B8
100
AcDbEntity
  8
001
370
    50
100
AcDbVertex
100
AcDb2dVertex
 10
55.964485
 20
88.219891
 30
0.0
  0
VERTEX
  5
1C3
330
1B8
100
AcDbEntity
  8
001
370
    50
100
AcDbVertex
100
AcDb2dVertex
 10
55.833256
 20
88.164199
 30
0.0
  0
VERTEX
  5
1C4
330
1B8
100
AcDbEntity
  8
001
370
    50
100
AcDbVertex
100
AcDb2dVertex
 10
55.704049
 20
88.105274
 30
0.0
  0
VERTEX
  5
1C5
330
1B8
100
AcDbEntity
  8
001
370
    50
100
AcDbVertex
100
AcDb2dVertex
 10
55.548015
 20
88.028015
 30
0.0
  0
VERTEX
  5
1C6
330
1B8
100
AcDbEntity
  8
001
370
    50
100
AcDbVertex
100
AcDb2dVertex
 10
55.394237
 20
87.945838
 30
0.0
  0
VERTEX
  5
1C7
330
1B8
100
AcDbEntity
  8
001
370
    50
100
AcDbVertex
100
AcDb2dVertex
 10
55.223898
 20
87.848322
 30
0.0
  0
VERTEX
  5
1C8
330
1B8
100
AcDbEntity
  8
001
370
    50
100
AcDbVertex
100
AcDb2dVertex
 10
55.057294
 20
87.744867
 30
0.0
  0
VERTEX
  5
1C9
330
1B8
100
AcDbEntity
  8
001
370
    50
100
AcDbVertex
100
AcDb2dVertex
 10
54.786685
 20
87.557366
 30
0.0
  0
VERTEX
  5
1CA
330
1B8
100
AcDbEntity
  8
001
370
    50
100
AcDbVertex
100
AcDb2dVertex
 10
54.522651
 20
87.360007
 30
0.0
  0
SEQEND
  5
1B9
330
1B8
100
AcDbEntity
  8
001
370
    50
  0
POLYLINE
  5
1CB
330
1F
100
AcDbEntity
  8
001
370
    50
100
AcDb2dPolyline
 66
     1
 10
0.0
 20
0.0
 30
0.0
  0
VERTEX
  5
1CD
330
1CB
100
AcDbEntity
  8
001
370
    50
100
AcDbVertex
100
AcDb2dVertex
 10
67.394411
 20
121.743713
 30
0.0
  0
VERTEX
  5
1CE
330
1CB
100
AcDbEntity
  8
001
370
    50
100
AcDbVertex
100
AcDb2dVertex
 10
67.069585
 20
121.732533
 30
0.0
  0
VERTEX
  5
1CF
330
1CB
100
AcDbEntity
  8
001
370
    50
100
AcDbVertex
100
AcDb2dVertex
 10
66.597823
 20
121.685684
 30
0.0
  0
VERTEX
  5
1D0
330
1CB
100
AcDbEntity
  8
001
370
    50
100
AcDbVertex
100
AcDb2dVertex
 10
66.122089
 20
121.594767
 30
0.0
  0
VERTEX
  5
1D1
330
1CB
100
AcDbEntity
  8
001
370
    50
100
AcDbVertex
100
AcDb2dVertex
 10
65.800535
 20
121.511818
 30
0.0
  0
SEQEND
  5
1CC
330
1CB
100
AcDbEntity
  8
001
370
    50
  0
LINE
  5
1D2
330
1F
100
AcDbEntity
  8
001
370
    50
100
AcDbLine
 10
150.661553
 20
107.093713
 30
0.0
 11
81.661553
 21
107.093713
 31
0.0
  0
LINE
  5
1D3
330
1F
100
AcDbEntity
  8
001
370
    50
100
AcDbLine
 10
81.661553
 20
75.093713
 30
0.0
 11
150.661553
 21
75.093713
 31
0.0
  0
LINE
  5
1D4
330
1F
100
AcDbEntity
  8
001
370
    50
100
AcDbLine
 10
81.661553
 20
107.093713
 30
0.0
 11
81.661553
 21
75.093713
 31
0.0
  0
ARC
  5
1D5
330
1F
100
AcDbEntity
  8
001
 62
   253
370
    50
100
AcDbCircle
 10
150.661553
 20
99.093713
 30
0.0
 40
7.999999999999987
100
AcDbArc
 50
0.0
 51
90.0
  0
ARC
  5
1D6
330
1F
100
AcDbEntity
  8
001
 62
   253
370
    50
100
AcDbCircle
 10
150.661553
 20
83.093713
 30
0.0
 40
7.999999999999987
100
AcDbArc
 50
270.0
 51
0.0
  0
LINE
  5
1D7
330
1F
100
AcDbEntity
  8
001
 62
   253
370
    50
100
AcDbLine
 10
158.661553
 20
99.093713
 30
0.0
 11
158.661553
 21
83.093713
 31
0.0
  0
LINE
  5
1D8
330
1F
100
AcDbEntity
  8
001
370
    50
100
AcDbLine
 10
81.661553
 20
106.593713
 30
0.0
 11
78.661553
 21
106.593713
 31
0.0
  0
LINE
  5
1D9
330
1F
100
AcDbEntity
  8
001
370
    50
100
AcDbLine
 10
78.661553
 20
75.593713
 30
0.0
 11
81.661553
 21
75.593713
 31
0.0
  0
POLYLINE
  5
1DA
330
1F
100
AcDbEntity
  8
001
370
    50
100
AcDb2dPolyline
 66
     1
 10
0.0
 20
0.0
 30
0.0
  0
VERTEX
  5
1DC
330
1DA
100
AcDbEntity
  8
001
370
    50
100
AcDbVertex
100
AcDb2dVertex
 10
70.661553
 20
120.727462
 30
0.0
  0
VERTEX
  5
1DD
330
1DA
100
AcDbEntity
  8
001
370
    50
100
AcDbVertex
100
AcDb2dVertex
 10
70.317099
 20
120.927583
 30
0.0
  0
VERTEX
  5
1DE
330
1DA
100
AcDbEntity
  8
001
370
    50
100
AcDbVertex
100
AcDb2dVertex
 10
69.828636
 20
121.186756
 30
0.0
  0
VERTEX
  5
1DF
330
1DA
100
AcDbEntity
  8
001
370
    50
100
AcDbVertex
100
AcDb2dVertex
 10
68.773723
 20
121.601225
 30
0.0
  0
VERTEX
  5
1E0
330
1DA
100
AcDbEntity
  8
001
370
    50
100
AcDbVertex
100
AcDb2dVertex
 10
67.606118
 20
121.739593
 30
0.0
  0
VERTEX
  5
1E1
330
1DA
100
AcDbEntity
  8
001
370
    50
100
AcDbVertex
100
AcDb2dVertex
 10
67.481109
 20
121.742591
 30
0.0
  0
VERTEX
  5
1E2
330
1DA
100
AcDbEntity
  8
001
370
    50
100
AcDbVertex
100
AcDb2dVertex
 10
67.394411
 20
121.743713
 30
0.0
  0
SEQEND
  5
1DB
330
1DA
100
AcDbEntity
  8
001
370
    50
  0
LINE
  5
1E3
330
1F
100
AcDbEntity
  8
001
370
    50
100
AcDbLine
 10
70.661553
 20
121.743713
 30
0.0
 11
67.394411
 21
121.743713
 31
0.0
  0
POLYLINE
  5
1E4
330
1F
100
AcDbEntity
  8
001
370
    50
100
AcDb2dPolyline
 66
     1
 10
0.0
 20
0.0
 30
0.0
  0
VERTEX
  5
1E6
330
1E4
100
AcDbEntity
  8
001
370
    50
100
AcDbVertex
100
AcDb2dVertex
 10
53.222077
 20
119.306561
 30
0.0
  0
VERTEX
  5
1E7
330
1E4
100
AcDbEntity
  8
001
370
    50
100
AcDbVertex
100
AcDb2dVertex
 10
53.550303
 20
119.201216
 30
0.0
  0
VERTEX
  5
1E8
330
1E4
100
AcDbEntity
  8
001
370
    50
100
AcDbVertex
100
AcDb2dVertex
 10
53.880172
 20
119.101475
 30
0.0
  0
VERTEX
  5
1E9
330
1E4
100
AcDbEntity
  8
001
370
    50
100
AcDbVertex
100
AcDb2dVertex
 10
54.236146
 20
119.005819
 30
0.0
  0
VERTEX
  5
1EA
330
1E4
100
AcDbEntity
  8
001
370
    50
100
AcDbVertex
100
AcDb2dVertex
 10
54.594872
 20
118.920648
 30
0.0
  0
VERTEX
  5
1EB
330
1E4
100
AcDbEntity
  8
001
370
    50
100
AcDbVertex
100
AcDb2dVertex
 10
54.972373
 20
118.840717
 30
0.0
  0
VERTEX
  5
1EC
330
1E4
100
AcDbEntity
  8
001
370
    50
100
AcDbVertex
100
AcDb2dVertex
 10
55.351696
 20
118.770185
 30
0.0
  0
VERTEX
  5
1ED
330
1E4
100
AcDbEntity
  8
001
370
    50
100
AcDbVertex
100
AcDb2dVertex
 10
55.746165
 20
118.707378
 30
0.0
  0
VERTEX
  5
1EE
330
1E4
100
AcDbEntity
  8
001
370
    50
100
AcDbVertex
100
AcDb2dVertex
 10
56.142115
 20
118.65454
 30
0.0
  0
VERTEX
  5
1EF
330
1E4
100
AcDbEntity
  8
001
370
    50
100
AcDbVertex
100
AcDb2dVertex
 10
56.550298
 20
118.610075
 30
0.0
  0
VERTEX
  5
1F0
330
1E4
100
AcDbEntity
  8
001
370
    50
100
AcDbVertex
100
AcDb2dVertex
 10
56.959424
 20
118.575417
 30
0.0
  0
VERTEX
  5
1F1
330
1E4
100
AcDbEntity
  8
001
370
    50
100
AcDbVertex
100
AcDb2dVertex
 10
57.373929
 20
118.550298
 30
0.0
  0
VERTEX
  5
1F2
330
1E4
100
AcDbEntity
  8
001
370
    50
100
AcDbVertex
100
AcDb2dVertex
 10
57.788922
 20
118.535298
 30
0.0
  0
VERTEX
  5
1F3
330
1E4
100
AcDbEntity
  8
001
370
    50
100
AcDbVertex
100
AcDb2dVertex
 10
58.217585
 20
118.530534
 30
0.0
  0
VERTEX
  5
1F4
330
1E4
100
AcDbEntity
  8
001
370
    50
100
AcDbVertex
100
AcDb2dVertex
 10
58.646239
 20
118.536451
 30
0.0
  0
VERTEX
  5
1F5
330
1E4
100
AcDbEntity
  8
001
370
    50
100
AcDbVertex
100
AcDb2dVertex
 10
59.073755
 20
118.552768
 30
0.0
  0
VERTEX
  5
1F6
330
1E4
100
AcDbEntity
  8
001
370
    50
100
AcDbVertex
100
AcDb2dVertex
 10
59.500748
 20
118.579463
 30
0.0
  0
VERTEX
  5
1F7
330
1E4
100
AcDbEntity
  8
001
370
    50
100
AcDbVertex
100
AcDb2dVertex
 10
59.919345
 20
118.615863
 30
0.0
  0
VERTEX
  5
1F8
330
1E4
100
AcDbEntity
  8
001
370
    50
100
AcDbVertex
100
AcDb2dVertex
 10
60.336902
 20
118.662657
 30
0.0
  0
VERTEX
  5
1F9
330
1E4
100
AcDbEntity
  8
001
370
    50
100
AcDbVertex
100
AcDb2dVertex
 10
60.748834
 20
118.719476
 30
0.0
  0
VERTEX
  5
1FA
330
1E4
100
AcDbEntity
  8
001
370
    50
100
AcDbVertex
100
AcDb2dVertex
 10
61.159199
 20
118.786709
 30
0.0
  0
VERTEX
  5
1FB
330
1E4
100
AcDbEntity
  8
001
370
    50
100
AcDbVertex
100
AcDb2dVertex
 10
61.554159
 20
118.861546
 30
0.0
  0
VERTEX
  5
1FC
330
1E4
100
AcDbEntity
  8
001
370
    50
100
AcDbVertex
100
AcDb2dVertex
 10
61.947126
 20
118.946224
 30
0.0
  0
VERTEX
  5
1FD
330
1E4
100
AcDbEntity
  8
001
370
    50
100
AcDbVertex
100
AcDb2dVertex
 10
62.317884
 20
119.035934
 30
0.0
  0
VERTEX
  5
1FE
330
1E4
100
AcDbEntity
  8
001
370
    50
100
AcDbVertex
100
AcDb2dVertex
 10
62.686181
 20
119.135244
 30
0.0
  0
VERTEX
  5
1FF
330
1E4
100
AcDbEntity
  8
001
370
    50
100
AcDbVertex
100
AcDb2dVertex
 10
63.030911
 20
119.238156
 30
0.0
  0
VERTEX
  5
200
330
1E4
100
AcDbEntity
  8
001
370
    50
100
AcDbVertex
100
AcDb2dVertex
 10
63.372739
 20
119.350334
 30
0.0
  0
VERTEX
  5
201
330
1E4
100
AcDbEntity
  8
001
370
    50
100
AcDbVertex
100
AcDb2dVertex
 10
63.686562
 20
119.462833
 30
0.0
  0
VERTEX
  5
202
330
1E4
100
AcDbEntity
  8
001
370
    50
100
AcDbVertex
100
AcDb2dVertex
 10
63.997104
 20
119.584085
 30
0.0
  0
VERTEX
  5
203
330
1E4
100
AcDbEntity
  8
001
370
    50
100
AcDbVertex
100
AcDb2dVertex
 10
64.274593
 20
119.701829
 30
0.0
  0
VERTEX
  5
204
330
1E4
100
AcDbEntity
  8
001
370
    50
100
AcDbVertex
100
AcDb2dVertex
 10
64.548277
 20
119.828152
 30
0.0
  0
VERTEX
  5
205
330
1E4
100
AcDbEntity
  8
001
370
    50
100
AcDbVertex
100
AcDb2dVertex
 10
64.788237
 20
119.948744
 30
0.0
  0
VERTEX
  5
206
330
1E4
100
AcDbEntity
  8
001
370
    50
100
AcDbVertex
100
AcDb2dVertex
 10
65.023678
 20
120.077924
 30
0.0
  0
VERTEX
  5
207
330
1E4
100
AcDbEntity
  8
001
370
    50
100
AcDbVertex
100
AcDb2dVertex
 10
65.223095
 20
120.197631
 30
0.0
  0
VERTEX
  5
208
330
1E4
100
AcDbEntity
  8
001
370
    50
100
AcDbVertex
100
AcDb2dVertex
 10
65.417171
 20
120.325816
 30
0.0
  0
VERTEX
  5
209
330
1E4
100
AcDbEntity
  8
001
370
    50
100
AcDbVertex
100
AcDb2dVertex
 10
65.573584
 20
120.440302
 30
0.0
  0
VERTEX
  5
20A
330
1E4
100
AcDbEntity
  8
001
370
    50
100
AcDbVertex
100
AcDb2dVertex
 10
65.722811
 20
120.564036
 30
0.0
  0
VERTEX
  5
20B
330
1E4
100
AcDbEntity
  8
001
370
    50
100
AcDbVertex
100
AcDb2dVertex
 10
65.836373
 20
120.672748
 30
0.0
  0
VERTEX
  5
20C
330
1E4
100
AcDbEntity
  8
001
370
    50
100
AcDbVertex
100
AcDb2dVertex
 10
65.940432
 20
120.790329
 30
0.0
  0
VERTEX
  5
20D
330
1E4
100
AcDbEntity
  8
001
370
    50
100
AcDbVertex
100
AcDb2dVertex
 10
65.94698
 20
120.798532
 30
0.0
  0
VERTEX
  5
20E
330
1E4
100
AcDbEntity
  8
001
370
    50
100
AcDbVertex
100
AcDb2dVertex
 10
65.953501
 20
120.806759
 30
0.0
  0
SEQEND
  5
1E5
330
1E4
100
AcDbEntity
  8
001
370
    50
  0
POLYLINE
  5
20F
330
1F
100
AcDbEntity
  8
001
370
    50
100
AcDb2dPolyline
 66
     1
 10
0.0
 20
0.0
 30
0.0
  0
VERTEX
  5
211
330
20F
100
AcDbEntity
  8
001
370
    50
100
AcDbVertex
100
AcDb2dVertex
 10
53.222077
 20
119.306561
 30
0.0
  0
VERTEX
  5
212
330
20F
100
AcDbEntity
  8
001
370
    50
100
AcDbVertex
100
AcDb2dVertex
 10
52.948372
 20
119.307579
 30
0.0
  0
VERTEX
  5
213
330
20F
100
AcDbEntity
  8
001
370
    50
100
AcDbVertex
100
AcDb2dVertex
 10
52.548342
 20
119.309066
 30
0.0
  0
VERTEX
  5
214
330
20F
100
AcDbEntity
  8
001
370
    50
100
AcDbVertex
100
AcDb2dVertex
 10
52.148322
 20
119.310552
 30
0.0
  0
VERTEX
  5
215
330
20F
100
AcDbEntity
  8
001
370
    50
100
AcDbVertex
100
AcDb2dVertex
 10
51.874625
 20
119.311569
 30
0.0
  0
SEQEND
  5
210
330
20F
100
AcDbEntity
  8
001
370
    50
  0
POLYLINE
  5
216
330
1F
100
AcDbEntity
  8
001
370
    50
100
AcDb2dPolyline
 66
     1
 10
0.0
 20
0.0
 30
0.0
  0
VERTEX
  5
218
330
216
100
AcDbEntity
  8
001
370
    50
100
AcDbVertex
100
AcDb2dVertex
 10
62.852855
 20
85.70706
 30
0.0
  0
VERTEX
  5
219
330
216
100
AcDbEntity
  8
001
370
    50
100
AcDbVertex
100
AcDb2dVertex
 10
62.564389
 20
85.691708
 30
0.0
  0
VERTEX
  5
21A
330
216
100
AcDbEntity
  8
001
370
    50
100
AcDbVertex
100
AcDb2dVertex
 10
62.169615
 20
85.646291
 30
0.0
  0
VERTEX
  5
21B
330
216
100
AcDbEntity
  8
001
370
    50
100
AcDbVertex
100
AcDb2dVertex
 10
61.81978
 20
85.5713
 30
0.0
  0
VERTEX
  5
21C
330
216
100
AcDbEntity
  8
001
370
    50
100
AcDbVertex
100
AcDb2dVertex
 10
61.507134
 20
85.46583
 30
0.0
  0
VERTEX
  5
21D
330
216
100
AcDbEntity
  8
001
370
    50
100
AcDbVertex
100
AcDb2dVertex
 10
61.193671
 20
85.329987
 30
0.0
  0
VERTEX
  5
21E
330
216
100
AcDbEntity
  8
001
370
    50
100
AcDbVertex
100
AcDb2dVertex
 10
60.885542
 20
85.171162
 30
0.0
  0
VERTEX
  5
21F
330
216
100
AcDbEntity
  8
001
370
    50
100
AcDbVertex
100
AcDb2dVertex
 10
60.082066
 20
84.582146
 30
0.0
  0
VERTEX
  5
220
330
216
100
AcDbEntity
  8
001
370
    50
100
AcDbVertex
100
AcDb2dVertex
 10
59.445369
 20
83.70706
 30
0.0
  0
VERTEX
  5
221
330
216
100
AcDbEntity
  8
001
370
    50
100
AcDbVertex
100
AcDb2dVertex
 10
59.220876
 20
83.22451
 30
0.0
  0
VERTEX
  5
222
330
216
100
AcDbEntity
  8
001
370
    50
100
AcDbVertex
100
AcDb2dVertex
 10
59.088304
 20
82.870377
 30
0.0
  0
SEQEND
  5
217
330
216
100
AcDbEntity
  8
001
370
    50
  0
POLYLINE
  5
223
330
1F
100
AcDbEntity
  8
001
370
    50
100
AcDb2dPolyline
 66
     1
 10
0.0
 20
0.0
 30
0.0
  0
VERTEX
  5
225
330
223
100
AcDbEntity
  8
001
370
    50
100
AcDbVertex
100
AcDb2dVertex
 10
52.497045
 20
60.620467
 30
0.0
  0
VERTEX
  5
226
330
223
100
AcDbEntity
  8
001
370
    50
100
AcDbVertex
100
AcDb2dVertex
 10
53.920531
 20
60.650199
 30
0.0
  0
VERTEX
  5
227
330
223
100
AcDbEntity
  8
001
370
    50
100
AcDbVertex
100
AcDb2dVertex
 10
55.877751
 20
60.69487
 30
0.0
  0
VERTEX
  5
228
330
223
100
AcDbEntity
  8
001
370
    50
100
AcDbVertex
100
AcDb2dVertex
 10
58.235181
 20
60.753563
 30
0.0
  0
VERTEX
  5
229
330
223
100
AcDbEntity
  8
001
370
    50
100
AcDbVertex
100
AcDb2dVertex
 10
60.859299
 20
60.825364
 30
0.0
  0
VERTEX
  5
22A
330
223
100
AcDbEntity
  8
001
370
    50
100
AcDbVertex
100
AcDb2dVertex
 10
63.616583
 20
60.909355
 30
0.0
  0
VERTEX
  5
22B
330
223
100
AcDbEntity
  8
001
370
    50
100
AcDbVertex
100
AcDb2dVertex
 10
66.486971
 20
61.007329
 30
0.0
  0
VERTEX
  5
22C
330
223
100
AcDbEntity
  8
001
370
    50
100
AcDbVertex
100
AcDb2dVertex
 10
68.965711
 20
61.098972
 30
0.0
  0
VERTEX
  5
22D
330
223
100
AcDbEntity
  8
001
370
    50
100
AcDbVertex
100
AcDb2dVertex
 10
70.661553
 20
61.165373
 30
0.0
  0
SEQEND
  5
224
330
223
100
AcDbEntity
  8
001
370
    50
  0
LINE
  5
22E
330
1F
100
AcDbEntity
  8
001
370
    50
100
AcDbLine
 10
62.035311
 20
77.794359
 30
0.0
 11
52.497045
 21
60.620467
 31
0.0
  0
LINE
  5
22F
330
1F
100
AcDbEntity
  8
001
370
    50
100
AcDbLine
 10
56.356363
 20
109.733506
 30
0.0
 11
56.418877
 21
109.943195
 31
0.0
  0
LINE
  5
230
330
1F
100
AcDbEntity
  8
001
370
    50
100
AcDbLine
 10
52.997248
 20
60.443713
 30
0.0
 11
70.661553
 21
60.443713
 31
0.0
  0
POLYLINE
  5
231
330
1F
100
AcDbEntity
  8
001
370
    50
100
AcDb2dPolyline
 66
     1
 10
0.0
 20
0.0
 30
0.0
  0
VERTEX
  5
233
330
231
100
AcDbEntity
  8
001
370
    50
100
AcDbVertex
100
AcDb2dVertex
 10
52.497045
 20
60.620467
 30
0.0
  0
VERTEX
  5
234
330
231
100
AcDbEntity
  8
001
370
    50
100
AcDbVertex
100
AcDb2dVertex
 10
52.538852
 20
60.5865
 30
0.0
  0
VERTEX
  5
235
330
231
100
AcDbEntity
  8
001
370
    50
100
AcDbVertex
100
AcDb2dVertex
 10
52.603597
 20
60.54266
 30
0.0
  0
VERTEX
  5
236
330
231
100
AcDbEntity
  8
001
370
    50
100
AcDbVertex
100
AcDb2dVertex
 10
52.829285
 20
60.461129
 30
0.0
  0
VERTEX
  5
237
330
231
100
AcDbEntity
  8
001
370
    50
100
AcDbVertex
100
AcDb2dVertex
 10
52.997248
 20
60.443713
 30
0.0
  0
SEQEND
  5
232
330
231
100
AcDbEntity
  8
001
370
    50
  0
POLYLINE
  5
238
330
1F
100
AcDbEntity
  8
001
370
    50
100
AcDb2dPolyline
 66
     1
 10
0.0
 20
0.0
 30
0.0
  0
VERTEX
  5
23A
330
238
100
AcDbEntity
  8
001
370
    50
100
AcDbVertex
100
AcDb2dVertex
 10
62.035311
 20
77.794359
 30
0.0
  0
VERTEX
  5
23B
330
238
100
AcDbEntity
  8
001
370
    50
100
AcDbVertex
100
AcDb2dVertex
 10
62.089778
 20
77.78306
 30
0.0
  0
VERTEX
  5
23C
330
238
100
AcDbEntity
  8
001
370
    50
100
AcDbVertex
100
AcDb2dVertex
 10
62.169615
 20
77.767829
 30
0.0
  0
VERTEX
  5
23D
330
238
100
AcDbEntity
  8
001
370
    50
100
AcDbVertex
100
AcDb2dVertex
 10
62.573828
 20
77.718543
 30
0.0
  0
VERTEX
  5
23E
330
238
100
AcDbEntity
  8
001
370
    50
100
AcDbVertex
100
AcDb2dVertex
 10
62.852855
 20
77.70706
 30
0.0
  0
SEQEND
  5
239
330
238
100
AcDbEntity
  8
001
370
    50
  0
POLYLINE
  5
23F
330
1F
100
AcDbEntity
  8
001
370
    50
100
AcDb2dPolyline
 66
     1
 10
0.0
 20
0.0
 30
0.0
  0
VERTEX
  5
241
330
23F
100
AcDbEntity
  8
001
370
    50
100
AcDbVertex
100
AcDb2dVertex
 10
65.229936
 20
84.894561
 30
0.0
  0
VERTEX
  5
242
330
23F
100
AcDbEntity
  8
001
370
    50
100
AcDbVertex
100
AcDb2dVertex
 10
65.061932
 20
85.014598
 30
0.0
  0
VERTEX
  5
243
330
23F
100
AcDbEntity
  8
001
370
    50
100
AcDbVertex
100
AcDb2dVertex
 10
64.820168
 20
85.171162
 30
0.0
  0
VERTEX
  5
244
330
23F
100
AcDbEntity
  8
001
370
    50
100
AcDbVertex
100
AcDb2dVertex
 10
64.498912
 20
85.342428
 30
0.0
  0
VERTEX
  5
245
330
23F
100
AcDbEntity
  8
001
370
    50
100
AcDbVertex
100
AcDb2dVertex
 10
64.198577
 20
85.46583
 30
0.0
  0
VERTEX
  5
246
330
23F
100
AcDbEntity
  8
001
370
    50
100
AcDbVertex
100
AcDb2dVertex
 10
63.889376
 20
85.568035
 30
0.0
  0
VERTEX
  5
247
330
23F
100
AcDbEntity
  8
001
370
    50
100
AcDbVertex
100
AcDb2dVertex
 10
63.536096
 20
85.646291
 30
0.0
  0
VERTEX
  5
248
330
23F
100
AcDbEntity
  8
001
370
    50
100
AcDbVertex
100
AcDb2dVertex
 10
63.140634
 20
85.69236
 30
0.0
  0
VERTEX
  5
249
330
23F
100
AcDbEntity
  8
001
370
    50
100
AcDbVertex
100
AcDb2dVertex
 10
62.852855
 20
85.70706
 30
0.0
  0
SEQEND
  5
240
330
23F
100
AcDbEntity
  8
001
370
    50
  0
POLYLINE
  5
24A
330
1F
100
AcDbEntity
  8
001
370
    50
100
AcDb2dPolyline
 66
     1
 10
0.0
 20
0.0
 30
0.0
  0
VERTEX
  5
24C
330
24A
100
AcDbEntity
  8
001
370
    50
100
AcDbVertex
100
AcDb2dVertex
 10
62.852855
 20
77.70706
 30
0.0
  0
VERTEX
  5
24D
330
24A
100
AcDbEntity
  8
001
370
    50
100
AcDbVertex
100
AcDb2dVertex
 10
63.140949
 20
77.721879
 30
0.0
  0
VERTEX
  5
24E
330
24A
100
AcDbEntity
  8
001
370
    50
100
AcDbVertex
100
AcDb2dVertex
 10
63.536096
 20
77.767829
 30
0.0
  0
VERTEX
  5
24F
330
24A
100
AcDbEntity
  8
001
370
    50
100
AcDbVertex
100
AcDb2dVertex
 10
63.887796
 20
77.845489
 30
0.0
  0
VERTEX
  5
250
330
24A
100
AcDbEntity
  8
001
370
    50
100
AcDbVertex
100
AcDb2dVertex
 10
64.198577
 20
77.948289
 30
0.0
  0
VERTEX
  5
251
330
24A
100
AcDbEntity
  8
001
370
    50
100
AcDbVertex
100
AcDb2dVertex
 10
64.504931
 20
78.073959
 30
0.0
  0
VERTEX
  5
252
330
24A
100
AcDbEntity
  8
001
370
    50
100
AcDbVertex
100
AcDb2dVertex
 10
64.820168
 20
78.242958
 30
0.0
  0
VERTEX
  5
253
330
24A
100
AcDbEntity
  8
001
370
    50
100
AcDbVertex
100
AcDb2dVertex
 10
65.429035
 20
78.702784
 30
0.0
  0
VERTEX
  5
254
330
24A
100
AcDbEntity
  8
001
370
    50
100
AcDbVertex
100
AcDb2dVertex
 10
65.834286
 20
79.096842
 30
0.0
  0
SEQEND
  5
24B
330
24A
100
AcDbEntity
  8
001
370
    50
  0
POLYLINE
  5
255
330
1F
100
AcDbEntity
  8
001
370
    50
100
AcDb2dPolyline
 66
     1
 10
0.0
 20
0.0
 30
0.0
  0
VERTEX
  5
257
330
255
100
AcDbEntity
  8
001
370
    50
100
AcDbVertex
100
AcDb2dVertex
 10
63.254379
 20
85.686177
 30
0.0
  0
VERTEX
  5
258
330
255
100
AcDbEntity
  8
001
370
    50
100
AcDbVertex
100
AcDb2dVertex
 10
63.137371
 20
85.671323
 30
0.0
  0
VERTEX
  5
259
330
255
100
AcDbEntity
  8
001
370
    50
100
AcDbVertex
100
AcDb2dVertex
 10
62.972663
 20
85.646291
 30
0.0
  0
VERTEX
  5
25A
330
255
100
AcDbEntity
  8
001
370
    50
100
AcDbVertex
100
AcDb2dVertex
 10
62.617572
 20
85.569151
 30
0.0
  0
VERTEX
  5
25B
330
255
100
AcDbEntity
  8
001
370
    50
100
AcDbVertex
100
AcDb2dVertex
 10
62.310182
 20
85.46583
 30
0.0
  0
VERTEX
  5
25C
330
255
100
AcDbEntity
  8
001
370
    50
100
AcDbVertex
100
AcDb2dVertex
 10
61.998296
 20
85.330632
 30
0.0
  0
VERTEX
  5
25D
330
255
100
AcDbEntity
  8
001
370
    50
100
AcDbVertex
100
AcDb2dVertex
 10
61.688591
 20
85.171162
 30
0.0
  0
VERTEX
  5
25E
330
255
100
AcDbEntity
  8
001
370
    50
100
AcDbVertex
100
AcDb2dVertex
 10
60.883614
 20
84.581533
 30
0.0
  0
VERTEX
  5
25F
330
255
100
AcDbEntity
  8
001
370
    50
100
AcDbVertex
100
AcDb2dVertex
 10
60.248418
 20
83.70706
 30
0.0
  0
VERTEX
  5
260
330
255
100
AcDbEntity
  8
001
370
    50
100
AcDbVertex
100
AcDb2dVertex
 10
60.024013
 20
83.224546
 30
0.0
  0
VERTEX
  5
261
330
255
100
AcDbEntity
  8
001
370
    50
100
AcDbVertex
100
AcDb2dVertex
 10
59.891352
 20
82.870377
 30
0.0
  0
SEQEND
  5
256
330
255
100
AcDbEntity
  8
001
370
    50
  0
LINE
  5
262
330
1F
100
AcDbEntity
  8
001
370
    50
100
AcDbLine
 10
62.035311
 20
77.794359
 30
0.0
 11
62.838359
 21
77.794359
 31
0.0
  0
POLYLINE
  5
263
330
1F
100
AcDbEntity
  8
001
370
    50
100
AcDb2dPolyline
 66
     1
 10
0.0
 20
0.0
 30
0.0
  0
VERTEX
  5
265
330
263
100
AcDbEntity
  8
001
370
    50
100
AcDbVertex
100
AcDb2dVertex
 10
62.838359
 20
77.794359
 30
0.0
  0
VERTEX
  5
266
330
263
100
AcDbEntity
  8
001
370
    50
100
AcDbVertex
100
AcDb2dVertex
 10
62.892822
 20
77.783062
 30
0.0
  0
VERTEX
  5
267
330
263
100
AcDbEntity
  8
001
370
    50
100
AcDbVertex
100
AcDb2dVertex
 10
62.972663
 20
77.767829
 30
0.0
  0
VERTEX
  5
268
330
263
100
AcDbEntity
  8
001
370
    50
100
AcDbVertex
100
AcDb2dVertex
 10
63.139588
 20
77.741887
 30
0.0
  0
VERTEX
  5
269
330
263
100
AcDbEntity
  8
001
370
    50
100
AcDbVertex
100
AcDb2dVertex
 10
63.254379
 20
77.727942
 30
0.0
  0
SEQEND
  5
264
330
263
100
AcDbEntity
  8
001
370
    50
  0
POLYLINE
  5
26A
330
1F
100
AcDbEntity
  8
001
370
    50
100
AcDb2dPolyline
 66
     1
 10
0.0
 20
0.0
 30
0.0
  0
VERTEX
  5
26C
330
26A
100
AcDbEntity
  8
001
370
    50
100
AcDbVertex
100
AcDb2dVertex
 10
39.815098
 20
101.485851
 30
0.0
  0
VERTEX
  5
26D
330
26A
100
AcDbEntity
  8
001
370
    50
100
AcDbVertex
100
AcDb2dVertex
 10
41.206241
 20
103.607665
 30
0.0
  0
VERTEX
  5
26E
330
26A
100
AcDbEntity
  8
001
370
    50
100
AcDbVertex
100
AcDb2dVertex
 10
42.606254
 20
105.723572
 30
0.0
  0
VERTEX
  5
26F
330
26A
100
AcDbEntity
  8
001
370
    50
100
AcDbVertex
100
AcDb2dVertex
 10
44.023657
 20
107.832852
 30
0.0
  0
VERTEX
  5
270
330
26A
100
AcDbEntity
  8
001
370
    50
100
AcDbVertex
100
AcDb2dVertex
 10
45.451697
 20
109.935003
 30
0.0
  0
VERTEX
  5
271
330
26A
100
AcDbEntity
  8
001
370
    50
100
AcDbVertex
100
AcDb2dVertex
 10
46.732946
 20
111.812624
 30
0.0
  0
VERTEX
  5
272
330
26A
100
AcDbEntity
  8
001
370
    50
100
AcDbVertex
100
AcDb2dVertex
 10
48.016419
 20
113.688707
 30
0.0
  0
VERTEX
  5
273
330
26A
100
AcDbEntity
  8
001
370
    50
100
AcDbVertex
100
AcDb2dVertex
 10
49.301561
 20
115.563635
 30
0.0
  0
VERTEX
  5
274
330
26A
100
AcDbEntity
  8
001
370
    50
100
AcDbVertex
100
AcDb2dVertex
 10
50.587815
 20
117.437795
 30
0.0
  0
VERTEX
  5
275
330
26A
100
AcDbEntity
  8
001
370
    50
100
AcDbVertex
100
AcDb2dVertex
 10
51.874625
 20
119.311569
 30
0.0
  0
SEQEND
  5
26B
330
26A
100
AcDbEntity
  8
001
370
    50
  0
POLYLINE
  5
276
330
1F
100
AcDbEntity
  8
001
370
    50
100
AcDb2dPolyline
 66
     1
 10
0.0
 20
0.0
 30
0.0
  0
VERTEX
  5
278
330
276
100
AcDbEntity
  8
001
370
    50
100
AcDbVertex
100
AcDb2dVertex
 10
54.522651
 20
113.153342
 30
0.0
  0
VERTEX
  5
279
330
276
100
AcDbEntity
  8
001
370
    50
100
AcDbVertex
100
AcDb2dVertex
 10
54.432475
 20
113.14292
 30
0.0
  0
VERTEX
  5
27A
330
276
100
AcDbEntity
  8
001
370
    50
100
AcDbVertex
100
AcDb2dVertex
 10
54.304688
 20
113.123859
 30
0.0
  0
VERTEX
  5
27B
330
276
100
AcDbEntity
  8
001
370
    50
100
AcDbVertex
100
AcDb2dVertex
 10
53.913653
 20
113.021147
 30
0.0
  0
VERTEX
  5
27C
330
276
100
AcDbEntity
  8
001
370
    50
100
AcDbVertex
100
AcDb2dVertex
 10
53.587837
 20
112.864859
 30
0.0
  0
VERTEX
  5
27D
330
276
100
AcDbEntity
  8
001
370
    50
100
AcDbVertex
100
AcDb2dVertex
 10
53.424969
 20
112.764981
 30
0.0
  0
VERTEX
  5
27E
330
276
100
AcDbEntity
  8
001
370
    50
100
AcDbVertex
100
AcDb2dVertex
 10
53.266133
 20
112.651026
 30
0.0
  0
VERTEX
  5
27F
330
276
100
AcDbEntity
  8
001
370
    50
100
AcDbVertex
100
AcDb2dVertex
 10
53.118034
 20
112.523941
 30
0.0
  0
VERTEX
  5
280
330
276
100
AcDbEntity
  8
001
370
    50
100
AcDbVertex
100
AcDb2dVertex
 10
52.982228
 20
112.389079
 30
0.0
  0
VERTEX
  5
281
330
276
100
AcDbEntity
  8
001
370
    50
100
AcDbVertex
100
AcDb2dVertex
 10
52.750052
 20
112.106244
 30
0.0
  0
VERTEX
  5
282
330
276
100
AcDbEntity
  8
001
370
    50
100
AcDbVertex
100
AcDb2dVertex
 10
52.560908
 20
111.753905
 30
0.0
  0
VERTEX
  5
283
330
276
100
AcDbEntity
  8
001
370
    50
100
AcDbVertex
100
AcDb2dVertex
 10
52.467104
 20
111.494494
 30
0.0
  0
VERTEX
  5
284
330
276
100
AcDbEntity
  8
001
370
    50
100
AcDbVertex
100
AcDb2dVertex
 10
52.413723
 20
111.304045
 30
0.0
  0
SEQEND
  5
277
330
276
100
AcDbEntity
  8
001
370
    50
  0
LINE
  5
285
330
1F
100
AcDbEntity
  8
001
370
    50
100
AcDbLine
 10
39.815098
 20
98.156642
 30
0.0
 11
39.815098
 21
101.485851
 31
0.0
  0
POLYLINE
  5
286
330
1F
100
AcDbEntity
  8
001
370
    50
100
AcDb2dPolyline
 66
     1
 10
0.0
 20
0.0
 30
0.0
  0
VERTEX
  5
288
330
286
100
AcDbEntity
  8
001
370
    50
100
AcDbVertex
100
AcDb2dVertex
 10
52.413723
 20
111.304045
 30
0.0
  0
VERTEX
  5
289
330
286
100
AcDbEntity
  8
001
370
    50
100
AcDbVertex
100
AcDb2dVertex
 10
52.38139
 20
111.036349
 30
0.0
  0
VERTEX
  5
28A
330
286
100
AcDbEntity
  8
001
370
    50
100
AcDbVertex
100
AcDb2dVertex
 10
52.377977
 20
110.672881
 30
0.0
  0
VERTEX
  5
28B
330
286
100
AcDbEntity
  8
001
370
    50
100
AcDbVertex
100
AcDb2dVertex
 10
52.402859
 20
110.490109
 30
0.0
  0
VERTEX
  5
28C
330
286
100
AcDbEntity
  8
001
370
    50
100
AcDbVertex
100
AcDb2dVertex
 10
52.446045
 20
110.321806
 30
0.0
  0
VERTEX
  5
28D
330
286
100
AcDbEntity
  8
001
370
    50
100
AcDbVertex
100
AcDb2dVertex
 10
52.503456
 20
110.156296
 30
0.0
  0
VERTEX
  5
28E
330
286
100
AcDbEntity
  8
001
370
    50
100
AcDbVertex
100
AcDb2dVertex
 10
52.576829
 20
109.99339
 30
0.0
  0
VERTEX
  5
28F
330
286
100
AcDbEntity
  8
001
370
    50
100
AcDbVertex
100
AcDb2dVertex
 10
52.666317
 20
109.839352
 30
0.0
  0
VERTEX
  5
290
330
286
100
AcDbEntity
  8
001
370
    50
100
AcDbVertex
100
AcDb2dVertex
 10
52.766356
 20
109.697612
 30
0.0
  0
VERTEX
  5
291
330
286
100
AcDbEntity
  8
001
370
    50
100
AcDbVertex
100
AcDb2dVertex
 10
52.874466
 20
109.569359
 30
0.0
  0
VERTEX
  5
292
330
286
100
AcDbEntity
  8
001
370
    50
100
AcDbVertex
100
AcDb2dVertex
 10
53.008866
 20
109.44346
 30
0.0
  0
VERTEX
  5
293
330
286
100
AcDbEntity
  8
001
370
    50
100
AcDbVertex
100
AcDb2dVertex
 10
53.130705
 20
109.348451
 30
0.0
  0
VERTEX
  5
294
330
286
100
AcDbEntity
  8
001
370
    50
100
AcDbVertex
100
AcDb2dVertex
 10
53.221752
 20
109.284471
 30
0.0
  0
SEQEND
  5
287
330
286
100
AcDbEntity
  8
001
370
    50
  0
POLYLINE
  5
295
330
1F
100
AcDbEntity
  8
001
370
    50
100
AcDb2dPolyline
 66
     1
 10
0.0
 20
0.0
 30
0.0
  0
VERTEX
  5
297
330
295
100
AcDbEntity
  8
001
370
    50
100
AcDbVertex
100
AcDb2dVertex
 10
56.418877
 20
109.943195
 30
0.0
  0
VERTEX
  5
298
330
295
100
AcDbEntity
  8
001
370
    50
100
AcDbVertex
100
AcDb2dVertex
 10
56.429633
 20
110.003755
 30
0.0
  0
VERTEX
  5
299
330
295
100
AcDbEntity
  8
001
370
    50
100
AcDbVertex
100
AcDb2dVertex
 10
56.43896
 20
110.064515
 30
0.0
  0
VERTEX
  5
29A
330
295
100
AcDbEntity
  8
001
370
    50
100
AcDbVertex
100
AcDb2dVertex
 10
56.450576
 20
110.206157
 30
0.0
  0
VERTEX
  5
29B
330
295
100
AcDbEntity
  8
001
370
    50
100
AcDbVertex
100
AcDb2dVertex
 10
56.449655
 20
110.348514
 30
0.0
  0
VERTEX
  5
29C
330
295
100
AcDbEntity
  8
001
370
    50
100
AcDbVertex
100
AcDb2dVertex
 10
56.437746
 20
110.497412
 30
0.0
  0
VERTEX
  5
29D
330
295
100
AcDbEntity
  8
001
370
    50
100
AcDbVertex
100
AcDb2dVertex
 10
56.415521
 20
110.645016
 30
0.0
  0
VERTEX
  5
29E
330
295
100
AcDbEntity
  8
001
370
    50
100
AcDbVertex
100
AcDb2dVertex
 10
56.375463
 20
110.822008
 30
0.0
  0
VERTEX
  5
29F
330
295
100
AcDbEntity
  8
001
370
    50
100
AcDbVertex
100
AcDb2dVertex
 10
56.322642
 20
110.995719
 30
0.0
  0
VERTEX
  5
2A0
330
295
100
AcDbEntity
  8
001
370
    50
100
AcDbVertex
100
AcDb2dVertex
 10
56.255563
 20
111.173089
 30
0.0
  0
VERTEX
  5
2A1
330
295
100
AcDbEntity
  8
001
370
    50
100
AcDbVertex
100
AcDb2dVertex
 10
56.177435
 20
111.345838
 30
0.0
  0
VERTEX
  5
2A2
330
295
100
AcDbEntity
  8
001
370
    50
100
AcDbVertex
100
AcDb2dVertex
 10
56.076635
 20
111.535918
 30
0.0
  0
VERTEX
  5
2A3
330
295
100
AcDbEntity
  8
001
370
    50
100
AcDbVertex
100
AcDb2dVertex
 10
55.964485
 20
111.71959
 30
0.0
  0
VERTEX
  5
2A4
330
295
100
AcDbEntity
  8
001
370
    50
100
AcDbVertex
100
AcDb2dVertex
 10
55.838971
 20
111.90167
 30
0.0
  0
VERTEX
  5
2A5
330
295
100
AcDbEntity
  8
001
370
    50
100
AcDbVertex
100
AcDb2dVertex
 10
55.704049
 20
112.07684
 30
0.0
  0
VERTEX
  5
2A6
330
295
100
AcDbEntity
  8
001
370
    50
100
AcDbVertex
100
AcDb2dVertex
 10
55.553169
 20
112.253389
 30
0.0
  0
VERTEX
  5
2A7
330
295
100
AcDbEntity
  8
001
370
    50
100
AcDbVertex
100
AcDb2dVertex
 10
55.394237
 20
112.422827
 30
0.0
  0
VERTEX
  5
2A8
330
295
100
AcDbEntity
  8
001
370
    50
100
AcDbVertex
100
AcDb2dVertex
 10
55.229228
 20
112.584711
 30
0.0
  0
VERTEX
  5
2A9
330
295
100
AcDbEntity
  8
001
370
    50
100
AcDbVertex
100
AcDb2dVertex
 10
55.057294
 20
112.739014
 30
0.0
  0
VERTEX
  5
2AA
330
295
100
AcDbEntity
  8
001
370
    50
100
AcDbVertex
100
AcDb2dVertex
 10
54.79387
 20
112.950891
 30
0.0
  0
VERTEX
  5
2AB
330
295
100
AcDbEntity
  8
001
370
    50
100
AcDbVertex
100
AcDb2dVertex
 10
54.522651
 20
113.153342
 30
0.0
  0
SEQEND
  5
296
330
295
100
AcDbEntity
  8
001
370
    50
  0
LINE
  5
2AC
330
1F
100
AcDbEntity
  8
001
370
    50
100
AcDbLine
 10
39.682492
 20
99.315538
 30
0.0
 11
39.815098
 21
99.408719
 31
0.0
  0
POLYLINE
  5
2AD
330
1F
100
AcDbEntity
  8
001
370
    50
100
AcDb2dPolyline
 66
     1
 10
0.0
 20
0.0
 30
0.0
  0
VERTEX
  5
2AF
330
2AD
100
AcDbEntity
  8
001
370
    50
100
AcDbVertex
100
AcDb2dVertex
 10
39.524964
 20
99.097575
 30
0.0
  0
VERTEX
  5
2B0
330
2AD
100
AcDbEntity
  8
001
370
    50
100
AcDbVertex
100
AcDb2dVertex
 10
39.520509
 20
99.053973
 30
0.0
  0
VERTEX
  5
2B1
330
2AD
100
AcDbEntity
  8
001
370
    50
100
AcDbVertex
100
AcDb2dVertex
 10
39.521607
 20
98.993534
 30
0.0
  0
VERTEX
  5
2B2
330
2AD
100
AcDbEntity
  8
001
370
    50
100
AcDbVertex
100
AcDb2dVertex
 10
39.533611
 20
98.935408
 30
0.0
  0
VERTEX
  5
2B3
330
2AD
100
AcDbEntity
  8
001
370
    50
100
AcDbVertex
100
AcDb2dVertex
 10
39.554026
 20
98.885114
 30
0.0
  0
VERTEX
  5
2B4
330
2AD
100
AcDbEntity
  8
001
370
    50
100
AcDbVertex
100
AcDb2dVertex
 10
39.583244
 20
98.830376
 30
0.0
  0
VERTEX
  5
2B5
330
2AD
100
AcDbEntity
  8
001
370
    50
100
AcDbVertex
100
AcDb2dVertex
 10
39.621234
 20
98.77561
 30
0.0
  0
VERTEX
  5
2B6
330
2AD
100
AcDbEntity
  8
001
370
    50
100
AcDbVertex
100
AcDb2dVertex
 10
39.727418
 20
98.664902
 30
0.0
  0
VERTEX
  5
2B7
330
2AD
100
AcDbEntity
  8
001
370
    50
100
AcDbVertex
100
AcDb2dVertex
 10
39.815098
 20
98.591895
 30
0.0
  0
SEQEND
  5
2AE
330
2AD
100
AcDbEntity
  8
001
370
    50
  0
POLYLINE
  5
2B8
330
1F
100
AcDbEntity
  8
001
370
    50
100
AcDb2dPolyline
 66
     1
 10
0.0
 20
0.0
 30
0.0
  0
VERTEX
  5
2BA
330
2B8
100
AcDbEntity
  8
001
370
    50
100
AcDbVertex
100
AcDb2dVertex
 10
39.682492
 20
99.315538
 30
0.0
  0
VERTEX
  5
2BB
330
2B8
100
AcDbEntity
  8
001
370
    50
100
AcDbVertex
100
AcDb2dVertex
 10
39.66342
 20
99.301073
 30
0.0
  0
VERTEX
  5
2BC
330
2B8
100
AcDbEntity
  8
001
370
    50
100
AcDbVertex
100
AcDb2dVertex
 10
39.637512
 20
99.280104
 30
0.0
  0
VERTEX
  5
2BD
330
2B8
100
AcDbEntity
  8
001
370
    50
100
AcDbVertex
100
AcDb2dVertex
 10
39.595576
 20
99.240254
 30
0.0
  0
VERTEX
  5
2BE
330
2B8
100
AcDbEntity
  8
001
370
    50
100
AcDbVertex
100
AcDb2dVertex
 10
39.563995
 20
99.194075
 30
0.0
  0
VERTEX
  5
2BF
330
2B8
100
AcDbEntity
  8
001
370
    50
100
AcDbVertex
100
AcDb2dVertex
 10
39.539052
 20
99.139627
 30
0.0
  0
VERTEX
  5
2C0
330
2B8
100
AcDbEntity
  8
001
370
    50
100
AcDbVertex
100
AcDb2dVertex
 10
39.524964
 20
99.097575
 30
0.0
  0
SEQEND
  5
2B9
330
2B8
100
AcDbEntity
  8
001
370
    50
  0
LINE
  5
2C1
330
1F
100
AcDbEntity
  8
001
370
    50
100
AcDbLine
 10
39.524964
 20
99.097575
 30
0.0
 11
39.191724
 21
97.520963
 31
0.0
  0
LINE
  5
2C2
330
1F
100
AcDbEntity
  8
001
370
    50
100
AcDbLine
 10
38.848911
 20
95.899059
 30
0.0
 11
38.6679
 21
95.042666
 31
0.0
  0
POLYLINE
  5
2C3
330
1F
100
AcDbEntity
  8
001
370
    50
100
AcDb2dPolyline
 66
     1
 10
0.0
 20
0.0
 30
0.0
  0
VERTEX
  5
2C5
330
2C3
100
AcDbEntity
  8
001
370
    50
100
AcDbVertex
100
AcDb2dVertex
 10
38.6679
 20
95.042666
 30
0.0
  0
VERTEX
  5
2C6
330
2C3
100
AcDbEntity
  8
001
370
    50
100
AcDbVertex
100
AcDb2dVertex
 10
38.663521
 20
94.999017
 30
0.0
  0
VERTEX
  5
2C7
330
2C3
100
AcDbEntity
  8
001
370
    50
100
AcDbVertex
100
AcDb2dVertex
 10
38.664543
 20
94.938626
 30
0.0
  0
VERTEX
  5
2C8
330
2C3
100
AcDbEntity
  8
001
370
    50
100
AcDbVertex
100
AcDb2dVertex
 10
38.676111
 20
94.880769
 30
0.0
  0
VERTEX
  5
2C9
330
2C3
100
AcDbEntity
  8
001
370
    50
100
AcDbVertex
100
AcDb2dVertex
 10
38.696961
 20
94.830206
 30
0.0
  0
VERTEX
  5
2CA
330
2C3
100
AcDbEntity
  8
001
370
    50
100
AcDbVertex
100
AcDb2dVertex
 10
38.728171
 20
94.774234
 30
0.0
  0
VERTEX
  5
2CB
330
2C3
100
AcDbEntity
  8
001
370
    50
100
AcDbVertex
100
AcDb2dVertex
 10
38.764169
 20
94.720702
 30
0.0
  0
VERTEX
  5
2CC
330
2C3
100
AcDbEntity
  8
001
370
    50
100
AcDbVertex
100
AcDb2dVertex
 10
38.924897
 20
94.556049
 30
0.0
  0
VERTEX
  5
2CD
330
2C3
100
AcDbEntity
  8
001
370
    50
100
AcDbVertex
100
AcDb2dVertex
 10
39.149232
 20
94.418514
 30
0.0
  0
VERTEX
  5
2CE
330
2C3
100
AcDbEntity
  8
001
370
    50
100
AcDbVertex
100
AcDb2dVertex
 10
39.157632
 20
94.414124
 30
0.0
  0
VERTEX
  5
2CF
330
2C3
100
AcDbEntity
  8
001
370
    50
100
AcDbVertex
100
AcDb2dVertex
 10
39.163408
 20
94.411125
 30
0.0
  0
SEQEND
  5
2C4
330
2C3
100
AcDbEntity
  8
001
370
    50
  0
LINE
  5
2D0
330
1F
100
AcDbEntity
  8
001
370
    50
100
AcDbLine
 10
39.682492
 20
93.092527
 30
0.0
 11
51.351783
 21
104.99216
 31
0.0
  0
POLYLINE
  5
2D1
330
1F
100
AcDbEntity
  8
001
370
    50
100
AcDb2dPolyline
 66
     1
 10
0.0
 20
0.0
 30
0.0
  0
VERTEX
  5
2D3
330
2D1
100
AcDbEntity
  8
001
370
    50
100
AcDbVertex
100
AcDb2dVertex
 10
53.127521
 20
105.42811
 30
0.0
  0
VERTEX
  5
2D4
330
2D1
100
AcDbEntity
  8
001
370
    50
100
AcDbVertex
100
AcDb2dVertex
 10
53.011965
 20
105.451069
 30
0.0
  0
VERTEX
  5
2D5
330
2D1
100
AcDbEntity
  8
001
370
    50
100
AcDbVertex
100
AcDb2dVertex
 10
52.849649
 20
105.472483
 30
0.0
  0
VERTEX
  5
2D6
330
2D1
100
AcDbEntity
  8
001
370
    50
100
AcDbVertex
100
AcDb2dVertex
 10
52.641686
 20
105.477993
 30
0.0
  0
VERTEX
  5
2D7
330
2D1
100
AcDbEntity
  8
001
370
    50
100
AcDbVertex
100
AcDb2dVertex
 10
52.451994
 20
105.460086
 30
0.0
  0
VERTEX
  5
2D8
330
2D1
100
AcDbEntity
  8
001
370
    50
100
AcDbVertex
100
AcDb2dVertex
 10
52.349835
 20
105.445061
 30
0.0
  0
VERTEX
  5
2D9
330
2D1
100
AcDbEntity
  8
001
370
    50
100
AcDbVertex
100
AcDb2dVertex
 10
52.246267
 20
105.425767
 30
0.0
  0
VERTEX
  5
2DA
330
2D1
100
AcDbEntity
  8
001
370
    50
100
AcDbVertex
100
AcDb2dVertex
 10
52.143856
 20
105.401497
 30
0.0
  0
VERTEX
  5
2DB
330
2D1
100
AcDbEntity
  8
001
370
    50
100
AcDbVertex
100
AcDb2dVertex
 10
52.044247
 20
105.373903
 30
0.0
  0
VERTEX
  5
2DC
330
2D1
100
AcDbEntity
  8
001
370
    50
100
AcDbVertex
100
AcDb2dVertex
 10
51.862177
 20
105.313434
 30
0.0
  0
VERTEX
  5
2DD
330
2D1
100
AcDbEntity
  8
001
370
    50
100
AcDbVertex
100
AcDb2dVertex
 10
51.675588
 20
105.224327
 30
0.0
  0
VERTEX
  5
2DE
330
2D1
100
AcDbEntity
  8
001
370
    50
100
AcDbVertex
100
AcDb2dVertex
 10
51.482182
 20
105.098068
 30
0.0
  0
VERTEX
  5
2DF
330
2D1
100
AcDbEntity
  8
001
370
    50
100
AcDbVertex
100
AcDb2dVertex
 10
51.351783
 20
104.99216
 30
0.0
  0
SEQEND
  5
2D2
330
2D1
100
AcDbEntity
  8
001
370
    50
  0
POLYLINE
  5
2E0
330
1F
100
AcDbEntity
  8
001
370
    50
100
AcDb2dPolyline
 66
     1
 10
0.0
 20
0.0
 30
0.0
  0
VERTEX
  5
2E2
330
2E0
100
AcDbEntity
  8
001
370
    50
100
AcDbVertex
100
AcDb2dVertex
 10
39.524964
 20
92.700543
 30
0.0
  0
VERTEX
  5
2E3
330
2E0
100
AcDbEntity
  8
001
370
    50
100
AcDbVertex
100
AcDb2dVertex
 10
39.538486
 20
92.658895
 30
0.0
  0
VERTEX
  5
2E4
330
2E0
100
AcDbEntity
  8
001
370
    50
100
AcDbVertex
100
AcDb2dVertex
 10
39.563995
 20
92.604042
 30
0.0
  0
VERTEX
  5
2E5
330
2E0
100
AcDbEntity
  8
001
370
    50
100
AcDbVertex
100
AcDb2dVertex
 10
39.598761
 20
92.555587
 30
0.0
  0
VERTEX
  5
2E6
330
2E0
100
AcDbEntity
  8
001
370
    50
100
AcDbVertex
100
AcDb2dVertex
 10
39.637512
 20
92.518014
 30
0.0
  0
VERTEX
  5
2E7
330
2E0
100
AcDbEntity
  8
001
370
    50
100
AcDbVertex
100
AcDb2dVertex
 10
39.685153
 20
92.4805
 30
0.0
  0
VERTEX
  5
2E8
330
2E0
100
AcDbEntity
  8
001
370
    50
100
AcDbVertex
100
AcDb2dVertex
 10
39.743284
 20
92.445071
 30
0.0
  0
VERTEX
  5
2E9
330
2E0
100
AcDbEntity
  8
001
370
    50
100
AcDbVertex
100
AcDb2dVertex
 10
39.784855
 20
92.424469
 30
0.0
  0
VERTEX
  5
2EA
330
2E0
100
AcDbEntity
  8
001
370
    50
100
AcDbVertex
100
AcDb2dVertex
 10
39.815098
 20
92.410927
 30
0.0
  0
SEQEND
  5
2E1
330
2E0
100
AcDbEntity
  8
001
370
    50
  0
POLYLINE
  5
2EB
330
1F
100
AcDbEntity
  8
001
370
    50
100
AcDb2dPolyline
 66
     1
 10
0.0
 20
0.0
 30
0.0
  0
VERTEX
  5
2ED
330
2EB
100
AcDbEntity
  8
001
370
    50
100
AcDbVertex
100
AcDb2dVertex
 10
52.539116
 20
109.361178
 30
0.0
  0
VERTEX
  5
2EE
330
2EB
100
AcDbEntity
  8
001
370
    50
100
AcDbVertex
100
AcDb2dVertex
 10
52.509996
 20
109.380702
 30
0.0
  0
VERTEX
  5
2EF
330
2EB
100
AcDbEntity
  8
001
370
    50
100
AcDbVertex
100
AcDb2dVertex
 10
52.466993
 20
109.406865
 30
0.0
  0
VERTEX
  5
2F0
330
2EB
100
AcDbEntity
  8
001
370
    50
100
AcDbVertex
100
AcDb2dVertex
 10
52.224636
 20
109.502261
 30
0.0
  0
VERTEX
  5
2F1
330
2EB
100
AcDbEntity
  8
001
370
    50
100
AcDbVertex
100
AcDb2dVertex
 10
51.992584
 20
109.527391
 30
0.0
  0
VERTEX
  5
2F2
330
2EB
100
AcDbEntity
  8
001
370
    50
100
AcDbVertex
100
AcDb2dVertex
 10
51.795253
 20
109.528588
 30
0.0
  0
VERTEX
  5
2F3
330
2EB
100
AcDbEntity
  8
001
370
    50
100
AcDbVertex
100
AcDb2dVertex
 10
51.59493
 20
109.514994
 30
0.0
  0
VERTEX
  5
2F4
330
2EB
100
AcDbEntity
  8
001
370
    50
100
AcDbVertex
100
AcDb2dVertex
 10
51.491642
 20
109.500426
 30
0.0
  0
VERTEX
  5
2F5
330
2EB
100
AcDbEntity
  8
001
370
    50
100
AcDbVertex
100
AcDb2dVertex
 10
51.389202
 20
109.480675
 30
0.0
  0
VERTEX
  5
2F6
330
2EB
100
AcDbEntity
  8
001
370
    50
100
AcDbVertex
100
AcDb2dVertex
 10
51.287116
 20
109.456273
 30
0.0
  0
VERTEX
  5
2F7
330
2EB
100
AcDbEntity
  8
001
370
    50
100
AcDbVertex
100
AcDb2dVertex
 10
51.187183
 20
109.428811
 30
0.0
  0
VERTEX
  5
2F8
330
2EB
100
AcDbEntity
  8
001
370
    50
100
AcDbVertex
100
AcDb2dVertex
 10
51.004914
 20
109.368422
 30
0.0
  0
VERTEX
  5
2F9
330
2EB
100
AcDbEntity
  8
001
370
    50
100
AcDbVertex
100
AcDb2dVertex
 10
50.818523
 20
109.279236
 30
0.0
  0
VERTEX
  5
2FA
330
2EB
100
AcDbEntity
  8
001
370
    50
100
AcDbVertex
100
AcDb2dVertex
 10
50.625157
 20
109.15296
 30
0.0
  0
VERTEX
  5
2FB
330
2EB
100
AcDbEntity
  8
001
370
    50
100
AcDbVertex
100
AcDb2dVertex
 10
50.494718
 20
109.047068
 30
0.0
  0
SEQEND
  5
2EC
330
2EB
100
AcDbEntity
  8
001
370
    50
  0
LINE
  5
2FC
330
1F
100
AcDbEntity
  8
001
370
    50
100
AcDbLine
 10
38.825427
 20
97.147436
 30
0.0
 11
50.494718
 21
109.047068
 31
0.0
  0
LINE
  5
2FD
330
1F
100
AcDbEntity
  8
001
370
    50
100
AcDbLine
 10
52.539116
 20
109.361178
 30
0.0
 11
52.739086
 21
109.212852
 31
0.0
  0
POLYLINE
  5
2FE
330
1F
100
AcDbEntity
  8
001
370
    50
100
AcDb2dPolyline
 66
     1
 10
0.0
 20
0.0
 30
0.0
  0
VERTEX
  5
300
330
2FE
100
AcDbEntity
  8
001
370
    50
100
AcDbVertex
100
AcDb2dVertex
 10
39.682492
 20
93.092527
 30
0.0
  0
VERTEX
  5
301
330
2FE
100
AcDbEntity
  8
001
370
    50
100
AcDbVertex
100
AcDb2dVertex
 10
39.656133
 20
93.063953
 30
0.0
  0
VERTEX
  5
302
330
2FE
100
AcDbEntity
  8
001
370
    50
100
AcDbVertex
100
AcDb2dVertex
 10
39.621234
 20
93.022507
 30
0.0
  0
VERTEX
  5
303
330
2FE
100
AcDbEntity
  8
001
370
    50
100
AcDbVertex
100
AcDb2dVertex
 10
39.582504
 20
92.966734
 30
0.0
  0
VERTEX
  5
304
330
2FE
100
AcDbEntity
  8
001
370
    50
100
AcDbVertex
100
AcDb2dVertex
 10
39.554026
 20
92.913003
 30
0.0
  0
VERTEX
  5
305
330
2FE
100
AcDbEntity
  8
001
370
    50
100
AcDbVertex
100
AcDb2dVertex
 10
39.533772
 20
92.86293
 30
0.0
  0
VERTEX
  5
306
330
2FE
100
AcDbEntity
  8
001
370
    50
100
AcDbVertex
100
AcDb2dVertex
 10
39.521607
 20
92.804584
 30
0.0
  0
VERTEX
  5
307
330
2FE
100
AcDbEntity
  8
001
370
    50
100
AcDbVertex
100
AcDb2dVertex
 10
39.52048
 20
92.744105
 30
0.0
  0
VERTEX
  5
308
330
2FE
100
AcDbEntity
  8
001
370
    50
100
AcDbVertex
100
AcDb2dVertex
 10
39.524964
 20
92.700543
 30
0.0
  0
SEQEND
  5
2FF
330
2FE
100
AcDbEntity
  8
001
370
    50
  0
POLYLINE
  5
309
330
1F
100
AcDbEntity
  8
001
370
    50
100
AcDb2dPolyline
 66
     1
 10
0.0
 20
0.0
 30
0.0
  0
VERTEX
  5
30B
330
309
100
AcDbEntity
  8
001
370
    50
100
AcDbVertex
100
AcDb2dVertex
 10
38.825427
 20
97.147436
 30
0.0
  0
VERTEX
  5
30C
330
309
100
AcDbEntity
  8
001
370
    50
100
AcDbVertex
100
AcDb2dVertex
 10
38.799068
 20
97.118861
 30
0.0
  0
VERTEX
  5
30D
330
309
100
AcDbEntity
  8
001
370
    50
100
AcDbVertex
100
AcDb2dVertex
 10
38.764169
 20
97.077416
 30
0.0
  0
VERTEX
  5
30E
330
309
100
AcDbEntity
  8
001
370
    50
100
AcDbVertex
100
AcDb2dVertex
 10
38.72544
 20
97.021642
 30
0.0
  0
VERTEX
  5
30F
330
309
100
AcDbEntity
  8
001
370
    50
100
AcDbVertex
100
AcDb2dVertex
 10
38.696961
 20
96.967911
 30
0.0
  0
VERTEX
  5
310
330
309
100
AcDbEntity
  8
001
370
    50
100
AcDbVertex
100
AcDb2dVertex
 10
38.676708
 20
96.917838
 30
0.0
  0
VERTEX
  5
311
330
309
100
AcDbEntity
  8
001
370
    50
100
AcDbVertex
100
AcDb2dVertex
 10
38.664543
 20
96.859492
 30
0.0
  0
VERTEX
  5
312
330
309
100
AcDbEntity
  8
001
370
    50
100
AcDbVertex
100
AcDb2dVertex
 10
38.663415
 20
96.799013
 30
0.0
  0
VERTEX
  5
313
330
309
100
AcDbEntity
  8
001
370
    50
100
AcDbVertex
100
AcDb2dVertex
 10
38.6679
 20
96.755451
 30
0.0
  0
SEQEND
  5
30A
330
309
100
AcDbEntity
  8
001
370
    50
  0
LINE
  5
314
330
1F
100
AcDbEntity
  8
001
370
    50
100
AcDbLine
 10
38.6679
 20
96.755451
 30
0.0
 11
39.524964
 21
92.700543
 31
0.0
  0
LINE
  5
315
330
1F
100
AcDbEntity
  8
001
370
    50
100
AcDbLine
 10
63.644573
 20
82.907005
 30
0.0
 11
62.787508
 21
82.907005
 31
0.0
  0
POLYLINE
  5
316
330
1F
100
AcDbEntity
  8
001
370
    50
100
AcDb2dPolyline
 66
     1
 10
0.0
 20
0.0
 30
0.0
  0
VERTEX
  5
318
330
316
100
AcDbEntity
  8
001
370
    50
100
AcDbVertex
100
AcDb2dVertex
 10
64.683767
 20
81.117063
 30
0.0
  0
VERTEX
  5
319
330
316
100
AcDbEntity
  8
001
370
    50
100
AcDbVertex
100
AcDb2dVertex
 10
64.752333
 20
81.27584
 30
0.0
  0
VERTEX
  5
31A
330
316
100
AcDbEntity
  8
001
370
    50
100
AcDbVertex
100
AcDb2dVertex
 10
64.818358
 20
81.498682
 30
0.0
  0
VERTEX
  5
31B
330
316
100
AcDbEntity
  8
001
370
    50
100
AcDbVertex
100
AcDb2dVertex
 10
64.833351
 20
81.605285
 30
0.0
  0
VERTEX
  5
31C
330
316
100
AcDbEntity
  8
001
370
    50
100
AcDbVertex
100
AcDb2dVertex
 10
64.836291
 20
81.70706
 30
0.0
  0
VERTEX
  5
31D
330
316
100
AcDbEntity
  8
001
370
    50
100
AcDbVertex
100
AcDb2dVertex
 10
64.831336
 20
81.810797
 30
0.0
  0
VERTEX
  5
31E
330
316
100
AcDbEntity
  8
001
370
    50
100
AcDbVertex
100
AcDb2dVertex
 10
64.818358
 20
81.915438
 30
0.0
  0
VERTEX
  5
31F
330
316
100
AcDbEntity
  8
001
370
    50
100
AcDbVertex
100
AcDb2dVertex
 10
64.765775
 20
82.11755
 30
0.0
  0
VERTEX
  5
320
330
316
100
AcDbEntity
  8
001
370
    50
100
AcDbVertex
100
AcDb2dVertex
 10
64.678149
 20
82.30706
 30
0.0
  0
VERTEX
  5
321
330
316
100
AcDbEntity
  8
001
370
    50
100
AcDbVertex
100
AcDb2dVertex
 10
64.489435
 20
82.554701
 30
0.0
  0
VERTEX
  5
322
330
316
100
AcDbEntity
  8
001
370
    50
100
AcDbVertex
100
AcDb2dVertex
 10
64.246097
 20
82.74629
 30
0.0
  0
VERTEX
  5
323
330
316
100
AcDbEntity
  8
001
370
    50
100
AcDbVertex
100
AcDb2dVertex
 10
64.1554
 20
82.794716
 30
0.0
  0
VERTEX
  5
324
330
316
100
AcDbEntity
  8
001
370
    50
100
AcDbVertex
100
AcDb2dVertex
 10
64.05962
 20
82.834691
 30
0.0
  0
VERTEX
  5
325
330
316
100
AcDbEntity
  8
001
370
    50
100
AcDbVertex
100
AcDb2dVertex
 10
63.959358
 20
82.866109
 30
0.0
  0
VERTEX
  5
326
330
316
100
AcDbEntity
  8
001
370
    50
100
AcDbVertex
100
AcDb2dVertex
 10
63.860876
 20
82.888829
 30
0.0
  0
VERTEX
  5
327
330
316
100
AcDbEntity
  8
001
370
    50
100
AcDbVertex
100
AcDb2dVertex
 10
63.766538
 20
82.902571
 30
0.0
  0
VERTEX
  5
328
330
316
100
AcDbEntity
  8
001
370
    50
100
AcDbVertex
100
AcDb2dVertex
 10
63.655903
 20
82.90706
 30
0.0
  0
VERTEX
  5
329
330
316
100
AcDbEntity
  8
001
370
    50
100
AcDbVertex
100
AcDb2dVertex
 10
63.649192
 20
82.907036
 30
0.0
  0
VERTEX
  5
32A
330
316
100
AcDbEntity
  8
001
370
    50
100
AcDbVertex
100
AcDb2dVertex
 10
63.644573
 20
82.907005
 30
0.0
  0
SEQEND
  5
317
330
316
100
AcDbEntity
  8
001
370
    50
  0
POLYLINE
  5
32B
330
1F
100
AcDbEntity
  8
001
370
    50
100
AcDb2dPolyline
 66
     1
 10
0.0
 20
0.0
 30
0.0
  0
VERTEX
  5
32D
330
32B
100
AcDbEntity
  8
001
370
    50
100
AcDbVertex
100
AcDb2dVertex
 10
63.826703
 20
81.117063
 30
0.0
  0
VERTEX
  5
32E
330
32B
100
AcDbEntity
  8
001
370
    50
100
AcDbVertex
100
AcDb2dVertex
 10
63.895268
 20
81.27584
 30
0.0
  0
VERTEX
  5
32F
330
32B
100
AcDbEntity
  8
001
370
    50
100
AcDbVertex
100
AcDb2dVertex
 10
63.961294
 20
81.498682
 30
0.0
  0
VERTEX
  5
330
330
32B
100
AcDbEntity
  8
001
370
    50
100
AcDbVertex
100
AcDb2dVertex
 10
63.976286
 20
81.605285
 30
0.0
  0
VERTEX
  5
331
330
32B
100
AcDbEntity
  8
001
370
    50
100
AcDbVertex
100
AcDb2dVertex
 10
63.979226
 20
81.70706
 30
0.0
  0
VERTEX
  5
332
330
32B
100
AcDbEntity
  8
001
370
    50
100
AcDbVertex
100
AcDb2dVertex
 10
63.974271
 20
81.810797
 30
0.0
  0
VERTEX
  5
333
330
32B
100
AcDbEntity
  8
001
370
    50
100
AcDbVertex
100
AcDb2dVertex
 10
63.961294
 20
81.915438
 30
0.0
  0
VERTEX
  5
334
330
32B
100
AcDbEntity
  8
001
370
    50
100
AcDbVertex
100
AcDb2dVertex
 10
63.90871
 20
82.11755
 30
0.0
  0
VERTEX
  5
335
330
32B
100
AcDbEntity
  8
001
370
    50
100
AcDbVertex
100
AcDb2dVertex
 10
63.821084
 20
82.30706
 30
0.0
  0
VERTEX
  5
336
330
32B
100
AcDbEntity
  8
001
370
    50
100
AcDbVertex
100
AcDb2dVertex
 10
63.63237
 20
82.554701
 30
0.0
  0
VERTEX
  5
337
330
32B
100
AcDbEntity
  8
001
370
    50
100
AcDbVertex
100
AcDb2dVertex
 10
63.389032
 20
82.74629
 30
0.0
  0
VERTEX
  5
338
330
32B
100
AcDbEntity
  8
001
370
    50
100
AcDbVertex
100
AcDb2dVertex
 10
63.298335
 20
82.794716
 30
0.0
  0
VERTEX
  5
339
330
32B
100
AcDbEntity
  8
001
370
    50
100
AcDbVertex
100
AcDb2dVertex
 10
63.202555
 20
82.834691
 30
0.0
  0
VERTEX
  5
33A
330
32B
100
AcDbEntity
  8
001
370
    50
100
AcDbVertex
100
AcDb2dVertex
 10
63.102294
 20
82.866109
 30
0.0
  0
VERTEX
  5
33B
330
32B
100
AcDbEntity
  8
001
370
    50
100
AcDbVertex
100
AcDb2dVertex
 10
63.003811
 20
82.888829
 30
0.0
  0
VERTEX
  5
33C
330
32B
100
AcDbEntity
  8
001
370
    50
100
AcDbVertex
100
AcDb2dVertex
 10
62.909473
 20
82.902571
 30
0.0
  0
VERTEX
  5
33D
330
32B
100
AcDbEntity
  8
001
370
    50
100
AcDbVertex
100
AcDb2dVertex
 10
62.798839
 20
82.90706
 30
0.0
  0
VERTEX
  5
33E
330
32B
100
AcDbEntity
  8
001
370
    50
100
AcDbVertex
100
AcDb2dVertex
 10
62.792127
 20
82.907036
 30
0.0
  0
VERTEX
  5
33F
330
32B
100
AcDbEntity
  8
001
370
    50
100
AcDbVertex
100
AcDb2dVertex
 10
62.787508
 20
82.907005
 30
0.0
  0
SEQEND
  5
32C
330
32B
100
AcDbEntity
  8
001
370
    50
  0
LINE
  5
340
330
1F
100
AcDbEntity
  8
001
370
    50
100
AcDbLine
 10
52.403125
 20
60.54862
 30
0.0
 11
63.826703
 21
81.117063
 31
0.0
  0
POLYLINE
  5
341
330
1F
100
AcDbEntity
  8
001
370
    50
100
AcDb2dPolyline
 66
     1
 10
0.0
 20
0.0
 30
0.0
  0
VERTEX
  5
343
330
341
100
AcDbEntity
  8
001
370
    50
100
AcDbVertex
100
AcDb2dVertex
 10
39.83063
 20
82.621344
 30
0.0
  0
VERTEX
  5
344
330
341
100
AcDbEntity
  8
001
370
    50
100
AcDbVertex
100
AcDb2dVertex
 10
39.748975
 20
82.61647
 30
0.0
  0
VERTEX
  5
345
330
341
100
AcDbEntity
  8
001
370
    50
100
AcDbVertex
100
AcDb2dVertex
 10
39.636988
 20
82.603168
 30
0.0
  0
VERTEX
  5
346
330
341
100
AcDbEntity
  8
001
370
    50
100
AcDbVertex
100
AcDb2dVertex
 10
39.531866
 20
82.580429
 30
0.0
  0
VERTEX
  5
347
330
341
100
AcDbEntity
  8
001
370
    50
100
AcDbVertex
100
AcDb2dVertex
 10
39.438244
 20
82.54903
 30
0.0
  0
VERTEX
  5
348
330
341
100
AcDbEntity
  8
001
370
    50
100
AcDbVertex
100
AcDb2dVertex
 10
39.344469
 20
82.509046
 30
0.0
  0
VERTEX
  5
349
330
341
100
AcDbEntity
  8
001
370
    50
100
AcDbVertex
100
AcDb2dVertex
 10
39.251767
 20
82.46063
 30
0.0
  0
VERTEX
  5
34A
330
341
100
AcDbEntity
  8
001
370
    50
100
AcDbVertex
100
AcDb2dVertex
 10
39.006244
 20
82.269346
 30
0.0
  0
VERTEX
  5
34B
330
341
100
AcDbEntity
  8
001
370
    50
100
AcDbVertex
100
AcDb2dVertex
 10
38.819715
 20
82.021399
 30
0.0
  0
VERTEX
  5
34C
330
341
100
AcDbEntity
  8
001
370
    50
100
AcDbVertex
100
AcDb2dVertex
 10
38.732815
 20
81.831102
 30
0.0
  0
VERTEX
  5
34D
330
341
100
AcDbEntity
  8
001
370
    50
100
AcDbVertex
100
AcDb2dVertex
 10
38.679506
 20
81.629777
 30
0.0
  0
VERTEX
  5
34E
330
341
100
AcDbEntity
  8
001
370
    50
100
AcDbVertex
100
AcDb2dVertex
 10
38.665842
 20
81.526304
 30
0.0
  0
VERTEX
  5
34F
330
341
100
AcDbEntity
  8
001
370
    50
100
AcDbVertex
100
AcDb2dVertex
 10
38.661573
 20
81.421399
 30
0.0
  0
VERTEX
  5
350
330
341
100
AcDbEntity
  8
001
370
    50
100
AcDbVertex
100
AcDb2dVertex
 10
38.666784
 20
81.315607
 30
0.0
  0
VERTEX
  5
351
330
341
100
AcDbEntity
  8
001
370
    50
100
AcDbVertex
100
AcDb2dVertex
 10
38.679506
 20
81.213021
 30
0.0
  0
VERTEX
  5
352
330
341
100
AcDbEntity
  8
001
370
    50
100
AcDbVertex
100
AcDb2dVertex
 10
38.725346
 20
81.024015
 30
0.0
  0
VERTEX
  5
353
330
341
100
AcDbEntity
  8
001
370
    50
100
AcDbVertex
100
AcDb2dVertex
 10
38.819715
 20
80.821399
 30
0.0
  0
VERTEX
  5
354
330
341
100
AcDbEntity
  8
001
370
    50
100
AcDbVertex
100
AcDb2dVertex
 10
38.823095
 20
80.815495
 30
0.0
  0
VERTEX
  5
355
330
341
100
AcDbEntity
  8
001
370
    50
100
AcDbVertex
100
AcDb2dVertex
 10
38.825427
 20
80.811451
 30
0.0
  0
SEQEND
  5
342
330
341
100
AcDbEntity
  8
001
370
    50
  0
LINE
  5
356
330
1F
100
AcDbEntity
  8
001
370
    50
100
AcDbLine
 10
62.838359
 20
77.794359
 30
0.0
 11
64.683767
 21
81.117063
 31
0.0
  0
LINE
  5
357
330
1F
100
AcDbEntity
  8
001
370
    50
100
AcDbLine
 10
51.511252
 20
59.993713
 30
0.0
 11
52.368316
 21
59.993713
 31
0.0
  0
LINE
  5
358
330
1F
100
AcDbEntity
  8
001
370
    50
100
AcDbLine
 10
65.800535
 20
121.511818
 30
0.0
 11
67.936883
 21
111.404419
 31
0.0
  0
LINE
  5
359
330
1F
100
AcDbEntity
  8
001
370
    50
100
AcDbLine
 10
158.661553
 20
91.093713
 30
0.0
 11
162.99168
 21
93.593713
 31
0.0
  0
LINE
  5
35A
330
1F
100
AcDbEntity
  8
001
370
    50
100
AcDbLine
 10
158.661553
 20
91.093713
 30
0.0
 11
162.99168
 21
88.593713
 31
0.0
  0
ARC
  5
35B
330
1F
100
AcDbEntity
  8
001
370
    50
100
AcDbCircle
 10
51.384017
 20
76.437851
 30
0.0
 40
0.3950000000000001
100
AcDbArc
 50
13.633617
 51
166.366383
  0
ARC
  5
35C
330
1F
100
AcDbEntity
  8
001
370
    50
100
AcDbCircle
 10
50.323261
 20
76.695134
 30
0.0
 40
0.6965113125890092
100
AcDbArc
 50
253.633617
 51
346.366383
  0
ARC
  5
35D
330
1F
100
AcDbEntity
  8
001
370
    50
100
AcDbCircle
 10
50.015697
 20
75.647851
 30
0.0
 40
0.3950000000000001
100
AcDbArc
 50
73.633617
 51
226.366383
  0
ARC
  5
35E
330
1F
100
AcDbEntity
  8
001
370
    50
100
AcDbCircle
 10
49.262506
 20
74.857851
 30
0.0
 40
0.6965113125890092
100
AcDbArc
 50
313.633617
 51
46.366383
  0
ARC
  5
35F
330
1F
100
AcDbEntity
  8
001
370
    50
100
AcDbCircle
 10
50.015697
 20
74.067851
 30
0.0
 40
0.3950000000000001
100
AcDbArc
 50
133.633617
 51
286.366383
  0
ARC
  5
360
330
1F
100
AcDbEntity
  8
001
370
    50
100
AcDbCircle
 10
50.323261
 20
73.020568
 30
0.0
 40
0.6965113125890092
100
AcDbArc
 50
13.633617
 51
106.366383
  0
ARC
  5
361
330
1F
100
AcDbEntity
  8
001
370
    50
100
AcDbCircle
 10
51.384017
 20
73.277851
 30
0.0
 40
0.3950000000000001
100
AcDbArc
 50
193.633617
 51
346.366383
  0
ARC
  5
362
330
1F
100
AcDbEntity
  8
001
370
    50
100
AcDbCircle
 10
52.444773
 20
73.020568
 30
0.0
 40
0.6965113125890092
100
AcDbArc
 50
73.633617
 51
166.366383
  0
ARC
  5
363
330
1F
100
AcDbEntity
  8
001
370
    50
100
AcDbCircle
 10
52.752337
 20
74.067851
 30
0.0
 40
0.3950000000000001
100
AcDbArc
 50
253.633617
 51
46.366383
  0
ARC
  5
364
330
1F
100
AcDbEntity
  8
001
370
    50
100
AcDbCircle
 10
53.505528
 20
74.857851
 30
0.0
 40
0.6965113125890092
100
AcDbArc
 50
133.633617
 51
226.366383
  0
ARC
  5
365
330
1F
100
AcDbEntity
  8
001
370
    50
100
AcDbCircle
 10
52.752337
 20
75.647851
 30
0.0
 40
0.3950000000000001
100
AcDbArc
 50
313.633617
 51
106.366383
  0
ARC
  5
366
330
1F
100
AcDbEntity
  8
001
370
    50
100
AcDbCircle
 10
52.444773
 20
76.695134
 30
0.0
 40
0.6965113125890092
100
AcDbArc
 50
193.633617
 51
286.366383
  0
CIRCLE
  5
367
330
1F
100
AcDbEntity
  8
001
370
    50
100
AcDbCircle
 10
51.384017
 20
74.857851
 30
0.0
 40
3.5
  0
LINE
  5
368
330
1F
100
AcDbEntity
  8
001
370
    50
100
AcDbLine
 10
53.222077
 20
119.306561
 30
0.0
 11
54.522651
 21
113.153342
 31
0.0
  0
LINE
  5
369
330
1F
100
AcDbEntity
  8
001
  6
PHANTOM
370
     9
100
AcDbLine
 10
38.825427
 20
80.811451
 30
0.0
 11
38.661553
 21
81.093713
 31
0.0
  0
LINE
  5
36A
330
1F
100
AcDbEntity
  8
001
  6
PHANTOM
370
     9
100
AcDbLine
 10
38.661553
 20
81.428048
 30
0.0
 11
38.661553
 21
81.093713
 31
0.0
  0
LINE
  5
36B
330
1F
100
AcDbEntity
  8
001
  6
PHANTOM
370
     9
100
AcDbLine
 10
50.837288
 20
59.993713
 30
0.0
 11
51.511252
 21
59.993713
 31
0.0
  0
LINE
  5
36C
330
1F
100
AcDbEntity
  8
001
  6
CENTER
370
     9
100
AcDbLine
 10
162.99168
 20
91.093713
 30
0.0
 11
35.39416
 21
91.093713
 31
0.0
  0
TEXT
  5
36D
330
1F
100
AcDbEntity
  8
001
370
    30
100
AcDbText
 10
42.786362
 20
132.135825
 30
0.0
 40
8.0
  1
ヤングメン　ＢＮＫ３０６２Ｔ
 41
0.833333
100
AcDbText
  0
POLYLINE
  5
36E
330
1F
100
AcDbEntity
  8
001
370
    50
100
AcDb2dPolyline
 66
     1
 10
0.0
 20
0.0
 30
0.0
  0
VERTEX
  5
370
330
36E
100
AcDbEntity
  8
001
370
    50
100
AcDbVertex
100
AcDb2dVertex
 10
52.368316
 20
59.993713
 30
0.0
  0
VERTEX
  5
371
330
36E
100
AcDbEntity
  8
001
370
    50
100
AcDbVertex
100
AcDb2dVertex
 10
52.454754
 20
59.998162
 30
0.0
  0
VERTEX
  5
372
330
36E
100
AcDbEntity
  8
001
370
    50
100
AcDbVertex
100
AcDb2dVertex
 10
52.573289
 20
60.011944
 30
0.0
  0
VERTEX
  5
373
330
36E
100
AcDbEntity
  8
001
370
    50
100
AcDbVertex
100
AcDb2dVertex
 10
52.678751
 20
60.035224
 30
0.0
  0
VERTEX
  5
374
330
36E
100
AcDbEntity
  8
001
370
    50
100
AcDbVertex
100
AcDb2dVertex
 10
52.772033
 20
60.066082
 30
0.0
  0
VERTEX
  5
375
330
36E
100
AcDbEntity
  8
001
370
    50
100
AcDbVertex
100
AcDb2dVertex
 10
52.86412
 20
60.10385
 30
0.0
  0
VERTEX
  5
376
330
36E
100
AcDbEntity
  8
001
370
    50
100
AcDbVertex
100
AcDb2dVertex
 10
52.95851
 20
60.154482
 30
0.0
  0
VERTEX
  5
377
330
36E
100
AcDbEntity
  8
001
370
    50
100
AcDbVertex
100
AcDb2dVertex
 10
53.15836
 20
60.309271
 30
0.0
  0
VERTEX
  5
378
330
36E
100
AcDbEntity
  8
001
370
    50
100
AcDbVertex
100
AcDb2dVertex
 10
53.289756
 20
60.443713
 30
0.0
  0
SEQEND
  5
36F
330
36E
100
AcDbEntity
  8
001
370
    50
  0
ARC
  5
379
330
1F
100
AcDbEntity
  8
001
370
    50
100
AcDbCircle
 10
51.460186
 20
61.072322
 30
0.0
 40
1.078609436925625
100
AcDbArc
 50
209.987053
 51
330.952495
  0
LINE
  5
37A
330
1F
100
AcDbEntity
  8
001
  6
PHANTOM
370
     9
100
AcDbLine
 10
50.837288
 20
59.993713
 30
0.0
 11
50.525961
 21
60.533229
 31
0.0
  0
LINE
  5
37B
330
1F
100
AcDbEntity
  8
001
370
    50
100
AcDbLine
 10
50.525961
 20
60.533229
 30
0.0
 11
38.824681
 21
80.81102
 31
0.0
  0
LINE
  5
37C
330
1F
100
AcDbEntity
  8
001
  6
PHANTOM
370
     9
100
AcDbLine
 10
38.792922
 20
80.866057
 30
0.0
 11
38.661553
 21
81.093713
 31
0.0
  0
LINE
  5
37D
330
1F
100
AcDbEntity
  8
001
370
    50
100
AcDbLine
 10
39.829819
 20
82.621335
 30
0.0
 11
62.787508
 21
82.907005
 31
0.0
  0
LINE
  5
37E
330
1F
100
AcDbEntity
  8
001
370
    50
100
AcDbLine
 10
39.815098
 20
92.940718
 30
0.0
 11
39.815098
 21
82.621335
 31
0.0
  0
ENDSEC
  0
SECTION
  2
OBJECTS
  0
DICTIONARY
  5
C
330
0
100
AcDbDictionary
281
     1
  3
ACAD_GROUP
350
D
  3
ACAD_LAYOUT
350
1A
  3
ACAD_MLEADERSTYLE
350
382
  3
ACAD_MLINESTYLE
350
17
  3
ACAD_PLOTSETTINGS
350
19
  3
ACAD_PLOTSTYLENAME
350
E
  3
ACAD_SCALELIST
350
3B
  3
ACAD_TABLESTYLE
350
381
  3
ACAD_VISUALSTYLE
350
2A
  3
AcDbVariableDictionary
350
37F
  0
DICTIONARY
  5
D
102
{ACAD_REACTORS
330
C
102
}
330
C
100
AcDbDictionary
281
     1
  0
DICTIONARY
  5
1A
102
{ACAD_REACTORS
330
C
102
}
330
C
100
AcDbDictionary
281
     1
  3
Layout1
350
1E
  3
Layout2
350
26
  3
Model
350
22
  0
DICTIONARY
  5
382
102
{ACAD_REACTORS
330
C
102
}
330
C
100
AcDbDictionary
281
     1
  0
DICTIONARY
  5
17
102
{ACAD_REACTORS
330
C
102
}
330
C
100
AcDbDictionary
281
     1
  3
Standard
350
18
  0
DICTIONARY
  5
19
102
{ACAD_REACTORS
330
C
102
}
330
C
100
AcDbDictionary
281
     1
  0
ACDBDICTIONARYWDFLT
  5
E
102
{ACAD_REACTORS
330
C
102
}
330
C
100
AcDbDictionary
281
     1
  3
Normal
350
F
100
AcDbDictionaryWithDefault
340
F
  0
DICTIONARY
  5
3B
102
{ACAD_REACTORS
330
C
102
}
330
C
100
AcDbDictionary
281
     1
  3
A0
350
3C
  3
A1
350
3D
  3
A2
350
3E
  3
A3
350
3F
  3
A4
350
40
  3
A5
350
41
  3
A6
350
42
  3
A7
350
43
  3
A8
350
44
  3
A9
350
45
  3
B0
350
46
  3
B1
350
47
  3
B2
350
48
  3
B3
350
49
  3
B4
350
4A
  3
B5
350
4B
  3
B6
350
4C
  3
B7
350
4D
  3
B8
350
4E
  3
B9
350
4F
  3
C0
350
50
  3
C1
350
51
  3
C2
350
52
  3
C3
350
53
  3
C4
350
54
  3
C5
350
55
  3
C6
350
56
  3
C7
350
57
  3
C8
350
58
  3
C9
350
59
  3
D0
350
5A
  3
D1
350
5B
  3
D2
350
5C
  0
DICTIONARY
  5
381
102
{ACAD_REACTORS
330
C
102
}
330
C
100
AcDbDictionary
281
     1
  0
DICTIONARY
  5
2A
102
{ACAD_REACTORS
330
C
102
}
330
C
100
AcDbDictionary
281
     1
  3
2dWireframe
350
2F
  3
3D Hidden
350
31
  3
3dWireframe
350
30
  3
Basic
350
32
  3
Brighten
350
36
  3
ColorChange
350
3A
  3
Conceptual
350
34
  3
Dim
350
35
  3
Facepattern
350
39
  3
Flat
350
2B
  3
FlatWithEdges
350
2C
  3
Gouraud
350
2D
  3
GouraudWithEdges
350
2E
  3
Linepattern
350
38
  3
Realistic
350
33
  3
Thicken
350
37
  0
DICTIONARY
  5
37F
102
{ACAD_REACTORS
330
C
102
}
330
C
100
AcDbDictionary
281
     1
  3
CANNOSCALE
350
380
  3
PSOLHEIGHT
350
384
  3
PSOLWIDTH
350
383
  0
LAYOUT
  5
1E
102
{ACAD_REACTORS
330
1A
102
}
330
1A
100
AcDbPlotSettings
  1

  2
none_device
  4

  6

 40
0.0
 41
0.0
 42
0.0
 43
0.0
 44
0.0
 45
0.0
 46
0.0
 47
0.0
 48
0.0
 49
0.0
140
0.0
141
0.0
142
1.0
143
1.0
 70
   688
 72
     0
 73
     0
 74
     5
  7

 75
    16
147
1.0
148
0.0
149
0.0
100
AcDbLayout
  1
Layout1
 70
     1
 71
     1
 10
0.0
 20
0.0
 11
12.0
 21
9.0
 12
0.0
 22
0.0
 32
0.0
 14
1.000000E+20
 24
1.000000E+20
 34
0.0
 15
-1.000000E+20
 25
-1.000000E+20
 35
0.0
146
0.0
 13
0.0
 23
0.0
 33
0.0
 16
1.0
 26
0.0
 36
0.0
 17
0.0
 27
1.0
 37
0.0
 76
     0
330
1B
  0
LAYOUT
  5
26
102
{ACAD_REACTORS
330
1A
102
}
330
1A
100
AcDbPlotSettings
  1

  2
none_device
  4

  6

 40
0.0
 41
0.0
 42
0.0
 43
0.0
 44
0.0
 45
0.0
 46
0.0
 47
0.0
 48
0.0
 49
0.0
140
0.0
141
0.0
142
1.0
143
1.0
 70
   688
 72
     0
 73
     0
 74
     5
  7

 75
    16
147
1.0
148
0.0
149
0.0
100
AcDbLayout
  1
Layout2
 70
     1
 71
     2
 10
0.0
 20
0.0
 11
0.0
 21
0.0
 12
0.0
 22
0.0
 32
0.0
 14
0.0
 24
0.0
 34
0.0
 15
0.0
 25
0.0
 35
0.0
146
0.0
 13
0.0
 23
0.0
 33
0.0
 16
1.0
 26
0.0
 36
0.0
 17
0.0
 27
1.0
 37
0.0
 76
     0
330
23
  0
LAYOUT
  5
22
102
{ACAD_REACTORS
330
1A
102
}
330
1A
100
AcDbPlotSettings
  1

  2
none_device
  4

  6

 40
0.0
 41
0.0
 42
0.0
 43
0.0
 44
0.0
 45
0.0
 46
0.0
 47
0.0
 48
0.0
 49
0.0
140
0.0
141
0.0
142
1.0
143
1.0
 70
  1712
 72
     0
 73
     0
 74
     0
  7

 75
     0
147
1.0
148
0.0
149
0.0
100
AcDbLayout
  1
Model
 70
     1
 71
     0
 10
0.0
 20
0.0
 11
12.0
 21
9.0
 12
0.0
 22
0.0
 32
0.0
 14
4.992874
 24
13.385742
 34
0.0
 15
180.8508
 25
140.135818
 35
0.0
146
0.0
 13
0.0
 23
0.0
 33
0.0
 16
1.0
 26
0.0
 36
0.0
 17
0.0
 27
1.0
 37
0.0
 76
     0
330
1F
331
29
  0
MLINESTYLE
  5
18
102
{ACAD_REACTORS
330
17
102
}
330
17
100
AcDbMlineStyle
  2
Standard
 70
     0
  3

 62
   256
 51
90.0
 52
90.0
 71
     2
 49
0.5
 62
   256
  6
BYLAYER
 49
-0.5
 62
   256
  6
BYLAYER
  0
ACDBPLACEHOLDER
  5
F
102
{ACAD_REACTORS
330
E
102
}
330
E
  0
SCALE
  5
3C
102
{ACAD_REACTORS
330
3B
102
}
330
3B
100
AcDbScale
 70
     0
300
1:1
140
1.0
141
1.0
290
     1
  0
SCALE
  5
3D
102
{ACAD_REACTORS
330
3B
102
}
330
3B
100
AcDbScale
 70
     0
300
1:2
140
1.0
141
2.0
290
     0
  0
SCALE
  5
3E
102
{ACAD_REACTORS
330
3B
102
}
330
3B
100
AcDbScale
 70
     0
300
1:4
140
1.0
141
4.0
290
     0
  0
SCALE
  5
3F
102
{ACAD_REACTORS
330
3B
102
}
330
3B
100
AcDbScale
 70
     0
300
1:5
140
1.0
141
5.0
290
     0
  0
SCALE
  5
40
102
{ACAD_REACTORS
330
3B
102
}
330
3B
100
AcDbScale
 70
     0
300
1:8
140
1.0
141
8.0
290
     0
  0
SCALE
  5
41
102
{ACAD_REACTORS
330
3B
102
}
330
3B
100
AcDbScale
 70
     0
300
1:10
140
1.0
141
10.0
290
     0
  0
SCALE
  5
42
102
{ACAD_REACTORS
330
3B
102
}
330
3B
100
AcDbScale
 70
     0
300
1:16
140
1.0
141
16.0
290
     0
  0
SCALE
  5
43
102
{ACAD_REACTORS
330
3B
102
}
330
3B
100
AcDbScale
 70
     0
300
1:20
140
1.0
141
20.0
290
     0
  0
SCALE
  5
44
102
{ACAD_REACTORS
330
3B
102
}
330
3B
100
AcDbScale
 70
     0
300
1:30
140
1.0
141
30.0
290
     0
  0
SCALE
  5
45
102
{ACAD_REACTORS
330
3B
102
}
330
3B
100
AcDbScale
 70
     0
300
1:40
140
1.0
141
40.0
290
     0
  0
SCALE
  5
46
102
{ACAD_REACTORS
330
3B
102
}
330
3B
100
AcDbScale
 70
     0
300
1:50
140
1.0
141
50.0
290
     0
  0
SCALE
  5
47
102
{ACAD_REACTORS
330
3B
102
}
330
3B
100
AcDbScale
 70
     0
300
1:100
140
1.0
141
100.0
290
     0
  0
SCALE
  5
48
102
{ACAD_REACTORS
330
3B
102
}
330
3B
100
AcDbScale
 70
     0
300
2:1
140
2.0
141
1.0
290
     0
  0
SCALE
  5
49
102
{ACAD_REACTORS
330
3B
102
}
330
3B
100
AcDbScale
 70
     0
300
4:1
140
4.0
141
1.0
290
     0
  0
SCALE
  5
4A
102
{ACAD_REACTORS
330
3B
102
}
330
3B
100
AcDbScale
 70
     0
300
8:1
140
8.0
141
1.0
290
     0
  0
SCALE
  5
4B
102
{ACAD_REACTORS
330
3B
102
}
330
3B
100
AcDbScale
 70
     0
300
10:1
140
10.0
141
1.0
290
     0
  0
SCALE
  5
4C
102
{ACAD_REACTORS
330
3B
102
}
330
3B
100
AcDbScale
 70
     0
300
100:1
140
100.0
141
1.0
290
     0
  0
SCALE
  5
4D
102
{ACAD_REACTORS
330
3B
102
}
330
3B
100
AcDbScale
 70
     0
300
1/128" = 1'-0"
140
0.007812
141
12.0
290
     0
  0
SCALE
  5
4E
102
{ACAD_REACTORS
330
3B
102
}
330
3B
100
AcDbScale
 70
     0
300
1/64" = 1'-0"
140
0.015625
141
12.0
290
     0
  0
SCALE
  5
4F
102
{ACAD_REACTORS
330
3B
102
}
330
3B
100
AcDbScale
 70
     0
300
1/32" = 1'-0"
140
0.03125
141
12.0
290
     0
  0
SCALE
  5
50
102
{ACAD_REACTORS
330
3B
102
}
330
3B
100
AcDbScale
 70
     0
300
1/16" = 1'-0"
140
0.0625
141
12.0
290
     0
  0
SCALE
  5
51
102
{ACAD_REACTORS
330
3B
102
}
330
3B
100
AcDbScale
 70
     0
300
3/32" = 1'-0"
140
0.09375
141
12.0
290
     0
  0
SCALE
  5
52
102
{ACAD_REACTORS
330
3B
102
}
330
3B
100
AcDbScale
 70
     0
300
1/8" = 1'-0"
140
0.125
141
12.0
290
     0
  0
SCALE
  5
53
102
{ACAD_REACTORS
330
3B
102
}
330
3B
100
AcDbScale
 70
     0
300
3/16" = 1'-0"
140
0.1875
141
12.0
290
     0
  0
SCALE
  5
54
102
{ACAD_REACTORS
330
3B
102
}
330
3B
100
AcDbScale
 70
     0
300
1/4" = 1'-0"
140
0.25
141
12.0
290
     0
  0
SCALE
  5
55
102
{ACAD_REACTORS
330
3B
102
}
330
3B
100
AcDbScale
 70
     0
300
3/8" = 1'-0"
140
0.375
141
12.0
290
     0
  0
SCALE
  5
56
102
{ACAD_REACTORS
330
3B
102
}
330
3B
100
AcDbScale
 70
     0
300
1/2" = 1'-0"
140
0.5
141
12.0
290
     0
  0
SCALE
  5
57
102
{ACAD_REACTORS
330
3B
102
}
330
3B
100
AcDbScale
 70
     0
300
3/4" = 1'-0"
140
0.75
141
12.0
290
     0
  0
SCALE
  5
58
102
{ACAD_REACTORS
330
3B
102
}
330
3B
100
AcDbScale
 70
     0
300
1" = 1'-0"
140
1.0
141
12.0
290
     0
  0
SCALE
  5
59
102
{ACAD_REACTORS
330
3B
102
}
330
3B
100
AcDbScale
 70
     0
300
1-1/2" = 1'-0"
140
1.5
141
12.0
290
     0
  0
SCALE
  5
5A
102
{ACAD_REACTORS
330
3B
102
}
330
3B
100
AcDbScale
 70
     0
300
3" = 1'-0"
140
3.0
141
12.0
290
     0
  0
SCALE
  5
5B
102
{ACAD_REACTORS
330
3B
102
}
330
3B
100
AcDbScale
 70
     0
300
6" = 1'-0"
140
6.0
141
12.0
290
     0
  0
SCALE
  5
5C
102
{ACAD_REACTORS
330
3B
102
}
330
3B
100
AcDbScale
 70
     0
300
1'-0" = 1'-0"
140
12.0
141
12.0
290
     0
  0
VISUALSTYLE
  5
2F
102
{ACAD_REACTORS
330
2A
102
}
330
2A
100
AcDbVisualStyle
  2
2dWireframe
 70
     4
 71
     0
 72
     2
 73
     0
 90
        0
 40
-0.6
 41
-30.0
 62
     5
 63
     7
 74
     1
 91
        4
 64
     7
 65
   257
 75
     1
175
     1
 42
1.0
 92
        0
 66
   257
 43
1.0
 76
     1
 77
     6
 78
     2
 67
     7
 79
     5
170
     0
171
     0
290
     0
174
     0
 93
        1
 44
0.0
173
     0
291
     0
 45
0.0
1001
ACAD
1000
AcDbSavedByObjectVersion
1070
     0
  0
VISUALSTYLE
  5
31
102
{ACAD_REACTORS
330
2A
102
}
330
2A
100
AcDbVisualStyle
  2
3D Hidden
 70
     6
 71
     1
 72
     2
 73
     2
 90
        0
 40
-0.6
 41
-30.0
 62
     5
 63
     7
 74
     2
 91
        2
 64
     7
 65
   257
 75
     2
175
     1
 42
40.0
 92
        0
 66
   257
 43
1.0
 76
     1
 77
     6
 78
     2
 67
     7
 79
     3
170
     0
171
     0
290
     0
174
     0
 93
        1
 44
0.0
173
     0
291
     0
 45
0.0
1001
ACAD
1000
AcDbSavedByObjectVersion
1070
     0
  0
VISUALSTYLE
  5
30
102
{ACAD_REACTORS
330
2A
102
}
330
2A
100
AcDbVisualStyle
  2
3dWireframe
 70
     5
 71
     0
 72
     2
 73
     0
 90
        0
 40
-0.6
 41
-30.0
 62
     5
 63
     7
 74
     1
 91
        4
 64
     7
 65
   257
 75
     1
175
     1
 42
1.0
 92
        0
 66
   257
 43
1.0
 76
     1
 77
     6
 78
     2
 67
     7
 79
     5
170
     0
171
     0
290
     0
174
     0
 93
        1
 44
0.0
173
     0
291
     0
 45
0.0
1001
ACAD
1000
AcDbSavedByObjectVersion
1070
     0
  0
VISUALSTYLE
  5
32
102
{ACAD_REACTORS
330
2A
102
}
330
2A
100
AcDbVisualStyle
  2
Basic
 70
     7
 71
     1
 72
     0
 73
     1
 90
        0
 40
-0.6
 41
-30.0
 62
     5
 63
     7
 74
     0
 91
        4
 64
     7
 65
   257
 75
     1
175
     1
 42
1.0
 92
        8
 66
     7
 43
1.0
 76
     1
 77
     6
 78
     2
 67
     7
 79
     5
170
     0
171
     0
290
     0
174
     0
 93
        1
 44
0.0
173
     0
291
     1
 45
0.0
1001
ACAD
1000
AcDbSavedByObjectVersion
1070
     0
  0
VISUALSTYLE
  5
36
102
{ACAD_REACTORS
330
2A
102
}
330
2A
100
AcDbVisualStyle
  2
Brighten
 70
    12
 71
     2
 72
     2
 73
     0
 90
        0
 40
-0.6
 41
-30.0
 62
     5
 63
     7
 74
     1
 91
        4
 64
     7
 65
   257
 75
     1
175
     1
 42
1.0
 92
        8
 66
     7
 43
1.0
 76
     1
 77
     6
 78
     2
 67
     7
 79
     5
170
     0
171
     0
290
     0
174
     0
 93
        1
 44
50.0
173
     0
291
     1
 45
0.0
1001
ACAD
1000
AcDbSavedByObjectVersion
1070
     0
  0
VISUALSTYLE
  5
3A
102
{ACAD_REACTORS
330
2A
102
}
330
2A
100
AcDbVisualStyle
  2
ColorChange
 70
    16
 71
     2
 72
     2
 73
     3
 90
        0
 40
-0.6
 41
-30.0
 62
     5
 63
     8
 74
     1
 91
        4
 64
     7
 65
   257
 75
     1
175
     1
 42
1.0
 92
        8
 66
     8
 43
1.0
 76
     1
 77
     6
 78
     2
 67
     7
 79
     5
170
     0
171
     0
290
     0
174
     0
 93
        1
 44
0.0
173
     0
291
     1
 45
0.0
1001
ACAD
1000
AcDbSavedByObjectVersion
1070
     0
  0
VISUALSTYLE
  5
34
102
{ACAD_REACTORS
330
2A
102
}
330
2A
100
AcDbVisualStyle
  2
Conceptual
 70
     9
 71
     3
 72
     2
 73
     0
 90
        0
 40
-0.6
 41
-30.0
 62
     5
 63
     7
 74
     2
 91
        2
 64
     7
 65
   257
 75
     1
175
     1
 42
40.0
 92
        8
 66
     7
 43
1.0
 76
     1
 77
     6
 78
     2
 67
     7
 79
     3
170
     0
171
     0
290
     0
174
     0
 93
        1
 44
0.0
173
     0
291
     0
 45
0.0
1001
ACAD
1000
AcDbSavedByObjectVersion
1070
     0
  0
VISUALSTYLE
  5
35
102
{ACAD_REACTORS
330
2A
102
}
330
2A
100
AcDbVisualStyle
  2
Dim
 70
    11
 71
     2
 72
     2
 73
     0
 90
        0
 40
-0.6
 41
-30.0
 62
     5
 63
     7
 74
     1
 91
        4
 64
     7
 65
   257
 75
     1
175
     1
 42
1.0
 92
        8
 66
     7
 43
1.0
 76
     1
 77
     6
 78
     2
 67
     7
 79
     5
170
     0
171
     0
290
     0
174
     0
 93
        1
 44
-50.0
173
     0
291
     1
 45
0.0
1001
ACAD
1000
AcDbSavedByObjectVersion
1070
     0
  0
VISUALSTYLE
  5
39
102
{ACAD_REACTORS
330
2A
102
}
330
2A
100
AcDbVisualStyle
  2
Facepattern
 70
    15
 71
     2
 72
     2
 73
     0
 90
        0
 40
-0.6
 41
-30.0
 62
     5
 63
     7
 74
     1
 91
        4
 64
     7
 65
   257
 75
     1
175
     1
 42
1.0
 92
        8
 66
     7
 43
1.0
 76
     1
 77
     6
 78
     2
 67
     7
 79
     5
170
     0
171
     0
290
     0
174
     0
 93
        1
 44
0.0
173
     0
291
     1
 45
0.0
1001
ACAD
1000
AcDbSavedByObjectVersion
1070
     0
  0
VISUALSTYLE
  5
2B
102
{ACAD_REACTORS
330
2A
102
}
330
2A
100
AcDbVisualStyle
  2
Flat
 70
     0
 71
     2
 72
     1
 73
     1
 90
        2
 40
-0.6
 41
30.0
 62
     5
 63
     7
 74
     0
 91
        4
 64
     7
 65
   257
 75
     1
175
     1
 42
1.0
 92
        8
 66
     7
 43
1.0
 76
     1
 77
     6
 78
     2
 67
     7
 79
     5
170
     0
171
     0
290
     0
174
     0
 93
       13
 44
0.0
173
     0
291
     1
 45
0.0
1001
ACAD
1000
AcDbSavedByObjectVersion
1070
     0
  0
VISUALSTYLE
  5
2C
102
{ACAD_REACTORS
330
2A
102
}
330
2A
100
AcDbVisualStyle
  2
FlatWithEdges
 70
     1
 71
     2
 72
     1
 73
     1
 90
        2
 40
-0.6
 41
30.0
 62
     5
 63
     7
 74
     1
 91
        4
 64
     7
 65
   257
 75
     1
175
     1
 42
1.0
 92
        0
 66
   257
 43
1.0
 76
     1
 77
     6
 78
     2
 67
     7
 79
     5
170
     0
171
     0
290
     0
174
     0
 93
       13
 44
0.0
173
     0
291
     1
 45
0.0
1001
ACAD
1000
AcDbSavedByObjectVersion
1070
     0
  0
VISUALSTYLE
  5
2D
102
{ACAD_REACTORS
330
2A
102
}
330
2A
100
AcDbVisualStyle
  2
Gouraud
 70
     2
 71
     2
 72
     2
 73
     1
 90
        2
 40
-0.6
 41
30.0
 62
     5
 63
     7
 74
     0
 91
        4
 64
     7
 65
   257
 75
     1
175
     1
 42
1.0
 92
        0
 66
     7
 43
1.0
 76
     1
 77
     6
 78
     2
 67
     7
 79
     5
170
     0
171
     0
290
     0
174
     0
 93
       13
 44
0.0
173
     0
291
     1
 45
0.0
1001
ACAD
1000
AcDbSavedByObjectVersion
1070
     0
  0
VISUALSTYLE
  5
2E
102
{ACAD_REACTORS
330
2A
102
}
330
2A
100
AcDbVisualStyle
  2
GouraudWithEdges
 70
     3
 71
     2
 72
     2
 73
     1
 90
        2
 40
-0.6
 41
30.0
 62
     5
 63
     7
 74
     1
 91
        4
 64
     7
 65
   257
 75
     1
175
     1
 42
1.0
 92
        0
 66
   257
 43
1.0
 76
     1
 77
     6
 78
     2
 67
     7
 79
     5
170
     0
171
     0
290
     0
174
     0
 93
       13
 44
0.0
173
     0
291
     1
 45
0.0
1001
ACAD
1000
AcDbSavedByObjectVersion
1070
     0
  0
VISUALSTYLE
  5
38
102
{ACAD_REACTORS
330
2A
102
}
330
2A
100
AcDbVisualStyle
  2
Linepattern
 70
    14
 71
     2
 72
     2
 73
     0
 90
        0
 40
-0.6
 41
-30.0
 62
     5
 63
     7
 74
     1
 91
        4
 64
     7
 65
   257
 75
     7
175
     7
 42
1.0
 92
        8
 66
     7
 43
1.0
 76
     1
 77
     6
 78
     2
 67
     7
 79
     5
170
     0
171
     0
290
     0
174
     0
 93
        1
 44
0.0
173
     0
291
     1
 45
0.0
1001
ACAD
1000
AcDbSavedByObjectVersion
1070
     0
  0
VISUALSTYLE
  5
33
102
{ACAD_REACTORS
330
2A
102
}
330
2A
100
AcDbVisualStyle
  2
Realistic
 70
     8
 71
     2
 72
     2
 73
     0
 90
        0
 40
-0.6
 41
-30.0
 62
     5
 63
     7
 74
     1
 91
        0
 64
     7
 65
   257
 75
     1
175
     1
 42
1.0
 92
        8
 66
     8
 43
1.0
 76
     1
 77
     6
 78
     2
 67
     7
 79
     5
170
     0
171
     0
290
     0
174
     0
 93
       13
 44
0.0
173
     0
291
     0
 45
0.0
1001
ACAD
1000
AcDbSavedByObjectVersion
1070
     0
  0
VISUALSTYLE
  5
37
102
{ACAD_REACTORS
330
2A
102
}
330
2A
100
AcDbVisualStyle
  2
Thicken
 70
    13
 71
     2
 72
     2
 73
     0
 90
        0
 40
-0.6
 41
-30.0
 62
     5
 63
     7
 74
     1
 91
        4
 64
     7
 65
   257
 75
     1
175
     1
 42
1.0
 92
       12
 66
     7
 43
1.0
 76
     1
 77
     6
 78
     2
 67
     7
 79
     5
170
     0
171
     0
290
     0
174
     0
 93
        1
 44
0.0
173
     0
291
     1
 45
0.0
1001
ACAD
1000
AcDbSavedByObjectVersion
1070
     0
  0
DICTIONARYVAR
  5
380
102
{ACAD_REACTORS
330
37F
102
}
330
37F
100
DictionaryVariables
280
     0
  1
1:1
  0
DICTIONARYVAR
  5
384
102
{ACAD_REACTORS
330
37F
102
}
330
37F
100
DictionaryVariables
280
     0
  1
80.000000
  0
DICTIONARYVAR
  5
383
102
{ACAD_REACTORS
330
37F
102
}
330
37F
100
DictionaryVariables
280
     0
  1
5.000000
  0
ENDSEC
  0
EOF
