  0
SECTION
  2
HEADER
  9
$ACADVER
  1
AC1014
  9
$ACADMAINTVER
 70
     9
  9
$DWGCODEPAGE
  3
ANSI_932
  9
$INSBASE
 10
0.0
 20
0.0
 30
0.0
  9
$EXTMIN
 10
-19.69571793515047
 20
7.696066000000002
 30
0.0
  9
$EXTMAX
 10
187.710779
 20
78.59656033333334
 30
0.0
  9
$LIMMIN
 10
0.0
 20
0.0
  9
$LIMMAX
 10
12.0
 20
9.0
  9
$ORTHOMODE
 70
     0
  9
$REGENMODE
 70
     1
  9
$FILLMODE
 70
     1
  9
$QTEXTMODE
 70
     0
  9
$MIRRTEXT
 70
     1
  9
$DRAGMODE
 70
     2
  9
$LTSCALE
 40
2.072839
  9
$OSMODE
 70
   511
  9
$ATTMODE
 70
     1
  9
$TEXTSIZE
 40
0.2
  9
$TRACEWID
 40
1.0
  9
$TEXTSTYLE
  7
STANDARD
  9
$CLAYER
  8
0
  9
$CELTYPE
  6
BYLAYER
  9
$CECOLOR
 62
   256
  9
$CELTSCALE
 40
1.0
  9
$DELOBJ
 70
     1
  9
$DISPSILH
 70
     0
  9
$DIMSCALE
 40
1.0
  9
$DIMASZ
 40
2.5
  9
$DIMEXO
 40
0.625
  9
$DIMDLI
 40
3.75
  9
$DIMRND
 40
0.0
  9
$DIMDLE
 40
0.0
  9
$DIMEXE
 40
1.25
  9
$DIMTP
 40
0.0
  9
$DIMTM
 40
0.0
  9
$DIMTXT
 40
2.5
  9
$DIMCEN
 40
0.09
  9
$DIMTSZ
 40
0.0
  9
$DIMTOL
 70
     0
  9
$DIMLIM
 70
     0
  9
$DIMTIH
 70
     0
  9
$DIMTOH
 70
     0
  9
$DIMSE1
 70
     0
  9
$DIMSE2
 70
     0
  9
$DIMTAD
 70
     0
  9
$DIMZIN
 70
     8
  9
$DIMBLK
  1
OPEN30
  9
$DIMASO
 70
     1
  9
$DIMSHO
 70
     0
  9
$DIMPOST
  1

  9
$DIMAPOST
  1

  9
$DIMALT
 70
     0
  9
$DIMALTD
 70
     3
  9
$DIMALTF
 40
0.03937
  9
$DIMLFAC
 40
1.0
  9
$DIMTOFL
 70
     1
  9
$DIMTVP
 40
0.0
  9
$DIMTIX
 70
     0
  9
$DIMSOXD
 70
     0
  9
$DIMSAH
 70
     0
  9
$DIMBLK1
  1

  9
$DIMBLK2
  1

  9
$DIMSTYLE
  2
ISO-25
  9
$DIMCLRD
 70
     0
  9
$DIMCLRE
 70
     0
  9
$DIMCLRT
 70
     0
  9
$DIMTFAC
 40
1.0
  9
$DIMGAP
 40
0.625
  9
$DIMJUST
 70
     0
  9
$DIMSD1
 70
     0
  9
$DIMSD2
 70
     0
  9
$DIMTOLJ
 70
     1
  9
$DIMTZIN
 70
     0
  9
$DIMALTZ
 70
     0
  9
$DIMALTTZ
 70
     0
  9
$DIMFIT
 70
     5
  9
$DIMUPT
 70
     0
  9
$DIMUNIT
 70
     2
  9
$DIMDEC
 70
     4
  9
$DIMTDEC
 70
     4
  9
$DIMALTU
 70
     2
  9
$DIMALTTD
 70
     2
  9
$DIMTXSTY
  7
STANDARD
  9
$DIMAUNIT
 70
     0
  9
$LUNITS
 70
     2
  9
$LUPREC
 70
     4
  9
$SKETCHINC
 40
1.0
  9
$FILLETRAD
 40
0.0
  9
$AUNITS
 70
     0
  9
$AUPREC
 70
     0
  9
$MENU
  1
.
  9
$ELEVATION
 40
0.0
  9
$PELEVATION
 40
0.0
  9
$THICKNESS
 40
0.0
  9
$LIMCHECK
 70
     0
  9
$CHAMFERA
 40
10.0
  9
$CHAMFERB
 40
10.0
  9
$CHAMFERC
 40
1.0
  9
$CHAMFERD
 40
0.0
  9
$SKPOLY
 70
     0
  9
$TDCREATE
 40
2454734.423429884
  9
$TDUPDATE
 40
2457962.432889178
  9
$TDINDWG
 40
0.0066205208
  9
$TDUSRTIMER
 40
2457962.057732338
  9
$USRTIMER
 70
     1
  9
$ANGBASE
 50
0.0
  9
$ANGDIR
 70
     0
  9
$PDMODE
 70
     0
  9
$PDSIZE
 40
0.0
  9
$PLINEWID
 40
0.0
  9
$COORDS
 70
     1
  9
$SPLFRAME
 70
     0
  9
$SPLINETYPE
 70
     6
  9
$SPLINESEGS
 70
     8
  9
$ATTDIA
 70
     0
  9
$ATTREQ
 70
     1
  9
$HANDLING
 70
     1
  9
$HANDSEED
  5
33E
  9
$SURFTAB1
 70
     6
  9
$SURFTAB2
 70
     6
  9
$SURFTYPE
 70
     6
  9
$SURFU
 70
     6
  9
$SURFV
 70
     6
  9
$UCSNAME
  2

  9
$UCSORG
 10
0.0
 20
0.0
 30
0.0
  9
$UCSXDIR
 10
1.0
 20
0.0
 30
0.0
  9
$UCSYDIR
 10
0.0
 20
1.0
 30
0.0
  9
$PUCSNAME
  2

  9
$PUCSORG
 10
0.0
 20
0.0
 30
0.0
  9
$PUCSXDIR
 10
1.0
 20
0.0
 30
0.0
  9
$PUCSYDIR
 10
0.0
 20
1.0
 30
0.0
  9
$USERI1
 70
     0
  9
$USERI2
 70
     0
  9
$USERI3
 70
     0
  9
$USERI4
 70
     0
  9
$USERI5
 70
     0
  9
$USERR1
 40
0.0
  9
$USERR2
 40
0.0
  9
$USERR3
 40
0.0
  9
$USERR4
 40
0.0
  9
$USERR5
 40
0.0
  9
$WORLDVIEW
 70
     1
  9
$SHADEDGE
 70
     3
  9
$SHADEDIF
 70
    70
  9
$TILEMODE
 70
     1
  9
$MAXACTVP
 70
    64
  9
$PINSBASE
 10
0.0
 20
0.0
 30
0.0
  9
$PLIMCHECK
 70
     0
  9
$PEXTMIN
 10
1.000000000000000E+20
 20
1.000000000000000E+20
 30
0.0
  9
$PEXTMAX
 10
-1.000000000000000E+20
 20
-1.000000000000000E+20
 30
0.0
  9
$PLIMMIN
 10
0.0
 20
0.0
  9
$PLIMMAX
 10
0.0
 20
0.0
  9
$UNITMODE
 70
     0
  9
$VISRETAIN
 70
     1
  9
$PLINEGEN
 70
     0
  9
$PSLTSCALE
 70
     1
  9
$TREEDEPTH
 70
  3020
  9
$PICKSTYLE
 70
     1
  9
$CMLSTYLE
  2
STANDARD
  9
$CMLJUST
 70
     0
  9
$CMLSCALE
 40
1.0
  9
$PROXYGRAPHICS
 70
     1
  9
$MEASUREMENT
 70
     0
  0
ENDSEC
  0
SECTION
  2
CLASSES
  0
CLASS
  1
ACDBDICTIONARYWDFLT
  2
AcDbDictionaryWithDefault
  3
ObjectDBX Classes
 90
        0
280
     0
281
     0
  0
CLASS
  1
MATERIAL
  2
AcDbMaterial
  3
ObjectDBX Classes
 90
     1153
280
     0
281
     0
  0
CLASS
  1
SCALE
  2
AcDbScale
  3
ObjectDBX Classes
 90
     1153
280
     0
281
     0
  0
CLASS
  1
VISUALSTYLE
  2
AcDbVisualStyle
  3
ObjectDBX Classes
 90
     4095
280
     0
281
     0
  0
CLASS
  1
TABLESTYLE
  2
AcDbTableStyle
  3
ObjectDBX Classes
 90
     4095
280
     0
281
     0
  0
CLASS
  1
RASTERVARIABLES
  2
AcDbRasterVariables
  3
ISM
 90
        0
280
     0
281
     0
  0
CLASS
  1
DIMASSOC
  2
AcDbDimAssoc
  3
"AcDbDimAssoc|Product Desc:     AcDim ARX App For Dimension|Company:          Autodesk, Inc.|WEB Address:      www.autodesk.com"
 90
        0
280
     0
281
     0
  0
CLASS
  1
DICTIONARYVAR
  2
AcDbDictionaryVar
  3
ObjectDBX Classes
 90
        0
280
     0
281
     0
  0
CLASS
  1
XRECORD
  2
AcDbXrecord
  3
ObjectDBX Classes
 90
        0
280
     0
281
     0
  0
CLASS
  1
LWPOLYLINE
  2
AcDbPolyline
  3
ObjectDBX Classes
 90
        0
280
     0
281
     1
  0
CLASS
  1
HATCH
  2
AcDbHatch
  3
ObjectDBX Classes
 90
        0
280
     0
281
     1
  0
CLASS
  1
SUN
  2
AcDbSun
  3
SCENEOE
 90
     1153
280
     0
281
     0
  0
CLASS
  1
MLEADERSTYLE
  2
AcDbMLeaderStyle
  3
ACDB_MLEADERSTYLE_CLASS
 90
     4095
280
     0
281
     0
  0
ENDSEC
  0
SECTION
  2
TABLES
  0
TABLE
  2
VPORT
  5
1FF
330
0
100
AcDbSymbolTable
 70
     1
  0
VPORT
  5
216
330
1FF
100
AcDbSymbolTableRecord
100
AcDbViewportTableRecord
  2
*ACTIVE
 70
     0
 10
0.0
 20
0.0
 11
1.0
 21
1.0
 12
91.37785079209357
 22
49.51877120267271
 13
0.0
 23
0.0
 14
1.0
 24
1.0
 15
0.0
 25
0.0
 16
0.0
 26
0.0
 36
1.0
 17
0.0
 27
0.0
 37
0.0
 40
270.3912717044798
 41
1.369408369408369
 42
50.0
 43
0.0
 44
0.0
 50
0.0
 51
0.0
 71
    16
 72
   100
 73
     1
 74
     3
 75
     0
 76
     0
 77
     0
 78
     0
  0
ENDTAB
  0
TABLE
  2
LTYPE
  5
1FC
330
0
100
AcDbSymbolTable
 70
     5
  0
LTYPE
  5
20A
330
1FC
100
AcDbSymbolTableRecord
100
AcDbLinetypeTableRecord
  2
BYBLOCK
 70
     0
  3

 72
    65
 73
     0
 40
0.0
  0
LTYPE
  5
20B
330
1FC
100
AcDbSymbolTableRecord
100
AcDbLinetypeTableRecord
  2
BYLAYER
 70
     0
  3

 72
    65
 73
     0
 40
0.0
  0
LTYPE
  5
20C
330
1FC
100
AcDbSymbolTableRecord
100
AcDbLinetypeTableRecord
  2
CONTINUOUS
 70
     0
  3
Solid line
 72
    65
 73
     0
 40
0.0
  0
LTYPE
  5
218
330
1FC
100
AcDbSymbolTableRecord
100
AcDbLinetypeTableRecord
  2
DASHED
 70
     0
  3
DASHED
 72
    83
 73
     2
 40
0.75
 49
0.5
 74
     0
 49
-0.25
 74
     0
  0
LTYPE
  5
219
330
1FC
100
AcDbSymbolTableRecord
100
AcDbLinetypeTableRecord
  2
HIDDEN
 70
     0
  3
HIDDEN
 72
    83
 73
     2
 40
0.375
 49
0.25
 74
     0
 49
-0.125
 74
     0
  0
LTYPE
  5
21A
330
1FC
100
AcDbSymbolTableRecord
100
AcDbLinetypeTableRecord
  2
CENTER
 70
     0
  3
CENTER
 72
    83
 73
     4
 40
2.0
 49
1.25
 74
     0
 49
-0.25
 74
     0
 49
0.25
 74
     0
 49
-0.25
 74
     0
  0
LTYPE
  5
21B
330
1FC
100
AcDbSymbolTableRecord
100
AcDbLinetypeTableRecord
  2
PHANTOM
 70
     0
  3
PHANTOM
 72
    83
 73
     6
 40
2.5
 49
1.25
 74
     0
 49
-0.25
 74
     0
 49
0.25
 74
     0
 49
-0.25
 74
     0
 49
0.25
 74
     0
 49
-0.25
 74
     0
  0
ENDTAB
  0
TABLE
  2
LAYER
  5
1F9
330
0
100
AcDbSymbolTable
 70
     3
  0
LAYER
  5
207
330
1F9
100
AcDbSymbolTableRecord
100
AcDbLayerTableRecord
  2
0
 70
     0
 62
     7
  6
CONTINUOUS
  0
LAYER
  5
221
330
1F9
100
AcDbSymbolTableRecord
100
AcDbLayerTableRecord
  2
001
 70
     0
 62
     7
  6
CONTINUOUS
  0
LAYER
  5
222
330
1F9
100
AcDbSymbolTableRecord
100
AcDbLayerTableRecord
  2
DEFPOINTS
 70
     0
 62
     7
  6
CONTINUOUS
  0
ENDTAB
  0
TABLE
  2
STYLE
  5
1FA
330
0
100
AcDbSymbolTable
 70
     2
  0
STYLE
  5
208
330
1FA
100
AcDbSymbolTableRecord
100
AcDbTextStyleTableRecord
  2
STANDARD
 70
     0
 40
0.0
 41
1.0
 50
0.0
 71
     0
 42
0.2
  3
TXT
  4
BIGFONT
  0
STYLE
  5
224
330
1FA
100
AcDbSymbolTableRecord
100
AcDbTextStyleTableRecord
  2
TATEGAKI
 70
     4
 40
1.0
 41
1.0
 50
0.0
 71
     0
 42
0.2
  3
TXT
  4
BIGFONT
  0
ENDTAB
  0
TABLE
  2
VIEW
  5
1FD
330
0
100
AcDbSymbolTable
 70
     0
  0
ENDTAB
  0
TABLE
  2
UCS
  5
1FE
330
0
100
AcDbSymbolTable
 70
     0
  0
ENDTAB
  0
TABLE
  2
APPID
  5
200
330
0
100
AcDbSymbolTable
 70
     1
  0
APPID
  5
209
330
200
100
AcDbSymbolTableRecord
100
AcDbRegAppTableRecord
  2
ACAD
 70
     0
  0
ENDTAB
  0
TABLE
  2
DIMSTYLE
  5
201
330
0
100
AcDbSymbolTable
 70
     2
  0
DIMSTYLE
105
226
102
{ACAD_REACTORS
330
2E0
102
}
330
201
100
AcDbSymbolTableRecord
100
AcDbDimStyleTableRecord
  2
ISO-25
 70
     0
  3

  4

  5

  6

  7

 40
1.0
 41
2.5
 42
0.625
 43
3.75
 44
1.25
 45
0.0
 46
0.0
 47
0.0
 48
0.0
140
2.5
141
2.5
142
0.0
143
0.03937
144
1.0
145
0.0
146
1.0
147
0.625
 71
     0
 72
     0
 73
     0
 74
     0
 75
     0
 76
     0
 77
     1
 78
     8
170
     0
171
     3
172
     1
173
     0
174
     0
175
     0
176
     0
177
     0
178
     0
270
     2
271
     4
272
     4
273
     2
274
     2
340
208
275
     0
280
     0
281
     0
282
     0
283
     1
284
     0
285
     0
286
     0
287
     3
288
     0
  0
DIMSTYLE
105
227
330
201
100
AcDbSymbolTableRecord
100
AcDbDimStyleTableRecord
  2
STANDARD
 70
     0
  3

  4

  5

  6

  7

 40
1.0
 41
1.5
 42
0.0
 43
0.38
 44
2.75
 45
0.0
 46
0.0
 47
0.0
 48
0.0
140
4.0
141
0.09
142
0.0
143
25.4
144
1.0
145
0.0
146
0.8
147
1.0
 71
     0
 72
     0
 73
     0
 74
     0
 75
     0
 76
     0
 77
     1
 78
     8
170
     0
171
     2
172
     1
173
     0
174
     0
175
     0
176
     0
177
     0
178
     0
270
     2
271
     4
272
     4
273
     2
274
     2
340
208
275
     0
280
     0
281
     0
282
     0
283
     1
284
     0
285
     0
286
     0
287
     3
288
     0
  0
ENDTAB
  0
TABLE
  2
BLOCK_RECORD
  5
1F8
330
0
100
AcDbSymbolTable
 70
    13
  0
BLOCK_RECORD
  5
213
330
1F8
100
AcDbSymbolTableRecord
100
AcDbBlockTableRecord
  2
*MODEL_SPACE
  0
BLOCK_RECORD
  5
211
330
1F8
100
AcDbSymbolTableRecord
100
AcDbBlockTableRecord
  2
*PAPER_SPACE
  0
BLOCK_RECORD
  5
22B
330
1F8
100
AcDbSymbolTableRecord
100
AcDbBlockTableRecord
  2
*D0
  0
BLOCK_RECORD
  5
22D
330
1F8
100
AcDbSymbolTableRecord
100
AcDbBlockTableRecord
  2
*D1
  0
BLOCK_RECORD
  5
22F
330
1F8
100
AcDbSymbolTableRecord
100
AcDbBlockTableRecord
  2
*D2
  0
BLOCK_RECORD
  5
231
330
1F8
100
AcDbSymbolTableRecord
100
AcDbBlockTableRecord
  2
*D3
  0
BLOCK_RECORD
  5
233
330
1F8
100
AcDbSymbolTableRecord
100
AcDbBlockTableRecord
  2
*D4
  0
BLOCK_RECORD
  5
235
330
1F8
100
AcDbSymbolTableRecord
100
AcDbBlockTableRecord
  2
*D5
  0
BLOCK_RECORD
  5
237
330
1F8
100
AcDbSymbolTableRecord
100
AcDbBlockTableRecord
  2
*D6
  0
BLOCK_RECORD
  5
239
330
1F8
100
AcDbSymbolTableRecord
100
AcDbBlockTableRecord
  2
*D7
  0
BLOCK_RECORD
  5
23B
330
1F8
100
AcDbSymbolTableRecord
100
AcDbBlockTableRecord
  2
_OPEN30
  0
BLOCK_RECORD
  5
23D
330
1F8
100
AcDbSymbolTableRecord
100
AcDbBlockTableRecord
  2
*D9
  0
BLOCK_RECORD
  5
278
330
1F8
100
AcDbSymbolTableRecord
100
AcDbBlockTableRecord
  2
*D10
  0
BLOCK_RECORD
  5
289
330
1F8
100
AcDbSymbolTableRecord
100
AcDbBlockTableRecord
  2
*D11
  0
BLOCK_RECORD
  5
2E3
330
1F8
100
AcDbSymbolTableRecord
100
AcDbBlockTableRecord
  2
*D12
  0
ENDTAB
  0
ENDSEC
  0
SECTION
  2
BLOCKS
  0
BLOCK
  5
228
330
213
100
AcDbEntity
  8
0
100
AcDbBlockBegin
  2
*MODEL_SPACE
 70
     0
 10
0.0
 20
0.0
 30
0.0
  3
*MODEL_SPACE
  1

  0
ENDBLK
  5
21
330
213
100
AcDbEntity
  8
0
100
AcDbBlockEnd
  0
BLOCK
  5
229
330
211
100
AcDbEntity
 67
     1
  8
0
100
AcDbBlockBegin
  2
*PAPER_SPACE
 70
     0
 10
0.0
 20
0.0
 30
0.0
  3
*PAPER_SPACE
  1

  0
ENDBLK
  5
1D
330
211
100
AcDbEntity
 67
     1
  8
0
100
AcDbBlockEnd
  0
BLOCK
  5
22A
330
22B
100
AcDbEntity
  8
0
100
AcDbBlockBegin
  2
*D0
 70
     1
 10
0.0
 20
0.0
 30
0.0
  3
*D0
  1
*D0
  0
LINE
  5
67
330
22B
100
AcDbEntity
  8
001
100
AcDbLine
 10
50.706832
 20
40.13365
 30
0.0
 11
38.212247
 21
27.639065
 31
0.0
  0
LINE
  5
68
330
22B
100
AcDbEntity
  8
001
100
AcDbLine
 10
46.471694
 20
44.924193
 30
0.0
 11
31.052513
 21
44.924193
 31
0.0
  0
ARC
  5
69
330
22B
100
AcDbEntity
  8
001
100
AcDbCircle
 10
55.497374
 20
44.924193
 30
0.0
 40
21.69486160634386
100
AcDbArc
 50
180.0
 51
225.0
  0
LWPOLYLINE
  5
6A
330
22B
100
AcDbEntity
  8
001
100
AcDbPolyline
 90
        3
 70
     0
 43
0.0
 10
39.42728
 20
30.954506
 10
40.15679099999999
 20
29.583609
 10
38.839568
 20
30.406085
  0
LWPOLYLINE
  5
6F
330
22B
100
AcDbEntity
  8
001
100
AcDbPolyline
 90
        3
 70
     0
 43
0.0
 10
33.452674
 20
43.41119699999999
 10
33.802513
 20
44.924193
 10
34.256042
 20
43.43898099999999
  0
TEXT
  5
74
330
22B
100
AcDbEntity
  8
001
100
AcDbText
 10
34.081715
 20
42.547889
 30
0.0
 40
4.0
  1
４５%%d
 50
292.50001
 41
0.978261
100
AcDbText
  0
POINT
  5
75
330
22B
100
AcDbEntity
  8
001
100
AcDbPoint
 10
50.706832
 20
40.13365
 30
0.0
  0
POINT
  5
76
330
22B
100
AcDbEntity
  8
001
100
AcDbPoint
 10
55.497374
 20
44.924193
 30
0.0
  0
POINT
  5
77
330
22B
100
AcDbEntity
  8
001
100
AcDbPoint
 10
55.497374
 20
44.924193
 30
0.0
  0
POINT
  5
78
330
22B
100
AcDbEntity
  8
001
100
AcDbPoint
 10
46.471694
 20
44.924193
 30
0.0
  0
ENDBLK
  5
66
330
22B
100
AcDbEntity
  8
0
100
AcDbBlockEnd
  0
BLOCK
  5
22C
330
22D
100
AcDbEntity
  8
0
100
AcDbBlockBegin
  2
*D1
 70
     1
 10
0.0
 20
0.0
 30
0.0
  3
*D1
  1
*D1
  0
LINE
  5
7C
330
22D
100
AcDbEntity
  8
001
100
AcDbLine
 10
84.280132
 20
42.174193
 30
0.0
 11
84.280132
 21
14.608818
 31
0.0
  0
LINE
  5
7D
330
22D
100
AcDbEntity
  8
001
100
AcDbLine
 10
47.280132
 20
38.69752
 30
0.0
 11
47.280132
 21
14.608818
 31
0.0
  0
LINE
  5
7E
330
22D
100
AcDbEntity
  8
001
100
AcDbLine
 10
84.280132
 20
17.358818
 30
0.0
 11
47.280132
 21
17.358818
 31
0.0
  0
LWPOLYLINE
  5
7F
330
22D
100
AcDbEntity
  8
001
100
AcDbPolyline
 90
        3
 70
     0
 43
0.0
 10
82.780132
 20
17.760742
 10
84.280132
 20
17.358818
 10
82.780132
 20
16.956894
  0
LWPOLYLINE
  5
84
330
22D
100
AcDbEntity
  8
001
100
AcDbPolyline
 90
        3
 70
     0
 43
0.0
 10
48.780132
 20
16.956894
 10
47.280132
 20
17.358818
 10
48.780132
 20
17.760742
  0
TEXT
  5
89
330
22D
100
AcDbEntity
  8
001
100
AcDbText
 10
61.78013199999999
 20
18.358818
 30
0.0
 40
4.0
  1
３７
 41
0.833333
100
AcDbText
  0
POINT
  5
8A
330
22D
100
AcDbEntity
  8
001
100
AcDbPoint
 10
84.280132
 20
42.174193
 30
0.0
  0
POINT
  5
8B
330
22D
100
AcDbEntity
  8
001
100
AcDbPoint
 10
47.280132
 20
38.69752
 30
0.0
  0
POINT
  5
8C
330
22D
100
AcDbEntity
  8
001
100
AcDbPoint
 10
47.280132
 20
17.358818
 30
0.0
  0
ENDBLK
  5
7B
330
22D
100
AcDbEntity
  8
0
100
AcDbBlockEnd
  0
BLOCK
  5
22E
330
22F
100
AcDbEntity
  8
0
100
AcDbBlockBegin
  2
*D2
 70
     1
 10
0.0
 20
0.0
 30
0.0
  3
*D2
  1
*D2
  0
LINE
  5
90
330
22F
100
AcDbEntity
  8
001
100
AcDbLine
 10
52.097374
 20
41.524193
 30
0.0
 11
52.097374
 21
22.466978
 31
0.0
  0
LINE
  5
91
330
22F
100
AcDbEntity
  8
001
100
AcDbLine
 10
47.280132
 20
38.69752
 30
0.0
 11
47.280132
 21
22.466978
 31
0.0
  0
LINE
  5
92
330
22F
100
AcDbEntity
  8
001
100
AcDbLine
 10
52.097374
 20
25.216978
 30
0.0
 11
47.280132
 21
25.216978
 31
0.0
  0
LWPOLYLINE
  5
93
330
22F
100
AcDbEntity
  8
001
100
AcDbPolyline
 90
        3
 70
     0
 43
0.0
 10
53.597374
 20
24.815055
 10
52.097374
 20
25.216978
 10
53.597374
 20
25.618902
  0
LWPOLYLINE
  5
98
330
22F
100
AcDbEntity
  8
001
100
AcDbPolyline
 90
        3
 70
     0
 43
0.0
 10
45.780132
 20
25.618902
 10
47.280132
 20
25.216978
 10
45.780132
 20
24.815055
  0
TEXT
  5
9D
330
22F
100
AcDbEntity
  8
001
100
AcDbText
 10
55.597374
 20
26.21697800000001
 30
0.0
 40
4.0
  1
４．８
 41
0.833333
100
AcDbText
  0
POINT
  5
9E
330
22F
100
AcDbEntity
  8
001
100
AcDbPoint
 10
52.097374
 20
41.524193
 30
0.0
  0
POINT
  5
9F
330
22F
100
AcDbEntity
  8
001
100
AcDbPoint
 10
47.280132
 20
38.69752
 30
0.0
  0
POINT
  5
A0
330
22F
100
AcDbEntity
  8
001
100
AcDbPoint
 10
47.280132
 20
25.216978
 30
0.0
  0
LINE
  5
A1
330
22F
100
AcDbEntity
  8
001
100
AcDbLine
 10
52.097374
 20
25.216978
 30
0.0
 11
70.597374
 21
25.216978
 31
0.0
  0
LINE
  5
A2
330
22F
100
AcDbEntity
  8
001
100
AcDbLine
 10
47.280132
 20
25.216978
 30
0.0
 11
44.780132
 21
25.216978
 31
0.0
  0
ENDBLK
  5
8F
330
22F
100
AcDbEntity
  8
0
100
AcDbBlockEnd
  0
BLOCK
  5
230
330
231
100
AcDbEntity
  8
0
100
AcDbBlockBegin
  2
*D3
 70
     1
 10
0.0
 20
0.0
 30
0.0
  3
*D3
  1
*D3
  0
LINE
  5
A6
330
231
100
AcDbEntity
  8
001
100
AcDbLine
 10
84.280132
 20
42.174193
 30
0.0
 11
84.280132
 21
14.608818
 31
0.0
  0
LINE
  5
A7
330
231
100
AcDbEntity
  8
001
100
AcDbLine
 10
154.280132
 20
39.924193
 30
0.0
 11
154.280132
 21
14.608818
 31
0.0
  0
LINE
  5
A8
330
231
100
AcDbEntity
  8
001
100
AcDbLine
 10
84.280132
 20
17.358818
 30
0.0
 11
154.280132
 21
17.358818
 31
0.0
  0
LWPOLYLINE
  5
A9
330
231
100
AcDbEntity
  8
001
100
AcDbPolyline
 90
        3
 70
     0
 43
0.0
 10
85.780132
 20
16.956894
 10
84.280132
 20
17.358818
 10
85.780132
 20
17.760742
  0
LWPOLYLINE
  5
AE
330
231
100
AcDbEntity
  8
001
100
AcDbPolyline
 90
        3
 70
     0
 43
0.0
 10
152.780132
 20
17.760742
 10
154.280132
 20
17.358818
 10
152.780132
 20
16.956894
  0
TEXT
  5
B3
330
231
100
AcDbEntity
  8
001
100
AcDbText
 10
115.280132
 20
18.358818
 30
0.0
 40
4.0
  1
７０
 41
0.833333
100
AcDbText
  0
POINT
  5
B4
330
231
100
AcDbEntity
  8
001
100
AcDbPoint
 10
84.280132
 20
42.174193
 30
0.0
  0
POINT
  5
B5
330
231
100
AcDbEntity
  8
001
100
AcDbPoint
 10
154.280132
 20
39.924193
 30
0.0
  0
POINT
  5
B6
330
231
100
AcDbEntity
  8
001
100
AcDbPoint
 10
154.280132
 20
17.358818
 30
0.0
  0
ENDBLK
  5
A5
330
231
100
AcDbEntity
  8
0
100
AcDbBlockEnd
  0
BLOCK
  5
232
330
233
100
AcDbEntity
  8
0
100
AcDbBlockBegin
  2
*D4
 70
     1
 10
0.0
 20
0.0
 30
0.0
  3
*D4
  1
*D4
  0
LINE
  5
BA
330
233
100
AcDbEntity
  8
001
100
AcDbLine
 10
47.280132
 20
38.69752
 30
0.0
 11
47.280132
 21
7.696066
 31
0.0
  0
LINE
  5
BB
330
233
100
AcDbEntity
  8
001
100
AcDbLine
 10
154.280132
 20
39.924193
 30
0.0
 11
154.280132
 21
7.696066
 31
0.0
  0
LINE
  5
BC
330
233
100
AcDbEntity
  8
001
100
AcDbLine
 10
47.280132
 20
10.446066
 30
0.0
 11
154.280132
 21
10.446066
 31
0.0
  0
LWPOLYLINE
  5
BD
330
233
100
AcDbEntity
  8
001
100
AcDbPolyline
 90
        3
 70
     0
 43
0.0
 10
48.780132
 20
10.044143
 10
47.280132
 20
10.446066
 10
48.780132
 20
10.84799
  0
LWPOLYLINE
  5
C2
330
233
100
AcDbEntity
  8
001
100
AcDbPolyline
 90
        3
 70
     0
 43
0.0
 10
152.780132
 20
10.84799
 10
154.280132
 20
10.446066
 10
152.780132
 20
10.044143
  0
TEXT
  5
C7
330
233
100
AcDbEntity
  8
001
100
AcDbText
 10
94.780132
 20
11.446066
 30
0.0
 40
4.0
  1
１０７
 41
0.833333
100
AcDbText
  0
POINT
  5
C8
330
233
100
AcDbEntity
  8
001
100
AcDbPoint
 10
47.280132
 20
38.69752
 30
0.0
  0
POINT
  5
C9
330
233
100
AcDbEntity
  8
001
100
AcDbPoint
 10
154.280132
 20
39.924193
 30
0.0
  0
POINT
  5
CA
330
233
100
AcDbEntity
  8
001
100
AcDbPoint
 10
154.280132
 20
10.446066
 30
0.0
  0
ENDBLK
  5
B9
330
233
100
AcDbEntity
  8
0
100
AcDbBlockEnd
  0
BLOCK
  5
234
330
235
100
AcDbEntity
  8
0
100
AcDbBlockBegin
  2
*D5
 70
     1
 10
0.0
 20
0.0
 30
0.0
  3
*D5
  1
*D5
  0
LINE
  5
CE
330
235
100
AcDbEntity
  8
001
100
AcDbLine
 10
186.497537
 20
44.924193
 30
0.0
 11
186.497537
 21
25.32629200000001
 31
0.0
  0
LINE
  5
CF
330
235
100
AcDbEntity
  8
001
100
AcDbLine
 10
175.497537
 20
44.924193
 30
0.0
 11
175.497537
 21
25.32629200000001
 31
0.0
  0
LINE
  5
D0
330
235
100
AcDbEntity
  8
001
100
AcDbLine
 10
186.497537
 20
28.076292
 30
0.0
 11
175.497537
 21
28.076292
 31
0.0
  0
LWPOLYLINE
  5
D1
330
235
100
AcDbEntity
  8
001
100
AcDbPolyline
 90
        3
 70
     0
 43
0.0
 10
184.997537
 20
28.478215
 10
186.497537
 20
28.076292
 10
184.997537
 20
27.674368
  0
LWPOLYLINE
  5
D6
330
235
100
AcDbEntity
  8
001
100
AcDbPolyline
 90
        3
 70
     0
 43
0.0
 10
176.997537
 20
27.674368
 10
175.497537
 20
28.076292
 10
176.997537
 20
28.478215
  0
TEXT
  5
DB
330
235
100
AcDbEntity
  8
001
100
AcDbText
 10
176.997537
 20
29.076292
 30
0.0
 40
4.0
  1
１１
 41
0.833333
100
AcDbText
  0
POINT
  5
DC
330
235
100
AcDbEntity
  8
001
100
AcDbPoint
 10
186.497537
 20
44.924193
 30
0.0
  0
POINT
  5
DD
330
235
100
AcDbEntity
  8
001
100
AcDbPoint
 10
175.497537
 20
44.924193
 30
0.0
  0
POINT
  5
DE
330
235
100
AcDbEntity
  8
001
100
AcDbPoint
 10
175.497537
 20
28.076292
 30
0.0
  0
ENDBLK
  5
CD
330
235
100
AcDbEntity
  8
0
100
AcDbBlockEnd
  0
BLOCK
  5
236
330
237
100
AcDbEntity
  8
0
100
AcDbBlockBegin
  2
*D6
 70
     1
 10
0.0
 20
0.0
 30
0.0
  3
*D6
  1
*D6
  0
LINE
  5
E2
330
237
100
AcDbEntity
  8
001
100
AcDbLine
 10
47.780132
 20
46.27419299999999
 30
0.0
 11
25.151709
 21
46.27419299999999
 31
0.0
  0
LINE
  5
E3
330
237
100
AcDbEntity
  8
001
100
AcDbLine
 10
46.471694
 20
40.074193
 30
0.0
 11
25.151709
 21
40.074193
 31
0.0
  0
LINE
  5
E4
330
237
100
AcDbEntity
  8
001
100
AcDbLine
 10
27.90170900000001
 20
46.27419299999999
 30
0.0
 11
27.90170900000001
 21
40.074193
 31
0.0
  0
LWPOLYLINE
  5
E5
330
237
100
AcDbEntity
  8
001
100
AcDbPolyline
 90
        3
 70
     0
 43
0.0
 10
27.499786
 20
44.774193
 10
27.90170900000001
 20
46.27419299999999
 10
28.303633
 20
44.774193
  0
LWPOLYLINE
  5
EA
330
237
100
AcDbEntity
  8
001
100
AcDbPolyline
 90
        3
 70
     0
 43
0.0
 10
28.303633
 20
41.57419299999999
 10
27.90170900000001
 20
40.074193
 10
27.499786
 20
41.57419299999999
  0
TEXT
  5
EF
330
237
100
AcDbEntity
  8
001
100
AcDbText
 10
25.565626
 20
42.59101799999999
 30
0.0
 40
4.0
  1
%%c６．２
 50
90.000003
 41
0.8695649999999998
100
AcDbText
  0
POINT
  5
F0
330
237
100
AcDbEntity
  8
001
100
AcDbPoint
 10
47.780132
 20
46.27419299999999
 30
0.0
  0
POINT
  5
F1
330
237
100
AcDbEntity
  8
001
100
AcDbPoint
 10
46.471694
 20
40.074193
 30
0.0
  0
POINT
  5
F2
330
237
100
AcDbEntity
  8
001
100
AcDbPoint
 10
27.90170900000001
 20
40.074193
 30
0.0
  0
ENDBLK
  5
E1
330
237
100
AcDbEntity
  8
0
100
AcDbBlockEnd
  0
BLOCK
  5
238
330
239
100
AcDbEntity
  8
0
100
AcDbBlockBegin
  2
*D7
 70
     1
 10
0.0
 20
0.0
 30
0.0
  3
*D7
  1
*D7
  0
LINE
  5
F6
330
239
100
AcDbEntity
  8
001
100
AcDbLine
 10
153.280132
 20
50.924193
 30
0.0
 11
168.875235
 21
50.924193
 31
0.0
  0
LINE
  5
F7
330
239
100
AcDbEntity
  8
001
100
AcDbLine
 10
153.280132
 20
38.924193
 30
0.0
 11
168.875235
 21
38.924193
 31
0.0
  0
LINE
  5
F8
330
239
100
AcDbEntity
  8
001
100
AcDbLine
 10
166.125235
 20
50.924193
 30
0.0
 11
166.125235
 21
38.924193
 31
0.0
  0
LWPOLYLINE
  5
F9
330
239
100
AcDbEntity
  8
001
100
AcDbPolyline
 90
        3
 70
     0
 43
0.0
 10
165.723311
 20
49.424193
 10
166.125235
 20
50.924193
 10
166.527159
 20
49.424193
  0
LWPOLYLINE
  5
FE
330
239
100
AcDbEntity
  8
001
100
AcDbPolyline
 90
        3
 70
     0
 43
0.0
 10
166.527159
 20
40.424193
 10
166.125235
 20
38.924193
 10
165.723311
 20
40.424193
  0
TEXT
  5
103
330
239
100
AcDbEntity
  8
001
100
AcDbText
 10
165.125235
 20
38.924193
 30
0.0
 40
4.0
  1
%%c１２
 50
90.000003
 41
0.8823529999999999
100
AcDbText
  0
POINT
  5
104
330
239
100
AcDbEntity
  8
001
100
AcDbPoint
 10
153.280132
 20
50.924193
 30
0.0
  0
POINT
  5
105
330
239
100
AcDbEntity
  8
001
100
AcDbPoint
 10
153.280132
 20
38.924193
 30
0.0
  0
POINT
  5
106
330
239
100
AcDbEntity
  8
001
100
AcDbPoint
 10
166.125235
 20
38.924193
 30
0.0
  0
ENDBLK
  5
F5
330
239
100
AcDbEntity
  8
0
100
AcDbBlockEnd
  0
BLOCK
  5
23A
330
23B
100
AcDbEntity
  8
0
100
AcDbBlockBegin
  2
_OPEN30
 70
     0
 10
0.0
 20
0.0
 30
0.0
  3
_OPEN30
  1
_OPEN30
  0
LINE
  5
1B2
330
23B
100
AcDbEntity
  8
0
  6
BYBLOCK
 62
     0
100
AcDbLine
 10
-1.0
 20
0.26794919
 30
0.0
 11
0.0
 21
0.0
 31
0.0
  0
LINE
  5
1B3
330
23B
100
AcDbEntity
  8
0
  6
BYBLOCK
 62
     0
100
AcDbLine
 10
0.0
 20
0.0
 30
0.0
 11
-1.0
 21
-0.26794919
 31
0.0
  0
LINE
  5
1B4
330
23B
100
AcDbEntity
  8
0
  6
BYBLOCK
 62
     0
100
AcDbLine
 10
0.0
 20
0.0
 30
0.0
 11
-1.0
 21
0.0
 31
0.0
  0
ENDBLK
  5
1B6
330
23B
100
AcDbEntity
  8
0
100
AcDbBlockEnd
  0
BLOCK
  5
23C
330
23D
100
AcDbEntity
  8
0
100
AcDbBlockBegin
  2
*D9
 70
     1
 10
0.0
 20
0.0
 30
0.0
  3
*D9
  1
*D9
  0
LINE
  5
1EC
330
23D
100
AcDbEntity
  8
0
 62
     0
100
AcDbLine
 10
-7.543297999999999
 20
44.924193
 30
0.0
 11
-12.83995224130415
 21
44.924193
 31
0.0
  0
LINE
  5
1ED
330
23D
100
AcDbEntity
  8
0
 62
     0
100
AcDbLine
 10
-7.543297999999999
 20
43.174193
 30
0.0
 11
-12.83995224130415
 21
43.174193
 31
0.0
  0
LINE
  5
1EE
330
23D
100
AcDbEntity
  8
0
 62
     0
100
AcDbLine
 10
-11.58995224130415
 20
40.674193
 30
0.0
 11
-11.58995224130415
 21
38.174193
 31
0.0
  0
LINE
  5
1EF
330
23D
100
AcDbEntity
  8
0
 62
     0
100
AcDbLine
 10
-11.58995224130415
 20
47.424193
 30
0.0
 11
-11.58995224130415
 21
50.33805370186504
 31
0.0
  0
LINE
  5
1F0
330
23D
100
AcDbEntity
  8
0
 62
     0
100
AcDbLine
 10
-11.58995224130415
 20
43.174193
 30
0.0
 11
-11.58995224130415
 21
44.924193
 31
0.0
  0
INSERT
  5
1F1
330
23D
100
AcDbEntity
  8
0
 62
     0
100
AcDbBlockReference
  2
_OPEN30
 10
-11.58995224130415
 20
43.174193
 30
0.0
 41
2.5
 42
2.5
 43
2.5
 50
90.0
  0
INSERT
  5
1F2
330
23D
100
AcDbEntity
  8
0
 62
     0
100
AcDbBlockReference
  2
_OPEN30
 10
-11.58995224130415
 20
44.924193
 30
0.0
 41
2.5
 42
2.5
 43
2.5
 50
270.0
  0
TEXT
  5
1F7
330
23D
100
AcDbEntity
  8
0
 62
     0
100
AcDbText
 10
-11.59
 20
51.2547
 30
0.0
 40
2.5
  1
1,75
100
AcDbText
  0
POINT
  5
1F4
330
23D
100
AcDbEntity
  8
DEFPOINTS
 62
     0
100
AcDbPoint
 10
-6.918297999999999
 20
44.924193
 30
0.0
  0
POINT
  5
1F5
330
23D
100
AcDbEntity
  8
DEFPOINTS
 62
     0
100
AcDbPoint
 10
-6.918297999999999
 20
43.174193
 30
0.0
  0
POINT
  5
1F6
330
23D
100
AcDbEntity
  8
DEFPOINTS
 62
     0
100
AcDbPoint
 10
-11.58995224130415
 20
43.174193
 30
0.0
  0
ENDBLK
  5
1C6
330
23D
100
AcDbEntity
  8
0
100
AcDbBlockEnd
  0
BLOCK
  5
284
330
278
100
AcDbEntity
  8
0
100
AcDbBlockBegin
  2
*D10
 70
     1
 10
0.0
 20
0.0
 30
0.0
  3
*D10
  1
*D10
  0
LINE
  5
279
330
278
100
AcDbEntity
  8
0
 62
     0
100
AcDbLine
 10
-7.543297999999999
 20
43.41989731521669
 30
0.0
 11
-13.49554057467242
 21
43.41989731521669
 31
0.0
  0
LINE
  5
27A
330
278
100
AcDbEntity
  8
0
 62
     0
100
AcDbLine
 10
-7.543297999999999
 20
45.16989731521669
 30
0.0
 11
-13.49554057467242
 21
45.16989731521669
 31
0.0
  0
LINE
  5
27B
330
278
100
AcDbEntity
  8
0
 62
     0
100
AcDbLine
 10
-12.24554057467242
 20
43.41989731521669
 30
0.0
 11
-12.24554057467242
 21
45.16989731521669
 31
0.0
  0
LINE
  5
27C
330
278
100
AcDbEntity
  8
0
 62
     0
100
AcDbLine
 10
-12.24554057467242
 20
43.41989731521669
 30
0.0
 11
-12.24554057467242
 21
38.41989731521669
 31
0.0
  0
LINE
  5
27D
330
278
100
AcDbEntity
  8
0
 62
     0
100
AcDbLine
 10
-12.24554057467242
 20
45.16989731521669
 30
0.0
 11
-12.24554057467242
 21
50.16989731521669
 31
0.0
  0
INSERT
  5
27E
330
278
100
AcDbEntity
  8
0
 62
     0
100
AcDbBlockReference
  2
_OPEN30
 10
-12.24554057467242
 20
43.41989731521669
 30
0.0
 41
2.5
 42
2.5
 43
2.5
 50
90.0
  0
INSERT
  5
27F
330
278
100
AcDbEntity
  8
0
 62
     0
100
AcDbBlockReference
  2
_OPEN30
 10
-12.24554057467242
 20
45.16989731521669
 30
0.0
 41
2.5
 42
2.5
 43
2.5
 50
270.0
  0
MTEXT
  5
280
330
278
100
AcDbEntity
  8
0
 62
     0
100
AcDbMText
 10
-15.68304057467242
 20
44.29489731521669
 30
0.0
 40
2.5
 41
0.0
 71
     5
 72
     1
  1
\A1;1.75
 11
0.0
 21
1.0
 31
0.0
  0
POINT
  5
281
330
278
100
AcDbEntity
  8
DEFPOINTS
 62
     0
100
AcDbPoint
 10
-6.918297999999999
 20
43.41989731521669
 30
0.0
  0
POINT
  5
282
330
278
100
AcDbEntity
  8
DEFPOINTS
 62
     0
100
AcDbPoint
 10
-6.918297999999999
 20
45.16989731521669
 30
0.0
  0
POINT
  5
283
330
278
100
AcDbEntity
  8
DEFPOINTS
 62
     0
100
AcDbPoint
 10
-12.24554057467242
 20
45.16989731521669
 30
0.0
  0
ENDBLK
  5
285
330
278
100
AcDbEntity
  8
0
100
AcDbBlockEnd
  0
BLOCK
  5
295
330
289
100
AcDbEntity
  8
0
100
AcDbBlockBegin
  2
*D11
 70
     1
 10
0.0
 20
0.0
 30
0.0
  3
*D11
  1
*D11
  0
LINE
  5
28A
330
289
100
AcDbEntity
  8
0
 62
     0
100
AcDbLine
 10
-7.543297999999999
 20
43.174193
 30
0.0
 11
-12.83656965837723
 21
43.174193
 31
0.0
  0
LINE
  5
28B
330
289
100
AcDbEntity
  8
0
 62
     0
100
AcDbLine
 10
-7.543297999999999
 20
44.924193
 30
0.0
 11
-12.83656965837723
 21
44.924193
 31
0.0
  0
LINE
  5
28C
330
289
100
AcDbEntity
  8
0
 62
     0
100
AcDbLine
 10
-11.58656965837723
 20
43.174193
 30
0.0
 11
-11.58656965837723
 21
44.924193
 31
0.0
  0
LINE
  5
28D
330
289
100
AcDbEntity
  8
0
 62
     0
100
AcDbLine
 10
-11.58656965837723
 20
43.174193
 30
0.0
 11
-11.58656965837723
 21
38.174193
 31
0.0
  0
LINE
  5
28E
330
289
100
AcDbEntity
  8
0
 62
     0
100
AcDbLine
 10
-11.58656965837723
 20
44.924193
 30
0.0
 11
-11.58656965837723
 21
49.924193
 31
0.0
  0
INSERT
  5
28F
330
289
100
AcDbEntity
  8
0
 62
     0
100
AcDbBlockReference
  2
_OPEN30
 10
-11.58656965837723
 20
43.174193
 30
0.0
 41
2.5
 42
2.5
 43
2.5
 50
90.0
  0
INSERT
  5
290
330
289
100
AcDbEntity
  8
0
 62
     0
100
AcDbBlockReference
  2
_OPEN30
 10
-11.58656965837723
 20
44.924193
 30
0.0
 41
2.5
 42
2.5
 43
2.5
 50
270.0
  0
MTEXT
  5
291
330
289
100
AcDbEntity
  8
0
 62
     0
100
AcDbMText
 10
-15.02406965837723
 20
44.049193
 30
0.0
 40
2.5
 41
0.0
 71
     5
 72
     1
  1
\A1;1.75
 11
0.0
 21
1.0
 31
0.0
  0
POINT
  5
292
330
289
100
AcDbEntity
  8
DEFPOINTS
 62
     0
100
AcDbPoint
 10
-6.918297999999999
 20
43.174193
 30
0.0
  0
POINT
  5
293
330
289
100
AcDbEntity
  8
DEFPOINTS
 62
     0
100
AcDbPoint
 10
-6.918297999999999
 20
44.924193
 30
0.0
  0
POINT
  5
294
330
289
100
AcDbEntity
  8
DEFPOINTS
 62
     0
100
AcDbPoint
 10
-11.58656965837723
 20
44.924193
 30
0.0
  0
ENDBLK
  5
296
330
289
100
AcDbEntity
  8
0
100
AcDbBlockEnd
  0
BLOCK
  5
2E4
330
2E3
100
AcDbEntity
  8
0
100
AcDbBlockBegin
  2
*D12
 70
     1
 10
0.0
 20
0.0
 30
0.0
  3
*D12
  1
*D12
  0
LINE
  5
2E6
330
2E3
100
AcDbEntity
  8
0
 62
     0
100
AcDbLine
 10
-7.543297999999999
 20
44.924193
 30
0.0
 11
-15.10443657701488
 21
44.924193
 31
0.0
  0
LINE
  5
2E7
330
2E3
100
AcDbEntity
  8
0
 62
     0
100
AcDbLine
 10
-7.543297999999999
 20
43.164193
 30
0.0
 11
-15.10443657701488
 21
43.164193
 31
0.0
  0
LINE
  5
2E8
330
2E3
100
AcDbEntity
  8
0
 62
     0
100
AcDbLine
 10
-13.85443657701488
 20
44.924193
 30
0.0
 11
-13.85443657701488
 21
43.164193
 31
0.0
  0
LINE
  5
2E9
330
2E3
100
AcDbEntity
  8
0
 62
     0
100
AcDbLine
 10
-13.85443657701488
 20
47.424193
 30
0.0
 11
-13.85443657701488
 21
49.924193
 31
0.0
  0
LINE
  5
2EA
330
2E3
100
AcDbEntity
  8
0
 62
     0
100
AcDbLine
 10
-13.85443657701488
 20
40.664193
 30
0.0
 11
-13.85443657701488
 21
38.164193
 31
0.0
  0
INSERT
  5
2EB
330
2E3
100
AcDbEntity
  8
0
 62
     0
100
AcDbBlockReference
  2
_OPEN30
 10
-13.85443657701488
 20
44.924193
 30
0.0
 41
2.5
 42
2.5
 43
2.5
 50
270.0
  0
INSERT
  5
2EC
330
2E3
100
AcDbEntity
  8
0
 62
     0
100
AcDbBlockReference
  2
_OPEN30
 10
-13.85443657701488
 20
43.164193
 30
0.0
 41
2.5
 42
2.5
 43
2.5
 50
90.0
  0
MTEXT
  5
2ED
330
2E3
100
AcDbEntity
  8
0
 62
     0
100
AcDbMText
 10
-17.94571793515048
 20
52.39476807879734
 30
0.0
 40
3.5
 41
0.0
 71
     5
 72
     1
  1
\A1;1.76
 11
0.0
 21
1.0
 31
0.0
  0
POINT
  5
2EE
330
2E3
100
AcDbEntity
  8
DEFPOINTS
 62
     0
100
AcDbPoint
 10
-6.918297999999999
 20
44.924193
 30
0.0
  0
POINT
  5
2EF
330
2E3
100
AcDbEntity
  8
DEFPOINTS
 62
     0
100
AcDbPoint
 10
-6.918297999999999
 20
43.164193
 30
0.0
  0
POINT
  5
2F0
330
2E3
100
AcDbEntity
  8
DEFPOINTS
 62
     0
100
AcDbPoint
 10
-13.85443657701488
 20
43.164193
 30
0.0
  0
ENDBLK
  5
2E5
330
2E3
100
AcDbEntity
  8
0
100
AcDbBlockEnd
  0
ENDSEC
  0
SECTION
  2
ENTITIES
  0
DIMENSION
  5
107
330
213
100
AcDbEntity
  8
001
100
AcDbDimension
  2
*D0
 10
55.497374
 20
44.924193
 30
0.0
 11
38.225575
 21
37.769979
 31
0.0
 70
    34
  3
ISO-25
100
AcDb2LineAngularDimension
 13
50.706832
 23
40.13365
 33
0.0
 14
55.497374
 24
44.924193
 34
0.0
 15
46.471694
 25
44.924193
 35
0.0
 16
35.453936
 26
36.62192800000001
 36
0.0
1001
ACAD
1000
DSTYLE
1002
{
1070
    79
1070
     2
1002
}
  0
DIMENSION
  5
108
330
213
100
AcDbEntity
  8
001
100
AcDbDimension
  2
*D1
 10
47.280132
 20
17.358818
 30
0.0
 11
65.780132
 21
20.358818
 31
0.0
 70
   160
  3
ISO-25
100
AcDbAlignedDimension
 13
84.280132
 23
42.174193
 33
0.0
 14
47.280132
 24
38.69752
 34
0.0
 50
180.0
100
AcDbRotatedDimension
  0
DIMENSION
  5
109
330
213
100
AcDbEntity
  8
001
100
AcDbDimension
  2
*D2
 10
47.280132
 20
25.216978
 30
0.0
 11
61.597374
 21
28.21697800000001
 31
0.0
 70
   160
  3
ISO-25
100
AcDbAlignedDimension
 13
52.097374
 23
41.524193
 33
0.0
 14
47.280132
 24
38.69752
 34
0.0
 50
180.0
100
AcDbRotatedDimension
  0
TEXT
  5
10A
330
213
100
AcDbEntity
  8
001
100
AcDbText
 10
64.70604
 20
45.909446
 30
0.0
 40
4.0
  1
%%c６．８
 50
90.000003
 41
0.8695649999999998
100
AcDbText
  0
LWPOLYLINE
  5
10B
330
213
100
AcDbEntity
  8
001
100
AcDbPolyline
 90
        3
 70
     0
 43
0.0
 10
66.107963
 20
43.02419299999999
 10
65.70604
 20
41.524193
 10
65.304116
 20
43.02419299999999
  0
LINE
  5
110
330
213
100
AcDbEntity
  8
001
100
AcDbLine
 10
65.70604
 20
48.324193
 30
0.0
 11
65.70604
 21
41.524193
 31
0.0
  0
LWPOLYLINE
  5
111
330
213
100
AcDbEntity
  8
001
100
AcDbPolyline
 90
        3
 70
     0
 43
0.0
 10
52.097374
 20
41.524193
 10
65.70604
 20
41.524193
 10
68.45604
 20
41.524193
  0
DIMENSION
  5
116
330
213
100
AcDbEntity
  8
001
100
AcDbDimension
  2
*D3
 10
154.280132
 20
17.358818
 30
0.0
 11
119.280132
 21
20.358818
 31
0.0
 70
   160
  3
ISO-25
100
AcDbAlignedDimension
 13
84.280132
 23
42.174193
 33
0.0
 14
154.280132
 24
39.924193
 34
0.0
100
AcDbRotatedDimension
  0
DIMENSION
  5
117
330
213
100
AcDbEntity
  8
001
100
AcDbDimension
  2
*D4
 10
154.280132
 20
10.446066
 30
0.0
 11
100.780132
 21
13.446066
 31
0.0
 70
   160
  3
ISO-25
100
AcDbAlignedDimension
 13
47.280132
 23
38.69752
 33
0.0
 14
154.280132
 24
39.924193
 34
0.0
100
AcDbRotatedDimension
  0
TEXT
  5
118
330
213
100
AcDbEntity
  8
001
100
AcDbText
 10
17.861486
 20
41.483601
 30
0.0
 40
4.0
  1
%%c９．７
 50
90.000003
 41
0.8695649999999998
100
AcDbText
  0
LWPOLYLINE
  5
119
330
213
100
AcDbEntity
  8
001
100
AcDbPolyline
 90
        3
 70
     0
 43
0.0
 10
20.075485
 20
41.57419299999999
 10
19.673561
 20
40.074193
 10
19.271638
 20
41.57419299999999
  0
LINE
  5
11E
330
213
100
AcDbEntity
  8
001
100
AcDbLine
 10
19.673561
 20
49.774193
 30
0.0
 11
19.673561
 21
40.074193
 31
0.0
  0
LWPOLYLINE
  5
11F
330
213
100
AcDbEntity
  8
001
100
AcDbPolyline
 90
        3
 70
     0
 43
0.0
 10
46.471694
 20
40.074193
 10
19.673561
 20
40.074193
 10
16.923561
 20
40.074193
  0
DIMENSION
  5
124
330
213
100
AcDbEntity
  8
001
100
AcDbDimension
  2
*D5
 10
175.497537
 20
28.076292
 30
0.0
 11
180.997537
 21
31.076292
 31
0.0
 70
   160
  3
ISO-25
100
AcDbAlignedDimension
 13
186.497537
 23
44.924193
 33
0.0
 14
175.497537
 24
44.924193
 34
0.0
 50
180.0
100
AcDbRotatedDimension
  0
DIMENSION
  5
125
330
213
100
AcDbEntity
  8
001
100
AcDbDimension
  2
*D6
 10
27.90170900000001
 20
40.074193
 30
0.0
 11
23.565626
 21
50.591018
 31
0.0
 70
   160
  3
ISO-25
100
AcDbAlignedDimension
 13
47.780132
 23
46.27419299999999
 33
0.0
 14
46.471694
 24
40.074193
 34
0.0
 50
270.0
100
AcDbRotatedDimension
  0
DIMENSION
  5
126
330
213
100
AcDbEntity
  8
001
100
AcDbDimension
  2
*D7
 10
166.125235
 20
38.924193
 30
0.0
 11
163.125235
 21
44.92419199999999
 31
0.0
 70
   160
  3
ISO-25
100
AcDbAlignedDimension
 13
153.280132
 23
50.924193
 33
0.0
 14
153.280132
 24
38.924193
 34
0.0
 50
270.0
100
AcDbRotatedDimension
  0
CIRCLE
  5
127
330
213
100
AcDbEntity
  8
001
100
AcDbCircle
 10
50.563289
 20
43.35734999999999
 30
0.0
 40
1.5
  0
LINE
  5
128
330
213
100
AcDbEntity
  8
001
100
AcDbLine
 10
51.527498
 20
45.760383
 30
0.0
 11
53.78698899999999
 21
43.500892
 31
0.0
  0
ARC
  5
129
330
213
100
AcDbEntity
  8
001
100
AcDbCircle
 10
53.64344599999999
 20
43.35734999999999
 30
0.0
 40
0.2030000000000001
100
AcDbArc
 50
315.0
 51
45.0
  0
LINE
  5
12A
330
213
100
AcDbEntity
  8
001
100
AcDbLine
 10
50.706832
 20
40.13365
 30
0.0
 11
53.78698899999999
 21
43.213807
 31
0.0
  0
ARC
  5
12B
330
213
100
AcDbEntity
  8
001
100
AcDbCircle
 10
50.563289
 20
40.277193
 30
0.0
 40
0.2030000000000001
100
AcDbArc
 50
225.0
 51
315.0
  0
LINE
  5
12C
330
213
100
AcDbEntity
  8
001
100
AcDbLine
 10
47.339589
 20
43.213807
 30
0.0
 11
50.419746
 21
40.13365
 31
0.0
  0
ARC
  5
12D
330
213
100
AcDbEntity
  8
001
100
AcDbCircle
 10
47.483132
 20
43.35734999999999
 30
0.0
 40
0.2030000000000001
100
AcDbArc
 50
135.0
 51
225.0
  0
LINE
  5
12E
330
213
100
AcDbEntity
  8
001
100
AcDbLine
 10
49.59894099999999
 20
45.760244
 30
0.0
 11
47.339589
 21
43.500892
 31
0.0
  0
LINE
  5
12F
330
213
100
AcDbEntity
  8
001
100
AcDbLine
 10
49.59894099999999
 20
45.760244
 30
0.0
 11
51.527498
 21
45.760383
 31
0.0
  0
ARC
  5
130
330
213
100
AcDbEntity
  8
001
100
AcDbCircle
 10
153.280132
 20
49.924193
 30
0.0
 40
1.000000000000001
100
AcDbArc
 50
0.0
 51
90.0
  0
ARC
  5
131
330
213
100
AcDbEntity
  8
001
100
AcDbCircle
 10
153.280132
 20
39.924193
 30
0.0
 40
1.000000000000001
100
AcDbArc
 50
270.0
 51
0.0
  0
LINE
  5
132
330
213
100
AcDbEntity
  8
001
100
AcDbLine
 10
154.280132
 20
49.924193
 30
0.0
 11
154.280132
 21
39.924193
 31
0.0
  0
LINE
  5
133
330
213
100
AcDbEntity
  8
001
100
AcDbLine
 10
87.530132
 20
50.924193
 30
0.0
 11
87.530132
 21
38.924193
 31
0.0
  0
LINE
  5
134
330
213
100
AcDbEntity
  8
001
100
AcDbLine
 10
153.280132
 20
50.924193
 30
0.0
 11
87.530132
 21
50.924193
 31
0.0
  0
LINE
  5
135
330
213
100
AcDbEntity
  8
001
100
AcDbLine
 10
87.530132
 20
38.924193
 30
0.0
 11
153.280132
 21
38.924193
 31
0.0
  0
LINE
  5
136
330
213
100
AcDbEntity
  8
001
100
AcDbLine
 10
87.530132
 20
50.924193
 30
0.0
 11
84.280132
 21
47.674193
 31
0.0
  0
LINE
  5
137
330
213
100
AcDbEntity
  8
001
100
AcDbLine
 10
84.280132
 20
42.174193
 30
0.0
 11
87.530132
 21
38.924193
 31
0.0
  0
LWPOLYLINE
  5
138
330
213
100
AcDbEntity
  8
001
100
AcDbPolyline
 90
        5
 70
     0
 43
0.0
 10
54.49748
 20
42.39857299999999
 10
54.622465
 20
42.32367599999999
 10
54.813435
 20
42.230872
 10
54.936756
 20
42.19001399999999
 10
55.02383100000001
 20
42.174193
  0
LINE
  5
13F
330
213
100
AcDbEntity
  8
001
100
AcDbLine
 10
55.02383100000001
 20
42.174193
 30
0.0
 11
84.280132
 21
42.174193
 31
0.0
  0
LWPOLYLINE
  5
140
330
213
100
AcDbEntity
  8
001
100
AcDbPolyline
 90
        5
 70
     0
 43
0.0
 10
55.02383100000001
 20
42.174193
 10
55.041538
 20
42.17490999999999
 10
55.066582
 20
42.179789
 10
55.085801
 20
42.188425
 10
55.09788
 20
42.196556
  0
LINE
  5
147
330
213
100
AcDbEntity
  8
001
100
AcDbLine
 10
55.780132
 20
42.196556
 30
0.0
 11
55.09788
 21
42.196556
 31
0.0
  0
ARC
  5
148
330
213
100
AcDbEntity
  8
001
100
AcDbCircle
 10
55.43013199999999
 20
44.924193
 30
0.0
 40
2.75
100
AcDbArc
 50
277.312022
 51
341.2848789999999
  0
LWPOLYLINE
  5
149
330
213
100
AcDbEntity
  8
001
100
AcDbPolyline
 90
       37
 70
     0
 43
0.0
 10
82.780132
 20
44.041819
 10
82.870336
 20
44.047775
 10
82.959776
 20
44.058887
 10
83.047476
 20
44.079107
 10
83.132962
 20
44.107905
 10
83.214637
 20
44.143357
 10
83.293142
 20
44.185198
 10
83.36804800000002
 20
44.23296099999999
 10
83.439229
 20
44.28614999999999
 10
83.502144
 20
44.34016699999999
 10
83.561653
 20
44.397907
 10
83.61813299999999
 20
44.45928199999999
 10
83.67129399999999
 20
44.523555
 10
83.72126800000001
 20
44.590425
 10
83.768111
 20
44.659527
 10
83.826073
 20
44.75494
 10
83.879008
 20
44.853249
 10
83.92750500000001
 20
44.95441099999999
 10
83.97162900000001
 20
45.05754999999999
 10
84.011483
 20
45.161715
 10
84.047622
 20
45.267228
 10
84.080633
 20
45.374926
 10
84.11038299999998
 20
45.48357
 10
84.13675899999998
 20
45.591499
 10
84.160382
 20
45.700064
 10
84.18093
 20
45.80637199999999
 10
84.19919300000001
 20
45.913097
 10
84.21727500000001
 20
46.034236
 10
84.232782
 20
46.155734
 10
84.245326
 20
46.27204899999999
 10
84.255762
 20
46.38857
 10
84.263731
 20
46.498034
 10
84.270072
 20
46.60760599999999
 10
84.27478699999999
 20
46.71485999999999
 10
84.277916
 20
46.82216599999999
 10
84.279384
 20
46.919452
 10
84.280132
 20
47.016751
  0
ARC
  5
170
330
213
100
AcDbEntity
  8
001
100
AcDbCircle
 10
82.780132
 20
47.774193
 30
0.0
 40
1.5
100
AcDbArc
 50
270.0
 51
0.0
  0
LINE
  5
171
330
213
100
AcDbEntity
  8
001
100
AcDbLine
 10
47.780132
 20
46.27419299999999
 30
0.0
 11
82.780132
 21
46.27419299999999
 31
0.0
  0
LINE
  5
172
330
213
100
AcDbEntity
  8
001
100
AcDbLine
 10
54.703337
 20
46.251829
 30
0.0
 11
51.52074
 21
46.251829
 31
0.0
  0
LINE
  5
173
330
213
100
AcDbEntity
  8
001
100
AcDbLine
 10
49.570498
 20
40.63382599999999
 30
0.0
 11
47.780132
 21
42.424193
 31
0.0
  0
LINE
  5
174
330
213
100
AcDbEntity
  8
001
100
AcDbLine
 10
58.034727
 20
44.041819
 30
0.0
 11
82.780132
 21
44.041819
 31
0.0
  0
LINE
  5
175
330
213
100
AcDbEntity
  8
001
100
AcDbLine
 10
84.280132
 20
47.674193
 30
0.0
 11
84.280132
 21
42.174193
 31
0.0
  0
LINE
  5
176
330
213
100
AcDbEntity
  8
001
  6
CENTER
100
AcDbLine
 10
46.471694
 20
44.924193
 30
0.0
 11
156.343099
 21
44.924193
 31
0.0
  0
ARC
  5
177
330
213
100
AcDbEntity
  8
001
100
AcDbCircle
 10
50.56597700000001
 20
44.057345
 30
0.0
 40
0.175
100
AcDbArc
 50
14.433061
 51
165.126939
  0
ARC
  5
178
330
213
100
AcDbEntity
  8
001
100
AcDbCircle
 10
50.090456
 20
44.18363099999999
 30
0.0
 40
0.3170045884846417
100
AcDbArc
 50
254.433061
 51
345.126939
  0
ARC
  5
179
330
213
100
AcDbEntity
  8
001
100
AcDbCircle
 10
49.958419
 20
43.70967499999999
 30
0.0
 40
0.175
100
AcDbArc
 50
74.433061
 51
225.126939
  0
ARC
  5
17A
330
213
100
AcDbEntity
  8
001
100
AcDbCircle
 10
49.61129099999999
 20
43.36100499999999
 30
0.0
 40
0.3170045884846417
100
AcDbArc
 50
314.433061
 51
45.126939
  0
ARC
  5
17B
330
213
100
AcDbEntity
  8
001
100
AcDbCircle
 10
49.95573199999999
 20
43.00968
 30
0.0
 40
0.175
100
AcDbArc
 50
134.433061
 51
285.126939
  0
ARC
  5
17C
330
213
100
AcDbEntity
  8
001
100
AcDbCircle
 10
50.084124
 20
42.534723
 30
0.0
 40
0.3170045884846417
100
AcDbArc
 50
14.433061
 51
105.126939
  0
ARC
  5
17D
330
213
100
AcDbEntity
  8
001
100
AcDbCircle
 10
50.56060099999999
 20
42.65735499999999
 30
0.0
 40
0.175
100
AcDbArc
 50
194.433061
 51
345.126939
  0
ARC
  5
17E
330
213
100
AcDbEntity
  8
001
100
AcDbCircle
 10
51.036122
 20
42.531068
 30
0.0
 40
0.3170045884846417
100
AcDbArc
 50
74.433061
 51
165.126939
  0
ARC
  5
17F
330
213
100
AcDbEntity
  8
001
100
AcDbCircle
 10
51.168158
 20
43.005025
 30
0.0
 40
0.175
100
AcDbArc
 50
254.433061
 51
45.126939
  0
ARC
  5
180
330
213
100
AcDbEntity
  8
001
100
AcDbCircle
 10
51.51528599999999
 20
43.353694
 30
0.0
 40
0.3170045884846417
100
AcDbArc
 50
134.433061
 51
225.126939
  0
ARC
  5
181
330
213
100
AcDbEntity
  8
001
100
AcDbCircle
 10
51.170846
 20
43.70501899999999
 30
0.0
 40
0.175
100
AcDbArc
 50
314.433061
 51
105.126939
  0
ARC
  5
182
330
213
100
AcDbEntity
  8
001
100
AcDbCircle
 10
51.042453
 20
44.179976
 30
0.0
 40
0.3170045884846417
100
AcDbArc
 50
194.433061
 51
285.126939
  0
CIRCLE
  5
183
330
213
100
AcDbEntity
  8
001
100
AcDbCircle
 10
50.563289
 20
43.35734999999999
 30
0.0
 40
1.149999999999999
  0
LINE
  5
184
330
213
100
AcDbEntity
  8
001
  6
PHANTOM
100
AcDbLine
 10
52.097374
 20
41.524193
 30
0.0
 11
52.097374
 21
44.322363
 31
0.0
  0
LINE
  5
185
330
213
100
AcDbEntity
  8
001
100
AcDbLine
 10
154.280132
 20
44.924193
 30
0.0
 11
156.012183
 21
45.924193
 31
0.0
  0
LINE
  5
186
330
213
100
AcDbEntity
  8
001
100
AcDbLine
 10
154.280132
 20
44.924193
 30
0.0
 11
156.012183
 21
43.924193
 31
0.0
  0
LINE
  5
187
330
213
100
AcDbEntity
  8
001
  6
CENTER
100
AcDbLine
 10
180.497537
 20
51.955208
 30
0.0
 11
180.497537
 21
37.883472
 31
0.0
  0
LINE
  5
188
330
213
100
AcDbEntity
  8
001
  6
CENTER
100
AcDbLine
 10
187.710779
 20
44.924193
 30
0.0
 11
173.166044
 21
44.924193
 31
0.0
  0
LINE
  5
189
330
213
100
AcDbEntity
  8
001
100
AcDbLine
 10
175.497537
 20
48.240817
 30
0.0
 11
175.497537
 21
41.607568
 31
0.0
  0
ARC
  5
18A
330
213
100
AcDbEntity
  8
001
100
AcDbCircle
 10
180.497537
 20
44.924193
 30
0.0
 40
6.0
100
AcDbArc
 50
213.55731
 51
146.44269
  0
LINE
  5
18B
330
213
100
AcDbEntity
  8
001
100
AcDbLine
 10
149.280132
 20
41.607568
 30
0.0
 11
149.280132
 21
48.240817
 31
0.0
  0
LINE
  5
18C
330
213
100
AcDbEntity
  8
001
100
AcDbLine
 10
89.280132
 20
41.607568
 30
0.0
 11
89.280132
 21
48.240817
 31
0.0
  0
LINE
  5
18D
330
213
100
AcDbEntity
  8
001
100
AcDbLine
 10
89.280132
 20
48.240817
 30
0.0
 11
149.280132
 21
48.240817
 31
0.0
  0
LINE
  5
18E
330
213
100
AcDbEntity
  8
001
100
AcDbLine
 10
149.280132
 20
41.607568
 30
0.0
 11
89.280132
 21
41.607568
 31
0.0
  0
LINE
  5
18F
330
213
100
AcDbEntity
  8
001
100
AcDbLine
 10
149.280132
 20
48.240817
 30
0.0
 11
89.280132
 21
41.607568
 31
0.0
  0
LINE
  5
190
330
213
100
AcDbEntity
  8
001
100
AcDbLine
 10
89.280132
 20
48.240817
 30
0.0
 11
149.280132
 21
41.607568
 31
0.0
  0
LINE
  5
191
330
213
100
AcDbEntity
  8
001
100
AcDbLine
 10
49.927516
 20
40.63382599999999
 30
0.0
 11
49.570498
 21
40.63382599999999
 31
0.0
  0
LINE
  5
192
330
213
100
AcDbEntity
  8
001
100
AcDbLine
 10
53.82517599999999
 20
43.459524
 30
0.0
 11
55.09788
 21
42.196556
 31
0.0
  0
LINE
  5
193
330
213
100
AcDbEntity
  8
001
100
AcDbLine
 10
47.780132
 20
42.424193
 30
0.0
 11
47.780132
 21
42.780249
 31
0.0
  0
ARC
  5
194
330
213
100
AcDbEntity
  8
001
100
AcDbCircle
 10
50.563266
 20
45.963307
 30
0.0
 40
1.0
100
AcDbArc
 50
163.230524
 51
192.7675909999999
  0
ARC
  5
195
330
213
100
AcDbEntity
  8
001
100
AcDbCircle
 10
50.563266
 20
45.963307
 30
0.0
 40
1.0
100
AcDbArc
 50
347.906165
 51
16.769476
  0
LINE
  5
196
330
213
100
AcDbEntity
  8
001
100
AcDbLine
 10
47.780132
 20
46.27419299999999
 30
0.0
 11
47.780132
 21
43.93444999999999
 31
0.0
  0
LINE
  5
197
330
213
100
AcDbEntity
  8
001
100
AcDbLine
 10
54.49748
 20
42.39857299999999
 30
0.0
 11
53.73519399999999
 21
43.155027
 31
0.0
  0
LINE
  5
198
330
213
100
AcDbEntity
  8
001
100
AcDbLine
 10
54.49748
 20
42.39857299999999
 30
0.0
 11
52.978739
 21
42.39857299999999
 31
0.0
  0
LINE
  5
199
330
213
100
AcDbEntity
  8
001
100
AcDbLine
 10
47.280132
 20
43.35734999999999
 30
0.0
 11
47.280132
 21
38.69752
 31
0.0
  0
LINE
  5
19A
330
213
100
AcDbEntity
  8
001
100
AcDbLine
 10
46.471694
 20
40.074193
 30
0.0
 11
50.563289
 21
40.074193
 31
0.0
  0
LINE
  5
19B
330
213
100
AcDbEntity
  8
001
100
AcDbLine
 10
49.605793
 20
46.251829
 30
0.0
 11
47.780132
 21
46.251829
 31
0.0
  0
ARC
  5
19C
330
213
100
AcDbEntity
  8
001
100
AcDbCircle
 10
54.703337
 20
42.635939
 30
0.0
 40
3.61589034057143
100
AcDbArc
 50
22.880243
 51
90.0
  0
LINE
  5
19D
330
213
100
AcDbEntity
  8
001
100
AcDbLine
 10
55.780132
 20
46.087775
 30
0.0
 11
55.780132
 21
42.196556
 31
0.0
  0
CIRCLE
  5
19E
330
213
100
AcDbEntity
  8
001
100
AcDbCircle
 10
-0.068298
 20
44.924193
 30
0.0
 40
4.849999999999999
  0
CIRCLE
  5
19F
330
213
100
AcDbEntity
  8
001
100
AcDbCircle
 10
-0.0682979999999986
 20
43.164193
 30
0.0
 40
3.1
  0
LINE
  5
1A0
330
213
100
AcDbEntity
  8
001
  6
CENTER
 62
   253
100
AcDbLine
 10
-6.918297999999999
 20
44.924193
 30
0.0
 11
6.781702
 21
44.924193
 31
0.0
  0
LINE
  5
1A1
330
213
100
AcDbEntity
  8
001
  6
CENTER
 62
   253
100
AcDbLine
 10
-0.068298
 20
38.074193
 30
0.0
 11
-0.068298
 21
51.774193
 31
0.0
  0
TEXT
  5
1A2
330
213
100
AcDbEntity
  8
001
100
AcDbText
 10
5.295463999999999
 20
74.013227
 30
0.0
 40
5.0
  1
ウラトリメンＣ　ＵＭＨ１２－６．８Ｓ－Ｍ８
 41
0.833333
100
AcDbText
  0
LINE
  5
2DF
330
213
100
AcDbEntity
  8
001
  6
CENTER
 62
   253
100
AcDbLine
 10
-6.918297999999999
 20
43.164193
 30
0.0
 11
6.781702
 21
43.164193
 31
0.0
  0
DIMENSION
  5
2E0
330
213
100
AcDbEntity
  8
0
100
AcDbDimension
  2
*D12
 10
-13.85443657701488
 20
43.164193
 30
0.0
 11
-17.94571793515048
 21
52.39476807879734
 31
0.0
 70
   160
  3
ISO-25
100
AcDbAlignedDimension
 13
-6.918297999999999
 23
44.924193
 33
0.0
 14
-6.918297999999999
 24
43.164193
 34
0.0
 50
90.0
100
AcDbRotatedDimension
1001
ACAD
1000
DSTYLE
1002
{
1070
   287
1070
     5
1070
     5
1000
OPEN30
1070
   140
1040
3.5
1070
   141
1040
0.09
1070
    77
1070
     0
1070
   279
1070
     2
1002
}
  0
ENDSEC
  0
SECTION
  2
OBJECTS
  0
DICTIONARY
  5
203
330
0
100
AcDbDictionary
  3
ACAD_GROUP
350
204
  3
ACAD_IMAGE_VARS
350
274
  3
ACAD_MLINESTYLE
350
20D
  3
ACAD_SCALELIST
350
2F6
  3
ACDBVARIABLEDICTIONARY
350
298
  3
APPDATA
350
273
  3
DWGPROPS
350
33D
  0
DICTIONARY
  5
204
102
{ACAD_REACTORS
330
203
102
}
330
203
100
AcDbDictionary
  0
RASTERVARIABLES
  5
274
102
{ACAD_REACTORS
330
203
102
}
330
203
100
AcDbRasterVariables
 90
        0
 70
     1
 71
     1
 72
     0
  0
DICTIONARY
  5
20D
102
{ACAD_REACTORS
330
203
102
}
330
203
100
AcDbDictionary
  3
STANDARD
350
20E
  0
DICTIONARY
  5
2F6
102
{ACAD_REACTORS
330
203
102
}
330
203
100
AcDbDictionary
  0
DICTIONARY
  5
298
102
{ACAD_REACTORS
330
203
102
}
330
203
100
AcDbDictionary
  0
DICTIONARY
  5
273
102
{ACAD_REACTORS
330
203
102
}
330
203
100
AcDbDictionary
  0
XRECORD
  5
33D
102
{ACAD_REACTORS
330
203
102
}
330
203
100
AcDbXrecord
  1
DWGPROPS COOKIE
  2

  3

  4

  6

  7

  8
kaihatu03
  9

300
=
301
=
302
=
303
=
304
=
305
=
306
=
307
=
308
=
309
=
 40
0.0
 41
2454734.048429884
 42
2457962.057889178
  1

 90
        0
  0
MLINESTYLE
  5
20E
102
{ACAD_REACTORS
330
20D
102
}
330
20D
100
AcDbMlineStyle
  2
Standard
 70
     0
  3

 62
   256
 51
90.0
 52
90.0
 71
     2
 49
0.5
 62
   256
  6
BYLAYER
 49
-0.5
 62
   256
  6
BYLAYER
  0
ENDSEC
  0
EOF
