  0
SECTION
  2
HEADER
  9
$ACADVER
  1
AC1014
  9
$ACADMAINTVER
 70
     9
  9
$DWGCODEPAGE
  3
ANSI_932
  9
$INSBASE
 10
0.0
 20
0.0
 30
0.0
  9
$EXTMIN
 10
-21.83952615246119
 20
17.354281
 30
0.0
  9
$EXTMAX
 10
218.318866
 20
78.59656033333334
 30
0.0
  9
$LIMMIN
 10
0.0
 20
0.0
  9
$LIMMAX
 10
12.0
 20
9.0
  9
$ORTHOMODE
 70
     0
  9
$REGENMODE
 70
     1
  9
$FILLMODE
 70
     1
  9
$QTEXTMODE
 70
     0
  9
$MIRRTEXT
 70
     1
  9
$DRAGMODE
 70
     2
  9
$LTSCALE
 40
2.385241
  9
$OSMODE
 70
   511
  9
$ATTMODE
 70
     1
  9
$TEXTSIZE
 40
0.2
  9
$TRACEWID
 40
1.0
  9
$TEXTSTYLE
  7
STANDARD
  9
$CLAYER
  8
0
  9
$CELTYPE
  6
BYLAYER
  9
$CECOLOR
 62
   256
  9
$CELTSCALE
 40
1.0
  9
$DELOBJ
 70
     1
  9
$DISPSILH
 70
     0
  9
$DIMSCALE
 40
1.0
  9
$DIMASZ
 40
2.5
  9
$DIMEXO
 40
0.625
  9
$DIMDLI
 40
3.75
  9
$DIMRND
 40
0.0
  9
$DIMDLE
 40
0.0
  9
$DIMEXE
 40
1.25
  9
$DIMTP
 40
0.0
  9
$DIMTM
 40
0.0
  9
$DIMTXT
 40
2.5
  9
$DIMCEN
 40
0.09
  9
$DIMTSZ
 40
0.0
  9
$DIMTOL
 70
     0
  9
$DIMLIM
 70
     0
  9
$DIMTIH
 70
     0
  9
$DIMTOH
 70
     0
  9
$DIMSE1
 70
     0
  9
$DIMSE2
 70
     0
  9
$DIMTAD
 70
     0
  9
$DIMZIN
 70
     8
  9
$DIMBLK
  1

  9
$DIMASO
 70
     1
  9
$DIMSHO
 70
     0
  9
$DIMPOST
  1

  9
$DIMAPOST
  1

  9
$DIMALT
 70
     0
  9
$DIMALTD
 70
     3
  9
$DIMALTF
 40
0.03937
  9
$DIMLFAC
 40
1.0
  9
$DIMTOFL
 70
     1
  9
$DIMTVP
 40
0.0
  9
$DIMTIX
 70
     0
  9
$DIMSOXD
 70
     0
  9
$DIMSAH
 70
     0
  9
$DIMBLK1
  1

  9
$DIMBLK2
  1

  9
$DIMSTYLE
  2
ISO-25
  9
$DIMCLRD
 70
     0
  9
$DIMCLRE
 70
     0
  9
$DIMCLRT
 70
     0
  9
$DIMTFAC
 40
1.0
  9
$DIMGAP
 40
0.625
  9
$DIMJUST
 70
     0
  9
$DIMSD1
 70
     0
  9
$DIMSD2
 70
     0
  9
$DIMTOLJ
 70
     0
  9
$DIMTZIN
 70
     8
  9
$DIMALTZ
 70
     0
  9
$DIMALTTZ
 70
     0
  9
$DIMFIT
 70
     5
  9
$DIMUPT
 70
     0
  9
$DIMUNIT
 70
     2
  9
$DIMDEC
 70
     2
  9
$DIMTDEC
 70
     2
  9
$DIMALTU
 70
     2
  9
$DIMALTTD
 70
     3
  9
$DIMTXSTY
  7
STANDARD
  9
$DIMAUNIT
 70
     0
  9
$LUNITS
 70
     2
  9
$LUPREC
 70
     4
  9
$SKETCHINC
 40
1.0
  9
$FILLETRAD
 40
0.0
  9
$AUNITS
 70
     0
  9
$AUPREC
 70
     0
  9
$MENU
  1
.
  9
$ELEVATION
 40
0.0
  9
$PELEVATION
 40
0.0
  9
$THICKNESS
 40
0.0
  9
$LIMCHECK
 70
     0
  9
$CHAMFERA
 40
10.0
  9
$CHAMFERB
 40
10.0
  9
$CHAMFERC
 40
20.0
  9
$CHAMFERD
 40
0.0
  9
$SKPOLY
 70
     0
  9
$TDCREATE
 40
2454734.423731898
  9
$TDUPDATE
 40
2457962.431231586
  9
$TDINDWG
 40
0.0034772569
  9
$TDUSRTIMER
 40
2457962.055911447
  9
$USRTIMER
 70
     1
  9
$ANGBASE
 50
0.0
  9
$ANGDIR
 70
     0
  9
$PDMODE
 70
     0
  9
$PDSIZE
 40
0.0
  9
$PLINEWID
 40
0.0
  9
$COORDS
 70
     1
  9
$SPLFRAME
 70
     0
  9
$SPLINETYPE
 70
     6
  9
$SPLINESEGS
 70
     8
  9
$ATTDIA
 70
     0
  9
$ATTREQ
 70
     1
  9
$HANDLING
 70
     1
  9
$HANDSEED
  5
23D
  9
$SURFTAB1
 70
     6
  9
$SURFTAB2
 70
     6
  9
$SURFTYPE
 70
     6
  9
$SURFU
 70
     6
  9
$SURFV
 70
     6
  9
$UCSNAME
  2

  9
$UCSORG
 10
0.0
 20
0.0
 30
0.0
  9
$UCSXDIR
 10
1.0
 20
0.0
 30
0.0
  9
$UCSYDIR
 10
0.0
 20
1.0
 30
0.0
  9
$PUCSNAME
  2

  9
$PUCSORG
 10
0.0
 20
0.0
 30
0.0
  9
$PUCSXDIR
 10
1.0
 20
0.0
 30
0.0
  9
$PUCSYDIR
 10
0.0
 20
1.0
 30
0.0
  9
$USERI1
 70
     0
  9
$USERI2
 70
     0
  9
$USERI3
 70
     0
  9
$USERI4
 70
     0
  9
$USERI5
 70
     0
  9
$USERR1
 40
0.0
  9
$USERR2
 40
0.0
  9
$USERR3
 40
0.0
  9
$USERR4
 40
0.0
  9
$USERR5
 40
0.0
  9
$WORLDVIEW
 70
     1
  9
$SHADEDGE
 70
     3
  9
$SHADEDIF
 70
    70
  9
$TILEMODE
 70
     1
  9
$MAXACTVP
 70
    64
  9
$PINSBASE
 10
0.0
 20
0.0
 30
0.0
  9
$PLIMCHECK
 70
     0
  9
$PEXTMIN
 10
1.000000000000000E+20
 20
1.000000000000000E+20
 30
0.0
  9
$PEXTMAX
 10
-1.000000000000000E+20
 20
-1.000000000000000E+20
 30
0.0
  9
$PLIMMIN
 10
0.0
 20
0.0
  9
$PLIMMAX
 10
0.0
 20
0.0
  9
$UNITMODE
 70
     0
  9
$VISRETAIN
 70
     1
  9
$PLINEGEN
 70
     0
  9
$PSLTSCALE
 70
     1
  9
$TREEDEPTH
 70
  3020
  9
$PICKSTYLE
 70
     1
  9
$CMLSTYLE
  2
STANDARD
  9
$CMLJUST
 70
     0
  9
$CMLSCALE
 40
20.0
  9
$PROXYGRAPHICS
 70
     1
  9
$MEASUREMENT
 70
     1
  0
ENDSEC
  0
SECTION
  2
CLASSES
  0
CLASS
  1
ACDBDICTIONARYWDFLT
  2
AcDbDictionaryWithDefault
  3
ObjectDBX Classes
 90
        0
280
     0
281
     0
  0
CLASS
  1
VISUALSTYLE
  2
AcDbVisualStyle
  3
ObjectDBX Classes
 90
     4095
280
     0
281
     0
  0
CLASS
  1
SCALE
  2
AcDbScale
  3
ObjectDBX Classes
 90
     1153
280
     0
281
     0
  0
CLASS
  1
DICTIONARYVAR
  2
AcDbDictionaryVar
  3
ObjectDBX Classes
 90
        0
280
     0
281
     0
  0
CLASS
  1
ACDBPLACEHOLDER
  2
AcDbPlaceHolder
  3
ObjectDBX Classes
 90
        0
280
     0
281
     0
  0
CLASS
  1
LAYOUT
  2
AcDbLayout
  3
ObjectDBX Classes
 90
        0
280
     0
281
     0
  0
CLASS
  1
MATERIAL
  2
AcDbMaterial
  3
ObjectDBX Classes
 90
     1153
280
     0
281
     0
  0
CLASS
  1
TABLESTYLE
  2
AcDbTableStyle
  3
ObjectDBX Classes
 90
     4095
280
     0
281
     0
  0
CLASS
  1
RASTERVARIABLES
  2
AcDbRasterVariables
  3
ISM
 90
        0
280
     0
281
     0
  0
CLASS
  1
DIMASSOC
  2
AcDbDimAssoc
  3
"AcDbDimAssoc|Product Desc:     AcDim ARX App For Dimension|Company:          Autodesk, Inc.|WEB Address:      www.autodesk.com"
 90
        0
280
     0
281
     0
  0
CLASS
  1
XRECORD
  2
AcDbXrecord
  3
ObjectDBX Classes
 90
        0
280
     0
281
     0
  0
CLASS
  1
LWPOLYLINE
  2
AcDbPolyline
  3
ObjectDBX Classes
 90
        0
280
     0
281
     1
  0
CLASS
  1
HATCH
  2
AcDbHatch
  3
ObjectDBX Classes
 90
        0
280
     0
281
     1
  0
CLASS
  1
MLEADERSTYLE
  2
AcDbMLeaderStyle
  3
ACDB_MLEADERSTYLE_CLASS
 90
     4095
280
     0
281
     0
  0
CLASS
  1
SUN
  2
AcDbSun
  3
SCENEOE
 90
     1153
280
     0
281
     0
  0
ENDSEC
  0
SECTION
  2
TABLES
  0
TABLE
  2
VPORT
  5
8
330
0
100
AcDbSymbolTable
 70
     1
  0
VPORT
  5
29
330
8
100
AcDbSymbolTableRecord
100
AcDbViewportTableRecord
  2
*ACTIVE
 70
     0
 10
0.0
 20
0.0
 11
1.0
 21
1.0
 12
4.281811295354416
 22
51.93064377864346
 13
0.0
 23
0.0
 14
1.0
 24
1.0
 15
0.0
 25
0.0
 16
0.0
 26
0.0
 36
1.0
 17
0.0
 27
0.0
 37
0.0
 40
178.8813077733285
 41
1.369408369408369
 42
50.0
 43
0.0
 44
0.0
 50
0.0
 51
0.0
 71
    16
 72
   100
 73
     1
 74
     3
 75
     0
 76
     0
 77
     0
 78
     0
  0
ENDTAB
  0
TABLE
  2
LTYPE
  5
5
330
0
100
AcDbSymbolTable
 70
     5
  0
LTYPE
  5
14
330
5
100
AcDbSymbolTableRecord
100
AcDbLinetypeTableRecord
  2
BYBLOCK
 70
     0
  3

 72
    65
 73
     0
 40
0.0
  0
LTYPE
  5
15
330
5
100
AcDbSymbolTableRecord
100
AcDbLinetypeTableRecord
  2
BYLAYER
 70
     0
  3

 72
    65
 73
     0
 40
0.0
  0
LTYPE
  5
16
330
5
100
AcDbSymbolTableRecord
100
AcDbLinetypeTableRecord
  2
CONTINUOUS
 70
     0
  3
Solid line
 72
    65
 73
     0
 40
0.0
  0
LTYPE
  5
5D
330
5
100
AcDbSymbolTableRecord
100
AcDbLinetypeTableRecord
  2
DASHED
 70
     0
  3
DASHED
 72
    83
 73
     2
 40
0.75
 49
0.5
 74
     0
 49
-0.25
 74
     0
  0
LTYPE
  5
5E
330
5
100
AcDbSymbolTableRecord
100
AcDbLinetypeTableRecord
  2
HIDDEN
 70
     0
  3
HIDDEN
 72
    83
 73
     2
 40
0.375
 49
0.25
 74
     0
 49
-0.125
 74
     0
  0
LTYPE
  5
5F
330
5
100
AcDbSymbolTableRecord
100
AcDbLinetypeTableRecord
  2
CENTER
 70
     0
  3
CENTER
 72
    83
 73
     4
 40
2.0
 49
1.25
 74
     0
 49
-0.25
 74
     0
 49
0.25
 74
     0
 49
-0.25
 74
     0
  0
LTYPE
  5
60
330
5
100
AcDbSymbolTableRecord
100
AcDbLinetypeTableRecord
  2
PHANTOM
 70
     0
  3
PHANTOM
 72
    83
 73
     6
 40
2.5
 49
1.25
 74
     0
 49
-0.25
 74
     0
 49
0.25
 74
     0
 49
-0.25
 74
     0
 49
0.25
 74
     0
 49
-0.25
 74
     0
  0
ENDTAB
  0
TABLE
  2
LAYER
  5
2
330
0
100
AcDbSymbolTable
 70
     3
  0
LAYER
  5
10
330
2
100
AcDbSymbolTableRecord
100
AcDbLayerTableRecord
  2
0
 70
     0
 62
     7
  6
CONTINUOUS
  0
LAYER
  5
61
330
2
100
AcDbSymbolTableRecord
100
AcDbLayerTableRecord
  2
001
 70
     0
 62
     7
  6
CONTINUOUS
  0
LAYER
  5
1D4
330
2
100
AcDbSymbolTableRecord
100
AcDbLayerTableRecord
  2
DEFPOINTS
 70
     0
 62
     7
  6
CONTINUOUS
  0
ENDTAB
  0
TABLE
  2
STYLE
  5
3
330
0
100
AcDbSymbolTable
 70
     2
  0
STYLE
  5
11
330
3
100
AcDbSymbolTableRecord
100
AcDbTextStyleTableRecord
  2
STANDARD
 70
     0
 40
0.0
 41
1.0
 50
0.0
 71
     0
 42
0.2
  3
TXT
  4
BIGFONT
  0
STYLE
  5
62
330
3
100
AcDbSymbolTableRecord
100
AcDbTextStyleTableRecord
  2
TATEGAKI
 70
     4
 40
1.0
 41
1.0
 50
0.0
 71
     0
 42
0.2
  3
TXT
  4
BIGFONT
  0
ENDTAB
  0
TABLE
  2
VIEW
  5
6
330
0
100
AcDbSymbolTable
 70
     0
  0
ENDTAB
  0
TABLE
  2
UCS
  5
7
330
0
100
AcDbSymbolTable
 70
     0
  0
ENDTAB
  0
TABLE
  2
APPID
  5
9
330
0
100
AcDbSymbolTable
 70
     1
  0
APPID
  5
12
330
9
100
AcDbSymbolTableRecord
100
AcDbRegAppTableRecord
  2
ACAD
 70
     0
  0
ENDTAB
  0
TABLE
  2
DIMSTYLE
  5
A
330
0
100
AcDbSymbolTable
 70
     2
  0
DIMSTYLE
105
27
102
{ACAD_REACTORS
330
1D5
102
}
330
A
100
AcDbSymbolTableRecord
100
AcDbDimStyleTableRecord
  2
ISO-25
 70
     0
  3

  4

  5

  6

  7

 40
1.0
 41
2.5
 42
0.625
 43
3.75
 44
1.25
 45
0.0
 46
0.0
 47
0.0
 48
0.0
140
2.5
141
2.5
142
0.0
143
0.03937
144
1.0
145
0.0
146
1.0
147
0.625
 71
     0
 72
     0
 73
     0
 74
     0
 75
     0
 76
     0
 77
     1
 78
     8
170
     0
171
     3
172
     1
173
     0
174
     0
175
     0
176
     0
177
     0
178
     0
270
     2
271
     2
272
     2
273
     2
274
     3
340
11
275
     0
280
     0
281
     0
282
     0
283
     0
284
     8
285
     0
286
     0
287
     3
288
     0
  0
DIMSTYLE
105
63
102
{ACAD_REACTORS
330
10B
330
10C
330
10D
330
10E
330
10F
330
110
330
111
330
12A
102
}
330
A
100
AcDbSymbolTableRecord
100
AcDbDimStyleTableRecord
  2
STANDARD
 70
     0
  3

  4

  5

  6

  7

 40
1.0
 41
1.5
 42
0.0
 43
0.38
 44
2.75
 45
0.0
 46
0.0
 47
0.0
 48
0.0
140
4.0
141
0.09
142
0.0
143
25.4
144
1.0
145
0.0
146
0.8
147
1.0
 71
     0
 72
     0
 73
     0
 74
     0
 75
     0
 76
     0
 77
     1
 78
     8
170
     0
171
     2
172
     1
173
     0
174
     0
175
     0
176
     0
177
     0
178
     0
179
     1
270
     2
271
     1
272
     4
273
     2
274
     2
340
11
275
     0
280
     0
281
     0
282
     0
283
     1
284
     0
285
     0
286
     0
287
     3
288
     0
  0
ENDTAB
  0
TABLE
  2
BLOCK_RECORD
  5
1
330
0
100
AcDbSymbolTable
 70
    11
  0
BLOCK_RECORD
  5
1F
330
1
100
AcDbSymbolTableRecord
100
AcDbBlockTableRecord
  2
*MODEL_SPACE
  0
BLOCK_RECORD
  5
1B
330
1
100
AcDbSymbolTableRecord
100
AcDbBlockTableRecord
  2
*PAPER_SPACE
  0
BLOCK_RECORD
  5
23
330
1
100
AcDbSymbolTableRecord
100
AcDbBlockTableRecord
  2
*PAPER_SPACE0
  0
BLOCK_RECORD
  5
64
330
1
100
AcDbSymbolTableRecord
100
AcDbBlockTableRecord
  2
*D1
  0
BLOCK_RECORD
  5
79
330
1
100
AcDbSymbolTableRecord
100
AcDbBlockTableRecord
  2
*D2
  0
BLOCK_RECORD
  5
8D
330
1
100
AcDbSymbolTableRecord
100
AcDbBlockTableRecord
  2
*D3
  0
BLOCK_RECORD
  5
A1
330
1
100
AcDbSymbolTableRecord
100
AcDbBlockTableRecord
  2
*D4
  0
BLOCK_RECORD
  5
B7
330
1
100
AcDbSymbolTableRecord
100
AcDbBlockTableRecord
  2
*D5
  0
BLOCK_RECORD
  5
CB
330
1
100
AcDbSymbolTableRecord
100
AcDbBlockTableRecord
  2
*D6
  0
BLOCK_RECORD
  5
E1
330
1
100
AcDbSymbolTableRecord
100
AcDbBlockTableRecord
  2
*D7
  0
BLOCK_RECORD
  5
F5
330
1
100
AcDbSymbolTableRecord
100
AcDbBlockTableRecord
  2
*D8
  0
BLOCK_RECORD
  5
1D8
330
1
100
AcDbSymbolTableRecord
100
AcDbBlockTableRecord
  2
*D9
  0
BLOCK_RECORD
  5
1E6
330
1
100
AcDbSymbolTableRecord
100
AcDbBlockTableRecord
  2
_OPEN
  0
ENDTAB
  0
ENDSEC
  0
SECTION
  2
BLOCKS
  0
BLOCK
  5
20
330
1F
100
AcDbEntity
  8
0
100
AcDbBlockBegin
  2
*MODEL_SPACE
 70
     0
 10
0.0
 20
0.0
 30
0.0
  3
*MODEL_SPACE
  1

  0
ENDBLK
  5
21
330
1F
100
AcDbEntity
  8
0
100
AcDbBlockEnd
  0
BLOCK
  5
1C
330
1B
100
AcDbEntity
 67
     1
  8
0
100
AcDbBlockBegin
  2
*PAPER_SPACE
 70
     0
 10
0.0
 20
0.0
 30
0.0
  3
*PAPER_SPACE
  1

  0
ENDBLK
  5
1D
330
1B
100
AcDbEntity
 67
     1
  8
0
100
AcDbBlockEnd
  0
BLOCK
  5
24
330
23
100
AcDbEntity
  8
0
100
AcDbBlockBegin
  2
*PAPER_SPACE0
 70
     0
 10
0.0
 20
0.0
 30
0.0
  3
*PAPER_SPACE0
  1

  0
ENDBLK
  5
25
330
23
100
AcDbEntity
  8
0
100
AcDbBlockEnd
  0
BLOCK
  5
65
330
64
100
AcDbEntity
  8
0
100
AcDbBlockBegin
  2
*D1
 70
     1
 10
0.0
 20
0.0
 30
0.0
  3
*D1
  1

  0
LINE
  5
67
330
64
100
AcDbEntity
  8
001
100
AcDbLine
 10
46.152427
 20
44.082531
 30
0.0
 11
32.723536
 21
30.65364
 31
0.0
  0
LINE
  5
68
330
64
100
AcDbEntity
  8
001
100
AcDbLine
 10
41.012132
 20
51.366253
 30
0.0
 11
24.144091
 21
51.366253
 31
0.0
  0
ARC
  5
69
330
64
100
AcDbEntity
  8
001
100
AcDbCircle
 10
53.436148
 20
51.366253
 30
0.0
 40
26.54205755270838
100
AcDbArc
 50
180.0
 51
225.0
  0
LWPOLYLINE
  5
6A
330
64
100
AcDbEntity
  8
001
100
AcDbPolyline
 90
        3
 70
     0
 43
0.0
 10
33.929929
 20
33.964447
 10
34.668079
 20
32.598184
 10
33.345691
 20
33.412328
  0
LWPOLYLINE
  5
6F
330
64
100
AcDbEntity
  8
001
100
AcDbPolyline
 90
        3
 70
     0
 43
0.0
 10
26.534707
 20
49.855496
 10
26.894091
 20
51.366253
 10
27.338234
 20
49.878207
  0
TEXT
  5
74
330
64
100
AcDbEntity
  8
001
100
AcDbText
 10
27.542264
 20
47.135007
 30
0.0
 40
4.0
  1
４５%%d
 50
292.50001
 41
0.978261
100
AcDbText
  0
POINT
  5
75
330
64
100
AcDbEntity
  8
001
100
AcDbPoint
 10
46.152427
 20
44.082531
 30
0.0
  0
POINT
  5
76
330
64
100
AcDbEntity
  8
001
100
AcDbPoint
 10
53.436148
 20
51.366253
 30
0.0
  0
POINT
  5
77
330
64
100
AcDbEntity
  8
001
100
AcDbPoint
 10
53.436148
 20
51.366253
 30
0.0
  0
POINT
  5
78
330
64
100
AcDbEntity
  8
001
100
AcDbPoint
 10
41.012132
 20
51.366253
 30
0.0
  0
ENDBLK
  5
66
330
64
100
AcDbEntity
  8
0
100
AcDbBlockEnd
  0
BLOCK
  5
7A
330
79
100
AcDbEntity
  8
0
100
AcDbBlockBegin
  2
*D2
 70
     1
 10
0.0
 20
0.0
 30
0.0
  3
*D2
  1

  0
LINE
  5
7C
330
79
100
AcDbEntity
  8
001
100
AcDbLine
 10
100.54602
 20
47.366253
 30
0.0
 11
100.54602
 21
25.316738
 31
0.0
  0
LINE
  5
7D
330
79
100
AcDbEntity
  8
001
100
AcDbLine
 10
41.54602
 20
41.812616
 30
0.0
 11
41.54602
 21
25.316738
 31
0.0
  0
LINE
  5
7E
330
79
100
AcDbEntity
  8
001
100
AcDbLine
 10
100.54602
 20
28.066738
 30
0.0
 11
41.54602
 21
28.066738
 31
0.0
  0
LWPOLYLINE
  5
7F
330
79
100
AcDbEntity
  8
001
100
AcDbPolyline
 90
        3
 70
     0
 43
0.0
 10
99.04602
 20
28.468662
 10
100.54602
 20
28.066738
 10
99.04602
 20
27.664814
  0
LWPOLYLINE
  5
84
330
79
100
AcDbEntity
  8
001
100
AcDbPolyline
 90
        3
 70
     0
 43
0.0
 10
43.04602
 20
27.664814
 10
41.54602
 20
28.066738
 10
43.04602
 20
28.468662
  0
TEXT
  5
89
330
79
100
AcDbEntity
  8
001
100
AcDbText
 10
67.04602
 20
29.066738
 30
0.0
 40
4.0
  1
５９
 41
0.833333
100
AcDbText
  0
POINT
  5
8A
330
79
100
AcDbEntity
  8
001
100
AcDbPoint
 10
100.54602
 20
47.366253
 30
0.0
  0
POINT
  5
8B
330
79
100
AcDbEntity
  8
001
100
AcDbPoint
 10
41.54602
 20
41.812616
 30
0.0
  0
POINT
  5
8C
330
79
100
AcDbEntity
  8
001
100
AcDbPoint
 10
41.54602
 20
28.066738
 30
0.0
  0
ENDBLK
  5
7B
330
79
100
AcDbEntity
  8
0
100
AcDbBlockEnd
  0
BLOCK
  5
8E
330
8D
100
AcDbEntity
  8
0
100
AcDbBlockBegin
  2
*D3
 70
     1
 10
0.0
 20
0.0
 30
0.0
  3
*D3
  1

  0
LINE
  5
90
330
8D
100
AcDbEntity
  8
001
100
AcDbLine
 10
170.54602
 20
46.366253
 30
0.0
 11
170.54602
 21
25.316738
 31
0.0
  0
LINE
  5
91
330
8D
100
AcDbEntity
  8
001
100
AcDbLine
 10
100.54602
 20
47.366253
 30
0.0
 11
100.54602
 21
25.316738
 31
0.0
  0
LINE
  5
92
330
8D
100
AcDbEntity
  8
001
100
AcDbLine
 10
170.54602
 20
28.066738
 30
0.0
 11
100.54602
 21
28.066738
 31
0.0
  0
LWPOLYLINE
  5
93
330
8D
100
AcDbEntity
  8
001
100
AcDbPolyline
 90
        3
 70
     0
 43
0.0
 10
169.04602
 20
28.468662
 10
170.54602
 20
28.066738
 10
169.04602
 20
27.664814
  0
LWPOLYLINE
  5
98
330
8D
100
AcDbEntity
  8
001
100
AcDbPolyline
 90
        3
 70
     0
 43
0.0
 10
102.04602
 20
27.664814
 10
100.54602
 20
28.066738
 10
102.04602
 20
28.468662
  0
TEXT
  5
9D
330
8D
100
AcDbEntity
  8
001
100
AcDbText
 10
131.54602
 20
29.066738
 30
0.0
 40
4.0
  1
７０
 41
0.833333
100
AcDbText
  0
POINT
  5
9E
330
8D
100
AcDbEntity
  8
001
100
AcDbPoint
 10
170.54602
 20
46.366253
 30
0.0
  0
POINT
  5
9F
330
8D
100
AcDbEntity
  8
001
100
AcDbPoint
 10
100.54602
 20
47.366253
 30
0.0
  0
POINT
  5
A0
330
8D
100
AcDbEntity
  8
001
100
AcDbPoint
 10
100.54602
 20
28.066738
 30
0.0
  0
ENDBLK
  5
8F
330
8D
100
AcDbEntity
  8
0
100
AcDbBlockEnd
  0
BLOCK
  5
A2
330
A1
100
AcDbEntity
  8
0
100
AcDbBlockBegin
  2
*D4
 70
     1
 10
0.0
 20
0.0
 30
0.0
  3
*D4
  1

  0
LINE
  5
A4
330
A1
100
AcDbEntity
  8
001
100
AcDbLine
 10
41.54602
 20
41.812616
 30
0.0
 11
41.54602
 21
32.96769
 31
0.0
  0
LINE
  5
A5
330
A1
100
AcDbEntity
  8
001
100
AcDbLine
 10
48.44602
 20
46.376124
 30
0.0
 11
48.44602
 21
32.96769
 31
0.0
  0
LINE
  5
A6
330
A1
100
AcDbEntity
  8
001
100
AcDbLine
 10
41.54602
 20
35.71769
 30
0.0
 11
48.44602
 21
35.71769
 31
0.0
  0
LWPOLYLINE
  5
A7
330
A1
100
AcDbEntity
  8
001
100
AcDbPolyline
 90
        3
 70
     0
 43
0.0
 10
40.04602
 20
36.119614
 10
41.54602
 20
35.71769
 10
40.04602
 20
35.315767
  0
LWPOLYLINE
  5
AC
330
A1
100
AcDbEntity
  8
001
100
AcDbPolyline
 90
        3
 70
     0
 43
0.0
 10
49.94602
 20
35.315767
 10
48.44602
 20
35.71769
 10
49.94602
 20
36.119614
  0
TEXT
  5
B1
330
A1
100
AcDbEntity
  8
001
100
AcDbText
 10
52.809885
 20
36.71769
 30
0.0
 40
4.0
  1
６．９
 41
0.833333
100
AcDbText
  0
POINT
  5
B2
330
A1
100
AcDbEntity
  8
001
100
AcDbPoint
 10
41.54602
 20
41.812616
 30
0.0
  0
POINT
  5
B3
330
A1
100
AcDbEntity
  8
001
100
AcDbPoint
 10
48.44602
 20
46.376124
 30
0.0
  0
POINT
  5
B4
330
A1
100
AcDbEntity
  8
001
100
AcDbPoint
 10
48.44602
 20
35.71769
 30
0.0
  0
LINE
  5
B5
330
A1
100
AcDbEntity
  8
001
100
AcDbLine
 10
41.54602
 20
35.71769
 30
0.0
 11
39.04602
 21
35.71769
 31
0.0
  0
LINE
  5
B6
330
A1
100
AcDbEntity
  8
001
100
AcDbLine
 10
48.44602
 20
35.71769
 30
0.0
 11
67.809885
 21
35.71769
 31
0.0
  0
ENDBLK
  5
A3
330
A1
100
AcDbEntity
  8
0
100
AcDbBlockEnd
  0
BLOCK
  5
B8
330
B7
100
AcDbEntity
  8
0
100
AcDbBlockBegin
  2
*D5
 70
     1
 10
0.0
 20
0.0
 30
0.0
  3
*D5
  1

  0
LINE
  5
BA
330
B7
100
AcDbEntity
  8
001
100
AcDbLine
 10
170.54602
 20
46.366253
 30
0.0
 11
170.54602
 21
17.354281
 31
0.0
  0
LINE
  5
BB
330
B7
100
AcDbEntity
  8
001
100
AcDbLine
 10
41.54602
 20
41.812616
 30
0.0
 11
41.54602
 21
17.354281
 31
0.0
  0
LINE
  5
BC
330
B7
100
AcDbEntity
  8
001
100
AcDbLine
 10
170.54602
 20
20.104281
 30
0.0
 11
41.54602
 21
20.104281
 31
0.0
  0
LWPOLYLINE
  5
BD
330
B7
100
AcDbEntity
  8
001
100
AcDbPolyline
 90
        3
 70
     0
 43
0.0
 10
169.04602
 20
20.506205
 10
170.54602
 20
20.104281
 10
169.04602
 20
19.702357
  0
LWPOLYLINE
  5
C2
330
B7
100
AcDbEntity
  8
001
100
AcDbPolyline
 90
        3
 70
     0
 43
0.0
 10
43.04602
 20
19.702357
 10
41.54602
 20
20.104281
 10
43.04602
 20
20.506205
  0
TEXT
  5
C7
330
B7
100
AcDbEntity
  8
001
100
AcDbText
 10
102.926133
 20
21.104281
 30
0.0
 40
4.0
  1
１２９
 41
0.833333
100
AcDbText
  0
POINT
  5
C8
330
B7
100
AcDbEntity
  8
001
100
AcDbPoint
 10
170.54602
 20
46.366253
 30
0.0
  0
POINT
  5
C9
330
B7
100
AcDbEntity
  8
001
100
AcDbPoint
 10
41.54602
 20
41.812616
 30
0.0
  0
POINT
  5
CA
330
B7
100
AcDbEntity
  8
001
100
AcDbPoint
 10
41.54602
 20
20.104281
 30
0.0
  0
ENDBLK
  5
B9
330
B7
100
AcDbEntity
  8
0
100
AcDbBlockEnd
  0
BLOCK
  5
CC
330
CB
100
AcDbEntity
  8
0
100
AcDbBlockBegin
  2
*D6
 70
     1
 10
0.0
 20
0.0
 30
0.0
  3
*D6
  1

  0
LINE
  5
CE
330
CB
100
AcDbEntity
  8
001
100
AcDbLine
 10
169.54602
 20
45.366253
 30
0.0
 11
190.674034
 21
45.366253
 31
0.0
  0
LINE
  5
CF
330
CB
100
AcDbEntity
  8
001
100
AcDbLine
 10
169.54602
 20
57.366253
 30
0.0
 11
190.674034
 21
57.366253
 31
0.0
  0
LINE
  5
D0
330
CB
100
AcDbEntity
  8
001
100
AcDbLine
 10
187.924034
 20
45.366253
 30
0.0
 11
187.924034
 21
57.366253
 31
0.0
  0
LWPOLYLINE
  5
D1
330
CB
100
AcDbEntity
  8
001
100
AcDbPolyline
 90
        3
 70
     0
 43
0.0
 10
187.52211
 20
43.866253
 10
187.924034
 20
45.366253
 10
188.325958
 20
43.866253
  0
LWPOLYLINE
  5
D6
330
CB
100
AcDbEntity
  8
001
100
AcDbPolyline
 90
        3
 70
     0
 43
0.0
 10
188.325958
 20
58.866253
 10
187.924034
 20
57.366253
 10
187.52211
 20
58.866253
  0
TEXT
  5
DB
330
CB
100
AcDbEntity
  8
001
100
AcDbText
 10
186.924034
 20
29.866253
 30
0.0
 40
4.0
  1
%%c１２
 50
90.000003
 41
0.882353
100
AcDbText
  0
POINT
  5
DC
330
CB
100
AcDbEntity
  8
001
100
AcDbPoint
 10
169.54602
 20
45.366253
 30
0.0
  0
POINT
  5
DD
330
CB
100
AcDbEntity
  8
001
100
AcDbPoint
 10
169.54602
 20
57.366253
 30
0.0
  0
POINT
  5
DE
330
CB
100
AcDbEntity
  8
001
100
AcDbPoint
 10
187.924034
 20
57.366253
 30
0.0
  0
LINE
  5
DF
330
CB
100
AcDbEntity
  8
001
100
AcDbLine
 10
187.924034
 20
45.366253
 30
0.0
 11
187.924034
 21
26.866253
 31
0.0
  0
LINE
  5
E0
330
CB
100
AcDbEntity
  8
001
100
AcDbLine
 10
187.924034
 20
57.366253
 30
0.0
 11
187.924034
 21
59.866253
 31
0.0
  0
ENDBLK
  5
CD
330
CB
100
AcDbEntity
  8
0
100
AcDbBlockEnd
  0
BLOCK
  5
E2
330
E1
100
AcDbEntity
  8
0
100
AcDbBlockBegin
  2
*D7
 70
     1
 10
0.0
 20
0.0
 30
0.0
  3
*D7
  1

  0
LINE
  5
E4
330
E1
100
AcDbEntity
  8
001
100
AcDbLine
 10
42.04602
 20
52.966253
 30
0.0
 11
20.034816
 21
52.966253
 31
0.0
  0
LINE
  5
E5
330
E1
100
AcDbEntity
  8
001
100
AcDbLine
 10
37.507679
 20
43.966253
 30
0.0
 11
20.034816
 21
43.966253
 31
0.0
  0
LINE
  5
E6
330
E1
100
AcDbEntity
  8
001
100
AcDbLine
 10
22.784816
 20
52.966253
 30
0.0
 11
22.784816
 21
43.966253
 31
0.0
  0
LWPOLYLINE
  5
E7
330
E1
100
AcDbEntity
  8
001
100
AcDbPolyline
 90
        3
 70
     0
 43
0.0
 10
22.382893
 20
51.466253
 10
22.784816
 20
52.966253
 10
23.18674
 20
51.466253
  0
LWPOLYLINE
  5
EC
330
E1
100
AcDbEntity
  8
001
100
AcDbPolyline
 90
        3
 70
     0
 43
0.0
 10
23.18674
 20
45.466253
 10
22.784816
 20
43.966253
 10
22.382893
 20
45.466253
  0
TEXT
  5
F1
330
E1
100
AcDbEntity
  8
001
100
AcDbText
 10
21.784816
 20
44.740363
 30
0.0
 40
4.0
  1
%%c９
 50
90.000003
 41
0.909091
100
AcDbText
  0
POINT
  5
F2
330
E1
100
AcDbEntity
  8
001
100
AcDbPoint
 10
42.04602
 20
52.966253
 30
0.0
  0
POINT
  5
F3
330
E1
100
AcDbEntity
  8
001
100
AcDbPoint
 10
37.507679
 20
43.966253
 30
0.0
  0
POINT
  5
F4
330
E1
100
AcDbEntity
  8
001
100
AcDbPoint
 10
22.784816
 20
43.966253
 30
0.0
  0
ENDBLK
  5
E3
330
E1
100
AcDbEntity
  8
0
100
AcDbBlockEnd
  0
BLOCK
  5
F6
330
F5
100
AcDbEntity
  8
0
100
AcDbBlockBegin
  2
*D8
 70
     1
 10
0.0
 20
0.0
 30
0.0
  3
*D8
  1

  0
LINE
  5
F8
330
F5
100
AcDbEntity
  8
001
100
AcDbLine
 10
215.818866
 20
51.366253
 30
0.0
 11
215.818866
 21
28.455128
 31
0.0
  0
LINE
  5
F9
330
F5
100
AcDbEntity
  8
001
100
AcDbLine
 10
204.818866
 20
48.049628
 30
0.0
 11
204.818866
 21
28.455128
 31
0.0
  0
LINE
  5
FA
330
F5
100
AcDbEntity
  8
001
100
AcDbLine
 10
215.818866
 20
31.205128
 30
0.0
 11
204.818866
 21
31.205128
 31
0.0
  0
LWPOLYLINE
  5
FB
330
F5
100
AcDbEntity
  8
001
100
AcDbPolyline
 90
        3
 70
     0
 43
0.0
 10
217.318866
 20
30.803204
 10
215.818866
 20
31.205128
 10
217.318866
 20
31.607052
  0
LWPOLYLINE
  5
100
330
F5
100
AcDbEntity
  8
001
100
AcDbPolyline
 90
        3
 70
     0
 43
0.0
 10
203.318866
 20
31.607052
 10
204.818866
 20
31.205128
 10
203.318866
 20
30.803204
  0
TEXT
  5
105
330
F5
100
AcDbEntity
  8
001
100
AcDbText
 10
206.318866
 20
32.205128
 30
0.0
 40
4.0
  1
１１
 41
0.833333
100
AcDbText
  0
POINT
  5
106
330
F5
100
AcDbEntity
  8
001
100
AcDbPoint
 10
215.818866
 20
51.366253
 30
0.0
  0
POINT
  5
107
330
F5
100
AcDbEntity
  8
001
100
AcDbPoint
 10
204.818866
 20
48.049628
 30
0.0
  0
POINT
  5
108
330
F5
100
AcDbEntity
  8
001
100
AcDbPoint
 10
204.818866
 20
31.205128
 30
0.0
  0
LINE
  5
109
330
F5
100
AcDbEntity
  8
001
100
AcDbLine
 10
215.818866
 20
31.205128
 30
0.0
 11
218.318866
 21
31.205128
 31
0.0
  0
LINE
  5
10A
330
F5
100
AcDbEntity
  8
001
100
AcDbLine
 10
204.818866
 20
31.205128
 30
0.0
 11
202.318866
 21
31.205128
 31
0.0
  0
ENDBLK
  5
F7
330
F5
100
AcDbEntity
  8
0
100
AcDbBlockEnd
  0
BLOCK
  5
1E4
330
1D8
100
AcDbEntity
  8
0
100
AcDbBlockBegin
  2
*D9
 70
     1
 10
0.0
 20
0.0
 30
0.0
  3
*D9
  1

  0
LINE
  5
1D9
330
1D8
100
AcDbEntity
  8
0
 62
     0
100
AcDbLine
 10
-12.72301
 20
48.446253
 30
0.0
 11
-21.04785948579452
 21
48.446253
 31
0.0
  0
LINE
  5
1DA
330
1D8
100
AcDbEntity
  8
0
 62
     0
100
AcDbLine
 10
-12.72301
 20
51.366253
 30
0.0
 11
-21.04785948579452
 21
51.366253
 31
0.0
  0
LINE
  5
1DB
330
1D8
100
AcDbEntity
  8
0
 62
     0
100
AcDbLine
 10
-19.79785948579452
 20
53.866253
 30
0.0
 11
-19.79785948579452
 21
56.366253
 31
0.0
  0
LINE
  5
1DC
330
1D8
100
AcDbEntity
  8
0
 62
     0
100
AcDbLine
 10
-19.79785948579452
 20
48.446253
 30
0.0
 11
-19.79785948579452
 21
51.366253
 31
0.0
  0
LINE
  5
1DD
330
1D8
100
AcDbEntity
  8
0
 62
     0
100
AcDbLine
 10
-19.79785948579452
 20
48.446253
 30
0.0
 11
-19.79785948579452
 21
43.446253
 31
0.0
  0
INSERT
  5
1DE
330
1D8
100
AcDbEntity
  8
0
 62
     0
100
AcDbBlockReference
  2
_OPEN
 10
-19.79785948579452
 20
48.446253
 30
0.0
 41
2.5
 42
2.5
 43
2.5
 50
90.0
  0
INSERT
  5
1DF
330
1D8
100
AcDbEntity
  8
0
 62
     0
100
AcDbBlockReference
  2
_OPEN
 10
-19.79785948579452
 20
51.366253
 30
0.0
 41
2.5
 42
2.5
 43
2.5
 50
270.0
  0
MTEXT
  5
1E0
330
1D8
100
AcDbEntity
  8
0
 62
     0
100
AcDbMText
 10
-19.79785948579452
 20
62.53291966666667
 30
0.0
 40
3.5
 41
0.0
 71
     5
 72
     1
  1
2,92
 11
0.0
 21
1.0
 31
0.0
  0
POINT
  5
1E1
330
1D8
100
AcDbEntity
  8
DEFPOINTS
 62
     0
100
AcDbPoint
 10
-12.09801
 20
48.446253
 30
0.0
  0
POINT
  5
1E2
330
1D8
100
AcDbEntity
  8
DEFPOINTS
 62
     0
100
AcDbPoint
 10
-12.09801
 20
51.366253
 30
0.0
  0
POINT
  5
1E3
330
1D8
100
AcDbEntity
  8
DEFPOINTS
 62
     0
100
AcDbPoint
 10
-19.79785948579452
 20
51.366253
 30
0.0
  0
ENDBLK
  5
1E5
330
1D8
100
AcDbEntity
  8
0
100
AcDbBlockEnd
  0
BLOCK
  5
1E7
330
1E6
100
AcDbEntity
  8
0
100
AcDbBlockBegin
  2
_OPEN
 70
     0
 10
0.0
 20
0.0
 30
0.0
  3
_OPEN
  1

  0
LINE
  5
1E9
330
1E6
100
AcDbEntity
  8
0
  6
BYBLOCK
 62
     0
100
AcDbLine
 10
-1.0
 20
0.166667
 30
0.0
 11
0.0
 21
0.0
 31
0.0
  0
LINE
  5
1EA
330
1E6
100
AcDbEntity
  8
0
  6
BYBLOCK
 62
     0
100
AcDbLine
 10
-1.0
 20
-0.166667
 30
0.0
 11
0.0
 21
0.0
 31
0.0
  0
LINE
  5
1EB
330
1E6
100
AcDbEntity
  8
0
  6
BYBLOCK
 62
     0
100
AcDbLine
 10
0.0
 20
0.0
 30
0.0
 11
-1.0
 21
0.0
 31
0.0
  0
ENDBLK
  5
1E8
330
1E6
100
AcDbEntity
  8
0
100
AcDbBlockEnd
  0
ENDSEC
  0
SECTION
  2
ENTITIES
  0
DIMENSION
  5
10B
330
1F
100
AcDbEntity
  8
001
100
AcDbDimension
  2
*D1
 10
53.436148
 20
51.366253
 30
0.0
 11
31.686124
 21
42.357098
 31
0.0
 70
    34
  3
STANDARD
100
AcDb2LineAngularDimension
 13
46.152427
 23
44.082531
 33
0.0
 14
53.436148
 24
51.366253
 34
0.0
 15
41.012132
 25
51.366253
 35
0.0
 16
28.914485
 26
41.209047
 36
0.0
  0
DIMENSION
  5
10C
330
1F
100
AcDbEntity
  8
001
100
AcDbDimension
  2
*D2
 10
41.54602
 20
28.066738
 30
0.0
 11
71.04602
 21
31.066738
 31
0.0
 70
   160
  3
STANDARD
100
AcDbAlignedDimension
 13
100.54602
 23
47.366253
 33
0.0
 14
41.54602
 24
41.812616
 34
0.0
 50
180.0
100
AcDbRotatedDimension
  0
DIMENSION
  5
10D
330
1F
100
AcDbEntity
  8
001
100
AcDbDimension
  2
*D3
 10
100.54602
 20
28.066738
 30
0.0
 11
135.54602
 21
31.066738
 31
0.0
 70
   160
  3
STANDARD
100
AcDbAlignedDimension
 13
170.54602
 23
46.366253
 33
0.0
 14
100.54602
 24
47.366253
 34
0.0
 50
180.0
100
AcDbRotatedDimension
  0
DIMENSION
  5
10E
330
1F
100
AcDbEntity
  8
001
100
AcDbDimension
  2
*D4
 10
48.44602
 20
35.71769
 30
0.0
 11
58.809885
 21
38.71769
 31
0.0
 70
   160
  3
STANDARD
100
AcDbAlignedDimension
 13
41.54602
 23
41.812616
 33
0.0
 14
48.44602
 24
46.376124
 34
0.0
100
AcDbRotatedDimension
  0
DIMENSION
  5
10F
330
1F
100
AcDbEntity
  8
001
100
AcDbDimension
  2
*D5
 10
41.54602
 20
20.104281
 30
0.0
 11
108.926133
 21
23.104281
 31
0.0
 70
   160
  3
STANDARD
100
AcDbAlignedDimension
 13
170.54602
 23
46.366253
 33
0.0
 14
41.54602
 24
41.812616
 34
0.0
 50
180.0
100
AcDbRotatedDimension
  0
DIMENSION
  5
110
330
1F
100
AcDbEntity
  8
001
100
AcDbDimension
  2
*D6
 10
187.924034
 20
57.366253
 30
0.0
 11
184.924034
 21
35.866252
 31
0.0
 70
   160
  3
STANDARD
100
AcDbAlignedDimension
 13
169.54602
 23
45.366253
 33
0.0
 14
169.54602
 24
57.366253
 34
0.0
 50
90.0
100
AcDbRotatedDimension
  0
DIMENSION
  5
111
330
1F
100
AcDbEntity
  8
001
100
AcDbDimension
  2
*D7
 10
22.784816
 20
43.966253
 30
0.0
 11
19.784816
 21
48.740363
 31
0.0
 70
   160
  3
STANDARD
100
AcDbAlignedDimension
 13
42.04602
 23
52.966253
 33
0.0
 14
37.507679
 24
43.966253
 34
0.0
 50
270.0
100
AcDbRotatedDimension
  0
TEXT
  5
112
330
1F
100
AcDbEntity
  8
001
100
AcDbText
 10
14.441873
 20
44.18278
 30
0.0
 40
4.0
  1
%%c１４．８
 50
90.000003
 41
0.862069
100
AcDbText
  0
LWPOLYLINE
  5
113
330
1F
100
AcDbEntity
  8
001
100
AcDbPolyline
 90
        3
 70
     0
 43
0.0
 10
15.843797
 20
45.466253
 10
15.441873
 20
43.966253
 10
15.039949
 20
45.466253
  0
LINE
  5
118
330
1F
100
AcDbEntity
  8
001
100
AcDbLine
 10
15.441873
 20
58.766253
 30
0.0
 11
15.441873
 21
43.966253
 31
0.0
  0
LWPOLYLINE
  5
119
330
1F
100
AcDbEntity
  8
001
100
AcDbPolyline
 90
        3
 70
     0
 43
0.0
 10
37.507679
 20
43.966253
 10
15.441873
 20
43.966253
 10
12.691873
 20
43.966253
  0
TEXT
  5
11E
330
1F
100
AcDbEntity
  8
001
100
AcDbText
 10
66.182314
 20
53.951498
 30
0.0
 40
4.0
  1
%%c１０
 50
90.000003
 41
0.882353
100
AcDbText
  0
LWPOLYLINE
  5
11F
330
1F
100
AcDbEntity
  8
001
100
AcDbPolyline
 90
        3
 70
     0
 43
0.0
 10
67.584238
 20
47.876124
 10
67.182314
 20
46.376124
 10
66.780391
 20
47.876124
  0
LINE
  5
124
330
1F
100
AcDbEntity
  8
001
100
AcDbLine
 10
67.182314
 20
56.356381
 30
0.0
 11
67.182314
 21
46.376124
 31
0.0
  0
LWPOLYLINE
  5
125
330
1F
100
AcDbEntity
  8
001
100
AcDbPolyline
 90
        3
 70
     0
 43
0.0
 10
48.44602
 20
46.376124
 10
67.182314
 20
46.376124
 10
69.932314
 20
46.376124
  0
DIMENSION
  5
12A
330
1F
100
AcDbEntity
  8
001
100
AcDbDimension
  2
*D8
 10
204.818866
 20
31.205128
 30
0.0
 11
210.318866
 21
34.205128
 31
0.0
 70
   160
  3
STANDARD
100
AcDbAlignedDimension
 13
215.818866
 23
51.366253
 33
0.0
 14
204.818866
 24
48.049628
 34
0.0
 50
180.0
100
AcDbRotatedDimension
  0
ARC
  5
12B
330
1F
100
AcDbEntity
  8
001
100
AcDbCircle
 10
169.54602
 20
56.366253
 30
0.0
 40
1.000000000000001
100
AcDbArc
 50
0.0
 51
90.0
  0
ARC
  5
12C
330
1F
100
AcDbEntity
  8
001
100
AcDbCircle
 10
169.54602
 20
46.366253
 30
0.0
 40
1.000000000000001
100
AcDbArc
 50
270.0
 51
0.0
  0
LINE
  5
12D
330
1F
100
AcDbEntity
  8
001
100
AcDbLine
 10
170.54602
 20
56.366253
 30
0.0
 11
170.54602
 21
46.366253
 31
0.0
  0
LINE
  5
12E
330
1F
100
AcDbEntity
  8
001
100
AcDbLine
 10
102.54602
 20
57.366253
 30
0.0
 11
102.54602
 21
45.366253
 31
0.0
  0
LINE
  5
12F
330
1F
100
AcDbEntity
  8
001
100
AcDbLine
 10
169.54602
 20
57.366253
 30
0.0
 11
102.54602
 21
57.366253
 31
0.0
  0
LINE
  5
130
330
1F
100
AcDbEntity
  8
001
100
AcDbLine
 10
102.54602
 20
45.366253
 30
0.0
 11
169.54602
 21
45.366253
 31
0.0
  0
LINE
  5
131
330
1F
100
AcDbEntity
  8
001
100
AcDbLine
 10
100.54602
 20
55.366253
 30
0.0
 11
100.54602
 21
47.366253
 31
0.0
  0
LINE
  5
132
330
1F
100
AcDbEntity
  8
001
100
AcDbLine
 10
100.468517
 20
55.28875
 30
0.0
 11
102.54602
 21
57.366253
 31
0.0
  0
LINE
  5
133
330
1F
100
AcDbEntity
  8
001
100
AcDbLine
 10
100.54602
 20
47.366253
 30
0.0
 11
102.54602
 21
45.366253
 31
0.0
  0
LINE
  5
134
330
1F
100
AcDbEntity
  8
001
  6
CENTER
100
AcDbLine
 10
41.012132
 20
51.366253
 30
0.0
 11
172.403135
 21
51.366253
 31
0.0
  0
LINE
  5
135
330
1F
100
AcDbEntity
  8
001
100
AcDbLine
 10
170.54602
 20
51.366253
 30
0.0
 11
173.144096
 21
52.866253
 31
0.0
  0
LINE
  5
136
330
1F
100
AcDbEntity
  8
001
100
AcDbLine
 10
170.54602
 20
51.366253
 30
0.0
 11
173.144096
 21
49.866253
 31
0.0
  0
LINE
  5
137
330
1F
100
AcDbEntity
  8
001
  6
CENTER
100
AcDbLine
 10
209.818866
 20
57.63566
 30
0.0
 11
209.818866
 21
44.906587
 31
0.0
  0
LINE
  5
138
330
1F
100
AcDbEntity
  8
001
100
AcDbLine
 10
204.818866
 20
48.049628
 30
0.0
 11
204.818866
 21
54.682877
 31
0.0
  0
ARC
  5
139
330
1F
100
AcDbEntity
  8
001
100
AcDbCircle
 10
209.818866
 20
51.366253
 30
0.0
 40
6.0
100
AcDbArc
 50
213.55731
 51
146.44269
  0
LINE
  5
13A
330
1F
100
AcDbEntity
  8
001
100
AcDbLine
 10
105.54602
 20
54.682877
 30
0.0
 11
165.54602
 21
54.682877
 31
0.0
  0
LINE
  5
13B
330
1F
100
AcDbEntity
  8
001
100
AcDbLine
 10
105.54602
 20
48.049628
 30
0.0
 11
165.54602
 21
48.049628
 31
0.0
  0
LINE
  5
13C
330
1F
100
AcDbEntity
  8
001
100
AcDbLine
 10
165.54602
 20
48.049628
 30
0.0
 11
165.54602
 21
54.682877
 31
0.0
  0
LINE
  5
13D
330
1F
100
AcDbEntity
  8
001
100
AcDbLine
 10
105.54602
 20
48.049628
 30
0.0
 11
105.54602
 21
54.682877
 31
0.0
  0
LINE
  5
13E
330
1F
100
AcDbEntity
  8
001
100
AcDbLine
 10
165.54602
 20
54.682877
 30
0.0
 11
105.54602
 21
48.049628
 31
0.0
  0
LINE
  5
13F
330
1F
100
AcDbEntity
  8
001
100
AcDbLine
 10
105.54602
 20
54.682877
 30
0.0
 11
165.54602
 21
48.049628
 31
0.0
  0
LINE
  5
140
330
1F
100
AcDbEntity
  8
001
  6
CENTER
100
AcDbLine
 10
216.350848
 20
51.366253
 30
0.0
 11
203.481746
 21
51.366253
 31
0.0
  0
ARC
  5
141
330
1F
100
AcDbEntity
  8
001
100
AcDbCircle
 10
45.874149
 20
48.991934
 30
0.0
 40
0.175
100
AcDbArc
 50
14.453061
 51
165.146939
  0
ARC
  5
142
330
1F
100
AcDbEntity
  8
001
100
AcDbCircle
 10
45.398584
 20
49.118054
 30
0.0
 40
0.3170045884846417
100
AcDbArc
 50
254.453061
 51
345.1469389999999
  0
ARC
  5
143
330
1F
100
AcDbEntity
  8
001
100
AcDbCircle
 10
45.266713
 20
48.644052
 30
0.0
 40
0.175
100
AcDbArc
 50
74.453061
 51
225.146939
  0
ARC
  5
144
330
1F
100
AcDbEntity
  8
001
100
AcDbCircle
 10
44.919707
 20
48.295261
 30
0.0
 40
0.3170045884846417
100
AcDbArc
 50
314.453061
 51
45.146939
  0
ARC
  5
145
330
1F
100
AcDbEntity
  8
001
100
AcDbCircle
 10
45.26427
 20
47.944056
 30
0.0
 40
0.175
100
AcDbArc
 50
134.453061
 51
285.1469389999999
  0
ARC
  5
146
330
1F
100
AcDbEntity
  8
001
100
AcDbCircle
 10
45.392828
 20
47.469144
 30
0.0
 40
0.3170045884846417
100
AcDbArc
 50
14.453061
 51
105.146939
  0
ARC
  5
147
330
1F
100
AcDbEntity
  8
001
100
AcDbCircle
 10
45.869262
 20
47.591942
 30
0.0
 40
0.175
100
AcDbArc
 50
194.453061
 51
345.1469389999999
  0
ARC
  5
148
330
1F
100
AcDbEntity
  8
001
100
AcDbCircle
 10
46.344827
 20
47.465821
 30
0.0
 40
0.3170045884846417
100
AcDbArc
 50
74.453061
 51
165.146939
  0
ARC
  5
149
330
1F
100
AcDbEntity
  8
001
100
AcDbCircle
 10
46.476698
 20
47.939824
 30
0.0
 40
0.175
100
AcDbArc
 50
254.453061
 51
45.146939
  0
ARC
  5
14A
330
1F
100
AcDbEntity
  8
001
100
AcDbCircle
 10
46.823704
 20
48.288615
 30
0.0
 40
0.3170045884846417
100
AcDbArc
 50
134.453061
 51
225.146939
  0
ARC
  5
14B
330
1F
100
AcDbEntity
  8
001
100
AcDbCircle
 10
46.479141
 20
48.63982
 30
0.0
 40
0.175
100
AcDbArc
 50
314.453061
 51
105.146939
  0
ARC
  5
14C
330
1F
100
AcDbEntity
  8
001
100
AcDbCircle
 10
46.350583
 20
49.114731
 30
0.0
 40
0.3170045884846417
100
AcDbArc
 50
194.453061
 51
285.1469389999999
  0
CIRCLE
  5
14D
330
1F
100
AcDbEntity
  8
001
100
AcDbCircle
 10
45.871706
 20
48.291938
 30
0.0
 40
1.3
  0
CIRCLE
  5
14E
330
1F
100
AcDbEntity
  8
001
100
AcDbCircle
 10
45.871706
 20
48.291938
 30
0.0
 40
1.7
  0
LINE
  5
14F
330
1F
100
AcDbEntity
  8
001
100
AcDbLine
 10
46.152427
 20
44.082531
 30
0.0
 11
50.081112
 21
48.011216
 31
0.0
  0
ARC
  5
150
330
1F
100
AcDbEntity
  8
001
100
AcDbCircle
 10
45.871706
 20
44.363253
 30
0.0
 40
0.3970000000000004
100
AcDbArc
 50
225.0
 51
315.0
  0
LINE
  5
151
330
1F
100
AcDbEntity
  8
001
100
AcDbLine
 10
41.662299
 20
48.011216
 30
0.0
 11
45.590984
 21
44.082531
 31
0.0
  0
ARC
  5
152
330
1F
100
AcDbEntity
  8
001
100
AcDbCircle
 10
41.94302
 20
48.291938
 30
0.0
 40
0.3970000000000022
100
AcDbArc
 50
135.0
 51
225.0
  0
ARC
  5
153
330
1F
100
AcDbEntity
  8
001
100
AcDbCircle
 10
45.871706
 20
52.220623
 30
0.0
 40
0.3969999999999975
100
AcDbArc
 50
45.0
 51
135.0
  0
LINE
  5
154
330
1F
100
AcDbEntity
  8
001
100
AcDbLine
 10
50.081112
 20
48.572659
 30
0.0
 11
46.152427
 21
52.501344
 31
0.0
  0
ARC
  5
155
330
1F
100
AcDbEntity
  8
001
100
AcDbCircle
 10
49.800391
 20
48.291938
 30
0.0
 40
0.3970000000000062
100
AcDbArc
 50
315.0
 51
45.0
  0
LINE
  5
156
330
1F
100
AcDbEntity
  8
001
100
AcDbLine
 10
45.590984
 20
52.501344
 30
0.0
 11
41.662299
 21
48.572659
 31
0.0
  0
LWPOLYLINE
  5
157
330
1F
100
AcDbEntity
  8
001
100
AcDbPolyline
 90
        5
 70
     0
 43
0.0
 10
50.582655
 20
47.577936
 10
50.715361
 20
47.506465
 10
50.916883
 20
47.419528
 10
51.053856
 20
47.380695
 10
51.150025
 20
47.366253
  0
LINE
  5
15E
330
1F
100
AcDbEntity
  8
001
100
AcDbLine
 10
51.150025
 20
47.366253
 30
0.0
 11
100.54602
 21
47.366253
 31
0.0
  0
LWPOLYLINE
  5
15F
330
1F
100
AcDbEntity
  8
001
100
AcDbPolyline
 90
        5
 70
     0
 43
0.0
 10
51.150025
 20
47.366253
 10
51.175348
 20
47.367266
 10
51.21122
 20
47.374103
 10
51.238894
 20
47.386213
 10
51.256362
 20
47.397626
  0
LINE
  5
166
330
1F
100
AcDbEntity
  8
001
100
AcDbLine
 10
52.54602
 20
47.397626
 30
0.0
 11
51.256362
 21
47.397626
 31
0.0
  0
ARC
  5
167
330
1F
100
AcDbEntity
  8
001
100
AcDbCircle
 10
52.04602
 20
51.366253
 30
0.0
 40
4.0
100
AcDbArc
 50
277.180756
 51
338.5801440000001
  0
LWPOLYLINE
  5
168
330
1F
100
AcDbEntity
  8
001
100
AcDbPolyline
 90
       61
 70
     0
 43
0.0
 10
97.54602
 20
49.905455
 10
97.672535
 20
49.910594
 10
97.798625
 20
49.920316
 10
97.924127
 20
49.938257
 10
98.048389
 20
49.964024
 10
98.170219
 20
49.996292
 10
98.290007
 20
50.035266
 10
98.406396
 20
50.080754
 10
98.520076
 20
50.132708
 10
98.630873
 20
50.190741
 10
98.738453
 20
50.254526
 10
98.842237
 20
50.323571
 10
98.942359
 20
50.397829
 10
99.043712
 20
50.481431
 10
99.140728
 20
50.570039
 10
99.233867
 20
50.663655
 10
99.32263
 20
50.761428
 10
99.407141
 20
50.863122
 10
99.48731
 20
50.968274
 10
99.576775
 20
51.09691
 10
99.660485
 20
51.229375
 10
99.739044
 20
51.365696
 10
99.812353
 20
51.504906
 10
99.880389
 20
51.646031
 10
99.943701
 20
51.789339
 10
100.01051
 20
51.955256
 10
100.071862
 20
52.123272
 10
100.12747
 20
52.290908
 10
100.178445
 20
52.460007
 10
100.223919
 20
52.625916
 10
100.265514
 20
52.792837
 10
100.296209
 20
52.927254
 10
100.324674
 20
53.06216
 10
100.350235
 20
53.193327
 10
100.373884
 20
53.324852
 10
100.394858
 20
53.451379
 10
100.414212
 20
53.578163
 10
100.431137
 20
53.698663
 10
100.446724
 20
53.819343
 10
100.461062
 20
53.940489
 10
100.474149
 20
54.061777
 10
100.485257
 20
54.17501
 10
100.495331
 20
54.28834
 10
100.503699
 20
54.392536
 10
100.511238
 20
54.496794
 10
100.517348
 20
54.590828
 10
100.522837
 20
54.684899
 10
100.527354
 20
54.771286
 10
100.531374
 20
54.857697
 10
100.534447
 20
54.932442
 10
100.537138
 20
55.007202
 10
100.539091
 20
55.069594
 10
100.540778
 20
55.131994
 10
100.541929
 20
55.181321
 10
100.542941
 20
55.230651
 10
100.543613
 20
55.267028
 10
100.544236
 20
55.303406
 10
100.544595
 20
55.325998
 10
100.544886
 20
55.348591
 10
100.544969
 20
55.357234
 10
100.545045
 20
55.365877
  0
ARC
  5
1A7
330
1F
100
AcDbEntity
  8
001
100
AcDbCircle
 10
97.54602
 20
55.444657
 30
0.0
 40
3.0
100
AcDbArc
 50
355.466599
 51
358.4743799999999
  0
ARC
  5
1A8
330
1F
100
AcDbEntity
  8
001
100
AcDbCircle
 10
97.54602
 20
55.966253
 30
0.0
 40
3.0
100
AcDbArc
 50
270.0
 51
346.948059
  0
LINE
  5
1A9
330
1F
100
AcDbEntity
  8
001
100
AcDbLine
 10
42.04602
 20
52.966253
 30
0.0
 11
44.607968
 21
52.966253
 31
0.0
  0
LINE
  5
1AA
330
1F
100
AcDbEntity
  8
001
100
AcDbLine
 10
97.54602
 20
52.966253
 30
0.0
 11
47.107968
 21
52.966253
 31
0.0
  0
LINE
  5
1AB
330
1F
100
AcDbEntity
  8
001
100
AcDbLine
 10
47.107968
 20
52.934879
 30
0.0
 11
52.54602
 21
52.934879
 31
0.0
  0
LINE
  5
1AC
330
1F
100
AcDbEntity
  8
001
100
AcDbLine
 10
42.04602
 20
52.934879
 30
0.0
 11
44.607968
 21
52.934879
 31
0.0
  0
LINE
  5
1AD
330
1F
100
AcDbEntity
  8
001
100
AcDbLine
 10
52.54602
 20
52.934879
 30
0.0
 11
52.54602
 21
47.397626
 31
0.0
  0
LINE
  5
1AE
330
1F
100
AcDbEntity
  8
001
100
AcDbLine
 10
42.04602
 20
46.866253
 30
0.0
 11
44.255932
 21
44.65634
 31
0.0
  0
LINE
  5
1AF
330
1F
100
AcDbEntity
  8
001
100
AcDbLine
 10
55.769738
 20
49.905455
 30
0.0
 11
97.54602
 21
49.905455
 31
0.0
  0
LINE
  5
1B0
330
1F
100
AcDbEntity
  8
001
100
AcDbLine
 10
44.607968
 20
51.753758
 30
0.0
 11
44.607968
 21
52.966253
 31
0.0
  0
ARC
  5
1B1
330
1F
100
AcDbEntity
  8
001
100
AcDbCircle
 10
45.857968
 20
51.753758
 30
0.0
 40
1.25
100
AcDbArc
 50
180.0
 51
188.369219
  0
ARC
  5
1B2
330
1F
100
AcDbEntity
  8
001
100
AcDbCircle
 10
45.857968
 20
51.753758
 30
0.0
 40
1.25
100
AcDbArc
 50
352.17226
 51
0.0
  0
LINE
  5
1B3
330
1F
100
AcDbEntity
  8
001
100
AcDbLine
 10
47.107968
 20
51.753758
 30
0.0
 11
47.107968
 21
52.966253
 31
0.0
  0
LINE
  5
1B4
330
1F
100
AcDbEntity
  8
001
100
AcDbLine
 10
46.44231
 20
52.754569
 30
0.0
 11
47.107968
 21
52.754569
 31
0.0
  0
LINE
  5
1B5
330
1F
100
AcDbEntity
  8
001
100
AcDbLine
 10
50.174265
 20
48.472195
 30
0.0
 11
51.256362
 21
47.397626
 31
0.0
  0
LINE
  5
1B6
330
1F
100
AcDbEntity
  8
001
100
AcDbLine
 10
50.582655
 20
47.577936
 30
0.0
 11
50.089925
 21
48.067238
 31
0.0
  0
LINE
  5
1B7
330
1F
100
AcDbEntity
  8
001
100
AcDbLine
 10
50.582655
 20
47.577936
 30
0.0
 11
49.604255
 21
47.577936
 31
0.0
  0
LINE
  5
1B8
330
1F
100
AcDbEntity
  8
001
100
AcDbLine
 10
45.060256
 20
44.65634
 30
0.0
 11
44.255932
 21
44.65634
 31
0.0
  0
LINE
  5
1B9
330
1F
100
AcDbEntity
  8
001
100
AcDbLine
 10
42.04602
 20
52.966253
 30
0.0
 11
42.04602
 21
48.978517
 31
0.0
  0
LINE
  5
1BA
330
1F
100
AcDbEntity
  8
001
100
AcDbLine
 10
42.04602
 20
46.866253
 30
0.0
 11
42.04602
 21
47.649606
 31
0.0
  0
ARC
  5
1BB
330
1F
100
AcDbEntity
  8
001
100
AcDbCircle
 10
51.871626
 20
48.987285
 30
0.0
 40
4.004786167610438
100
AcDbArc
 50
13.253991
 51
80.305361
  0
LINE
  5
1BC
330
1F
100
AcDbEntity
  8
001
100
AcDbLine
 10
44.607968
 20
52.754569
 30
0.0
 11
46.44231
 21
52.754569
 31
0.0
  0
LINE
  5
1BD
330
1F
100
AcDbEntity
  8
001
  6
PHANTOM
100
AcDbLine
 10
48.44602
 20
48.436566
 30
0.0
 11
48.44602
 21
46.376124
 31
0.0
  0
LINE
  5
1BE
330
1F
100
AcDbEntity
  8
001
100
AcDbLine
 10
41.54602
 20
48.291938
 30
0.0
 11
41.54602
 21
41.812616
 31
0.0
  0
LINE
  5
1BF
330
1F
100
AcDbEntity
  8
001
100
AcDbLine
 10
37.507679
 20
43.966253
 30
0.0
 11
45.871706
 21
43.966253
 31
0.0
  0
CIRCLE
  5
1C0
330
1F
100
AcDbEntity
  8
001
100
AcDbCircle
 10
-2.69801
 20
51.366253
 30
0.0
 40
7.4
  0
CIRCLE
  5
1C1
330
1F
100
AcDbEntity
  8
001
100
AcDbCircle
 10
-2.69801
 20
48.446253
 30
0.0
 40
4.5
  0
LINE
  5
1C2
330
1F
100
AcDbEntity
  8
001
  6
CENTER
 62
   253
100
AcDbLine
 10
-12.09801
 20
51.366253
 30
0.0
 11
6.70199
 21
51.366253
 31
0.0
  0
LINE
  5
1C3
330
1F
100
AcDbEntity
  8
001
  6
CENTER
 62
   253
100
AcDbLine
 10
-2.69801
 20
41.966253
 30
0.0
 11
-2.69801
 21
60.766253
 31
0.0
  0
LINE
  5
1C4
330
1F
100
AcDbEntity
  8
001
  6
PHANTOM
100
AcDbLine
 10
48.44602
 20
46.376124
 30
0.0
 11
47.424775
 21
46.376124
 31
0.0
  0
TEXT
  5
1C5
330
1F
100
AcDbEntity
  8
001
100
AcDbText
 10
5.295464
 20
74.013227
 30
0.0
 40
5.0
  1
ウラトリメンＣ　ＵＭＨ１２－１０Ｓ－Ｍ１２
 41
0.833333
100
AcDbText
  0
DIMENSION
  5
1D5
330
1F
100
AcDbEntity
  8
0
100
AcDbDimension
  2
*D9
 10
-19.79785948579452
 20
51.366253
 30
0.0
 11
-19.79785948579452
 21
62.53291966666667
 31
0.0
 70
    32
  3
ISO-25
100
AcDbAlignedDimension
 13
-12.09801
 23
48.446253
 33
0.0
 14
-12.09801
 24
51.366253
 34
0.0
 50
90.0
100
AcDbRotatedDimension
1001
ACAD
1000
DSTYLE
1002
{
1070
     7
1000
OPEN
1070
     6
1000
OPEN
1070
     5
1000

1070
   173
1070
     1
1070
   140
1040
3.5
1070
   271
1070
     3
1070
   141
1040
0.09
1070
    77
1070
     0
1002
}
  0
LINE
  5
1EE
330
1F
100
AcDbEntity
  8
001
  6
CENTER
 62
   253
100
AcDbLine
 10
-12.09801
 20
48.446253
 30
0.0
 11
6.70199
 21
48.446253
 31
0.0
  0
ENDSEC
  0
SECTION
  2
OBJECTS
  0
DICTIONARY
  5
C
330
0
100
AcDbDictionary
  3
ACAD_GROUP
350
D
  3
ACAD_IMAGE_VARS
350
1D3
  3
ACAD_MLINESTYLE
350
17
  3
ACAD_SCALELIST
350
1F5
  3
ACDBVARIABLEDICTIONARY
350
1C7
  3
APPDATA
350
1D2
  3
DWGPROPS
350
23C
  0
DICTIONARY
  5
D
102
{ACAD_REACTORS
330
C
102
}
330
C
100
AcDbDictionary
  0
RASTERVARIABLES
  5
1D3
102
{ACAD_REACTORS
330
C
102
}
330
C
100
AcDbRasterVariables
 90
        0
 70
     1
 71
     1
 72
     1
  0
DICTIONARY
  5
17
102
{ACAD_REACTORS
330
C
102
}
330
C
100
AcDbDictionary
  3
STANDARD
350
18
  0
DICTIONARY
  5
1F5
102
{ACAD_REACTORS
330
C
102
}
330
C
100
AcDbDictionary
  0
DICTIONARY
  5
1C7
102
{ACAD_REACTORS
330
C
102
}
330
C
100
AcDbDictionary
  0
DICTIONARY
  5
1D2
102
{ACAD_REACTORS
330
C
102
}
330
C
100
AcDbDictionary
  0
XRECORD
  5
23C
102
{ACAD_REACTORS
330
C
102
}
330
C
100
AcDbXrecord
  1
DWGPROPS COOKIE
  2

  3

  4

  6

  7

  8
kaihatu03
  9

300
=
301
=
302
=
303
=
304
=
305
=
306
=
307
=
308
=
309
=
 40
0.0
 41
2454734.048731898
 42
2457962.056231586
  1

 90
        0
  0
MLINESTYLE
  5
18
102
{ACAD_REACTORS
330
17
102
}
330
17
100
AcDbMlineStyle
  2
Standard
 70
     0
  3

 62
   256
 51
90.0
 52
90.0
 71
     2
 49
0.5
 62
   256
  6
BYLAYER
 49
-0.5
 62
   256
  6
BYLAYER
  0
ENDSEC
  0
EOF
