  0
SECTION
  2
HEADER
  9
$ACADVER
  1
AC1015
  9
$ACADMAINTVER
 70
     6
  9
$DWGCODEPAGE
  3
ANSI_932
  9
$INSBASE
 10
0.0
 20
0.0
 30
0.0
  9
$EXTMIN
 10
23.692352
 20
-10.210213
 30
0.0
  9
$EXTMAX
 10
199.993927
 20
73.821434
 30
0.0
  9
$LIMMIN
 10
0.0
 20
0.0
  9
$LIMMAX
 10
12.0
 20
9.0
  9
$ORTHOMODE
 70
     0
  9
$REGENMODE
 70
     1
  9
$FILLMODE
 70
     1
  9
$QTEXTMODE
 70
     0
  9
$MIRRTEXT
 70
     1
  9
$LTSCALE
 40
1.953038
  9
$ATTMODE
 70
     1
  9
$TEXTSIZE
 40
3.2
  9
$TRACEWID
 40
1.0
  9
$TEXTSTYLE
  7
Standard
  9
$CLAYER
  8
0
  9
$CELTYPE
  6
ByLayer
  9
$CECOLOR
 62
   256
  9
$CELTSCALE
 40
1.0
  9
$DISPSILH
 70
     0
  9
$DIMSCALE
 40
1.0
  9
$DIMASZ
 40
2.5
  9
$DIMEXO
 40
0.625
  9
$DIMDLI
 40
3.75
  9
$DIMRND
 40
0.0
  9
$DIMDLE
 40
0.0
  9
$DIMEXE
 40
1.25
  9
$DIMTP
 40
0.0
  9
$DIMTM
 40
0.0
  9
$DIMTXT
 40
2.5
  9
$DIMCEN
 40
0.09
  9
$DIMTSZ
 40
0.0
  9
$DIMTOL
 70
     0
  9
$DIMLIM
 70
     0
  9
$DIMTIH
 70
     0
  9
$DIMTOH
 70
     0
  9
$DIMSE1
 70
     0
  9
$DIMSE2
 70
     0
  9
$DIMTAD
 70
     0
  9
$DIMZIN
 70
     8
  9
$DIMBLK
  1

  9
$DIMASO
 70
     1
  9
$DIMSHO
 70
     0
  9
$DIMPOST
  1

  9
$DIMAPOST
  1

  9
$DIMALT
 70
     0
  9
$DIMALTD
 70
     3
  9
$DIMALTF
 40
0.03937
  9
$DIMLFAC
 40
1.0
  9
$DIMTOFL
 70
     1
  9
$DIMTVP
 40
0.0
  9
$DIMTIX
 70
     0
  9
$DIMSOXD
 70
     0
  9
$DIMSAH
 70
     0
  9
$DIMBLK1
  1

  9
$DIMBLK2
  1

  9
$DIMSTYLE
  2
ISO-25
  9
$DIMCLRD
 70
     0
  9
$DIMCLRE
 70
     0
  9
$DIMCLRT
 70
     0
  9
$DIMTFAC
 40
1.0
  9
$DIMGAP
 40
0.625
  9
$DIMJUST
 70
     0
  9
$DIMSD1
 70
     0
  9
$DIMSD2
 70
     0
  9
$DIMTOLJ
 70
     0
  9
$DIMTZIN
 70
     8
  9
$DIMALTZ
 70
     0
  9
$DIMALTTZ
 70
     0
  9
$DIMUPT
 70
     0
  9
$DIMDEC
 70
     2
  9
$DIMTDEC
 70
     2
  9
$DIMALTU
 70
     2
  9
$DIMALTTD
 70
     3
  9
$DIMTXSTY
  7
Standard
  9
$DIMAUNIT
 70
     0
  9
$DIMADEC
 70
     0
  9
$DIMALTRND
 40
0.0
  9
$DIMAZIN
 70
     0
  9
$DIMDSEP
 70
    44
  9
$DIMATFIT
 70
     3
  9
$DIMFRAC
 70
     0
  9
$DIMLDRBLK
  1

  9
$DIMLUNIT
 70
     2
  9
$DIMLWD
 70
    -2
  9
$DIMLWE
 70
    -2
  9
$DIMTMOVE
 70
     0
  9
$LUNITS
 70
     2
  9
$LUPREC
 70
     4
  9
$SKETCHINC
 40
1.0
  9
$FILLETRAD
 40
0.0
  9
$AUNITS
 70
     0
  9
$AUPREC
 70
     0
  9
$MENU
  1
.
  9
$ELEVATION
 40
0.0
  9
$PELEVATION
 40
0.0
  9
$THICKNESS
 40
0.0
  9
$LIMCHECK
 70
     0
  9
$CHAMFERA
 40
10.0
  9
$CHAMFERB
 40
10.0
  9
$CHAMFERC
 40
20.0
  9
$CHAMFERD
 40
0.0
  9
$SKPOLY
 70
     0
  9
$TDCREATE
 40
2456244.61901294
  9
$TDUCREATE
 40
2456244.24401294
  9
$TDUPDATE
 40
2456244.619012951
  9
$TDUUPDATE
 40
2456244.244012951
  9
$TDINDWG
 40
0.0000000116
  9
$TDUSRTIMER
 40
0.0000000116
  9
$USRTIMER
 70
     1
  9
$ANGBASE
 50
0.0
  9
$ANGDIR
 70
     0
  9
$PDMODE
 70
     0
  9
$PDSIZE
 40
0.0
  9
$PLINEWID
 40
0.0
  9
$SPLFRAME
 70
     0
  9
$SPLINETYPE
 70
     6
  9
$SPLINESEGS
 70
     8
  9
$HANDSEED
  5
4DB
  9
$SURFTAB1
 70
     6
  9
$SURFTAB2
 70
     6
  9
$SURFTYPE
 70
     6
  9
$SURFU
 70
     6
  9
$SURFV
 70
     6
  9
$UCSBASE
  2

  9
$UCSNAME
  2

  9
$UCSORG
 10
0.0
 20
0.0
 30
0.0
  9
$UCSXDIR
 10
1.0
 20
0.0
 30
0.0
  9
$UCSYDIR
 10
0.0
 20
1.0
 30
0.0
  9
$UCSORTHOREF
  2

  9
$UCSORTHOVIEW
 70
     0
  9
$UCSORGTOP
 10
0.0
 20
0.0
 30
0.0
  9
$UCSORGBOTTOM
 10
0.0
 20
0.0
 30
0.0
  9
$UCSORGLEFT
 10
0.0
 20
0.0
 30
0.0
  9
$UCSORGRIGHT
 10
0.0
 20
0.0
 30
0.0
  9
$UCSORGFRONT
 10
0.0
 20
0.0
 30
0.0
  9
$UCSORGBACK
 10
0.0
 20
0.0
 30
0.0
  9
$PUCSBASE
  2

  9
$PUCSNAME
  2

  9
$PUCSORG
 10
0.0
 20
0.0
 30
0.0
  9
$PUCSXDIR
 10
1.0
 20
0.0
 30
0.0
  9
$PUCSYDIR
 10
0.0
 20
1.0
 30
0.0
  9
$PUCSORTHOREF
  2

  9
$PUCSORTHOVIEW
 70
     0
  9
$PUCSORGTOP
 10
0.0
 20
0.0
 30
0.0
  9
$PUCSORGBOTTOM
 10
0.0
 20
0.0
 30
0.0
  9
$PUCSORGLEFT
 10
0.0
 20
0.0
 30
0.0
  9
$PUCSORGRIGHT
 10
0.0
 20
0.0
 30
0.0
  9
$PUCSORGFRONT
 10
0.0
 20
0.0
 30
0.0
  9
$PUCSORGBACK
 10
0.0
 20
0.0
 30
0.0
  9
$USERI1
 70
     0
  9
$USERI2
 70
     0
  9
$USERI3
 70
     0
  9
$USERI4
 70
     0
  9
$USERI5
 70
     0
  9
$USERR1
 40
0.0
  9
$USERR2
 40
0.0
  9
$USERR3
 40
0.0
  9
$USERR4
 40
0.0
  9
$USERR5
 40
0.0
  9
$WORLDVIEW
 70
     1
  9
$SHADEDGE
 70
     3
  9
$SHADEDIF
 70
    70
  9
$TILEMODE
 70
     1
  9
$MAXACTVP
 70
    64
  9
$PINSBASE
 10
0.0
 20
0.0
 30
0.0
  9
$PLIMCHECK
 70
     0
  9
$PEXTMIN
 10
1.000000E+20
 20
1.000000E+20
 30
0.0
  9
$PEXTMAX
 10
-1.000000E+20
 20
-1.000000E+20
 30
0.0
  9
$PLIMMIN
 10
0.0
 20
0.0
  9
$PLIMMAX
 10
12.0
 20
9.0
  9
$UNITMODE
 70
     0
  9
$VISRETAIN
 70
     1
  9
$PLINEGEN
 70
     0
  9
$PSLTSCALE
 70
     1
  9
$TREEDEPTH
 70
  3020
  9
$CMLSTYLE
  2
Standard
  9
$CMLJUST
 70
     0
  9
$CMLSCALE
 40
20.0
  9
$PROXYGRAPHICS
 70
     1
  9
$MEASUREMENT
 70
     1
  9
$CELWEIGHT
370
    -1
  9
$ENDCAPS
280
     0
  9
$JOINSTYLE
280
     0
  9
$LWDISPLAY
290
     0
  9
$INSUNITS
 70
     4
  9
$HYPERLINKBASE
  1

  9
$STYLESHEET
  1

  9
$XEDIT
290
     1
  9
$CEPSNTYPE
380
     0
  9
$PSTYLEMODE
290
     1
  9
$FINGERPRINTGUID
  2
{6CBE09B1-221F-4F46-BAEB-B4108C5B527E}
  9
$VERSIONGUID
  2
{FAEB1C32-E019-11D5-929B-00C0DF256EC4}
  9
$EXTNAMES
290
     1
  9
$PSVPSCALE
 40
0.0
  9
$OLESTARTUP
290
     0
  0
ENDSEC
  0
SECTION
  2
CLASSES
  0
CLASS
  1
ACDBDICTIONARYWDFLT
  2
AcDbDictionaryWithDefault
  3
ObjectDBX Classes
 90
        0
280
     0
281
     0
  0
CLASS
  1
VISUALSTYLE
  2
AcDbVisualStyle
  3
ObjectDBX Classes
 90
     4095
280
     0
281
     0
  0
CLASS
  1
SCALE
  2
AcDbScale
  3
ObjectDBX Classes
 90
     1153
280
     0
281
     0
  0
CLASS
  1
DICTIONARYVAR
  2
AcDbDictionaryVar
  3
ObjectDBX Classes
 90
        0
280
     0
281
     0
  0
CLASS
  1
ACDBPLACEHOLDER
  2
AcDbPlaceHolder
  3
ObjectDBX Classes
 90
        0
280
     0
281
     0
  0
CLASS
  1
LAYOUT
  2
AcDbLayout
  3
ObjectDBX Classes
 90
        0
280
     0
281
     0
  0
ENDSEC
  0
SECTION
  2
TABLES
  0
TABLE
  2
VPORT
  5
8
330
0
100
AcDbSymbolTable
 70
     1
  0
VPORT
  5
29
330
8
100
AcDbSymbolTableRecord
100
AcDbViewportTableRecord
  2
*Active
 70
     0
 10
0.0
 20
0.0
 11
1.0
 21
1.0
 12
111.84314
 22
31.805611
 13
0.0
 23
0.0
 14
1.0
 24
1.0
 15
0.0
 25
0.0
 16
0.0
 26
0.0
 36
1.0
 17
0.0
 27
0.0
 37
0.0
 40
105.283423
 41
1.691288
 42
50.0
 43
0.0
 44
0.0
 50
0.0
 51
0.0
 71
     0
 72
   100
 73
     1
 74
     3
 75
     0
 76
     0
 77
     0
 78
     0
281
     0
 65
     1
110
0.0
120
0.0
130
0.0
111
1.0
121
0.0
131
0.0
112
0.0
122
1.0
132
0.0
 79
     0
146
0.0
  0
ENDTAB
  0
TABLE
  2
LTYPE
  5
5
330
0
100
AcDbSymbolTable
 70
     5
  0
LTYPE
  5
14
330
5
100
AcDbSymbolTableRecord
100
AcDbLinetypeTableRecord
  2
ByBlock
 70
     0
  3

 72
    65
 73
     0
 40
0.0
  0
LTYPE
  5
15
330
5
100
AcDbSymbolTableRecord
100
AcDbLinetypeTableRecord
  2
ByLayer
 70
     0
  3

 72
    65
 73
     0
 40
0.0
  0
LTYPE
  5
16
330
5
100
AcDbSymbolTableRecord
100
AcDbLinetypeTableRecord
  2
Continuous
 70
     0
  3
Solid line
 72
    65
 73
     0
 40
0.0
  0
LTYPE
  5
5D
330
5
100
AcDbSymbolTableRecord
100
AcDbLinetypeTableRecord
  2
DASHED
 70
     0
  3
DASHED
 72
    83
 73
     2
 40
0.75
 49
0.5
 74
     0
 49
-0.25
 74
     0
  0
LTYPE
  5
5E
330
5
100
AcDbSymbolTableRecord
100
AcDbLinetypeTableRecord
  2
HIDDEN
 70
     0
  3
HIDDEN
 72
    83
 73
     2
 40
0.375
 49
0.25
 74
     0
 49
-0.125
 74
     0
  0
LTYPE
  5
5F
330
5
100
AcDbSymbolTableRecord
100
AcDbLinetypeTableRecord
  2
CENTER
 70
     0
  3
CENTER
 72
    83
 73
     4
 40
2.0
 49
1.25
 74
     0
 49
-0.25
 74
     0
 49
0.25
 74
     0
 49
-0.25
 74
     0
  0
LTYPE
  5
60
330
5
100
AcDbSymbolTableRecord
100
AcDbLinetypeTableRecord
  2
PHANTOM
 70
     0
  3
PHANTOM
 72
    83
 73
     6
 40
2.5
 49
1.25
 74
     0
 49
-0.25
 74
     0
 49
0.25
 74
     0
 49
-0.25
 74
     0
 49
0.25
 74
     0
 49
-0.25
 74
     0
  0
ENDTAB
  0
TABLE
  2
LAYER
  5
2
330
0
100
AcDbSymbolTable
 70
     2
  0
LAYER
  5
10
330
2
100
AcDbSymbolTableRecord
100
AcDbLayerTableRecord
  2
0
 70
     0
 62
     7
  6
Continuous
370
    -3
390
F
  0
LAYER
  5
61
330
2
100
AcDbSymbolTableRecord
100
AcDbLayerTableRecord
  2
001
 70
     0
 62
     7
  6
Continuous
370
    -3
390
F
  0
ENDTAB
  0
TABLE
  2
STYLE
  5
3
330
0
100
AcDbSymbolTable
 70
     2
  0
STYLE
  5
11
330
3
100
AcDbSymbolTableRecord
100
AcDbTextStyleTableRecord
  2
Standard
 70
     0
 40
0.0
 41
1.0
 50
0.0
 71
     0
 42
0.2
  3
TXT
  4
BIGFONT
  0
STYLE
  5
62
330
3
100
AcDbSymbolTableRecord
100
AcDbTextStyleTableRecord
  2
TATEGAKI
 70
     4
 40
1.0
 41
1.0
 50
0.0
 71
     0
 42
0.2
  3
TXT
  4
BIGFONT
  0
ENDTAB
  0
TABLE
  2
VIEW
  5
6
330
0
100
AcDbSymbolTable
 70
     0
  0
ENDTAB
  0
TABLE
  2
UCS
  5
7
330
0
100
AcDbSymbolTable
 70
     0
  0
ENDTAB
  0
TABLE
  2
APPID
  5
9
330
0
100
AcDbSymbolTable
 70
     1
  0
APPID
  5
12
330
9
100
AcDbSymbolTableRecord
100
AcDbRegAppTableRecord
  2
ACAD
 70
     0
  0
ENDTAB
  0
TABLE
  2
DIMSTYLE
  5
A
330
0
100
AcDbSymbolTable
 70
     2
100
AcDbDimStyleTable
  0
DIMSTYLE
105
27
330
A
100
AcDbSymbolTableRecord
100
AcDbDimStyleTableRecord
  2
ISO-25
 70
     0
 41
2.5
 42
0.625
 43
3.75
 44
1.25
 73
     0
 74
     0
 77
     1
 78
     8
140
2.5
141
2.5
143
0.03937
147
0.625
171
     3
172
     1
271
     2
272
     2
274
     3
278
    44
283
     0
284
     8
340
11
  0
DIMSTYLE
105
63
102
{ACAD_REACTORS
330
43A
330
43B
330
448
330
449
330
44A
330
457
102
}
330
A
100
AcDbSymbolTableRecord
100
AcDbDimStyleTableRecord
  2
Standard
 70
     0
 41
1.5
 42
0.0
 44
2.75
 73
     0
 74
     0
 77
     1
 78
     8
 79
     2
140
4.0
146
0.8
147
1.0
172
     1
179
     1
271
     1
340
11
  0
ENDTAB
  0
TABLE
  2
BLOCK_RECORD
  5
1
330
0
100
AcDbSymbolTable
 70
     9
  0
BLOCK_RECORD
  5
1F
330
1
100
AcDbSymbolTableRecord
100
AcDbBlockTableRecord
  2
*Model_Space
340
22
  0
BLOCK_RECORD
  5
1B
330
1
100
AcDbSymbolTableRecord
100
AcDbBlockTableRecord
  2
*Paper_Space
340
1E
  0
BLOCK_RECORD
  5
23
330
1
100
AcDbSymbolTableRecord
100
AcDbBlockTableRecord
  2
*Paper_Space0
340
26
  0
BLOCK_RECORD
  5
64
330
1
100
AcDbSymbolTableRecord
100
AcDbBlockTableRecord
  2
C32GUX-1
340
0
102
{BLKREFS
331
438
102
}
  0
BLOCK_RECORD
  5
1B6
330
1
100
AcDbSymbolTableRecord
100
AcDbBlockTableRecord
  2
M-1-2
340
0
102
{BLKREFS
331
439
102
}
  0
BLOCK_RECORD
  5
3BD
330
1
100
AcDbSymbolTableRecord
100
AcDbBlockTableRecord
  2
*D3
340
0
  0
BLOCK_RECORD
  5
3D1
330
1
100
AcDbSymbolTableRecord
100
AcDbBlockTableRecord
  2
*D4
340
0
  0
BLOCK_RECORD
  5
3E6
330
1
100
AcDbSymbolTableRecord
100
AcDbBlockTableRecord
  2
*D5
340
0
  0
BLOCK_RECORD
  5
3FB
330
1
100
AcDbSymbolTableRecord
100
AcDbBlockTableRecord
  2
*D6
340
0
  0
BLOCK_RECORD
  5
40F
330
1
100
AcDbSymbolTableRecord
100
AcDbBlockTableRecord
  2
*D7
340
0
  0
BLOCK_RECORD
  5
423
330
1
100
AcDbSymbolTableRecord
100
AcDbBlockTableRecord
  2
*D8
340
0
  0
ENDTAB
  0
ENDSEC
  0
SECTION
  2
BLOCKS
  0
BLOCK
  5
20
330
1F
100
AcDbEntity
  8
0
100
AcDbBlockBegin
  2
*Model_Space
 70
     0
 10
0.0
 20
0.0
 30
0.0
  3
*Model_Space
  1

  0
ENDBLK
  5
21
330
1F
100
AcDbEntity
  8
0
100
AcDbBlockEnd
  0
BLOCK
  5
1C
330
1B
100
AcDbEntity
 67
     1
  8
0
100
AcDbBlockBegin
  2
*Paper_Space
 70
     0
 10
0.0
 20
0.0
 30
0.0
  3
*Paper_Space
  1

  0
ENDBLK
  5
1D
330
1B
100
AcDbEntity
 67
     1
  8
0
100
AcDbBlockEnd
  0
BLOCK
  5
24
330
23
100
AcDbEntity
  8
0
100
AcDbBlockBegin
  2
*Paper_Space0
 70
     0
 10
0.0
 20
0.0
 30
0.0
  3
*Paper_Space0
  1

  0
ENDBLK
  5
25
330
23
100
AcDbEntity
  8
0
100
AcDbBlockEnd
  0
BLOCK
  5
65
330
64
100
AcDbEntity
  8
0
100
AcDbBlockBegin
  2
C32GUX-1
 70
     0
 10
0.0
 20
0.0
 30
0.0
  3
C32GUX-1
  1

  0
LINE
  5
67
330
64
100
AcDbEntity
  8
001
 62
    40
370
    50
100
AcDbLine
 10
61.742426
 20
37.649177
 30
0.0
 11
62.187164
 21
37.545894
 31
0.0
  0
POLYLINE
  5
68
330
64
100
AcDbEntity
  8
001
 62
    40
370
    50
100
AcDb2dPolyline
 66
     1
 10
0.0
 20
0.0
 30
0.0
  0
VERTEX
  5
6A
330
68
100
AcDbEntity
  8
001
 62
    40
370
    50
100
AcDbVertex
100
AcDb2dVertex
 10
62.407801
 20
37.022549
 30
0.0
  0
VERTEX
  5
6B
330
68
100
AcDbEntity
  8
001
 62
    40
370
    50
100
AcDbVertex
100
AcDb2dVertex
 10
62.416722
 20
37.099222
 30
0.0
  0
VERTEX
  5
6C
330
68
100
AcDbEntity
  8
001
 62
    40
370
    50
100
AcDbVertex
100
AcDb2dVertex
 10
62.419093
 20
37.175887
 30
0.0
  0
VERTEX
  5
6D
330
68
100
AcDbEntity
  8
001
 62
    40
370
    50
100
AcDbVertex
100
AcDb2dVertex
 10
62.414822
 20
37.223039
 30
0.0
  0
VERTEX
  5
6E
330
68
100
AcDbEntity
  8
001
 62
    40
370
    50
100
AcDbVertex
100
AcDb2dVertex
 10
62.40628
 20
37.269744
 30
0.0
  0
VERTEX
  5
6F
330
68
100
AcDbEntity
  8
001
 62
    40
370
    50
100
AcDbVertex
100
AcDb2dVertex
 10
62.394123
 20
37.31507
 30
0.0
  0
VERTEX
  5
70
330
68
100
AcDbEntity
  8
001
 62
    40
370
    50
100
AcDbVertex
100
AcDb2dVertex
 10
62.378008
 20
37.359084
 30
0.0
  0
VERTEX
  5
71
330
68
100
AcDbEntity
  8
001
 62
    40
370
    50
100
AcDbVertex
100
AcDb2dVertex
 10
62.349803
 20
37.414582
 30
0.0
  0
VERTEX
  5
72
330
68
100
AcDbEntity
  8
001
 62
    40
370
    50
100
AcDbVertex
100
AcDb2dVertex
 10
62.313226
 20
37.465214
 30
0.0
  0
VERTEX
  5
73
330
68
100
AcDbEntity
  8
001
 62
    40
370
    50
100
AcDbVertex
100
AcDb2dVertex
 10
62.281029
 20
37.497569
 30
0.0
  0
VERTEX
  5
74
330
68
100
AcDbEntity
  8
001
 62
    40
370
    50
100
AcDbVertex
100
AcDb2dVertex
 10
62.243895
 20
37.523303
 30
0.0
  0
VERTEX
  5
75
330
68
100
AcDbEntity
  8
001
 62
    40
370
    50
100
AcDbVertex
100
AcDb2dVertex
 10
62.22029
 20
37.534296
 30
0.0
  0
VERTEX
  5
76
330
68
100
AcDbEntity
  8
001
 62
    40
370
    50
100
AcDbVertex
100
AcDb2dVertex
 10
62.19583
 20
37.54367
 30
0.0
  0
SEQEND
  5
69
330
68
100
AcDbEntity
  8
001
370
    50
  0
POLYLINE
  5
77
330
64
100
AcDbEntity
  8
001
 62
    40
370
    50
100
AcDb2dPolyline
 66
     1
 10
0.0
 20
0.0
 30
0.0
  0
VERTEX
  5
79
330
77
100
AcDbEntity
  8
001
 62
    40
370
    50
100
AcDbVertex
100
AcDb2dVertex
 10
62.407801
 20
37.022549
 30
0.0
  0
VERTEX
  5
7A
330
77
100
AcDbEntity
  8
001
 62
    40
370
    50
100
AcDbVertex
100
AcDb2dVertex
 10
62.357266
 20
37.084492
 30
0.0
  0
VERTEX
  5
7B
330
77
100
AcDbEntity
  8
001
 62
    40
370
    50
100
AcDbVertex
100
AcDb2dVertex
 10
62.280656
 20
37.172586
 30
0.0
  0
VERTEX
  5
7C
330
77
100
AcDbEntity
  8
001
 62
    40
370
    50
100
AcDbVertex
100
AcDb2dVertex
 10
61.972358
 20
37.467406
 30
0.0
  0
VERTEX
  5
7D
330
77
100
AcDbEntity
  8
001
 62
    40
370
    50
100
AcDbVertex
100
AcDb2dVertex
 10
61.742426
 20
37.649177
 30
0.0
  0
SEQEND
  5
78
330
77
100
AcDbEntity
  8
001
370
    50
  0
POLYLINE
  5
7E
330
64
100
AcDbEntity
  8
001
 62
    40
370
    50
100
AcDb2dPolyline
 66
     1
 10
0.0
 20
0.0
 30
0.0
  0
VERTEX
  5
80
330
7E
100
AcDbEntity
  8
001
 62
    40
370
    50
100
AcDbVertex
100
AcDb2dVertex
 10
60.424109
 20
34.620622
 30
0.0
  0
VERTEX
  5
81
330
7E
100
AcDbEntity
  8
001
 62
    40
370
    50
100
AcDbVertex
100
AcDb2dVertex
 10
60.651568
 20
34.654023
 30
0.0
  0
VERTEX
  5
82
330
7E
100
AcDbEntity
  8
001
 62
    40
370
    50
100
AcDbVertex
100
AcDb2dVertex
 10
60.981156
 20
34.717481
 30
0.0
  0
VERTEX
  5
83
330
7E
100
AcDbEntity
  8
001
 62
    40
370
    50
100
AcDbVertex
100
AcDb2dVertex
 10
61.277046
 20
34.79424
 30
0.0
  0
VERTEX
  5
84
330
7E
100
AcDbEntity
  8
001
 62
    40
370
    50
100
AcDbVertex
100
AcDb2dVertex
 10
61.476951
 20
34.856376
 30
0.0
  0
SEQEND
  5
7F
330
7E
100
AcDbEntity
  8
001
370
    50
  0
LINE
  5
85
330
64
100
AcDbEntity
  8
001
 62
    40
370
    50
100
AcDbLine
 10
58.18291
 20
35.16817
 30
0.0
 11
60.424109
 21
34.620622
 31
0.0
  0
POLYLINE
  5
86
330
64
100
AcDbEntity
  8
001
 62
    40
370
    50
100
AcDb2dPolyline
 66
     1
 10
0.0
 20
0.0
 30
0.0
  0
VERTEX
  5
88
330
86
100
AcDbEntity
  8
001
 62
    40
370
    50
100
AcDbVertex
100
AcDb2dVertex
 10
58.18291
 20
35.16817
 30
0.0
  0
VERTEX
  5
89
330
86
100
AcDbEntity
  8
001
 62
    40
370
    50
100
AcDbVertex
100
AcDb2dVertex
 10
58.082575
 20
35.279507
 30
0.0
  0
VERTEX
  5
8A
330
86
100
AcDbEntity
  8
001
 62
    40
370
    50
100
AcDbVertex
100
AcDb2dVertex
 10
57.98022
 20
35.388947
 30
0.0
  0
VERTEX
  5
8B
330
86
100
AcDbEntity
  8
001
 62
    40
370
    50
100
AcDbVertex
100
AcDb2dVertex
 10
57.867954
 20
35.500769
 30
0.0
  0
VERTEX
  5
8C
330
86
100
AcDbEntity
  8
001
 62
    40
370
    50
100
AcDbVertex
100
AcDb2dVertex
 10
57.75108
 20
35.607799
 30
0.0
  0
VERTEX
  5
8D
330
86
100
AcDbEntity
  8
001
 62
    40
370
    50
100
AcDbVertex
100
AcDb2dVertex
 10
57.629026
 20
35.709886
 30
0.0
  0
VERTEX
  5
8E
330
86
100
AcDbEntity
  8
001
 62
    40
370
    50
100
AcDbVertex
100
AcDb2dVertex
 10
57.50227
 20
35.806059
 30
0.0
  0
VERTEX
  5
8F
330
86
100
AcDbEntity
  8
001
 62
    40
370
    50
100
AcDbVertex
100
AcDb2dVertex
 10
57.366888
 20
35.898369
 30
0.0
  0
VERTEX
  5
90
330
86
100
AcDbEntity
  8
001
 62
    40
370
    50
100
AcDbVertex
100
AcDb2dVertex
 10
57.22676
 20
35.983329
 30
0.0
  0
VERTEX
  5
91
330
86
100
AcDbEntity
  8
001
 62
    40
370
    50
100
AcDbVertex
100
AcDb2dVertex
 10
57.080273
 20
36.061259
 30
0.0
  0
VERTEX
  5
92
330
86
100
AcDbEntity
  8
001
 62
    40
370
    50
100
AcDbVertex
100
AcDb2dVertex
 10
56.929385
 20
36.130211
 30
0.0
  0
VERTEX
  5
93
330
86
100
AcDbEntity
  8
001
 62
    40
370
    50
100
AcDbVertex
100
AcDb2dVertex
 10
56.790443
 20
36.183856
 30
0.0
  0
VERTEX
  5
94
330
86
100
AcDbEntity
  8
001
 62
    40
370
    50
100
AcDbVertex
100
AcDb2dVertex
 10
56.648715
 20
36.229672
 30
0.0
  0
VERTEX
  5
95
330
86
100
AcDbEntity
  8
001
 62
    40
370
    50
100
AcDbVertex
100
AcDb2dVertex
 10
56.503233
 20
36.268123
 30
0.0
  0
VERTEX
  5
96
330
86
100
AcDbEntity
  8
001
 62
    40
370
    50
100
AcDbVertex
100
AcDb2dVertex
 10
56.355892
 20
36.298687
 30
0.0
  0
VERTEX
  5
97
330
86
100
AcDbEntity
  8
001
 62
    40
370
    50
100
AcDbVertex
100
AcDb2dVertex
 10
56.20706
 20
36.321316
 30
0.0
  0
VERTEX
  5
98
330
86
100
AcDbEntity
  8
001
 62
    40
370
    50
100
AcDbVertex
100
AcDb2dVertex
 10
56.057234
 20
36.335863
 30
0.0
  0
VERTEX
  5
99
330
86
100
AcDbEntity
  8
001
 62
    40
370
    50
100
AcDbVertex
100
AcDb2dVertex
 10
55.916826
 20
36.342123
 30
0.0
  0
VERTEX
  5
9A
330
86
100
AcDbEntity
  8
001
 62
    40
370
    50
100
AcDbVertex
100
AcDb2dVertex
 10
55.776272
 20
36.341718
 30
0.0
  0
VERTEX
  5
9B
330
86
100
AcDbEntity
  8
001
 62
    40
370
    50
100
AcDbVertex
100
AcDb2dVertex
 10
55.635756
 20
36.335123
 30
0.0
  0
VERTEX
  5
9C
330
86
100
AcDbEntity
  8
001
 62
    40
370
    50
100
AcDbVertex
100
AcDb2dVertex
 10
55.495635
 20
36.322711
 30
0.0
  0
VERTEX
  5
9D
330
86
100
AcDbEntity
  8
001
 62
    40
370
    50
100
AcDbVertex
100
AcDb2dVertex
 10
55.357436
 20
36.305011
 30
0.0
  0
VERTEX
  5
9E
330
86
100
AcDbEntity
  8
001
 62
    40
370
    50
100
AcDbVertex
100
AcDb2dVertex
 10
55.21999
 20
36.282215
 30
0.0
  0
VERTEX
  5
9F
330
86
100
AcDbEntity
  8
001
 62
    40
370
    50
100
AcDbVertex
100
AcDb2dVertex
 10
55.086846
 20
36.255419
 30
0.0
  0
VERTEX
  5
A0
330
86
100
AcDbEntity
  8
001
 62
    40
370
    50
100
AcDbVertex
100
AcDb2dVertex
 10
54.954539
 20
36.224725
 30
0.0
  0
VERTEX
  5
A1
330
86
100
AcDbEntity
  8
001
 62
    40
370
    50
100
AcDbVertex
100
AcDb2dVertex
 10
54.825485
 20
36.191423
 30
0.0
  0
VERTEX
  5
A2
330
86
100
AcDbEntity
  8
001
 62
    40
370
    50
100
AcDbVertex
100
AcDb2dVertex
 10
54.697182
 20
36.155361
 30
0.0
  0
VERTEX
  5
A3
330
86
100
AcDbEntity
  8
001
 62
    40
370
    50
100
AcDbVertex
100
AcDb2dVertex
 10
54.573624
 20
36.118279
 30
0.0
  0
VERTEX
  5
A4
330
86
100
AcDbEntity
  8
001
 62
    40
370
    50
100
AcDbVertex
100
AcDb2dVertex
 10
54.450406
 20
36.080059
 30
0.0
  0
SEQEND
  5
87
330
86
100
AcDbEntity
  8
001
370
    50
  0
LINE
  5
A5
330
64
100
AcDbEntity
  8
001
 62
    40
370
    50
100
AcDbLine
 10
52.722378
 20
36.502234
 30
0.0
 11
54.450406
 21
36.080059
 31
0.0
  0
POLYLINE
  5
A6
330
64
100
AcDbEntity
  8
001
 62
    40
370
    50
100
AcDb2dPolyline
 66
     1
 10
0.0
 20
0.0
 30
0.0
  0
VERTEX
  5
A8
330
A6
100
AcDbEntity
  8
001
 62
    40
370
    50
100
AcDbVertex
100
AcDb2dVertex
 10
52.134576
 20
37.138814
 30
0.0
  0
VERTEX
  5
A9
330
A6
100
AcDbEntity
  8
001
 62
    40
370
    50
100
AcDbVertex
100
AcDb2dVertex
 10
52.181562
 20
37.071498
 30
0.0
  0
VERTEX
  5
AA
330
A6
100
AcDbEntity
  8
001
 62
    40
370
    50
100
AcDbVertex
100
AcDb2dVertex
 10
52.253592
 20
36.975683
 30
0.0
  0
VERTEX
  5
AB
330
A6
100
AcDbEntity
  8
001
 62
    40
370
    50
100
AcDbVertex
100
AcDb2dVertex
 10
52.520425
 20
36.683989
 30
0.0
  0
VERTEX
  5
AC
330
A6
100
AcDbEntity
  8
001
 62
    40
370
    50
100
AcDbVertex
100
AcDb2dVertex
 10
52.722378
 20
36.502234
 30
0.0
  0
SEQEND
  5
A7
330
A6
100
AcDbEntity
  8
001
370
    50
  0
POLYLINE
  5
AD
330
64
100
AcDbEntity
  8
001
 62
    40
370
    50
100
AcDb2dPolyline
 66
     1
 10
0.0
 20
0.0
 30
0.0
  0
VERTEX
  5
AF
330
AD
100
AcDbEntity
  8
001
 62
    40
370
    50
100
AcDbVertex
100
AcDb2dVertex
 10
52.134576
 20
37.138814
 30
0.0
  0
VERTEX
  5
B0
330
AD
100
AcDbEntity
  8
001
 62
    40
370
    50
100
AcDbVertex
100
AcDb2dVertex
 10
52.267345
 20
37.408419
 30
0.0
  0
VERTEX
  5
B1
330
AD
100
AcDbEntity
  8
001
 62
    40
370
    50
100
AcDbVertex
100
AcDb2dVertex
 10
52.441607
 20
37.774314
 30
0.0
  0
VERTEX
  5
B2
330
AD
100
AcDbEntity
  8
001
 62
    40
370
    50
100
AcDbVertex
100
AcDb2dVertex
 10
52.524577
 20
37.955529
 30
0.0
  0
VERTEX
  5
B3
330
AD
100
AcDbEntity
  8
001
 62
    40
370
    50
100
AcDbVertex
100
AcDb2dVertex
 10
52.601058
 20
38.128056
 30
0.0
  0
VERTEX
  5
B4
330
AD
100
AcDbEntity
  8
001
 62
    40
370
    50
100
AcDbVertex
100
AcDb2dVertex
 10
52.678561
 20
38.306769
 30
0.0
  0
VERTEX
  5
B5
330
AD
100
AcDbEntity
  8
001
 62
    40
370
    50
100
AcDbVertex
100
AcDb2dVertex
 10
52.754377
 20
38.484499
 30
0.0
  0
VERTEX
  5
B6
330
AD
100
AcDbEntity
  8
001
 62
    40
370
    50
100
AcDbVertex
100
AcDb2dVertex
 10
52.885241
 20
38.801178
 30
0.0
  0
VERTEX
  5
B7
330
AD
100
AcDbEntity
  8
001
 62
    40
370
    50
100
AcDbVertex
100
AcDb2dVertex
 10
53.024316
 20
39.162411
 30
0.0
  0
VERTEX
  5
B8
330
AD
100
AcDbEntity
  8
001
 62
    40
370
    50
100
AcDbVertex
100
AcDb2dVertex
 10
53.053196
 20
39.240489
 30
0.0
  0
VERTEX
  5
B9
330
AD
100
AcDbEntity
  8
001
 62
    40
370
    50
100
AcDbVertex
100
AcDb2dVertex
 10
53.07317
 20
39.295036
 30
0.0
  0
SEQEND
  5
AE
330
AD
100
AcDbEntity
  8
001
370
    50
  0
POLYLINE
  5
BA
330
64
100
AcDbEntity
  8
001
 62
    40
370
    50
100
AcDb2dPolyline
 66
     1
 10
0.0
 20
0.0
 30
0.0
  0
VERTEX
  5
BC
330
BA
100
AcDbEntity
  8
001
 62
    40
370
    50
100
AcDbVertex
100
AcDb2dVertex
 10
54.040695
 20
39.53079
 30
0.0
  0
VERTEX
  5
BD
330
BA
100
AcDbEntity
  8
001
 62
    40
370
    50
100
AcDbVertex
100
AcDb2dVertex
 10
53.831939
 20
39.497276
 30
0.0
  0
VERTEX
  5
BE
330
BA
100
AcDbEntity
  8
001
 62
    40
370
    50
100
AcDbVertex
100
AcDb2dVertex
 10
53.529878
 20
39.43393
 30
0.0
  0
VERTEX
  5
BF
330
BA
100
AcDbEntity
  8
001
 62
    40
370
    50
100
AcDbVertex
100
AcDb2dVertex
 10
53.2571
 20
39.35706
 30
0.0
  0
VERTEX
  5
C0
330
BA
100
AcDbEntity
  8
001
 62
    40
370
    50
100
AcDbVertex
100
AcDb2dVertex
 10
53.07317
 20
39.295036
 30
0.0
  0
SEQEND
  5
BB
330
BA
100
AcDbEntity
  8
001
370
    50
  0
LINE
  5
C1
330
64
100
AcDbEntity
  8
001
 62
    40
370
    50
100
AcDbLine
 10
61.742426
 20
37.649177
 30
0.0
 11
54.040695
 21
39.53079
 31
0.0
  0
POLYLINE
  5
C2
330
64
100
AcDbEntity
  8
001
 62
    40
370
    50
100
AcDb2dPolyline
 66
     1
 10
0.0
 20
0.0
 30
0.0
  0
VERTEX
  5
C4
330
C2
100
AcDbEntity
  8
001
 62
    40
370
    50
100
AcDbVertex
100
AcDb2dVertex
 10
62.352466
 20
36.842097
 30
0.0
  0
VERTEX
  5
C5
330
C2
100
AcDbEntity
  8
001
 62
    40
370
    50
100
AcDbVertex
100
AcDb2dVertex
 10
62.368392
 20
36.887125
 30
0.0
  0
VERTEX
  5
C6
330
C2
100
AcDbEntity
  8
001
 62
    40
370
    50
100
AcDbVertex
100
AcDb2dVertex
 10
62.38324
 20
36.932495
 30
0.0
  0
VERTEX
  5
C7
330
C2
100
AcDbEntity
  8
001
 62
    40
370
    50
100
AcDbVertex
100
AcDb2dVertex
 10
62.386757
 20
36.944219
 30
0.0
  0
VERTEX
  5
C8
330
C2
100
AcDbEntity
  8
001
 62
    40
370
    50
100
AcDbVertex
100
AcDb2dVertex
 10
62.390203
 20
36.955966
 30
0.0
  0
SEQEND
  5
C3
330
C2
100
AcDbEntity
  8
001
370
    50
  0
POLYLINE
  5
C9
330
64
100
AcDbEntity
  8
001
 62
    40
370
    50
100
AcDb2dPolyline
 66
     1
 10
0.0
 20
0.0
 30
0.0
  0
VERTEX
  5
CB
330
C9
100
AcDbEntity
  8
001
 62
    40
370
    50
100
AcDbVertex
100
AcDb2dVertex
 10
61.476951
 20
34.856376
 30
0.0
  0
VERTEX
  5
CC
330
C9
100
AcDbEntity
  8
001
 62
    40
370
    50
100
AcDbVertex
100
AcDb2dVertex
 10
61.609345
 20
35.124973
 30
0.0
  0
VERTEX
  5
CD
330
C9
100
AcDbEntity
  8
001
 62
    40
370
    50
100
AcDbVertex
100
AcDb2dVertex
 10
61.783982
 20
35.491875
 30
0.0
  0
VERTEX
  5
CE
330
C9
100
AcDbEntity
  8
001
 62
    40
370
    50
100
AcDbVertex
100
AcDb2dVertex
 10
61.867797
 20
35.67536
 30
0.0
  0
VERTEX
  5
CF
330
C9
100
AcDbEntity
  8
001
 62
    40
370
    50
100
AcDbVertex
100
AcDb2dVertex
 10
61.943433
 20
35.845618
 30
0.0
  0
VERTEX
  5
D0
330
C9
100
AcDbEntity
  8
001
 62
    40
370
    50
100
AcDbVertex
100
AcDb2dVertex
 10
62.017949
 20
36.016304
 30
0.0
  0
VERTEX
  5
D1
330
C9
100
AcDbEntity
  8
001
 62
    40
370
    50
100
AcDbVertex
100
AcDb2dVertex
 10
62.096752
 20
36.20206
 30
0.0
  0
VERTEX
  5
D2
330
C9
100
AcDbEntity
  8
001
 62
    40
370
    50
100
AcDbVertex
100
AcDb2dVertex
 10
62.246094
 20
36.569811
 30
0.0
  0
VERTEX
  5
D3
330
C9
100
AcDbEntity
  8
001
 62
    40
370
    50
100
AcDbVertex
100
AcDb2dVertex
 10
62.352466
 20
36.842097
 30
0.0
  0
SEQEND
  5
CA
330
C9
100
AcDbEntity
  8
001
370
    50
  0
LINE
  5
D4
330
64
100
AcDbEntity
  8
001
 62
    40
370
    50
100
AcDbLine
 10
53.641893
 20
39.633565
 30
0.0
 11
54.040695
 21
39.53079
 31
0.0
  0
LINE
  5
D5
330
64
100
AcDbEntity
  8
001
 62
    40
370
    50
100
AcDbLine
 10
60.032718
 20
38.151856
 30
0.0
 11
59.359648
 21
38.316294
 31
0.0
  0
LINE
  5
D6
330
64
100
AcDbEntity
  8
001
 62
    40
370
    50
100
AcDbLine
 10
62.390203
 20
36.955966
 30
0.0
 11
62.407801
 21
37.022549
 31
0.0
  0
LINE
  5
D7
330
64
100
AcDbEntity
  8
001
 62
    40
370
    50
100
AcDbLine
 10
62.19583
 20
37.54367
 30
0.0
 11
62.187164
 21
37.545894
 31
0.0
  0
POLYLINE
  5
D8
330
64
100
AcDbEntity
  8
001
 62
    40
370
    50
100
AcDb2dPolyline
 66
     1
 10
0.0
 20
0.0
 30
0.0
  0
VERTEX
  5
DA
330
D8
100
AcDbEntity
  8
001
 62
    40
370
    50
100
AcDbVertex
100
AcDb2dVertex
 10
61.72259
 20
34.719604
 30
0.0
  0
VERTEX
  5
DB
330
D8
100
AcDbEntity
  8
001
 62
    40
370
    50
100
AcDbVertex
100
AcDb2dVertex
 10
61.748242
 20
34.781052
 30
0.0
  0
VERTEX
  5
DC
330
D8
100
AcDbEntity
  8
001
 62
    40
370
    50
100
AcDbVertex
100
AcDb2dVertex
 10
61.783045
 20
34.871893
 30
0.0
  0
VERTEX
  5
DD
330
D8
100
AcDbEntity
  8
001
 62
    40
370
    50
100
AcDbVertex
100
AcDb2dVertex
 10
61.814079
 20
34.964114
 30
0.0
  0
VERTEX
  5
DE
330
D8
100
AcDbEntity
  8
001
 62
    40
370
    50
100
AcDbVertex
100
AcDb2dVertex
 10
61.833445
 20
35.027841
 30
0.0
  0
SEQEND
  5
D9
330
D8
100
AcDbEntity
  8
001
370
    50
  0
POLYLINE
  5
DF
330
64
100
AcDbEntity
  8
001
 62
    40
370
    50
100
AcDb2dPolyline
 66
     1
 10
0.0
 20
0.0
 30
0.0
  0
VERTEX
  5
E1
330
DF
100
AcDbEntity
  8
001
 62
    40
370
    50
100
AcDbVertex
100
AcDb2dVertex
 10
62.195893
 20
37.543652
 30
0.0
  0
VERTEX
  5
E2
330
DF
100
AcDbEntity
  8
001
 62
    40
370
    50
100
AcDbVertex
100
AcDb2dVertex
 10
61.679885
 20
37.689112
 30
0.0
  0
VERTEX
  5
E3
330
DF
100
AcDbEntity
  8
001
 62
    40
370
    50
100
AcDbVertex
100
AcDb2dVertex
 10
61.163878
 20
37.834573
 30
0.0
  0
VERTEX
  5
E4
330
DF
100
AcDbEntity
  8
001
 62
    40
370
    50
100
AcDbVertex
100
AcDb2dVertex
 10
60.640317
 20
37.982162
 30
0.0
  0
VERTEX
  5
E5
330
DF
100
AcDbEntity
  8
001
 62
    40
370
    50
100
AcDbVertex
100
AcDb2dVertex
 10
60.116756
 20
38.129752
 30
0.0
  0
SEQEND
  5
E0
330
DF
100
AcDbEntity
  8
001
370
    50
  0
POLYLINE
  5
E6
330
64
100
AcDbEntity
  8
001
 62
    40
370
    50
100
AcDb2dPolyline
 66
     1
 10
0.0
 20
0.0
 30
0.0
  0
VERTEX
  5
E8
330
E6
100
AcDbEntity
  8
001
 62
    40
370
    50
100
AcDbVertex
100
AcDb2dVertex
 10
61.832633
 20
35.025024
 30
0.0
  0
VERTEX
  5
E9
330
E6
100
AcDbEntity
  8
001
 62
    40
370
    50
100
AcDbVertex
100
AcDb2dVertex
 10
61.984344
 20
35.550419
 30
0.0
  0
VERTEX
  5
EA
330
E6
100
AcDbEntity
  8
001
 62
    40
370
    50
100
AcDbVertex
100
AcDb2dVertex
 10
62.136055
 20
36.075815
 30
0.0
  0
VERTEX
  5
EB
330
E6
100
AcDbEntity
  8
001
 62
    40
370
    50
100
AcDbVertex
100
AcDb2dVertex
 10
62.263094
 20
36.515769
 30
0.0
  0
VERTEX
  5
EC
330
E6
100
AcDbEntity
  8
001
 62
    40
370
    50
100
AcDbVertex
100
AcDb2dVertex
 10
62.390134
 20
36.955724
 30
0.0
  0
SEQEND
  5
E7
330
E6
100
AcDbEntity
  8
001
370
    50
  0
POLYLINE
  5
ED
330
64
100
AcDbEntity
  8
001
 62
    40
370
    50
100
AcDb2dPolyline
 66
     1
 10
0.0
 20
0.0
 30
0.0
  0
VERTEX
  5
EF
330
ED
100
AcDbEntity
  8
001
 62
    40
370
    50
100
AcDbVertex
100
AcDb2dVertex
 10
60.119026
 20
38.129111
 30
0.0
  0
VERTEX
  5
F0
330
ED
100
AcDbEntity
  8
001
 62
    40
370
    50
100
AcDbVertex
100
AcDb2dVertex
 10
60.101559
 20
38.133975
 30
0.0
  0
VERTEX
  5
F1
330
ED
100
AcDbEntity
  8
001
 62
    40
370
    50
100
AcDbVertex
100
AcDb2dVertex
 10
60.075973
 20
38.140873
 30
0.0
  0
VERTEX
  5
F2
330
ED
100
AcDbEntity
  8
001
 62
    40
370
    50
100
AcDbVertex
100
AcDb2dVertex
 10
60.050312
 20
38.147479
 30
0.0
  0
VERTEX
  5
F3
330
ED
100
AcDbEntity
  8
001
 62
    40
370
    50
100
AcDbVertex
100
AcDb2dVertex
 10
60.032718
 20
38.151856
 30
0.0
  0
SEQEND
  5
EE
330
ED
100
AcDbEntity
  8
001
370
    50
  0
LINE
  5
F4
330
64
100
AcDbEntity
  8
001
 62
    40
370
    50
100
AcDbLine
 10
61.476951
 20
34.856376
 30
0.0
 11
61.140837
 21
34.084225
 31
0.0
  0
POLYLINE
  5
F5
330
64
100
AcDbEntity
  8
001
 62
    40
370
    50
100
AcDb2dPolyline
 66
     1
 10
0.0
 20
0.0
 30
0.0
  0
VERTEX
  5
F7
330
F5
100
AcDbEntity
  8
001
 62
    40
370
    50
100
AcDbVertex
100
AcDb2dVertex
 10
59.863953
 20
31.198596
 30
0.0
  0
VERTEX
  5
F8
330
F5
100
AcDbEntity
  8
001
 62
    40
370
    50
100
AcDbVertex
100
AcDb2dVertex
 10
59.815588
 20
31.25755
 30
0.0
  0
VERTEX
  5
F9
330
F5
100
AcDbEntity
  8
001
 62
    40
370
    50
100
AcDbVertex
100
AcDb2dVertex
 10
59.74241
 20
31.341502
 30
0.0
  0
VERTEX
  5
FA
330
F5
100
AcDbEntity
  8
001
 62
    40
370
    50
100
AcDbVertex
100
AcDb2dVertex
 10
59.434094
 20
31.63631
 30
0.0
  0
VERTEX
  5
FB
330
F5
100
AcDbEntity
  8
001
 62
    40
370
    50
100
AcDbVertex
100
AcDb2dVertex
 10
59.20418
 20
31.818092
 30
0.0
  0
SEQEND
  5
F6
330
F5
100
AcDbEntity
  8
001
370
    50
  0
LINE
  5
FC
330
64
100
AcDbEntity
  8
001
 62
    40
370
    50
100
AcDbLine
 10
60.424109
 20
34.620622
 30
0.0
 11
59.20418
 21
31.818092
 31
0.0
  0
LINE
  5
FD
330
64
100
AcDbEntity
  8
001
 62
    40
370
    50
100
AcDbLine
 10
59.20418
 20
31.818092
 30
0.0
 11
57.476152
 21
32.240268
 31
0.0
  0
POLYLINE
  5
FE
330
64
100
AcDbEntity
  8
001
 62
    40
370
    50
100
AcDb2dPolyline
 66
     1
 10
0.0
 20
0.0
 30
0.0
  0
VERTEX
  5
100
330
FE
100
AcDbEntity
  8
001
 62
    40
370
    50
100
AcDbVertex
100
AcDb2dVertex
 10
57.476152
 20
32.240268
 30
0.0
  0
VERTEX
  5
101
330
FE
100
AcDbEntity
  8
001
 62
    40
370
    50
100
AcDbVertex
100
AcDb2dVertex
 10
57.750107
 20
32.514699
 30
0.0
  0
VERTEX
  5
102
330
FE
100
AcDbEntity
  8
001
 62
    40
370
    50
100
AcDbVertex
100
AcDb2dVertex
 10
58.07231
 20
32.935163
 30
0.0
  0
VERTEX
  5
103
330
FE
100
AcDbEntity
  8
001
 62
    40
370
    50
100
AcDbVertex
100
AcDb2dVertex
 10
58.264876
 20
33.331462
 30
0.0
  0
VERTEX
  5
104
330
FE
100
AcDbEntity
  8
001
 62
    40
370
    50
100
AcDbVertex
100
AcDb2dVertex
 10
58.361581
 20
33.734725
 30
0.0
  0
VERTEX
  5
105
330
FE
100
AcDbEntity
  8
001
 62
    40
370
    50
100
AcDbVertex
100
AcDb2dVertex
 10
58.387193
 20
33.947758
 30
0.0
  0
VERTEX
  5
106
330
FE
100
AcDbEntity
  8
001
 62
    40
370
    50
100
AcDbVertex
100
AcDb2dVertex
 10
58.398578
 20
34.160163
 30
0.0
  0
VERTEX
  5
107
330
FE
100
AcDbEntity
  8
001
 62
    40
370
    50
100
AcDbVertex
100
AcDb2dVertex
 10
58.392788
 20
34.366913
 30
0.0
  0
VERTEX
  5
108
330
FE
100
AcDbEntity
  8
001
 62
    40
370
    50
100
AcDbVertex
100
AcDb2dVertex
 10
58.361581
 20
34.585601
 30
0.0
  0
VERTEX
  5
109
330
FE
100
AcDbEntity
  8
001
 62
    40
370
    50
100
AcDbVertex
100
AcDb2dVertex
 10
58.271034
 20
34.925043
 30
0.0
  0
VERTEX
  5
10A
330
FE
100
AcDbEntity
  8
001
 62
    40
370
    50
100
AcDbVertex
100
AcDb2dVertex
 10
58.18291
 20
35.16817
 30
0.0
  0
SEQEND
  5
FF
330
FE
100
AcDbEntity
  8
001
370
    50
  0
POLYLINE
  5
10B
330
64
100
AcDbEntity
  8
001
 62
    40
370
    50
100
AcDb2dPolyline
 66
     1
 10
0.0
 20
0.0
 30
0.0
  0
VERTEX
  5
10D
330
10B
100
AcDbEntity
  8
001
 62
    40
370
    50
100
AcDbVertex
100
AcDb2dVertex
 10
53.743647
 20
33.152157
 30
0.0
  0
VERTEX
  5
10E
330
10B
100
AcDbEntity
  8
001
 62
    40
370
    50
100
AcDbVertex
100
AcDb2dVertex
 10
53.861952
 20
33.041103
 30
0.0
  0
VERTEX
  5
10F
330
10B
100
AcDbEntity
  8
001
 62
    40
370
    50
100
AcDbVertex
100
AcDb2dVertex
 10
53.981485
 20
32.93138
 30
0.0
  0
VERTEX
  5
110
330
10B
100
AcDbEntity
  8
001
 62
    40
370
    50
100
AcDbVertex
100
AcDb2dVertex
 10
54.108253
 20
32.820049
 30
0.0
  0
VERTEX
  5
111
330
10B
100
AcDbEntity
  8
001
 62
    40
370
    50
100
AcDbVertex
100
AcDb2dVertex
 10
54.238268
 20
32.712528
 30
0.0
  0
VERTEX
  5
112
330
10B
100
AcDbEntity
  8
001
 62
    40
370
    50
100
AcDbVertex
100
AcDb2dVertex
 10
54.370609
 20
32.610764
 30
0.0
  0
VERTEX
  5
113
330
10B
100
AcDbEntity
  8
001
 62
    40
370
    50
100
AcDbVertex
100
AcDb2dVertex
 10
54.50684
 20
32.514268
 30
0.0
  0
VERTEX
  5
114
330
10B
100
AcDbEntity
  8
001
 62
    40
370
    50
100
AcDbVertex
100
AcDb2dVertex
 10
54.649382
 20
32.422248
 30
0.0
  0
VERTEX
  5
115
330
10B
100
AcDbEntity
  8
001
 62
    40
370
    50
100
AcDbVertex
100
AcDb2dVertex
 10
54.796086
 20
32.336998
 30
0.0
  0
VERTEX
  5
116
330
10B
100
AcDbEntity
  8
001
 62
    40
370
    50
100
AcDbVertex
100
AcDb2dVertex
 10
54.946886
 20
32.259294
 30
0.0
  0
VERTEX
  5
117
330
10B
100
AcDbEntity
  8
001
 62
    40
370
    50
100
AcDbVertex
100
AcDb2dVertex
 10
55.101752
 20
32.190115
 30
0.0
  0
VERTEX
  5
118
330
10B
100
AcDbEntity
  8
001
 62
    40
370
    50
100
AcDbVertex
100
AcDb2dVertex
 10
55.242425
 20
32.136611
 30
0.0
  0
VERTEX
  5
119
330
10B
100
AcDbEntity
  8
001
 62
    40
370
    50
100
AcDbVertex
100
AcDb2dVertex
 10
55.385752
 20
32.090655
 30
0.0
  0
VERTEX
  5
11A
330
10B
100
AcDbEntity
  8
001
 62
    40
370
    50
100
AcDbVertex
100
AcDb2dVertex
 10
55.531126
 20
32.052304
 30
0.0
  0
VERTEX
  5
11B
330
10B
100
AcDbEntity
  8
001
 62
    40
370
    50
100
AcDbVertex
100
AcDb2dVertex
 10
55.678313
 20
32.021639
 30
0.0
  0
VERTEX
  5
11C
330
10B
100
AcDbEntity
  8
001
 62
    40
370
    50
100
AcDbVertex
100
AcDb2dVertex
 10
55.825212
 20
31.999067
 30
0.0
  0
VERTEX
  5
11D
330
10B
100
AcDbEntity
  8
001
 62
    40
370
    50
100
AcDbVertex
100
AcDb2dVertex
 10
55.973102
 20
31.984464
 30
0.0
  0
VERTEX
  5
11E
330
10B
100
AcDbEntity
  8
001
 62
    40
370
    50
100
AcDbVertex
100
AcDb2dVertex
 10
56.109989
 20
31.978214
 30
0.0
  0
VERTEX
  5
11F
330
10B
100
AcDbEntity
  8
001
 62
    40
370
    50
100
AcDbVertex
100
AcDb2dVertex
 10
56.247023
 20
31.978609
 30
0.0
  0
VERTEX
  5
120
330
10B
100
AcDbEntity
  8
001
 62
    40
370
    50
100
AcDbVertex
100
AcDb2dVertex
 10
56.382176
 20
31.985171
 30
0.0
  0
VERTEX
  5
121
330
10B
100
AcDbEntity
  8
001
 62
    40
370
    50
100
AcDbVertex
100
AcDb2dVertex
 10
56.516912
 20
31.997616
 30
0.0
  0
VERTEX
  5
122
330
10B
100
AcDbEntity
  8
001
 62
    40
370
    50
100
AcDbVertex
100
AcDb2dVertex
 10
56.647751
 20
32.01523
 30
0.0
  0
VERTEX
  5
123
330
10B
100
AcDbEntity
  8
001
 62
    40
370
    50
100
AcDbVertex
100
AcDb2dVertex
 10
56.777763
 20
32.038111
 30
0.0
  0
VERTEX
  5
124
330
10B
100
AcDbEntity
  8
001
 62
    40
370
    50
100
AcDbVertex
100
AcDb2dVertex
 10
56.901426
 20
32.06479
 30
0.0
  0
VERTEX
  5
125
330
10B
100
AcDbEntity
  8
001
 62
    40
370
    50
100
AcDbVertex
100
AcDb2dVertex
 10
57.024135
 20
32.095602
 30
0.0
  0
VERTEX
  5
126
330
10B
100
AcDbEntity
  8
001
 62
    40
370
    50
100
AcDbVertex
100
AcDb2dVertex
 10
57.141422
 20
32.128704
 30
0.0
  0
VERTEX
  5
127
330
10B
100
AcDbEntity
  8
001
 62
    40
370
    50
100
AcDbVertex
100
AcDb2dVertex
 10
57.257757
 20
32.164966
 30
0.0
  0
VERTEX
  5
128
330
10B
100
AcDbEntity
  8
001
 62
    40
370
    50
100
AcDbVertex
100
AcDb2dVertex
 10
57.367182
 20
32.201934
 30
0.0
  0
VERTEX
  5
129
330
10B
100
AcDbEntity
  8
001
 62
    40
370
    50
100
AcDbVertex
100
AcDb2dVertex
 10
57.476152
 20
32.240268
 30
0.0
  0
SEQEND
  5
10C
330
10B
100
AcDbEntity
  8
001
370
    50
  0
POLYLINE
  5
12A
330
64
100
AcDbEntity
  8
001
 62
    40
370
    50
100
AcDb2dPolyline
 66
     1
 10
0.0
 20
0.0
 30
0.0
  0
VERTEX
  5
12C
330
12A
100
AcDbEntity
  8
001
 62
    40
370
    50
100
AcDbVertex
100
AcDb2dVertex
 10
54.450406
 20
36.080059
 30
0.0
  0
VERTEX
  5
12D
330
12A
100
AcDbEntity
  8
001
 62
    40
370
    50
100
AcDbVertex
100
AcDb2dVertex
 10
54.176451
 20
35.805628
 30
0.0
  0
VERTEX
  5
12E
330
12A
100
AcDbEntity
  8
001
 62
    40
370
    50
100
AcDbVertex
100
AcDb2dVertex
 10
53.854248
 20
35.385164
 30
0.0
  0
VERTEX
  5
12F
330
12A
100
AcDbEntity
  8
001
 62
    40
370
    50
100
AcDbVertex
100
AcDb2dVertex
 10
53.661681
 20
34.988865
 30
0.0
  0
VERTEX
  5
130
330
12A
100
AcDbEntity
  8
001
 62
    40
370
    50
100
AcDbVertex
100
AcDb2dVertex
 10
53.564977
 20
34.585602
 30
0.0
  0
VERTEX
  5
131
330
12A
100
AcDbEntity
  8
001
 62
    40
370
    50
100
AcDbVertex
100
AcDb2dVertex
 10
53.539365
 20
34.372569
 30
0.0
  0
VERTEX
  5
132
330
12A
100
AcDbEntity
  8
001
 62
    40
370
    50
100
AcDbVertex
100
AcDb2dVertex
 10
53.527979
 20
34.160164
 30
0.0
  0
VERTEX
  5
133
330
12A
100
AcDbEntity
  8
001
 62
    40
370
    50
100
AcDbVertex
100
AcDb2dVertex
 10
53.53377
 20
33.953413
 30
0.0
  0
VERTEX
  5
134
330
12A
100
AcDbEntity
  8
001
 62
    40
370
    50
100
AcDbVertex
100
AcDb2dVertex
 10
53.564977
 20
33.734726
 30
0.0
  0
VERTEX
  5
135
330
12A
100
AcDbEntity
  8
001
 62
    40
370
    50
100
AcDbVertex
100
AcDb2dVertex
 10
53.655524
 20
33.395284
 30
0.0
  0
VERTEX
  5
136
330
12A
100
AcDbEntity
  8
001
 62
    40
370
    50
100
AcDbVertex
100
AcDb2dVertex
 10
53.743647
 20
33.152157
 30
0.0
  0
SEQEND
  5
12B
330
12A
100
AcDbEntity
  8
001
370
    50
  0
POLYLINE
  5
137
330
64
100
AcDbEntity
  8
001
 62
    40
370
    50
100
AcDb2dPolyline
 66
     1
 10
0.0
 20
0.0
 30
0.0
  0
VERTEX
  5
139
330
137
100
AcDbEntity
  8
001
 62
    40
370
    50
100
AcDbVertex
100
AcDb2dVertex
 10
51.502449
 20
33.699705
 30
0.0
  0
VERTEX
  5
13A
330
137
100
AcDbEntity
  8
001
 62
    40
370
    50
100
AcDbVertex
100
AcDb2dVertex
 10
51.293693
 20
33.666191
 30
0.0
  0
VERTEX
  5
13B
330
137
100
AcDbEntity
  8
001
 62
    40
370
    50
100
AcDbVertex
100
AcDb2dVertex
 10
50.991632
 20
33.602846
 30
0.0
  0
VERTEX
  5
13C
330
137
100
AcDbEntity
  8
001
 62
    40
370
    50
100
AcDbVertex
100
AcDb2dVertex
 10
50.718854
 20
33.525975
 30
0.0
  0
VERTEX
  5
13D
330
137
100
AcDbEntity
  8
001
 62
    40
370
    50
100
AcDbVertex
100
AcDb2dVertex
 10
50.534924
 20
33.463951
 30
0.0
  0
SEQEND
  5
138
330
137
100
AcDbEntity
  8
001
370
    50
  0
LINE
  5
13E
330
64
100
AcDbEntity
  8
001
 62
    40
370
    50
100
AcDbLine
 10
53.743647
 20
33.152157
 30
0.0
 11
51.502449
 21
33.699705
 31
0.0
  0
POLYLINE
  5
13F
330
64
100
AcDbEntity
  8
001
 62
    40
370
    50
100
AcDb2dPolyline
 66
     1
 10
0.0
 20
0.0
 30
0.0
  0
VERTEX
  5
141
330
13F
100
AcDbEntity
  8
001
 62
    40
370
    50
100
AcDbVertex
100
AcDb2dVertex
 10
58.938705
 20
29.025291
 30
0.0
  0
VERTEX
  5
142
330
13F
100
AcDbEntity
  8
001
 62
    40
370
    50
100
AcDbVertex
100
AcDb2dVertex
 10
58.97052
 20
29.088314
 30
0.0
  0
VERTEX
  5
143
330
13F
100
AcDbEntity
  8
001
 62
    40
370
    50
100
AcDbVertex
100
AcDb2dVertex
 10
59.016578
 20
29.180645
 30
0.0
  0
VERTEX
  5
144
330
13F
100
AcDbEntity
  8
001
 62
    40
370
    50
100
AcDbVertex
100
AcDb2dVertex
 10
59.063836
 20
29.276946
 30
0.0
  0
VERTEX
  5
145
330
13F
100
AcDbEntity
  8
001
 62
    40
370
    50
100
AcDbVertex
100
AcDb2dVertex
 10
59.095866
 20
29.342987
 30
0.0
  0
SEQEND
  5
140
330
13F
100
AcDbEntity
  8
001
370
    50
  0
POLYLINE
  5
146
330
64
100
AcDbEntity
  8
001
 62
    40
370
    50
100
AcDb2dPolyline
 66
     1
 10
0.0
 20
0.0
 30
0.0
  0
VERTEX
  5
148
330
146
100
AcDbEntity
  8
001
 62
    40
370
    50
100
AcDbVertex
100
AcDb2dVertex
 10
57.885863
 20
28.789537
 30
0.0
  0
VERTEX
  5
149
330
146
100
AcDbEntity
  8
001
 62
    40
370
    50
100
AcDbVertex
100
AcDb2dVertex
 10
58.113322
 20
28.822938
 30
0.0
  0
VERTEX
  5
14A
330
146
100
AcDbEntity
  8
001
 62
    40
370
    50
100
AcDbVertex
100
AcDb2dVertex
 10
58.44291
 20
28.886396
 30
0.0
  0
VERTEX
  5
14B
330
146
100
AcDbEntity
  8
001
 62
    40
370
    50
100
AcDbVertex
100
AcDb2dVertex
 10
58.7388
 20
28.963156
 30
0.0
  0
VERTEX
  5
14C
330
146
100
AcDbEntity
  8
001
 62
    40
370
    50
100
AcDbVertex
100
AcDb2dVertex
 10
58.938705
 20
29.025291
 30
0.0
  0
SEQEND
  5
147
330
146
100
AcDbEntity
  8
001
370
    50
  0
POLYLINE
  5
14D
330
64
100
AcDbEntity
  8
001
 62
    40
370
    50
100
AcDb2dPolyline
 66
     1
 10
0.0
 20
0.0
 30
0.0
  0
VERTEX
  5
14F
330
14D
100
AcDbEntity
  8
001
 62
    40
370
    50
100
AcDbVertex
100
AcDb2dVertex
 10
49.60299
 20
31.297778
 30
0.0
  0
VERTEX
  5
150
330
14D
100
AcDbEntity
  8
001
 62
    40
370
    50
100
AcDbVertex
100
AcDb2dVertex
 10
49.647435
 20
31.234626
 30
0.0
  0
VERTEX
  5
151
330
14D
100
AcDbEntity
  8
001
 62
    40
370
    50
100
AcDbVertex
100
AcDb2dVertex
 10
49.715346
 20
31.144599
 30
0.0
  0
VERTEX
  5
152
330
14D
100
AcDbEntity
  8
001
 62
    40
370
    50
100
AcDbVertex
100
AcDb2dVertex
 10
49.982202
 20
30.852915
 30
0.0
  0
VERTEX
  5
153
330
14D
100
AcDbEntity
  8
001
 62
    40
370
    50
100
AcDbVertex
100
AcDb2dVertex
 10
50.184132
 20
30.67115
 30
0.0
  0
SEQEND
  5
14E
330
14D
100
AcDbEntity
  8
001
370
    50
  0
POLYLINE
  5
154
330
64
100
AcDbEntity
  8
001
 62
    40
370
    50
100
AcDb2dPolyline
 66
     1
 10
0.0
 20
0.0
 30
0.0
  0
VERTEX
  5
156
330
154
100
AcDbEntity
  8
001
 62
    40
370
    50
100
AcDbVertex
100
AcDb2dVertex
 10
49.681686
 20
31.47823
 30
0.0
  0
VERTEX
  5
157
330
154
100
AcDbEntity
  8
001
 62
    40
370
    50
100
AcDbVertex
100
AcDb2dVertex
 10
49.660354
 20
31.433203
 30
0.0
  0
VERTEX
  5
158
330
154
100
AcDbEntity
  8
001
 62
    40
370
    50
100
AcDbVertex
100
AcDb2dVertex
 10
49.639813
 20
31.387831
 30
0.0
  0
VERTEX
  5
159
330
154
100
AcDbEntity
  8
001
 62
    40
370
    50
100
AcDbVertex
100
AcDb2dVertex
 10
49.621025
 20
31.342969
 30
0.0
  0
VERTEX
  5
15A
330
154
100
AcDbEntity
  8
001
 62
    40
370
    50
100
AcDbVertex
100
AcDb2dVertex
 10
49.60299
 20
31.297778
 30
0.0
  0
SEQEND
  5
155
330
154
100
AcDbEntity
  8
001
370
    50
  0
POLYLINE
  5
15B
330
64
100
AcDbEntity
  8
001
 62
    40
370
    50
100
AcDb2dPolyline
 66
     1
 10
0.0
 20
0.0
 30
0.0
  0
VERTEX
  5
15D
330
15B
100
AcDbEntity
  8
001
 62
    40
370
    50
100
AcDbVertex
100
AcDb2dVertex
 10
49.681686
 20
31.47823
 30
0.0
  0
VERTEX
  5
15E
330
15B
100
AcDbEntity
  8
001
 62
    40
370
    50
100
AcDbVertex
100
AcDb2dVertex
 10
49.776547
 20
31.674593
 30
0.0
  0
VERTEX
  5
15F
330
15B
100
AcDbEntity
  8
001
 62
    40
370
    50
100
AcDbVertex
100
AcDb2dVertex
 10
49.903361
 20
31.943229
 30
0.0
  0
VERTEX
  5
160
330
15B
100
AcDbEntity
  8
001
 62
    40
370
    50
100
AcDbVertex
100
AcDb2dVertex
 10
49.986806
 20
32.125563
 30
0.0
  0
VERTEX
  5
161
330
15B
100
AcDbEntity
  8
001
 62
    40
370
    50
100
AcDbVertex
100
AcDb2dVertex
 10
50.062812
 20
32.296972
 30
0.0
  0
VERTEX
  5
162
330
15B
100
AcDbEntity
  8
001
 62
    40
370
    50
100
AcDbVertex
100
AcDb2dVertex
 10
50.14018
 20
32.475366
 30
0.0
  0
VERTEX
  5
163
330
15B
100
AcDbEntity
  8
001
 62
    40
370
    50
100
AcDbVertex
100
AcDb2dVertex
 10
50.216131
 20
32.653415
 30
0.0
  0
VERTEX
  5
164
330
15B
100
AcDbEntity
  8
001
 62
    40
370
    50
100
AcDbVertex
100
AcDb2dVertex
 10
50.347063
 20
32.970254
 30
0.0
  0
VERTEX
  5
165
330
15B
100
AcDbEntity
  8
001
 62
    40
370
    50
100
AcDbVertex
100
AcDb2dVertex
 10
50.48607
 20
33.331327
 30
0.0
  0
VERTEX
  5
166
330
15B
100
AcDbEntity
  8
001
 62
    40
370
    50
100
AcDbVertex
100
AcDb2dVertex
 10
50.514949
 20
33.409402
 30
0.0
  0
VERTEX
  5
167
330
15B
100
AcDbEntity
  8
001
 62
    40
370
    50
100
AcDbVertex
100
AcDb2dVertex
 10
50.534924
 20
33.463951
 30
0.0
  0
SEQEND
  5
15C
330
15B
100
AcDbEntity
  8
001
370
    50
  0
LINE
  5
168
330
64
100
AcDbEntity
  8
001
 62
    40
370
    50
100
AcDbLine
 10
58.938705
 20
29.025291
 30
0.0
 11
58.81576
 21
28.74285
 31
0.0
  0
LINE
  5
169
330
64
100
AcDbEntity
  8
001
 62
    40
370
    50
100
AcDbLine
 10
59.120935
 20
28.74285
 30
0.0
 11
59.160176
 21
28.832999
 31
0.0
  0
LINE
  5
16A
330
64
100
AcDbEntity
  8
001
 62
    40
370
    50
100
AcDbLine
 10
61.476645
 20
34.154598
 30
0.0
 11
61.72259
 21
34.719604
 31
0.0
  0
POLYLINE
  5
16B
330
64
100
AcDbEntity
  8
001
 62
    40
370
    50
100
AcDb2dPolyline
 66
     1
 10
0.0
 20
0.0
 30
0.0
  0
VERTEX
  5
16D
330
16B
100
AcDbEntity
  8
001
 62
    40
370
    50
100
AcDbVertex
100
AcDb2dVertex
 10
58.627547
 20
28.623079
 30
0.0
  0
VERTEX
  5
16E
330
16B
100
AcDbEntity
  8
001
 62
    40
370
    50
100
AcDbVertex
100
AcDb2dVertex
 10
58.652096
 20
28.62502
 30
0.0
  0
VERTEX
  5
16F
330
16B
100
AcDbEntity
  8
001
 62
    40
370
    50
100
AcDbVertex
100
AcDb2dVertex
 10
58.686059
 20
28.63119
 30
0.0
  0
VERTEX
  5
170
330
16B
100
AcDbEntity
  8
001
 62
    40
370
    50
100
AcDbVertex
100
AcDb2dVertex
 10
58.73785
 20
28.653076
 30
0.0
  0
VERTEX
  5
171
330
16B
100
AcDbEntity
  8
001
 62
    40
370
    50
100
AcDbVertex
100
AcDb2dVertex
 10
58.776946
 20
28.685089
 30
0.0
  0
VERTEX
  5
172
330
16B
100
AcDbEntity
  8
001
 62
    40
370
    50
100
AcDbVertex
100
AcDb2dVertex
 10
58.788159
 20
28.697441
 30
0.0
  0
VERTEX
  5
173
330
16B
100
AcDbEntity
  8
001
 62
    40
370
    50
100
AcDbVertex
100
AcDb2dVertex
 10
58.799037
 20
28.712325
 30
0.0
  0
VERTEX
  5
174
330
16B
100
AcDbEntity
  8
001
 62
    40
370
    50
100
AcDbVertex
100
AcDb2dVertex
 10
58.809222
 20
28.729764
 30
0.0
  0
VERTEX
  5
175
330
16B
100
AcDbEntity
  8
001
 62
    40
370
    50
100
AcDbVertex
100
AcDb2dVertex
 10
58.81576
 20
28.74285
 30
0.0
  0
SEQEND
  5
16C
330
16B
100
AcDbEntity
  8
001
370
    50
  0
LINE
  5
176
330
64
100
AcDbEntity
  8
001
 62
    40
370
    50
100
AcDbLine
 10
58.578312
 20
28.628727
 30
0.0
 11
57.885863
 21
28.789537
 31
0.0
  0
POLYLINE
  5
177
330
64
100
AcDbEntity
  8
001
 62
    40
370
    50
100
AcDb2dPolyline
 66
     1
 10
0.0
 20
0.0
 30
0.0
  0
VERTEX
  5
179
330
177
100
AcDbEntity
  8
001
 62
    40
370
    50
100
AcDbVertex
100
AcDb2dVertex
 10
58.938831
 20
28.623078
 30
0.0
  0
VERTEX
  5
17A
330
177
100
AcDbEntity
  8
001
 62
    40
370
    50
100
AcDbVertex
100
AcDb2dVertex
 10
58.953406
 20
28.623847
 30
0.0
  0
VERTEX
  5
17B
330
177
100
AcDbEntity
  8
001
 62
    40
370
    50
100
AcDbVertex
100
AcDb2dVertex
 10
58.973352
 20
28.626117
 30
0.0
  0
VERTEX
  5
17C
330
177
100
AcDbEntity
  8
001
 62
    40
370
    50
100
AcDbVertex
100
AcDb2dVertex
 10
58.991017
 20
28.629861
 30
0.0
  0
VERTEX
  5
17D
330
177
100
AcDbEntity
  8
001
 62
    40
370
    50
100
AcDbVertex
100
AcDb2dVertex
 10
59.006824
 20
28.63514
 30
0.0
  0
VERTEX
  5
17E
330
177
100
AcDbEntity
  8
001
 62
    40
370
    50
100
AcDbVertex
100
AcDb2dVertex
 10
59.022681
 20
28.641945
 30
0.0
  0
VERTEX
  5
17F
330
177
100
AcDbEntity
  8
001
 62
    40
370
    50
100
AcDbVertex
100
AcDb2dVertex
 10
59.038231
 20
28.649873
 30
0.0
  0
VERTEX
  5
180
330
177
100
AcDbEntity
  8
001
 62
    40
370
    50
100
AcDbVertex
100
AcDb2dVertex
 10
59.078327
 20
28.678988
 30
0.0
  0
VERTEX
  5
181
330
177
100
AcDbEntity
  8
001
 62
    40
370
    50
100
AcDbVertex
100
AcDb2dVertex
 10
59.110997
 20
28.723078
 30
0.0
  0
VERTEX
  5
182
330
177
100
AcDbEntity
  8
001
 62
    40
370
    50
100
AcDbVertex
100
AcDb2dVertex
 10
59.117025
 20
28.734629
 30
0.0
  0
VERTEX
  5
183
330
177
100
AcDbEntity
  8
001
 62
    40
370
    50
100
AcDbVertex
100
AcDb2dVertex
 10
59.120935
 20
28.74285
 30
0.0
  0
SEQEND
  5
178
330
177
100
AcDbEntity
  8
001
370
    50
  0
POLYLINE
  5
184
330
64
100
AcDbEntity
  8
001
 62
    40
370
    50
100
AcDb2dPolyline
 66
     1
 10
0.0
 20
0.0
 30
0.0
  0
VERTEX
  5
186
330
184
100
AcDbEntity
  8
001
 62
    40
370
    50
100
AcDbVertex
100
AcDb2dVertex
 10
58.578312
 20
28.628727
 30
0.0
  0
VERTEX
  5
187
330
184
100
AcDbEntity
  8
001
 62
    40
370
    50
100
AcDbVertex
100
AcDb2dVertex
 10
58.578347
 20
28.628719
 30
0.0
  0
VERTEX
  5
188
330
184
100
AcDbEntity
  8
001
 62
    40
370
    50
100
AcDbVertex
100
AcDb2dVertex
 10
58.578397
 20
28.628708
 30
0.0
  0
VERTEX
  5
189
330
184
100
AcDbEntity
  8
001
 62
    40
370
    50
100
AcDbVertex
100
AcDb2dVertex
 10
58.596691
 20
28.625053
 30
0.0
  0
VERTEX
  5
18A
330
184
100
AcDbEntity
  8
001
 62
    40
370
    50
100
AcDbVertex
100
AcDb2dVertex
 10
58.614376
 20
28.623479
 30
0.0
  0
VERTEX
  5
18B
330
184
100
AcDbEntity
  8
001
 62
    40
370
    50
100
AcDbVertex
100
AcDb2dVertex
 10
58.622032
 20
28.623191
 30
0.0
  0
VERTEX
  5
18C
330
184
100
AcDbEntity
  8
001
 62
    40
370
    50
100
AcDbVertex
100
AcDb2dVertex
 10
58.627547
 20
28.623079
 30
0.0
  0
SEQEND
  5
185
330
184
100
AcDbEntity
  8
001
370
    50
  0
LINE
  5
18D
330
64
100
AcDbEntity
  8
001
 62
    40
370
    50
100
AcDbLine
 10
58.627547
 20
28.623079
 30
0.0
 11
58.938831
 21
28.623078
 31
0.0
  0
LINE
  5
18E
330
64
100
AcDbEntity
  8
001
 62
    40
370
    50
100
AcDbLine
 10
51.502449
 20
33.699705
 30
0.0
 11
52.722378
 21
36.502234
 31
0.0
  0
LINE
  5
18F
330
64
100
AcDbEntity
  8
001
 62
    40
370
    50
100
AcDbLine
 10
53.07317
 20
39.295036
 30
0.0
 11
53.196115
 21
39.577477
 31
0.0
  0
POLYLINE
  5
190
330
64
100
AcDbEntity
  8
001
 62
    40
370
    50
100
AcDb2dPolyline
 66
     1
 10
0.0
 20
0.0
 30
0.0
  0
VERTEX
  5
192
330
190
100
AcDbEntity
  8
001
 62
    40
370
    50
100
AcDbVertex
100
AcDb2dVertex
 10
53.37211
 20
39.697248
 30
0.0
  0
VERTEX
  5
193
330
190
100
AcDbEntity
  8
001
 62
    40
370
    50
100
AcDbVertex
100
AcDb2dVertex
 10
53.358648
 20
39.696548
 30
0.0
  0
VERTEX
  5
194
330
190
100
AcDbEntity
  8
001
 62
    40
370
    50
100
AcDbVertex
100
AcDb2dVertex
 10
53.340144
 20
39.694391
 30
0.0
  0
VERTEX
  5
195
330
190
100
AcDbEntity
  8
001
 62
    40
370
    50
100
AcDbVertex
100
AcDb2dVertex
 10
53.323032
 20
39.690603
 30
0.0
  0
VERTEX
  5
196
330
190
100
AcDbEntity
  8
001
 62
    40
370
    50
100
AcDbVertex
100
AcDb2dVertex
 10
53.308019
 20
39.685547
 30
0.0
  0
VERTEX
  5
197
330
190
100
AcDbEntity
  8
001
 62
    40
370
    50
100
AcDbVertex
100
AcDb2dVertex
 10
53.265108
 20
39.663554
 30
0.0
  0
VERTEX
  5
198
330
190
100
AcDbEntity
  8
001
 62
    40
370
    50
100
AcDbVertex
100
AcDb2dVertex
 10
53.226182
 20
39.626617
 30
0.0
  0
VERTEX
  5
199
330
190
100
AcDbEntity
  8
001
 62
    40
370
    50
100
AcDbVertex
100
AcDb2dVertex
 10
53.207415
 20
39.598677
 30
0.0
  0
VERTEX
  5
19A
330
190
100
AcDbEntity
  8
001
 62
    40
370
    50
100
AcDbVertex
100
AcDb2dVertex
 10
53.196115
 20
39.577477
 30
0.0
  0
SEQEND
  5
191
330
190
100
AcDbEntity
  8
001
370
    50
  0
LINE
  5
19B
330
64
100
AcDbEntity
  8
001
 62
    40
370
    50
100
AcDbLine
 10
50.534924
 20
33.463951
 30
0.0
 11
52.134576
 21
37.138814
 31
0.0
  0
POLYLINE
  5
19C
330
64
100
AcDbEntity
  8
001
 62
    40
370
    50
100
AcDb2dPolyline
 66
     1
 10
0.0
 20
0.0
 30
0.0
  0
VERTEX
  5
19E
330
19C
100
AcDbEntity
  8
001
 62
    40
370
    50
100
AcDbVertex
100
AcDb2dVertex
 10
53.382452
 20
39.69695
 30
0.0
  0
VERTEX
  5
19F
330
19C
100
AcDbEntity
  8
001
 62
    40
370
    50
100
AcDbVertex
100
AcDb2dVertex
 10
53.37866
 20
39.697123
 30
0.0
  0
VERTEX
  5
1A0
330
19C
100
AcDbEntity
  8
001
 62
    40
370
    50
100
AcDbVertex
100
AcDb2dVertex
 10
53.373116
 20
39.697245
 30
0.0
  0
VERTEX
  5
1A1
330
19C
100
AcDbEntity
  8
001
 62
    40
370
    50
100
AcDbVertex
100
AcDb2dVertex
 10
53.372519
 20
39.697248
 30
0.0
  0
VERTEX
  5
1A2
330
19C
100
AcDbEntity
  8
001
 62
    40
370
    50
100
AcDbVertex
100
AcDb2dVertex
 10
53.37211
 20
39.697248
 30
0.0
  0
SEQEND
  5
19D
330
19C
100
AcDbEntity
  8
001
370
    50
  0
LINE
  5
1A3
330
64
100
AcDbEntity
  8
001
 62
    40
370
    50
100
AcDbLine
 10
53.38123
 20
39.697248
 30
0.0
 11
53.37211
 21
39.697248
 31
0.0
  0
POLYLINE
  5
1A4
330
64
100
AcDbEntity
  8
001
 62
    40
370
    50
100
AcDb2dPolyline
 66
     1
 10
0.0
 20
0.0
 30
0.0
  0
VERTEX
  5
1A6
330
1A4
100
AcDbEntity
  8
001
 62
    40
370
    50
100
AcDbVertex
100
AcDb2dVertex
 10
49.60299
 20
31.297778
 30
0.0
  0
VERTEX
  5
1A7
330
1A4
100
AcDbEntity
  8
001
 62
    40
370
    50
100
AcDbVertex
100
AcDb2dVertex
 10
49.591865
 20
31.221222
 30
0.0
  0
VERTEX
  5
1A8
330
1A4
100
AcDbEntity
  8
001
 62
    40
370
    50
100
AcDbVertex
100
AcDb2dVertex
 10
49.586719
 20
31.14444
 30
0.0
  0
VERTEX
  5
1A9
330
1A4
100
AcDbEntity
  8
001
 62
    40
370
    50
100
AcDbVertex
100
AcDb2dVertex
 10
49.588758
 20
31.097401
 30
0.0
  0
VERTEX
  5
1AA
330
1A4
100
AcDbEntity
  8
001
 62
    40
370
    50
100
AcDbVertex
100
AcDb2dVertex
 10
49.594713
 20
31.050583
 30
0.0
  0
VERTEX
  5
1AB
330
1A4
100
AcDbEntity
  8
001
 62
    40
370
    50
100
AcDbVertex
100
AcDb2dVertex
 10
49.603964
 20
31.005417
 30
0.0
  0
VERTEX
  5
1AC
330
1A4
100
AcDbEntity
  8
001
 62
    40
370
    50
100
AcDbVertex
100
AcDb2dVertex
 10
49.616955
 20
30.961243
 30
0.0
  0
VERTEX
  5
1AD
330
1A4
100
AcDbEntity
  8
001
 62
    40
370
    50
100
AcDbVertex
100
AcDb2dVertex
 10
49.64023
 20
30.906197
 30
0.0
  0
VERTEX
  5
1AE
330
1A4
100
AcDbEntity
  8
001
 62
    40
370
    50
100
AcDbVertex
100
AcDb2dVertex
 10
49.671772
 20
30.855113
 30
0.0
  0
VERTEX
  5
1AF
330
1A4
100
AcDbEntity
  8
001
 62
    40
370
    50
100
AcDbVertex
100
AcDb2dVertex
 10
49.699571
 20
30.822889
 30
0.0
  0
VERTEX
  5
1B0
330
1A4
100
AcDbEntity
  8
001
 62
    40
370
    50
100
AcDbVertex
100
AcDb2dVertex
 10
49.732608
 20
30.797024
 30
0.0
  0
VERTEX
  5
1B1
330
1A4
100
AcDbEntity
  8
001
 62
    40
370
    50
100
AcDbVertex
100
AcDb2dVertex
 10
49.757349
 20
30.784643
 30
0.0
  0
VERTEX
  5
1B2
330
1A4
100
AcDbEntity
  8
001
 62
    40
370
    50
100
AcDbVertex
100
AcDb2dVertex
 10
49.783363
 20
30.774433
 30
0.0
  0
SEQEND
  5
1A5
330
1A4
100
AcDbEntity
  8
001
370
    50
  0
LINE
  5
1B3
330
64
100
AcDbEntity
  8
001
 62
    40
370
    50
100
AcDbLine
 10
50.184132
 20
30.67115
 30
0.0
 11
49.783363
 21
30.774433
 31
0.0
  0
LINE
  5
1B4
330
64
100
AcDbEntity
  8
001
 62
    40
370
    50
100
AcDbLine
 10
50.184132
 20
30.67115
 30
0.0
 11
57.885863
 21
28.789537
 31
0.0
  0
LINE
  5
1B5
330
64
100
AcDbEntity
  8
001
  6
PHANTOM
 62
    40
370
     9
100
AcDbLine
 10
49.588038
 20
30.816782
 30
0.0
 11
50.184132
 21
30.67115
 31
0.0
  0
ENDBLK
  5
66
330
64
100
AcDbEntity
  8
0
100
AcDbBlockEnd
  0
BLOCK
  5
1B7
330
1B6
100
AcDbEntity
  8
0
100
AcDbBlockBegin
  2
M-1-2
 70
     0
 10
0.0
 20
0.0
 30
0.0
  3
M-1-2
  1

  0
POLYLINE
  5
1B9
330
1B6
100
AcDbEntity
  8
001
 62
     5
370
    50
100
AcDb2dPolyline
 66
     1
 10
0.0
 20
0.0
 30
0.0
  0
VERTEX
  5
1BB
330
1B9
100
AcDbEntity
  8
001
 62
     5
370
    50
100
AcDbVertex
100
AcDb2dVertex
 10
54.501113
 20
35.565894
 30
0.0
  0
VERTEX
  5
1BC
330
1B9
100
AcDbEntity
  8
001
 62
     5
370
    50
100
AcDbVertex
100
AcDb2dVertex
 10
54.463548
 20
35.524235
 30
0.0
  0
VERTEX
  5
1BD
330
1B9
100
AcDbEntity
  8
001
 62
     5
370
    50
100
AcDbVertex
100
AcDb2dVertex
 10
54.426688
 20
35.481968
 30
0.0
  0
VERTEX
  5
1BE
330
1B9
100
AcDbEntity
  8
001
 62
     5
370
    50
100
AcDbVertex
100
AcDb2dVertex
 10
54.372779
 20
35.415138
 30
0.0
  0
VERTEX
  5
1BF
330
1B9
100
AcDbEntity
  8
001
 62
     5
370
    50
100
AcDbVertex
100
AcDb2dVertex
 10
54.321935
 20
35.345912
 30
0.0
  0
VERTEX
  5
1C0
330
1B9
100
AcDbEntity
  8
001
 62
     5
370
    50
100
AcDbVertex
100
AcDb2dVertex
 10
54.273951
 20
35.274646
 30
0.0
  0
VERTEX
  5
1C1
330
1B9
100
AcDbEntity
  8
001
 62
     5
370
    50
100
AcDbVertex
100
AcDb2dVertex
 10
54.228896
 20
35.201499
 30
0.0
  0
VERTEX
  5
1C2
330
1B9
100
AcDbEntity
  8
001
 62
     5
370
    50
100
AcDbVertex
100
AcDb2dVertex
 10
54.186892
 20
35.126501
 30
0.0
  0
VERTEX
  5
1C3
330
1B9
100
AcDbEntity
  8
001
 62
     5
370
    50
100
AcDbVertex
100
AcDb2dVertex
 10
54.148228
 20
35.049746
 30
0.0
  0
VERTEX
  5
1C4
330
1B9
100
AcDbEntity
  8
001
 62
     5
370
    50
100
AcDbVertex
100
AcDb2dVertex
 10
54.138017
 20
35.027963
 30
0.0
  0
VERTEX
  5
1C5
330
1B9
100
AcDbEntity
  8
001
 62
     5
370
    50
100
AcDbVertex
100
AcDb2dVertex
 10
54.127949
 20
35.006112
 30
0.0
  0
SEQEND
  5
1BA
330
1B9
100
AcDbEntity
  8
001
370
    50
  0
POLYLINE
  5
1C6
330
1B6
100
AcDbEntity
  8
001
 62
     5
370
    50
100
AcDb2dPolyline
 66
     1
 10
0.0
 20
0.0
 30
0.0
  0
VERTEX
  5
1C8
330
1C6
100
AcDbEntity
  8
001
 62
     5
370
    50
100
AcDbVertex
100
AcDb2dVertex
 10
54.127949
 20
35.006112
 30
0.0
  0
VERTEX
  5
1C9
330
1C6
100
AcDbEntity
  8
001
 62
     5
370
    50
100
AcDbVertex
100
AcDb2dVertex
 10
54.109121
 20
34.962447
 30
0.0
  0
VERTEX
  5
1CA
330
1C6
100
AcDbEntity
  8
001
 62
     5
370
    50
100
AcDbVertex
100
AcDb2dVertex
 10
54.0909
 20
34.918533
 30
0.0
  0
VERTEX
  5
1CB
330
1C6
100
AcDbEntity
  8
001
 62
     5
370
    50
100
AcDbVertex
100
AcDb2dVertex
 10
54.060801
 20
34.837994
 30
0.0
  0
VERTEX
  5
1CC
330
1C6
100
AcDbEntity
  8
001
 62
     5
370
    50
100
AcDbVertex
100
AcDb2dVertex
 10
54.034326
 20
34.756162
 30
0.0
  0
VERTEX
  5
1CD
330
1C6
100
AcDbEntity
  8
001
 62
     5
370
    50
100
AcDbVertex
100
AcDb2dVertex
 10
54.011196
 20
34.673293
 30
0.0
  0
VERTEX
  5
1CE
330
1C6
100
AcDbEntity
  8
001
 62
     5
370
    50
100
AcDbVertex
100
AcDb2dVertex
 10
53.991484
 20
34.589558
 30
0.0
  0
VERTEX
  5
1CF
330
1C6
100
AcDbEntity
  8
001
 62
     5
370
    50
100
AcDbVertex
100
AcDb2dVertex
 10
53.975307
 20
34.505046
 30
0.0
  0
VERTEX
  5
1D0
330
1C6
100
AcDbEntity
  8
001
 62
     5
370
    50
100
AcDbVertex
100
AcDb2dVertex
 10
53.96269
 20
34.419924
 30
0.0
  0
VERTEX
  5
1D1
330
1C6
100
AcDbEntity
  8
001
 62
     5
370
    50
100
AcDbVertex
100
AcDb2dVertex
 10
53.953631
 20
34.334341
 30
0.0
  0
VERTEX
  5
1D2
330
1C6
100
AcDbEntity
  8
001
 62
     5
370
    50
100
AcDbVertex
100
AcDb2dVertex
 10
53.948147
 20
34.248456
 30
0.0
  0
VERTEX
  5
1D3
330
1C6
100
AcDbEntity
  8
001
 62
     5
370
    50
100
AcDbVertex
100
AcDb2dVertex
 10
53.946256
 20
34.16241
 30
0.0
  0
VERTEX
  5
1D4
330
1C6
100
AcDbEntity
  8
001
 62
     5
370
    50
100
AcDbVertex
100
AcDb2dVertex
 10
53.94796
 20
34.076361
 30
0.0
  0
VERTEX
  5
1D5
330
1C6
100
AcDbEntity
  8
001
 62
     5
370
    50
100
AcDbVertex
100
AcDb2dVertex
 10
53.953254
 20
33.990459
 30
0.0
  0
VERTEX
  5
1D6
330
1C6
100
AcDbEntity
  8
001
 62
     5
370
    50
100
AcDbVertex
100
AcDb2dVertex
 10
53.96213
 20
33.904853
 30
0.0
  0
VERTEX
  5
1D7
330
1C6
100
AcDbEntity
  8
001
 62
     5
370
    50
100
AcDbVertex
100
AcDb2dVertex
 10
53.974571
 20
33.819701
 30
0.0
  0
VERTEX
  5
1D8
330
1C6
100
AcDbEntity
  8
001
 62
     5
370
    50
100
AcDbVertex
100
AcDb2dVertex
 10
53.990557
 20
33.735142
 30
0.0
  0
VERTEX
  5
1D9
330
1C6
100
AcDbEntity
  8
001
 62
     5
370
    50
100
AcDbVertex
100
AcDb2dVertex
 10
54.010059
 20
33.65134
 30
0.0
  0
VERTEX
  5
1DA
330
1C6
100
AcDbEntity
  8
001
 62
     5
370
    50
100
AcDbVertex
100
AcDb2dVertex
 10
54.033043
 20
33.568426
 30
0.0
  0
VERTEX
  5
1DB
330
1C6
100
AcDbEntity
  8
001
 62
     5
370
    50
100
AcDbVertex
100
AcDb2dVertex
 10
54.059466
 20
33.486564
 30
0.0
  0
VERTEX
  5
1DC
330
1C6
100
AcDbEntity
  8
001
 62
     5
370
    50
100
AcDbVertex
100
AcDb2dVertex
 10
54.089288
 20
33.405879
 30
0.0
  0
VERTEX
  5
1DD
330
1C6
100
AcDbEntity
  8
001
 62
     5
370
    50
100
AcDbVertex
100
AcDb2dVertex
 10
54.122448
 20
33.326538
 30
0.0
  0
VERTEX
  5
1DE
330
1C6
100
AcDbEntity
  8
001
 62
     5
370
    50
100
AcDbVertex
100
AcDb2dVertex
 10
54.158894
 20
33.248649
 30
0.0
  0
VERTEX
  5
1DF
330
1C6
100
AcDbEntity
  8
001
 62
     5
370
    50
100
AcDbVertex
100
AcDb2dVertex
 10
54.198549
 20
33.172377
 30
0.0
  0
VERTEX
  5
1E0
330
1C6
100
AcDbEntity
  8
001
 62
     5
370
    50
100
AcDbVertex
100
AcDb2dVertex
 10
54.241372
 20
33.097844
 30
0.0
  0
VERTEX
  5
1E1
330
1C6
100
AcDbEntity
  8
001
 62
     5
370
    50
100
AcDbVertex
100
AcDb2dVertex
 10
54.287277
 20
33.025215
 30
0.0
  0
VERTEX
  5
1E2
330
1C6
100
AcDbEntity
  8
001
 62
     5
370
    50
100
AcDbVertex
100
AcDb2dVertex
 10
54.336139
 20
32.954527
 30
0.0
  0
VERTEX
  5
1E3
330
1C6
100
AcDbEntity
  8
001
 62
     5
370
    50
100
AcDbVertex
100
AcDb2dVertex
 10
54.387835
 20
32.885918
 30
0.0
  0
VERTEX
  5
1E4
330
1C6
100
AcDbEntity
  8
001
 62
     5
370
    50
100
AcDbVertex
100
AcDb2dVertex
 10
54.442527
 20
32.819709
 30
0.0
  0
VERTEX
  5
1E5
330
1C6
100
AcDbEntity
  8
001
 62
     5
370
    50
100
AcDbVertex
100
AcDb2dVertex
 10
54.470626
 20
32.787967
 30
0.0
  0
VERTEX
  5
1E6
330
1C6
100
AcDbEntity
  8
001
 62
     5
370
    50
100
AcDbVertex
100
AcDb2dVertex
 10
54.499115
 20
32.756569
 30
0.0
  0
SEQEND
  5
1C7
330
1C6
100
AcDbEntity
  8
001
370
    50
  0
POLYLINE
  5
1E7
330
1B6
100
AcDbEntity
  8
001
 62
     5
370
    50
100
AcDb2dPolyline
 66
     1
 10
0.0
 20
0.0
 30
0.0
  0
VERTEX
  5
1E9
330
1E7
100
AcDbEntity
  8
001
 62
     5
370
    50
100
AcDbVertex
100
AcDb2dVertex
 10
55.985156
 20
36.210163
 30
0.0
  0
VERTEX
  5
1EA
330
1E7
100
AcDbEntity
  8
001
 62
     5
370
    50
100
AcDbVertex
100
AcDb2dVertex
 10
55.835989
 20
36.202581
 30
0.0
  0
VERTEX
  5
1EB
330
1E7
100
AcDbEntity
  8
001
 62
     5
370
    50
100
AcDbVertex
100
AcDb2dVertex
 10
55.631313
 20
36.179019
 30
0.0
  0
VERTEX
  5
1EC
330
1E7
100
AcDbEntity
  8
001
 62
     5
370
    50
100
AcDbVertex
100
AcDb2dVertex
 10
55.449095
 20
36.139178
 30
0.0
  0
VERTEX
  5
1ED
330
1E7
100
AcDbEntity
  8
001
 62
     5
370
    50
100
AcDbVertex
100
AcDb2dVertex
 10
55.288221
 20
36.086534
 30
0.0
  0
VERTEX
  5
1EE
330
1E7
100
AcDbEntity
  8
001
 62
     5
370
    50
100
AcDbVertex
100
AcDb2dVertex
 10
55.130084
 20
36.022343
 30
0.0
  0
VERTEX
  5
1EF
330
1E7
100
AcDbEntity
  8
001
 62
     5
370
    50
100
AcDbVertex
100
AcDb2dVertex
 10
54.966306
 20
35.935516
 30
0.0
  0
VERTEX
  5
1F0
330
1E7
100
AcDbEntity
  8
001
 62
     5
370
    50
100
AcDbVertex
100
AcDb2dVertex
 10
54.68939
 20
35.735054
 30
0.0
  0
VERTEX
  5
1F1
330
1E7
100
AcDbEntity
  8
001
 62
     5
370
    50
100
AcDbVertex
100
AcDb2dVertex
 10
54.502362
 20
35.566293
 30
0.0
  0
SEQEND
  5
1E8
330
1E7
100
AcDbEntity
  8
001
370
    50
  0
POLYLINE
  5
1F2
330
1B6
100
AcDbEntity
  8
001
 62
     5
370
    50
100
AcDb2dPolyline
 66
     1
 10
0.0
 20
0.0
 30
0.0
  0
VERTEX
  5
1F4
330
1F2
100
AcDbEntity
  8
001
 62
     5
370
    50
100
AcDbVertex
100
AcDb2dVertex
 10
56.422906
 20
35.460254
 30
0.0
  0
VERTEX
  5
1F5
330
1F2
100
AcDbEntity
  8
001
 62
     5
370
    50
100
AcDbVertex
100
AcDb2dVertex
 10
56.402529
 20
35.459217
 30
0.0
  0
VERTEX
  5
1F6
330
1F2
100
AcDbEntity
  8
001
 62
     5
370
    50
100
AcDbVertex
100
AcDb2dVertex
 10
56.374577
 20
35.456
 30
0.0
  0
VERTEX
  5
1F7
330
1F2
100
AcDbEntity
  8
001
 62
     5
370
    50
100
AcDbVertex
100
AcDb2dVertex
 10
56.349705
 20
35.450564
 30
0.0
  0
VERTEX
  5
1F8
330
1F2
100
AcDbEntity
  8
001
 62
     5
370
    50
100
AcDbVertex
100
AcDb2dVertex
 10
56.327715
 20
35.443368
 30
0.0
  0
VERTEX
  5
1F9
330
1F2
100
AcDbEntity
  8
001
 62
     5
370
    50
100
AcDbVertex
100
AcDb2dVertex
 10
56.306052
 20
35.434577
 30
0.0
  0
VERTEX
  5
1FA
330
1F2
100
AcDbEntity
  8
001
 62
     5
370
    50
100
AcDbVertex
100
AcDb2dVertex
 10
56.283746
 20
35.422741
 30
0.0
  0
VERTEX
  5
1FB
330
1F2
100
AcDbEntity
  8
001
 62
     5
370
    50
100
AcDbVertex
100
AcDb2dVertex
 10
56.24046
 20
35.390341
 30
0.0
  0
VERTEX
  5
1FC
330
1F2
100
AcDbEntity
  8
001
 62
     5
370
    50
100
AcDbVertex
100
AcDb2dVertex
 10
56.211632
 20
35.362524
 30
0.0
  0
SEQEND
  5
1F3
330
1F2
100
AcDbEntity
  8
001
370
    50
  0
POLYLINE
  5
1FD
330
1B6
100
AcDbEntity
  8
001
 62
     5
370
    50
100
AcDb2dPolyline
 66
     1
 10
0.0
 20
0.0
 30
0.0
  0
VERTEX
  5
1FF
330
1FD
100
AcDbEntity
  8
001
 62
     5
370
    50
100
AcDbVertex
100
AcDb2dVertex
 10
55.486911
 20
35.290838
 30
0.0
  0
VERTEX
  5
200
330
1FD
100
AcDbEntity
  8
001
 62
     5
370
    50
100
AcDbVertex
100
AcDb2dVertex
 10
55.512318
 20
35.272401
 30
0.0
  0
VERTEX
  5
201
330
1FD
100
AcDbEntity
  8
001
 62
     5
370
    50
100
AcDbVertex
100
AcDb2dVertex
 10
55.548907
 20
35.248646
 30
0.0
  0
VERTEX
  5
202
330
1FD
100
AcDbEntity
  8
001
 62
     5
370
    50
100
AcDbVertex
100
AcDb2dVertex
 10
55.591799
 20
35.226001
 30
0.0
  0
VERTEX
  5
203
330
1FD
100
AcDbEntity
  8
001
 62
     5
370
    50
100
AcDbVertex
100
AcDb2dVertex
 10
55.632059
 20
35.209638
 30
0.0
  0
VERTEX
  5
204
330
1FD
100
AcDbEntity
  8
001
 62
     5
370
    50
100
AcDbVertex
100
AcDb2dVertex
 10
55.673458
 20
35.196096
 30
0.0
  0
VERTEX
  5
205
330
1FD
100
AcDbEntity
  8
001
 62
     5
370
    50
100
AcDbVertex
100
AcDb2dVertex
 10
55.72068
 20
35.185748
 30
0.0
  0
VERTEX
  5
206
330
1FD
100
AcDbEntity
  8
001
 62
     5
370
    50
100
AcDbVertex
100
AcDb2dVertex
 10
55.77358
 20
35.179651
 30
0.0
  0
VERTEX
  5
207
330
1FD
100
AcDbEntity
  8
001
 62
     5
370
    50
100
AcDbVertex
100
AcDb2dVertex
 10
55.812079
 20
35.177703
 30
0.0
  0
SEQEND
  5
1FE
330
1FD
100
AcDbEntity
  8
001
370
    50
  0
POLYLINE
  5
208
330
1B6
100
AcDbEntity
  8
001
 62
     5
370
    50
100
AcDb2dPolyline
 66
     1
 10
0.0
 20
0.0
 30
0.0
  0
VERTEX
  5
20A
330
208
100
AcDbEntity
  8
001
 62
     5
370
    50
100
AcDbVertex
100
AcDb2dVertex
 10
55.314969
 20
35.35066
 30
0.0
  0
VERTEX
  5
20B
330
208
100
AcDbEntity
  8
001
 62
     5
370
    50
100
AcDbVertex
100
AcDb2dVertex
 10
55.294568
 20
35.349596
 30
0.0
  0
VERTEX
  5
20C
330
208
100
AcDbEntity
  8
001
 62
     5
370
    50
100
AcDbVertex
100
AcDb2dVertex
 10
55.266639
 20
35.346407
 30
0.0
  0
VERTEX
  5
20D
330
208
100
AcDbEntity
  8
001
 62
     5
370
    50
100
AcDbVertex
100
AcDb2dVertex
 10
55.241886
 20
35.341111
 30
0.0
  0
VERTEX
  5
20E
330
208
100
AcDbEntity
  8
001
 62
     5
370
    50
100
AcDbVertex
100
AcDb2dVertex
 10
55.219778
 20
35.333774
 30
0.0
  0
VERTEX
  5
20F
330
208
100
AcDbEntity
  8
001
 62
     5
370
    50
100
AcDbVertex
100
AcDb2dVertex
 10
55.197665
 20
35.324451
 30
0.0
  0
VERTEX
  5
210
330
208
100
AcDbEntity
  8
001
 62
     5
370
    50
100
AcDbVertex
100
AcDb2dVertex
 10
55.175809
 20
35.313148
 30
0.0
  0
VERTEX
  5
211
330
208
100
AcDbEntity
  8
001
 62
     5
370
    50
100
AcDbVertex
100
AcDb2dVertex
 10
55.118031
 20
35.26848
 30
0.0
  0
VERTEX
  5
212
330
208
100
AcDbEntity
  8
001
 62
     5
370
    50
100
AcDbVertex
100
AcDb2dVertex
 10
55.073937
 20
35.210661
 30
0.0
  0
VERTEX
  5
213
330
208
100
AcDbEntity
  8
001
 62
     5
370
    50
100
AcDbVertex
100
AcDb2dVertex
 10
55.053355
 20
35.166539
 30
0.0
  0
VERTEX
  5
214
330
208
100
AcDbEntity
  8
001
 62
     5
370
    50
100
AcDbVertex
100
AcDb2dVertex
 10
55.040877
 20
35.119282
 30
0.0
  0
VERTEX
  5
215
330
208
100
AcDbEntity
  8
001
 62
     5
370
    50
100
AcDbVertex
100
AcDb2dVertex
 10
55.037808
 20
35.094762
 30
0.0
  0
VERTEX
  5
216
330
208
100
AcDbEntity
  8
001
 62
     5
370
    50
100
AcDbVertex
100
AcDb2dVertex
 10
55.036649
 20
35.070661
 30
0.0
  0
VERTEX
  5
217
330
208
100
AcDbEntity
  8
001
 62
     5
370
    50
100
AcDbVertex
100
AcDb2dVertex
 10
55.037355
 20
35.047275
 30
0.0
  0
VERTEX
  5
218
330
208
100
AcDbEntity
  8
001
 62
     5
370
    50
100
AcDbVertex
100
AcDb2dVertex
 10
55.040877
 20
35.022039
 30
0.0
  0
VERTEX
  5
219
330
208
100
AcDbEntity
  8
001
 62
     5
370
    50
100
AcDbVertex
100
AcDb2dVertex
 10
55.046958
 20
34.996189
 30
0.0
  0
VERTEX
  5
21A
330
208
100
AcDbEntity
  8
001
 62
     5
370
    50
100
AcDbVertex
100
AcDb2dVertex
 10
55.052428
 20
34.977722
 30
0.0
  0
SEQEND
  5
209
330
208
100
AcDbEntity
  8
001
370
    50
  0
POLYLINE
  5
21B
330
1B6
100
AcDbEntity
  8
001
 62
     5
370
    50
100
AcDb2dPolyline
 66
     1
 10
0.0
 20
0.0
 30
0.0
  0
VERTEX
  5
21D
330
21B
100
AcDbEntity
  8
001
 62
     5
370
    50
100
AcDbVertex
100
AcDb2dVertex
 10
54.751778
 20
34.310464
 30
0.0
  0
VERTEX
  5
21E
330
21B
100
AcDbEntity
  8
001
 62
     5
370
    50
100
AcDbVertex
100
AcDb2dVertex
 10
54.779917
 20
34.323235
 30
0.0
  0
VERTEX
  5
21F
330
21B
100
AcDbEntity
  8
001
 62
     5
370
    50
100
AcDbVertex
100
AcDb2dVertex
 10
54.819095
 20
34.343382
 30
0.0
  0
VERTEX
  5
220
330
21B
100
AcDbEntity
  8
001
 62
     5
370
    50
100
AcDbVertex
100
AcDb2dVertex
 10
54.935471
 20
34.430932
 30
0.0
  0
VERTEX
  5
221
330
21B
100
AcDbEntity
  8
001
 62
     5
370
    50
100
AcDbVertex
100
AcDb2dVertex
 10
55.011751
 20
34.5372
 30
0.0
  0
VERTEX
  5
222
330
21B
100
AcDbEntity
  8
001
 62
     5
370
    50
100
AcDbVertex
100
AcDb2dVertex
 10
55.049683
 20
34.620212
 30
0.0
  0
VERTEX
  5
223
330
21B
100
AcDbEntity
  8
001
 62
     5
370
    50
100
AcDbVertex
100
AcDb2dVertex
 10
55.074272
 20
34.710011
 30
0.0
  0
VERTEX
  5
224
330
21B
100
AcDbEntity
  8
001
 62
     5
370
    50
100
AcDbVertex
100
AcDb2dVertex
 10
55.080174
 20
34.756424
 30
0.0
  0
VERTEX
  5
225
330
21B
100
AcDbEntity
  8
001
 62
     5
370
    50
100
AcDbVertex
100
AcDb2dVertex
 10
55.082268
 20
34.801962
 30
0.0
  0
VERTEX
  5
226
330
21B
100
AcDbEntity
  8
001
 62
     5
370
    50
100
AcDbVertex
100
AcDb2dVertex
 10
55.080908
 20
34.846177
 30
0.0
  0
VERTEX
  5
227
330
21B
100
AcDbEntity
  8
001
 62
     5
370
    50
100
AcDbVertex
100
AcDb2dVertex
 10
55.074272
 20
34.893912
 30
0.0
  0
VERTEX
  5
228
330
21B
100
AcDbEntity
  8
001
 62
     5
370
    50
100
AcDbVertex
100
AcDb2dVertex
 10
55.062776
 20
34.942801
 30
0.0
  0
VERTEX
  5
229
330
21B
100
AcDbEntity
  8
001
 62
     5
370
    50
100
AcDbVertex
100
AcDb2dVertex
 10
55.052428
 20
34.977722
 30
0.0
  0
SEQEND
  5
21C
330
21B
100
AcDbEntity
  8
001
370
    50
  0
POLYLINE
  5
22A
330
1B6
100
AcDbEntity
  8
001
 62
     5
370
    50
100
AcDb2dPolyline
 66
     1
 10
0.0
 20
0.0
 30
0.0
  0
VERTEX
  5
22C
330
22A
100
AcDbEntity
  8
001
 62
     5
370
    50
100
AcDbVertex
100
AcDb2dVertex
 10
54.751778
 20
34.310464
 30
0.0
  0
VERTEX
  5
22D
330
22A
100
AcDbEntity
  8
001
 62
     5
370
    50
100
AcDbVertex
100
AcDb2dVertex
 10
54.736899
 20
34.303708
 30
0.0
  0
VERTEX
  5
22E
330
22A
100
AcDbEntity
  8
001
 62
     5
370
    50
100
AcDbVertex
100
AcDb2dVertex
 10
54.716182
 20
34.293057
 30
0.0
  0
VERTEX
  5
22F
330
22A
100
AcDbEntity
  8
001
 62
     5
370
    50
100
AcDbVertex
100
AcDb2dVertex
 10
54.654616
 20
34.246839
 30
0.0
  0
VERTEX
  5
230
330
22A
100
AcDbEntity
  8
001
 62
     5
370
    50
100
AcDbVertex
100
AcDb2dVertex
 10
54.614309
 20
34.19057
 30
0.0
  0
VERTEX
  5
231
330
22A
100
AcDbEntity
  8
001
 62
     5
370
    50
100
AcDbVertex
100
AcDb2dVertex
 10
54.594325
 20
34.146477
 30
0.0
  0
VERTEX
  5
232
330
22A
100
AcDbEntity
  8
001
 62
     5
370
    50
100
AcDbVertex
100
AcDb2dVertex
 10
54.58125
 20
34.099192
 30
0.0
  0
VERTEX
  5
233
330
22A
100
AcDbEntity
  8
001
 62
     5
370
    50
100
AcDbVertex
100
AcDb2dVertex
 10
54.57802
 20
34.074943
 30
0.0
  0
VERTEX
  5
234
330
22A
100
AcDbEntity
  8
001
 62
     5
370
    50
100
AcDbVertex
100
AcDb2dVertex
 10
54.577022
 20
34.05057
 30
0.0
  0
VERTEX
  5
235
330
22A
100
AcDbEntity
  8
001
 62
     5
370
    50
100
AcDbVertex
100
AcDb2dVertex
 10
54.578114
 20
34.026179
 30
0.0
  0
VERTEX
  5
236
330
22A
100
AcDbEntity
  8
001
 62
     5
370
    50
100
AcDbVertex
100
AcDb2dVertex
 10
54.58125
 20
34.001949
 30
0.0
  0
VERTEX
  5
237
330
22A
100
AcDbEntity
  8
001
 62
     5
370
    50
100
AcDbVertex
100
AcDb2dVertex
 10
54.593577
 20
33.954917
 30
0.0
  0
VERTEX
  5
238
330
22A
100
AcDbEntity
  8
001
 62
     5
370
    50
100
AcDbVertex
100
AcDb2dVertex
 10
54.614309
 20
33.91057
 30
0.0
  0
VERTEX
  5
239
330
22A
100
AcDbEntity
  8
001
 62
     5
370
    50
100
AcDbVertex
100
AcDb2dVertex
 10
54.659873
 20
33.852451
 30
0.0
  0
VERTEX
  5
23A
330
22A
100
AcDbEntity
  8
001
 62
     5
370
    50
100
AcDbVertex
100
AcDb2dVertex
 10
54.716182
 20
33.808083
 30
0.0
  0
VERTEX
  5
23B
330
22A
100
AcDbEntity
  8
001
 62
     5
370
    50
100
AcDbVertex
100
AcDb2dVertex
 10
54.736548
 20
33.797006
 30
0.0
  0
VERTEX
  5
23C
330
22A
100
AcDbEntity
  8
001
 62
     5
370
    50
100
AcDbVertex
100
AcDb2dVertex
 10
54.76015
 20
33.787456
 30
0.0
  0
VERTEX
  5
23D
330
22A
100
AcDbEntity
  8
001
 62
     5
370
    50
100
AcDbVertex
100
AcDb2dVertex
 10
54.785464
 20
33.779829
 30
0.0
  0
VERTEX
  5
23E
330
22A
100
AcDbEntity
  8
001
 62
     5
370
    50
100
AcDbVertex
100
AcDb2dVertex
 10
54.804075
 20
33.775361
 30
0.0
  0
SEQEND
  5
22B
330
22A
100
AcDbEntity
  8
001
370
    50
  0
POLYLINE
  5
23F
330
1B6
100
AcDbEntity
  8
001
 62
     5
370
    50
100
AcDb2dPolyline
 66
     1
 10
0.0
 20
0.0
 30
0.0
  0
VERTEX
  5
241
330
23F
100
AcDbEntity
  8
001
 62
     5
370
    50
100
AcDbVertex
100
AcDb2dVertex
 10
55.228146
 20
33.179789
 30
0.0
  0
VERTEX
  5
242
330
23F
100
AcDbEntity
  8
001
 62
     5
370
    50
100
AcDbVertex
100
AcDb2dVertex
 10
55.231276
 20
33.211187
 30
0.0
  0
VERTEX
  5
243
330
23F
100
AcDbEntity
  8
001
 62
     5
370
    50
100
AcDbVertex
100
AcDb2dVertex
 10
55.233467
 20
33.254899
 30
0.0
  0
VERTEX
  5
244
330
23F
100
AcDbEntity
  8
001
 62
     5
370
    50
100
AcDbVertex
100
AcDb2dVertex
 10
55.231762
 20
33.303349
 30
0.0
  0
VERTEX
  5
245
330
23F
100
AcDbEntity
  8
001
 62
     5
370
    50
100
AcDbVertex
100
AcDb2dVertex
 10
55.225471
 20
33.34685
 30
0.0
  0
VERTEX
  5
246
330
23F
100
AcDbEntity
  8
001
 62
     5
370
    50
100
AcDbVertex
100
AcDb2dVertex
 10
55.201914
 20
33.434224
 30
0.0
  0
VERTEX
  5
247
330
23F
100
AcDbEntity
  8
001
 62
     5
370
    50
100
AcDbVertex
100
AcDb2dVertex
 10
55.162951
 20
33.51966
 30
0.0
  0
VERTEX
  5
248
330
23F
100
AcDbEntity
  8
001
 62
     5
370
    50
100
AcDbVertex
100
AcDb2dVertex
 10
55.07688
 20
33.630198
 30
0.0
  0
VERTEX
  5
249
330
23F
100
AcDbEntity
  8
001
 62
     5
370
    50
100
AcDbVertex
100
AcDb2dVertex
 10
54.970295
 20
33.713479
 30
0.0
  0
VERTEX
  5
24A
330
23F
100
AcDbEntity
  8
001
 62
     5
370
    50
100
AcDbVertex
100
AcDb2dVertex
 10
54.931774
 20
33.734396
 30
0.0
  0
VERTEX
  5
24B
330
23F
100
AcDbEntity
  8
001
 62
     5
370
    50
100
AcDbVertex
100
AcDb2dVertex
 10
54.887143
 20
33.752488
 30
0.0
  0
VERTEX
  5
24C
330
23F
100
AcDbEntity
  8
001
 62
     5
370
    50
100
AcDbVertex
100
AcDb2dVertex
 10
54.839271
 20
33.766917
 30
0.0
  0
VERTEX
  5
24D
330
23F
100
AcDbEntity
  8
001
 62
     5
370
    50
100
AcDbVertex
100
AcDb2dVertex
 10
54.804075
 20
33.775361
 30
0.0
  0
SEQEND
  5
240
330
23F
100
AcDbEntity
  8
001
370
    50
  0
POLYLINE
  5
24E
330
1B6
100
AcDbEntity
  8
001
 62
     5
370
    50
100
AcDb2dPolyline
 66
     1
 10
0.0
 20
0.0
 30
0.0
  0
VERTEX
  5
250
330
24E
100
AcDbEntity
  8
001
 62
     5
370
    50
100
AcDbVertex
100
AcDb2dVertex
 10
55.503651
 20
32.860073
 30
0.0
  0
VERTEX
  5
251
330
24E
100
AcDbEntity
  8
001
 62
     5
370
    50
100
AcDbVertex
100
AcDb2dVertex
 10
55.524029
 20
32.86111
 30
0.0
  0
VERTEX
  5
252
330
24E
100
AcDbEntity
  8
001
 62
     5
370
    50
100
AcDbVertex
100
AcDb2dVertex
 10
55.551981
 20
32.864327
 30
0.0
  0
VERTEX
  5
253
330
24E
100
AcDbEntity
  8
001
 62
     5
370
    50
100
AcDbVertex
100
AcDb2dVertex
 10
55.576852
 20
32.869762
 30
0.0
  0
VERTEX
  5
254
330
24E
100
AcDbEntity
  8
001
 62
     5
370
    50
100
AcDbVertex
100
AcDb2dVertex
 10
55.598842
 20
32.876959
 30
0.0
  0
VERTEX
  5
255
330
24E
100
AcDbEntity
  8
001
 62
     5
370
    50
100
AcDbVertex
100
AcDb2dVertex
 10
55.620506
 20
32.88575
 30
0.0
  0
VERTEX
  5
256
330
24E
100
AcDbEntity
  8
001
 62
     5
370
    50
100
AcDbVertex
100
AcDb2dVertex
 10
55.642811
 20
32.897586
 30
0.0
  0
VERTEX
  5
257
330
24E
100
AcDbEntity
  8
001
 62
     5
370
    50
100
AcDbVertex
100
AcDb2dVertex
 10
55.686098
 20
32.929986
 30
0.0
  0
VERTEX
  5
258
330
24E
100
AcDbEntity
  8
001
 62
     5
370
    50
100
AcDbVertex
100
AcDb2dVertex
 10
55.714926
 20
32.957802
 30
0.0
  0
SEQEND
  5
24F
330
24E
100
AcDbEntity
  8
001
370
    50
  0
POLYLINE
  5
259
330
1B6
100
AcDbEntity
  8
001
 62
     5
370
    50
100
AcDb2dPolyline
 66
     1
 10
0.0
 20
0.0
 30
0.0
  0
VERTEX
  5
25B
330
259
100
AcDbEntity
  8
001
 62
     5
370
    50
100
AcDbVertex
100
AcDb2dVertex
 10
56.439647
 20
33.029489
 30
0.0
  0
VERTEX
  5
25C
330
259
100
AcDbEntity
  8
001
 62
     5
370
    50
100
AcDbVertex
100
AcDb2dVertex
 10
56.414239
 20
33.047926
 30
0.0
  0
VERTEX
  5
25D
330
259
100
AcDbEntity
  8
001
 62
     5
370
    50
100
AcDbVertex
100
AcDb2dVertex
 10
56.377651
 20
33.071681
 30
0.0
  0
VERTEX
  5
25E
330
259
100
AcDbEntity
  8
001
 62
     5
370
    50
100
AcDbVertex
100
AcDb2dVertex
 10
56.334759
 20
33.094326
 30
0.0
  0
VERTEX
  5
25F
330
259
100
AcDbEntity
  8
001
 62
     5
370
    50
100
AcDbVertex
100
AcDb2dVertex
 10
56.294499
 20
33.110689
 30
0.0
  0
VERTEX
  5
260
330
259
100
AcDbEntity
  8
001
 62
     5
370
    50
100
AcDbVertex
100
AcDb2dVertex
 10
56.253099
 20
33.12423
 30
0.0
  0
VERTEX
  5
261
330
259
100
AcDbEntity
  8
001
 62
     5
370
    50
100
AcDbVertex
100
AcDb2dVertex
 10
56.205877
 20
33.134579
 30
0.0
  0
VERTEX
  5
262
330
259
100
AcDbEntity
  8
001
 62
     5
370
    50
100
AcDbVertex
100
AcDb2dVertex
 10
56.152978
 20
33.140676
 30
0.0
  0
VERTEX
  5
263
330
259
100
AcDbEntity
  8
001
 62
     5
370
    50
100
AcDbVertex
100
AcDb2dVertex
 10
56.114478
 20
33.142624
 30
0.0
  0
SEQEND
  5
25A
330
259
100
AcDbEntity
  8
001
370
    50
  0
POLYLINE
  5
264
330
1B6
100
AcDbEntity
  8
001
 62
     5
370
    50
100
AcDb2dPolyline
 66
     1
 10
0.0
 20
0.0
 30
0.0
  0
VERTEX
  5
266
330
264
100
AcDbEntity
  8
001
 62
     5
370
    50
100
AcDbVertex
100
AcDb2dVertex
 10
56.611589
 20
32.969666
 30
0.0
  0
VERTEX
  5
267
330
264
100
AcDbEntity
  8
001
 62
     5
370
    50
100
AcDbVertex
100
AcDb2dVertex
 10
56.63199
 20
32.970731
 30
0.0
  0
VERTEX
  5
268
330
264
100
AcDbEntity
  8
001
 62
     5
370
    50
100
AcDbVertex
100
AcDb2dVertex
 10
56.659918
 20
32.97392
 30
0.0
  0
VERTEX
  5
269
330
264
100
AcDbEntity
  8
001
 62
     5
370
    50
100
AcDbVertex
100
AcDb2dVertex
 10
56.684671
 20
32.979216
 30
0.0
  0
VERTEX
  5
26A
330
264
100
AcDbEntity
  8
001
 62
     5
370
    50
100
AcDbVertex
100
AcDb2dVertex
 10
56.70678
 20
32.986552
 30
0.0
  0
VERTEX
  5
26B
330
264
100
AcDbEntity
  8
001
 62
     5
370
    50
100
AcDbVertex
100
AcDb2dVertex
 10
56.728893
 20
32.995876
 30
0.0
  0
VERTEX
  5
26C
330
264
100
AcDbEntity
  8
001
 62
     5
370
    50
100
AcDbVertex
100
AcDb2dVertex
 10
56.750748
 20
33.007179
 30
0.0
  0
VERTEX
  5
26D
330
264
100
AcDbEntity
  8
001
 62
     5
370
    50
100
AcDbVertex
100
AcDb2dVertex
 10
56.808527
 20
33.051847
 30
0.0
  0
VERTEX
  5
26E
330
264
100
AcDbEntity
  8
001
 62
     5
370
    50
100
AcDbVertex
100
AcDb2dVertex
 10
56.852621
 20
33.109666
 30
0.0
  0
VERTEX
  5
26F
330
264
100
AcDbEntity
  8
001
 62
     5
370
    50
100
AcDbVertex
100
AcDb2dVertex
 10
56.873203
 20
33.153788
 30
0.0
  0
VERTEX
  5
270
330
264
100
AcDbEntity
  8
001
 62
     5
370
    50
100
AcDbVertex
100
AcDb2dVertex
 10
56.88568
 20
33.201045
 30
0.0
  0
VERTEX
  5
271
330
264
100
AcDbEntity
  8
001
 62
     5
370
    50
100
AcDbVertex
100
AcDb2dVertex
 10
56.88875
 20
33.225565
 30
0.0
  0
VERTEX
  5
272
330
264
100
AcDbEntity
  8
001
 62
     5
370
    50
100
AcDbVertex
100
AcDb2dVertex
 10
56.889909
 20
33.249666
 30
0.0
  0
VERTEX
  5
273
330
264
100
AcDbEntity
  8
001
 62
     5
370
    50
100
AcDbVertex
100
AcDb2dVertex
 10
56.889203
 20
33.273052
 30
0.0
  0
VERTEX
  5
274
330
264
100
AcDbEntity
  8
001
 62
     5
370
    50
100
AcDbVertex
100
AcDb2dVertex
 10
56.88568
 20
33.298288
 30
0.0
  0
VERTEX
  5
275
330
264
100
AcDbEntity
  8
001
 62
     5
370
    50
100
AcDbVertex
100
AcDb2dVertex
 10
56.879599
 20
33.324138
 30
0.0
  0
VERTEX
  5
276
330
264
100
AcDbEntity
  8
001
 62
     5
370
    50
100
AcDbVertex
100
AcDb2dVertex
 10
56.87413
 20
33.342605
 30
0.0
  0
SEQEND
  5
265
330
264
100
AcDbEntity
  8
001
370
    50
  0
POLYLINE
  5
277
330
1B6
100
AcDbEntity
  8
001
 62
     5
370
    50
100
AcDb2dPolyline
 66
     1
 10
0.0
 20
0.0
 30
0.0
  0
VERTEX
  5
279
330
277
100
AcDbEntity
  8
001
 62
     5
370
    50
100
AcDbVertex
100
AcDb2dVertex
 10
57.17478
 20
34.009863
 30
0.0
  0
VERTEX
  5
27A
330
277
100
AcDbEntity
  8
001
 62
     5
370
    50
100
AcDbVertex
100
AcDb2dVertex
 10
57.146641
 20
33.997092
 30
0.0
  0
VERTEX
  5
27B
330
277
100
AcDbEntity
  8
001
 62
     5
370
    50
100
AcDbVertex
100
AcDb2dVertex
 10
57.107462
 20
33.976945
 30
0.0
  0
VERTEX
  5
27C
330
277
100
AcDbEntity
  8
001
 62
     5
370
    50
100
AcDbVertex
100
AcDb2dVertex
 10
56.991086
 20
33.889395
 30
0.0
  0
VERTEX
  5
27D
330
277
100
AcDbEntity
  8
001
 62
     5
370
    50
100
AcDbVertex
100
AcDb2dVertex
 10
56.914807
 20
33.783126
 30
0.0
  0
VERTEX
  5
27E
330
277
100
AcDbEntity
  8
001
 62
     5
370
    50
100
AcDbVertex
100
AcDb2dVertex
 10
56.876875
 20
33.700115
 30
0.0
  0
VERTEX
  5
27F
330
277
100
AcDbEntity
  8
001
 62
     5
370
    50
100
AcDbVertex
100
AcDb2dVertex
 10
56.852286
 20
33.610316
 30
0.0
  0
VERTEX
  5
280
330
277
100
AcDbEntity
  8
001
 62
     5
370
    50
100
AcDbVertex
100
AcDb2dVertex
 10
56.846383
 20
33.563903
 30
0.0
  0
VERTEX
  5
281
330
277
100
AcDbEntity
  8
001
 62
     5
370
    50
100
AcDbVertex
100
AcDb2dVertex
 10
56.844289
 20
33.518365
 30
0.0
  0
VERTEX
  5
282
330
277
100
AcDbEntity
  8
001
 62
     5
370
    50
100
AcDbVertex
100
AcDb2dVertex
 10
56.845649
 20
33.47415
 30
0.0
  0
VERTEX
  5
283
330
277
100
AcDbEntity
  8
001
 62
     5
370
    50
100
AcDbVertex
100
AcDb2dVertex
 10
56.852286
 20
33.426414
 30
0.0
  0
VERTEX
  5
284
330
277
100
AcDbEntity
  8
001
 62
     5
370
    50
100
AcDbVertex
100
AcDb2dVertex
 10
56.863781
 20
33.377526
 30
0.0
  0
VERTEX
  5
285
330
277
100
AcDbEntity
  8
001
 62
     5
370
    50
100
AcDbVertex
100
AcDb2dVertex
 10
56.87413
 20
33.342605
 30
0.0
  0
SEQEND
  5
278
330
277
100
AcDbEntity
  8
001
370
    50
  0
POLYLINE
  5
286
330
1B6
100
AcDbEntity
  8
001
 62
     5
370
    50
100
AcDb2dPolyline
 66
     1
 10
0.0
 20
0.0
 30
0.0
  0
VERTEX
  5
288
330
286
100
AcDbEntity
  8
001
 62
     5
370
    50
100
AcDbVertex
100
AcDb2dVertex
 10
57.17478
 20
34.009863
 30
0.0
  0
VERTEX
  5
289
330
286
100
AcDbEntity
  8
001
 62
     5
370
    50
100
AcDbVertex
100
AcDb2dVertex
 10
57.189658
 20
34.016619
 30
0.0
  0
VERTEX
  5
28A
330
286
100
AcDbEntity
  8
001
 62
     5
370
    50
100
AcDbVertex
100
AcDb2dVertex
 10
57.210376
 20
34.02727
 30
0.0
  0
VERTEX
  5
28B
330
286
100
AcDbEntity
  8
001
 62
     5
370
    50
100
AcDbVertex
100
AcDb2dVertex
 10
57.271941
 20
34.073488
 30
0.0
  0
VERTEX
  5
28C
330
286
100
AcDbEntity
  8
001
 62
     5
370
    50
100
AcDbVertex
100
AcDb2dVertex
 10
57.312248
 20
34.129757
 30
0.0
  0
VERTEX
  5
28D
330
286
100
AcDbEntity
  8
001
 62
     5
370
    50
100
AcDbVertex
100
AcDb2dVertex
 10
57.332232
 20
34.17385
 30
0.0
  0
VERTEX
  5
28E
330
286
100
AcDbEntity
  8
001
 62
     5
370
    50
100
AcDbVertex
100
AcDb2dVertex
 10
57.345308
 20
34.221135
 30
0.0
  0
VERTEX
  5
28F
330
286
100
AcDbEntity
  8
001
 62
     5
370
    50
100
AcDbVertex
100
AcDb2dVertex
 10
57.348537
 20
34.245384
 30
0.0
  0
VERTEX
  5
290
330
286
100
AcDbEntity
  8
001
 62
     5
370
    50
100
AcDbVertex
100
AcDb2dVertex
 10
57.349536
 20
34.269757
 30
0.0
  0
VERTEX
  5
291
330
286
100
AcDbEntity
  8
001
 62
     5
370
    50
100
AcDbVertex
100
AcDb2dVertex
 10
57.348443
 20
34.294148
 30
0.0
  0
VERTEX
  5
292
330
286
100
AcDbEntity
  8
001
 62
     5
370
    50
100
AcDbVertex
100
AcDb2dVertex
 10
57.345308
 20
34.318378
 30
0.0
  0
VERTEX
  5
293
330
286
100
AcDbEntity
  8
001
 62
     5
370
    50
100
AcDbVertex
100
AcDb2dVertex
 10
57.33298
 20
34.36541
 30
0.0
  0
VERTEX
  5
294
330
286
100
AcDbEntity
  8
001
 62
     5
370
    50
100
AcDbVertex
100
AcDb2dVertex
 10
57.312248
 20
34.409757
 30
0.0
  0
VERTEX
  5
295
330
286
100
AcDbEntity
  8
001
 62
     5
370
    50
100
AcDbVertex
100
AcDb2dVertex
 10
57.266684
 20
34.467876
 30
0.0
  0
VERTEX
  5
296
330
286
100
AcDbEntity
  8
001
 62
     5
370
    50
100
AcDbVertex
100
AcDb2dVertex
 10
57.210376
 20
34.512244
 30
0.0
  0
VERTEX
  5
297
330
286
100
AcDbEntity
  8
001
 62
     5
370
    50
100
AcDbVertex
100
AcDb2dVertex
 10
57.19001
 20
34.523321
 30
0.0
  0
VERTEX
  5
298
330
286
100
AcDbEntity
  8
001
 62
     5
370
    50
100
AcDbVertex
100
AcDb2dVertex
 10
57.166407
 20
34.532871
 30
0.0
  0
VERTEX
  5
299
330
286
100
AcDbEntity
  8
001
 62
     5
370
    50
100
AcDbVertex
100
AcDb2dVertex
 10
57.141093
 20
34.540497
 30
0.0
  0
VERTEX
  5
29A
330
286
100
AcDbEntity
  8
001
 62
     5
370
    50
100
AcDbVertex
100
AcDb2dVertex
 10
57.122483
 20
34.544966
 30
0.0
  0
SEQEND
  5
287
330
286
100
AcDbEntity
  8
001
370
    50
  0
POLYLINE
  5
29B
330
1B6
100
AcDbEntity
  8
001
 62
     5
370
    50
100
AcDb2dPolyline
 66
     1
 10
0.0
 20
0.0
 30
0.0
  0
VERTEX
  5
29D
330
29B
100
AcDbEntity
  8
001
 62
     5
370
    50
100
AcDbVertex
100
AcDb2dVertex
 10
56.698412
 20
35.140537
 30
0.0
  0
VERTEX
  5
29E
330
29B
100
AcDbEntity
  8
001
 62
     5
370
    50
100
AcDbVertex
100
AcDb2dVertex
 10
56.695281
 20
35.109139
 30
0.0
  0
VERTEX
  5
29F
330
29B
100
AcDbEntity
  8
001
 62
     5
370
    50
100
AcDbVertex
100
AcDb2dVertex
 10
56.69309
 20
35.065428
 30
0.0
  0
VERTEX
  5
2A0
330
29B
100
AcDbEntity
  8
001
 62
     5
370
    50
100
AcDbVertex
100
AcDb2dVertex
 10
56.694795
 20
35.016978
 30
0.0
  0
VERTEX
  5
2A1
330
29B
100
AcDbEntity
  8
001
 62
     5
370
    50
100
AcDbVertex
100
AcDb2dVertex
 10
56.701087
 20
34.973477
 30
0.0
  0
VERTEX
  5
2A2
330
29B
100
AcDbEntity
  8
001
 62
     5
370
    50
100
AcDbVertex
100
AcDb2dVertex
 10
56.724644
 20
34.886103
 30
0.0
  0
VERTEX
  5
2A3
330
29B
100
AcDbEntity
  8
001
 62
     5
370
    50
100
AcDbVertex
100
AcDb2dVertex
 10
56.763607
 20
34.800666
 30
0.0
  0
VERTEX
  5
2A4
330
29B
100
AcDbEntity
  8
001
 62
     5
370
    50
100
AcDbVertex
100
AcDb2dVertex
 10
56.849678
 20
34.690128
 30
0.0
  0
VERTEX
  5
2A5
330
29B
100
AcDbEntity
  8
001
 62
     5
370
    50
100
AcDbVertex
100
AcDb2dVertex
 10
56.956263
 20
34.606848
 30
0.0
  0
VERTEX
  5
2A6
330
29B
100
AcDbEntity
  8
001
 62
     5
370
    50
100
AcDbVertex
100
AcDb2dVertex
 10
56.994784
 20
34.585931
 30
0.0
  0
VERTEX
  5
2A7
330
29B
100
AcDbEntity
  8
001
 62
     5
370
    50
100
AcDbVertex
100
AcDb2dVertex
 10
57.039415
 20
34.567839
 30
0.0
  0
VERTEX
  5
2A8
330
29B
100
AcDbEntity
  8
001
 62
     5
370
    50
100
AcDbVertex
100
AcDb2dVertex
 10
57.087286
 20
34.55341
 30
0.0
  0
VERTEX
  5
2A9
330
29B
100
AcDbEntity
  8
001
 62
     5
370
    50
100
AcDbVertex
100
AcDb2dVertex
 10
57.122483
 20
34.544966
 30
0.0
  0
SEQEND
  5
29C
330
29B
100
AcDbEntity
  8
001
370
    50
  0
POLYLINE
  5
2AA
330
1B6
100
AcDbEntity
  8
001
 62
     5
370
    50
100
AcDb2dPolyline
 66
     1
 10
0.0
 20
0.0
 30
0.0
  0
VERTEX
  5
2AC
330
2AA
100
AcDbEntity
  8
001
 62
     5
370
    50
100
AcDbVertex
100
AcDb2dVertex
 10
56.439647
 20
33.029489
 30
0.0
  0
VERTEX
  5
2AD
330
2AA
100
AcDbEntity
  8
001
 62
     5
370
    50
100
AcDbVertex
100
AcDb2dVertex
 10
56.453081
 20
33.01974
 30
0.0
  0
VERTEX
  5
2AE
330
2AA
100
AcDbEntity
  8
001
 62
     5
370
    50
100
AcDbVertex
100
AcDb2dVertex
 10
56.472429
 20
33.007179
 30
0.0
  0
VERTEX
  5
2AF
330
2AA
100
AcDbEntity
  8
001
 62
     5
370
    50
100
AcDbVertex
100
AcDb2dVertex
 10
56.495109
 20
32.995205
 30
0.0
  0
VERTEX
  5
2B0
330
2AA
100
AcDbEntity
  8
001
 62
     5
370
    50
100
AcDbVertex
100
AcDb2dVertex
 10
56.516397
 20
32.986553
 30
0.0
  0
VERTEX
  5
2B1
330
2AA
100
AcDbEntity
  8
001
 62
     5
370
    50
100
AcDbVertex
100
AcDb2dVertex
 10
56.538289
 20
32.979392
 30
0.0
  0
VERTEX
  5
2B2
330
2AA
100
AcDbEntity
  8
001
 62
     5
370
    50
100
AcDbVertex
100
AcDb2dVertex
 10
56.563259
 20
32.97392
 30
0.0
  0
VERTEX
  5
2B3
330
2AA
100
AcDbEntity
  8
001
 62
     5
370
    50
100
AcDbVertex
100
AcDb2dVertex
 10
56.591231
 20
32.970696
 30
0.0
  0
VERTEX
  5
2B4
330
2AA
100
AcDbEntity
  8
001
 62
     5
370
    50
100
AcDbVertex
100
AcDb2dVertex
 10
56.611589
 20
32.969666
 30
0.0
  0
SEQEND
  5
2AB
330
2AA
100
AcDbEntity
  8
001
370
    50
  0
POLYLINE
  5
2B5
330
1B6
100
AcDbEntity
  8
001
 62
     5
370
    50
100
AcDb2dPolyline
 66
     1
 10
0.0
 20
0.0
 30
0.0
  0
VERTEX
  5
2B7
330
2B5
100
AcDbEntity
  8
001
 62
     5
370
    50
100
AcDbVertex
100
AcDb2dVertex
 10
56.570119
 20
33.029489
 30
0.0
  0
VERTEX
  5
2B8
330
2B5
100
AcDbEntity
  8
001
 62
     5
370
    50
100
AcDbVertex
100
AcDb2dVertex
 10
56.583775
 20
33.019691
 30
0.0
  0
VERTEX
  5
2B9
330
2B5
100
AcDbEntity
  8
001
 62
     5
370
    50
100
AcDbVertex
100
AcDb2dVertex
 10
56.602901
 20
33.007179
 30
0.0
  0
VERTEX
  5
2BA
330
2B5
100
AcDbEntity
  8
001
 62
     5
370
    50
100
AcDbVertex
100
AcDb2dVertex
 10
56.624107
 20
32.995533
 30
0.0
  0
VERTEX
  5
2BB
330
2B5
100
AcDbEntity
  8
001
 62
     5
370
    50
100
AcDbVertex
100
AcDb2dVertex
 10
56.64687
 20
32.986552
 30
0.0
  0
VERTEX
  5
2BC
330
2B5
100
AcDbEntity
  8
001
 62
     5
370
    50
100
AcDbVertex
100
AcDb2dVertex
 10
56.664142
 20
32.981046
 30
0.0
  0
VERTEX
  5
2BD
330
2B5
100
AcDbEntity
  8
001
 62
     5
370
    50
100
AcDbVertex
100
AcDb2dVertex
 10
56.676825
 20
32.977467
 30
0.0
  0
SEQEND
  5
2B6
330
2B5
100
AcDbEntity
  8
001
370
    50
  0
POLYLINE
  5
2BE
330
1B6
100
AcDbEntity
  8
001
 62
     5
370
    50
100
AcDb2dPolyline
 66
     1
 10
0.0
 20
0.0
 30
0.0
  0
VERTEX
  5
2C0
330
2BE
100
AcDbEntity
  8
001
 62
     5
370
    50
100
AcDbVertex
100
AcDb2dVertex
 10
56.698412
 20
35.140537
 30
0.0
  0
VERTEX
  5
2C1
330
2BE
100
AcDbEntity
  8
001
 62
     5
370
    50
100
AcDbVertex
100
AcDb2dVertex
 10
56.700065
 20
35.15714
 30
0.0
  0
VERTEX
  5
2C2
330
2BE
100
AcDbEntity
  8
001
 62
     5
370
    50
100
AcDbVertex
100
AcDb2dVertex
 10
56.701226
 20
35.180254
 30
0.0
  0
VERTEX
  5
2C3
330
2BE
100
AcDbEntity
  8
001
 62
     5
370
    50
100
AcDbVertex
100
AcDb2dVertex
 10
56.700344
 20
35.20587
 30
0.0
  0
VERTEX
  5
2C4
330
2BE
100
AcDbEntity
  8
001
 62
     5
370
    50
100
AcDbVertex
100
AcDb2dVertex
 10
56.696998
 20
35.228875
 30
0.0
  0
VERTEX
  5
2C5
330
2BE
100
AcDbEntity
  8
001
 62
     5
370
    50
100
AcDbVertex
100
AcDb2dVertex
 10
56.684333
 20
35.275108
 30
0.0
  0
VERTEX
  5
2C6
330
2BE
100
AcDbEntity
  8
001
 62
     5
370
    50
100
AcDbVertex
100
AcDb2dVertex
 10
56.663938
 20
35.320254
 30
0.0
  0
VERTEX
  5
2C7
330
2BE
100
AcDbEntity
  8
001
 62
     5
370
    50
100
AcDbVertex
100
AcDb2dVertex
 10
56.619919
 20
35.378481
 30
0.0
  0
VERTEX
  5
2C8
330
2BE
100
AcDbEntity
  8
001
 62
     5
370
    50
100
AcDbVertex
100
AcDb2dVertex
 10
56.562066
 20
35.422741
 30
0.0
  0
VERTEX
  5
2C9
330
2BE
100
AcDbEntity
  8
001
 62
     5
370
    50
100
AcDbVertex
100
AcDb2dVertex
 10
56.540207
 20
35.434023
 30
0.0
  0
VERTEX
  5
2CA
330
2BE
100
AcDbEntity
  8
001
 62
     5
370
    50
100
AcDbVertex
100
AcDb2dVertex
 10
56.518097
 20
35.443368
 30
0.0
  0
VERTEX
  5
2CB
330
2BE
100
AcDbEntity
  8
001
 62
     5
370
    50
100
AcDbVertex
100
AcDb2dVertex
 10
56.49599
 20
35.45071
 30
0.0
  0
VERTEX
  5
2CC
330
2BE
100
AcDbEntity
  8
001
 62
     5
370
    50
100
AcDbVertex
100
AcDb2dVertex
 10
56.471236
 20
35.456
 30
0.0
  0
VERTEX
  5
2CD
330
2BE
100
AcDbEntity
  8
001
 62
     5
370
    50
100
AcDbVertex
100
AcDb2dVertex
 10
56.443307
 20
35.459188
 30
0.0
  0
VERTEX
  5
2CE
330
2BE
100
AcDbEntity
  8
001
 62
     5
370
    50
100
AcDbVertex
100
AcDb2dVertex
 10
56.422906
 20
35.460254
 30
0.0
  0
SEQEND
  5
2BF
330
2BE
100
AcDbEntity
  8
001
370
    50
  0
POLYLINE
  5
2CF
330
1B6
100
AcDbEntity
  8
001
 62
     5
370
    50
100
AcDb2dPolyline
 66
     1
 10
0.0
 20
0.0
 30
0.0
  0
VERTEX
  5
2D1
330
2CF
100
AcDbEntity
  8
001
 62
     5
370
    50
100
AcDbVertex
100
AcDb2dVertex
 10
56.488143
 20
35.452454
 30
0.0
  0
VERTEX
  5
2D2
330
2CF
100
AcDbEntity
  8
001
 62
     5
370
    50
100
AcDbVertex
100
AcDb2dVertex
 10
56.475513
 20
35.448892
 30
0.0
  0
VERTEX
  5
2D3
330
2CF
100
AcDbEntity
  8
001
 62
     5
370
    50
100
AcDbVertex
100
AcDb2dVertex
 10
56.458188
 20
35.443368
 30
0.0
  0
VERTEX
  5
2D4
330
2CF
100
AcDbEntity
  8
001
 62
     5
370
    50
100
AcDbVertex
100
AcDb2dVertex
 10
56.434919
 20
35.434224
 30
0.0
  0
VERTEX
  5
2D5
330
2CF
100
AcDbEntity
  8
001
 62
     5
370
    50
100
AcDbVertex
100
AcDb2dVertex
 10
56.414219
 20
35.422741
 30
0.0
  0
VERTEX
  5
2D6
330
2CF
100
AcDbEntity
  8
001
 62
     5
370
    50
100
AcDbVertex
100
AcDb2dVertex
 10
56.371703
 20
35.39051
 30
0.0
  0
VERTEX
  5
2D7
330
2CF
100
AcDbEntity
  8
001
 62
     5
370
    50
100
AcDbVertex
100
AcDb2dVertex
 10
56.342104
 20
35.362524
 30
0.0
  0
SEQEND
  5
2D0
330
2CF
100
AcDbEntity
  8
001
370
    50
  0
POLYLINE
  5
2D8
330
1B6
100
AcDbEntity
  8
001
 62
     5
370
    50
100
AcDb2dPolyline
 66
     1
 10
0.0
 20
0.0
 30
0.0
  0
VERTEX
  5
2DA
330
2D8
100
AcDbEntity
  8
001
 62
     5
370
    50
100
AcDbVertex
100
AcDb2dVertex
 10
56.114478
 20
33.142624
 30
0.0
  0
VERTEX
  5
2DB
330
2D8
100
AcDbEntity
  8
001
 62
     5
370
    50
100
AcDbVertex
100
AcDb2dVertex
 10
56.075941
 20
33.140663
 30
0.0
  0
VERTEX
  5
2DC
330
2D8
100
AcDbEntity
  8
001
 62
     5
370
    50
100
AcDbVertex
100
AcDb2dVertex
 10
56.023079
 20
33.134579
 30
0.0
  0
VERTEX
  5
2DD
330
2D8
100
AcDbEntity
  8
001
 62
     5
370
    50
100
AcDbVertex
100
AcDb2dVertex
 10
55.976044
 20
33.124299
 30
0.0
  0
VERTEX
  5
2DE
330
2D8
100
AcDbEntity
  8
001
 62
     5
370
    50
100
AcDbVertex
100
AcDb2dVertex
 10
55.934457
 20
33.110689
 30
0.0
  0
VERTEX
  5
2DF
330
2D8
100
AcDbEntity
  8
001
 62
     5
370
    50
100
AcDbVertex
100
AcDb2dVertex
 10
55.893489
 20
33.094065
 30
0.0
  0
VERTEX
  5
2E0
330
2D8
100
AcDbEntity
  8
001
 62
     5
370
    50
100
AcDbVertex
100
AcDb2dVertex
 10
55.851305
 20
33.071681
 30
0.0
  0
VERTEX
  5
2E1
330
2D8
100
AcDbEntity
  8
001
 62
     5
370
    50
100
AcDbVertex
100
AcDb2dVertex
 10
55.769444
 20
33.010407
 30
0.0
  0
VERTEX
  5
2E2
330
2D8
100
AcDbEntity
  8
001
 62
     5
370
    50
100
AcDbVertex
100
AcDb2dVertex
 10
55.714926
 20
32.957802
 30
0.0
  0
SEQEND
  5
2D9
330
2D8
100
AcDbEntity
  8
001
370
    50
  0
POLYLINE
  5
2E3
330
1B6
100
AcDbEntity
  8
001
 62
     5
370
    50
100
AcDb2dPolyline
 66
     1
 10
0.0
 20
0.0
 30
0.0
  0
VERTEX
  5
2E5
330
2E3
100
AcDbEntity
  8
001
 62
     5
370
    50
100
AcDbVertex
100
AcDb2dVertex
 10
56.570119
 20
33.029489
 30
0.0
  0
VERTEX
  5
2E6
330
2E3
100
AcDbEntity
  8
001
 62
     5
370
    50
100
AcDbVertex
100
AcDb2dVertex
 10
56.544712
 20
33.047926
 30
0.0
  0
VERTEX
  5
2E7
330
2E3
100
AcDbEntity
  8
001
 62
     5
370
    50
100
AcDbVertex
100
AcDb2dVertex
 10
56.508124
 20
33.071681
 30
0.0
  0
VERTEX
  5
2E8
330
2E3
100
AcDbEntity
  8
001
 62
     5
370
    50
100
AcDbVertex
100
AcDb2dVertex
 10
56.465232
 20
33.094326
 30
0.0
  0
VERTEX
  5
2E9
330
2E3
100
AcDbEntity
  8
001
 62
     5
370
    50
100
AcDbVertex
100
AcDb2dVertex
 10
56.424972
 20
33.110689
 30
0.0
  0
VERTEX
  5
2EA
330
2E3
100
AcDbEntity
  8
001
 62
     5
370
    50
100
AcDbVertex
100
AcDb2dVertex
 10
56.383572
 20
33.12423
 30
0.0
  0
VERTEX
  5
2EB
330
2E3
100
AcDbEntity
  8
001
 62
     5
370
    50
100
AcDbVertex
100
AcDb2dVertex
 10
56.33635
 20
33.134579
 30
0.0
  0
VERTEX
  5
2EC
330
2E3
100
AcDbEntity
  8
001
 62
     5
370
    50
100
AcDbVertex
100
AcDb2dVertex
 10
56.28345
 20
33.140676
 30
0.0
  0
VERTEX
  5
2ED
330
2E3
100
AcDbEntity
  8
001
 62
     5
370
    50
100
AcDbVertex
100
AcDb2dVertex
 10
56.244951
 20
33.142623
 30
0.0
  0
SEQEND
  5
2E4
330
2E3
100
AcDbEntity
  8
001
370
    50
  0
LINE
  5
2EE
330
1B6
100
AcDbEntity
  8
001
 62
     5
370
    50
100
AcDbLine
 10
56.244951
 20
33.142623
 30
0.0
 11
56.114478
 21
33.142624
 31
0.0
  0
POLYLINE
  5
2EF
330
1B6
100
AcDbEntity
  8
001
 62
     5
370
    50
100
AcDb2dPolyline
 66
     1
 10
0.0
 20
0.0
 30
0.0
  0
VERTEX
  5
2F1
330
2EF
100
AcDbEntity
  8
001
 62
     5
370
    50
100
AcDbVertex
100
AcDb2dVertex
 10
55.812079
 20
35.177703
 30
0.0
  0
VERTEX
  5
2F2
330
2EF
100
AcDbEntity
  8
001
 62
     5
370
    50
100
AcDbVertex
100
AcDb2dVertex
 10
55.850616
 20
35.179664
 30
0.0
  0
VERTEX
  5
2F3
330
2EF
100
AcDbEntity
  8
001
 62
     5
370
    50
100
AcDbVertex
100
AcDb2dVertex
 10
55.903478
 20
35.185748
 30
0.0
  0
VERTEX
  5
2F4
330
2EF
100
AcDbEntity
  8
001
 62
     5
370
    50
100
AcDbVertex
100
AcDb2dVertex
 10
55.950514
 20
35.196027
 30
0.0
  0
VERTEX
  5
2F5
330
2EF
100
AcDbEntity
  8
001
 62
     5
370
    50
100
AcDbVertex
100
AcDb2dVertex
 10
55.9921
 20
35.209637
 30
0.0
  0
VERTEX
  5
2F6
330
2EF
100
AcDbEntity
  8
001
 62
     5
370
    50
100
AcDbVertex
100
AcDb2dVertex
 10
56.033069
 20
35.226262
 30
0.0
  0
VERTEX
  5
2F7
330
2EF
100
AcDbEntity
  8
001
 62
     5
370
    50
100
AcDbVertex
100
AcDb2dVertex
 10
56.075252
 20
35.248646
 30
0.0
  0
VERTEX
  5
2F8
330
2EF
100
AcDbEntity
  8
001
 62
     5
370
    50
100
AcDbVertex
100
AcDb2dVertex
 10
56.157114
 20
35.30992
 30
0.0
  0
VERTEX
  5
2F9
330
2EF
100
AcDbEntity
  8
001
 62
     5
370
    50
100
AcDbVertex
100
AcDb2dVertex
 10
56.211632
 20
35.362524
 30
0.0
  0
SEQEND
  5
2F0
330
2EF
100
AcDbEntity
  8
001
370
    50
  0
LINE
  5
2FA
330
1B6
100
AcDbEntity
  8
001
 62
     5
370
    50
100
AcDbLine
 10
55.812079
 20
35.177703
 30
0.0
 11
55.942552
 21
35.177703
 31
0.0
  0
POLYLINE
  5
2FB
330
1B6
100
AcDbEntity
  8
001
 62
     5
370
    50
100
AcDb2dPolyline
 66
     1
 10
0.0
 20
0.0
 30
0.0
  0
VERTEX
  5
2FD
330
2FB
100
AcDbEntity
  8
001
 62
     5
370
    50
100
AcDbVertex
100
AcDb2dVertex
 10
55.942552
 20
35.177703
 30
0.0
  0
VERTEX
  5
2FE
330
2FB
100
AcDbEntity
  8
001
 62
     5
370
    50
100
AcDbVertex
100
AcDb2dVertex
 10
55.981089
 20
35.179664
 30
0.0
  0
VERTEX
  5
2FF
330
2FB
100
AcDbEntity
  8
001
 62
     5
370
    50
100
AcDbVertex
100
AcDb2dVertex
 10
56.033951
 20
35.185748
 30
0.0
  0
VERTEX
  5
300
330
2FB
100
AcDbEntity
  8
001
 62
     5
370
    50
100
AcDbVertex
100
AcDb2dVertex
 10
56.080987
 20
35.196027
 30
0.0
  0
VERTEX
  5
301
330
2FB
100
AcDbEntity
  8
001
 62
     5
370
    50
100
AcDbVertex
100
AcDb2dVertex
 10
56.122573
 20
35.209637
 30
0.0
  0
VERTEX
  5
302
330
2FB
100
AcDbEntity
  8
001
 62
     5
370
    50
100
AcDbVertex
100
AcDb2dVertex
 10
56.163541
 20
35.226262
 30
0.0
  0
VERTEX
  5
303
330
2FB
100
AcDbEntity
  8
001
 62
     5
370
    50
100
AcDbVertex
100
AcDb2dVertex
 10
56.205725
 20
35.248646
 30
0.0
  0
VERTEX
  5
304
330
2FB
100
AcDbEntity
  8
001
 62
     5
370
    50
100
AcDbVertex
100
AcDb2dVertex
 10
56.287586
 20
35.309919
 30
0.0
  0
VERTEX
  5
305
330
2FB
100
AcDbEntity
  8
001
 62
     5
370
    50
100
AcDbVertex
100
AcDb2dVertex
 10
56.342104
 20
35.362524
 30
0.0
  0
SEQEND
  5
2FC
330
2FB
100
AcDbEntity
  8
001
370
    50
  0
POLYLINE
  5
306
330
1B6
100
AcDbEntity
  8
001
 62
     5
370
    50
100
AcDb2dPolyline
 66
     1
 10
0.0
 20
0.0
 30
0.0
  0
VERTEX
  5
308
330
306
100
AcDbEntity
  8
001
 62
     5
370
    50
100
AcDbVertex
100
AcDb2dVertex
 10
56.017969
 20
32.110163
 30
0.0
  0
VERTEX
  5
309
330
306
100
AcDbEntity
  8
001
 62
     5
370
    50
100
AcDbVertex
100
AcDb2dVertex
 10
56.167333
 20
32.117961
 30
0.0
  0
VERTEX
  5
30A
330
306
100
AcDbEntity
  8
001
 62
     5
370
    50
100
AcDbVertex
100
AcDb2dVertex
 10
56.371812
 20
32.141307
 30
0.0
  0
VERTEX
  5
30B
330
306
100
AcDbEntity
  8
001
 62
     5
370
    50
100
AcDbVertex
100
AcDb2dVertex
 10
56.553042
 20
32.180071
 30
0.0
  0
VERTEX
  5
30C
330
306
100
AcDbEntity
  8
001
 62
     5
370
    50
100
AcDbVertex
100
AcDb2dVertex
 10
56.714903
 20
32.233793
 30
0.0
  0
VERTEX
  5
30D
330
306
100
AcDbEntity
  8
001
 62
     5
370
    50
100
AcDbVertex
100
AcDb2dVertex
 10
56.876797
 20
32.302081
 30
0.0
  0
VERTEX
  5
30E
330
306
100
AcDbEntity
  8
001
 62
     5
370
    50
100
AcDbVertex
100
AcDb2dVertex
 10
57.036819
 20
32.384811
 30
0.0
  0
VERTEX
  5
30F
330
306
100
AcDbEntity
  8
001
 62
     5
370
    50
100
AcDbVertex
100
AcDb2dVertex
 10
57.460009
 20
32.71128
 30
0.0
  0
VERTEX
  5
310
330
306
100
AcDbEntity
  8
001
 62
     5
370
    50
100
AcDbVertex
100
AcDb2dVertex
 10
57.782669
 20
33.135163
 30
0.0
  0
VERTEX
  5
311
330
306
100
AcDbEntity
  8
001
 62
     5
370
    50
100
AcDbVertex
100
AcDb2dVertex
 10
57.932933
 20
33.45961
 30
0.0
  0
VERTEX
  5
312
330
306
100
AcDbEntity
  8
001
 62
     5
370
    50
100
AcDbVertex
100
AcDb2dVertex
 10
58.024712
 20
33.804184
 30
0.0
  0
VERTEX
  5
313
330
306
100
AcDbEntity
  8
001
 62
     5
370
    50
100
AcDbVertex
100
AcDb2dVertex
 10
58.047816
 20
33.981615
 30
0.0
  0
VERTEX
  5
314
330
306
100
AcDbEntity
  8
001
 62
     5
370
    50
100
AcDbVertex
100
AcDb2dVertex
 10
58.055669
 20
34.160163
 30
0.0
  0
VERTEX
  5
315
330
306
100
AcDbEntity
  8
001
 62
     5
370
    50
100
AcDbVertex
100
AcDb2dVertex
 10
58.048331
 20
34.338573
 30
0.0
  0
VERTEX
  5
316
330
306
100
AcDbEntity
  8
001
 62
     5
370
    50
100
AcDbVertex
100
AcDb2dVertex
 10
58.024712
 20
34.516141
 30
0.0
  0
VERTEX
  5
317
330
306
100
AcDbEntity
  8
001
 62
     5
370
    50
100
AcDbVertex
100
AcDb2dVertex
 10
57.928843
 20
34.862631
 30
0.0
  0
VERTEX
  5
318
330
306
100
AcDbEntity
  8
001
 62
     5
370
    50
100
AcDbVertex
100
AcDb2dVertex
 10
57.78267
 20
35.185163
 30
0.0
  0
VERTEX
  5
319
330
306
100
AcDbEntity
  8
001
 62
     5
370
    50
100
AcDbVertex
100
AcDb2dVertex
 10
57.48877
 20
35.595078
 30
0.0
  0
VERTEX
  5
31A
330
306
100
AcDbEntity
  8
001
 62
     5
370
    50
100
AcDbVertex
100
AcDb2dVertex
 10
57.03682
 20
35.935515
 30
0.0
  0
VERTEX
  5
31B
330
306
100
AcDbEntity
  8
001
 62
     5
370
    50
100
AcDbVertex
100
AcDb2dVertex
 10
56.9329
 20
35.99104
 30
0.0
  0
VERTEX
  5
31C
330
306
100
AcDbEntity
  8
001
 62
     5
370
    50
100
AcDbVertex
100
AcDb2dVertex
 10
56.859252
 20
36.027293
 30
0.0
  0
SEQEND
  5
307
330
306
100
AcDbEntity
  8
001
370
    50
  0
POLYLINE
  5
31D
330
1B6
100
AcDbEntity
  8
001
 62
     5
370
    50
100
AcDb2dPolyline
 66
     1
 10
0.0
 20
0.0
 30
0.0
  0
VERTEX
  5
31F
330
31D
100
AcDbEntity
  8
001
 62
     5
370
    50
100
AcDbVertex
100
AcDb2dVertex
 10
54.500458
 20
32.756069
 30
0.0
  0
VERTEX
  5
320
330
31D
100
AcDbEntity
  8
001
 62
     5
370
    50
100
AcDbVertex
100
AcDb2dVertex
 10
54.68821
 20
32.586322
 30
0.0
  0
VERTEX
  5
321
330
31D
100
AcDbEntity
  8
001
 62
     5
370
    50
100
AcDbVertex
100
AcDb2dVertex
 10
54.966305
 20
32.384812
 30
0.0
  0
VERTEX
  5
322
330
31D
100
AcDbEntity
  8
001
 62
     5
370
    50
100
AcDbVertex
100
AcDb2dVertex
 10
55.130068
 20
32.297989
 30
0.0
  0
VERTEX
  5
323
330
31D
100
AcDbEntity
  8
001
 62
     5
370
    50
100
AcDbVertex
100
AcDb2dVertex
 10
55.28822
 20
32.233794
 30
0.0
  0
VERTEX
  5
324
330
31D
100
AcDbEntity
  8
001
 62
     5
370
    50
100
AcDbVertex
100
AcDb2dVertex
 10
55.449098
 20
32.181148
 30
0.0
  0
VERTEX
  5
325
330
31D
100
AcDbEntity
  8
001
 62
     5
370
    50
100
AcDbVertex
100
AcDb2dVertex
 10
55.631312
 20
32.141308
 30
0.0
  0
VERTEX
  5
326
330
31D
100
AcDbEntity
  8
001
 62
     5
370
    50
100
AcDbVertex
100
AcDb2dVertex
 10
55.835987
 20
32.117746
 30
0.0
  0
VERTEX
  5
327
330
31D
100
AcDbEntity
  8
001
 62
     5
370
    50
100
AcDbVertex
100
AcDb2dVertex
 10
55.985154
 20
32.110163
 30
0.0
  0
SEQEND
  5
31E
330
31D
100
AcDbEntity
  8
001
370
    50
  0
POLYLINE
  5
328
330
1B6
100
AcDbEntity
  8
001
 62
     5
370
    50
100
AcDb2dPolyline
 66
     1
 10
0.0
 20
0.0
 30
0.0
  0
VERTEX
  5
32A
330
328
100
AcDbEntity
  8
001
 62
     5
370
    50
100
AcDbVertex
100
AcDb2dVertex
 10
55.985154
 20
32.110163
 30
0.0
  0
VERTEX
  5
32B
330
328
100
AcDbEntity
  8
001
 62
     5
370
    50
100
AcDbVertex
100
AcDb2dVertex
 10
56.134519
 20
32.117961
 30
0.0
  0
VERTEX
  5
32C
330
328
100
AcDbEntity
  8
001
 62
     5
370
    50
100
AcDbVertex
100
AcDb2dVertex
 10
56.338997
 20
32.141307
 30
0.0
  0
VERTEX
  5
32D
330
328
100
AcDbEntity
  8
001
 62
     5
370
    50
100
AcDbVertex
100
AcDb2dVertex
 10
56.520228
 20
32.180071
 30
0.0
  0
VERTEX
  5
32E
330
328
100
AcDbEntity
  8
001
 62
     5
370
    50
100
AcDbVertex
100
AcDb2dVertex
 10
56.682089
 20
32.233793
 30
0.0
  0
VERTEX
  5
32F
330
328
100
AcDbEntity
  8
001
 62
     5
370
    50
100
AcDbVertex
100
AcDb2dVertex
 10
56.84398
 20
32.302082
 30
0.0
  0
VERTEX
  5
330
330
328
100
AcDbEntity
  8
001
 62
     5
370
    50
100
AcDbVertex
100
AcDb2dVertex
 10
57.004004
 20
32.384811
 30
0.0
  0
VERTEX
  5
331
330
328
100
AcDbEntity
  8
001
 62
     5
370
    50
100
AcDbVertex
100
AcDb2dVertex
 10
57.427226
 20
32.711265
 30
0.0
  0
VERTEX
  5
332
330
328
100
AcDbEntity
  8
001
 62
     5
370
    50
100
AcDbVertex
100
AcDb2dVertex
 10
57.749854
 20
33.135163
 30
0.0
  0
VERTEX
  5
333
330
328
100
AcDbEntity
  8
001
 62
     5
370
    50
100
AcDbVertex
100
AcDb2dVertex
 10
57.90004
 20
33.459648
 30
0.0
  0
VERTEX
  5
334
330
328
100
AcDbEntity
  8
001
 62
     5
370
    50
100
AcDbVertex
100
AcDb2dVertex
 10
57.991897
 20
33.804184
 30
0.0
  0
VERTEX
  5
335
330
328
100
AcDbEntity
  8
001
 62
     5
370
    50
100
AcDbVertex
100
AcDb2dVertex
 10
58.015118
 20
33.981559
 30
0.0
  0
VERTEX
  5
336
330
328
100
AcDbEntity
  8
001
 62
     5
370
    50
100
AcDbVertex
100
AcDb2dVertex
 10
58.022855
 20
34.160163
 30
0.0
  0
VERTEX
  5
337
330
328
100
AcDbEntity
  8
001
 62
     5
370
    50
100
AcDbVertex
100
AcDb2dVertex
 10
58.015118
 20
34.338767
 30
0.0
  0
VERTEX
  5
338
330
328
100
AcDbEntity
  8
001
 62
     5
370
    50
100
AcDbVertex
100
AcDb2dVertex
 10
57.991898
 20
34.516141
 30
0.0
  0
VERTEX
  5
339
330
328
100
AcDbEntity
  8
001
 62
     5
370
    50
100
AcDbVertex
100
AcDb2dVertex
 10
57.90004
 20
34.860678
 30
0.0
  0
VERTEX
  5
33A
330
328
100
AcDbEntity
  8
001
 62
     5
370
    50
100
AcDbVertex
100
AcDb2dVertex
 10
57.749855
 20
35.185163
 30
0.0
  0
VERTEX
  5
33B
330
328
100
AcDbEntity
  8
001
 62
     5
370
    50
100
AcDbVertex
100
AcDb2dVertex
 10
57.427227
 20
35.609061
 30
0.0
  0
VERTEX
  5
33C
330
328
100
AcDbEntity
  8
001
 62
     5
370
    50
100
AcDbVertex
100
AcDb2dVertex
 10
57.004006
 20
35.935515
 30
0.0
  0
VERTEX
  5
33D
330
328
100
AcDbEntity
  8
001
 62
     5
370
    50
100
AcDbVertex
100
AcDb2dVertex
 10
56.843982
 20
36.018244
 30
0.0
  0
VERTEX
  5
33E
330
328
100
AcDbEntity
  8
001
 62
     5
370
    50
100
AcDbVertex
100
AcDb2dVertex
 10
56.68209
 20
36.086533
 30
0.0
  0
VERTEX
  5
33F
330
328
100
AcDbEntity
  8
001
 62
     5
370
    50
100
AcDbVertex
100
AcDb2dVertex
 10
56.52023
 20
36.140255
 30
0.0
  0
VERTEX
  5
340
330
328
100
AcDbEntity
  8
001
 62
     5
370
    50
100
AcDbVertex
100
AcDb2dVertex
 10
56.338999
 20
36.179019
 30
0.0
  0
VERTEX
  5
341
330
328
100
AcDbEntity
  8
001
 62
     5
370
    50
100
AcDbVertex
100
AcDb2dVertex
 10
56.13452
 20
36.202365
 30
0.0
  0
VERTEX
  5
342
330
328
100
AcDbEntity
  8
001
 62
     5
370
    50
100
AcDbVertex
100
AcDb2dVertex
 10
55.985156
 20
36.210163
 30
0.0
  0
SEQEND
  5
329
330
328
100
AcDbEntity
  8
001
370
    50
  0
LINE
  5
343
330
1B6
100
AcDbEntity
  8
001
 62
     5
370
    50
100
AcDbLine
 10
55.985154
 20
32.110163
 30
0.0
 11
56.017969
 21
32.110163
 31
0.0
  0
LINE
  5
344
330
1B6
100
AcDbEntity
  8
001
 62
     5
370
    50
100
AcDbLine
 10
56.01797
 20
36.210163
 30
0.0
 11
55.985156
 21
36.210163
 31
0.0
  0
POLYLINE
  5
345
330
1B6
100
AcDbEntity
  8
001
 62
     5
370
    50
100
AcDb2dPolyline
 66
     1
 10
0.0
 20
0.0
 30
0.0
  0
VERTEX
  5
347
330
345
100
AcDbEntity
  8
001
 62
     5
370
    50
100
AcDbVertex
100
AcDb2dVertex
 10
56.859252
 20
36.027293
 30
0.0
  0
VERTEX
  5
348
330
345
100
AcDbEntity
  8
001
 62
     5
370
    50
100
AcDbVertex
100
AcDb2dVertex
 10
56.799349
 20
36.052788
 30
0.0
  0
VERTEX
  5
349
330
345
100
AcDbEntity
  8
001
 62
     5
370
    50
100
AcDbVertex
100
AcDb2dVertex
 10
56.714905
 20
36.086533
 30
0.0
  0
VERTEX
  5
34A
330
345
100
AcDbEntity
  8
001
 62
     5
370
    50
100
AcDbVertex
100
AcDb2dVertex
 10
56.542968
 20
36.144445
 30
0.0
  0
VERTEX
  5
34B
330
345
100
AcDbEntity
  8
001
 62
     5
370
    50
100
AcDbVertex
100
AcDb2dVertex
 10
56.371813
 20
36.179019
 30
0.0
  0
VERTEX
  5
34C
330
345
100
AcDbEntity
  8
001
 62
     5
370
    50
100
AcDbVertex
100
AcDb2dVertex
 10
56.169349
 20
36.201528
 30
0.0
  0
VERTEX
  5
34D
330
345
100
AcDbEntity
  8
001
 62
     5
370
    50
100
AcDbVertex
100
AcDb2dVertex
 10
56.01797
 20
36.210163
 30
0.0
  0
SEQEND
  5
346
330
345
100
AcDbEntity
  8
001
370
    50
  0
POLYLINE
  5
34E
330
1B6
100
AcDbEntity
  8
001
 62
     5
370
    50
100
AcDb2dPolyline
 66
     1
 10
0.0
 20
0.0
 30
0.0
  0
VERTEX
  5
350
330
34E
100
AcDbEntity
  8
001
 62
     5
370
    50
100
AcDbVertex
100
AcDb2dVertex
 10
55.228146
 20
33.179789
 30
0.0
  0
VERTEX
  5
351
330
34E
100
AcDbEntity
  8
001
 62
     5
370
    50
100
AcDbVertex
100
AcDb2dVertex
 10
55.226493
 20
33.163186
 30
0.0
  0
VERTEX
  5
352
330
34E
100
AcDbEntity
  8
001
 62
     5
370
    50
100
AcDbVertex
100
AcDb2dVertex
 10
55.225331
 20
33.140073
 30
0.0
  0
VERTEX
  5
353
330
34E
100
AcDbEntity
  8
001
 62
     5
370
    50
100
AcDbVertex
100
AcDb2dVertex
 10
55.226214
 20
33.114457
 30
0.0
  0
VERTEX
  5
354
330
34E
100
AcDbEntity
  8
001
 62
     5
370
    50
100
AcDbVertex
100
AcDb2dVertex
 10
55.22956
 20
33.091452
 30
0.0
  0
VERTEX
  5
355
330
34E
100
AcDbEntity
  8
001
 62
     5
370
    50
100
AcDbVertex
100
AcDb2dVertex
 10
55.242224
 20
33.045219
 30
0.0
  0
VERTEX
  5
356
330
34E
100
AcDbEntity
  8
001
 62
     5
370
    50
100
AcDbVertex
100
AcDb2dVertex
 10
55.262619
 20
33.000073
 30
0.0
  0
VERTEX
  5
357
330
34E
100
AcDbEntity
  8
001
 62
     5
370
    50
100
AcDbVertex
100
AcDb2dVertex
 10
55.306638
 20
32.941845
 30
0.0
  0
VERTEX
  5
358
330
34E
100
AcDbEntity
  8
001
 62
     5
370
    50
100
AcDbVertex
100
AcDb2dVertex
 10
55.364491
 20
32.897586
 30
0.0
  0
VERTEX
  5
359
330
34E
100
AcDbEntity
  8
001
 62
     5
370
    50
100
AcDbVertex
100
AcDb2dVertex
 10
55.386351
 20
32.886304
 30
0.0
  0
VERTEX
  5
35A
330
34E
100
AcDbEntity
  8
001
 62
     5
370
    50
100
AcDbVertex
100
AcDb2dVertex
 10
55.40846
 20
32.876959
 30
0.0
  0
VERTEX
  5
35B
330
34E
100
AcDbEntity
  8
001
 62
     5
370
    50
100
AcDbVertex
100
AcDb2dVertex
 10
55.430567
 20
32.869617
 30
0.0
  0
VERTEX
  5
35C
330
34E
100
AcDbEntity
  8
001
 62
     5
370
    50
100
AcDbVertex
100
AcDb2dVertex
 10
55.455322
 20
32.864327
 30
0.0
  0
VERTEX
  5
35D
330
34E
100
AcDbEntity
  8
001
 62
     5
370
    50
100
AcDbVertex
100
AcDb2dVertex
 10
55.48325
 20
32.861139
 30
0.0
  0
VERTEX
  5
35E
330
34E
100
AcDbEntity
  8
001
 62
     5
370
    50
100
AcDbVertex
100
AcDb2dVertex
 10
55.503651
 20
32.860073
 30
0.0
  0
SEQEND
  5
34F
330
34E
100
AcDbEntity
  8
001
370
    50
  0
POLYLINE
  5
35F
330
1B6
100
AcDbEntity
  8
001
 62
     5
370
    50
100
AcDb2dPolyline
 66
     1
 10
0.0
 20
0.0
 30
0.0
  0
VERTEX
  5
361
330
35F
100
AcDbEntity
  8
001
 62
     5
370
    50
100
AcDbVertex
100
AcDb2dVertex
 10
55.358618
 20
33.179789
 30
0.0
  0
VERTEX
  5
362
330
35F
100
AcDbEntity
  8
001
 62
     5
370
    50
100
AcDbVertex
100
AcDb2dVertex
 10
55.356962
 20
33.163187
 30
0.0
  0
VERTEX
  5
363
330
35F
100
AcDbEntity
  8
001
 62
     5
370
    50
100
AcDbVertex
100
AcDb2dVertex
 10
55.355804
 20
33.140073
 30
0.0
  0
VERTEX
  5
364
330
35F
100
AcDbEntity
  8
001
 62
     5
370
    50
100
AcDbVertex
100
AcDb2dVertex
 10
55.356708
 20
33.114453
 30
0.0
  0
VERTEX
  5
365
330
35F
100
AcDbEntity
  8
001
 62
     5
370
    50
100
AcDbVertex
100
AcDb2dVertex
 10
55.360032
 20
33.091452
 30
0.0
  0
VERTEX
  5
366
330
35F
100
AcDbEntity
  8
001
 62
     5
370
    50
100
AcDbVertex
100
AcDb2dVertex
 10
55.372466
 20
33.045264
 30
0.0
  0
VERTEX
  5
367
330
35F
100
AcDbEntity
  8
001
 62
     5
370
    50
100
AcDbVertex
100
AcDb2dVertex
 10
55.393092
 20
33.000073
 30
0.0
  0
VERTEX
  5
368
330
35F
100
AcDbEntity
  8
001
 62
     5
370
    50
100
AcDbVertex
100
AcDb2dVertex
 10
55.438769
 20
32.941519
 30
0.0
  0
VERTEX
  5
369
330
35F
100
AcDbEntity
  8
001
 62
     5
370
    50
100
AcDbVertex
100
AcDb2dVertex
 10
55.494964
 20
32.897586
 30
0.0
  0
VERTEX
  5
36A
330
35F
100
AcDbEntity
  8
001
 62
     5
370
    50
100
AcDbVertex
100
AcDb2dVertex
 10
55.515169
 20
32.886629
 30
0.0
  0
VERTEX
  5
36B
330
35F
100
AcDbEntity
  8
001
 62
     5
370
    50
100
AcDbVertex
100
AcDb2dVertex
 10
55.538933
 20
32.876959
 30
0.0
  0
VERTEX
  5
36C
330
35F
100
AcDbEntity
  8
001
 62
     5
370
    50
100
AcDbVertex
100
AcDb2dVertex
 10
55.556311
 20
32.871379
 30
0.0
  0
VERTEX
  5
36D
330
35F
100
AcDbEntity
  8
001
 62
     5
370
    50
100
AcDbVertex
100
AcDb2dVertex
 10
55.568888
 20
32.867873
 30
0.0
  0
SEQEND
  5
360
330
35F
100
AcDbEntity
  8
001
370
    50
  0
POLYLINE
  5
36E
330
1B6
100
AcDbEntity
  8
001
 62
     5
370
    50
100
AcDb2dPolyline
 66
     1
 10
0.0
 20
0.0
 30
0.0
  0
VERTEX
  5
370
330
36E
100
AcDbEntity
  8
001
 62
     5
370
    50
100
AcDbVertex
100
AcDb2dVertex
 10
55.486911
 20
35.290838
 30
0.0
  0
VERTEX
  5
371
330
36E
100
AcDbEntity
  8
001
 62
     5
370
    50
100
AcDbVertex
100
AcDb2dVertex
 10
55.473476
 20
35.300587
 30
0.0
  0
VERTEX
  5
372
330
36E
100
AcDbEntity
  8
001
 62
     5
370
    50
100
AcDbVertex
100
AcDb2dVertex
 10
55.454129
 20
35.313148
 30
0.0
  0
VERTEX
  5
373
330
36E
100
AcDbEntity
  8
001
 62
     5
370
    50
100
AcDbVertex
100
AcDb2dVertex
 10
55.431449
 20
35.325122
 30
0.0
  0
VERTEX
  5
374
330
36E
100
AcDbEntity
  8
001
 62
     5
370
    50
100
AcDbVertex
100
AcDb2dVertex
 10
55.41016
 20
35.333774
 30
0.0
  0
VERTEX
  5
375
330
36E
100
AcDbEntity
  8
001
 62
     5
370
    50
100
AcDbVertex
100
AcDb2dVertex
 10
55.388269
 20
35.340935
 30
0.0
  0
VERTEX
  5
376
330
36E
100
AcDbEntity
  8
001
 62
     5
370
    50
100
AcDbVertex
100
AcDb2dVertex
 10
55.363299
 20
35.346407
 30
0.0
  0
VERTEX
  5
377
330
36E
100
AcDbEntity
  8
001
 62
     5
370
    50
100
AcDbVertex
100
AcDb2dVertex
 10
55.335327
 20
35.349631
 30
0.0
  0
VERTEX
  5
378
330
36E
100
AcDbEntity
  8
001
 62
     5
370
    50
100
AcDbVertex
100
AcDb2dVertex
 10
55.314969
 20
35.35066
 30
0.0
  0
SEQEND
  5
36F
330
36E
100
AcDbEntity
  8
001
370
    50
  0
POLYLINE
  5
379
330
1B6
100
AcDbEntity
  8
001
 62
     5
370
    50
100
AcDb2dPolyline
 66
     1
 10
0.0
 20
0.0
 30
0.0
  0
VERTEX
  5
37B
330
379
100
AcDbEntity
  8
001
 62
     5
370
    50
100
AcDbVertex
100
AcDb2dVertex
 10
55.380205
 20
35.34286
 30
0.0
  0
VERTEX
  5
37C
330
379
100
AcDbEntity
  8
001
 62
     5
370
    50
100
AcDbVertex
100
AcDb2dVertex
 10
55.367629
 20
35.339352
 30
0.0
  0
VERTEX
  5
37D
330
379
100
AcDbEntity
  8
001
 62
     5
370
    50
100
AcDbVertex
100
AcDb2dVertex
 10
55.350251
 20
35.333774
 30
0.0
  0
VERTEX
  5
37E
330
379
100
AcDbEntity
  8
001
 62
     5
370
    50
100
AcDbVertex
100
AcDb2dVertex
 10
55.326483
 20
35.324124
 30
0.0
  0
VERTEX
  5
37F
330
379
100
AcDbEntity
  8
001
 62
     5
370
    50
100
AcDbVertex
100
AcDb2dVertex
 10
55.306282
 20
35.313148
 30
0.0
  0
VERTEX
  5
380
330
379
100
AcDbEntity
  8
001
 62
     5
370
    50
100
AcDbVertex
100
AcDb2dVertex
 10
55.250161
 20
35.268808
 30
0.0
  0
VERTEX
  5
381
330
379
100
AcDbEntity
  8
001
 62
     5
370
    50
100
AcDbVertex
100
AcDb2dVertex
 10
55.20441
 20
35.21066
 30
0.0
  0
VERTEX
  5
382
330
379
100
AcDbEntity
  8
001
 62
     5
370
    50
100
AcDbVertex
100
AcDb2dVertex
 10
55.183596
 20
35.166493
 30
0.0
  0
VERTEX
  5
383
330
379
100
AcDbEntity
  8
001
 62
     5
370
    50
100
AcDbVertex
100
AcDb2dVertex
 10
55.17135
 20
35.119282
 30
0.0
  0
VERTEX
  5
384
330
379
100
AcDbEntity
  8
001
 62
     5
370
    50
100
AcDbVertex
100
AcDb2dVertex
 10
55.168303
 20
35.094767
 30
0.0
  0
VERTEX
  5
385
330
379
100
AcDbEntity
  8
001
 62
     5
370
    50
100
AcDbVertex
100
AcDb2dVertex
 10
55.167122
 20
35.07066
 30
0.0
  0
VERTEX
  5
386
330
379
100
AcDbEntity
  8
001
 62
     5
370
    50
100
AcDbVertex
100
AcDb2dVertex
 10
55.167821
 20
35.047274
 30
0.0
  0
VERTEX
  5
387
330
379
100
AcDbEntity
  8
001
 62
     5
370
    50
100
AcDbVertex
100
AcDb2dVertex
 10
55.17135
 20
35.022039
 30
0.0
  0
VERTEX
  5
388
330
379
100
AcDbEntity
  8
001
 62
     5
370
    50
100
AcDbVertex
100
AcDb2dVertex
 10
55.177432
 20
34.996189
 30
0.0
  0
VERTEX
  5
389
330
379
100
AcDbEntity
  8
001
 62
     5
370
    50
100
AcDbVertex
100
AcDb2dVertex
 10
55.182901
 20
34.977722
 30
0.0
  0
SEQEND
  5
37A
330
379
100
AcDbEntity
  8
001
370
    50
  0
POLYLINE
  5
38A
330
1B6
100
AcDbEntity
  8
001
 62
     5
370
    50
100
AcDb2dPolyline
 66
     1
 10
0.0
 20
0.0
 30
0.0
  0
VERTEX
  5
38C
330
38A
100
AcDbEntity
  8
001
 62
     5
370
    50
100
AcDbVertex
100
AcDb2dVertex
 10
55.358618
 20
33.179789
 30
0.0
  0
VERTEX
  5
38D
330
38A
100
AcDbEntity
  8
001
 62
     5
370
    50
100
AcDbVertex
100
AcDb2dVertex
 10
55.361749
 20
33.211187
 30
0.0
  0
VERTEX
  5
38E
330
38A
100
AcDbEntity
  8
001
 62
     5
370
    50
100
AcDbVertex
100
AcDb2dVertex
 10
55.36394
 20
33.254899
 30
0.0
  0
VERTEX
  5
38F
330
38A
100
AcDbEntity
  8
001
 62
     5
370
    50
100
AcDbVertex
100
AcDb2dVertex
 10
55.362235
 20
33.303349
 30
0.0
  0
VERTEX
  5
390
330
38A
100
AcDbEntity
  8
001
 62
     5
370
    50
100
AcDbVertex
100
AcDb2dVertex
 10
55.355944
 20
33.34685
 30
0.0
  0
VERTEX
  5
391
330
38A
100
AcDbEntity
  8
001
 62
     5
370
    50
100
AcDbVertex
100
AcDb2dVertex
 10
55.332386
 20
33.434224
 30
0.0
  0
VERTEX
  5
392
330
38A
100
AcDbEntity
  8
001
 62
     5
370
    50
100
AcDbVertex
100
AcDb2dVertex
 10
55.293423
 20
33.51966
 30
0.0
  0
VERTEX
  5
393
330
38A
100
AcDbEntity
  8
001
 62
     5
370
    50
100
AcDbVertex
100
AcDb2dVertex
 10
55.207352
 20
33.630198
 30
0.0
  0
VERTEX
  5
394
330
38A
100
AcDbEntity
  8
001
 62
     5
370
    50
100
AcDbVertex
100
AcDb2dVertex
 10
55.100767
 20
33.713479
 30
0.0
  0
VERTEX
  5
395
330
38A
100
AcDbEntity
  8
001
 62
     5
370
    50
100
AcDbVertex
100
AcDb2dVertex
 10
55.062246
 20
33.734396
 30
0.0
  0
VERTEX
  5
396
330
38A
100
AcDbEntity
  8
001
 62
     5
370
    50
100
AcDbVertex
100
AcDb2dVertex
 10
55.017615
 20
33.752488
 30
0.0
  0
VERTEX
  5
397
330
38A
100
AcDbEntity
  8
001
 62
     5
370
    50
100
AcDbVertex
100
AcDb2dVertex
 10
54.969744
 20
33.766917
 30
0.0
  0
VERTEX
  5
398
330
38A
100
AcDbEntity
  8
001
 62
     5
370
    50
100
AcDbVertex
100
AcDb2dVertex
 10
54.934548
 20
33.775361
 30
0.0
  0
SEQEND
  5
38B
330
38A
100
AcDbEntity
  8
001
370
    50
  0
POLYLINE
  5
399
330
1B6
100
AcDbEntity
  8
001
 62
     5
370
    50
100
AcDb2dPolyline
 66
     1
 10
0.0
 20
0.0
 30
0.0
  0
VERTEX
  5
39B
330
399
100
AcDbEntity
  8
001
 62
     5
370
    50
100
AcDbVertex
100
AcDb2dVertex
 10
54.88225
 20
34.310463
 30
0.0
  0
VERTEX
  5
39C
330
399
100
AcDbEntity
  8
001
 62
     5
370
    50
100
AcDbVertex
100
AcDb2dVertex
 10
54.910389
 20
34.323235
 30
0.0
  0
VERTEX
  5
39D
330
399
100
AcDbEntity
  8
001
 62
     5
370
    50
100
AcDbVertex
100
AcDb2dVertex
 10
54.949568
 20
34.343382
 30
0.0
  0
VERTEX
  5
39E
330
399
100
AcDbEntity
  8
001
 62
     5
370
    50
100
AcDbVertex
100
AcDb2dVertex
 10
55.065944
 20
34.430932
 30
0.0
  0
VERTEX
  5
39F
330
399
100
AcDbEntity
  8
001
 62
     5
370
    50
100
AcDbVertex
100
AcDb2dVertex
 10
55.142224
 20
34.5372
 30
0.0
  0
VERTEX
  5
3A0
330
399
100
AcDbEntity
  8
001
 62
     5
370
    50
100
AcDbVertex
100
AcDb2dVertex
 10
55.180155
 20
34.620212
 30
0.0
  0
VERTEX
  5
3A1
330
399
100
AcDbEntity
  8
001
 62
     5
370
    50
100
AcDbVertex
100
AcDb2dVertex
 10
55.204744
 20
34.710011
 30
0.0
  0
VERTEX
  5
3A2
330
399
100
AcDbEntity
  8
001
 62
     5
370
    50
100
AcDbVertex
100
AcDb2dVertex
 10
55.210647
 20
34.756424
 30
0.0
  0
VERTEX
  5
3A3
330
399
100
AcDbEntity
  8
001
 62
     5
370
    50
100
AcDbVertex
100
AcDb2dVertex
 10
55.212741
 20
34.801962
 30
0.0
  0
VERTEX
  5
3A4
330
399
100
AcDbEntity
  8
001
 62
     5
370
    50
100
AcDbVertex
100
AcDb2dVertex
 10
55.211381
 20
34.846177
 30
0.0
  0
VERTEX
  5
3A5
330
399
100
AcDbEntity
  8
001
 62
     5
370
    50
100
AcDbVertex
100
AcDb2dVertex
 10
55.204744
 20
34.893912
 30
0.0
  0
VERTEX
  5
3A6
330
399
100
AcDbEntity
  8
001
 62
     5
370
    50
100
AcDbVertex
100
AcDb2dVertex
 10
55.193249
 20
34.942801
 30
0.0
  0
VERTEX
  5
3A7
330
399
100
AcDbEntity
  8
001
 62
     5
370
    50
100
AcDbVertex
100
AcDb2dVertex
 10
55.182901
 20
34.977722
 30
0.0
  0
SEQEND
  5
39A
330
399
100
AcDbEntity
  8
001
370
    50
  0
POLYLINE
  5
3A8
330
1B6
100
AcDbEntity
  8
001
 62
     5
370
    50
100
AcDb2dPolyline
 66
     1
 10
0.0
 20
0.0
 30
0.0
  0
VERTEX
  5
3AA
330
3A8
100
AcDbEntity
  8
001
 62
     5
370
    50
100
AcDbVertex
100
AcDb2dVertex
 10
54.88225
 20
34.310463
 30
0.0
  0
VERTEX
  5
3AB
330
3A8
100
AcDbEntity
  8
001
 62
     5
370
    50
100
AcDbVertex
100
AcDb2dVertex
 10
54.867372
 20
34.303708
 30
0.0
  0
VERTEX
  5
3AC
330
3A8
100
AcDbEntity
  8
001
 62
     5
370
    50
100
AcDbVertex
100
AcDb2dVertex
 10
54.846654
 20
34.293057
 30
0.0
  0
VERTEX
  5
3AD
330
3A8
100
AcDbEntity
  8
001
 62
     5
370
    50
100
AcDbVertex
100
AcDb2dVertex
 10
54.785089
 20
34.246839
 30
0.0
  0
VERTEX
  5
3AE
330
3A8
100
AcDbEntity
  8
001
 62
     5
370
    50
100
AcDbVertex
100
AcDb2dVertex
 10
54.744782
 20
34.19057
 30
0.0
  0
VERTEX
  5
3AF
330
3A8
100
AcDbEntity
  8
001
 62
     5
370
    50
100
AcDbVertex
100
AcDb2dVertex
 10
54.724798
 20
34.146477
 30
0.0
  0
VERTEX
  5
3B0
330
3A8
100
AcDbEntity
  8
001
 62
     5
370
    50
100
AcDbVertex
100
AcDb2dVertex
 10
54.711723
 20
34.099192
 30
0.0
  0
VERTEX
  5
3B1
330
3A8
100
AcDbEntity
  8
001
 62
     5
370
    50
100
AcDbVertex
100
AcDb2dVertex
 10
54.708493
 20
34.074943
 30
0.0
  0
VERTEX
  5
3B2
330
3A8
100
AcDbEntity
  8
001
 62
     5
370
    50
100
AcDbVertex
100
AcDb2dVertex
 10
54.707494
 20
34.05057
 30
0.0
  0
VERTEX
  5
3B3
330
3A8
100
AcDbEntity
  8
001
 62
     5
370
    50
100
AcDbVertex
100
AcDb2dVertex
 10
54.708587
 20
34.026179
 30
0.0
  0
VERTEX
  5
3B4
330
3A8
100
AcDbEntity
  8
001
 62
     5
370
    50
100
AcDbVertex
100
AcDb2dVertex
 10
54.711723
 20
34.001949
 30
0.0
  0
VERTEX
  5
3B5
330
3A8
100
AcDbEntity
  8
001
 62
     5
370
    50
100
AcDbVertex
100
AcDb2dVertex
 10
54.72405
 20
33.954917
 30
0.0
  0
VERTEX
  5
3B6
330
3A8
100
AcDbEntity
  8
001
 62
     5
370
    50
100
AcDbVertex
100
AcDb2dVertex
 10
54.744782
 20
33.91057
 30
0.0
  0
VERTEX
  5
3B7
330
3A8
100
AcDbEntity
  8
001
 62
     5
370
    50
100
AcDbVertex
100
AcDb2dVertex
 10
54.790346
 20
33.852451
 30
0.0
  0
VERTEX
  5
3B8
330
3A8
100
AcDbEntity
  8
001
 62
     5
370
    50
100
AcDbVertex
100
AcDb2dVertex
 10
54.846654
 20
33.808083
 30
0.0
  0
VERTEX
  5
3B9
330
3A8
100
AcDbEntity
  8
001
 62
     5
370
    50
100
AcDbVertex
100
AcDb2dVertex
 10
54.867021
 20
33.797006
 30
0.0
  0
VERTEX
  5
3BA
330
3A8
100
AcDbEntity
  8
001
 62
     5
370
    50
100
AcDbVertex
100
AcDb2dVertex
 10
54.890623
 20
33.787456
 30
0.0
  0
VERTEX
  5
3BB
330
3A8
100
AcDbEntity
  8
001
 62
     5
370
    50
100
AcDbVertex
100
AcDb2dVertex
 10
54.915937
 20
33.779829
 30
0.0
  0
VERTEX
  5
3BC
330
3A8
100
AcDbEntity
  8
001
 62
     5
370
    50
100
AcDbVertex
100
AcDb2dVertex
 10
54.934548
 20
33.775361
 30
0.0
  0
SEQEND
  5
3A9
330
3A8
100
AcDbEntity
  8
001
370
    50
  0
ENDBLK
  5
1B8
330
1B6
100
AcDbEntity
  8
0
100
AcDbBlockEnd
  0
BLOCK
  5
3BE
330
3BD
100
AcDbEntity
  8
0
100
AcDbBlockBegin
  2
*D3
 70
     1
 10
0.0
 20
0.0
 30
0.0
  3
*D3
  1

  0
LINE
  5
3C0
330
3BD
100
AcDbEntity
  8
001
370
     9
100
AcDbLine
 10
79.588038
 20
26.370361
 30
0.0
 11
79.588038
 21
0.023023
 31
0.0
  0
LINE
  5
3C1
330
3BD
100
AcDbEntity
  8
001
370
     9
100
AcDbLine
 10
49.588038
 20
25.618838
 30
0.0
 11
49.588038
 21
0.023023
 31
0.0
  0
LINE
  5
3C2
330
3BD
100
AcDbEntity
  8
001
370
     9
100
AcDbLine
 10
79.588038
 20
2.773023
 30
0.0
 11
49.588038
 21
2.773023
 31
0.0
  0
POLYLINE
  5
3C3
330
3BD
100
AcDbEntity
  8
001
370
     9
100
AcDb2dPolyline
 66
     1
 10
0.0
 20
0.0
 30
0.0
  0
VERTEX
  5
3C5
330
3C3
100
AcDbEntity
  8
001
370
     9
100
AcDbVertex
100
AcDb2dVertex
 10
78.088038
 20
3.174947
 30
0.0
  0
VERTEX
  5
3C6
330
3C3
100
AcDbEntity
  8
001
370
     9
100
AcDbVertex
100
AcDb2dVertex
 10
79.588038
 20
2.773023
 30
0.0
  0
VERTEX
  5
3C7
330
3C3
100
AcDbEntity
  8
001
370
     9
100
AcDbVertex
100
AcDb2dVertex
 10
78.088038
 20
2.371099
 30
0.0
  0
SEQEND
  5
3C4
330
3C3
100
AcDbEntity
  8
001
370
     9
  0
POLYLINE
  5
3C8
330
3BD
100
AcDbEntity
  8
001
370
     9
100
AcDb2dPolyline
 66
     1
 10
0.0
 20
0.0
 30
0.0
  0
VERTEX
  5
3CA
330
3C8
100
AcDbEntity
  8
001
370
     9
100
AcDbVertex
100
AcDb2dVertex
 10
51.088038
 20
2.371099
 30
0.0
  0
VERTEX
  5
3CB
330
3C8
100
AcDbEntity
  8
001
370
     9
100
AcDbVertex
100
AcDb2dVertex
 10
49.588038
 20
2.773023
 30
0.0
  0
VERTEX
  5
3CC
330
3C8
100
AcDbEntity
  8
001
370
     9
100
AcDbVertex
100
AcDb2dVertex
 10
51.088038
 20
3.174947
 30
0.0
  0
SEQEND
  5
3C9
330
3C8
100
AcDbEntity
  8
001
370
     9
  0
TEXT
  5
3CD
330
3BD
100
AcDbEntity
  8
001
370
    30
100
AcDbText
 10
60.588038
 20
3.773023
 30
0.0
 40
4.0
  1
３０
 41
0.833333
100
AcDbText
  0
POINT
  5
3CE
330
3BD
100
AcDbEntity
  8
001
370
     9
100
AcDbPoint
 10
79.588038
 20
26.370361
 30
0.0
  0
POINT
  5
3CF
330
3BD
100
AcDbEntity
  8
001
370
     9
100
AcDbPoint
 10
49.588038
 20
25.618838
 30
0.0
  0
POINT
  5
3D0
330
3BD
100
AcDbEntity
  8
001
370
     9
100
AcDbPoint
 10
49.588038
 20
2.773023
 30
0.0
  0
ENDBLK
  5
3BF
330
3BD
100
AcDbEntity
  8
0
100
AcDbBlockEnd
  0
BLOCK
  5
3D2
330
3D1
100
AcDbEntity
  8
0
100
AcDbBlockBegin
  2
*D4
 70
     1
 10
0.0
 20
0.0
 30
0.0
  3
*D4
  1

  0
LINE
  5
3D4
330
3D1
100
AcDbEntity
  8
001
370
     9
100
AcDbLine
 10
57.885863
 20
28.789537
 30
0.0
 11
75.267556
 21
24.54301
 31
0.0
  0
LINE
  5
3D5
330
3D1
100
AcDbEntity
  8
001
370
     9
100
AcDbLine
 10
49.588038
 20
22.576623
 30
0.0
 11
49.588038
 21
4.381997
 31
0.0
  0
ARC
  5
3D6
330
3D1
100
AcDbEntity
  8
001
370
     9
100
AcDbCircle
 10
49.588038
 20
30.816782
 30
0.0
 40
23.68478456453425
100
AcDbArc
 50
270.0
 51
346.270982
  0
POLYLINE
  5
3D7
330
3D1
100
AcDbEntity
  8
001
370
     9
100
AcDb2dPolyline
 66
     1
 10
0.0
 20
0.0
 30
0.0
  0
VERTEX
  5
3D9
330
3D7
100
AcDbEntity
  8
001
370
     9
100
AcDbVertex
100
AcDb2dVertex
 10
71.806951
 20
23.858228
 30
0.0
  0
VERTEX
  5
3DA
330
3D7
100
AcDbEntity
  8
001
370
     9
100
AcDbVertex
100
AcDb2dVertex
 10
72.596126
 20
25.195668
 30
0.0
  0
VERTEX
  5
3DB
330
3D7
100
AcDbEntity
  8
001
370
     9
100
AcDbVertex
100
AcDb2dVertex
 10
72.5814
 20
23.642823
 30
0.0
  0
SEQEND
  5
3D8
330
3D7
100
AcDbEntity
  8
001
370
     9
  0
POLYLINE
  5
3DC
330
3D1
100
AcDbEntity
  8
001
370
     9
100
AcDb2dPolyline
 66
     1
 10
0.0
 20
0.0
 30
0.0
  0
VERTEX
  5
3DE
330
3DC
100
AcDbEntity
  8
001
370
     9
100
AcDbVertex
100
AcDb2dVertex
 10
51.100012
 20
6.777766
 30
0.0
  0
VERTEX
  5
3DF
330
3DC
100
AcDbEntity
  8
001
370
     9
100
AcDbVertex
100
AcDb2dVertex
 10
49.588038
 20
7.131997
 30
0.0
  0
VERTEX
  5
3E0
330
3DC
100
AcDbEntity
  8
001
370
     9
100
AcDbVertex
100
AcDb2dVertex
 10
51.074561
 20
7.58121
 30
0.0
  0
SEQEND
  5
3DD
330
3DC
100
AcDbEntity
  8
001
370
     9
  0
TEXT
  5
3E1
330
3D1
100
AcDbEntity
  8
001
370
    30
100
AcDbText
 10
58.877104
 20
9.268865
 30
0.0
 40
4.0
  1
７５%%d
 50
38.13549
 41
0.978261
100
AcDbText
  0
POINT
  5
3E2
330
3D1
100
AcDbEntity
  8
001
370
     9
100
AcDbPoint
 10
57.885863
 20
28.789537
 30
0.0
  0
POINT
  5
3E3
330
3D1
100
AcDbEntity
  8
001
370
     9
100
AcDbPoint
 10
49.588038
 20
30.816782
 30
0.0
  0
POINT
  5
3E4
330
3D1
100
AcDbEntity
  8
001
370
     9
100
AcDbPoint
 10
49.588038
 20
30.816782
 30
0.0
  0
POINT
  5
3E5
330
3D1
100
AcDbEntity
  8
001
370
     9
100
AcDbPoint
 10
49.588038
 20
22.576623
 30
0.0
  0
ENDBLK
  5
3D3
330
3D1
100
AcDbEntity
  8
0
100
AcDbBlockEnd
  0
BLOCK
  5
3E7
330
3E6
100
AcDbEntity
  8
0
100
AcDbBlockBegin
  2
*D5
 70
     1
 10
0.0
 20
0.0
 30
0.0
  3
*D5
  1

  0
LINE
  5
3E9
330
3E6
100
AcDbEntity
  8
001
370
     9
100
AcDbLine
 10
58.567205
 20
28.623079
 30
0.0
 11
58.567205
 21
15.177503
 31
0.0
  0
LINE
  5
3EA
330
3E6
100
AcDbEntity
  8
001
370
     9
100
AcDbLine
 10
49.588038
 20
22.576623
 30
0.0
 11
49.588038
 21
15.177503
 31
0.0
  0
LINE
  5
3EB
330
3E6
100
AcDbEntity
  8
001
370
     9
100
AcDbLine
 10
58.567205
 20
17.927503
 30
0.0
 11
49.588038
 21
17.927503
 31
0.0
  0
POLYLINE
  5
3EC
330
3E6
100
AcDbEntity
  8
001
370
     9
100
AcDb2dPolyline
 66
     1
 10
0.0
 20
0.0
 30
0.0
  0
VERTEX
  5
3EE
330
3EC
100
AcDbEntity
  8
001
370
     9
100
AcDbVertex
100
AcDb2dVertex
 10
57.067205
 20
18.329426
 30
0.0
  0
VERTEX
  5
3EF
330
3EC
100
AcDbEntity
  8
001
370
     9
100
AcDbVertex
100
AcDb2dVertex
 10
58.567205
 20
17.927503
 30
0.0
  0
VERTEX
  5
3F0
330
3EC
100
AcDbEntity
  8
001
370
     9
100
AcDbVertex
100
AcDb2dVertex
 10
57.067205
 20
17.525579
 30
0.0
  0
SEQEND
  5
3ED
330
3EC
100
AcDbEntity
  8
001
370
     9
  0
POLYLINE
  5
3F1
330
3E6
100
AcDbEntity
  8
001
370
     9
100
AcDb2dPolyline
 66
     1
 10
0.0
 20
0.0
 30
0.0
  0
VERTEX
  5
3F3
330
3F1
100
AcDbEntity
  8
001
370
     9
100
AcDbVertex
100
AcDb2dVertex
 10
51.088038
 20
17.525579
 30
0.0
  0
VERTEX
  5
3F4
330
3F1
100
AcDbEntity
  8
001
370
     9
100
AcDbVertex
100
AcDb2dVertex
 10
49.588038
 20
17.927503
 30
0.0
  0
VERTEX
  5
3F5
330
3F1
100
AcDbEntity
  8
001
370
     9
100
AcDbVertex
100
AcDb2dVertex
 10
51.088038
 20
18.329426
 30
0.0
  0
SEQEND
  5
3F2
330
3F1
100
AcDbEntity
  8
001
370
     9
  0
TEXT
  5
3F6
330
3E6
100
AcDbEntity
  8
001
370
    30
100
AcDbText
 10
34.088038
 20
18.927503
 30
0.0
 40
4.0
  1
（９）
 41
0.833333
100
AcDbText
  0
POINT
  5
3F7
330
3E6
100
AcDbEntity
  8
001
370
     9
100
AcDbPoint
 10
58.567205
 20
28.623079
 30
0.0
  0
POINT
  5
3F8
330
3E6
100
AcDbEntity
  8
001
370
     9
100
AcDbPoint
 10
49.588038
 20
22.576623
 30
0.0
  0
POINT
  5
3F9
330
3E6
100
AcDbEntity
  8
001
370
     9
100
AcDbPoint
 10
49.588038
 20
17.927503
 30
0.0
  0
LINE
  5
3FA
330
3E6
100
AcDbEntity
  8
001
370
     9
100
AcDbLine
 10
49.588038
 20
17.927503
 30
0.0
 11
31.088038
 21
17.927503
 31
0.0
  0
ENDBLK
  5
3E8
330
3E6
100
AcDbEntity
  8
0
100
AcDbBlockEnd
  0
BLOCK
  5
3FC
330
3FB
100
AcDbEntity
  8
0
100
AcDbBlockBegin
  2
*D6
 70
     1
 10
0.0
 20
0.0
 30
0.0
  3
*D6
  1

  0
LINE
  5
3FE
330
3FB
100
AcDbEntity
  8
001
370
     9
100
AcDbLine
 10
174.588038
 20
31.370361
 30
0.0
 11
174.588038
 21
0.023023
 31
0.0
  0
LINE
  5
3FF
330
3FB
100
AcDbEntity
  8
001
370
     9
100
AcDbLine
 10
79.588038
 20
28.832999
 30
0.0
 11
79.588038
 21
0.023023
 31
0.0
  0
LINE
  5
400
330
3FB
100
AcDbEntity
  8
001
370
     9
100
AcDbLine
 10
174.588038
 20
2.773023
 30
0.0
 11
79.588038
 21
2.773023
 31
0.0
  0
POLYLINE
  5
401
330
3FB
100
AcDbEntity
  8
001
370
     9
100
AcDb2dPolyline
 66
     1
 10
0.0
 20
0.0
 30
0.0
  0
VERTEX
  5
403
330
401
100
AcDbEntity
  8
001
370
     9
100
AcDbVertex
100
AcDb2dVertex
 10
173.088038
 20
3.174947
 30
0.0
  0
VERTEX
  5
404
330
401
100
AcDbEntity
  8
001
370
     9
100
AcDbVertex
100
AcDb2dVertex
 10
174.588038
 20
2.773023
 30
0.0
  0
VERTEX
  5
405
330
401
100
AcDbEntity
  8
001
370
     9
100
AcDbVertex
100
AcDb2dVertex
 10
173.088038
 20
2.371099
 30
0.0
  0
SEQEND
  5
402
330
401
100
AcDbEntity
  8
001
370
     9
  0
POLYLINE
  5
406
330
3FB
100
AcDbEntity
  8
001
370
     9
100
AcDb2dPolyline
 66
     1
 10
0.0
 20
0.0
 30
0.0
  0
VERTEX
  5
408
330
406
100
AcDbEntity
  8
001
370
     9
100
AcDbVertex
100
AcDb2dVertex
 10
81.088038
 20
2.371099
 30
0.0
  0
VERTEX
  5
409
330
406
100
AcDbEntity
  8
001
370
     9
100
AcDbVertex
100
AcDb2dVertex
 10
79.588038
 20
2.773023
 30
0.0
  0
VERTEX
  5
40A
330
406
100
AcDbEntity
  8
001
370
     9
100
AcDbVertex
100
AcDb2dVertex
 10
81.088038
 20
3.174947
 30
0.0
  0
SEQEND
  5
407
330
406
100
AcDbEntity
  8
001
370
     9
  0
TEXT
  5
40B
330
3FB
100
AcDbEntity
  8
001
370
    30
100
AcDbText
 10
123.088038
 20
3.773023
 30
0.0
 40
4.0
  1
９５
 41
0.833333
100
AcDbText
  0
POINT
  5
40C
330
3FB
100
AcDbEntity
  8
001
370
     9
100
AcDbPoint
 10
174.588038
 20
31.370361
 30
0.0
  0
POINT
  5
40D
330
3FB
100
AcDbEntity
  8
001
370
     9
100
AcDbPoint
 10
79.588038
 20
28.832999
 30
0.0
  0
POINT
  5
40E
330
3FB
100
AcDbEntity
  8
001
370
     9
100
AcDbPoint
 10
79.588038
 20
2.773023
 30
0.0
  0
ENDBLK
  5
3FD
330
3FB
100
AcDbEntity
  8
0
100
AcDbBlockEnd
  0
BLOCK
  5
410
330
40F
100
AcDbEntity
  8
0
100
AcDbBlockBegin
  2
*D7
 70
     1
 10
0.0
 20
0.0
 30
0.0
  3
*D7
  1

  0
LINE
  5
412
330
40F
100
AcDbEntity
  8
001
370
     9
100
AcDbLine
 10
174.588038
 20
31.370361
 30
0.0
 11
174.588038
 21
-10.210213
 31
0.0
  0
LINE
  5
413
330
40F
100
AcDbEntity
  8
001
370
     9
100
AcDbLine
 10
49.588038
 20
25.618838
 30
0.0
 11
49.588038
 21
-10.210213
 31
0.0
  0
LINE
  5
414
330
40F
100
AcDbEntity
  8
001
370
     9
100
AcDbLine
 10
174.588038
 20
-7.460213
 30
0.0
 11
49.588038
 21
-7.460213
 31
0.0
  0
POLYLINE
  5
415
330
40F
100
AcDbEntity
  8
001
370
     9
100
AcDb2dPolyline
 66
     1
 10
0.0
 20
0.0
 30
0.0
  0
VERTEX
  5
417
330
415
100
AcDbEntity
  8
001
370
     9
100
AcDbVertex
100
AcDb2dVertex
 10
173.088038
 20
-7.058289
 30
0.0
  0
VERTEX
  5
418
330
415
100
AcDbEntity
  8
001
370
     9
100
AcDbVertex
100
AcDb2dVertex
 10
174.588038
 20
-7.460213
 30
0.0
  0
VERTEX
  5
419
330
415
100
AcDbEntity
  8
001
370
     9
100
AcDbVertex
100
AcDb2dVertex
 10
173.088038
 20
-7.862137
 30
0.0
  0
SEQEND
  5
416
330
415
100
AcDbEntity
  8
001
370
     9
  0
POLYLINE
  5
41A
330
40F
100
AcDbEntity
  8
001
370
     9
100
AcDb2dPolyline
 66
     1
 10
0.0
 20
0.0
 30
0.0
  0
VERTEX
  5
41C
330
41A
100
AcDbEntity
  8
001
370
     9
100
AcDbVertex
100
AcDb2dVertex
 10
51.088038
 20
-7.862137
 30
0.0
  0
VERTEX
  5
41D
330
41A
100
AcDbEntity
  8
001
370
     9
100
AcDbVertex
100
AcDb2dVertex
 10
49.588038
 20
-7.460213
 30
0.0
  0
VERTEX
  5
41E
330
41A
100
AcDbEntity
  8
001
370
     9
100
AcDbVertex
100
AcDb2dVertex
 10
51.088038
 20
-7.058289
 30
0.0
  0
SEQEND
  5
41B
330
41A
100
AcDbEntity
  8
001
370
     9
  0
TEXT
  5
41F
330
40F
100
AcDbEntity
  8
001
370
    30
100
AcDbText
 10
106.088038
 20
-6.460213
 30
0.0
 40
4.0
  1
１２５
 41
0.833333
100
AcDbText
  0
POINT
  5
420
330
40F
100
AcDbEntity
  8
001
370
     9
100
AcDbPoint
 10
174.588038
 20
31.370361
 30
0.0
  0
POINT
  5
421
330
40F
100
AcDbEntity
  8
001
370
     9
100
AcDbPoint
 10
49.588038
 20
25.618838
 30
0.0
  0
POINT
  5
422
330
40F
100
AcDbEntity
  8
001
370
     9
100
AcDbPoint
 10
49.588038
 20
-7.460213
 30
0.0
  0
ENDBLK
  5
411
330
40F
100
AcDbEntity
  8
0
100
AcDbBlockEnd
  0
BLOCK
  5
424
330
423
100
AcDbEntity
  8
0
100
AcDbBlockBegin
  2
*D8
 70
     1
 10
0.0
 20
0.0
 30
0.0
  3
*D8
  1

  0
LINE
  5
426
330
423
100
AcDbEntity
  8
001
370
     9
100
AcDbLine
 10
168.588038
 20
45.370361
 30
0.0
 11
199.993929
 21
45.370361
 31
0.0
  0
LINE
  5
427
330
423
100
AcDbEntity
  8
001
370
     9
100
AcDbLine
 10
168.588038
 20
25.370361
 30
0.0
 11
199.993929
 21
25.370361
 31
0.0
  0
LINE
  5
428
330
423
100
AcDbEntity
  8
001
370
     9
100
AcDbLine
 10
197.243929
 20
45.370361
 30
0.0
 11
197.243929
 21
25.370361
 31
0.0
  0
POLYLINE
  5
429
330
423
100
AcDbEntity
  8
001
370
     9
100
AcDb2dPolyline
 66
     1
 10
0.0
 20
0.0
 30
0.0
  0
VERTEX
  5
42B
330
429
100
AcDbEntity
  8
001
370
     9
100
AcDbVertex
100
AcDb2dVertex
 10
196.842005
 20
43.870361
 30
0.0
  0
VERTEX
  5
42C
330
429
100
AcDbEntity
  8
001
370
     9
100
AcDbVertex
100
AcDb2dVertex
 10
197.243929
 20
45.370361
 30
0.0
  0
VERTEX
  5
42D
330
429
100
AcDbEntity
  8
001
370
     9
100
AcDbVertex
100
AcDb2dVertex
 10
197.645853
 20
43.870361
 30
0.0
  0
SEQEND
  5
42A
330
429
100
AcDbEntity
  8
001
370
     9
  0
POLYLINE
  5
42E
330
423
100
AcDbEntity
  8
001
370
     9
100
AcDb2dPolyline
 66
     1
 10
0.0
 20
0.0
 30
0.0
  0
VERTEX
  5
430
330
42E
100
AcDbEntity
  8
001
370
     9
100
AcDbVertex
100
AcDb2dVertex
 10
197.645853
 20
26.870361
 30
0.0
  0
VERTEX
  5
431
330
42E
100
AcDbEntity
  8
001
370
     9
100
AcDbVertex
100
AcDb2dVertex
 10
197.243929
 20
25.370361
 30
0.0
  0
VERTEX
  5
432
330
42E
100
AcDbEntity
  8
001
370
     9
100
AcDbVertex
100
AcDb2dVertex
 10
196.842005
 20
26.870361
 30
0.0
  0
SEQEND
  5
42F
330
42E
100
AcDbEntity
  8
001
370
     9
  0
TEXT
  5
433
330
423
100
AcDbEntity
  8
001
370
    30
100
AcDbText
 10
196.243929
 20
9.870361
 30
0.0
 40
4.0
  1
%%c２０
 50
90.000003
 41
0.882353
100
AcDbText
  0
POINT
  5
434
330
423
100
AcDbEntity
  8
001
370
     9
100
AcDbPoint
 10
168.588038
 20
45.370361
 30
0.0
  0
POINT
  5
435
330
423
100
AcDbEntity
  8
001
370
     9
100
AcDbPoint
 10
168.588038
 20
25.370361
 30
0.0
  0
POINT
  5
436
330
423
100
AcDbEntity
  8
001
370
     9
100
AcDbPoint
 10
197.243929
 20
25.370361
 30
0.0
  0
LINE
  5
437
330
423
100
AcDbEntity
  8
001
370
     9
100
AcDbLine
 10
197.243929
 20
25.370361
 30
0.0
 11
197.243929
 21
6.870361
 31
0.0
  0
ENDBLK
  5
425
330
423
100
AcDbEntity
  8
0
100
AcDbBlockEnd
  0
ENDSEC
  0
SECTION
  2
ENTITIES
  0
INSERT
  5
438
330
1F
100
AcDbEntity
  8
001
  6
ByBlock
 62
     0
370
    -2
100
AcDbBlockReference
  2
C32GUX-1
 10
0.0
 20
0.0
 30
0.0
  0
INSERT
  5
439
330
1F
100
AcDbEntity
  8
001
  6
ByBlock
 62
     0
370
    -2
100
AcDbBlockReference
  2
M-1-2
 10
0.0
 20
0.0
 30
0.0
  0
DIMENSION
  5
43A
330
1F
100
AcDbEntity
  8
001
370
     9
100
AcDbDimension
  2
*D3
 10
49.588038
 20
2.773023
 30
0.0
 11
64.588038
 21
5.773023
 31
0.0
 70
   160
 71
     5
 42
-1.0
  3
Standard
100
AcDbAlignedDimension
 13
79.588038
 23
26.370361
 33
0.0
 14
49.588038
 24
25.618838
 34
0.0
 50
180.0
100
AcDbRotatedDimension
  0
DIMENSION
  5
43B
330
1F
100
AcDbEntity
  8
001
370
     9
100
AcDbDimension
  2
*D4
 10
49.588038
 20
30.816782
 30
0.0
 11
62.361373
 21
14.547109
 31
0.0
 70
    34
 71
     5
 42
-1.0
  3
Standard
100
AcDb2LineAngularDimension
 13
57.885863
 23
28.789537
 33
0.0
 14
49.588038
 24
30.816782
 34
0.0
 15
49.588038
 25
22.576623
 35
0.0
 16
64.213943
 26
12.187451
 36
0.0
  0
TEXT
  5
43C
330
1F
100
AcDbEntity
  8
001
370
    30
100
AcDbText
 10
37.532763
 20
29.816782
 30
0.0
 40
4.0
  1
%%c１０
 50
90.000003
 41
0.882353
100
AcDbText
  0
POLYLINE
  5
43D
330
1F
100
AcDbEntity
  8
001
370
     9
100
AcDb2dPolyline
 66
     1
 10
0.0
 20
0.0
 30
0.0
  0
VERTEX
  5
43F
330
43D
100
AcDbEntity
  8
001
370
     9
100
AcDbVertex
100
AcDb2dVertex
 10
38.934686
 20
32.316782
 30
0.0
  0
VERTEX
  5
440
330
43D
100
AcDbEntity
  8
001
370
     9
100
AcDbVertex
100
AcDb2dVertex
 10
38.532763
 20
30.816782
 30
0.0
  0
VERTEX
  5
441
330
43D
100
AcDbEntity
  8
001
370
     9
100
AcDbVertex
100
AcDb2dVertex
 10
38.130839
 20
32.316782
 30
0.0
  0
SEQEND
  5
43E
330
43D
100
AcDbEntity
  8
001
370
     9
  0
LINE
  5
442
330
1F
100
AcDbEntity
  8
001
370
     9
100
AcDbLine
 10
38.532763
 20
40.816782
 30
0.0
 11
38.532763
 21
30.816782
 31
0.0
  0
POLYLINE
  5
443
330
1F
100
AcDbEntity
  8
001
370
     9
100
AcDb2dPolyline
 66
     1
 10
0.0
 20
0.0
 30
0.0
  0
VERTEX
  5
445
330
443
100
AcDbEntity
  8
001
370
     9
100
AcDbVertex
100
AcDb2dVertex
 10
49.588038
 20
30.816782
 30
0.0
  0
VERTEX
  5
446
330
443
100
AcDbEntity
  8
001
370
     9
100
AcDbVertex
100
AcDb2dVertex
 10
38.532763
 20
30.816782
 30
0.0
  0
VERTEX
  5
447
330
443
100
AcDbEntity
  8
001
370
     9
100
AcDbVertex
100
AcDb2dVertex
 10
35.782763
 20
30.816782
 30
0.0
  0
SEQEND
  5
444
330
443
100
AcDbEntity
  8
001
370
     9
  0
DIMENSION
  5
448
330
1F
100
AcDbEntity
  8
001
370
     9
100
AcDbDimension
  2
*D5
 10
49.588038
 20
17.927503
 30
0.0
 11
40.088038
 21
20.927503
 31
0.0
 70
   160
 71
     5
 42
-1.0
  3
Standard
100
AcDbAlignedDimension
 13
58.567205
 23
28.623079
 33
0.0
 14
49.588038
 24
22.576623
 34
0.0
 50
180.0
100
AcDbRotatedDimension
  0
DIMENSION
  5
449
330
1F
100
AcDbEntity
  8
001
370
     9
100
AcDbDimension
  2
*D6
 10
79.588038
 20
2.773023
 30
0.0
 11
127.088038
 21
5.773023
 31
0.0
 70
   160
 71
     5
 42
-1.0
  3
Standard
100
AcDbAlignedDimension
 13
174.588038
 23
31.370361
 33
0.0
 14
79.588038
 24
28.832999
 34
0.0
 50
180.0
100
AcDbRotatedDimension
  0
DIMENSION
  5
44A
330
1F
100
AcDbEntity
  8
001
370
     9
100
AcDbDimension
  2
*D7
 10
49.588038
 20
-7.460213
 30
0.0
 11
112.088038
 21
-4.460213
 31
0.0
 70
   160
 71
     5
 42
-1.0
  3
Standard
100
AcDbAlignedDimension
 13
174.588038
 23
31.370361
 33
0.0
 14
49.588038
 24
25.618838
 34
0.0
 50
180.0
100
AcDbRotatedDimension
  0
TEXT
  5
44B
330
1F
100
AcDbEntity
  8
001
370
    30
100
AcDbText
 10
27.692346
 20
30.452587
 30
0.0
 40
4.0
  1
%%c１４．５４
 50
90.000003
 41
0.857143
100
AcDbText
  0
POLYLINE
  5
44C
330
1F
100
AcDbEntity
  8
001
370
     9
100
AcDb2dPolyline
 66
     1
 10
0.0
 20
0.0
 30
0.0
  0
VERTEX
  5
44E
330
44C
100
AcDbEntity
  8
001
370
     9
100
AcDbVertex
100
AcDb2dVertex
 10
29.09427
 20
30.123079
 30
0.0
  0
VERTEX
  5
44F
330
44C
100
AcDbEntity
  8
001
370
     9
100
AcDbVertex
100
AcDb2dVertex
 10
28.692346
 20
28.623079
 30
0.0
  0
VERTEX
  5
450
330
44C
100
AcDbEntity
  8
001
370
     9
100
AcDbVertex
100
AcDb2dVertex
 10
28.290423
 20
30.123079
 30
0.0
  0
SEQEND
  5
44D
330
44C
100
AcDbEntity
  8
001
370
     9
  0
LINE
  5
451
330
1F
100
AcDbEntity
  8
001
370
     9
100
AcDbLine
 10
28.692346
 20
43.166529
 30
0.0
 11
28.692346
 21
28.623079
 31
0.0
  0
POLYLINE
  5
452
330
1F
100
AcDbEntity
  8
001
370
     9
100
AcDb2dPolyline
 66
     1
 10
0.0
 20
0.0
 30
0.0
  0
VERTEX
  5
454
330
452
100
AcDbEntity
  8
001
370
     9
100
AcDbVertex
100
AcDb2dVertex
 10
58.783189
 20
28.623079
 30
0.0
  0
VERTEX
  5
455
330
452
100
AcDbEntity
  8
001
370
     9
100
AcDbVertex
100
AcDb2dVertex
 10
28.692346
 20
28.623079
 30
0.0
  0
VERTEX
  5
456
330
452
100
AcDbEntity
  8
001
370
     9
100
AcDbVertex
100
AcDb2dVertex
 10
25.942346
 20
28.623079
 30
0.0
  0
SEQEND
  5
453
330
452
100
AcDbEntity
  8
001
370
     9
  0
DIMENSION
  5
457
330
1F
100
AcDbEntity
  8
001
370
     9
100
AcDbDimension
  2
*D8
 10
197.243929
 20
25.370361
 30
0.0
 11
194.243929
 21
15.870361
 31
0.0
 70
   160
 71
     5
 42
-1.0
  3
Standard
100
AcDbAlignedDimension
 13
168.588038
 23
45.370361
 33
0.0
 14
168.588038
 24
25.370361
 34
0.0
 50
270.0
100
AcDbRotatedDimension
  0
TEXT
  5
458
330
1F
100
AcDbEntity
  8
001
370
    30
100
AcDbText
 10
43.609173
 20
65.821435
 30
0.0
 40
8.0
  1
面取りカッター面面　ＳＮＫ７５１４Ｃ
 41
0.833333
100
AcDbText
  0
LINE
  5
459
330
1F
100
AcDbEntity
  8
001
  6
CENTER
 62
   253
370
     9
100
AcDbLine
 10
47.014187
 20
35.370361
 30
0.0
 11
183.784027
 21
35.370361
 31
0.0
  0
LINE
  5
45A
330
1F
100
AcDbEntity
  8
001
 62
   253
370
    50
100
AcDbLine
 10
168.588038
 20
45.370361
 30
0.0
 11
83.050677
 21
45.370361
 31
0.0
  0
LINE
  5
45B
330
1F
100
AcDbEntity
  8
001
 62
   253
370
    50
100
AcDbLine
 10
168.588038
 20
25.370361
 30
0.0
 11
83.050677
 21
25.370361
 31
0.0
  0
LINE
  5
45C
330
1F
100
AcDbEntity
  8
001
 62
   253
370
    50
100
AcDbLine
 10
83.050677
 20
45.370361
 30
0.0
 11
83.050677
 21
25.370361
 31
0.0
  0
ARC
  5
45D
330
1F
100
AcDbEntity
  8
001
 62
   253
370
    50
100
AcDbCircle
 10
168.588038
 20
39.370361
 30
0.0
 40
6.0
100
AcDbArc
 50
0.0
 51
90.0
  0
ARC
  5
45E
330
1F
100
AcDbEntity
  8
001
 62
   253
370
    50
100
AcDbCircle
 10
168.588038
 20
31.370361
 30
0.0
 40
6.0
100
AcDbArc
 50
270.0
 51
0.0
  0
LINE
  5
45F
330
1F
100
AcDbEntity
  8
001
 62
   253
370
    50
100
AcDbLine
 10
174.588038
 20
39.370361
 30
0.0
 11
174.588038
 21
31.370361
 31
0.0
  0
LINE
  5
460
330
1F
100
AcDbEntity
  8
001
 62
   253
370
    50
100
AcDbLine
 10
83.050677
 20
45.370361
 30
0.0
 11
79.588038
 21
41.907723
 31
0.0
  0
LINE
  5
461
330
1F
100
AcDbEntity
  8
001
 62
   253
370
    50
100
AcDbLine
 10
79.588038
 20
28.832999
 30
0.0
 11
83.050677
 21
25.370361
 31
0.0
  0
LINE
  5
462
330
1F
100
AcDbEntity
  8
001
 62
   253
370
    50
100
AcDbLine
 10
79.588038
 20
41.907723
 30
0.0
 11
79.588038
 21
28.832999
 31
0.0
  0
LINE
  5
463
330
1F
100
AcDbEntity
  8
001
 62
   253
370
    50
100
AcDbLine
 10
58.987054
 20
41.907723
 30
0.0
 11
58.987054
 21
41.23714
 31
0.0
  0
POLYLINE
  5
464
330
1F
100
AcDbEntity
  8
001
 62
   253
370
    50
100
AcDb2dPolyline
 66
     1
 10
0.0
 20
0.0
 30
0.0
  0
VERTEX
  5
466
330
464
100
AcDbEntity
  8
001
 62
   253
370
    50
100
AcDbVertex
100
AcDb2dVertex
 10
59.129486
 20
29.511313
 30
0.0
  0
VERTEX
  5
467
330
464
100
AcDbEntity
  8
001
 62
   253
370
    50
100
AcDbVertex
100
AcDb2dVertex
 10
59.113197
 20
29.43275
 30
0.0
  0
VERTEX
  5
468
330
464
100
AcDbEntity
  8
001
 62
   253
370
    50
100
AcDbVertex
100
AcDb2dVertex
 10
59.092507
 20
29.323872
 30
0.0
  0
VERTEX
  5
469
330
464
100
AcDbEntity
  8
001
 62
   253
370
    50
100
AcDbVertex
100
AcDb2dVertex
 10
59.069171
 20
29.153621
 30
0.0
  0
VERTEX
  5
46A
330
464
100
AcDbEntity
  8
001
 62
   253
370
    50
100
AcDbVertex
100
AcDb2dVertex
 10
59.062532
 20
28.984151
 30
0.0
  0
VERTEX
  5
46B
330
464
100
AcDbEntity
  8
001
 62
   253
370
    50
100
AcDbVertex
100
AcDb2dVertex
 10
59.070423
 20
28.896789
 30
0.0
  0
VERTEX
  5
46C
330
464
100
AcDbEntity
  8
001
 62
   253
370
    50
100
AcDbVertex
100
AcDb2dVertex
 10
59.122719
 20
28.838473
 30
0.0
  0
VERTEX
  5
46D
330
464
100
AcDbEntity
  8
001
 62
   253
370
    50
100
AcDbVertex
100
AcDb2dVertex
 10
59.13838
 20
28.834437
 30
0.0
  0
VERTEX
  5
46E
330
464
100
AcDbEntity
  8
001
 62
   253
370
    50
100
AcDbVertex
100
AcDb2dVertex
 10
59.14974
 20
28.832999
 30
0.0
  0
SEQEND
  5
465
330
464
100
AcDbEntity
  8
001
370
    50
  0
LINE
  5
46F
330
1F
100
AcDbEntity
  8
001
 62
   253
370
    50
100
AcDbLine
 10
79.588038
 20
41.907723
 30
0.0
 11
58.987054
 21
41.907723
 31
0.0
  0
LINE
  5
470
330
1F
100
AcDbEntity
  8
001
 62
   253
370
    50
100
AcDbLine
 10
59.14974
 20
28.832999
 30
0.0
 11
79.588038
 21
28.832999
 31
0.0
  0
POLYLINE
  5
471
330
1F
100
AcDbEntity
  8
001
 62
   253
370
    50
100
AcDb2dPolyline
 66
     1
 10
0.0
 20
0.0
 30
0.0
  0
VERTEX
  5
473
330
471
100
AcDbEntity
  8
001
 62
   253
370
    50
100
AcDbVertex
100
AcDb2dVertex
 10
64.588038
 20
40.891596
 30
0.0
  0
VERTEX
  5
474
330
471
100
AcDbEntity
  8
001
 62
   253
370
    50
100
AcDbVertex
100
AcDb2dVertex
 10
63.732534
 20
40.949987
 30
0.0
  0
VERTEX
  5
475
330
471
100
AcDbEntity
  8
001
 62
   253
370
    50
100
AcDbVertex
100
AcDb2dVertex
 10
62.481956
 20
41.031882
 30
0.0
  0
VERTEX
  5
476
330
471
100
AcDbEntity
  8
001
 62
   253
370
    50
100
AcDbVertex
100
AcDb2dVertex
 10
60.407078
 20
41.157412
 30
0.0
  0
VERTEX
  5
477
330
471
100
AcDbEntity
  8
001
 62
   253
370
    50
100
AcDbVertex
100
AcDb2dVertex
 10
58.987054
 20
41.23714
 30
0.0
  0
SEQEND
  5
472
330
471
100
AcDbEntity
  8
001
370
    50
  0
LINE
  5
478
330
1F
100
AcDbEntity
  8
001
 62
   253
370
    50
100
AcDbLine
 10
59.129486
 20
29.511313
 30
0.0
 11
61.118774
 21
34.081281
 31
0.0
  0
POLYLINE
  5
479
330
1F
100
AcDbEntity
  8
001
 62
   253
370
    50
100
AcDb2dPolyline
 66
     1
 10
0.0
 20
0.0
 30
0.0
  0
VERTEX
  5
47B
330
479
100
AcDbEntity
  8
001
 62
   253
370
    50
100
AcDbVertex
100
AcDb2dVertex
 10
61.118774
 20
34.081281
 30
0.0
  0
VERTEX
  5
47C
330
479
100
AcDbEntity
  8
001
 62
   253
370
    50
100
AcDbVertex
100
AcDb2dVertex
 10
61.166619
 20
34.088144
 30
0.0
  0
VERTEX
  5
47D
330
479
100
AcDbEntity
  8
001
 62
   253
370
    50
100
AcDbVertex
100
AcDb2dVertex
 10
61.234699
 20
34.09902
 30
0.0
  0
VERTEX
  5
47E
330
479
100
AcDbEntity
  8
001
 62
   253
370
    50
100
AcDbVertex
100
AcDb2dVertex
 10
61.460237
 20
34.148067
 30
0.0
  0
VERTEX
  5
47F
330
479
100
AcDbEntity
  8
001
 62
   253
370
    50
100
AcDbVertex
100
AcDb2dVertex
 10
61.653103
 20
34.211807
 30
0.0
  0
VERTEX
  5
480
330
479
100
AcDbEntity
  8
001
 62
   253
370
    50
100
AcDbVertex
100
AcDb2dVertex
 10
61.849173
 20
34.294554
 30
0.0
  0
VERTEX
  5
481
330
479
100
AcDbEntity
  8
001
 62
   253
370
    50
100
AcDbVertex
100
AcDb2dVertex
 10
62.045683
 20
34.395975
 30
0.0
  0
VERTEX
  5
482
330
479
100
AcDbEntity
  8
001
 62
   253
370
    50
100
AcDbVertex
100
AcDb2dVertex
 10
62.563168
 20
34.794624
 30
0.0
  0
VERTEX
  5
483
330
479
100
AcDbEntity
  8
001
 62
   253
370
    50
100
AcDbVertex
100
AcDb2dVertex
 10
62.955256
 20
35.311039
 30
0.0
  0
VERTEX
  5
484
330
479
100
AcDbEntity
  8
001
 62
   253
370
    50
100
AcDbVertex
100
AcDb2dVertex
 10
63.138219
 20
35.706678
 30
0.0
  0
VERTEX
  5
485
330
479
100
AcDbEntity
  8
001
 62
   253
370
    50
100
AcDbVertex
100
AcDb2dVertex
 10
63.25043
 20
36.126918
 30
0.0
  0
VERTEX
  5
486
330
479
100
AcDbEntity
  8
001
 62
   253
370
    50
100
AcDbVertex
100
AcDb2dVertex
 10
63.278766
 20
36.343236
 30
0.0
  0
VERTEX
  5
487
330
479
100
AcDbEntity
  8
001
 62
   253
370
    50
100
AcDbVertex
100
AcDb2dVertex
 10
63.288183
 20
36.561039
 30
0.0
  0
VERTEX
  5
488
330
479
100
AcDbEntity
  8
001
 62
   253
370
    50
100
AcDbVertex
100
AcDb2dVertex
 10
63.278742
 20
36.778847
 30
0.0
  0
VERTEX
  5
489
330
479
100
AcDbEntity
  8
001
 62
   253
370
    50
100
AcDbVertex
100
AcDb2dVertex
 10
63.25043
 20
36.995159
 30
0.0
  0
VERTEX
  5
48A
330
479
100
AcDbEntity
  8
001
 62
   253
370
    50
100
AcDbVertex
100
AcDb2dVertex
 10
63.138413
 20
37.415327
 30
0.0
  0
VERTEX
  5
48B
330
479
100
AcDbEntity
  8
001
 62
   253
370
    50
100
AcDbVertex
100
AcDb2dVertex
 10
62.955256
 20
37.811039
 30
0.0
  0
VERTEX
  5
48C
330
479
100
AcDbEntity
  8
001
 62
   253
370
    50
100
AcDbVertex
100
AcDb2dVertex
 10
62.561805
 20
38.327987
 30
0.0
  0
VERTEX
  5
48D
330
479
100
AcDbEntity
  8
001
 62
   253
370
    50
100
AcDbVertex
100
AcDb2dVertex
 10
62.045683
 20
38.726102
 30
0.0
  0
VERTEX
  5
48E
330
479
100
AcDbEntity
  8
001
 62
   253
370
    50
100
AcDbVertex
100
AcDb2dVertex
 10
61.850532
 20
38.826991
 30
0.0
  0
VERTEX
  5
48F
330
479
100
AcDbEntity
  8
001
 62
   253
370
    50
100
AcDbVertex
100
AcDb2dVertex
 10
61.653103
 20
38.91027
 30
0.0
  0
VERTEX
  5
490
330
479
100
AcDbEntity
  8
001
 62
   253
370
    50
100
AcDbVertex
100
AcDb2dVertex
 10
61.455712
 20
38.975785
 30
0.0
  0
VERTEX
  5
491
330
479
100
AcDbEntity
  8
001
 62
   253
370
    50
100
AcDbVertex
100
AcDb2dVertex
 10
61.234699
 20
39.023058
 30
0.0
  0
VERTEX
  5
492
330
479
100
AcDbEntity
  8
001
 62
   253
370
    50
100
AcDbVertex
100
AcDb2dVertex
 10
60.985335
 20
39.051529
 30
0.0
  0
VERTEX
  5
493
330
479
100
AcDbEntity
  8
001
 62
   253
370
    50
100
AcDbVertex
100
AcDb2dVertex
 10
60.803183
 20
39.061039
 30
0.0
  0
SEQEND
  5
47A
330
479
100
AcDbEntity
  8
001
370
    50
  0
LINE
  5
494
330
1F
100
AcDbEntity
  8
001
 62
   253
370
    50
100
AcDbLine
 10
59.033677
 20
38.316297
 30
0.0
 11
53.24225
 21
39.731202
 31
0.0
  0
LINE
  5
495
330
1F
100
AcDbEntity
  8
001
 62
   253
370
    50
100
AcDbLine
 10
53.403915
 20
40.102592
 30
0.0
 11
53.24225
 21
39.731202
 31
0.0
  0
LINE
  5
496
330
1F
100
AcDbEntity
  8
001
 62
   253
370
    50
100
AcDbLine
 10
58.987054
 20
41.23714
 30
0.0
 11
53.403915
 21
40.102592
 31
0.0
  0
POLYLINE
  5
497
330
1F
100
AcDbEntity
  8
001
 62
   253
370
    50
100
AcDb2dPolyline
 66
     1
 10
0.0
 20
0.0
 30
0.0
  0
VERTEX
  5
499
330
497
100
AcDbEntity
  8
001
 62
   253
370
    50
100
AcDbVertex
100
AcDb2dVertex
 10
60.803183
 20
39.061039
 30
0.0
  0
VERTEX
  5
49A
330
497
100
AcDbEntity
  8
001
 62
   253
370
    50
100
AcDbVertex
100
AcDb2dVertex
 10
60.621289
 20
39.051798
 30
0.0
  0
VERTEX
  5
49B
330
497
100
AcDbEntity
  8
001
 62
   253
370
    50
100
AcDbVertex
100
AcDb2dVertex
 10
60.371668
 20
39.023058
 30
0.0
  0
VERTEX
  5
49C
330
497
100
AcDbEntity
  8
001
 62
   253
370
    50
100
AcDbVertex
100
AcDb2dVertex
 10
60.149369
 20
38.974441
 30
0.0
  0
VERTEX
  5
49D
330
497
100
AcDbEntity
  8
001
 62
   253
370
    50
100
AcDbVertex
100
AcDb2dVertex
 10
59.953263
 20
38.91027
 30
0.0
  0
VERTEX
  5
49E
330
497
100
AcDbEntity
  8
001
 62
   253
370
    50
100
AcDbVertex
100
AcDb2dVertex
 10
59.760724
 20
38.832104
 30
0.0
  0
VERTEX
  5
49F
330
497
100
AcDbEntity
  8
001
 62
   253
370
    50
100
AcDbVertex
100
AcDb2dVertex
 10
59.560684
 20
38.726102
 30
0.0
  0
VERTEX
  5
4A0
330
497
100
AcDbEntity
  8
001
 62
   253
370
    50
100
AcDbVertex
100
AcDb2dVertex
 10
59.246876
 20
38.502566
 30
0.0
  0
VERTEX
  5
4A1
330
497
100
AcDbEntity
  8
001
 62
   253
370
    50
100
AcDbVertex
100
AcDb2dVertex
 10
59.033677
 20
38.316297
 30
0.0
  0
SEQEND
  5
498
330
497
100
AcDbEntity
  8
001
370
    50
  0
POLYLINE
  5
4A2
330
1F
100
AcDbEntity
  8
001
 62
   253
370
    50
100
AcDb2dPolyline
 66
     1
 10
0.0
 20
0.0
 30
0.0
  0
VERTEX
  5
4A4
330
4A2
100
AcDbEntity
  8
001
 62
   253
370
    50
100
AcDbVertex
100
AcDb2dVertex
 10
60.968941
 20
39.055471
 30
0.0
  0
VERTEX
  5
4A5
330
4A2
100
AcDbEntity
  8
001
 62
   253
370
    50
100
AcDbVertex
100
AcDb2dVertex
 10
60.857916
 20
39.044489
 30
0.0
  0
VERTEX
  5
4A6
330
4A2
100
AcDbEntity
  8
001
 62
   253
370
    50
100
AcDbVertex
100
AcDb2dVertex
 10
60.703182
 20
39.023058
 30
0.0
  0
VERTEX
  5
4A7
330
4A2
100
AcDbEntity
  8
001
 62
   253
370
    50
100
AcDbVertex
100
AcDb2dVertex
 10
60.47906
 20
38.97378
 30
0.0
  0
VERTEX
  5
4A8
330
4A2
100
AcDbEntity
  8
001
 62
   253
370
    50
100
AcDbVertex
100
AcDb2dVertex
 10
60.284778
 20
38.91027
 30
0.0
  0
VERTEX
  5
4A9
330
4A2
100
AcDbEntity
  8
001
 62
   253
370
    50
100
AcDbVertex
100
AcDb2dVertex
 10
60.092737
 20
38.832285
 30
0.0
  0
VERTEX
  5
4AA
330
4A2
100
AcDbEntity
  8
001
 62
   253
370
    50
100
AcDbVertex
100
AcDb2dVertex
 10
59.892199
 20
38.726102
 30
0.0
  0
VERTEX
  5
4AB
330
4A2
100
AcDbEntity
  8
001
 62
   253
370
    50
100
AcDbVertex
100
AcDb2dVertex
 10
59.577551
 20
38.501932
 30
0.0
  0
VERTEX
  5
4AC
330
4A2
100
AcDbEntity
  8
001
 62
   253
370
    50
100
AcDbVertex
100
AcDb2dVertex
 10
59.364119
 20
38.315201
 30
0.0
  0
SEQEND
  5
4A3
330
4A2
100
AcDbEntity
  8
001
370
    50
  0
LINE
  5
4AD
330
1F
100
AcDbEntity
  8
001
 62
   253
370
    50
100
AcDbLine
 10
59.033677
 20
38.316297
 30
0.0
 11
59.359648
 21
38.316294
 31
0.0
  0
POLYLINE
  5
4AE
330
1F
100
AcDbEntity
  8
001
 62
   253
370
    50
100
AcDb2dPolyline
 66
     1
 10
0.0
 20
0.0
 30
0.0
  0
VERTEX
  5
4B0
330
4AE
100
AcDbEntity
  8
001
 62
   253
370
    50
100
AcDbVertex
100
AcDb2dVertex
 10
53.935126
 20
40.741393
 30
0.0
  0
VERTEX
  5
4B1
330
4AE
100
AcDbEntity
  8
001
 62
   253
370
    50
100
AcDbVertex
100
AcDb2dVertex
 10
53.903187
 20
40.726719
 30
0.0
  0
VERTEX
  5
4B2
330
4AE
100
AcDbEntity
  8
001
 62
   253
370
    50
100
AcDbVertex
100
AcDb2dVertex
 10
53.860551
 20
40.699742
 30
0.0
  0
VERTEX
  5
4B3
330
4AE
100
AcDbEntity
  8
001
 62
   253
370
    50
100
AcDbVertex
100
AcDb2dVertex
 10
53.759452
 20
40.608236
 30
0.0
  0
VERTEX
  5
4B4
330
4AE
100
AcDbEntity
  8
001
 62
   253
370
    50
100
AcDbVertex
100
AcDb2dVertex
 10
53.687553
 20
40.513353
 30
0.0
  0
VERTEX
  5
4B5
330
4AE
100
AcDbEntity
  8
001
 62
   253
370
    50
100
AcDbVertex
100
AcDb2dVertex
 10
53.578986
 20
40.363138
 30
0.0
  0
VERTEX
  5
4B6
330
4AE
100
AcDbEntity
  8
001
 62
   253
370
    50
100
AcDbVertex
100
AcDb2dVertex
 10
53.457234
 20
40.185773
 30
0.0
  0
VERTEX
  5
4B7
330
4AE
100
AcDbEntity
  8
001
 62
   253
370
    50
100
AcDbVertex
100
AcDb2dVertex
 10
53.42572
 20
40.136891
 30
0.0
  0
VERTEX
  5
4B8
330
4AE
100
AcDbEntity
  8
001
 62
   253
370
    50
100
AcDbVertex
100
AcDb2dVertex
 10
53.403915
 20
40.102592
 30
0.0
  0
SEQEND
  5
4AF
330
4AE
100
AcDbEntity
  8
001
370
    50
  0
LINE
  5
4B9
330
1F
100
AcDbEntity
  8
001
 62
   253
370
    50
100
AcDbLine
 10
58.987054
 20
41.907723
 30
0.0
 11
53.935126
 21
40.741393
 31
0.0
  0
LINE
  5
4BA
330
1F
100
AcDbEntity
  8
001
370
    50
100
AcDbLine
 10
174.588038
 20
35.370361
 30
0.0
 11
178.293236
 21
37.509557
 31
0.0
  0
LINE
  5
4BB
330
1F
100
AcDbEntity
  8
001
370
    50
100
AcDbLine
 10
174.588038
 20
35.370361
 30
0.0
 11
178.293236
 21
33.231164
 31
0.0
  0
LINE
  5
4BC
330
1F
100
AcDbEntity
  8
001
 62
   253
370
     9
100
AcDbLine
 10
49.588038
 20
22.576623
 30
0.0
 11
49.588038
 21
31.106538
 31
0.0
  0
LINE
  5
4BD
330
1F
100
AcDbEntity
  8
001
 62
    40
370
    50
100
AcDbLine
 10
65.82608
 20
29.937894
 30
0.0
 11
59.941033
 21
31.375672
 31
0.0
  0
POLYLINE
  5
4BE
330
1F
100
AcDbEntity
  8
001
 62
   253
370
    50
100
AcDb2dPolyline
 66
     1
 10
0.0
 20
0.0
 30
0.0
  0
VERTEX
  5
4C0
330
4BE
100
AcDbEntity
  8
001
 62
   253
370
    50
100
AcDbVertex
100
AcDb2dVertex
 10
59.129486
 20
29.511313
 30
0.0
  0
VERTEX
  5
4C1
330
4BE
100
AcDbEntity
  8
001
 62
   253
370
    50
100
AcDbVertex
100
AcDb2dVertex
 10
60.491633
 20
29.588165
 30
0.0
  0
VERTEX
  5
4C2
330
4BE
100
AcDbEntity
  8
001
 62
   253
370
    50
100
AcDbVertex
100
AcDb2dVertex
 10
62.481956
 20
29.708839
 30
0.0
  0
VERTEX
  5
4C3
330
4BE
100
AcDbEntity
  8
001
 62
   253
370
    50
100
AcDbVertex
100
AcDb2dVertex
 10
64.467771
 20
29.841239
 30
0.0
  0
VERTEX
  5
4C4
330
4BE
100
AcDbEntity
  8
001
 62
   253
370
    50
100
AcDbVertex
100
AcDb2dVertex
 10
65.82608
 20
29.937894
 30
0.0
  0
SEQEND
  5
4BF
330
4BE
100
AcDbEntity
  8
001
370
    50
  0
LINE
  5
4C5
330
1F
100
AcDbEntity
  8
001
 62
   253
370
    50
100
AcDbLine
 10
64.588038
 20
40.891596
 30
0.0
 11
64.588038
 21
30.24036
 31
0.0
  0
POLYLINE
  5
4C6
330
1F
100
AcDbEntity
  8
001
 62
   253
370
    50
100
AcDb2dPolyline
 66
     1
 10
0.0
 20
0.0
 30
0.0
  0
VERTEX
  5
4C8
330
4C6
100
AcDbEntity
  8
001
 62
   253
370
    50
100
AcDbVertex
100
AcDb2dVertex
 10
64.915617
 20
30.16033
 30
0.0
  0
VERTEX
  5
4C9
330
4C6
100
AcDbEntity
  8
001
 62
   253
370
    50
100
AcDbVertex
100
AcDb2dVertex
 10
65.637434
 20
31.030741
 30
0.0
  0
VERTEX
  5
4CA
330
4C6
100
AcDbEntity
  8
001
 62
   253
370
    50
100
AcDbVertex
100
AcDb2dVertex
 10
66.320652
 20
32.10168
 30
0.0
  0
VERTEX
  5
4CB
330
4C6
100
AcDbEntity
  8
001
 62
   253
370
    50
100
AcDbVertex
100
AcDb2dVertex
 10
66.740804
 20
33.171491
 30
0.0
  0
VERTEX
  5
4CC
330
4C6
100
AcDbEntity
  8
001
 62
   253
370
    50
100
AcDbVertex
100
AcDb2dVertex
 10
66.943217
 20
34.23516
 30
0.0
  0
VERTEX
  5
4CD
330
4C6
100
AcDbEntity
  8
001
 62
   253
370
    50
100
AcDbVertex
100
AcDb2dVertex
 10
67.000712
 20
34.798305
 30
0.0
  0
VERTEX
  5
4CE
330
4C6
100
AcDbEntity
  8
001
 62
   253
370
    50
100
AcDbVertex
100
AcDb2dVertex
 10
67.022843
 20
35.370361
 30
0.0
  0
VERTEX
  5
4CF
330
4C6
100
AcDbEntity
  8
001
 62
   253
370
    50
100
AcDbVertex
100
AcDb2dVertex
 10
67.000712
 20
35.942417
 30
0.0
  0
VERTEX
  5
4D0
330
4C6
100
AcDbEntity
  8
001
 62
   253
370
    50
100
AcDbVertex
100
AcDb2dVertex
 10
66.943217
 20
36.505562
 30
0.0
  0
VERTEX
  5
4D1
330
4C6
100
AcDbEntity
  8
001
 62
   253
370
    50
100
AcDbVertex
100
AcDb2dVertex
 10
66.740804
 20
37.569231
 30
0.0
  0
VERTEX
  5
4D2
330
4C6
100
AcDbEntity
  8
001
 62
   253
370
    50
100
AcDbVertex
100
AcDb2dVertex
 10
66.320652
 20
38.639042
 30
0.0
  0
VERTEX
  5
4D3
330
4C6
100
AcDbEntity
  8
001
 62
   253
370
    50
100
AcDbVertex
100
AcDb2dVertex
 10
65.410296
 20
40.006016
 30
0.0
  0
VERTEX
  5
4D4
330
4C6
100
AcDbEntity
  8
001
 62
   253
370
    50
100
AcDbVertex
100
AcDb2dVertex
 10
64.588038
 20
40.891596
 30
0.0
  0
SEQEND
  5
4C7
330
4C6
100
AcDbEntity
  8
001
370
    50
  0
ENDSEC
  0
SECTION
  2
OBJECTS
  0
DICTIONARY
  5
C
330
0
100
AcDbDictionary
281
     1
  3
ACAD_GROUP
350
D
  3
ACAD_LAYOUT
350
1A
  3
ACAD_MLEADERSTYLE
350
4D8
  3
ACAD_MLINESTYLE
350
17
  3
ACAD_PLOTSETTINGS
350
19
  3
ACAD_PLOTSTYLENAME
350
E
  3
ACAD_SCALELIST
350
3B
  3
ACAD_TABLESTYLE
350
4D7
  3
ACAD_VISUALSTYLE
350
2A
  3
AcDbVariableDictionary
350
4D5
  0
DICTIONARY
  5
D
102
{ACAD_REACTORS
330
C
102
}
330
C
100
AcDbDictionary
281
     1
  0
DICTIONARY
  5
1A
102
{ACAD_REACTORS
330
C
102
}
330
C
100
AcDbDictionary
281
     1
  3
Layout1
350
1E
  3
Layout2
350
26
  3
Model
350
22
  0
DICTIONARY
  5
4D8
102
{ACAD_REACTORS
330
C
102
}
330
C
100
AcDbDictionary
281
     1
  0
DICTIONARY
  5
17
102
{ACAD_REACTORS
330
C
102
}
330
C
100
AcDbDictionary
281
     1
  3
Standard
350
18
  0
DICTIONARY
  5
19
102
{ACAD_REACTORS
330
C
102
}
330
C
100
AcDbDictionary
281
     1
  0
ACDBDICTIONARYWDFLT
  5
E
102
{ACAD_REACTORS
330
C
102
}
330
C
100
AcDbDictionary
281
     1
  3
Normal
350
F
100
AcDbDictionaryWithDefault
340
F
  0
DICTIONARY
  5
3B
102
{ACAD_REACTORS
330
C
102
}
330
C
100
AcDbDictionary
281
     1
  3
A0
350
3C
  3
A1
350
3D
  3
A2
350
3E
  3
A3
350
3F
  3
A4
350
40
  3
A5
350
41
  3
A6
350
42
  3
A7
350
43
  3
A8
350
44
  3
A9
350
45
  3
B0
350
46
  3
B1
350
47
  3
B2
350
48
  3
B3
350
49
  3
B4
350
4A
  3
B5
350
4B
  3
B6
350
4C
  3
B7
350
4D
  3
B8
350
4E
  3
B9
350
4F
  3
C0
350
50
  3
C1
350
51
  3
C2
350
52
  3
C3
350
53
  3
C4
350
54
  3
C5
350
55
  3
C6
350
56
  3
C7
350
57
  3
C8
350
58
  3
C9
350
59
  3
D0
350
5A
  3
D1
350
5B
  3
D2
350
5C
  0
DICTIONARY
  5
4D7
102
{ACAD_REACTORS
330
C
102
}
330
C
100
AcDbDictionary
281
     1
  0
DICTIONARY
  5
2A
102
{ACAD_REACTORS
330
C
102
}
330
C
100
AcDbDictionary
281
     1
  3
2dWireframe
350
2F
  3
3D Hidden
350
31
  3
3dWireframe
350
30
  3
Basic
350
32
  3
Brighten
350
36
  3
ColorChange
350
3A
  3
Conceptual
350
34
  3
Dim
350
35
  3
Facepattern
350
39
  3
Flat
350
2B
  3
FlatWithEdges
350
2C
  3
Gouraud
350
2D
  3
GouraudWithEdges
350
2E
  3
Linepattern
350
38
  3
Realistic
350
33
  3
Thicken
350
37
  0
DICTIONARY
  5
4D5
102
{ACAD_REACTORS
330
C
102
}
330
C
100
AcDbDictionary
281
     1
  3
CANNOSCALE
350
4D6
  3
PSOLHEIGHT
350
4DA
  3
PSOLWIDTH
350
4D9
  0
LAYOUT
  5
1E
102
{ACAD_REACTORS
330
1A
102
}
330
1A
100
AcDbPlotSettings
  1

  2
none_device
  4

  6

 40
0.0
 41
0.0
 42
0.0
 43
0.0
 44
0.0
 45
0.0
 46
0.0
 47
0.0
 48
0.0
 49
0.0
140
0.0
141
0.0
142
1.0
143
1.0
 70
   688
 72
     0
 73
     0
 74
     5
  7

 75
    16
147
1.0
148
0.0
149
0.0
100
AcDbLayout
  1
Layout1
 70
     1
 71
     1
 10
0.0
 20
0.0
 11
12.0
 21
9.0
 12
0.0
 22
0.0
 32
0.0
 14
1.000000E+20
 24
1.000000E+20
 34
0.0
 15
-1.000000E+20
 25
-1.000000E+20
 35
0.0
146
0.0
 13
0.0
 23
0.0
 33
0.0
 16
1.0
 26
0.0
 36
0.0
 17
0.0
 27
1.0
 37
0.0
 76
     0
330
1B
  0
LAYOUT
  5
26
102
{ACAD_REACTORS
330
1A
102
}
330
1A
100
AcDbPlotSettings
  1

  2
none_device
  4

  6

 40
0.0
 41
0.0
 42
0.0
 43
0.0
 44
0.0
 45
0.0
 46
0.0
 47
0.0
 48
0.0
 49
0.0
140
0.0
141
0.0
142
1.0
143
1.0
 70
   688
 72
     0
 73
     0
 74
     5
  7

 75
    16
147
1.0
148
0.0
149
0.0
100
AcDbLayout
  1
Layout2
 70
     1
 71
     2
 10
0.0
 20
0.0
 11
0.0
 21
0.0
 12
0.0
 22
0.0
 32
0.0
 14
0.0
 24
0.0
 34
0.0
 15
0.0
 25
0.0
 35
0.0
146
0.0
 13
0.0
 23
0.0
 33
0.0
 16
1.0
 26
0.0
 36
0.0
 17
0.0
 27
1.0
 37
0.0
 76
     0
330
23
  0
LAYOUT
  5
22
102
{ACAD_REACTORS
330
1A
102
}
330
1A
100
AcDbPlotSettings
  1

  2
none_device
  4

  6

 40
0.0
 41
0.0
 42
0.0
 43
0.0
 44
0.0
 45
0.0
 46
0.0
 47
0.0
 48
0.0
 49
0.0
140
0.0
141
0.0
142
1.0
143
1.0
 70
  1712
 72
     0
 73
     0
 74
     0
  7

 75
     0
147
1.0
148
0.0
149
0.0
100
AcDbLayout
  1
Model
 70
     1
 71
     0
 10
0.0
 20
0.0
 11
12.0
 21
9.0
 12
0.0
 22
0.0
 32
0.0
 14
23.692352
 24
-10.210213
 34
0.0
 15
199.993927
 25
73.821434
 35
0.0
146
0.0
 13
0.0
 23
0.0
 33
0.0
 16
1.0
 26
0.0
 36
0.0
 17
0.0
 27
1.0
 37
0.0
 76
     0
330
1F
331
29
  0
MLINESTYLE
  5
18
102
{ACAD_REACTORS
330
17
102
}
330
17
100
AcDbMlineStyle
  2
Standard
 70
     0
  3

 62
   256
 51
90.0
 52
90.0
 71
     2
 49
0.5
 62
   256
  6
BYLAYER
 49
-0.5
 62
   256
  6
BYLAYER
  0
ACDBPLACEHOLDER
  5
F
102
{ACAD_REACTORS
330
E
102
}
330
E
  0
SCALE
  5
3C
102
{ACAD_REACTORS
330
3B
102
}
330
3B
100
AcDbScale
 70
     0
300
1:1
140
1.0
141
1.0
290
     1
  0
SCALE
  5
3D
102
{ACAD_REACTORS
330
3B
102
}
330
3B
100
AcDbScale
 70
     0
300
1:2
140
1.0
141
2.0
290
     0
  0
SCALE
  5
3E
102
{ACAD_REACTORS
330
3B
102
}
330
3B
100
AcDbScale
 70
     0
300
1:4
140
1.0
141
4.0
290
     0
  0
SCALE
  5
3F
102
{ACAD_REACTORS
330
3B
102
}
330
3B
100
AcDbScale
 70
     0
300
1:5
140
1.0
141
5.0
290
     0
  0
SCALE
  5
40
102
{ACAD_REACTORS
330
3B
102
}
330
3B
100
AcDbScale
 70
     0
300
1:8
140
1.0
141
8.0
290
     0
  0
SCALE
  5
41
102
{ACAD_REACTORS
330
3B
102
}
330
3B
100
AcDbScale
 70
     0
300
1:10
140
1.0
141
10.0
290
     0
  0
SCALE
  5
42
102
{ACAD_REACTORS
330
3B
102
}
330
3B
100
AcDbScale
 70
     0
300
1:16
140
1.0
141
16.0
290
     0
  0
SCALE
  5
43
102
{ACAD_REACTORS
330
3B
102
}
330
3B
100
AcDbScale
 70
     0
300
1:20
140
1.0
141
20.0
290
     0
  0
SCALE
  5
44
102
{ACAD_REACTORS
330
3B
102
}
330
3B
100
AcDbScale
 70
     0
300
1:30
140
1.0
141
30.0
290
     0
  0
SCALE
  5
45
102
{ACAD_REACTORS
330
3B
102
}
330
3B
100
AcDbScale
 70
     0
300
1:40
140
1.0
141
40.0
290
     0
  0
SCALE
  5
46
102
{ACAD_REACTORS
330
3B
102
}
330
3B
100
AcDbScale
 70
     0
300
1:50
140
1.0
141
50.0
290
     0
  0
SCALE
  5
47
102
{ACAD_REACTORS
330
3B
102
}
330
3B
100
AcDbScale
 70
     0
300
1:100
140
1.0
141
100.0
290
     0
  0
SCALE
  5
48
102
{ACAD_REACTORS
330
3B
102
}
330
3B
100
AcDbScale
 70
     0
300
2:1
140
2.0
141
1.0
290
     0
  0
SCALE
  5
49
102
{ACAD_REACTORS
330
3B
102
}
330
3B
100
AcDbScale
 70
     0
300
4:1
140
4.0
141
1.0
290
     0
  0
SCALE
  5
4A
102
{ACAD_REACTORS
330
3B
102
}
330
3B
100
AcDbScale
 70
     0
300
8:1
140
8.0
141
1.0
290
     0
  0
SCALE
  5
4B
102
{ACAD_REACTORS
330
3B
102
}
330
3B
100
AcDbScale
 70
     0
300
10:1
140
10.0
141
1.0
290
     0
  0
SCALE
  5
4C
102
{ACAD_REACTORS
330
3B
102
}
330
3B
100
AcDbScale
 70
     0
300
100:1
140
100.0
141
1.0
290
     0
  0
SCALE
  5
4D
102
{ACAD_REACTORS
330
3B
102
}
330
3B
100
AcDbScale
 70
     0
300
1/128" = 1'-0"
140
0.007812
141
12.0
290
     0
  0
SCALE
  5
4E
102
{ACAD_REACTORS
330
3B
102
}
330
3B
100
AcDbScale
 70
     0
300
1/64" = 1'-0"
140
0.015625
141
12.0
290
     0
  0
SCALE
  5
4F
102
{ACAD_REACTORS
330
3B
102
}
330
3B
100
AcDbScale
 70
     0
300
1/32" = 1'-0"
140
0.03125
141
12.0
290
     0
  0
SCALE
  5
50
102
{ACAD_REACTORS
330
3B
102
}
330
3B
100
AcDbScale
 70
     0
300
1/16" = 1'-0"
140
0.0625
141
12.0
290
     0
  0
SCALE
  5
51
102
{ACAD_REACTORS
330
3B
102
}
330
3B
100
AcDbScale
 70
     0
300
3/32" = 1'-0"
140
0.09375
141
12.0
290
     0
  0
SCALE
  5
52
102
{ACAD_REACTORS
330
3B
102
}
330
3B
100
AcDbScale
 70
     0
300
1/8" = 1'-0"
140
0.125
141
12.0
290
     0
  0
SCALE
  5
53
102
{ACAD_REACTORS
330
3B
102
}
330
3B
100
AcDbScale
 70
     0
300
3/16" = 1'-0"
140
0.1875
141
12.0
290
     0
  0
SCALE
  5
54
102
{ACAD_REACTORS
330
3B
102
}
330
3B
100
AcDbScale
 70
     0
300
1/4" = 1'-0"
140
0.25
141
12.0
290
     0
  0
SCALE
  5
55
102
{ACAD_REACTORS
330
3B
102
}
330
3B
100
AcDbScale
 70
     0
300
3/8" = 1'-0"
140
0.375
141
12.0
290
     0
  0
SCALE
  5
56
102
{ACAD_REACTORS
330
3B
102
}
330
3B
100
AcDbScale
 70
     0
300
1/2" = 1'-0"
140
0.5
141
12.0
290
     0
  0
SCALE
  5
57
102
{ACAD_REACTORS
330
3B
102
}
330
3B
100
AcDbScale
 70
     0
300
3/4" = 1'-0"
140
0.75
141
12.0
290
     0
  0
SCALE
  5
58
102
{ACAD_REACTORS
330
3B
102
}
330
3B
100
AcDbScale
 70
     0
300
1" = 1'-0"
140
1.0
141
12.0
290
     0
  0
SCALE
  5
59
102
{ACAD_REACTORS
330
3B
102
}
330
3B
100
AcDbScale
 70
     0
300
1-1/2" = 1'-0"
140
1.5
141
12.0
290
     0
  0
SCALE
  5
5A
102
{ACAD_REACTORS
330
3B
102
}
330
3B
100
AcDbScale
 70
     0
300
3" = 1'-0"
140
3.0
141
12.0
290
     0
  0
SCALE
  5
5B
102
{ACAD_REACTORS
330
3B
102
}
330
3B
100
AcDbScale
 70
     0
300
6" = 1'-0"
140
6.0
141
12.0
290
     0
  0
SCALE
  5
5C
102
{ACAD_REACTORS
330
3B
102
}
330
3B
100
AcDbScale
 70
     0
300
1'-0" = 1'-0"
140
12.0
141
12.0
290
     0
  0
VISUALSTYLE
  5
2F
102
{ACAD_REACTORS
330
2A
102
}
330
2A
100
AcDbVisualStyle
  2
2dWireframe
 70
     4
 71
     0
 72
     2
 73
     0
 90
        0
 40
-0.6
 41
-30.0
 62
     5
 63
     7
 74
     1
 91
        4
 64
     7
 65
   257
 75
     1
175
     1
 42
1.0
 92
        0
 66
   257
 43
1.0
 76
     1
 77
     6
 78
     2
 67
     7
 79
     5
170
     0
171
     0
290
     0
174
     0
 93
        1
 44
0.0
173
     0
291
     0
 45
0.0
1001
ACAD
1000
AcDbSavedByObjectVersion
1070
     0
  0
VISUALSTYLE
  5
31
102
{ACAD_REACTORS
330
2A
102
}
330
2A
100
AcDbVisualStyle
  2
3D Hidden
 70
     6
 71
     1
 72
     2
 73
     2
 90
        0
 40
-0.6
 41
-30.0
 62
     5
 63
     7
 74
     2
 91
        2
 64
     7
 65
   257
 75
     2
175
     1
 42
40.0
 92
        0
 66
   257
 43
1.0
 76
     1
 77
     6
 78
     2
 67
     7
 79
     3
170
     0
171
     0
290
     0
174
     0
 93
        1
 44
0.0
173
     0
291
     0
 45
0.0
1001
ACAD
1000
AcDbSavedByObjectVersion
1070
     0
  0
VISUALSTYLE
  5
30
102
{ACAD_REACTORS
330
2A
102
}
330
2A
100
AcDbVisualStyle
  2
3dWireframe
 70
     5
 71
     0
 72
     2
 73
     0
 90
        0
 40
-0.6
 41
-30.0
 62
     5
 63
     7
 74
     1
 91
        4
 64
     7
 65
   257
 75
     1
175
     1
 42
1.0
 92
        0
 66
   257
 43
1.0
 76
     1
 77
     6
 78
     2
 67
     7
 79
     5
170
     0
171
     0
290
     0
174
     0
 93
        1
 44
0.0
173
     0
291
     0
 45
0.0
1001
ACAD
1000
AcDbSavedByObjectVersion
1070
     0
  0
VISUALSTYLE
  5
32
102
{ACAD_REACTORS
330
2A
102
}
330
2A
100
AcDbVisualStyle
  2
Basic
 70
     7
 71
     1
 72
     0
 73
     1
 90
        0
 40
-0.6
 41
-30.0
 62
     5
 63
     7
 74
     0
 91
        4
 64
     7
 65
   257
 75
     1
175
     1
 42
1.0
 92
        8
 66
     7
 43
1.0
 76
     1
 77
     6
 78
     2
 67
     7
 79
     5
170
     0
171
     0
290
     0
174
     0
 93
        1
 44
0.0
173
     0
291
     1
 45
0.0
1001
ACAD
1000
AcDbSavedByObjectVersion
1070
     0
  0
VISUALSTYLE
  5
36
102
{ACAD_REACTORS
330
2A
102
}
330
2A
100
AcDbVisualStyle
  2
Brighten
 70
    12
 71
     2
 72
     2
 73
     0
 90
        0
 40
-0.6
 41
-30.0
 62
     5
 63
     7
 74
     1
 91
        4
 64
     7
 65
   257
 75
     1
175
     1
 42
1.0
 92
        8
 66
     7
 43
1.0
 76
     1
 77
     6
 78
     2
 67
     7
 79
     5
170
     0
171
     0
290
     0
174
     0
 93
        1
 44
50.0
173
     0
291
     1
 45
0.0
1001
ACAD
1000
AcDbSavedByObjectVersion
1070
     0
  0
VISUALSTYLE
  5
3A
102
{ACAD_REACTORS
330
2A
102
}
330
2A
100
AcDbVisualStyle
  2
ColorChange
 70
    16
 71
     2
 72
     2
 73
     3
 90
        0
 40
-0.6
 41
-30.0
 62
     5
 63
     8
 74
     1
 91
        4
 64
     7
 65
   257
 75
     1
175
     1
 42
1.0
 92
        8
 66
     8
 43
1.0
 76
     1
 77
     6
 78
     2
 67
     7
 79
     5
170
     0
171
     0
290
     0
174
     0
 93
        1
 44
0.0
173
     0
291
     1
 45
0.0
1001
ACAD
1000
AcDbSavedByObjectVersion
1070
     0
  0
VISUALSTYLE
  5
34
102
{ACAD_REACTORS
330
2A
102
}
330
2A
100
AcDbVisualStyle
  2
Conceptual
 70
     9
 71
     3
 72
     2
 73
     0
 90
        0
 40
-0.6
 41
-30.0
 62
     5
 63
     7
 74
     2
 91
        2
 64
     7
 65
   257
 75
     1
175
     1
 42
40.0
 92
        8
 66
     7
 43
1.0
 76
     1
 77
     6
 78
     2
 67
     7
 79
     3
170
     0
171
     0
290
     0
174
     0
 93
        1
 44
0.0
173
     0
291
     0
 45
0.0
1001
ACAD
1000
AcDbSavedByObjectVersion
1070
     0
  0
VISUALSTYLE
  5
35
102
{ACAD_REACTORS
330
2A
102
}
330
2A
100
AcDbVisualStyle
  2
Dim
 70
    11
 71
     2
 72
     2
 73
     0
 90
        0
 40
-0.6
 41
-30.0
 62
     5
 63
     7
 74
     1
 91
        4
 64
     7
 65
   257
 75
     1
175
     1
 42
1.0
 92
        8
 66
     7
 43
1.0
 76
     1
 77
     6
 78
     2
 67
     7
 79
     5
170
     0
171
     0
290
     0
174
     0
 93
        1
 44
-50.0
173
     0
291
     1
 45
0.0
1001
ACAD
1000
AcDbSavedByObjectVersion
1070
     0
  0
VISUALSTYLE
  5
39
102
{ACAD_REACTORS
330
2A
102
}
330
2A
100
AcDbVisualStyle
  2
Facepattern
 70
    15
 71
     2
 72
     2
 73
     0
 90
        0
 40
-0.6
 41
-30.0
 62
     5
 63
     7
 74
     1
 91
        4
 64
     7
 65
   257
 75
     1
175
     1
 42
1.0
 92
        8
 66
     7
 43
1.0
 76
     1
 77
     6
 78
     2
 67
     7
 79
     5
170
     0
171
     0
290
     0
174
     0
 93
        1
 44
0.0
173
     0
291
     1
 45
0.0
1001
ACAD
1000
AcDbSavedByObjectVersion
1070
     0
  0
VISUALSTYLE
  5
2B
102
{ACAD_REACTORS
330
2A
102
}
330
2A
100
AcDbVisualStyle
  2
Flat
 70
     0
 71
     2
 72
     1
 73
     1
 90
        2
 40
-0.6
 41
30.0
 62
     5
 63
     7
 74
     0
 91
        4
 64
     7
 65
   257
 75
     1
175
     1
 42
1.0
 92
        8
 66
     7
 43
1.0
 76
     1
 77
     6
 78
     2
 67
     7
 79
     5
170
     0
171
     0
290
     0
174
     0
 93
       13
 44
0.0
173
     0
291
     1
 45
0.0
1001
ACAD
1000
AcDbSavedByObjectVersion
1070
     0
  0
VISUALSTYLE
  5
2C
102
{ACAD_REACTORS
330
2A
102
}
330
2A
100
AcDbVisualStyle
  2
FlatWithEdges
 70
     1
 71
     2
 72
     1
 73
     1
 90
        2
 40
-0.6
 41
30.0
 62
     5
 63
     7
 74
     1
 91
        4
 64
     7
 65
   257
 75
     1
175
     1
 42
1.0
 92
        0
 66
   257
 43
1.0
 76
     1
 77
     6
 78
     2
 67
     7
 79
     5
170
     0
171
     0
290
     0
174
     0
 93
       13
 44
0.0
173
     0
291
     1
 45
0.0
1001
ACAD
1000
AcDbSavedByObjectVersion
1070
     0
  0
VISUALSTYLE
  5
2D
102
{ACAD_REACTORS
330
2A
102
}
330
2A
100
AcDbVisualStyle
  2
Gouraud
 70
     2
 71
     2
 72
     2
 73
     1
 90
        2
 40
-0.6
 41
30.0
 62
     5
 63
     7
 74
     0
 91
        4
 64
     7
 65
   257
 75
     1
175
     1
 42
1.0
 92
        0
 66
     7
 43
1.0
 76
     1
 77
     6
 78
     2
 67
     7
 79
     5
170
     0
171
     0
290
     0
174
     0
 93
       13
 44
0.0
173
     0
291
     1
 45
0.0
1001
ACAD
1000
AcDbSavedByObjectVersion
1070
     0
  0
VISUALSTYLE
  5
2E
102
{ACAD_REACTORS
330
2A
102
}
330
2A
100
AcDbVisualStyle
  2
GouraudWithEdges
 70
     3
 71
     2
 72
     2
 73
     1
 90
        2
 40
-0.6
 41
30.0
 62
     5
 63
     7
 74
     1
 91
        4
 64
     7
 65
   257
 75
     1
175
     1
 42
1.0
 92
        0
 66
   257
 43
1.0
 76
     1
 77
     6
 78
     2
 67
     7
 79
     5
170
     0
171
     0
290
     0
174
     0
 93
       13
 44
0.0
173
     0
291
     1
 45
0.0
1001
ACAD
1000
AcDbSavedByObjectVersion
1070
     0
  0
VISUALSTYLE
  5
38
102
{ACAD_REACTORS
330
2A
102
}
330
2A
100
AcDbVisualStyle
  2
Linepattern
 70
    14
 71
     2
 72
     2
 73
     0
 90
        0
 40
-0.6
 41
-30.0
 62
     5
 63
     7
 74
     1
 91
        4
 64
     7
 65
   257
 75
     7
175
     7
 42
1.0
 92
        8
 66
     7
 43
1.0
 76
     1
 77
     6
 78
     2
 67
     7
 79
     5
170
     0
171
     0
290
     0
174
     0
 93
        1
 44
0.0
173
     0
291
     1
 45
0.0
1001
ACAD
1000
AcDbSavedByObjectVersion
1070
     0
  0
VISUALSTYLE
  5
33
102
{ACAD_REACTORS
330
2A
102
}
330
2A
100
AcDbVisualStyle
  2
Realistic
 70
     8
 71
     2
 72
     2
 73
     0
 90
        0
 40
-0.6
 41
-30.0
 62
     5
 63
     7
 74
     1
 91
        0
 64
     7
 65
   257
 75
     1
175
     1
 42
1.0
 92
        8
 66
     8
 43
1.0
 76
     1
 77
     6
 78
     2
 67
     7
 79
     5
170
     0
171
     0
290
     0
174
     0
 93
       13
 44
0.0
173
     0
291
     0
 45
0.0
1001
ACAD
1000
AcDbSavedByObjectVersion
1070
     0
  0
VISUALSTYLE
  5
37
102
{ACAD_REACTORS
330
2A
102
}
330
2A
100
AcDbVisualStyle
  2
Thicken
 70
    13
 71
     2
 72
     2
 73
     0
 90
        0
 40
-0.6
 41
-30.0
 62
     5
 63
     7
 74
     1
 91
        4
 64
     7
 65
   257
 75
     1
175
     1
 42
1.0
 92
       12
 66
     7
 43
1.0
 76
     1
 77
     6
 78
     2
 67
     7
 79
     5
170
     0
171
     0
290
     0
174
     0
 93
        1
 44
0.0
173
     0
291
     1
 45
0.0
1001
ACAD
1000
AcDbSavedByObjectVersion
1070
     0
  0
DICTIONARYVAR
  5
4D6
102
{ACAD_REACTORS
330
4D5
102
}
330
4D5
100
DictionaryVariables
280
     0
  1
1:1
  0
DICTIONARYVAR
  5
4DA
102
{ACAD_REACTORS
330
4D5
102
}
330
4D5
100
DictionaryVariables
280
     0
  1
80.000000
  0
DICTIONARYVAR
  5
4D9
102
{ACAD_REACTORS
330
4D5
102
}
330
4D5
100
DictionaryVariables
280
     0
  1
5.000000
  0
ENDSEC
  0
EOF
