  0
SECTION
  2
HEADER
  9
$ACADVER
  1
AC1015
  9
$ACADMAINTVER
 70
     6
  9
$DWGCODEPAGE
  3
ANSI_932
  9
$INSBASE
 10
0.0
 20
0.0
 30
0.0
  9
$EXTMIN
 10
9.557831
 20
6.45697
 30
0.0
  9
$EXTMAX
 10
190.485672
 20
100.501556
 30
0.0
  9
$LIMMIN
 10
0.0
 20
0.0
  9
$LIMMAX
 10
12.0
 20
9.0
  9
$ORTHOMODE
 70
     0
  9
$REGENMODE
 70
     1
  9
$FILLMODE
 70
     1
  9
$QTEXTMODE
 70
     0
  9
$MIRRTEXT
 70
     1
  9
$LTSCALE
 40
2.0391
  9
$ATTMODE
 70
     1
  9
$TEXTSIZE
 40
3.2
  9
$TRACEWID
 40
1.0
  9
$TEXTSTYLE
  7
Standard
  9
$CLAYER
  8
0
  9
$CELTYPE
  6
ByLayer
  9
$CECOLOR
 62
   256
  9
$CELTSCALE
 40
1.0
  9
$DISPSILH
 70
     0
  9
$DIMSCALE
 40
1.0
  9
$DIMASZ
 40
2.5
  9
$DIMEXO
 40
0.625
  9
$DIMDLI
 40
3.75
  9
$DIMRND
 40
0.0
  9
$DIMDLE
 40
0.0
  9
$DIMEXE
 40
1.25
  9
$DIMTP
 40
0.0
  9
$DIMTM
 40
0.0
  9
$DIMTXT
 40
2.5
  9
$DIMCEN
 40
0.09
  9
$DIMTSZ
 40
0.0
  9
$DIMTOL
 70
     0
  9
$DIMLIM
 70
     0
  9
$DIMTIH
 70
     0
  9
$DIMTOH
 70
     0
  9
$DIMSE1
 70
     0
  9
$DIMSE2
 70
     0
  9
$DIMTAD
 70
     0
  9
$DIMZIN
 70
     8
  9
$DIMBLK
  1

  9
$DIMASO
 70
     1
  9
$DIMSHO
 70
     0
  9
$DIMPOST
  1

  9
$DIMAPOST
  1

  9
$DIMALT
 70
     0
  9
$DIMALTD
 70
     3
  9
$DIMALTF
 40
0.03937
  9
$DIMLFAC
 40
1.0
  9
$DIMTOFL
 70
     1
  9
$DIMTVP
 40
0.0
  9
$DIMTIX
 70
     0
  9
$DIMSOXD
 70
     0
  9
$DIMSAH
 70
     0
  9
$DIMBLK1
  1

  9
$DIMBLK2
  1

  9
$DIMSTYLE
  2
ISO-25
  9
$DIMCLRD
 70
     0
  9
$DIMCLRE
 70
     0
  9
$DIMCLRT
 70
     0
  9
$DIMTFAC
 40
1.0
  9
$DIMGAP
 40
0.625
  9
$DIMJUST
 70
     0
  9
$DIMSD1
 70
     0
  9
$DIMSD2
 70
     0
  9
$DIMTOLJ
 70
     0
  9
$DIMTZIN
 70
     8
  9
$DIMALTZ
 70
     0
  9
$DIMALTTZ
 70
     0
  9
$DIMUPT
 70
     0
  9
$DIMDEC
 70
     2
  9
$DIMTDEC
 70
     2
  9
$DIMALTU
 70
     2
  9
$DIMALTTD
 70
     3
  9
$DIMTXSTY
  7
Standard
  9
$DIMAUNIT
 70
     0
  9
$DIMADEC
 70
     0
  9
$DIMALTRND
 40
0.0
  9
$DIMAZIN
 70
     0
  9
$DIMDSEP
 70
    44
  9
$DIMATFIT
 70
     3
  9
$DIMFRAC
 70
     0
  9
$DIMLDRBLK
  1

  9
$DIMLUNIT
 70
     2
  9
$DIMLWD
 70
    -2
  9
$DIMLWE
 70
    -2
  9
$DIMTMOVE
 70
     0
  9
$LUNITS
 70
     2
  9
$LUPREC
 70
     4
  9
$SKETCHINC
 40
1.0
  9
$FILLETRAD
 40
0.0
  9
$AUNITS
 70
     0
  9
$AUPREC
 70
     0
  9
$MENU
  1
.
  9
$ELEVATION
 40
0.0
  9
$PELEVATION
 40
0.0
  9
$THICKNESS
 40
0.0
  9
$LIMCHECK
 70
     0
  9
$CHAMFERA
 40
10.0
  9
$CHAMFERB
 40
10.0
  9
$CHAMFERC
 40
20.0
  9
$CHAMFERD
 40
0.0
  9
$SKPOLY
 70
     0
  9
$TDCREATE
 40
2456244.611370984
  9
$TDUCREATE
 40
2456244.236370984
  9
$TDUPDATE
 40
2456244.611370995
  9
$TDUUPDATE
 40
2456244.236370995
  9
$TDINDWG
 40
0.0000000116
  9
$TDUSRTIMER
 40
0.0000000116
  9
$USRTIMER
 70
     1
  9
$ANGBASE
 50
0.0
  9
$ANGDIR
 70
     0
  9
$PDMODE
 70
     0
  9
$PDSIZE
 40
0.0
  9
$PLINEWID
 40
0.0
  9
$SPLFRAME
 70
     0
  9
$SPLINETYPE
 70
     6
  9
$SPLINESEGS
 70
     8
  9
$HANDSEED
  5
4FB
  9
$SURFTAB1
 70
     6
  9
$SURFTAB2
 70
     6
  9
$SURFTYPE
 70
     6
  9
$SURFU
 70
     6
  9
$SURFV
 70
     6
  9
$UCSBASE
  2

  9
$UCSNAME
  2

  9
$UCSORG
 10
0.0
 20
0.0
 30
0.0
  9
$UCSXDIR
 10
1.0
 20
0.0
 30
0.0
  9
$UCSYDIR
 10
0.0
 20
1.0
 30
0.0
  9
$UCSORTHOREF
  2

  9
$UCSORTHOVIEW
 70
     0
  9
$UCSORGTOP
 10
0.0
 20
0.0
 30
0.0
  9
$UCSORGBOTTOM
 10
0.0
 20
0.0
 30
0.0
  9
$UCSORGLEFT
 10
0.0
 20
0.0
 30
0.0
  9
$UCSORGRIGHT
 10
0.0
 20
0.0
 30
0.0
  9
$UCSORGFRONT
 10
0.0
 20
0.0
 30
0.0
  9
$UCSORGBACK
 10
0.0
 20
0.0
 30
0.0
  9
$PUCSBASE
  2

  9
$PUCSNAME
  2

  9
$PUCSORG
 10
0.0
 20
0.0
 30
0.0
  9
$PUCSXDIR
 10
1.0
 20
0.0
 30
0.0
  9
$PUCSYDIR
 10
0.0
 20
1.0
 30
0.0
  9
$PUCSORTHOREF
  2

  9
$PUCSORTHOVIEW
 70
     0
  9
$PUCSORGTOP
 10
0.0
 20
0.0
 30
0.0
  9
$PUCSORGBOTTOM
 10
0.0
 20
0.0
 30
0.0
  9
$PUCSORGLEFT
 10
0.0
 20
0.0
 30
0.0
  9
$PUCSORGRIGHT
 10
0.0
 20
0.0
 30
0.0
  9
$PUCSORGFRONT
 10
0.0
 20
0.0
 30
0.0
  9
$PUCSORGBACK
 10
0.0
 20
0.0
 30
0.0
  9
$USERI1
 70
     0
  9
$USERI2
 70
     0
  9
$USERI3
 70
     0
  9
$USERI4
 70
     0
  9
$USERI5
 70
     0
  9
$USERR1
 40
0.0
  9
$USERR2
 40
0.0
  9
$USERR3
 40
0.0
  9
$USERR4
 40
0.0
  9
$USERR5
 40
0.0
  9
$WORLDVIEW
 70
     1
  9
$SHADEDGE
 70
     3
  9
$SHADEDIF
 70
    70
  9
$TILEMODE
 70
     1
  9
$MAXACTVP
 70
    64
  9
$PINSBASE
 10
0.0
 20
0.0
 30
0.0
  9
$PLIMCHECK
 70
     0
  9
$PEXTMIN
 10
1.000000E+20
 20
1.000000E+20
 30
0.0
  9
$PEXTMAX
 10
-1.000000E+20
 20
-1.000000E+20
 30
0.0
  9
$PLIMMIN
 10
0.0
 20
0.0
  9
$PLIMMAX
 10
12.0
 20
9.0
  9
$UNITMODE
 70
     0
  9
$VISRETAIN
 70
     1
  9
$PLINEGEN
 70
     0
  9
$PSLTSCALE
 70
     1
  9
$TREEDEPTH
 70
  3020
  9
$CMLSTYLE
  2
Standard
  9
$CMLJUST
 70
     0
  9
$CMLSCALE
 40
20.0
  9
$PROXYGRAPHICS
 70
     1
  9
$MEASUREMENT
 70
     1
  9
$CELWEIGHT
370
    -1
  9
$ENDCAPS
280
     0
  9
$JOINSTYLE
280
     0
  9
$LWDISPLAY
290
     0
  9
$INSUNITS
 70
     4
  9
$HYPERLINKBASE
  1

  9
$STYLESHEET
  1

  9
$XEDIT
290
     1
  9
$CEPSNTYPE
380
     0
  9
$PSTYLEMODE
290
     1
  9
$FINGERPRINTGUID
  2
{0A0E8852-78D0-4DCF-87C2-9704978E2F80}
  9
$VERSIONGUID
  2
{FAEB1C32-E019-11D5-929B-00C0DF256EC4}
  9
$EXTNAMES
290
     1
  9
$PSVPSCALE
 40
0.0
  9
$OLESTARTUP
290
     0
  0
ENDSEC
  0
SECTION
  2
CLASSES
  0
CLASS
  1
ACDBDICTIONARYWDFLT
  2
AcDbDictionaryWithDefault
  3
ObjectDBX Classes
 90
        0
280
     0
281
     0
  0
CLASS
  1
VISUALSTYLE
  2
AcDbVisualStyle
  3
ObjectDBX Classes
 90
     4095
280
     0
281
     0
  0
CLASS
  1
SCALE
  2
AcDbScale
  3
ObjectDBX Classes
 90
     1153
280
     0
281
     0
  0
CLASS
  1
DICTIONARYVAR
  2
AcDbDictionaryVar
  3
ObjectDBX Classes
 90
        0
280
     0
281
     0
  0
CLASS
  1
ACDBPLACEHOLDER
  2
AcDbPlaceHolder
  3
ObjectDBX Classes
 90
        0
280
     0
281
     0
  0
CLASS
  1
LAYOUT
  2
AcDbLayout
  3
ObjectDBX Classes
 90
        0
280
     0
281
     0
  0
ENDSEC
  0
SECTION
  2
TABLES
  0
TABLE
  2
VPORT
  5
8
330
0
100
AcDbSymbolTable
 70
     1
  0
VPORT
  5
29
330
8
100
AcDbSymbolTableRecord
100
AcDbViewportTableRecord
  2
*Active
 70
     0
 10
0.0
 20
0.0
 11
1.0
 21
1.0
 12
100.021751
 22
53.479263
 13
0.0
 23
0.0
 14
1.0
 24
1.0
 15
0.0
 25
0.0
 16
0.0
 26
0.0
 36
1.0
 17
0.0
 27
0.0
 37
0.0
 40
108.046128
 41
1.691288
 42
50.0
 43
0.0
 44
0.0
 50
0.0
 51
0.0
 71
     0
 72
   100
 73
     1
 74
     3
 75
     0
 76
     0
 77
     0
 78
     0
281
     0
 65
     1
110
0.0
120
0.0
130
0.0
111
1.0
121
0.0
131
0.0
112
0.0
122
1.0
132
0.0
 79
     0
146
0.0
  0
ENDTAB
  0
TABLE
  2
LTYPE
  5
5
330
0
100
AcDbSymbolTable
 70
     5
  0
LTYPE
  5
14
330
5
100
AcDbSymbolTableRecord
100
AcDbLinetypeTableRecord
  2
ByBlock
 70
     0
  3

 72
    65
 73
     0
 40
0.0
  0
LTYPE
  5
15
330
5
100
AcDbSymbolTableRecord
100
AcDbLinetypeTableRecord
  2
ByLayer
 70
     0
  3

 72
    65
 73
     0
 40
0.0
  0
LTYPE
  5
16
330
5
100
AcDbSymbolTableRecord
100
AcDbLinetypeTableRecord
  2
Continuous
 70
     0
  3
Solid line
 72
    65
 73
     0
 40
0.0
  0
LTYPE
  5
5D
330
5
100
AcDbSymbolTableRecord
100
AcDbLinetypeTableRecord
  2
DASHED
 70
     0
  3
DASHED
 72
    83
 73
     2
 40
0.75
 49
0.5
 74
     0
 49
-0.25
 74
     0
  0
LTYPE
  5
5E
330
5
100
AcDbSymbolTableRecord
100
AcDbLinetypeTableRecord
  2
HIDDEN
 70
     0
  3
HIDDEN
 72
    83
 73
     2
 40
0.375
 49
0.25
 74
     0
 49
-0.125
 74
     0
  0
LTYPE
  5
5F
330
5
100
AcDbSymbolTableRecord
100
AcDbLinetypeTableRecord
  2
CENTER
 70
     0
  3
CENTER
 72
    83
 73
     4
 40
2.0
 49
1.25
 74
     0
 49
-0.25
 74
     0
 49
0.25
 74
     0
 49
-0.25
 74
     0
  0
LTYPE
  5
60
330
5
100
AcDbSymbolTableRecord
100
AcDbLinetypeTableRecord
  2
PHANTOM
 70
     0
  3
PHANTOM
 72
    83
 73
     6
 40
2.5
 49
1.25
 74
     0
 49
-0.25
 74
     0
 49
0.25
 74
     0
 49
-0.25
 74
     0
 49
0.25
 74
     0
 49
-0.25
 74
     0
  0
ENDTAB
  0
TABLE
  2
LAYER
  5
2
330
0
100
AcDbSymbolTable
 70
     2
  0
LAYER
  5
10
330
2
100
AcDbSymbolTableRecord
100
AcDbLayerTableRecord
  2
0
 70
     0
 62
     7
  6
Continuous
370
    -3
390
F
  0
LAYER
  5
61
330
2
100
AcDbSymbolTableRecord
100
AcDbLayerTableRecord
  2
001
 70
     0
 62
     7
  6
Continuous
370
    -3
390
F
  0
ENDTAB
  0
TABLE
  2
STYLE
  5
3
330
0
100
AcDbSymbolTable
 70
     2
  0
STYLE
  5
11
330
3
100
AcDbSymbolTableRecord
100
AcDbTextStyleTableRecord
  2
Standard
 70
     0
 40
0.0
 41
1.0
 50
0.0
 71
     0
 42
0.2
  3
TXT
  4
BIGFONT
  0
STYLE
  5
62
330
3
100
AcDbSymbolTableRecord
100
AcDbTextStyleTableRecord
  2
TATEGAKI
 70
     4
 40
1.0
 41
1.0
 50
0.0
 71
     0
 42
0.2
  3
TXT
  4
BIGFONT
  0
ENDTAB
  0
TABLE
  2
VIEW
  5
6
330
0
100
AcDbSymbolTable
 70
     0
  0
ENDTAB
  0
TABLE
  2
UCS
  5
7
330
0
100
AcDbSymbolTable
 70
     0
  0
ENDTAB
  0
TABLE
  2
APPID
  5
9
330
0
100
AcDbSymbolTable
 70
     1
  0
APPID
  5
12
330
9
100
AcDbSymbolTableRecord
100
AcDbRegAppTableRecord
  2
ACAD
 70
     0
  0
ENDTAB
  0
TABLE
  2
DIMSTYLE
  5
A
330
0
100
AcDbSymbolTable
 70
     2
100
AcDbDimStyleTable
  0
DIMSTYLE
105
27
330
A
100
AcDbSymbolTableRecord
100
AcDbDimStyleTableRecord
  2
ISO-25
 70
     0
 41
2.5
 42
0.625
 43
3.75
 44
1.25
 73
     0
 74
     0
 77
     1
 78
     8
140
2.5
141
2.5
143
0.03937
147
0.625
171
     3
172
     1
271
     2
272
     2
274
     3
278
    44
283
     0
284
     8
340
11
  0
DIMSTYLE
105
63
102
{ACAD_REACTORS
330
434
330
435
330
442
330
443
330
444
330
451
102
}
330
A
100
AcDbSymbolTableRecord
100
AcDbDimStyleTableRecord
  2
Standard
 70
     0
 41
1.5
 42
0.0
 44
2.75
 73
     0
 74
     0
 77
     1
 78
     8
 79
     2
140
4.0
146
0.8
147
1.0
172
     1
179
     1
271
     1
340
11
  0
ENDTAB
  0
TABLE
  2
BLOCK_RECORD
  5
1
330
0
100
AcDbSymbolTable
 70
     9
  0
BLOCK_RECORD
  5
1F
330
1
100
AcDbSymbolTableRecord
100
AcDbBlockTableRecord
  2
*Model_Space
340
22
  0
BLOCK_RECORD
  5
1B
330
1
100
AcDbSymbolTableRecord
100
AcDbBlockTableRecord
  2
*Paper_Space
340
1E
  0
BLOCK_RECORD
  5
23
330
1
100
AcDbSymbolTableRecord
100
AcDbBlockTableRecord
  2
*Paper_Space0
340
26
  0
BLOCK_RECORD
  5
64
330
1
100
AcDbSymbolTableRecord
100
AcDbBlockTableRecord
  2
C32GUX-1
340
0
102
{BLKREFS
331
432
102
}
  0
BLOCK_RECORD
  5
1C5
330
1
100
AcDbSymbolTableRecord
100
AcDbBlockTableRecord
  2
M-1-2
340
0
102
{BLKREFS
331
433
102
}
  0
BLOCK_RECORD
  5
3B4
330
1
100
AcDbSymbolTableRecord
100
AcDbBlockTableRecord
  2
*D3
340
0
  0
BLOCK_RECORD
  5
3C8
330
1
100
AcDbSymbolTableRecord
100
AcDbBlockTableRecord
  2
*D4
340
0
  0
BLOCK_RECORD
  5
3DE
330
1
100
AcDbSymbolTableRecord
100
AcDbBlockTableRecord
  2
*D5
340
0
  0
BLOCK_RECORD
  5
3F5
330
1
100
AcDbSymbolTableRecord
100
AcDbBlockTableRecord
  2
*D6
340
0
  0
BLOCK_RECORD
  5
409
330
1
100
AcDbSymbolTableRecord
100
AcDbBlockTableRecord
  2
*D7
340
0
  0
BLOCK_RECORD
  5
41D
330
1
100
AcDbSymbolTableRecord
100
AcDbBlockTableRecord
  2
*D8
340
0
  0
ENDTAB
  0
ENDSEC
  0
SECTION
  2
BLOCKS
  0
BLOCK
  5
20
330
1F
100
AcDbEntity
  8
0
100
AcDbBlockBegin
  2
*Model_Space
 70
     0
 10
0.0
 20
0.0
 30
0.0
  3
*Model_Space
  1

  0
ENDBLK
  5
21
330
1F
100
AcDbEntity
  8
0
100
AcDbBlockEnd
  0
BLOCK
  5
1C
330
1B
100
AcDbEntity
 67
     1
  8
0
100
AcDbBlockBegin
  2
*Paper_Space
 70
     0
 10
0.0
 20
0.0
 30
0.0
  3
*Paper_Space
  1

  0
ENDBLK
  5
1D
330
1B
100
AcDbEntity
 67
     1
  8
0
100
AcDbBlockEnd
  0
BLOCK
  5
24
330
23
100
AcDbEntity
  8
0
100
AcDbBlockBegin
  2
*Paper_Space0
 70
     0
 10
0.0
 20
0.0
 30
0.0
  3
*Paper_Space0
  1

  0
ENDBLK
  5
25
330
23
100
AcDbEntity
  8
0
100
AcDbBlockEnd
  0
BLOCK
  5
65
330
64
100
AcDbEntity
  8
0
100
AcDbBlockBegin
  2
C32GUX-1
 70
     0
 10
0.0
 20
0.0
 30
0.0
  3
C32GUX-1
  1

  0
LINE
  5
67
330
64
100
AcDbEntity
  8
001
 62
    40
370
    50
100
AcDbLine
 10
53.097762
 20
53.608181
 30
0.0
 11
46.56632
 21
57.742497
 31
0.0
  0
LINE
  5
68
330
64
100
AcDbEntity
  8
001
 62
    40
370
    50
100
AcDbLine
 10
46.097862
 20
58.095832
 30
0.0
 11
46.56632
 21
57.742497
 31
0.0
  0
LINE
  5
69
330
64
100
AcDbEntity
  8
001
 62
    40
370
    50
100
AcDbLine
 10
52.264853
 20
54.712676
 30
0.0
 11
51.694039
 21
55.073994
 31
0.0
  0
LINE
  5
6A
330
64
100
AcDbEntity
  8
001
 62
    40
370
    50
100
AcDbLine
 10
53.097762
 20
53.608181
 30
0.0
 11
53.513918
 21
53.381245
 31
0.0
  0
LINE
  5
6B
330
64
100
AcDbEntity
  8
001
 62
    40
370
    50
100
AcDbLine
 10
53.599465
 20
52.821415
 30
0.0
 11
53.638032
 21
52.916403
 31
0.0
  0
POLYLINE
  5
6C
330
64
100
AcDbEntity
  8
001
 62
    40
370
    50
100
AcDb2dPolyline
 66
     1
 10
0.0
 20
0.0
 30
0.0
  0
VERTEX
  5
6E
330
6C
100
AcDbEntity
  8
001
 62
    40
370
    50
100
AcDbVertex
100
AcDb2dVertex
 10
53.599465
 20
52.821415
 30
0.0
  0
VERTEX
  5
6F
330
6C
100
AcDbEntity
  8
001
 62
    40
370
    50
100
AcDbVertex
100
AcDb2dVertex
 10
53.564599
 20
52.895632
 30
0.0
  0
VERTEX
  5
70
330
6C
100
AcDbEntity
  8
001
 62
    40
370
    50
100
AcDbVertex
100
AcDb2dVertex
 10
53.51032
 20
53.002378
 30
0.0
  0
VERTEX
  5
71
330
6C
100
AcDbEntity
  8
001
 62
    40
370
    50
100
AcDbVertex
100
AcDb2dVertex
 10
53.279105
 20
53.37073
 30
0.0
  0
VERTEX
  5
72
330
6C
100
AcDbEntity
  8
001
 62
    40
370
    50
100
AcDbVertex
100
AcDb2dVertex
 10
53.097762
 20
53.608181
 30
0.0
  0
SEQEND
  5
6D
330
6C
100
AcDbEntity
  8
001
370
    50
  0
POLYLINE
  5
73
330
64
100
AcDbEntity
  8
001
 62
    40
370
    50
100
AcDb2dPolyline
 66
     1
 10
0.0
 20
0.0
 30
0.0
  0
VERTEX
  5
75
330
73
100
AcDbEntity
  8
001
 62
    40
370
    50
100
AcDbVertex
100
AcDb2dVertex
 10
51.010112
 20
51.121761
 30
0.0
  0
VERTEX
  5
76
330
73
100
AcDbEntity
  8
001
 62
    40
370
    50
100
AcDbVertex
100
AcDb2dVertex
 10
51.244804
 20
51.087391
 30
0.0
  0
VERTEX
  5
77
330
73
100
AcDbEntity
  8
001
 62
    40
370
    50
100
AcDbVertex
100
AcDb2dVertex
 10
51.589298
 20
51.051829
 30
0.0
  0
VERTEX
  5
78
330
73
100
AcDbEntity
  8
001
 62
    40
370
    50
100
AcDbVertex
100
AcDb2dVertex
 10
51.903173
 20
51.038679
 30
0.0
  0
VERTEX
  5
79
330
73
100
AcDbEntity
  8
001
 62
    40
370
    50
100
AcDbVertex
100
AcDb2dVertex
 10
52.118292
 20
51.039499
 30
0.0
  0
SEQEND
  5
74
330
73
100
AcDbEntity
  8
001
370
    50
  0
LINE
  5
7A
330
64
100
AcDbEntity
  8
001
 62
    40
370
    50
100
AcDbLine
 10
49.109466
 20
52.324844
 30
0.0
 11
51.010112
 21
51.121761
 31
0.0
  0
POLYLINE
  5
7B
330
64
100
AcDbEntity
  8
001
 62
    40
370
    50
100
AcDb2dPolyline
 66
     1
 10
0.0
 20
0.0
 30
0.0
  0
VERTEX
  5
7D
330
7B
100
AcDbEntity
  8
001
 62
    40
370
    50
100
AcDbVertex
100
AcDb2dVertex
 10
49.109466
 20
52.324844
 30
0.0
  0
VERTEX
  5
7E
330
7B
100
AcDbEntity
  8
001
 62
    40
370
    50
100
AcDbVertex
100
AcDb2dVertex
 10
49.065103
 20
52.464197
 30
0.0
  0
VERTEX
  5
7F
330
7B
100
AcDbEntity
  8
001
 62
    40
370
    50
100
AcDbVertex
100
AcDb2dVertex
 10
49.017067
 20
52.602246
 30
0.0
  0
VERTEX
  5
80
330
7B
100
AcDbEntity
  8
001
 62
    40
370
    50
100
AcDbVertex
100
AcDb2dVertex
 10
48.959154
 20
52.745157
 30
0.0
  0
VERTEX
  5
81
330
7B
100
AcDbEntity
  8
001
 62
    40
370
    50
100
AcDbVertex
100
AcDb2dVertex
 10
48.893418
 20
52.884712
 30
0.0
  0
VERTEX
  5
82
330
7B
100
AcDbEntity
  8
001
 62
    40
370
    50
100
AcDbVertex
100
AcDb2dVertex
 10
48.81999
 20
53.020707
 30
0.0
  0
VERTEX
  5
83
330
7B
100
AcDbEntity
  8
001
 62
    40
370
    50
100
AcDbVertex
100
AcDb2dVertex
 10
48.739027
 20
53.152327
 30
0.0
  0
VERTEX
  5
84
330
7B
100
AcDbEntity
  8
001
 62
    40
370
    50
100
AcDbVertex
100
AcDb2dVertex
 10
48.647862
 20
53.282623
 30
0.0
  0
VERTEX
  5
85
330
7B
100
AcDbEntity
  8
001
 62
    40
370
    50
100
AcDbVertex
100
AcDb2dVertex
 10
48.548902
 20
53.407132
 30
0.0
  0
VERTEX
  5
86
330
7B
100
AcDbEntity
  8
001
 62
    40
370
    50
100
AcDbVertex
100
AcDb2dVertex
 10
48.440922
 20
53.526693
 30
0.0
  0
VERTEX
  5
87
330
7B
100
AcDbEntity
  8
001
 62
    40
370
    50
100
AcDbVertex
100
AcDb2dVertex
 10
48.325257
 20
53.638787
 30
0.0
  0
VERTEX
  5
88
330
7B
100
AcDbEntity
  8
001
 62
    40
370
    50
100
AcDbVertex
100
AcDb2dVertex
 10
48.214875
 20
53.732521
 30
0.0
  0
VERTEX
  5
89
330
7B
100
AcDbEntity
  8
001
 62
    40
370
    50
100
AcDbVertex
100
AcDb2dVertex
 10
48.099009
 20
53.819404
 30
0.0
  0
VERTEX
  5
8A
330
7B
100
AcDbEntity
  8
001
 62
    40
370
    50
100
AcDbVertex
100
AcDb2dVertex
 10
47.976617
 20
53.900398
 30
0.0
  0
VERTEX
  5
8B
330
7B
100
AcDbEntity
  8
001
 62
    40
370
    50
100
AcDbVertex
100
AcDb2dVertex
 10
47.849728
 20
53.974146
 30
0.0
  0
VERTEX
  5
8C
330
7B
100
AcDbEntity
  8
001
 62
    40
370
    50
100
AcDbVertex
100
AcDb2dVertex
 10
47.718076
 20
54.040819
 30
0.0
  0
VERTEX
  5
8D
330
7B
100
AcDbEntity
  8
001
 62
    40
370
    50
100
AcDbVertex
100
AcDb2dVertex
 10
47.5828
 20
54.099762
 30
0.0
  0
VERTEX
  5
8E
330
7B
100
AcDbEntity
  8
001
 62
    40
370
    50
100
AcDbVertex
100
AcDb2dVertex
 10
47.45272
 20
54.148021
 30
0.0
  0
VERTEX
  5
8F
330
7B
100
AcDbEntity
  8
001
 62
    40
370
    50
100
AcDbVertex
100
AcDb2dVertex
 10
47.320364
 20
54.189659
 30
0.0
  0
VERTEX
  5
90
330
7B
100
AcDbEntity
  8
001
 62
    40
370
    50
100
AcDbVertex
100
AcDb2dVertex
 10
47.184839
 20
54.225421
 30
0.0
  0
VERTEX
  5
91
330
7B
100
AcDbEntity
  8
001
 62
    40
370
    50
100
AcDbVertex
100
AcDb2dVertex
 10
47.047875
 20
54.255195
 30
0.0
  0
VERTEX
  5
92
330
7B
100
AcDbEntity
  8
001
 62
    40
370
    50
100
AcDbVertex
100
AcDb2dVertex
 10
46.909507
 20
54.279352
 30
0.0
  0
VERTEX
  5
93
330
7B
100
AcDbEntity
  8
001
 62
    40
370
    50
100
AcDbVertex
100
AcDb2dVertex
 10
46.770308
 20
54.298113
 30
0.0
  0
VERTEX
  5
94
330
7B
100
AcDbEntity
  8
001
 62
    40
370
    50
100
AcDbVertex
100
AcDb2dVertex
 10
46.632104
 20
54.311719
 30
0.0
  0
VERTEX
  5
95
330
7B
100
AcDbEntity
  8
001
 62
    40
370
    50
100
AcDbVertex
100
AcDb2dVertex
 10
46.49354
 20
54.321082
 30
0.0
  0
VERTEX
  5
96
330
7B
100
AcDbEntity
  8
001
 62
    40
370
    50
100
AcDbVertex
100
AcDb2dVertex
 10
46.355217
 20
54.326878
 30
0.0
  0
VERTEX
  5
97
330
7B
100
AcDbEntity
  8
001
 62
    40
370
    50
100
AcDbVertex
100
AcDb2dVertex
 10
46.216807
 20
54.329565
 30
0.0
  0
VERTEX
  5
98
330
7B
100
AcDbEntity
  8
001
 62
    40
370
    50
100
AcDbVertex
100
AcDb2dVertex
 10
46.080466
 20
54.329683
 30
0.0
  0
VERTEX
  5
99
330
7B
100
AcDbEntity
  8
001
 62
    40
370
    50
100
AcDbVertex
100
AcDb2dVertex
 10
45.944121
 20
54.328465
 30
0.0
  0
SEQEND
  5
7C
330
7B
100
AcDbEntity
  8
001
370
    50
  0
LINE
  5
9A
330
64
100
AcDbEntity
  8
001
 62
    40
370
    50
100
AcDbLine
 10
44.478669
 20
55.256077
 30
0.0
 11
45.944121
 21
54.328465
 31
0.0
  0
POLYLINE
  5
9B
330
64
100
AcDbEntity
  8
001
 62
    40
370
    50
100
AcDb2dPolyline
 66
     1
 10
0.0
 20
0.0
 30
0.0
  0
VERTEX
  5
9D
330
9B
100
AcDbEntity
  8
001
 62
    40
370
    50
100
AcDbVertex
100
AcDb2dVertex
 10
44.195503
 20
56.054518
 30
0.0
  0
VERTEX
  5
9E
330
9B
100
AcDbEntity
  8
001
 62
    40
370
    50
100
AcDbVertex
100
AcDb2dVertex
 10
44.197154
 20
56.046179
 30
0.0
  0
VERTEX
  5
9F
330
9B
100
AcDbEntity
  8
001
 62
    40
370
    50
100
AcDbVertex
100
AcDb2dVertex
 10
44.199612
 20
56.034002
 30
0.0
  0
VERTEX
  5
A0
330
9B
100
AcDbEntity
  8
001
 62
    40
370
    50
100
AcDbVertex
100
AcDb2dVertex
 10
44.341841
 20
55.564714
 30
0.0
  0
VERTEX
  5
A1
330
9B
100
AcDbEntity
  8
001
 62
    40
370
    50
100
AcDbVertex
100
AcDb2dVertex
 10
44.478669
 20
55.256077
 30
0.0
  0
SEQEND
  5
9C
330
9B
100
AcDbEntity
  8
001
370
    50
  0
POLYLINE
  5
A2
330
64
100
AcDbEntity
  8
001
 62
    40
370
    50
100
AcDb2dPolyline
 66
     1
 10
0.0
 20
0.0
 30
0.0
  0
VERTEX
  5
A4
330
A2
100
AcDbEntity
  8
001
 62
    40
370
    50
100
AcDbVertex
100
AcDb2dVertex
 10
44.195503
 20
56.054518
 30
0.0
  0
VERTEX
  5
A5
330
A2
100
AcDbEntity
  8
001
 62
    40
370
    50
100
AcDbVertex
100
AcDb2dVertex
 10
44.319038
 20
56.172903
 30
0.0
  0
VERTEX
  5
A6
330
A2
100
AcDbEntity
  8
001
 62
    40
370
    50
100
AcDbVertex
100
AcDb2dVertex
 10
44.486281
 20
56.337953
 30
0.0
  0
VERTEX
  5
A7
330
A2
100
AcDbEntity
  8
001
 62
    40
370
    50
100
AcDbVertex
100
AcDb2dVertex
 10
44.626626
 20
56.482591
 30
0.0
  0
VERTEX
  5
A8
330
A2
100
AcDbEntity
  8
001
 62
    40
370
    50
100
AcDbVertex
100
AcDb2dVertex
 10
44.753003
 20
56.619551
 30
0.0
  0
VERTEX
  5
A9
330
A2
100
AcDbEntity
  8
001
 62
    40
370
    50
100
AcDbVertex
100
AcDb2dVertex
 10
44.881689
 20
56.764095
 30
0.0
  0
VERTEX
  5
AA
330
A2
100
AcDbEntity
  8
001
 62
    40
370
    50
100
AcDbVertex
100
AcDb2dVertex
 10
45.009066
 20
56.910875
 30
0.0
  0
VERTEX
  5
AB
330
A2
100
AcDbEntity
  8
001
 62
    40
370
    50
100
AcDbVertex
100
AcDb2dVertex
 10
45.231545
 20
57.179701
 30
0.0
  0
VERTEX
  5
AC
330
A2
100
AcDbEntity
  8
001
 62
    40
370
    50
100
AcDbVertex
100
AcDb2dVertex
 10
45.458657
 20
57.487266
 30
0.0
  0
VERTEX
  5
AD
330
A2
100
AcDbEntity
  8
001
 62
    40
370
    50
100
AcDbVertex
100
AcDb2dVertex
 10
45.590709
 20
57.682774
 30
0.0
  0
VERTEX
  5
AE
330
A2
100
AcDbEntity
  8
001
 62
    40
370
    50
100
AcDbVertex
100
AcDb2dVertex
 10
45.681835
 20
57.824759
 30
0.0
  0
SEQEND
  5
A3
330
A2
100
AcDbEntity
  8
001
370
    50
  0
POLYLINE
  5
AF
330
64
100
AcDbEntity
  8
001
 62
    40
370
    50
100
AcDb2dPolyline
 66
     1
 10
0.0
 20
0.0
 30
0.0
  0
VERTEX
  5
B1
330
AF
100
AcDbEntity
  8
001
 62
    40
370
    50
100
AcDbVertex
100
AcDb2dVertex
 10
46.56632
 20
57.742497
 30
0.0
  0
VERTEX
  5
B2
330
AF
100
AcDbEntity
  8
001
 62
    40
370
    50
100
AcDbVertex
100
AcDb2dVertex
 10
46.381034
 20
57.776904
 30
0.0
  0
VERTEX
  5
B3
330
AF
100
AcDbEntity
  8
001
 62
    40
370
    50
100
AcDbVertex
100
AcDb2dVertex
 10
46.108344
 20
57.812428
 30
0.0
  0
VERTEX
  5
B4
330
AF
100
AcDbEntity
  8
001
 62
    40
370
    50
100
AcDbVertex
100
AcDb2dVertex
 10
45.855381
 20
57.825649
 30
0.0
  0
VERTEX
  5
B5
330
AF
100
AcDbEntity
  8
001
 62
    40
370
    50
100
AcDbVertex
100
AcDb2dVertex
 10
45.681835
 20
57.824759
 30
0.0
  0
SEQEND
  5
B0
330
AF
100
AcDbEntity
  8
001
370
    50
  0
POLYLINE
  5
B6
330
64
100
AcDbEntity
  8
001
 62
    40
370
    50
100
AcDb2dPolyline
 66
     1
 10
0.0
 20
0.0
 30
0.0
  0
VERTEX
  5
B8
330
B6
100
AcDbEntity
  8
001
 62
    40
370
    50
100
AcDbVertex
100
AcDb2dVertex
 10
53.516298
 20
52.66976
 30
0.0
  0
VERTEX
  5
B9
330
B6
100
AcDbEntity
  8
001
 62
    40
370
    50
100
AcDbVertex
100
AcDb2dVertex
 10
53.539347
 20
52.707023
 30
0.0
  0
VERTEX
  5
BA
330
B6
100
AcDbEntity
  8
001
 62
    40
370
    50
100
AcDbVertex
100
AcDb2dVertex
 10
53.56128
 20
52.744896
 30
0.0
  0
VERTEX
  5
BB
330
B6
100
AcDbEntity
  8
001
 62
    40
370
    50
100
AcDbVertex
100
AcDb2dVertex
 10
53.580904
 20
52.782864
 30
0.0
  0
VERTEX
  5
BC
330
B6
100
AcDbEntity
  8
001
 62
    40
370
    50
100
AcDbVertex
100
AcDb2dVertex
 10
53.599465
 20
52.821415
 30
0.0
  0
SEQEND
  5
B7
330
B6
100
AcDbEntity
  8
001
370
    50
  0
POLYLINE
  5
BD
330
64
100
AcDbEntity
  8
001
 62
    40
370
    50
100
AcDb2dPolyline
 66
     1
 10
0.0
 20
0.0
 30
0.0
  0
VERTEX
  5
BF
330
BD
100
AcDbEntity
  8
001
 62
    40
370
    50
100
AcDbVertex
100
AcDb2dVertex
 10
52.118292
 20
51.039499
 30
0.0
  0
VERTEX
  5
C0
330
BD
100
AcDbEntity
  8
001
 62
    40
370
    50
100
AcDbVertex
100
AcDb2dVertex
 10
52.241839
 20
51.157896
 30
0.0
  0
VERTEX
  5
C1
330
BD
100
AcDbEntity
  8
001
 62
    40
370
    50
100
AcDbVertex
100
AcDb2dVertex
 10
52.409069
 20
51.322934
 30
0.0
  0
VERTEX
  5
C2
330
BD
100
AcDbEntity
  8
001
 62
    40
370
    50
100
AcDbVertex
100
AcDb2dVertex
 10
52.549355
 20
51.467512
 30
0.0
  0
VERTEX
  5
C3
330
BD
100
AcDbEntity
  8
001
 62
    40
370
    50
100
AcDbVertex
100
AcDb2dVertex
 10
52.675791
 20
51.604532
 30
0.0
  0
VERTEX
  5
C4
330
BD
100
AcDbEntity
  8
001
 62
    40
370
    50
100
AcDbVertex
100
AcDb2dVertex
 10
52.804703
 20
51.749302
 30
0.0
  0
VERTEX
  5
C5
330
BD
100
AcDbEntity
  8
001
 62
    40
370
    50
100
AcDbVertex
100
AcDb2dVertex
 10
52.931855
 20
51.895856
 30
0.0
  0
VERTEX
  5
C6
330
BD
100
AcDbEntity
  8
001
 62
    40
370
    50
100
AcDbVertex
100
AcDb2dVertex
 10
53.15223
 20
52.162569
 30
0.0
  0
VERTEX
  5
C7
330
BD
100
AcDbEntity
  8
001
 62
    40
370
    50
100
AcDbVertex
100
AcDb2dVertex
 10
53.381446
 20
52.472247
 30
0.0
  0
VERTEX
  5
C8
330
BD
100
AcDbEntity
  8
001
 62
    40
370
    50
100
AcDbVertex
100
AcDb2dVertex
 10
53.461121
 20
52.58767
 30
0.0
  0
VERTEX
  5
C9
330
BD
100
AcDbEntity
  8
001
 62
    40
370
    50
100
AcDbVertex
100
AcDb2dVertex
 10
53.516298
 20
52.66976
 30
0.0
  0
SEQEND
  5
BE
330
BD
100
AcDbEntity
  8
001
370
    50
  0
POLYLINE
  5
CA
330
64
100
AcDbEntity
  8
001
 62
    40
370
    50
100
AcDb2dPolyline
 66
     1
 10
0.0
 20
0.0
 30
0.0
  0
VERTEX
  5
CC
330
CA
100
AcDbEntity
  8
001
 62
    40
370
    50
100
AcDbVertex
100
AcDb2dVertex
 10
53.580884
 20
53.325779
 30
0.0
  0
VERTEX
  5
CD
330
CA
100
AcDbEntity
  8
001
 62
    40
370
    50
100
AcDbVertex
100
AcDb2dVertex
 10
53.572889
 20
53.334745
 30
0.0
  0
VERTEX
  5
CE
330
CA
100
AcDbEntity
  8
001
 62
    40
370
    50
100
AcDbVertex
100
AcDb2dVertex
 10
53.564592
 20
53.343376
 30
0.0
  0
VERTEX
  5
CF
330
CA
100
AcDbEntity
  8
001
 62
    40
370
    50
100
AcDbVertex
100
AcDb2dVertex
 10
53.540302
 20
53.363473
 30
0.0
  0
VERTEX
  5
D0
330
CA
100
AcDbEntity
  8
001
 62
    40
370
    50
100
AcDbVertex
100
AcDb2dVertex
 10
53.513918
 20
53.381245
 30
0.0
  0
SEQEND
  5
CB
330
CA
100
AcDbEntity
  8
001
370
    50
  0
POLYLINE
  5
D1
330
64
100
AcDbEntity
  8
001
 62
    40
370
    50
100
AcDb2dPolyline
 66
     1
 10
0.0
 20
0.0
 30
0.0
  0
VERTEX
  5
D3
330
D1
100
AcDbEntity
  8
001
 62
    40
370
    50
100
AcDbVertex
100
AcDb2dVertex
 10
53.638032
 20
52.916403
 30
0.0
  0
VERTEX
  5
D4
330
D1
100
AcDbEntity
  8
001
 62
    40
370
    50
100
AcDbVertex
100
AcDb2dVertex
 10
53.644304
 20
52.939829
 30
0.0
  0
VERTEX
  5
D5
330
D1
100
AcDbEntity
  8
001
 62
    40
370
    50
100
AcDbVertex
100
AcDb2dVertex
 10
53.649974
 20
52.963401
 30
0.0
  0
VERTEX
  5
D6
330
D1
100
AcDbEntity
  8
001
 62
    40
370
    50
100
AcDbVertex
100
AcDb2dVertex
 10
53.657734
 20
53.009452
 30
0.0
  0
VERTEX
  5
D7
330
D1
100
AcDbEntity
  8
001
 62
    40
370
    50
100
AcDbVertex
100
AcDb2dVertex
 10
53.66126
 20
53.056035
 30
0.0
  0
VERTEX
  5
D8
330
D1
100
AcDbEntity
  8
001
 62
    40
370
    50
100
AcDbVertex
100
AcDb2dVertex
 10
53.660713
 20
53.102507
 30
0.0
  0
VERTEX
  5
D9
330
D1
100
AcDbEntity
  8
001
 62
    40
370
    50
100
AcDbVertex
100
AcDb2dVertex
 10
53.656005
 20
53.148877
 30
0.0
  0
VERTEX
  5
DA
330
D1
100
AcDbEntity
  8
001
 62
    40
370
    50
100
AcDbVertex
100
AcDb2dVertex
 10
53.642481
 20
53.2104
 30
0.0
  0
VERTEX
  5
DB
330
D1
100
AcDbEntity
  8
001
 62
    40
370
    50
100
AcDbVertex
100
AcDb2dVertex
 10
53.618715
 20
53.268222
 30
0.0
  0
VERTEX
  5
DC
330
D1
100
AcDbEntity
  8
001
 62
    40
370
    50
100
AcDbVertex
100
AcDb2dVertex
 10
53.600759
 20
53.297538
 30
0.0
  0
VERTEX
  5
DD
330
D1
100
AcDbEntity
  8
001
 62
    40
370
    50
100
AcDbVertex
100
AcDb2dVertex
 10
53.580884
 20
53.325779
 30
0.0
  0
SEQEND
  5
D2
330
D1
100
AcDbEntity
  8
001
370
    50
  0
POLYLINE
  5
DE
330
64
100
AcDbEntity
  8
001
 62
    40
370
    50
100
AcDb2dPolyline
 66
     1
 10
0.0
 20
0.0
 30
0.0
  0
VERTEX
  5
E0
330
DE
100
AcDbEntity
  8
001
 62
    40
370
    50
100
AcDbVertex
100
AcDb2dVertex
 10
52.824151
 20
50.92721
 30
0.0
  0
VERTEX
  5
E1
330
DE
100
AcDbEntity
  8
001
 62
    40
370
    50
100
AcDbVertex
100
AcDb2dVertex
 10
52.943596
 20
51.083384
 30
0.0
  0
VERTEX
  5
E2
330
DE
100
AcDbEntity
  8
001
 62
    40
370
    50
100
AcDbVertex
100
AcDb2dVertex
 10
53.097142
 20
51.325001
 30
0.0
  0
VERTEX
  5
E3
330
DE
100
AcDbEntity
  8
001
 62
    40
370
    50
100
AcDbVertex
100
AcDb2dVertex
 10
53.233331
 20
51.615817
 30
0.0
  0
VERTEX
  5
E4
330
DE
100
AcDbEntity
  8
001
 62
    40
370
    50
100
AcDbVertex
100
AcDb2dVertex
 10
53.307314
 20
51.823739
 30
0.0
  0
SEQEND
  5
DF
330
DE
100
AcDbEntity
  8
001
370
    50
  0
POLYLINE
  5
E5
330
64
100
AcDbEntity
  8
001
 62
    40
370
    50
100
AcDb2dPolyline
 66
     1
 10
0.0
 20
0.0
 30
0.0
  0
VERTEX
  5
E7
330
E5
100
AcDbEntity
  8
001
 62
    40
370
    50
100
AcDbVertex
100
AcDb2dVertex
 10
53.58095
 20
53.325701
 30
0.0
  0
VERTEX
  5
E8
330
E5
100
AcDbEntity
  8
001
 62
    40
370
    50
100
AcDbVertex
100
AcDb2dVertex
 10
53.394653
 20
53.546535
 30
0.0
  0
VERTEX
  5
E9
330
E5
100
AcDbEntity
  8
001
 62
    40
370
    50
100
AcDbVertex
100
AcDb2dVertex
 10
53.208357
 20
53.767368
 30
0.0
  0
VERTEX
  5
EA
330
E5
100
AcDbEntity
  8
001
 62
    40
370
    50
100
AcDbVertex
100
AcDb2dVertex
 10
53.014826
 20
53.996777
 30
0.0
  0
VERTEX
  5
EB
330
E5
100
AcDbEntity
  8
001
 62
    40
370
    50
100
AcDbVertex
100
AcDb2dVertex
 10
52.821295
 20
54.226186
 30
0.0
  0
SEQEND
  5
E6
330
E5
100
AcDbEntity
  8
001
370
    50
  0
POLYLINE
  5
EC
330
64
100
AcDbEntity
  8
001
 62
    40
370
    50
100
AcDb2dPolyline
 66
     1
 10
0.0
 20
0.0
 30
0.0
  0
VERTEX
  5
EE
330
EC
100
AcDbEntity
  8
001
 62
    40
370
    50
100
AcDbVertex
100
AcDb2dVertex
 10
53.307111
 20
51.823068
 30
0.0
  0
VERTEX
  5
EF
330
EC
100
AcDbEntity
  8
001
 62
    40
370
    50
100
AcDbVertex
100
AcDb2dVertex
 10
53.395342
 20
52.114578
 30
0.0
  0
VERTEX
  5
F0
330
EC
100
AcDbEntity
  8
001
 62
    40
370
    50
100
AcDbVertex
100
AcDb2dVertex
 10
53.483574
 20
52.406088
 30
0.0
  0
VERTEX
  5
F1
330
EC
100
AcDbEntity
  8
001
 62
    40
370
    50
100
AcDbVertex
100
AcDb2dVertex
 10
53.560747
 20
52.661061
 30
0.0
  0
VERTEX
  5
F2
330
EC
100
AcDbEntity
  8
001
 62
    40
370
    50
100
AcDbVertex
100
AcDb2dVertex
 10
53.637921
 20
52.916034
 30
0.0
  0
SEQEND
  5
ED
330
EC
100
AcDbEntity
  8
001
370
    50
  0
POLYLINE
  5
F3
330
64
100
AcDbEntity
  8
001
 62
    40
370
    50
100
AcDb2dPolyline
 66
     1
 10
0.0
 20
0.0
 30
0.0
  0
VERTEX
  5
F5
330
F3
100
AcDbEntity
  8
001
 62
    40
370
    50
100
AcDbVertex
100
AcDb2dVertex
 10
52.82268
 20
54.224541
 30
0.0
  0
VERTEX
  5
F6
330
F3
100
AcDbEntity
  8
001
 62
    40
370
    50
100
AcDbVertex
100
AcDb2dVertex
 10
52.720965
 20
54.337223
 30
0.0
  0
VERTEX
  5
F7
330
F3
100
AcDbEntity
  8
001
 62
    40
370
    50
100
AcDbVertex
100
AcDb2dVertex
 10
52.561636
 20
54.49086
 30
0.0
  0
VERTEX
  5
F8
330
F3
100
AcDbEntity
  8
001
 62
    40
370
    50
100
AcDbVertex
100
AcDb2dVertex
 10
52.389284
 20
54.627449
 30
0.0
  0
VERTEX
  5
F9
330
F3
100
AcDbEntity
  8
001
 62
    40
370
    50
100
AcDbVertex
100
AcDb2dVertex
 10
52.264853
 20
54.712676
 30
0.0
  0
SEQEND
  5
F4
330
F3
100
AcDbEntity
  8
001
370
    50
  0
LINE
  5
FA
330
64
100
AcDbEntity
  8
001
 62
    40
370
    50
100
AcDbLine
 10
48.098795
 20
46.252224
 30
0.0
 11
47.904102
 21
46.020342
 31
0.0
  0
POLYLINE
  5
FB
330
64
100
AcDbEntity
  8
001
 62
    40
370
    50
100
AcDb2dPolyline
 66
     1
 10
0.0
 20
0.0
 30
0.0
  0
VERTEX
  5
FD
330
FB
100
AcDbEntity
  8
001
 62
    40
370
    50
100
AcDbVertex
100
AcDb2dVertex
 10
49.488442
 20
47.86974
 30
0.0
  0
VERTEX
  5
FE
330
FB
100
AcDbEntity
  8
001
 62
    40
370
    50
100
AcDbVertex
100
AcDb2dVertex
 10
49.508907
 20
47.901108
 30
0.0
  0
VERTEX
  5
FF
330
FB
100
AcDbEntity
  8
001
 62
    40
370
    50
100
AcDbVertex
100
AcDb2dVertex
 10
49.538443
 20
47.947192
 30
0.0
  0
VERTEX
  5
100
330
FB
100
AcDbEntity
  8
001
 62
    40
370
    50
100
AcDbVertex
100
AcDb2dVertex
 10
49.566313
 20
47.991791
 30
0.0
  0
VERTEX
  5
101
330
FB
100
AcDbEntity
  8
001
 62
    40
370
    50
100
AcDbVertex
100
AcDb2dVertex
 10
49.585126
 20
48.022465
 30
0.0
  0
SEQEND
  5
FC
330
FB
100
AcDbEntity
  8
001
370
    50
  0
POLYLINE
  5
102
330
64
100
AcDbEntity
  8
001
 62
    40
370
    50
100
AcDb2dPolyline
 66
     1
 10
0.0
 20
0.0
 30
0.0
  0
VERTEX
  5
104
330
102
100
AcDbEntity
  8
001
 62
    40
370
    50
100
AcDbVertex
100
AcDb2dVertex
 10
48.098795
 20
46.252224
 30
0.0
  0
VERTEX
  5
105
330
102
100
AcDbEntity
  8
001
 62
    40
370
    50
100
AcDbVertex
100
AcDb2dVertex
 10
48.21824
 20
46.366035
 30
0.0
  0
VERTEX
  5
106
330
102
100
AcDbEntity
  8
001
 62
    40
370
    50
100
AcDbVertex
100
AcDb2dVertex
 10
48.389572
 20
46.53566
 30
0.0
  0
VERTEX
  5
107
330
102
100
AcDbEntity
  8
001
 62
    40
370
    50
100
AcDbVertex
100
AcDb2dVertex
 10
48.523178
 20
46.674213
 30
0.0
  0
VERTEX
  5
108
330
102
100
AcDbEntity
  8
001
 62
    40
370
    50
100
AcDbVertex
100
AcDb2dVertex
 10
48.613219
 20
46.770338
 30
0.0
  0
SEQEND
  5
103
330
102
100
AcDbEntity
  8
001
370
    50
  0
LINE
  5
109
330
64
100
AcDbEntity
  8
001
 62
    40
370
    50
100
AcDbLine
 10
52.118292
 20
51.039499
 30
0.0
 11
51.584009
 21
50.403161
 31
0.0
  0
LINE
  5
10A
330
64
100
AcDbEntity
  8
001
 62
    40
370
    50
100
AcDbLine
 10
49.702736
 20
48.16254
 30
0.0
 11
49.585126
 21
48.022465
 31
0.0
  0
LINE
  5
10B
330
64
100
AcDbEntity
  8
001
 62
    40
370
    50
100
AcDbLine
 10
48.704241
 20
46.020342
 30
0.0
 11
48.731754
 21
46.053111
 31
0.0
  0
LINE
  5
10C
330
64
100
AcDbEntity
  8
001
 62
    40
370
    50
100
AcDbLine
 10
52.384148
 20
50.403161
 30
0.0
 11
52.824151
 21
50.92721
 31
0.0
  0
POLYLINE
  5
10D
330
64
100
AcDbEntity
  8
001
 62
    40
370
    50
100
AcDb2dPolyline
 66
     1
 10
0.0
 20
0.0
 30
0.0
  0
VERTEX
  5
10F
330
10D
100
AcDbEntity
  8
001
 62
    40
370
    50
100
AcDbVertex
100
AcDb2dVertex
 10
49.585126
 20
48.022465
 30
0.0
  0
VERTEX
  5
110
330
10D
100
AcDbEntity
  8
001
 62
    40
370
    50
100
AcDbVertex
100
AcDb2dVertex
 10
49.548352
 20
48.101517
 30
0.0
  0
VERTEX
  5
111
330
10D
100
AcDbEntity
  8
001
 62
    40
370
    50
100
AcDbVertex
100
AcDb2dVertex
 10
49.490824
 20
48.215104
 30
0.0
  0
VERTEX
  5
112
330
10D
100
AcDbEntity
  8
001
 62
    40
370
    50
100
AcDbVertex
100
AcDb2dVertex
 10
49.259638
 20
48.583465
 30
0.0
  0
VERTEX
  5
113
330
10D
100
AcDbEntity
  8
001
 62
    40
370
    50
100
AcDbVertex
100
AcDb2dVertex
 10
49.078265
 20
48.820906
 30
0.0
  0
SEQEND
  5
10E
330
10D
100
AcDbEntity
  8
001
370
    50
  0
LINE
  5
114
330
64
100
AcDbEntity
  8
001
 62
    40
370
    50
100
AcDbLine
 10
51.010112
 20
51.121761
 30
0.0
 11
49.078265
 21
48.820906
 31
0.0
  0
LINE
  5
115
330
64
100
AcDbEntity
  8
001
 62
    40
370
    50
100
AcDbLine
 10
49.078265
 20
48.820906
 30
0.0
 11
47.612814
 21
49.748518
 31
0.0
  0
POLYLINE
  5
116
330
64
100
AcDbEntity
  8
001
 62
    40
370
    50
100
AcDb2dPolyline
 66
     1
 10
0.0
 20
0.0
 30
0.0
  0
VERTEX
  5
118
330
116
100
AcDbEntity
  8
001
 62
    40
370
    50
100
AcDbVertex
100
AcDb2dVertex
 10
47.612814
 20
49.748518
 30
0.0
  0
VERTEX
  5
119
330
116
100
AcDbEntity
  8
001
 62
    40
370
    50
100
AcDbVertex
100
AcDb2dVertex
 10
47.755105
 20
49.813439
 30
0.0
  0
VERTEX
  5
11A
330
116
100
AcDbEntity
  8
001
 62
    40
370
    50
100
AcDbVertex
100
AcDb2dVertex
 10
47.95201
 20
49.916729
 30
0.0
  0
VERTEX
  5
11B
330
116
100
AcDbEntity
  8
001
 62
    40
370
    50
100
AcDbVertex
100
AcDb2dVertex
 10
48.473455
 20
50.319475
 30
0.0
  0
VERTEX
  5
11C
330
116
100
AcDbEntity
  8
001
 62
    40
370
    50
100
AcDbVertex
100
AcDb2dVertex
 10
48.811103
 20
50.813491
 30
0.0
  0
VERTEX
  5
11D
330
116
100
AcDbEntity
  8
001
 62
    40
370
    50
100
AcDbVertex
100
AcDb2dVertex
 10
48.979055
 20
51.207882
 30
0.0
  0
VERTEX
  5
11E
330
116
100
AcDbEntity
  8
001
 62
    40
370
    50
100
AcDbVertex
100
AcDb2dVertex
 10
49.089895
 20
51.613053
 30
0.0
  0
VERTEX
  5
11F
330
116
100
AcDbEntity
  8
001
 62
    40
370
    50
100
AcDbVertex
100
AcDb2dVertex
 10
49.118358
 20
51.813747
 30
0.0
  0
VERTEX
  5
120
330
116
100
AcDbEntity
  8
001
 62
    40
370
    50
100
AcDbVertex
100
AcDb2dVertex
 10
49.125553
 20
52.038491
 30
0.0
  0
VERTEX
  5
121
330
116
100
AcDbEntity
  8
001
 62
    40
370
    50
100
AcDbVertex
100
AcDb2dVertex
 10
49.118823
 20
52.205444
 30
0.0
  0
VERTEX
  5
122
330
116
100
AcDbEntity
  8
001
 62
    40
370
    50
100
AcDbVertex
100
AcDb2dVertex
 10
49.109466
 20
52.324844
 30
0.0
  0
SEQEND
  5
117
330
116
100
AcDbEntity
  8
001
370
    50
  0
POLYLINE
  5
123
330
64
100
AcDbEntity
  8
001
 62
    40
370
    50
100
AcDb2dPolyline
 66
     1
 10
0.0
 20
0.0
 30
0.0
  0
VERTEX
  5
125
330
123
100
AcDbEntity
  8
001
 62
    40
370
    50
100
AcDbVertex
100
AcDb2dVertex
 10
44.447468
 20
51.752139
 30
0.0
  0
VERTEX
  5
126
330
123
100
AcDbEntity
  8
001
 62
    40
370
    50
100
AcDbVertex
100
AcDb2dVertex
 10
44.539463
 20
51.613253
 30
0.0
  0
VERTEX
  5
127
330
123
100
AcDbEntity
  8
001
 62
    40
370
    50
100
AcDbVertex
100
AcDb2dVertex
 10
44.632021
 20
51.474736
 30
0.0
  0
VERTEX
  5
128
330
123
100
AcDbEntity
  8
001
 62
    40
370
    50
100
AcDbVertex
100
AcDb2dVertex
 10
44.728847
 20
51.33264
 30
0.0
  0
VERTEX
  5
129
330
123
100
AcDbEntity
  8
001
 62
    40
370
    50
100
AcDbVertex
100
AcDb2dVertex
 10
44.828146
 20
51.192271
 30
0.0
  0
VERTEX
  5
12A
330
123
100
AcDbEntity
  8
001
 62
    40
370
    50
100
AcDbVertex
100
AcDb2dVertex
 10
44.929218
 20
51.056901
 30
0.0
  0
VERTEX
  5
12B
330
123
100
AcDbEntity
  8
001
 62
    40
370
    50
100
AcDbVertex
100
AcDb2dVertex
 10
45.034349
 20
50.924656
 30
0.0
  0
VERTEX
  5
12C
330
123
100
AcDbEntity
  8
001
 62
    40
370
    50
100
AcDbVertex
100
AcDb2dVertex
 10
45.144922
 20
50.79504
 30
0.0
  0
VERTEX
  5
12D
330
123
100
AcDbEntity
  8
001
 62
    40
370
    50
100
AcDbVertex
100
AcDb2dVertex
 10
45.260492
 20
50.669851
 30
0.0
  0
VERTEX
  5
12E
330
123
100
AcDbEntity
  8
001
 62
    40
370
    50
100
AcDbVertex
100
AcDb2dVertex
 10
45.380311
 20
50.550961
 30
0.0
  0
VERTEX
  5
12F
330
123
100
AcDbEntity
  8
001
 62
    40
370
    50
100
AcDbVertex
100
AcDb2dVertex
 10
45.505877
 20
50.438196
 30
0.0
  0
VERTEX
  5
130
330
123
100
AcDbEntity
  8
001
 62
    40
370
    50
100
AcDbVertex
100
AcDb2dVertex
 10
45.621138
 20
50.344996
 30
0.0
  0
VERTEX
  5
131
330
123
100
AcDbEntity
  8
001
 62
    40
370
    50
100
AcDbVertex
100
AcDb2dVertex
 10
45.740854
 20
50.257579
 30
0.0
  0
VERTEX
  5
132
330
123
100
AcDbEntity
  8
001
 62
    40
370
    50
100
AcDbVertex
100
AcDb2dVertex
 10
45.863225
 20
50.177113
 30
0.0
  0
VERTEX
  5
133
330
123
100
AcDbEntity
  8
001
 62
    40
370
    50
100
AcDbVertex
100
AcDb2dVertex
 10
45.989449
 20
50.102837
 30
0.0
  0
VERTEX
  5
134
330
123
100
AcDbEntity
  8
001
 62
    40
370
    50
100
AcDbVertex
100
AcDb2dVertex
 10
46.1162
 20
50.036658
 30
0.0
  0
VERTEX
  5
135
330
123
100
AcDbEntity
  8
001
 62
    40
370
    50
100
AcDbVertex
100
AcDb2dVertex
 10
46.246233
 20
49.977221
 30
0.0
  0
VERTEX
  5
136
330
123
100
AcDbEntity
  8
001
 62
    40
370
    50
100
AcDbVertex
100
AcDb2dVertex
 10
46.367143
 20
49.929354
 30
0.0
  0
VERTEX
  5
137
330
123
100
AcDbEntity
  8
001
 62
    40
370
    50
100
AcDbVertex
100
AcDb2dVertex
 10
46.490209
 20
49.887324
 30
0.0
  0
VERTEX
  5
138
330
123
100
AcDbEntity
  8
001
 62
    40
370
    50
100
AcDbVertex
100
AcDb2dVertex
 10
46.61165
 20
49.851896
 30
0.0
  0
VERTEX
  5
139
330
123
100
AcDbEntity
  8
001
 62
    40
370
    50
100
AcDbVertex
100
AcDb2dVertex
 10
46.734517
 20
49.821788
 30
0.0
  0
VERTEX
  5
13A
330
123
100
AcDbEntity
  8
001
 62
    40
370
    50
100
AcDbVertex
100
AcDb2dVertex
 10
46.85347
 20
49.79788
 30
0.0
  0
VERTEX
  5
13B
330
123
100
AcDbEntity
  8
001
 62
    40
370
    50
100
AcDbVertex
100
AcDb2dVertex
 10
46.973294
 20
49.77887
 30
0.0
  0
VERTEX
  5
13C
330
123
100
AcDbEntity
  8
001
 62
    40
370
    50
100
AcDbVertex
100
AcDb2dVertex
 10
47.086464
 20
49.765431
 30
0.0
  0
VERTEX
  5
13D
330
123
100
AcDbEntity
  8
001
 62
    40
370
    50
100
AcDbVertex
100
AcDb2dVertex
 10
47.200038
 20
49.755901
 30
0.0
  0
VERTEX
  5
13E
330
123
100
AcDbEntity
  8
001
 62
    40
370
    50
100
AcDbVertex
100
AcDb2dVertex
 10
47.307236
 20
49.750149
 30
0.0
  0
VERTEX
  5
13F
330
123
100
AcDbEntity
  8
001
 62
    40
370
    50
100
AcDbVertex
100
AcDb2dVertex
 10
47.41454
 20
49.747418
 30
0.0
  0
VERTEX
  5
140
330
123
100
AcDbEntity
  8
001
 62
    40
370
    50
100
AcDbVertex
100
AcDb2dVertex
 10
47.513674
 20
49.747333
 30
0.0
  0
VERTEX
  5
141
330
123
100
AcDbEntity
  8
001
 62
    40
370
    50
100
AcDbVertex
100
AcDb2dVertex
 10
47.612814
 20
49.748518
 30
0.0
  0
SEQEND
  5
124
330
123
100
AcDbEntity
  8
001
370
    50
  0
POLYLINE
  5
142
330
64
100
AcDbEntity
  8
001
 62
    40
370
    50
100
AcDb2dPolyline
 66
     1
 10
0.0
 20
0.0
 30
0.0
  0
VERTEX
  5
144
330
142
100
AcDbEntity
  8
001
 62
    40
370
    50
100
AcDbVertex
100
AcDb2dVertex
 10
45.944121
 20
54.328465
 30
0.0
  0
VERTEX
  5
145
330
142
100
AcDbEntity
  8
001
 62
    40
370
    50
100
AcDbVertex
100
AcDb2dVertex
 10
45.801829
 20
54.263544
 30
0.0
  0
VERTEX
  5
146
330
142
100
AcDbEntity
  8
001
 62
    40
370
    50
100
AcDbVertex
100
AcDb2dVertex
 10
45.604925
 20
54.160254
 30
0.0
  0
VERTEX
  5
147
330
142
100
AcDbEntity
  8
001
 62
    40
370
    50
100
AcDbVertex
100
AcDb2dVertex
 10
45.083479
 20
53.757507
 30
0.0
  0
VERTEX
  5
148
330
142
100
AcDbEntity
  8
001
 62
    40
370
    50
100
AcDbVertex
100
AcDb2dVertex
 10
44.745832
 20
53.263492
 30
0.0
  0
VERTEX
  5
149
330
142
100
AcDbEntity
  8
001
 62
    40
370
    50
100
AcDbVertex
100
AcDb2dVertex
 10
44.57788
 20
52.8691
 30
0.0
  0
VERTEX
  5
14A
330
142
100
AcDbEntity
  8
001
 62
    40
370
    50
100
AcDbVertex
100
AcDb2dVertex
 10
44.46704
 20
52.46393
 30
0.0
  0
VERTEX
  5
14B
330
142
100
AcDbEntity
  8
001
 62
    40
370
    50
100
AcDbVertex
100
AcDb2dVertex
 10
44.438576
 20
52.263236
 30
0.0
  0
VERTEX
  5
14C
330
142
100
AcDbEntity
  8
001
 62
    40
370
    50
100
AcDbVertex
100
AcDb2dVertex
 10
44.431382
 20
52.038492
 30
0.0
  0
VERTEX
  5
14D
330
142
100
AcDbEntity
  8
001
 62
    40
370
    50
100
AcDbVertex
100
AcDb2dVertex
 10
44.438112
 20
51.871538
 30
0.0
  0
VERTEX
  5
14E
330
142
100
AcDbEntity
  8
001
 62
    40
370
    50
100
AcDbVertex
100
AcDb2dVertex
 10
44.447468
 20
51.752139
 30
0.0
  0
SEQEND
  5
143
330
142
100
AcDbEntity
  8
001
370
    50
  0
POLYLINE
  5
14F
330
64
100
AcDbEntity
  8
001
 62
    40
370
    50
100
AcDb2dPolyline
 66
     1
 10
0.0
 20
0.0
 30
0.0
  0
VERTEX
  5
151
330
14F
100
AcDbEntity
  8
001
 62
    40
370
    50
100
AcDbVertex
100
AcDb2dVertex
 10
42.546823
 20
52.955222
 30
0.0
  0
VERTEX
  5
152
330
14F
100
AcDbEntity
  8
001
 62
    40
370
    50
100
AcDbVertex
100
AcDb2dVertex
 10
42.361537
 20
52.989629
 30
0.0
  0
VERTEX
  5
153
330
14F
100
AcDbEntity
  8
001
 62
    40
370
    50
100
AcDbVertex
100
AcDb2dVertex
 10
42.088848
 20
53.025154
 30
0.0
  0
VERTEX
  5
154
330
14F
100
AcDbEntity
  8
001
 62
    40
370
    50
100
AcDbVertex
100
AcDb2dVertex
 10
41.835885
 20
53.038375
 30
0.0
  0
VERTEX
  5
155
330
14F
100
AcDbEntity
  8
001
 62
    40
370
    50
100
AcDbVertex
100
AcDb2dVertex
 10
41.662338
 20
53.037484
 30
0.0
  0
SEQEND
  5
150
330
14F
100
AcDbEntity
  8
001
370
    50
  0
LINE
  5
156
330
64
100
AcDbEntity
  8
001
 62
    40
370
    50
100
AcDbLine
 10
44.447468
 20
51.752139
 30
0.0
 11
42.546823
 21
52.955222
 31
0.0
  0
POLYLINE
  5
157
330
64
100
AcDbEntity
  8
001
 62
    40
370
    50
100
AcDb2dPolyline
 66
     1
 10
0.0
 20
0.0
 30
0.0
  0
VERTEX
  5
159
330
157
100
AcDbEntity
  8
001
 62
    40
370
    50
100
AcDbVertex
100
AcDb2dVertex
 10
46.990615
 20
46.334486
 30
0.0
  0
VERTEX
  5
15A
330
157
100
AcDbEntity
  8
001
 62
    40
370
    50
100
AcDbVertex
100
AcDb2dVertex
 10
47.225307
 20
46.300116
 30
0.0
  0
VERTEX
  5
15B
330
157
100
AcDbEntity
  8
001
 62
    40
370
    50
100
AcDbVertex
100
AcDb2dVertex
 10
47.569801
 20
46.264555
 30
0.0
  0
VERTEX
  5
15C
330
157
100
AcDbEntity
  8
001
 62
    40
370
    50
100
AcDbVertex
100
AcDb2dVertex
 10
47.883677
 20
46.251404
 30
0.0
  0
VERTEX
  5
15D
330
157
100
AcDbEntity
  8
001
 62
    40
370
    50
100
AcDbVertex
100
AcDb2dVertex
 10
48.098795
 20
46.252224
 30
0.0
  0
SEQEND
  5
158
330
157
100
AcDbEntity
  8
001
370
    50
  0
POLYLINE
  5
15E
330
64
100
AcDbEntity
  8
001
 62
    40
370
    50
100
AcDb2dPolyline
 66
     1
 10
0.0
 20
0.0
 30
0.0
  0
VERTEX
  5
160
330
15E
100
AcDbEntity
  8
001
 62
    40
370
    50
100
AcDbVertex
100
AcDb2dVertex
 10
40.178322
 20
51.255568
 30
0.0
  0
VERTEX
  5
161
330
15E
100
AcDbEntity
  8
001
 62
    40
370
    50
100
AcDbVertex
100
AcDb2dVertex
 10
40.179047
 20
51.251976
 30
0.0
  0
VERTEX
  5
162
330
15E
100
AcDbEntity
  8
001
 62
    40
370
    50
100
AcDbVertex
100
AcDb2dVertex
 10
40.180115
 20
51.246727
 30
0.0
  0
VERTEX
  5
163
330
15E
100
AcDbEntity
  8
001
 62
    40
370
    50
100
AcDbVertex
100
AcDb2dVertex
 10
40.322378
 20
50.777436
 30
0.0
  0
VERTEX
  5
164
330
15E
100
AcDbEntity
  8
001
 62
    40
370
    50
100
AcDbVertex
100
AcDb2dVertex
 10
40.459172
 20
50.468802
 30
0.0
  0
SEQEND
  5
15F
330
15E
100
AcDbEntity
  8
001
370
    50
  0
POLYLINE
  5
165
330
64
100
AcDbEntity
  8
001
 62
    40
370
    50
100
AcDb2dPolyline
 66
     1
 10
0.0
 20
0.0
 30
0.0
  0
VERTEX
  5
167
330
165
100
AcDbEntity
  8
001
 62
    40
370
    50
100
AcDbVertex
100
AcDb2dVertex
 10
40.32274
 20
51.407223
 30
0.0
  0
VERTEX
  5
168
330
165
100
AcDbEntity
  8
001
 62
    40
370
    50
100
AcDbVertex
100
AcDb2dVertex
 10
40.285445
 20
51.369895
 30
0.0
  0
VERTEX
  5
169
330
165
100
AcDbEntity
  8
001
 62
    40
370
    50
100
AcDbVertex
100
AcDb2dVertex
 10
40.248656
 20
51.332087
 30
0.0
  0
VERTEX
  5
16A
330
165
100
AcDbEntity
  8
001
 62
    40
370
    50
100
AcDbVertex
100
AcDb2dVertex
 10
40.213243
 20
51.294061
 30
0.0
  0
VERTEX
  5
16B
330
165
100
AcDbEntity
  8
001
 62
    40
370
    50
100
AcDbVertex
100
AcDb2dVertex
 10
40.178322
 20
51.255568
 30
0.0
  0
SEQEND
  5
166
330
165
100
AcDbEntity
  8
001
370
    50
  0
POLYLINE
  5
16C
330
64
100
AcDbEntity
  8
001
 62
    40
370
    50
100
AcDb2dPolyline
 66
     1
 10
0.0
 20
0.0
 30
0.0
  0
VERTEX
  5
16E
330
16C
100
AcDbEntity
  8
001
 62
    40
370
    50
100
AcDbVertex
100
AcDb2dVertex
 10
40.32274
 20
51.407223
 30
0.0
  0
VERTEX
  5
16F
330
16C
100
AcDbEntity
  8
001
 62
    40
370
    50
100
AcDbVertex
100
AcDb2dVertex
 10
40.382925
 20
51.466682
 30
0.0
  0
VERTEX
  5
170
330
16C
100
AcDbEntity
  8
001
 62
    40
370
    50
100
AcDbVertex
100
AcDb2dVertex
 10
40.466784
 20
51.550679
 30
0.0
  0
VERTEX
  5
171
330
16C
100
AcDbEntity
  8
001
 62
    40
370
    50
100
AcDbVertex
100
AcDb2dVertex
 10
40.60883
 20
51.697241
 30
0.0
  0
VERTEX
  5
172
330
16C
100
AcDbEntity
  8
001
 62
    40
370
    50
100
AcDbVertex
100
AcDb2dVertex
 10
40.733506
 20
51.832277
 30
0.0
  0
VERTEX
  5
173
330
16C
100
AcDbEntity
  8
001
 62
    40
370
    50
100
AcDbVertex
100
AcDb2dVertex
 10
40.861705
 20
51.976268
 30
0.0
  0
VERTEX
  5
174
330
16C
100
AcDbEntity
  8
001
 62
    40
370
    50
100
AcDbVertex
100
AcDb2dVertex
 10
40.98957
 20
52.123601
 30
0.0
  0
VERTEX
  5
175
330
16C
100
AcDbEntity
  8
001
 62
    40
370
    50
100
AcDbVertex
100
AcDb2dVertex
 10
41.212321
 20
52.392735
 30
0.0
  0
VERTEX
  5
176
330
16C
100
AcDbEntity
  8
001
 62
    40
370
    50
100
AcDbVertex
100
AcDb2dVertex
 10
41.43916
 20
52.699992
 30
0.0
  0
VERTEX
  5
177
330
16C
100
AcDbEntity
  8
001
 62
    40
370
    50
100
AcDbVertex
100
AcDb2dVertex
 10
41.57119
 20
52.895474
 30
0.0
  0
VERTEX
  5
178
330
16C
100
AcDbEntity
  8
001
 62
    40
370
    50
100
AcDbVertex
100
AcDb2dVertex
 10
41.662338
 20
53.037484
 30
0.0
  0
SEQEND
  5
16D
330
16C
100
AcDbEntity
  8
001
370
    50
  0
LINE
  5
179
330
64
100
AcDbEntity
  8
001
 62
    40
370
    50
100
AcDbLine
 10
47.638563
 20
45.981151
 30
0.0
 11
46.990615
 21
46.334486
 31
0.0
  0
POLYLINE
  5
17A
330
64
100
AcDbEntity
  8
001
 62
    40
370
    50
100
AcDb2dPolyline
 66
     1
 10
0.0
 20
0.0
 30
0.0
  0
VERTEX
  5
17C
330
17A
100
AcDbEntity
  8
001
 62
    40
370
    50
100
AcDbVertex
100
AcDb2dVertex
 10
47.750894
 20
45.952165
 30
0.0
  0
VERTEX
  5
17D
330
17A
100
AcDbEntity
  8
001
 62
    40
370
    50
100
AcDbVertex
100
AcDb2dVertex
 10
47.751757
 20
45.952168
 30
0.0
  0
VERTEX
  5
17E
330
17A
100
AcDbEntity
  8
001
 62
    40
370
    50
100
AcDbVertex
100
AcDb2dVertex
 10
47.753017
 20
45.952175
 30
0.0
  0
VERTEX
  5
17F
330
17A
100
AcDbEntity
  8
001
 62
    40
370
    50
100
AcDbVertex
100
AcDb2dVertex
 10
47.810559
 20
45.960024
 30
0.0
  0
VERTEX
  5
180
330
17A
100
AcDbEntity
  8
001
 62
    40
370
    50
100
AcDbVertex
100
AcDb2dVertex
 10
47.856133
 20
45.979972
 30
0.0
  0
VERTEX
  5
181
330
17A
100
AcDbEntity
  8
001
 62
    40
370
    50
100
AcDbVertex
100
AcDb2dVertex
 10
47.869983
 20
45.988765
 30
0.0
  0
VERTEX
  5
182
330
17A
100
AcDbEntity
  8
001
 62
    40
370
    50
100
AcDbVertex
100
AcDb2dVertex
 10
47.884362
 20
46.000254
 30
0.0
  0
VERTEX
  5
183
330
17A
100
AcDbEntity
  8
001
 62
    40
370
    50
100
AcDbVertex
100
AcDb2dVertex
 10
47.896123
 20
46.011672
 30
0.0
  0
VERTEX
  5
184
330
17A
100
AcDbEntity
  8
001
 62
    40
370
    50
100
AcDbVertex
100
AcDb2dVertex
 10
47.904102
 20
46.020342
 30
0.0
  0
SEQEND
  5
17B
330
17A
100
AcDbEntity
  8
001
370
    50
  0
LINE
  5
185
330
64
100
AcDbEntity
  8
001
 62
    40
370
    50
100
AcDbLine
 10
45.681835
 20
57.824759
 30
0.0
 11
45.876528
 21
58.056641
 31
0.0
  0
POLYLINE
  5
186
330
64
100
AcDbEntity
  8
001
 62
    40
370
    50
100
AcDb2dPolyline
 66
     1
 10
0.0
 20
0.0
 30
0.0
  0
VERTEX
  5
188
330
186
100
AcDbEntity
  8
001
 62
    40
370
    50
100
AcDbVertex
100
AcDb2dVertex
 10
46.0115
 20
58.124817
 30
0.0
  0
VERTEX
  5
189
330
186
100
AcDbEntity
  8
001
 62
    40
370
    50
100
AcDbVertex
100
AcDb2dVertex
 10
46.004636
 20
58.124594
 30
0.0
  0
VERTEX
  5
18A
330
186
100
AcDbEntity
  8
001
 62
    40
370
    50
100
AcDbVertex
100
AcDb2dVertex
 10
45.994996
 20
58.123898
 30
0.0
  0
VERTEX
  5
18B
330
186
100
AcDbEntity
  8
001
 62
    40
370
    50
100
AcDbVertex
100
AcDb2dVertex
 10
45.978874
 20
58.121358
 30
0.0
  0
VERTEX
  5
18C
330
186
100
AcDbEntity
  8
001
 62
    40
370
    50
100
AcDbVertex
100
AcDb2dVertex
 10
45.965044
 20
58.117547
 30
0.0
  0
VERTEX
  5
18D
330
186
100
AcDbEntity
  8
001
 62
    40
370
    50
100
AcDbVertex
100
AcDb2dVertex
 10
45.923995
 20
58.098836
 30
0.0
  0
VERTEX
  5
18E
330
186
100
AcDbEntity
  8
001
 62
    40
370
    50
100
AcDbVertex
100
AcDb2dVertex
 10
45.883926
 20
58.06501
 30
0.0
  0
VERTEX
  5
18F
330
186
100
AcDbEntity
  8
001
 62
    40
370
    50
100
AcDbVertex
100
AcDb2dVertex
 10
45.879515
 20
58.060095
 30
0.0
  0
VERTEX
  5
190
330
186
100
AcDbEntity
  8
001
 62
    40
370
    50
100
AcDbVertex
100
AcDb2dVertex
 10
45.876528
 20
58.056641
 30
0.0
  0
SEQEND
  5
187
330
186
100
AcDbEntity
  8
001
370
    50
  0
POLYLINE
  5
191
330
64
100
AcDbEntity
  8
001
 62
    40
370
    50
100
AcDb2dPolyline
 66
     1
 10
0.0
 20
0.0
 30
0.0
  0
VERTEX
  5
193
330
191
100
AcDbEntity
  8
001
 62
    40
370
    50
100
AcDbVertex
100
AcDb2dVertex
 10
48.560151
 20
45.952165
 30
0.0
  0
VERTEX
  5
194
330
191
100
AcDbEntity
  8
001
 62
    40
370
    50
100
AcDbVertex
100
AcDb2dVertex
 10
48.574182
 20
45.952907
 30
0.0
  0
VERTEX
  5
195
330
191
100
AcDbEntity
  8
001
 62
    40
370
    50
100
AcDbVertex
100
AcDb2dVertex
 10
48.593421
 20
45.955204
 30
0.0
  0
VERTEX
  5
196
330
191
100
AcDbEntity
  8
001
 62
    40
370
    50
100
AcDbVertex
100
AcDb2dVertex
 10
48.61056
 20
45.959088
 30
0.0
  0
VERTEX
  5
197
330
191
100
AcDbEntity
  8
001
 62
    40
370
    50
100
AcDbVertex
100
AcDb2dVertex
 10
48.625681
 20
45.964227
 30
0.0
  0
VERTEX
  5
198
330
191
100
AcDbEntity
  8
001
 62
    40
370
    50
100
AcDbVertex
100
AcDb2dVertex
 10
48.640609
 20
45.97052
 30
0.0
  0
VERTEX
  5
199
330
191
100
AcDbEntity
  8
001
 62
    40
370
    50
100
AcDbVertex
100
AcDb2dVertex
 10
48.65595
 20
45.97896
 30
0.0
  0
VERTEX
  5
19A
330
191
100
AcDbEntity
  8
001
 62
    40
370
    50
100
AcDbVertex
100
AcDb2dVertex
 10
48.684948
 20
46.001305
 30
0.0
  0
VERTEX
  5
19B
330
191
100
AcDbEntity
  8
001
 62
    40
370
    50
100
AcDbVertex
100
AcDb2dVertex
 10
48.704241
 20
46.020342
 30
0.0
  0
SEQEND
  5
192
330
191
100
AcDbEntity
  8
001
370
    50
  0
POLYLINE
  5
19C
330
64
100
AcDbEntity
  8
001
 62
    40
370
    50
100
AcDb2dPolyline
 66
     1
 10
0.0
 20
0.0
 30
0.0
  0
VERTEX
  5
19E
330
19C
100
AcDbEntity
  8
001
 62
    40
370
    50
100
AcDbVertex
100
AcDb2dVertex
 10
47.638563
 20
45.981151
 30
0.0
  0
VERTEX
  5
19F
330
19C
100
AcDbEntity
  8
001
 62
    40
370
    50
100
AcDbVertex
100
AcDb2dVertex
 10
47.641042
 20
45.97983
 30
0.0
  0
VERTEX
  5
1A0
330
19C
100
AcDbEntity
  8
001
 62
    40
370
    50
100
AcDbVertex
100
AcDb2dVertex
 10
47.644608
 20
45.977966
 30
0.0
  0
VERTEX
  5
1A1
330
19C
100
AcDbEntity
  8
001
 62
    40
370
    50
100
AcDbVertex
100
AcDb2dVertex
 10
47.662493
 20
45.969422
 30
0.0
  0
VERTEX
  5
1A2
330
19C
100
AcDbEntity
  8
001
 62
    40
370
    50
100
AcDbVertex
100
AcDb2dVertex
 10
47.679479
 20
45.96355
 30
0.0
  0
VERTEX
  5
1A3
330
19C
100
AcDbEntity
  8
001
 62
    40
370
    50
100
AcDbVertex
100
AcDb2dVertex
 10
47.719524
 20
45.955378
 30
0.0
  0
VERTEX
  5
1A4
330
19C
100
AcDbEntity
  8
001
 62
    40
370
    50
100
AcDbVertex
100
AcDb2dVertex
 10
47.750894
 20
45.952165
 30
0.0
  0
SEQEND
  5
19D
330
19C
100
AcDbEntity
  8
001
370
    50
  0
LINE
  5
1A5
330
64
100
AcDbEntity
  8
001
 62
    40
370
    50
100
AcDbLine
 10
47.750894
 20
45.952165
 30
0.0
 11
48.560151
 21
45.952165
 31
0.0
  0
LINE
  5
1A6
330
64
100
AcDbEntity
  8
001
 62
    40
370
    50
100
AcDbLine
 10
42.546823
 20
52.955222
 30
0.0
 11
44.478669
 21
55.256077
 31
0.0
  0
POLYLINE
  5
1A7
330
64
100
AcDbEntity
  8
001
 62
    40
370
    50
100
AcDb2dPolyline
 66
     1
 10
0.0
 20
0.0
 30
0.0
  0
VERTEX
  5
1A9
330
1A7
100
AcDbEntity
  8
001
 62
    40
370
    50
100
AcDbVertex
100
AcDb2dVertex
 10
46.097862
 20
58.095832
 30
0.0
  0
VERTEX
  5
1AA
330
1A7
100
AcDbEntity
  8
001
 62
    40
370
    50
100
AcDbVertex
100
AcDb2dVertex
 10
46.090982
 20
58.100612
 30
0.0
  0
VERTEX
  5
1AB
330
1A7
100
AcDbEntity
  8
001
 62
    40
370
    50
100
AcDbVertex
100
AcDb2dVertex
 10
46.081037
 20
58.106804
 30
0.0
  0
VERTEX
  5
1AC
330
1A7
100
AcDbEntity
  8
001
 62
    40
370
    50
100
AcDbVertex
100
AcDb2dVertex
 10
46.066974
 20
58.113769
 30
0.0
  0
VERTEX
  5
1AD
330
1A7
100
AcDbEntity
  8
001
 62
    40
370
    50
100
AcDbVertex
100
AcDb2dVertex
 10
46.053887
 20
58.118443
 30
0.0
  0
VERTEX
  5
1AE
330
1A7
100
AcDbEntity
  8
001
 62
    40
370
    50
100
AcDbVertex
100
AcDb2dVertex
 10
46.040521
 20
58.121971
 30
0.0
  0
VERTEX
  5
1AF
330
1A7
100
AcDbEntity
  8
001
 62
    40
370
    50
100
AcDbVertex
100
AcDb2dVertex
 10
46.024913
 20
58.1242
 30
0.0
  0
VERTEX
  5
1B0
330
1A7
100
AcDbEntity
  8
001
 62
    40
370
    50
100
AcDbVertex
100
AcDb2dVertex
 10
46.017064
 20
58.12467
 30
0.0
  0
VERTEX
  5
1B1
330
1A7
100
AcDbEntity
  8
001
 62
    40
370
    50
100
AcDbVertex
100
AcDb2dVertex
 10
46.0115
 20
58.124817
 30
0.0
  0
SEQEND
  5
1A8
330
1A7
100
AcDbEntity
  8
001
370
    50
  0
LINE
  5
1B2
330
64
100
AcDbEntity
  8
001
 62
    40
370
    50
100
AcDbLine
 10
46.272736
 20
58.124817
 30
0.0
 11
46.0115
 21
58.124817
 31
0.0
  0
LINE
  5
1B3
330
64
100
AcDbEntity
  8
001
 62
    40
370
    50
100
AcDbLine
 10
41.662338
 20
53.037484
 30
0.0
 11
44.195503
 21
56.054518
 31
0.0
  0
POLYLINE
  5
1B4
330
64
100
AcDbEntity
  8
001
 62
    40
370
    50
100
AcDb2dPolyline
 66
     1
 10
0.0
 20
0.0
 30
0.0
  0
VERTEX
  5
1B6
330
1B4
100
AcDbEntity
  8
001
 62
    40
370
    50
100
AcDbVertex
100
AcDb2dVertex
 10
40.178322
 20
51.255568
 30
0.0
  0
VERTEX
  5
1B7
330
1B4
100
AcDbEntity
  8
001
 62
    40
370
    50
100
AcDbVertex
100
AcDb2dVertex
 10
40.14405
 20
51.185511
 30
0.0
  0
VERTEX
  5
1B8
330
1B4
100
AcDbEntity
  8
001
 62
    40
370
    50
100
AcDbVertex
100
AcDb2dVertex
 10
40.114757
 20
51.113582
 30
0.0
  0
VERTEX
  5
1B9
330
1B4
100
AcDbEntity
  8
001
 62
    40
370
    50
100
AcDbVertex
100
AcDb2dVertex
 10
40.101111
 20
51.067751
 30
0.0
  0
VERTEX
  5
1BA
330
1B4
100
AcDbEntity
  8
001
 62
    40
370
    50
100
AcDbVertex
100
AcDb2dVertex
 10
40.090837
 20
51.020948
 30
0.0
  0
VERTEX
  5
1BB
330
1B4
100
AcDbEntity
  8
001
 62
    40
370
    50
100
AcDbVertex
100
AcDb2dVertex
 10
40.083841
 20
50.974687
 30
0.0
  0
VERTEX
  5
1BC
330
1B4
100
AcDbEntity
  8
001
 62
    40
370
    50
100
AcDbVertex
100
AcDb2dVertex
 10
40.080281
 20
50.928106
 30
0.0
  0
VERTEX
  5
1BD
330
1B4
100
AcDbEntity
  8
001
 62
    40
370
    50
100
AcDbVertex
100
AcDb2dVertex
 10
40.081757
 20
50.868219
 30
0.0
  0
VERTEX
  5
1BE
330
1B4
100
AcDbEntity
  8
001
 62
    40
370
    50
100
AcDbVertex
100
AcDb2dVertex
 10
40.091446
 20
50.808761
 30
0.0
  0
VERTEX
  5
1BF
330
1B4
100
AcDbEntity
  8
001
 62
    40
370
    50
100
AcDbVertex
100
AcDb2dVertex
 10
40.103876
 20
50.769348
 30
0.0
  0
VERTEX
  5
1C0
330
1B4
100
AcDbEntity
  8
001
 62
    40
370
    50
100
AcDbVertex
100
AcDb2dVertex
 10
40.123294
 20
50.733606
 30
0.0
  0
VERTEX
  5
1C1
330
1B4
100
AcDbEntity
  8
001
 62
    40
370
    50
100
AcDbVertex
100
AcDb2dVertex
 10
40.139854
 20
50.71399
 30
0.0
  0
VERTEX
  5
1C2
330
1B4
100
AcDbEntity
  8
001
 62
    40
370
    50
100
AcDbVertex
100
AcDb2dVertex
 10
40.158298
 20
50.695738
 30
0.0
  0
SEQEND
  5
1B5
330
1B4
100
AcDbEntity
  8
001
370
    50
  0
LINE
  5
1C3
330
64
100
AcDbEntity
  8
001
 62
    40
370
    50
100
AcDbLine
 10
40.459172
 20
50.468802
 30
0.0
 11
40.158298
 21
50.695738
 31
0.0
  0
LINE
  5
1C4
330
64
100
AcDbEntity
  8
001
 62
    40
370
    50
100
AcDbLine
 10
40.079782
 20
50.708952
 30
0.0
 11
46.990615
 21
46.334486
 31
0.0
  0
ENDBLK
  5
66
330
64
100
AcDbEntity
  8
0
100
AcDbBlockEnd
  0
BLOCK
  5
1C6
330
1C5
100
AcDbEntity
  8
0
100
AcDbBlockBegin
  2
M-1-2
 70
     0
 10
0.0
 20
0.0
 30
0.0
  3
M-1-2
  1

  0
POLYLINE
  5
1C8
330
1C5
100
AcDbEntity
  8
001
 62
     5
370
    50
100
AcDb2dPolyline
 66
     1
 10
0.0
 20
0.0
 30
0.0
  0
VERTEX
  5
1CA
330
1C8
100
AcDbEntity
  8
001
 62
     5
370
    50
100
AcDbVertex
100
AcDb2dVertex
 10
46.327116
 20
54.019139
 30
0.0
  0
VERTEX
  5
1CB
330
1C8
100
AcDbEntity
  8
001
 62
     5
370
    50
100
AcDbVertex
100
AcDb2dVertex
 10
46.295465
 20
54.009939
 30
0.0
  0
VERTEX
  5
1CC
330
1C8
100
AcDbEntity
  8
001
 62
     5
370
    50
100
AcDbVertex
100
AcDb2dVertex
 10
46.263909
 20
54.000425
 30
0.0
  0
VERTEX
  5
1CD
330
1C8
100
AcDbEntity
  8
001
 62
     5
370
    50
100
AcDbVertex
100
AcDb2dVertex
 10
46.18516
 20
53.973849
 30
0.0
  0
VERTEX
  5
1CE
330
1C8
100
AcDbEntity
  8
001
 62
     5
370
    50
100
AcDbVertex
100
AcDb2dVertex
 10
46.107684
 20
53.943692
 30
0.0
  0
VERTEX
  5
1CF
330
1C8
100
AcDbEntity
  8
001
 62
     5
370
    50
100
AcDbVertex
100
AcDb2dVertex
 10
46.031386
 20
53.910218
 30
0.0
  0
VERTEX
  5
1D0
330
1C8
100
AcDbEntity
  8
001
 62
     5
370
    50
100
AcDbVertex
100
AcDb2dVertex
 10
45.956585
 20
53.873547
 30
0.0
  0
VERTEX
  5
1D1
330
1C8
100
AcDbEntity
  8
001
 62
     5
370
    50
100
AcDbVertex
100
AcDb2dVertex
 10
45.883237
 20
53.833572
 30
0.0
  0
VERTEX
  5
1D2
330
1C8
100
AcDbEntity
  8
001
 62
     5
370
    50
100
AcDbVertex
100
AcDb2dVertex
 10
45.811671
 20
53.79048
 30
0.0
  0
VERTEX
  5
1D3
330
1C8
100
AcDbEntity
  8
001
 62
     5
370
    50
100
AcDbVertex
100
AcDb2dVertex
 10
45.7418
 20
53.744238
 30
0.0
  0
VERTEX
  5
1D4
330
1C8
100
AcDbEntity
  8
001
 62
     5
370
    50
100
AcDbVertex
100
AcDb2dVertex
 10
45.673959
 20
53.69507
 30
0.0
  0
VERTEX
  5
1D5
330
1C8
100
AcDbEntity
  8
001
 62
     5
370
    50
100
AcDbVertex
100
AcDb2dVertex
 10
45.608055
 20
53.642897
 30
0.0
  0
VERTEX
  5
1D6
330
1C8
100
AcDbEntity
  8
001
 62
     5
370
    50
100
AcDbVertex
100
AcDb2dVertex
 10
45.544416
 20
53.587982
 30
0.0
  0
VERTEX
  5
1D7
330
1C8
100
AcDbEntity
  8
001
 62
     5
370
    50
100
AcDbVertex
100
AcDb2dVertex
 10
45.482945
 20
53.53024
 30
0.0
  0
VERTEX
  5
1D8
330
1C8
100
AcDbEntity
  8
001
 62
     5
370
    50
100
AcDbVertex
100
AcDb2dVertex
 10
45.423954
 20
53.469965
 30
0.0
  0
VERTEX
  5
1D9
330
1C8
100
AcDbEntity
  8
001
 62
     5
370
    50
100
AcDbVertex
100
AcDb2dVertex
 10
45.367351
 20
53.407058
 30
0.0
  0
VERTEX
  5
1DA
330
1C8
100
AcDbEntity
  8
001
 62
     5
370
    50
100
AcDbVertex
100
AcDb2dVertex
 10
45.313425
 20
53.341843
 30
0.0
  0
VERTEX
  5
1DB
330
1C8
100
AcDbEntity
  8
001
 62
     5
370
    50
100
AcDbVertex
100
AcDb2dVertex
 10
45.262091
 20
53.274214
 30
0.0
  0
VERTEX
  5
1DC
330
1C8
100
AcDbEntity
  8
001
 62
     5
370
    50
100
AcDbVertex
100
AcDb2dVertex
 10
45.213609
 20
53.204513
 30
0.0
  0
VERTEX
  5
1DD
330
1C8
100
AcDbEntity
  8
001
 62
     5
370
    50
100
AcDbVertex
100
AcDb2dVertex
 10
45.16791
 20
53.132637
 30
0.0
  0
VERTEX
  5
1DE
330
1C8
100
AcDbEntity
  8
001
 62
     5
370
    50
100
AcDbVertex
100
AcDb2dVertex
 10
45.125216
 20
53.058938
 30
0.0
  0
VERTEX
  5
1DF
330
1C8
100
AcDbEntity
  8
001
 62
     5
370
    50
100
AcDbVertex
100
AcDb2dVertex
 10
45.085476
 20
52.983323
 30
0.0
  0
VERTEX
  5
1E0
330
1C8
100
AcDbEntity
  8
001
 62
     5
370
    50
100
AcDbVertex
100
AcDb2dVertex
 10
45.048874
 20
52.906141
 30
0.0
  0
VERTEX
  5
1E1
330
1C8
100
AcDbEntity
  8
001
 62
     5
370
    50
100
AcDbVertex
100
AcDb2dVertex
 10
45.015376
 20
52.82732
 30
0.0
  0
VERTEX
  5
1E2
330
1C8
100
AcDbEntity
  8
001
 62
     5
370
    50
100
AcDbVertex
100
AcDb2dVertex
 10
44.985126
 20
52.747196
 30
0.0
  0
VERTEX
  5
1E3
330
1C8
100
AcDbEntity
  8
001
 62
     5
370
    50
100
AcDbVertex
100
AcDb2dVertex
 10
44.95811
 20
52.665726
 30
0.0
  0
VERTEX
  5
1E4
330
1C8
100
AcDbEntity
  8
001
 62
     5
370
    50
100
AcDbVertex
100
AcDb2dVertex
 10
44.93443
 20
52.583224
 30
0.0
  0
VERTEX
  5
1E5
330
1C8
100
AcDbEntity
  8
001
 62
     5
370
    50
100
AcDbVertex
100
AcDb2dVertex
 10
44.914087
 20
52.499681
 30
0.0
  0
VERTEX
  5
1E6
330
1C8
100
AcDbEntity
  8
001
 62
     5
370
    50
100
AcDbVertex
100
AcDb2dVertex
 10
44.897149
 20
52.415381
 30
0.0
  0
VERTEX
  5
1E7
330
1C8
100
AcDbEntity
  8
001
 62
     5
370
    50
100
AcDbVertex
100
AcDb2dVertex
 10
44.883624
 20
52.330355
 30
0.0
  0
VERTEX
  5
1E8
330
1C8
100
AcDbEntity
  8
001
 62
     5
370
    50
100
AcDbVertex
100
AcDb2dVertex
 10
44.873553
 20
52.244851
 30
0.0
  0
VERTEX
  5
1E9
330
1C8
100
AcDbEntity
  8
001
 62
     5
370
    50
100
AcDbVertex
100
AcDb2dVertex
 10
44.866943
 20
52.158944
 30
0.0
  0
VERTEX
  5
1EA
330
1C8
100
AcDbEntity
  8
001
 62
     5
370
    50
100
AcDbVertex
100
AcDb2dVertex
 10
44.863813
 20
52.07284
 30
0.0
  0
VERTEX
  5
1EB
330
1C8
100
AcDbEntity
  8
001
 62
     5
370
    50
100
AcDbVertex
100
AcDb2dVertex
 10
44.864167
 20
51.98666
 30
0.0
  0
VERTEX
  5
1EC
330
1C8
100
AcDbEntity
  8
001
 62
     5
370
    50
100
AcDbVertex
100
AcDb2dVertex
 10
44.868004
 20
51.900564
 30
0.0
  0
VERTEX
  5
1ED
330
1C8
100
AcDbEntity
  8
001
 62
     5
370
    50
100
AcDbVertex
100
AcDb2dVertex
 10
44.87532
 20
51.814721
 30
0.0
  0
VERTEX
  5
1EE
330
1C8
100
AcDbEntity
  8
001
 62
     5
370
    50
100
AcDbVertex
100
AcDb2dVertex
 10
44.886103
 20
51.729243
 30
0.0
  0
VERTEX
  5
1EF
330
1C8
100
AcDbEntity
  8
001
 62
     5
370
    50
100
AcDbVertex
100
AcDb2dVertex
 10
44.900328
 20
51.644345
 30
0.0
  0
VERTEX
  5
1F0
330
1C8
100
AcDbEntity
  8
001
 62
     5
370
    50
100
AcDbVertex
100
AcDb2dVertex
 10
44.917984
 20
51.560094
 30
0.0
  0
VERTEX
  5
1F1
330
1C8
100
AcDbEntity
  8
001
 62
     5
370
    50
100
AcDbVertex
100
AcDb2dVertex
 10
44.939018
 20
51.476743
 30
0.0
  0
VERTEX
  5
1F2
330
1C8
100
AcDbEntity
  8
001
 62
     5
370
    50
100
AcDbVertex
100
AcDb2dVertex
 10
44.963425
 20
51.394316
 30
0.0
  0
VERTEX
  5
1F3
330
1C8
100
AcDbEntity
  8
001
 62
     5
370
    50
100
AcDbVertex
100
AcDb2dVertex
 10
44.99112
 20
51.3131
 30
0.0
  0
VERTEX
  5
1F4
330
1C8
100
AcDbEntity
  8
001
 62
     5
370
    50
100
AcDbVertex
100
AcDb2dVertex
 10
45.022107
 20
51.233083
 30
0.0
  0
VERTEX
  5
1F5
330
1C8
100
AcDbEntity
  8
001
 62
     5
370
    50
100
AcDbVertex
100
AcDb2dVertex
 10
45.056266
 20
51.154579
 30
0.0
  0
VERTEX
  5
1F6
330
1C8
100
AcDbEntity
  8
001
 62
     5
370
    50
100
AcDbVertex
100
AcDb2dVertex
 10
45.093616
 20
51.077541
 30
0.0
  0
VERTEX
  5
1F7
330
1C8
100
AcDbEntity
  8
001
 62
     5
370
    50
100
AcDbVertex
100
AcDb2dVertex
 10
45.133997
 20
51.002303
 30
0.0
  0
VERTEX
  5
1F8
330
1C8
100
AcDbEntity
  8
001
 62
     5
370
    50
100
AcDbVertex
100
AcDb2dVertex
 10
45.177446
 20
50.928795
 30
0.0
  0
VERTEX
  5
1F9
330
1C8
100
AcDbEntity
  8
001
 62
     5
370
    50
100
AcDbVertex
100
AcDb2dVertex
 10
45.223762
 20
50.857355
 30
0.0
  0
VERTEX
  5
1FA
330
1C8
100
AcDbEntity
  8
001
 62
     5
370
    50
100
AcDbVertex
100
AcDb2dVertex
 10
45.273002
 20
50.787898
 30
0.0
  0
VERTEX
  5
1FB
330
1C8
100
AcDbEntity
  8
001
 62
     5
370
    50
100
AcDbVertex
100
AcDb2dVertex
 10
45.324924
 20
50.720763
 30
0.0
  0
VERTEX
  5
1FC
330
1C8
100
AcDbEntity
  8
001
 62
     5
370
    50
100
AcDbVertex
100
AcDb2dVertex
 10
45.379603
 20
50.655852
 30
0.0
  0
VERTEX
  5
1FD
330
1C8
100
AcDbEntity
  8
001
 62
     5
370
    50
100
AcDbVertex
100
AcDb2dVertex
 10
45.436764
 20
50.593495
 30
0.0
  0
VERTEX
  5
1FE
330
1C8
100
AcDbEntity
  8
001
 62
     5
370
    50
100
AcDbVertex
100
AcDb2dVertex
 10
45.496493
 20
50.533593
 30
0.0
  0
VERTEX
  5
1FF
330
1C8
100
AcDbEntity
  8
001
 62
     5
370
    50
100
AcDbVertex
100
AcDb2dVertex
 10
45.558485
 20
50.476453
 30
0.0
  0
VERTEX
  5
200
330
1C8
100
AcDbEntity
  8
001
 62
     5
370
    50
100
AcDbVertex
100
AcDb2dVertex
 10
45.622837
 20
50.421985
 30
0.0
  0
VERTEX
  5
201
330
1C8
100
AcDbEntity
  8
001
 62
     5
370
    50
100
AcDbVertex
100
AcDb2dVertex
 10
45.689221
 20
50.370469
 30
0.0
  0
VERTEX
  5
202
330
1C8
100
AcDbEntity
  8
001
 62
     5
370
    50
100
AcDbVertex
100
AcDb2dVertex
 10
45.757735
 20
50.321817
 30
0.0
  0
VERTEX
  5
203
330
1C8
100
AcDbEntity
  8
001
 62
     5
370
    50
100
AcDbVertex
100
AcDb2dVertex
 10
45.828036
 20
50.27627
 30
0.0
  0
VERTEX
  5
204
330
1C8
100
AcDbEntity
  8
001
 62
     5
370
    50
100
AcDbVertex
100
AcDb2dVertex
 10
45.900227
 20
50.233792
 30
0.0
  0
VERTEX
  5
205
330
1C8
100
AcDbEntity
  8
001
 62
     5
370
    50
100
AcDbVertex
100
AcDb2dVertex
 10
45.973963
 20
50.194593
 30
0.0
  0
VERTEX
  5
206
330
1C8
100
AcDbEntity
  8
001
 62
     5
370
    50
100
AcDbVertex
100
AcDb2dVertex
 10
46.049299
 20
50.158528
 30
0.0
  0
VERTEX
  5
207
330
1C8
100
AcDbEntity
  8
001
 62
     5
370
    50
100
AcDbVertex
100
AcDb2dVertex
 10
46.12589
 20
50.125734
 30
0.0
  0
VERTEX
  5
208
330
1C8
100
AcDbEntity
  8
001
 62
     5
370
    50
100
AcDbVertex
100
AcDb2dVertex
 10
46.203893
 20
50.09655
 30
0.0
  0
VERTEX
  5
209
330
1C8
100
AcDbEntity
  8
001
 62
     5
370
    50
100
AcDbVertex
100
AcDb2dVertex
 10
46.253839
 20
50.080059
 30
0.0
  0
VERTEX
  5
20A
330
1C8
100
AcDbEntity
  8
001
 62
     5
370
    50
100
AcDbVertex
100
AcDb2dVertex
 10
46.304064
 20
50.064395
 30
0.0
  0
SEQEND
  5
1C9
330
1C8
100
AcDbEntity
  8
001
370
    50
  0
POLYLINE
  5
20B
330
1C5
100
AcDbEntity
  8
001
 62
     5
370
    50
100
AcDb2dPolyline
 66
     1
 10
0.0
 20
0.0
 30
0.0
  0
VERTEX
  5
20D
330
20B
100
AcDbEntity
  8
001
 62
     5
370
    50
100
AcDbVertex
100
AcDb2dVertex
 10
46.835825
 20
49.988491
 30
0.0
  0
VERTEX
  5
20E
330
20B
100
AcDbEntity
  8
001
 62
     5
370
    50
100
AcDbVertex
100
AcDb2dVertex
 10
46.975163
 20
49.994392
 30
0.0
  0
VERTEX
  5
20F
330
20B
100
AcDbEntity
  8
001
 62
     5
370
    50
100
AcDbVertex
100
AcDb2dVertex
 10
47.17685
 20
50.019636
 30
0.0
  0
VERTEX
  5
210
330
20B
100
AcDbEntity
  8
001
 62
     5
370
    50
100
AcDbVertex
100
AcDb2dVertex
 10
47.28328
 20
50.042614
 30
0.0
  0
VERTEX
  5
211
330
20B
100
AcDbEntity
  8
001
 62
     5
370
    50
100
AcDbVertex
100
AcDb2dVertex
 10
47.355426
 20
50.061545
 30
0.0
  0
SEQEND
  5
20C
330
20B
100
AcDbEntity
  8
001
370
    50
  0
POLYLINE
  5
212
330
1C5
100
AcDbEntity
  8
001
 62
     5
370
    50
100
AcDb2dPolyline
 66
     1
 10
0.0
 20
0.0
 30
0.0
  0
VERTEX
  5
214
330
212
100
AcDbEntity
  8
001
 62
     5
370
    50
100
AcDbVertex
100
AcDb2dVertex
 10
46.835825
 20
54.088491
 30
0.0
  0
VERTEX
  5
215
330
212
100
AcDbEntity
  8
001
 62
     5
370
    50
100
AcDbVertex
100
AcDb2dVertex
 10
46.696491
 20
54.082592
 30
0.0
  0
VERTEX
  5
216
330
212
100
AcDbEntity
  8
001
 62
     5
370
    50
100
AcDbVertex
100
AcDb2dVertex
 10
46.494799
 20
54.057347
 30
0.0
  0
VERTEX
  5
217
330
212
100
AcDbEntity
  8
001
 62
     5
370
    50
100
AcDbVertex
100
AcDb2dVertex
 10
46.397432
 20
54.036592
 30
0.0
  0
VERTEX
  5
218
330
212
100
AcDbEntity
  8
001
 62
     5
370
    50
100
AcDbVertex
100
AcDb2dVertex
 10
46.331367
 20
54.019707
 30
0.0
  0
SEQEND
  5
213
330
212
100
AcDbEntity
  8
001
370
    50
  0
POLYLINE
  5
219
330
1C5
100
AcDbEntity
  8
001
 62
     5
370
    50
100
AcDb2dPolyline
 66
     1
 10
0.0
 20
0.0
 30
0.0
  0
VERTEX
  5
21B
330
219
100
AcDbEntity
  8
001
 62
     5
370
    50
100
AcDbVertex
100
AcDb2dVertex
 10
46.154322
 20
50.847486
 30
0.0
  0
VERTEX
  5
21C
330
219
100
AcDbEntity
  8
001
 62
     5
370
    50
100
AcDbVertex
100
AcDb2dVertex
 10
46.173947
 20
50.848517
 30
0.0
  0
VERTEX
  5
21D
330
219
100
AcDbEntity
  8
001
 62
     5
370
    50
100
AcDbVertex
100
AcDb2dVertex
 10
46.200901
 20
50.85174
 30
0.0
  0
VERTEX
  5
21E
330
219
100
AcDbEntity
  8
001
 62
     5
370
    50
100
AcDbVertex
100
AcDb2dVertex
 10
46.224986
 20
50.857214
 30
0.0
  0
VERTEX
  5
21F
330
219
100
AcDbEntity
  8
001
 62
     5
370
    50
100
AcDbVertex
100
AcDb2dVertex
 10
46.246065
 20
50.864372
 30
0.0
  0
VERTEX
  5
220
330
219
100
AcDbEntity
  8
001
 62
     5
370
    50
100
AcDbVertex
100
AcDb2dVertex
 10
46.266617
 20
50.873046
 30
0.0
  0
VERTEX
  5
221
330
219
100
AcDbEntity
  8
001
 62
     5
370
    50
100
AcDbVertex
100
AcDb2dVertex
 10
46.288441
 20
50.884999
 30
0.0
  0
VERTEX
  5
222
330
219
100
AcDbEntity
  8
001
 62
     5
370
    50
100
AcDbVertex
100
AcDb2dVertex
 10
46.307198
 20
50.897641
 30
0.0
  0
VERTEX
  5
223
330
219
100
AcDbEntity
  8
001
 62
     5
370
    50
100
AcDbVertex
100
AcDb2dVertex
 10
46.3202
 20
50.907444
 30
0.0
  0
SEQEND
  5
21A
330
219
100
AcDbEntity
  8
001
370
    50
  0
POLYLINE
  5
224
330
1C5
100
AcDbEntity
  8
001
 62
     5
370
    50
100
AcDb2dPolyline
 66
     1
 10
0.0
 20
0.0
 30
0.0
  0
VERTEX
  5
226
330
224
100
AcDbEntity
  8
001
 62
     5
370
    50
100
AcDbVertex
100
AcDb2dVertex
 10
47.018723
 20
50.836326
 30
0.0
  0
VERTEX
  5
227
330
224
100
AcDbEntity
  8
001
 62
     5
370
    50
100
AcDbVertex
100
AcDb2dVertex
 10
46.966417
 20
50.888678
 30
0.0
  0
VERTEX
  5
228
330
224
100
AcDbEntity
  8
001
 62
     5
370
    50
100
AcDbVertex
100
AcDb2dVertex
 10
46.887541
 20
50.949891
 30
0.0
  0
VERTEX
  5
229
330
224
100
AcDbEntity
  8
001
 62
     5
370
    50
100
AcDbVertex
100
AcDb2dVertex
 10
46.846947
 20
50.972228
 30
0.0
  0
VERTEX
  5
22A
330
224
100
AcDbEntity
  8
001
 62
     5
370
    50
100
AcDbVertex
100
AcDb2dVertex
 10
46.807401
 20
50.988899
 30
0.0
  0
VERTEX
  5
22B
330
224
100
AcDbEntity
  8
001
 62
     5
370
    50
100
AcDbVertex
100
AcDb2dVertex
 10
46.76736
 20
51.002506
 30
0.0
  0
VERTEX
  5
22C
330
224
100
AcDbEntity
  8
001
 62
     5
370
    50
100
AcDbVertex
100
AcDb2dVertex
 10
46.721989
 20
51.012789
 30
0.0
  0
VERTEX
  5
22D
330
224
100
AcDbEntity
  8
001
 62
     5
370
    50
100
AcDbVertex
100
AcDb2dVertex
 10
46.671051
 20
51.018869
 30
0.0
  0
VERTEX
  5
22E
330
224
100
AcDbEntity
  8
001
 62
     5
370
    50
100
AcDbVertex
100
AcDb2dVertex
 10
46.633901
 20
51.020833
 30
0.0
  0
SEQEND
  5
225
330
224
100
AcDbEntity
  8
001
370
    50
  0
POLYLINE
  5
22F
330
1C5
100
AcDbEntity
  8
001
 62
     5
370
    50
100
AcDb2dPolyline
 66
     1
 10
0.0
 20
0.0
 30
0.0
  0
VERTEX
  5
231
330
22F
100
AcDbEntity
  8
001
 62
     5
370
    50
100
AcDbVertex
100
AcDb2dVertex
 10
47.222208
 20
50.738762
 30
0.0
  0
VERTEX
  5
232
330
22F
100
AcDbEntity
  8
001
 62
     5
370
    50
100
AcDbVertex
100
AcDb2dVertex
 10
47.241874
 20
50.739829
 30
0.0
  0
VERTEX
  5
233
330
22F
100
AcDbEntity
  8
001
 62
     5
370
    50
100
AcDbVertex
100
AcDb2dVertex
 10
47.268787
 20
50.743016
 30
0.0
  0
VERTEX
  5
234
330
22F
100
AcDbEntity
  8
001
 62
     5
370
    50
100
AcDbVertex
100
AcDb2dVertex
 10
47.292667
 20
50.748311
 30
0.0
  0
VERTEX
  5
235
330
22F
100
AcDbEntity
  8
001
 62
     5
370
    50
100
AcDbVertex
100
AcDb2dVertex
 10
47.313951
 20
50.755648
 30
0.0
  0
VERTEX
  5
236
330
22F
100
AcDbEntity
  8
001
 62
     5
370
    50
100
AcDbVertex
100
AcDb2dVertex
 10
47.335285
 20
50.765007
 30
0.0
  0
VERTEX
  5
237
330
22F
100
AcDbEntity
  8
001
 62
     5
370
    50
100
AcDbVertex
100
AcDb2dVertex
 10
47.356327
 20
50.776275
 30
0.0
  0
VERTEX
  5
238
330
22F
100
AcDbEntity
  8
001
 62
     5
370
    50
100
AcDbVertex
100
AcDb2dVertex
 10
47.412302
 20
50.820767
 30
0.0
  0
VERTEX
  5
239
330
22F
100
AcDbEntity
  8
001
 62
     5
370
    50
100
AcDbVertex
100
AcDb2dVertex
 10
47.454509
 20
50.878762
 30
0.0
  0
VERTEX
  5
23A
330
22F
100
AcDbEntity
  8
001
 62
     5
370
    50
100
AcDbVertex
100
AcDb2dVertex
 10
47.474204
 20
50.923991
 30
0.0
  0
VERTEX
  5
23B
330
22F
100
AcDbEntity
  8
001
 62
     5
370
    50
100
AcDbVertex
100
AcDb2dVertex
 10
47.486371
 20
50.970141
 30
0.0
  0
VERTEX
  5
23C
330
22F
100
AcDbEntity
  8
001
 62
     5
370
    50
100
AcDbVertex
100
AcDb2dVertex
 10
47.489596
 20
50.993155
 30
0.0
  0
VERTEX
  5
23D
330
22F
100
AcDbEntity
  8
001
 62
     5
370
    50
100
AcDbVertex
100
AcDb2dVertex
 10
47.490446
 20
51.018762
 30
0.0
  0
VERTEX
  5
23E
330
22F
100
AcDbEntity
  8
001
 62
     5
370
    50
100
AcDbVertex
100
AcDb2dVertex
 10
47.489315
 20
51.041998
 30
0.0
  0
VERTEX
  5
23F
330
22F
100
AcDbEntity
  8
001
 62
     5
370
    50
100
AcDbVertex
100
AcDb2dVertex
 10
47.487704
 20
51.058695
 30
0.0
  0
SEQEND
  5
230
330
22F
100
AcDbEntity
  8
001
370
    50
  0
POLYLINE
  5
240
330
1C5
100
AcDbEntity
  8
001
 62
     5
370
    50
100
AcDb2dPolyline
 66
     1
 10
0.0
 20
0.0
 30
0.0
  0
VERTEX
  5
242
330
240
100
AcDbEntity
  8
001
 62
     5
370
    50
100
AcDbVertex
100
AcDb2dVertex
 10
47.895968
 20
51.654599
 30
0.0
  0
VERTEX
  5
243
330
240
100
AcDbEntity
  8
001
 62
     5
370
    50
100
AcDbVertex
100
AcDb2dVertex
 10
47.862198
 20
51.64617
 30
0.0
  0
VERTEX
  5
244
330
240
100
AcDbEntity
  8
001
 62
     5
370
    50
100
AcDbVertex
100
AcDb2dVertex
 10
47.816299
 20
51.631802
 30
0.0
  0
VERTEX
  5
245
330
240
100
AcDbEntity
  8
001
 62
     5
370
    50
100
AcDbVertex
100
AcDb2dVertex
 10
47.773207
 20
51.613677
 30
0.0
  0
VERTEX
  5
246
330
240
100
AcDbEntity
  8
001
 62
     5
370
    50
100
AcDbVertex
100
AcDb2dVertex
 10
47.736159
 20
51.592794
 30
0.0
  0
VERTEX
  5
247
330
240
100
AcDbEntity
  8
001
 62
     5
370
    50
100
AcDbVertex
100
AcDb2dVertex
 10
47.633095
 20
51.509087
 30
0.0
  0
VERTEX
  5
248
330
240
100
AcDbEntity
  8
001
 62
     5
370
    50
100
AcDbVertex
100
AcDb2dVertex
 10
47.550481
 20
51.398975
 30
0.0
  0
VERTEX
  5
249
330
240
100
AcDbEntity
  8
001
 62
     5
370
    50
100
AcDbVertex
100
AcDb2dVertex
 10
47.512838
 20
51.313378
 30
0.0
  0
VERTEX
  5
24A
330
240
100
AcDbEntity
  8
001
 62
     5
370
    50
100
AcDbVertex
100
AcDb2dVertex
 10
47.490226
 20
51.226164
 30
0.0
  0
VERTEX
  5
24B
330
240
100
AcDbEntity
  8
001
 62
     5
370
    50
100
AcDbVertex
100
AcDb2dVertex
 10
47.484164
 20
51.182647
 30
0.0
  0
VERTEX
  5
24C
330
240
100
AcDbEntity
  8
001
 62
     5
370
    50
100
AcDbVertex
100
AcDb2dVertex
 10
47.482519
 20
51.134213
 30
0.0
  0
VERTEX
  5
24D
330
240
100
AcDbEntity
  8
001
 62
     5
370
    50
100
AcDbVertex
100
AcDb2dVertex
 10
47.484653
 20
51.090271
 30
0.0
  0
VERTEX
  5
24E
330
240
100
AcDbEntity
  8
001
 62
     5
370
    50
100
AcDbVertex
100
AcDb2dVertex
 10
47.487704
 20
51.058695
 30
0.0
  0
SEQEND
  5
241
330
240
100
AcDbEntity
  8
001
370
    50
  0
POLYLINE
  5
24F
330
1C5
100
AcDbEntity
  8
001
 62
     5
370
    50
100
AcDb2dPolyline
 66
     1
 10
0.0
 20
0.0
 30
0.0
  0
VERTEX
  5
251
330
24F
100
AcDbEntity
  8
001
 62
     5
370
    50
100
AcDbVertex
100
AcDb2dVertex
 10
47.895968
 20
51.654599
 30
0.0
  0
VERTEX
  5
252
330
24F
100
AcDbEntity
  8
001
 62
     5
370
    50
100
AcDbVertex
100
AcDb2dVertex
 10
47.913825
 20
51.659059
 30
0.0
  0
VERTEX
  5
253
330
24F
100
AcDbEntity
  8
001
 62
     5
370
    50
100
AcDbVertex
100
AcDb2dVertex
 10
47.938096
 20
51.666654
 30
0.0
  0
VERTEX
  5
254
330
24F
100
AcDbEntity
  8
001
 62
     5
370
    50
100
AcDbVertex
100
AcDb2dVertex
 10
47.960884
 20
51.676222
 30
0.0
  0
VERTEX
  5
255
330
24F
100
AcDbEntity
  8
001
 62
     5
370
    50
100
AcDbVertex
100
AcDb2dVertex
 10
47.980472
 20
51.687281
 30
0.0
  0
VERTEX
  5
256
330
24F
100
AcDbEntity
  8
001
 62
     5
370
    50
100
AcDbVertex
100
AcDb2dVertex
 10
48.034922
 20
51.731864
 30
0.0
  0
VERTEX
  5
257
330
24F
100
AcDbEntity
  8
001
 62
     5
370
    50
100
AcDbVertex
100
AcDb2dVertex
 10
48.078654
 20
51.789768
 30
0.0
  0
VERTEX
  5
258
330
24F
100
AcDbEntity
  8
001
 62
     5
370
    50
100
AcDbVertex
100
AcDb2dVertex
 10
48.098684
 20
51.834206
 30
0.0
  0
VERTEX
  5
259
330
24F
100
AcDbEntity
  8
001
 62
     5
370
    50
100
AcDbVertex
100
AcDb2dVertex
 10
48.110516
 20
51.881146
 30
0.0
  0
VERTEX
  5
25A
330
24F
100
AcDbEntity
  8
001
 62
     5
370
    50
100
AcDbVertex
100
AcDb2dVertex
 10
48.113537
 20
51.905382
 30
0.0
  0
VERTEX
  5
25B
330
24F
100
AcDbEntity
  8
001
 62
     5
370
    50
100
AcDbVertex
100
AcDb2dVertex
 10
48.114591
 20
51.929768
 30
0.0
  0
VERTEX
  5
25C
330
24F
100
AcDbEntity
  8
001
 62
     5
370
    50
100
AcDbVertex
100
AcDb2dVertex
 10
48.113632
 20
51.954134
 30
0.0
  0
VERTEX
  5
25D
330
24F
100
AcDbEntity
  8
001
 62
     5
370
    50
100
AcDbVertex
100
AcDb2dVertex
 10
48.110516
 20
51.978389
 30
0.0
  0
VERTEX
  5
25E
330
24F
100
AcDbEntity
  8
001
 62
     5
370
    50
100
AcDbVertex
100
AcDb2dVertex
 10
48.097934
 20
52.025593
 30
0.0
  0
VERTEX
  5
25F
330
24F
100
AcDbEntity
  8
001
 62
     5
370
    50
100
AcDbVertex
100
AcDb2dVertex
 10
48.078654
 20
52.069768
 30
0.0
  0
VERTEX
  5
260
330
24F
100
AcDbEntity
  8
001
 62
     5
370
    50
100
AcDbVertex
100
AcDb2dVertex
 10
48.040086
 20
52.125788
 30
0.0
  0
VERTEX
  5
261
330
24F
100
AcDbEntity
  8
001
 62
     5
370
    50
100
AcDbVertex
100
AcDb2dVertex
 10
47.980472
 20
52.172255
 30
0.0
  0
VERTEX
  5
262
330
24F
100
AcDbEntity
  8
001
 62
     5
370
    50
100
AcDbVertex
100
AcDb2dVertex
 10
47.960405
 20
52.182951
 30
0.0
  0
VERTEX
  5
263
330
24F
100
AcDbEntity
  8
001
 62
     5
370
    50
100
AcDbVertex
100
AcDb2dVertex
 10
47.945971
 20
52.189742
 30
0.0
  0
SEQEND
  5
250
330
24F
100
AcDbEntity
  8
001
370
    50
  0
POLYLINE
  5
264
330
1C5
100
AcDbEntity
  8
001
 62
     5
370
    50
100
AcDb2dPolyline
 66
     1
 10
0.0
 20
0.0
 30
0.0
  0
VERTEX
  5
266
330
264
100
AcDbEntity
  8
001
 62
     5
370
    50
100
AcDbVertex
100
AcDb2dVertex
 10
47.655713
 20
52.856765
 30
0.0
  0
VERTEX
  5
267
330
264
100
AcDbEntity
  8
001
 62
     5
370
    50
100
AcDbVertex
100
AcDb2dVertex
 10
47.645802
 20
52.821989
 30
0.0
  0
VERTEX
  5
268
330
264
100
AcDbEntity
  8
001
 62
     5
370
    50
100
AcDbVertex
100
AcDb2dVertex
 10
47.634792
 20
52.773345
 30
0.0
  0
VERTEX
  5
269
330
264
100
AcDbEntity
  8
001
 62
     5
370
    50
100
AcDbVertex
100
AcDb2dVertex
 10
47.628392
 20
52.725584
 30
0.0
  0
VERTEX
  5
26A
330
264
100
AcDbEntity
  8
001
 62
     5
370
    50
100
AcDbVertex
100
AcDb2dVertex
 10
47.627085
 20
52.681394
 30
0.0
  0
VERTEX
  5
26B
330
264
100
AcDbEntity
  8
001
 62
     5
370
    50
100
AcDbVertex
100
AcDb2dVertex
 10
47.6291
 20
52.635874
 30
0.0
  0
VERTEX
  5
26C
330
264
100
AcDbEntity
  8
001
 62
     5
370
    50
100
AcDbVertex
100
AcDb2dVertex
 10
47.634792
 20
52.589444
 30
0.0
  0
VERTEX
  5
26D
330
264
100
AcDbEntity
  8
001
 62
     5
370
    50
100
AcDbVertex
100
AcDb2dVertex
 10
47.658453
 20
52.499799
 30
0.0
  0
VERTEX
  5
26E
330
264
100
AcDbEntity
  8
001
 62
     5
370
    50
100
AcDbVertex
100
AcDb2dVertex
 10
47.695047
 20
52.416633
 30
0.0
  0
VERTEX
  5
26F
330
264
100
AcDbEntity
  8
001
 62
     5
370
    50
100
AcDbVertex
100
AcDb2dVertex
 10
47.768037
 20
52.310832
 30
0.0
  0
VERTEX
  5
270
330
264
100
AcDbEntity
  8
001
 62
     5
370
    50
100
AcDbVertex
100
AcDb2dVertex
 10
47.880725
 20
52.222814
 30
0.0
  0
VERTEX
  5
271
330
264
100
AcDbEntity
  8
001
 62
     5
370
    50
100
AcDbVertex
100
AcDb2dVertex
 10
47.918674
 20
52.202582
 30
0.0
  0
VERTEX
  5
272
330
264
100
AcDbEntity
  8
001
 62
     5
370
    50
100
AcDbVertex
100
AcDb2dVertex
 10
47.945971
 20
52.189742
 30
0.0
  0
SEQEND
  5
265
330
264
100
AcDbEntity
  8
001
370
    50
  0
POLYLINE
  5
273
330
1C5
100
AcDbEntity
  8
001
 62
     5
370
    50
100
AcDb2dPolyline
 66
     1
 10
0.0
 20
0.0
 30
0.0
  0
VERTEX
  5
275
330
273
100
AcDbEntity
  8
001
 62
     5
370
    50
100
AcDbVertex
100
AcDb2dVertex
 10
47.402612
 20
53.229497
 30
0.0
  0
VERTEX
  5
276
330
273
100
AcDbEntity
  8
001
 62
     5
370
    50
100
AcDbVertex
100
AcDb2dVertex
 10
47.382987
 20
53.228466
 30
0.0
  0
VERTEX
  5
277
330
273
100
AcDbEntity
  8
001
 62
     5
370
    50
100
AcDbVertex
100
AcDb2dVertex
 10
47.356033
 20
53.225243
 30
0.0
  0
VERTEX
  5
278
330
273
100
AcDbEntity
  8
001
 62
     5
370
    50
100
AcDbVertex
100
AcDb2dVertex
 10
47.331949
 20
53.219769
 30
0.0
  0
VERTEX
  5
279
330
273
100
AcDbEntity
  8
001
 62
     5
370
    50
100
AcDbVertex
100
AcDb2dVertex
 10
47.31087
 20
53.212611
 30
0.0
  0
VERTEX
  5
27A
330
273
100
AcDbEntity
  8
001
 62
     5
370
    50
100
AcDbVertex
100
AcDb2dVertex
 10
47.290317
 20
53.203937
 30
0.0
  0
VERTEX
  5
27B
330
273
100
AcDbEntity
  8
001
 62
     5
370
    50
100
AcDbVertex
100
AcDb2dVertex
 10
47.268493
 20
53.191984
 30
0.0
  0
VERTEX
  5
27C
330
273
100
AcDbEntity
  8
001
 62
     5
370
    50
100
AcDbVertex
100
AcDb2dVertex
 10
47.249736
 20
53.179342
 30
0.0
  0
VERTEX
  5
27D
330
273
100
AcDbEntity
  8
001
 62
     5
370
    50
100
AcDbVertex
100
AcDb2dVertex
 10
47.236734
 20
53.169539
 30
0.0
  0
SEQEND
  5
274
330
273
100
AcDbEntity
  8
001
370
    50
  0
POLYLINE
  5
27E
330
1C5
100
AcDbEntity
  8
001
 62
     5
370
    50
100
AcDb2dPolyline
 66
     1
 10
0.0
 20
0.0
 30
0.0
  0
VERTEX
  5
280
330
27E
100
AcDbEntity
  8
001
 62
     5
370
    50
100
AcDbVertex
100
AcDb2dVertex
 10
46.538212
 20
53.240657
 30
0.0
  0
VERTEX
  5
281
330
27E
100
AcDbEntity
  8
001
 62
     5
370
    50
100
AcDbVertex
100
AcDb2dVertex
 10
46.590517
 20
53.188305
 30
0.0
  0
VERTEX
  5
282
330
27E
100
AcDbEntity
  8
001
 62
     5
370
    50
100
AcDbVertex
100
AcDb2dVertex
 10
46.669393
 20
53.127092
 30
0.0
  0
VERTEX
  5
283
330
27E
100
AcDbEntity
  8
001
 62
     5
370
    50
100
AcDbVertex
100
AcDb2dVertex
 10
46.709987
 20
53.104755
 30
0.0
  0
VERTEX
  5
284
330
27E
100
AcDbEntity
  8
001
 62
     5
370
    50
100
AcDbVertex
100
AcDb2dVertex
 10
46.749533
 20
53.088084
 30
0.0
  0
VERTEX
  5
285
330
27E
100
AcDbEntity
  8
001
 62
     5
370
    50
100
AcDbVertex
100
AcDb2dVertex
 10
46.789575
 20
53.074477
 30
0.0
  0
VERTEX
  5
286
330
27E
100
AcDbEntity
  8
001
 62
     5
370
    50
100
AcDbVertex
100
AcDb2dVertex
 10
46.834945
 20
53.064194
 30
0.0
  0
VERTEX
  5
287
330
27E
100
AcDbEntity
  8
001
 62
     5
370
    50
100
AcDbVertex
100
AcDb2dVertex
 10
46.885884
 20
53.058114
 30
0.0
  0
VERTEX
  5
288
330
27E
100
AcDbEntity
  8
001
 62
     5
370
    50
100
AcDbVertex
100
AcDb2dVertex
 10
46.923033
 20
53.05615
 30
0.0
  0
SEQEND
  5
27F
330
27E
100
AcDbEntity
  8
001
370
    50
  0
POLYLINE
  5
289
330
1C5
100
AcDbEntity
  8
001
 62
     5
370
    50
100
AcDb2dPolyline
 66
     1
 10
0.0
 20
0.0
 30
0.0
  0
VERTEX
  5
28B
330
289
100
AcDbEntity
  8
001
 62
     5
370
    50
100
AcDbVertex
100
AcDb2dVertex
 10
46.334727
 20
53.338221
 30
0.0
  0
VERTEX
  5
28C
330
289
100
AcDbEntity
  8
001
 62
     5
370
    50
100
AcDbVertex
100
AcDb2dVertex
 10
46.315061
 20
53.337154
 30
0.0
  0
VERTEX
  5
28D
330
289
100
AcDbEntity
  8
001
 62
     5
370
    50
100
AcDbVertex
100
AcDb2dVertex
 10
46.288148
 20
53.333967
 30
0.0
  0
VERTEX
  5
28E
330
289
100
AcDbEntity
  8
001
 62
     5
370
    50
100
AcDbVertex
100
AcDb2dVertex
 10
46.264267
 20
53.328672
 30
0.0
  0
VERTEX
  5
28F
330
289
100
AcDbEntity
  8
001
 62
     5
370
    50
100
AcDbVertex
100
AcDb2dVertex
 10
46.242984
 20
53.321335
 30
0.0
  0
VERTEX
  5
290
330
289
100
AcDbEntity
  8
001
 62
     5
370
    50
100
AcDbVertex
100
AcDb2dVertex
 10
46.22165
 20
53.311976
 30
0.0
  0
VERTEX
  5
291
330
289
100
AcDbEntity
  8
001
 62
     5
370
    50
100
AcDbVertex
100
AcDb2dVertex
 10
46.200608
 20
53.300708
 30
0.0
  0
VERTEX
  5
292
330
289
100
AcDbEntity
  8
001
 62
     5
370
    50
100
AcDbVertex
100
AcDb2dVertex
 10
46.144633
 20
53.256216
 30
0.0
  0
VERTEX
  5
293
330
289
100
AcDbEntity
  8
001
 62
     5
370
    50
100
AcDbVertex
100
AcDb2dVertex
 10
46.102426
 20
53.198221
 30
0.0
  0
VERTEX
  5
294
330
289
100
AcDbEntity
  8
001
 62
     5
370
    50
100
AcDbVertex
100
AcDb2dVertex
 10
46.08273
 20
53.152992
 30
0.0
  0
VERTEX
  5
295
330
289
100
AcDbEntity
  8
001
 62
     5
370
    50
100
AcDbVertex
100
AcDb2dVertex
 10
46.070564
 20
53.106842
 30
0.0
  0
VERTEX
  5
296
330
289
100
AcDbEntity
  8
001
 62
     5
370
    50
100
AcDbVertex
100
AcDb2dVertex
 10
46.067338
 20
53.083828
 30
0.0
  0
VERTEX
  5
297
330
289
100
AcDbEntity
  8
001
 62
     5
370
    50
100
AcDbVertex
100
AcDb2dVertex
 10
46.066488
 20
53.058221
 30
0.0
  0
VERTEX
  5
298
330
289
100
AcDbEntity
  8
001
 62
     5
370
    50
100
AcDbVertex
100
AcDb2dVertex
 10
46.06762
 20
53.034985
 30
0.0
  0
VERTEX
  5
299
330
289
100
AcDbEntity
  8
001
 62
     5
370
    50
100
AcDbVertex
100
AcDb2dVertex
 10
46.06923
 20
53.018288
 30
0.0
  0
SEQEND
  5
28A
330
289
100
AcDbEntity
  8
001
370
    50
  0
POLYLINE
  5
29A
330
1C5
100
AcDbEntity
  8
001
 62
     5
370
    50
100
AcDb2dPolyline
 66
     1
 10
0.0
 20
0.0
 30
0.0
  0
VERTEX
  5
29C
330
29A
100
AcDbEntity
  8
001
 62
     5
370
    50
100
AcDbVertex
100
AcDb2dVertex
 10
45.660966
 20
52.422384
 30
0.0
  0
VERTEX
  5
29D
330
29A
100
AcDbEntity
  8
001
 62
     5
370
    50
100
AcDbVertex
100
AcDb2dVertex
 10
45.694736
 20
52.430813
 30
0.0
  0
VERTEX
  5
29E
330
29A
100
AcDbEntity
  8
001
 62
     5
370
    50
100
AcDbVertex
100
AcDb2dVertex
 10
45.740636
 20
52.445181
 30
0.0
  0
VERTEX
  5
29F
330
29A
100
AcDbEntity
  8
001
 62
     5
370
    50
100
AcDbVertex
100
AcDb2dVertex
 10
45.783727
 20
52.463306
 30
0.0
  0
VERTEX
  5
2A0
330
29A
100
AcDbEntity
  8
001
 62
     5
370
    50
100
AcDbVertex
100
AcDb2dVertex
 10
45.820776
 20
52.484189
 30
0.0
  0
VERTEX
  5
2A1
330
29A
100
AcDbEntity
  8
001
 62
     5
370
    50
100
AcDbVertex
100
AcDb2dVertex
 10
45.92384
 20
52.567896
 30
0.0
  0
VERTEX
  5
2A2
330
29A
100
AcDbEntity
  8
001
 62
     5
370
    50
100
AcDbVertex
100
AcDb2dVertex
 10
46.006453
 20
52.678008
 30
0.0
  0
VERTEX
  5
2A3
330
29A
100
AcDbEntity
  8
001
 62
     5
370
    50
100
AcDbVertex
100
AcDb2dVertex
 10
46.044097
 20
52.763605
 30
0.0
  0
VERTEX
  5
2A4
330
29A
100
AcDbEntity
  8
001
 62
     5
370
    50
100
AcDbVertex
100
AcDb2dVertex
 10
46.066709
 20
52.850819
 30
0.0
  0
VERTEX
  5
2A5
330
29A
100
AcDbEntity
  8
001
 62
     5
370
    50
100
AcDbVertex
100
AcDb2dVertex
 10
46.072771
 20
52.894336
 30
0.0
  0
VERTEX
  5
2A6
330
29A
100
AcDbEntity
  8
001
 62
     5
370
    50
100
AcDbVertex
100
AcDb2dVertex
 10
46.074416
 20
52.942769
 30
0.0
  0
VERTEX
  5
2A7
330
29A
100
AcDbEntity
  8
001
 62
     5
370
    50
100
AcDbVertex
100
AcDb2dVertex
 10
46.072282
 20
52.986712
 30
0.0
  0
VERTEX
  5
2A8
330
29A
100
AcDbEntity
  8
001
 62
     5
370
    50
100
AcDbVertex
100
AcDb2dVertex
 10
46.06923
 20
53.018288
 30
0.0
  0
SEQEND
  5
29B
330
29A
100
AcDbEntity
  8
001
370
    50
  0
POLYLINE
  5
2A9
330
1C5
100
AcDbEntity
  8
001
 62
     5
370
    50
100
AcDb2dPolyline
 66
     1
 10
0.0
 20
0.0
 30
0.0
  0
VERTEX
  5
2AB
330
2A9
100
AcDbEntity
  8
001
 62
     5
370
    50
100
AcDbVertex
100
AcDb2dVertex
 10
45.660966
 20
52.422384
 30
0.0
  0
VERTEX
  5
2AC
330
2A9
100
AcDbEntity
  8
001
 62
     5
370
    50
100
AcDbVertex
100
AcDb2dVertex
 10
45.64311
 20
52.417924
 30
0.0
  0
VERTEX
  5
2AD
330
2A9
100
AcDbEntity
  8
001
 62
     5
370
    50
100
AcDbVertex
100
AcDb2dVertex
 10
45.618839
 20
52.410329
 30
0.0
  0
VERTEX
  5
2AE
330
2A9
100
AcDbEntity
  8
001
 62
     5
370
    50
100
AcDbVertex
100
AcDb2dVertex
 10
45.59605
 20
52.400761
 30
0.0
  0
VERTEX
  5
2AF
330
2A9
100
AcDbEntity
  8
001
 62
     5
370
    50
100
AcDbVertex
100
AcDb2dVertex
 10
45.576462
 20
52.389702
 30
0.0
  0
VERTEX
  5
2B0
330
2A9
100
AcDbEntity
  8
001
 62
     5
370
    50
100
AcDbVertex
100
AcDb2dVertex
 10
45.522013
 20
52.345119
 30
0.0
  0
VERTEX
  5
2B1
330
2A9
100
AcDbEntity
  8
001
 62
     5
370
    50
100
AcDbVertex
100
AcDb2dVertex
 10
45.47828
 20
52.287215
 30
0.0
  0
VERTEX
  5
2B2
330
2A9
100
AcDbEntity
  8
001
 62
     5
370
    50
100
AcDbVertex
100
AcDb2dVertex
 10
45.458251
 20
52.242777
 30
0.0
  0
VERTEX
  5
2B3
330
2A9
100
AcDbEntity
  8
001
 62
     5
370
    50
100
AcDbVertex
100
AcDb2dVertex
 10
45.446418
 20
52.195837
 30
0.0
  0
VERTEX
  5
2B4
330
2A9
100
AcDbEntity
  8
001
 62
     5
370
    50
100
AcDbVertex
100
AcDb2dVertex
 10
45.443398
 20
52.1716
 30
0.0
  0
VERTEX
  5
2B5
330
2A9
100
AcDbEntity
  8
001
 62
     5
370
    50
100
AcDbVertex
100
AcDb2dVertex
 10
45.442343
 20
52.147215
 30
0.0
  0
VERTEX
  5
2B6
330
2A9
100
AcDbEntity
  8
001
 62
     5
370
    50
100
AcDbVertex
100
AcDb2dVertex
 10
45.443303
 20
52.122849
 30
0.0
  0
VERTEX
  5
2B7
330
2A9
100
AcDbEntity
  8
001
 62
     5
370
    50
100
AcDbVertex
100
AcDb2dVertex
 10
45.446418
 20
52.098594
 30
0.0
  0
VERTEX
  5
2B8
330
2A9
100
AcDbEntity
  8
001
 62
     5
370
    50
100
AcDbVertex
100
AcDb2dVertex
 10
45.459001
 20
52.05139
 30
0.0
  0
VERTEX
  5
2B9
330
2A9
100
AcDbEntity
  8
001
 62
     5
370
    50
100
AcDbVertex
100
AcDb2dVertex
 10
45.47828
 20
52.007215
 30
0.0
  0
VERTEX
  5
2BA
330
2A9
100
AcDbEntity
  8
001
 62
     5
370
    50
100
AcDbVertex
100
AcDb2dVertex
 10
45.516849
 20
51.951195
 30
0.0
  0
VERTEX
  5
2BB
330
2A9
100
AcDbEntity
  8
001
 62
     5
370
    50
100
AcDbVertex
100
AcDb2dVertex
 10
45.576462
 20
51.904728
 30
0.0
  0
VERTEX
  5
2BC
330
2A9
100
AcDbEntity
  8
001
 62
     5
370
    50
100
AcDbVertex
100
AcDb2dVertex
 10
45.59653
 20
51.894032
 30
0.0
  0
VERTEX
  5
2BD
330
2A9
100
AcDbEntity
  8
001
 62
     5
370
    50
100
AcDbVertex
100
AcDb2dVertex
 10
45.610963
 20
51.88724
 30
0.0
  0
SEQEND
  5
2AA
330
2A9
100
AcDbEntity
  8
001
370
    50
  0
POLYLINE
  5
2BE
330
1C5
100
AcDbEntity
  8
001
 62
     5
370
    50
100
AcDb2dPolyline
 66
     1
 10
0.0
 20
0.0
 30
0.0
  0
VERTEX
  5
2C0
330
2BE
100
AcDbEntity
  8
001
 62
     5
370
    50
100
AcDbVertex
100
AcDb2dVertex
 10
45.901222
 20
51.220218
 30
0.0
  0
VERTEX
  5
2C1
330
2BE
100
AcDbEntity
  8
001
 62
     5
370
    50
100
AcDbVertex
100
AcDb2dVertex
 10
45.911132
 20
51.254994
 30
0.0
  0
VERTEX
  5
2C2
330
2BE
100
AcDbEntity
  8
001
 62
     5
370
    50
100
AcDbVertex
100
AcDb2dVertex
 10
45.922143
 20
51.303638
 30
0.0
  0
VERTEX
  5
2C3
330
2BE
100
AcDbEntity
  8
001
 62
     5
370
    50
100
AcDbVertex
100
AcDb2dVertex
 10
45.928543
 20
51.351399
 30
0.0
  0
VERTEX
  5
2C4
330
2BE
100
AcDbEntity
  8
001
 62
     5
370
    50
100
AcDbVertex
100
AcDb2dVertex
 10
45.92985
 20
51.395588
 30
0.0
  0
VERTEX
  5
2C5
330
2BE
100
AcDbEntity
  8
001
 62
     5
370
    50
100
AcDbVertex
100
AcDb2dVertex
 10
45.927835
 20
51.441109
 30
0.0
  0
VERTEX
  5
2C6
330
2BE
100
AcDbEntity
  8
001
 62
     5
370
    50
100
AcDbVertex
100
AcDb2dVertex
 10
45.922143
 20
51.487539
 30
0.0
  0
VERTEX
  5
2C7
330
2BE
100
AcDbEntity
  8
001
 62
     5
370
    50
100
AcDbVertex
100
AcDb2dVertex
 10
45.898482
 20
51.577184
 30
0.0
  0
VERTEX
  5
2C8
330
2BE
100
AcDbEntity
  8
001
 62
     5
370
    50
100
AcDbVertex
100
AcDb2dVertex
 10
45.861887
 20
51.66035
 30
0.0
  0
VERTEX
  5
2C9
330
2BE
100
AcDbEntity
  8
001
 62
     5
370
    50
100
AcDbVertex
100
AcDb2dVertex
 10
45.788898
 20
51.766151
 30
0.0
  0
VERTEX
  5
2CA
330
2BE
100
AcDbEntity
  8
001
 62
     5
370
    50
100
AcDbVertex
100
AcDb2dVertex
 10
45.67621
 20
51.854169
 30
0.0
  0
VERTEX
  5
2CB
330
2BE
100
AcDbEntity
  8
001
 62
     5
370
    50
100
AcDbVertex
100
AcDb2dVertex
 10
45.63826
 20
51.874401
 30
0.0
  0
VERTEX
  5
2CC
330
2BE
100
AcDbEntity
  8
001
 62
     5
370
    50
100
AcDbVertex
100
AcDb2dVertex
 10
45.610963
 20
51.88724
 30
0.0
  0
SEQEND
  5
2BF
330
2BE
100
AcDbEntity
  8
001
370
    50
  0
POLYLINE
  5
2CD
330
1C5
100
AcDbEntity
  8
001
 62
     5
370
    50
100
AcDb2dPolyline
 66
     1
 10
0.0
 20
0.0
 30
0.0
  0
VERTEX
  5
2CF
330
2CD
100
AcDbEntity
  8
001
 62
     5
370
    50
100
AcDbVertex
100
AcDb2dVertex
 10
46.921862
 20
49.988491
 30
0.0
  0
VERTEX
  5
2D0
330
2CD
100
AcDbEntity
  8
001
 62
     5
370
    50
100
AcDbVertex
100
AcDb2dVertex
 10
47.065846
 20
49.996296
 30
0.0
  0
VERTEX
  5
2D1
330
2CD
100
AcDbEntity
  8
001
 62
     5
370
    50
100
AcDbVertex
100
AcDb2dVertex
 10
47.262887
 20
50.019636
 30
0.0
  0
VERTEX
  5
2D2
330
2CD
100
AcDbEntity
  8
001
 62
     5
370
    50
100
AcDbVertex
100
AcDb2dVertex
 10
47.43772
 20
50.058435
 30
0.0
  0
VERTEX
  5
2D3
330
2CD
100
AcDbEntity
  8
001
 62
     5
370
    50
100
AcDbVertex
100
AcDb2dVertex
 10
47.593551
 20
50.112122
 30
0.0
  0
VERTEX
  5
2D4
330
2CD
100
AcDbEntity
  8
001
 62
     5
370
    50
100
AcDbVertex
100
AcDb2dVertex
 10
47.749764
 20
50.180522
 30
0.0
  0
VERTEX
  5
2D5
330
2CD
100
AcDbEntity
  8
001
 62
     5
370
    50
100
AcDbVertex
100
AcDb2dVertex
 10
47.903805
 20
50.263139
 30
0.0
  0
VERTEX
  5
2D6
330
2CD
100
AcDbEntity
  8
001
 62
     5
370
    50
100
AcDbVertex
100
AcDb2dVertex
 10
48.313297
 20
50.591226
 30
0.0
  0
VERTEX
  5
2D7
330
2CD
100
AcDbEntity
  8
001
 62
     5
370
    50
100
AcDbVertex
100
AcDb2dVertex
 10
48.622638
 20
51.013491
 30
0.0
  0
VERTEX
  5
2D8
330
2CD
100
AcDbEntity
  8
001
 62
     5
370
    50
100
AcDbVertex
100
AcDb2dVertex
 10
48.767666
 20
51.338637
 30
0.0
  0
VERTEX
  5
2D9
330
2CD
100
AcDbEntity
  8
001
 62
     5
370
    50
100
AcDbVertex
100
AcDb2dVertex
 10
48.855913
 20
51.682513
 30
0.0
  0
VERTEX
  5
2DA
330
2CD
100
AcDbEntity
  8
001
 62
     5
370
    50
100
AcDbVertex
100
AcDb2dVertex
 10
48.878293
 20
51.85993
 30
0.0
  0
VERTEX
  5
2DB
330
2CD
100
AcDbEntity
  8
001
 62
     5
370
    50
100
AcDbVertex
100
AcDb2dVertex
 10
48.885749
 20
52.038491
 30
0.0
  0
VERTEX
  5
2DC
330
2CD
100
AcDbEntity
  8
001
 62
     5
370
    50
100
AcDbVertex
100
AcDb2dVertex
 10
48.878293
 20
52.217053
 30
0.0
  0
VERTEX
  5
2DD
330
2CD
100
AcDbEntity
  8
001
 62
     5
370
    50
100
AcDbVertex
100
AcDb2dVertex
 10
48.855913
 20
52.39447
 30
0.0
  0
VERTEX
  5
2DE
330
2CD
100
AcDbEntity
  8
001
 62
     5
370
    50
100
AcDbVertex
100
AcDb2dVertex
 10
48.767666
 20
52.738346
 30
0.0
  0
VERTEX
  5
2DF
330
2CD
100
AcDbEntity
  8
001
 62
     5
370
    50
100
AcDbVertex
100
AcDb2dVertex
 10
48.622638
 20
53.063491
 30
0.0
  0
VERTEX
  5
2E0
330
2CD
100
AcDbEntity
  8
001
 62
     5
370
    50
100
AcDbVertex
100
AcDb2dVertex
 10
48.313297
 20
53.485757
 30
0.0
  0
VERTEX
  5
2E1
330
2CD
100
AcDbEntity
  8
001
 62
     5
370
    50
100
AcDbVertex
100
AcDb2dVertex
 10
47.903805
 20
53.813844
 30
0.0
  0
VERTEX
  5
2E2
330
2CD
100
AcDbEntity
  8
001
 62
     5
370
    50
100
AcDbVertex
100
AcDb2dVertex
 10
47.749764
 20
53.896461
 30
0.0
  0
VERTEX
  5
2E3
330
2CD
100
AcDbEntity
  8
001
 62
     5
370
    50
100
AcDbVertex
100
AcDb2dVertex
 10
47.593551
 20
53.964861
 30
0.0
  0
VERTEX
  5
2E4
330
2CD
100
AcDbEntity
  8
001
 62
     5
370
    50
100
AcDbVertex
100
AcDb2dVertex
 10
47.43772
 20
54.018548
 30
0.0
  0
VERTEX
  5
2E5
330
2CD
100
AcDbEntity
  8
001
 62
     5
370
    50
100
AcDbVertex
100
AcDb2dVertex
 10
47.262887
 20
54.057347
 30
0.0
  0
VERTEX
  5
2E6
330
2CD
100
AcDbEntity
  8
001
 62
     5
370
    50
100
AcDbVertex
100
AcDb2dVertex
 10
47.065846
 20
54.080686
 30
0.0
  0
VERTEX
  5
2E7
330
2CD
100
AcDbEntity
  8
001
 62
     5
370
    50
100
AcDbVertex
100
AcDb2dVertex
 10
46.921861
 20
54.088491
 30
0.0
  0
SEQEND
  5
2CE
330
2CD
100
AcDbEntity
  8
001
370
    50
  0
POLYLINE
  5
2E8
330
1C5
100
AcDbEntity
  8
001
 62
     5
370
    50
100
AcDb2dPolyline
 66
     1
 10
0.0
 20
0.0
 30
0.0
  0
VERTEX
  5
2EA
330
2E8
100
AcDbEntity
  8
001
 62
     5
370
    50
100
AcDbVertex
100
AcDb2dVertex
 10
47.332685
 20
54.021798
 30
0.0
  0
VERTEX
  5
2EB
330
2E8
100
AcDbEntity
  8
001
 62
     5
370
    50
100
AcDbVertex
100
AcDb2dVertex
 10
47.269674
 20
54.037689
 30
0.0
  0
VERTEX
  5
2EC
330
2E8
100
AcDbEntity
  8
001
 62
     5
370
    50
100
AcDbVertex
100
AcDb2dVertex
 10
47.17685
 20
54.057347
 30
0.0
  0
VERTEX
  5
2ED
330
2E8
100
AcDbEntity
  8
001
 62
     5
370
    50
100
AcDbVertex
100
AcDb2dVertex
 10
46.975157
 20
54.082592
 30
0.0
  0
VERTEX
  5
2EE
330
2E8
100
AcDbEntity
  8
001
 62
     5
370
    50
100
AcDbVertex
100
AcDb2dVertex
 10
46.835825
 20
54.088491
 30
0.0
  0
SEQEND
  5
2E9
330
2E8
100
AcDbEntity
  8
001
370
    50
  0
POLYLINE
  5
2EF
330
1C5
100
AcDbEntity
  8
001
 62
     5
370
    50
100
AcDb2dPolyline
 66
     1
 10
0.0
 20
0.0
 30
0.0
  0
VERTEX
  5
2F1
330
2EF
100
AcDbEntity
  8
001
 62
     5
370
    50
100
AcDbVertex
100
AcDb2dVertex
 10
46.308612
 20
50.063741
 30
0.0
  0
VERTEX
  5
2F2
330
2EF
100
AcDbEntity
  8
001
 62
     5
370
    50
100
AcDbVertex
100
AcDb2dVertex
 10
46.383812
 20
50.043752
 30
0.0
  0
VERTEX
  5
2F3
330
2EF
100
AcDbEntity
  8
001
 62
     5
370
    50
100
AcDbVertex
100
AcDb2dVertex
 10
46.494799
 20
50.019636
 30
0.0
  0
VERTEX
  5
2F4
330
2EF
100
AcDbEntity
  8
001
 62
     5
370
    50
100
AcDbVertex
100
AcDb2dVertex
 10
46.696485
 20
49.994393
 30
0.0
  0
VERTEX
  5
2F5
330
2EF
100
AcDbEntity
  8
001
 62
     5
370
    50
100
AcDbVertex
100
AcDb2dVertex
 10
46.835825
 20
49.988491
 30
0.0
  0
SEQEND
  5
2F0
330
2EF
100
AcDbEntity
  8
001
370
    50
  0
LINE
  5
2F6
330
1C5
100
AcDbEntity
  8
001
 62
     5
370
    50
100
AcDbLine
 10
46.835825
 20
49.988491
 30
0.0
 11
46.921861
 21
49.988491
 31
0.0
  0
LINE
  5
2F7
330
1C5
100
AcDbEntity
  8
001
 62
     5
370
    50
100
AcDbLine
 10
46.921861
 20
54.088491
 30
0.0
 11
46.835825
 21
54.088491
 31
0.0
  0
POLYLINE
  5
2F8
330
1C5
100
AcDbEntity
  8
001
 62
     5
370
    50
100
AcDb2dPolyline
 66
     1
 10
0.0
 20
0.0
 30
0.0
  0
VERTEX
  5
2FA
330
2F8
100
AcDbEntity
  8
001
 62
     5
370
    50
100
AcDbVertex
100
AcDb2dVertex
 10
47.655713
 20
52.856765
 30
0.0
  0
VERTEX
  5
2FB
330
2F8
100
AcDbEntity
  8
001
 62
     5
370
    50
100
AcDbVertex
100
AcDb2dVertex
 10
47.660951
 20
52.875155
 30
0.0
  0
VERTEX
  5
2FC
330
2F8
100
AcDbEntity
  8
001
 62
     5
370
    50
100
AcDbVertex
100
AcDb2dVertex
 10
47.666776
 20
52.900876
 30
0.0
  0
VERTEX
  5
2FD
330
2F8
100
AcDbEntity
  8
001
 62
     5
370
    50
100
AcDbVertex
100
AcDb2dVertex
 10
47.670173
 20
52.926124
 30
0.0
  0
VERTEX
  5
2FE
330
2F8
100
AcDbEntity
  8
001
 62
     5
370
    50
100
AcDbVertex
100
AcDb2dVertex
 10
47.670851
 20
52.949497
 30
0.0
  0
VERTEX
  5
2FF
330
2F8
100
AcDbEntity
  8
001
 62
     5
370
    50
100
AcDbVertex
100
AcDb2dVertex
 10
47.669733
 20
52.973591
 30
0.0
  0
VERTEX
  5
300
330
2F8
100
AcDbEntity
  8
001
 62
     5
370
    50
100
AcDbVertex
100
AcDb2dVertex
 10
47.666776
 20
52.998119
 30
0.0
  0
VERTEX
  5
301
330
2F8
100
AcDbEntity
  8
001
 62
     5
370
    50
100
AcDbVertex
100
AcDb2dVertex
 10
47.654789
 20
53.045285
 30
0.0
  0
VERTEX
  5
302
330
2F8
100
AcDbEntity
  8
001
 62
     5
370
    50
100
AcDbVertex
100
AcDb2dVertex
 10
47.634914
 20
53.089497
 30
0.0
  0
VERTEX
  5
303
330
2F8
100
AcDbEntity
  8
001
 62
     5
370
    50
100
AcDbVertex
100
AcDb2dVertex
 10
47.592636
 20
53.147095
 30
0.0
  0
VERTEX
  5
304
330
2F8
100
AcDbEntity
  8
001
 62
     5
370
    50
100
AcDbVertex
100
AcDb2dVertex
 10
47.536732
 20
53.191984
 30
0.0
  0
VERTEX
  5
305
330
2F8
100
AcDbEntity
  8
001
 62
     5
370
    50
100
AcDbVertex
100
AcDb2dVertex
 10
47.515693
 20
53.203272
 30
0.0
  0
VERTEX
  5
306
330
2F8
100
AcDbEntity
  8
001
 62
     5
370
    50
100
AcDbVertex
100
AcDb2dVertex
 10
47.494355
 20
53.212611
 30
0.0
  0
VERTEX
  5
307
330
2F8
100
AcDbEntity
  8
001
 62
     5
370
    50
100
AcDbVertex
100
AcDb2dVertex
 10
47.473071
 20
53.219943
 30
0.0
  0
VERTEX
  5
308
330
2F8
100
AcDbEntity
  8
001
 62
     5
370
    50
100
AcDbVertex
100
AcDb2dVertex
 10
47.449192
 20
53.225243
 30
0.0
  0
VERTEX
  5
309
330
2F8
100
AcDbEntity
  8
001
 62
     5
370
    50
100
AcDbVertex
100
AcDb2dVertex
 10
47.422279
 20
53.228431
 30
0.0
  0
VERTEX
  5
30A
330
2F8
100
AcDbEntity
  8
001
 62
     5
370
    50
100
AcDbVertex
100
AcDb2dVertex
 10
47.402613
 20
53.229497
 30
0.0
  0
SEQEND
  5
2F9
330
2F8
100
AcDbEntity
  8
001
370
    50
  0
POLYLINE
  5
30B
330
1C5
100
AcDbEntity
  8
001
 62
     5
370
    50
100
AcDb2dPolyline
 66
     1
 10
0.0
 20
0.0
 30
0.0
  0
VERTEX
  5
30D
330
30B
100
AcDbEntity
  8
001
 62
     5
370
    50
100
AcDbVertex
100
AcDb2dVertex
 10
47.018723
 20
50.836326
 30
0.0
  0
VERTEX
  5
30E
330
30B
100
AcDbEntity
  8
001
 62
     5
370
    50
100
AcDbVertex
100
AcDb2dVertex
 10
47.046381
 20
50.808643
 30
0.0
  0
VERTEX
  5
30F
330
30B
100
AcDbEntity
  8
001
 62
     5
370
    50
100
AcDbVertex
100
AcDb2dVertex
 10
47.088089
 20
50.776275
 30
0.0
  0
VERTEX
  5
310
330
30B
100
AcDbEntity
  8
001
 62
     5
370
    50
100
AcDbVertex
100
AcDb2dVertex
 10
47.109554
 20
50.764464
 30
0.0
  0
VERTEX
  5
311
330
30B
100
AcDbEntity
  8
001
 62
     5
370
    50
100
AcDbVertex
100
AcDb2dVertex
 10
47.130465
 20
50.755648
 30
0.0
  0
VERTEX
  5
312
330
30B
100
AcDbEntity
  8
001
 62
     5
370
    50
100
AcDbVertex
100
AcDb2dVertex
 10
47.151638
 20
50.748453
 30
0.0
  0
VERTEX
  5
313
330
30B
100
AcDbEntity
  8
001
 62
     5
370
    50
100
AcDbVertex
100
AcDb2dVertex
 10
47.175629
 20
50.743016
 30
0.0
  0
VERTEX
  5
314
330
30B
100
AcDbEntity
  8
001
 62
     5
370
    50
100
AcDbVertex
100
AcDb2dVertex
 10
47.202564
 20
50.739801
 30
0.0
  0
VERTEX
  5
315
330
30B
100
AcDbEntity
  8
001
 62
     5
370
    50
100
AcDbVertex
100
AcDb2dVertex
 10
47.222208
 20
50.738762
 30
0.0
  0
SEQEND
  5
30C
330
30B
100
AcDbEntity
  8
001
370
    50
  0
POLYLINE
  5
316
330
1C5
100
AcDbEntity
  8
001
 62
     5
370
    50
100
AcDb2dPolyline
 66
     1
 10
0.0
 20
0.0
 30
0.0
  0
VERTEX
  5
318
330
316
100
AcDbEntity
  8
001
 62
     5
370
    50
100
AcDbVertex
100
AcDb2dVertex
 10
47.36081
 20
50.836326
 30
0.0
  0
VERTEX
  5
319
330
316
100
AcDbEntity
  8
001
 62
     5
370
    50
100
AcDbVertex
100
AcDb2dVertex
 10
47.366966
 20
50.829133
 30
0.0
  0
VERTEX
  5
31A
330
316
100
AcDbEntity
  8
001
 62
     5
370
    50
100
AcDbVertex
100
AcDb2dVertex
 10
47.376354
 20
50.81898
 30
0.0
  0
VERTEX
  5
31B
330
316
100
AcDbEntity
  8
001
 62
     5
370
    50
100
AcDbVertex
100
AcDb2dVertex
 10
47.386237
 20
50.80938
 30
0.0
  0
VERTEX
  5
31C
330
316
100
AcDbEntity
  8
001
 62
     5
370
    50
100
AcDbVertex
100
AcDb2dVertex
 10
47.393251
 20
50.803072
 30
0.0
  0
SEQEND
  5
317
330
316
100
AcDbEntity
  8
001
370
    50
  0
POLYLINE
  5
31D
330
1C5
100
AcDbEntity
  8
001
 62
     5
370
    50
100
AcDb2dPolyline
 66
     1
 10
0.0
 20
0.0
 30
0.0
  0
VERTEX
  5
31F
330
31D
100
AcDbEntity
  8
001
 62
     5
370
    50
100
AcDbVertex
100
AcDb2dVertex
 10
46.923033
 20
53.05615
 30
0.0
  0
VERTEX
  5
320
330
31D
100
AcDbEntity
  8
001
 62
     5
370
    50
100
AcDbVertex
100
AcDb2dVertex
 10
46.960148
 20
53.0581
 30
0.0
  0
VERTEX
  5
321
330
31D
100
AcDbEntity
  8
001
 62
     5
370
    50
100
AcDbVertex
100
AcDb2dVertex
 10
47.011122
 20
53.064194
 30
0.0
  0
VERTEX
  5
322
330
31D
100
AcDbEntity
  8
001
 62
     5
370
    50
100
AcDbVertex
100
AcDb2dVertex
 10
47.056669
 20
53.074547
 30
0.0
  0
VERTEX
  5
323
330
31D
100
AcDbEntity
  8
001
 62
     5
370
    50
100
AcDbVertex
100
AcDb2dVertex
 10
47.096533
 20
53.088084
 30
0.0
  0
VERTEX
  5
324
330
31D
100
AcDbEntity
  8
001
 62
     5
370
    50
100
AcDbVertex
100
AcDb2dVertex
 10
47.135401
 20
53.104487
 30
0.0
  0
VERTEX
  5
325
330
31D
100
AcDbEntity
  8
001
 62
     5
370
    50
100
AcDbVertex
100
AcDb2dVertex
 10
47.176673
 20
53.127092
 30
0.0
  0
VERTEX
  5
326
330
31D
100
AcDbEntity
  8
001
 62
     5
370
    50
100
AcDbVertex
100
AcDb2dVertex
 10
47.212146
 20
53.151
 30
0.0
  0
VERTEX
  5
327
330
31D
100
AcDbEntity
  8
001
 62
     5
370
    50
100
AcDbVertex
100
AcDb2dVertex
 10
47.236734
 20
53.169539
 30
0.0
  0
SEQEND
  5
31E
330
31D
100
AcDbEntity
  8
001
370
    50
  0
LINE
  5
328
330
1C5
100
AcDbEntity
  8
001
 62
     5
370
    50
100
AcDbLine
 10
46.923033
 20
53.05615
 30
0.0
 11
47.26512
 21
53.05615
 31
0.0
  0
POLYLINE
  5
329
330
1C5
100
AcDbEntity
  8
001
 62
     5
370
    50
100
AcDb2dPolyline
 66
     1
 10
0.0
 20
0.0
 30
0.0
  0
VERTEX
  5
32B
330
329
100
AcDbEntity
  8
001
 62
     5
370
    50
100
AcDbVertex
100
AcDb2dVertex
 10
47.26512
 20
53.05615
 30
0.0
  0
VERTEX
  5
32C
330
329
100
AcDbEntity
  8
001
 62
     5
370
    50
100
AcDbVertex
100
AcDb2dVertex
 10
47.302235
 20
53.0581
 30
0.0
  0
VERTEX
  5
32D
330
329
100
AcDbEntity
  8
001
 62
     5
370
    50
100
AcDbVertex
100
AcDb2dVertex
 10
47.353208
 20
53.064194
 30
0.0
  0
VERTEX
  5
32E
330
329
100
AcDbEntity
  8
001
 62
     5
370
    50
100
AcDbVertex
100
AcDb2dVertex
 10
47.398756
 20
53.074547
 30
0.0
  0
VERTEX
  5
32F
330
329
100
AcDbEntity
  8
001
 62
     5
370
    50
100
AcDbVertex
100
AcDb2dVertex
 10
47.43862
 20
53.088084
 30
0.0
  0
VERTEX
  5
330
330
329
100
AcDbEntity
  8
001
 62
     5
370
    50
100
AcDbVertex
100
AcDb2dVertex
 10
47.477488
 20
53.104487
 30
0.0
  0
VERTEX
  5
331
330
329
100
AcDbEntity
  8
001
 62
     5
370
    50
100
AcDbVertex
100
AcDb2dVertex
 10
47.51876
 20
53.127092
 30
0.0
  0
VERTEX
  5
332
330
329
100
AcDbEntity
  8
001
 62
     5
370
    50
100
AcDbVertex
100
AcDb2dVertex
 10
47.554232
 20
53.151
 30
0.0
  0
VERTEX
  5
333
330
329
100
AcDbEntity
  8
001
 62
     5
370
    50
100
AcDbVertex
100
AcDb2dVertex
 10
47.578821
 20
53.169539
 30
0.0
  0
SEQEND
  5
32A
330
329
100
AcDbEntity
  8
001
370
    50
  0
POLYLINE
  5
334
330
1C5
100
AcDbEntity
  8
001
 62
     5
370
    50
100
AcDb2dPolyline
 66
     1
 10
0.0
 20
0.0
 30
0.0
  0
VERTEX
  5
336
330
334
100
AcDbEntity
  8
001
 62
     5
370
    50
100
AcDbVertex
100
AcDb2dVertex
 10
46.633901
 20
51.020833
 30
0.0
  0
VERTEX
  5
337
330
334
100
AcDbEntity
  8
001
 62
     5
370
    50
100
AcDbVertex
100
AcDb2dVertex
 10
46.596787
 20
51.018883
 30
0.0
  0
VERTEX
  5
338
330
334
100
AcDbEntity
  8
001
 62
     5
370
    50
100
AcDbVertex
100
AcDb2dVertex
 10
46.545813
 20
51.012789
 30
0.0
  0
VERTEX
  5
339
330
334
100
AcDbEntity
  8
001
 62
     5
370
    50
100
AcDbVertex
100
AcDb2dVertex
 10
46.500266
 20
51.002436
 30
0.0
  0
VERTEX
  5
33A
330
334
100
AcDbEntity
  8
001
 62
     5
370
    50
100
AcDbVertex
100
AcDb2dVertex
 10
46.460401
 20
50.988899
 30
0.0
  0
VERTEX
  5
33B
330
334
100
AcDbEntity
  8
001
 62
     5
370
    50
100
AcDbVertex
100
AcDb2dVertex
 10
46.421534
 20
50.972496
 30
0.0
  0
VERTEX
  5
33C
330
334
100
AcDbEntity
  8
001
 62
     5
370
    50
100
AcDbVertex
100
AcDb2dVertex
 10
46.380261
 20
50.949891
 30
0.0
  0
VERTEX
  5
33D
330
334
100
AcDbEntity
  8
001
 62
     5
370
    50
100
AcDbVertex
100
AcDb2dVertex
 10
46.344789
 20
50.925983
 30
0.0
  0
VERTEX
  5
33E
330
334
100
AcDbEntity
  8
001
 62
     5
370
    50
100
AcDbVertex
100
AcDb2dVertex
 10
46.3202
 20
50.907444
 30
0.0
  0
SEQEND
  5
335
330
334
100
AcDbEntity
  8
001
370
    50
  0
POLYLINE
  5
33F
330
1C5
100
AcDbEntity
  8
001
 62
     5
370
    50
100
AcDb2dPolyline
 66
     1
 10
0.0
 20
0.0
 30
0.0
  0
VERTEX
  5
341
330
33F
100
AcDbEntity
  8
001
 62
     5
370
    50
100
AcDbVertex
100
AcDb2dVertex
 10
47.36081
 20
50.836326
 30
0.0
  0
VERTEX
  5
342
330
33F
100
AcDbEntity
  8
001
 62
     5
370
    50
100
AcDbVertex
100
AcDb2dVertex
 10
47.308504
 20
50.888678
 30
0.0
  0
VERTEX
  5
343
330
33F
100
AcDbEntity
  8
001
 62
     5
370
    50
100
AcDbVertex
100
AcDb2dVertex
 10
47.229628
 20
50.949891
 30
0.0
  0
VERTEX
  5
344
330
33F
100
AcDbEntity
  8
001
 62
     5
370
    50
100
AcDbVertex
100
AcDb2dVertex
 10
47.189034
 20
50.972228
 30
0.0
  0
VERTEX
  5
345
330
33F
100
AcDbEntity
  8
001
 62
     5
370
    50
100
AcDbVertex
100
AcDb2dVertex
 10
47.149488
 20
50.988899
 30
0.0
  0
VERTEX
  5
346
330
33F
100
AcDbEntity
  8
001
 62
     5
370
    50
100
AcDbVertex
100
AcDb2dVertex
 10
47.109447
 20
51.002506
 30
0.0
  0
VERTEX
  5
347
330
33F
100
AcDbEntity
  8
001
 62
     5
370
    50
100
AcDbVertex
100
AcDb2dVertex
 10
47.064076
 20
51.012789
 30
0.0
  0
VERTEX
  5
348
330
33F
100
AcDbEntity
  8
001
 62
     5
370
    50
100
AcDbVertex
100
AcDb2dVertex
 10
47.013138
 20
51.018869
 30
0.0
  0
VERTEX
  5
349
330
33F
100
AcDbEntity
  8
001
 62
     5
370
    50
100
AcDbVertex
100
AcDb2dVertex
 10
46.975988
 20
51.020833
 30
0.0
  0
SEQEND
  5
340
330
33F
100
AcDbEntity
  8
001
370
    50
  0
LINE
  5
34A
330
1C5
100
AcDbEntity
  8
001
 62
     5
370
    50
100
AcDbLine
 10
46.975988
 20
51.020833
 30
0.0
 11
46.633901
 21
51.020833
 31
0.0
  0
POLYLINE
  5
34B
330
1C5
100
AcDbEntity
  8
001
 62
     5
370
    50
100
AcDb2dPolyline
 66
     1
 10
0.0
 20
0.0
 30
0.0
  0
VERTEX
  5
34D
330
34B
100
AcDbEntity
  8
001
 62
     5
370
    50
100
AcDbVertex
100
AcDb2dVertex
 10
46.538212
 20
53.240657
 30
0.0
  0
VERTEX
  5
34E
330
34B
100
AcDbEntity
  8
001
 62
     5
370
    50
100
AcDbVertex
100
AcDb2dVertex
 10
46.510554
 20
53.26834
 30
0.0
  0
VERTEX
  5
34F
330
34B
100
AcDbEntity
  8
001
 62
     5
370
    50
100
AcDbVertex
100
AcDb2dVertex
 10
46.468846
 20
53.300708
 30
0.0
  0
VERTEX
  5
350
330
34B
100
AcDbEntity
  8
001
 62
     5
370
    50
100
AcDbVertex
100
AcDb2dVertex
 10
46.447381
 20
53.312519
 30
0.0
  0
VERTEX
  5
351
330
34B
100
AcDbEntity
  8
001
 62
     5
370
    50
100
AcDbVertex
100
AcDb2dVertex
 10
46.42647
 20
53.321335
 30
0.0
  0
VERTEX
  5
352
330
34B
100
AcDbEntity
  8
001
 62
     5
370
    50
100
AcDbVertex
100
AcDb2dVertex
 10
46.405297
 20
53.32853
 30
0.0
  0
VERTEX
  5
353
330
34B
100
AcDbEntity
  8
001
 62
     5
370
    50
100
AcDbVertex
100
AcDb2dVertex
 10
46.381306
 20
53.333967
 30
0.0
  0
VERTEX
  5
354
330
34B
100
AcDbEntity
  8
001
 62
     5
370
    50
100
AcDbVertex
100
AcDb2dVertex
 10
46.354371
 20
53.337182
 30
0.0
  0
VERTEX
  5
355
330
34B
100
AcDbEntity
  8
001
 62
     5
370
    50
100
AcDbVertex
100
AcDb2dVertex
 10
46.334727
 20
53.338221
 30
0.0
  0
SEQEND
  5
34C
330
34B
100
AcDbEntity
  8
001
370
    50
  0
POLYLINE
  5
356
330
1C5
100
AcDbEntity
  8
001
 62
     5
370
    50
100
AcDb2dPolyline
 66
     1
 10
0.0
 20
0.0
 30
0.0
  0
VERTEX
  5
358
330
356
100
AcDbEntity
  8
001
 62
     5
370
    50
100
AcDbVertex
100
AcDb2dVertex
 10
46.50577
 20
53.273911
 30
0.0
  0
VERTEX
  5
359
330
356
100
AcDbEntity
  8
001
 62
     5
370
    50
100
AcDbVertex
100
AcDb2dVertex
 10
46.477652
 20
53.244003
 30
0.0
  0
VERTEX
  5
35A
330
356
100
AcDbEntity
  8
001
 62
     5
370
    50
100
AcDbVertex
100
AcDb2dVertex
 10
46.444512
 20
53.198221
 30
0.0
  0
VERTEX
  5
35B
330
356
100
AcDbEntity
  8
001
 62
     5
370
    50
100
AcDbVertex
100
AcDb2dVertex
 10
46.423401
 20
53.151835
 30
0.0
  0
VERTEX
  5
35C
330
356
100
AcDbEntity
  8
001
 62
     5
370
    50
100
AcDbVertex
100
AcDb2dVertex
 10
46.41265
 20
53.106842
 30
0.0
  0
VERTEX
  5
35D
330
356
100
AcDbEntity
  8
001
 62
     5
370
    50
100
AcDbVertex
100
AcDb2dVertex
 10
46.409559
 20
53.083938
 30
0.0
  0
VERTEX
  5
35E
330
356
100
AcDbEntity
  8
001
 62
     5
370
    50
100
AcDbVertex
100
AcDb2dVertex
 10
46.408575
 20
53.058221
 30
0.0
  0
VERTEX
  5
35F
330
356
100
AcDbEntity
  8
001
 62
     5
370
    50
100
AcDbVertex
100
AcDb2dVertex
 10
46.409686
 20
53.034969
 30
0.0
  0
VERTEX
  5
360
330
356
100
AcDbEntity
  8
001
 62
     5
370
    50
100
AcDbVertex
100
AcDb2dVertex
 10
46.411317
 20
53.018288
 30
0.0
  0
SEQEND
  5
357
330
356
100
AcDbEntity
  8
001
370
    50
  0
POLYLINE
  5
361
330
1C5
100
AcDbEntity
  8
001
 62
     5
370
    50
100
AcDb2dPolyline
 66
     1
 10
0.0
 20
0.0
 30
0.0
  0
VERTEX
  5
363
330
361
100
AcDbEntity
  8
001
 62
     5
370
    50
100
AcDbVertex
100
AcDb2dVertex
 10
45.901222
 20
51.220218
 30
0.0
  0
VERTEX
  5
364
330
361
100
AcDbEntity
  8
001
 62
     5
370
    50
100
AcDbVertex
100
AcDb2dVertex
 10
45.895984
 20
51.201828
 30
0.0
  0
VERTEX
  5
365
330
361
100
AcDbEntity
  8
001
 62
     5
370
    50
100
AcDbVertex
100
AcDb2dVertex
 10
45.890159
 20
51.176107
 30
0.0
  0
VERTEX
  5
366
330
361
100
AcDbEntity
  8
001
 62
     5
370
    50
100
AcDbVertex
100
AcDb2dVertex
 10
45.886761
 20
51.150858
 30
0.0
  0
VERTEX
  5
367
330
361
100
AcDbEntity
  8
001
 62
     5
370
    50
100
AcDbVertex
100
AcDb2dVertex
 10
45.886084
 20
51.127486
 30
0.0
  0
VERTEX
  5
368
330
361
100
AcDbEntity
  8
001
 62
     5
370
    50
100
AcDbVertex
100
AcDb2dVertex
 10
45.887201
 20
51.103392
 30
0.0
  0
VERTEX
  5
369
330
361
100
AcDbEntity
  8
001
 62
     5
370
    50
100
AcDbVertex
100
AcDb2dVertex
 10
45.890159
 20
51.078864
 30
0.0
  0
VERTEX
  5
36A
330
361
100
AcDbEntity
  8
001
 62
     5
370
    50
100
AcDbVertex
100
AcDb2dVertex
 10
45.902146
 20
51.031698
 30
0.0
  0
VERTEX
  5
36B
330
361
100
AcDbEntity
  8
001
 62
     5
370
    50
100
AcDbVertex
100
AcDb2dVertex
 10
45.922021
 20
50.987486
 30
0.0
  0
VERTEX
  5
36C
330
361
100
AcDbEntity
  8
001
 62
     5
370
    50
100
AcDbVertex
100
AcDb2dVertex
 10
45.964298
 20
50.929888
 30
0.0
  0
VERTEX
  5
36D
330
361
100
AcDbEntity
  8
001
 62
     5
370
    50
100
AcDbVertex
100
AcDb2dVertex
 10
46.020203
 20
50.884999
 30
0.0
  0
VERTEX
  5
36E
330
361
100
AcDbEntity
  8
001
 62
     5
370
    50
100
AcDbVertex
100
AcDb2dVertex
 10
46.041241
 20
50.87371
 30
0.0
  0
VERTEX
  5
36F
330
361
100
AcDbEntity
  8
001
 62
     5
370
    50
100
AcDbVertex
100
AcDb2dVertex
 10
46.062579
 20
50.864372
 30
0.0
  0
VERTEX
  5
370
330
361
100
AcDbEntity
  8
001
 62
     5
370
    50
100
AcDbVertex
100
AcDb2dVertex
 10
46.083864
 20
50.85704
 30
0.0
  0
VERTEX
  5
371
330
361
100
AcDbEntity
  8
001
 62
     5
370
    50
100
AcDbVertex
100
AcDb2dVertex
 10
46.107743
 20
50.85174
 30
0.0
  0
VERTEX
  5
372
330
361
100
AcDbEntity
  8
001
 62
     5
370
    50
100
AcDbVertex
100
AcDb2dVertex
 10
46.134656
 20
50.848552
 30
0.0
  0
VERTEX
  5
373
330
361
100
AcDbEntity
  8
001
 62
     5
370
    50
100
AcDbVertex
100
AcDb2dVertex
 10
46.154322
 20
50.847486
 30
0.0
  0
SEQEND
  5
362
330
361
100
AcDbEntity
  8
001
370
    50
  0
POLYLINE
  5
374
330
1C5
100
AcDbEntity
  8
001
 62
     5
370
    50
100
AcDb2dPolyline
 66
     1
 10
0.0
 20
0.0
 30
0.0
  0
VERTEX
  5
376
330
374
100
AcDbEntity
  8
001
 62
     5
370
    50
100
AcDbVertex
100
AcDb2dVertex
 10
46.243308
 20
51.220218
 30
0.0
  0
VERTEX
  5
377
330
374
100
AcDbEntity
  8
001
 62
     5
370
    50
100
AcDbVertex
100
AcDb2dVertex
 10
46.238077
 20
51.201823
 30
0.0
  0
VERTEX
  5
378
330
374
100
AcDbEntity
  8
001
 62
     5
370
    50
100
AcDbVertex
100
AcDb2dVertex
 10
46.232246
 20
51.176107
 30
0.0
  0
VERTEX
  5
379
330
374
100
AcDbEntity
  8
001
 62
     5
370
    50
100
AcDbVertex
100
AcDb2dVertex
 10
46.228812
 20
51.15089
 30
0.0
  0
VERTEX
  5
37A
330
374
100
AcDbEntity
  8
001
 62
     5
370
    50
100
AcDbVertex
100
AcDb2dVertex
 10
46.228171
 20
51.127486
 30
0.0
  0
VERTEX
  5
37B
330
374
100
AcDbEntity
  8
001
 62
     5
370
    50
100
AcDbVertex
100
AcDb2dVertex
 10
46.229428
 20
51.103272
 30
0.0
  0
VERTEX
  5
37C
330
374
100
AcDbEntity
  8
001
 62
     5
370
    50
100
AcDbVertex
100
AcDb2dVertex
 10
46.232246
 20
51.078864
 30
0.0
  0
VERTEX
  5
37D
330
374
100
AcDbEntity
  8
001
 62
     5
370
    50
100
AcDbVertex
100
AcDb2dVertex
 10
46.242822
 20
51.032909
 30
0.0
  0
VERTEX
  5
37E
330
374
100
AcDbEntity
  8
001
 62
     5
370
    50
100
AcDbVertex
100
AcDb2dVertex
 10
46.264108
 20
50.987486
 30
0.0
  0
VERTEX
  5
37F
330
374
100
AcDbEntity
  8
001
 62
     5
370
    50
100
AcDbVertex
100
AcDb2dVertex
 10
46.297333
 20
50.941843
 30
0.0
  0
VERTEX
  5
380
330
374
100
AcDbEntity
  8
001
 62
     5
370
    50
100
AcDbVertex
100
AcDb2dVertex
 10
46.325465
 20
50.91171
 30
0.0
  0
SEQEND
  5
375
330
374
100
AcDbEntity
  8
001
370
    50
  0
POLYLINE
  5
381
330
1C5
100
AcDbEntity
  8
001
 62
     5
370
    50
100
AcDb2dPolyline
 66
     1
 10
0.0
 20
0.0
 30
0.0
  0
VERTEX
  5
383
330
381
100
AcDbEntity
  8
001
 62
     5
370
    50
100
AcDbVertex
100
AcDb2dVertex
 10
46.003053
 20
52.422384
 30
0.0
  0
VERTEX
  5
384
330
381
100
AcDbEntity
  8
001
 62
     5
370
    50
100
AcDbVertex
100
AcDb2dVertex
 10
46.036823
 20
52.430813
 30
0.0
  0
VERTEX
  5
385
330
381
100
AcDbEntity
  8
001
 62
     5
370
    50
100
AcDbVertex
100
AcDb2dVertex
 10
46.082723
 20
52.445181
 30
0.0
  0
VERTEX
  5
386
330
381
100
AcDbEntity
  8
001
 62
     5
370
    50
100
AcDbVertex
100
AcDb2dVertex
 10
46.125814
 20
52.463306
 30
0.0
  0
VERTEX
  5
387
330
381
100
AcDbEntity
  8
001
 62
     5
370
    50
100
AcDbVertex
100
AcDb2dVertex
 10
46.162863
 20
52.484189
 30
0.0
  0
VERTEX
  5
388
330
381
100
AcDbEntity
  8
001
 62
     5
370
    50
100
AcDbVertex
100
AcDb2dVertex
 10
46.265926
 20
52.567896
 30
0.0
  0
VERTEX
  5
389
330
381
100
AcDbEntity
  8
001
 62
     5
370
    50
100
AcDbVertex
100
AcDb2dVertex
 10
46.34854
 20
52.678008
 30
0.0
  0
VERTEX
  5
38A
330
381
100
AcDbEntity
  8
001
 62
     5
370
    50
100
AcDbVertex
100
AcDb2dVertex
 10
46.386184
 20
52.763605
 30
0.0
  0
VERTEX
  5
38B
330
381
100
AcDbEntity
  8
001
 62
     5
370
    50
100
AcDbVertex
100
AcDb2dVertex
 10
46.408796
 20
52.850819
 30
0.0
  0
VERTEX
  5
38C
330
381
100
AcDbEntity
  8
001
 62
     5
370
    50
100
AcDbVertex
100
AcDb2dVertex
 10
46.414858
 20
52.894336
 30
0.0
  0
VERTEX
  5
38D
330
381
100
AcDbEntity
  8
001
 62
     5
370
    50
100
AcDbVertex
100
AcDb2dVertex
 10
46.416503
 20
52.942769
 30
0.0
  0
VERTEX
  5
38E
330
381
100
AcDbEntity
  8
001
 62
     5
370
    50
100
AcDbVertex
100
AcDb2dVertex
 10
46.414369
 20
52.986712
 30
0.0
  0
VERTEX
  5
38F
330
381
100
AcDbEntity
  8
001
 62
     5
370
    50
100
AcDbVertex
100
AcDb2dVertex
 10
46.411317
 20
53.018288
 30
0.0
  0
SEQEND
  5
382
330
381
100
AcDbEntity
  8
001
370
    50
  0
POLYLINE
  5
390
330
1C5
100
AcDbEntity
  8
001
 62
     5
370
    50
100
AcDb2dPolyline
 66
     1
 10
0.0
 20
0.0
 30
0.0
  0
VERTEX
  5
392
330
390
100
AcDbEntity
  8
001
 62
     5
370
    50
100
AcDbVertex
100
AcDb2dVertex
 10
46.243308
 20
51.220218
 30
0.0
  0
VERTEX
  5
393
330
390
100
AcDbEntity
  8
001
 62
     5
370
    50
100
AcDbVertex
100
AcDb2dVertex
 10
46.253219
 20
51.254994
 30
0.0
  0
VERTEX
  5
394
330
390
100
AcDbEntity
  8
001
 62
     5
370
    50
100
AcDbVertex
100
AcDb2dVertex
 10
46.26423
 20
51.303638
 30
0.0
  0
VERTEX
  5
395
330
390
100
AcDbEntity
  8
001
 62
     5
370
    50
100
AcDbVertex
100
AcDb2dVertex
 10
46.270629
 20
51.351399
 30
0.0
  0
VERTEX
  5
396
330
390
100
AcDbEntity
  8
001
 62
     5
370
    50
100
AcDbVertex
100
AcDb2dVertex
 10
46.271937
 20
51.395588
 30
0.0
  0
VERTEX
  5
397
330
390
100
AcDbEntity
  8
001
 62
     5
370
    50
100
AcDbVertex
100
AcDb2dVertex
 10
46.269922
 20
51.441109
 30
0.0
  0
VERTEX
  5
398
330
390
100
AcDbEntity
  8
001
 62
     5
370
    50
100
AcDbVertex
100
AcDb2dVertex
 10
46.26423
 20
51.487539
 30
0.0
  0
VERTEX
  5
399
330
390
100
AcDbEntity
  8
001
 62
     5
370
    50
100
AcDbVertex
100
AcDb2dVertex
 10
46.240568
 20
51.577184
 30
0.0
  0
VERTEX
  5
39A
330
390
100
AcDbEntity
  8
001
 62
     5
370
    50
100
AcDbVertex
100
AcDb2dVertex
 10
46.203974
 20
51.66035
 30
0.0
  0
VERTEX
  5
39B
330
390
100
AcDbEntity
  8
001
 62
     5
370
    50
100
AcDbVertex
100
AcDb2dVertex
 10
46.130985
 20
51.766151
 30
0.0
  0
VERTEX
  5
39C
330
390
100
AcDbEntity
  8
001
 62
     5
370
    50
100
AcDbVertex
100
AcDb2dVertex
 10
46.018297
 20
51.854169
 30
0.0
  0
VERTEX
  5
39D
330
390
100
AcDbEntity
  8
001
 62
     5
370
    50
100
AcDbVertex
100
AcDb2dVertex
 10
45.980347
 20
51.874401
 30
0.0
  0
VERTEX
  5
39E
330
390
100
AcDbEntity
  8
001
 62
     5
370
    50
100
AcDbVertex
100
AcDb2dVertex
 10
45.95305
 20
51.88724
 30
0.0
  0
SEQEND
  5
391
330
390
100
AcDbEntity
  8
001
370
    50
  0
POLYLINE
  5
39F
330
1C5
100
AcDbEntity
  8
001
 62
     5
370
    50
100
AcDb2dPolyline
 66
     1
 10
0.0
 20
0.0
 30
0.0
  0
VERTEX
  5
3A1
330
39F
100
AcDbEntity
  8
001
 62
     5
370
    50
100
AcDbVertex
100
AcDb2dVertex
 10
46.003053
 20
52.422384
 30
0.0
  0
VERTEX
  5
3A2
330
39F
100
AcDbEntity
  8
001
 62
     5
370
    50
100
AcDbVertex
100
AcDb2dVertex
 10
45.985196
 20
52.417924
 30
0.0
  0
VERTEX
  5
3A3
330
39F
100
AcDbEntity
  8
001
 62
     5
370
    50
100
AcDbVertex
100
AcDb2dVertex
 10
45.960925
 20
52.410329
 30
0.0
  0
VERTEX
  5
3A4
330
39F
100
AcDbEntity
  8
001
 62
     5
370
    50
100
AcDbVertex
100
AcDb2dVertex
 10
45.938137
 20
52.400761
 30
0.0
  0
VERTEX
  5
3A5
330
39F
100
AcDbEntity
  8
001
 62
     5
370
    50
100
AcDbVertex
100
AcDb2dVertex
 10
45.918549
 20
52.389702
 30
0.0
  0
VERTEX
  5
3A6
330
39F
100
AcDbEntity
  8
001
 62
     5
370
    50
100
AcDbVertex
100
AcDb2dVertex
 10
45.8641
 20
52.345119
 30
0.0
  0
VERTEX
  5
3A7
330
39F
100
AcDbEntity
  8
001
 62
     5
370
    50
100
AcDbVertex
100
AcDb2dVertex
 10
45.820367
 20
52.287215
 30
0.0
  0
VERTEX
  5
3A8
330
39F
100
AcDbEntity
  8
001
 62
     5
370
    50
100
AcDbVertex
100
AcDb2dVertex
 10
45.800337
 20
52.242777
 30
0.0
  0
VERTEX
  5
3A9
330
39F
100
AcDbEntity
  8
001
 62
     5
370
    50
100
AcDbVertex
100
AcDb2dVertex
 10
45.788505
 20
52.195837
 30
0.0
  0
VERTEX
  5
3AA
330
39F
100
AcDbEntity
  8
001
 62
     5
370
    50
100
AcDbVertex
100
AcDb2dVertex
 10
45.785485
 20
52.1716
 30
0.0
  0
VERTEX
  5
3AB
330
39F
100
AcDbEntity
  8
001
 62
     5
370
    50
100
AcDbVertex
100
AcDb2dVertex
 10
45.78443
 20
52.147215
 30
0.0
  0
VERTEX
  5
3AC
330
39F
100
AcDbEntity
  8
001
 62
     5
370
    50
100
AcDbVertex
100
AcDb2dVertex
 10
45.78539
 20
52.122849
 30
0.0
  0
VERTEX
  5
3AD
330
39F
100
AcDbEntity
  8
001
 62
     5
370
    50
100
AcDbVertex
100
AcDb2dVertex
 10
45.788505
 20
52.098594
 30
0.0
  0
VERTEX
  5
3AE
330
39F
100
AcDbEntity
  8
001
 62
     5
370
    50
100
AcDbVertex
100
AcDb2dVertex
 10
45.801088
 20
52.05139
 30
0.0
  0
VERTEX
  5
3AF
330
39F
100
AcDbEntity
  8
001
 62
     5
370
    50
100
AcDbVertex
100
AcDb2dVertex
 10
45.820367
 20
52.007215
 30
0.0
  0
VERTEX
  5
3B0
330
39F
100
AcDbEntity
  8
001
 62
     5
370
    50
100
AcDbVertex
100
AcDb2dVertex
 10
45.858935
 20
51.951195
 30
0.0
  0
VERTEX
  5
3B1
330
39F
100
AcDbEntity
  8
001
 62
     5
370
    50
100
AcDbVertex
100
AcDb2dVertex
 10
45.918549
 20
51.904728
 30
0.0
  0
VERTEX
  5
3B2
330
39F
100
AcDbEntity
  8
001
 62
     5
370
    50
100
AcDbVertex
100
AcDb2dVertex
 10
45.938617
 20
51.894032
 30
0.0
  0
VERTEX
  5
3B3
330
39F
100
AcDbEntity
  8
001
 62
     5
370
    50
100
AcDbVertex
100
AcDb2dVertex
 10
45.95305
 20
51.88724
 30
0.0
  0
SEQEND
  5
3A0
330
39F
100
AcDbEntity
  8
001
370
    50
  0
ENDBLK
  5
1C7
330
1C5
100
AcDbEntity
  8
0
100
AcDbBlockEnd
  0
BLOCK
  5
3B5
330
3B4
100
AcDbEntity
  8
0
100
AcDbBlockBegin
  2
*D3
 70
     1
 10
0.0
 20
0.0
 30
0.0
  3
*D3
  1

  0
LINE
  5
3B7
330
3B4
100
AcDbEntity
  8
001
370
     9
100
AcDbLine
 10
70.079782
 20
45.96034
 30
0.0
 11
70.079782
 21
17.127989
 31
0.0
  0
LINE
  5
3B8
330
3B4
100
AcDbEntity
  8
001
370
     9
100
AcDbLine
 10
40.079782
 20
40.466579
 30
0.0
 11
40.079782
 21
17.127989
 31
0.0
  0
LINE
  5
3B9
330
3B4
100
AcDbEntity
  8
001
370
     9
100
AcDbLine
 10
70.079782
 20
19.877989
 30
0.0
 11
40.079782
 21
19.877989
 31
0.0
  0
POLYLINE
  5
3BA
330
3B4
100
AcDbEntity
  8
001
370
     9
100
AcDb2dPolyline
 66
     1
 10
0.0
 20
0.0
 30
0.0
  0
VERTEX
  5
3BC
330
3BA
100
AcDbEntity
  8
001
370
     9
100
AcDbVertex
100
AcDb2dVertex
 10
68.579782
 20
20.279912
 30
0.0
  0
VERTEX
  5
3BD
330
3BA
100
AcDbEntity
  8
001
370
     9
100
AcDbVertex
100
AcDb2dVertex
 10
70.079782
 20
19.877989
 30
0.0
  0
VERTEX
  5
3BE
330
3BA
100
AcDbEntity
  8
001
370
     9
100
AcDbVertex
100
AcDb2dVertex
 10
68.579782
 20
19.476065
 30
0.0
  0
SEQEND
  5
3BB
330
3BA
100
AcDbEntity
  8
001
370
     9
  0
POLYLINE
  5
3BF
330
3B4
100
AcDbEntity
  8
001
370
     9
100
AcDb2dPolyline
 66
     1
 10
0.0
 20
0.0
 30
0.0
  0
VERTEX
  5
3C1
330
3BF
100
AcDbEntity
  8
001
370
     9
100
AcDbVertex
100
AcDb2dVertex
 10
41.579782
 20
19.476065
 30
0.0
  0
VERTEX
  5
3C2
330
3BF
100
AcDbEntity
  8
001
370
     9
100
AcDbVertex
100
AcDb2dVertex
 10
40.079782
 20
19.877989
 30
0.0
  0
VERTEX
  5
3C3
330
3BF
100
AcDbEntity
  8
001
370
     9
100
AcDbVertex
100
AcDb2dVertex
 10
41.579782
 20
20.279912
 30
0.0
  0
SEQEND
  5
3C0
330
3BF
100
AcDbEntity
  8
001
370
     9
  0
TEXT
  5
3C4
330
3B4
100
AcDbEntity
  8
001
370
    30
100
AcDbText
 10
54.828884
 20
20.877989
 30
0.0
 40
4.0
  1
３０
 41
0.833333
100
AcDbText
  0
POINT
  5
3C5
330
3B4
100
AcDbEntity
  8
001
370
     9
100
AcDbPoint
 10
70.079782
 20
45.96034
 30
0.0
  0
POINT
  5
3C6
330
3B4
100
AcDbEntity
  8
001
370
     9
100
AcDbPoint
 10
40.079782
 20
40.466579
 30
0.0
  0
POINT
  5
3C7
330
3B4
100
AcDbEntity
  8
001
370
     9
100
AcDbPoint
 10
40.079782
 20
19.877989
 30
0.0
  0
ENDBLK
  5
3B6
330
3B4
100
AcDbEntity
  8
0
100
AcDbBlockEnd
  0
BLOCK
  5
3C9
330
3C8
100
AcDbEntity
  8
0
100
AcDbBlockBegin
  2
*D4
 70
     1
 10
0.0
 20
0.0
 30
0.0
  3
*D4
  1

  0
LINE
  5
3CB
330
3C8
100
AcDbEntity
  8
001
370
     9
100
AcDbLine
 10
40.079782
 20
40.466579
 30
0.0
 11
40.079782
 21
27.084309
 31
0.0
  0
LINE
  5
3CC
330
3C8
100
AcDbEntity
  8
001
370
     9
100
AcDbLine
 10
47.59461
 20
45.952165
 30
0.0
 11
47.59461
 21
27.084309
 31
0.0
  0
LINE
  5
3CD
330
3C8
100
AcDbEntity
  8
001
370
     9
100
AcDbLine
 10
40.079782
 20
29.834309
 30
0.0
 11
47.59461
 21
29.834309
 31
0.0
  0
POLYLINE
  5
3CE
330
3C8
100
AcDbEntity
  8
001
370
     9
100
AcDb2dPolyline
 66
     1
 10
0.0
 20
0.0
 30
0.0
  0
VERTEX
  5
3D0
330
3CE
100
AcDbEntity
  8
001
370
     9
100
AcDbVertex
100
AcDb2dVertex
 10
38.579782
 20
30.236233
 30
0.0
  0
VERTEX
  5
3D1
330
3CE
100
AcDbEntity
  8
001
370
     9
100
AcDbVertex
100
AcDb2dVertex
 10
40.079782
 20
29.834309
 30
0.0
  0
VERTEX
  5
3D2
330
3CE
100
AcDbEntity
  8
001
370
     9
100
AcDbVertex
100
AcDb2dVertex
 10
38.579782
 20
29.432386
 30
0.0
  0
SEQEND
  5
3CF
330
3CE
100
AcDbEntity
  8
001
370
     9
  0
POLYLINE
  5
3D3
330
3C8
100
AcDbEntity
  8
001
370
     9
100
AcDb2dPolyline
 66
     1
 10
0.0
 20
0.0
 30
0.0
  0
VERTEX
  5
3D5
330
3D3
100
AcDbEntity
  8
001
370
     9
100
AcDbVertex
100
AcDb2dVertex
 10
49.09461
 20
29.432386
 30
0.0
  0
VERTEX
  5
3D6
330
3D3
100
AcDbEntity
  8
001
370
     9
100
AcDbVertex
100
AcDb2dVertex
 10
47.59461
 20
29.834309
 30
0.0
  0
VERTEX
  5
3D7
330
3D3
100
AcDbEntity
  8
001
370
     9
100
AcDbVertex
100
AcDb2dVertex
 10
49.09461
 20
30.236233
 30
0.0
  0
SEQEND
  5
3D4
330
3D3
100
AcDbEntity
  8
001
370
     9
  0
TEXT
  5
3D8
330
3C8
100
AcDbEntity
  8
001
370
    30
100
AcDbText
 10
16.579782
 20
30.834309
 30
0.0
 40
4.0
  1
（７．５）
 41
0.833333
100
AcDbText
  0
POINT
  5
3D9
330
3C8
100
AcDbEntity
  8
001
370
     9
100
AcDbPoint
 10
40.079782
 20
40.466579
 30
0.0
  0
POINT
  5
3DA
330
3C8
100
AcDbEntity
  8
001
370
     9
100
AcDbPoint
 10
47.59461
 20
45.952165
 30
0.0
  0
POINT
  5
3DB
330
3C8
100
AcDbEntity
  8
001
370
     9
100
AcDbPoint
 10
47.59461
 20
29.834309
 30
0.0
  0
LINE
  5
3DC
330
3C8
100
AcDbEntity
  8
001
370
     9
100
AcDbLine
 10
40.079782
 20
29.834309
 30
0.0
 11
13.579782
 21
29.834309
 31
0.0
  0
LINE
  5
3DD
330
3C8
100
AcDbEntity
  8
001
370
     9
100
AcDbLine
 10
47.59461
 20
29.834309
 30
0.0
 11
50.09461
 21
29.834309
 31
0.0
  0
ENDBLK
  5
3CA
330
3C8
100
AcDbEntity
  8
0
100
AcDbBlockEnd
  0
BLOCK
  5
3DF
330
3DE
100
AcDbEntity
  8
0
100
AcDbBlockBegin
  2
*D5
 70
     1
 10
0.0
 20
0.0
 30
0.0
  3
*D5
  1

  0
LINE
  5
3E1
330
3DE
100
AcDbEntity
  8
001
370
     9
100
AcDbLine
 10
46.990615
 20
46.334486
 30
0.0
 11
65.348582
 21
34.714138
 31
0.0
  0
LINE
  5
3E2
330
3DE
100
AcDbEntity
  8
001
370
     9
100
AcDbLine
 10
40.079782
 20
40.466579
 30
0.0
 11
40.079782
 21
20.803328
 31
0.0
  0
ARC
  5
3E3
330
3DE
100
AcDbEntity
  8
001
370
     9
100
AcDbCircle
 10
40.079782
 20
50.708952
 30
0.0
 40
27.15562325377579
100
AcDbArc
 50
270.0
 51
327.666735
  0
POLYLINE
  5
3E4
330
3DE
100
AcDbEntity
  8
001
370
     9
100
AcDb2dPolyline
 66
     1
 10
0.0
 20
0.0
 30
0.0
  0
VERTEX
  5
3E6
330
3E4
100
AcDbEntity
  8
001
370
     9
100
AcDbVertex
100
AcDb2dVertex
 10
64.137336
 20
37.268549
 30
0.0
  0
VERTEX
  5
3E7
330
3E4
100
AcDbEntity
  8
001
370
     9
100
AcDbVertex
100
AcDb2dVertex
 10
63.024965
 20
36.184957
 30
0.0
  0
VERTEX
  5
3E8
330
3E4
100
AcDbEntity
  8
001
370
     9
100
AcDbVertex
100
AcDb2dVertex
 10
63.446511
 20
37.679561
 30
0.0
  0
SEQEND
  5
3E5
330
3E4
100
AcDbEntity
  8
001
370
     9
  0
POLYLINE
  5
3E9
330
3DE
100
AcDbEntity
  8
001
370
     9
100
AcDb2dPolyline
 66
     1
 10
0.0
 20
0.0
 30
0.0
  0
VERTEX
  5
3EB
330
3E9
100
AcDbEntity
  8
001
370
     9
100
AcDbVertex
100
AcDb2dVertex
 10
38.591453
 20
23.996521
 30
0.0
  0
VERTEX
  5
3EC
330
3E9
100
AcDbEntity
  8
001
370
     9
100
AcDbVertex
100
AcDb2dVertex
 10
40.079782
 20
23.553328
 30
0.0
  0
VERTEX
  5
3ED
330
3E9
100
AcDbEntity
  8
001
370
     9
100
AcDbVertex
100
AcDb2dVertex
 10
38.569255
 20
23.19298
 30
0.0
  0
SEQEND
  5
3EA
330
3E9
100
AcDbEntity
  8
001
370
     9
  0
TEXT
  5
3EE
330
3DE
100
AcDbEntity
  8
001
370
    30
100
AcDbText
 10
62.924509
 20
38.055874
 30
0.0
 40
4.0
  1
５５%%d
 50
74.183108
 41
0.978261
100
AcDbText
  0
POINT
  5
3EF
330
3DE
100
AcDbEntity
  8
001
370
     9
100
AcDbPoint
 10
46.990615
 20
46.334486
 30
0.0
  0
POINT
  5
3F0
330
3DE
100
AcDbEntity
  8
001
370
     9
100
AcDbPoint
 10
40.079782
 20
50.708952
 30
0.0
  0
POINT
  5
3F1
330
3DE
100
AcDbEntity
  8
001
370
     9
100
AcDbPoint
 10
40.079782
 20
50.708952
 30
0.0
  0
POINT
  5
3F2
330
3DE
100
AcDbEntity
  8
001
370
     9
100
AcDbPoint
 10
40.079782
 20
40.466579
 30
0.0
  0
ARC
  5
3F3
330
3DE
100
AcDbEntity
  8
001
370
     9
100
AcDbCircle
 10
40.079782
 20
50.708952
 30
0.0
 40
27.15562325377579
100
AcDbArc
 50
264.725238
 51
270.0
  0
ARC
  5
3F4
330
3DE
100
AcDbEntity
  8
001
370
     9
100
AcDbCircle
 10
40.079782
 20
50.708952
 30
0.0
 40
27.15562325377579
100
AcDbArc
 50
327.666735
 51
357.312563
  0
ENDBLK
  5
3E0
330
3DE
100
AcDbEntity
  8
0
100
AcDbBlockEnd
  0
BLOCK
  5
3F6
330
3F5
100
AcDbEntity
  8
0
100
AcDbBlockBegin
  2
*D6
 70
     1
 10
0.0
 20
0.0
 30
0.0
  3
*D6
  1

  0
LINE
  5
3F8
330
3F5
100
AcDbEntity
  8
001
370
     9
100
AcDbLine
 10
40.079782
 20
40.466579
 30
0.0
 11
40.079782
 21
6.456971
 31
0.0
  0
LINE
  5
3F9
330
3F5
100
AcDbEntity
  8
001
370
     9
100
AcDbLine
 10
165.079782
 20
48.96034
 30
0.0
 11
165.079782
 21
6.456971
 31
0.0
  0
LINE
  5
3FA
330
3F5
100
AcDbEntity
  8
001
370
     9
100
AcDbLine
 10
40.079782
 20
9.206971
 30
0.0
 11
165.079782
 21
9.206971
 31
0.0
  0
POLYLINE
  5
3FB
330
3F5
100
AcDbEntity
  8
001
370
     9
100
AcDb2dPolyline
 66
     1
 10
0.0
 20
0.0
 30
0.0
  0
VERTEX
  5
3FD
330
3FB
100
AcDbEntity
  8
001
370
     9
100
AcDbVertex
100
AcDb2dVertex
 10
41.579782
 20
8.805047
 30
0.0
  0
VERTEX
  5
3FE
330
3FB
100
AcDbEntity
  8
001
370
     9
100
AcDbVertex
100
AcDb2dVertex
 10
40.079782
 20
9.206971
 30
0.0
  0
VERTEX
  5
3FF
330
3FB
100
AcDbEntity
  8
001
370
     9
100
AcDbVertex
100
AcDb2dVertex
 10
41.579782
 20
9.608894
 30
0.0
  0
SEQEND
  5
3FC
330
3FB
100
AcDbEntity
  8
001
370
     9
  0
POLYLINE
  5
400
330
3F5
100
AcDbEntity
  8
001
370
     9
100
AcDb2dPolyline
 66
     1
 10
0.0
 20
0.0
 30
0.0
  0
VERTEX
  5
402
330
400
100
AcDbEntity
  8
001
370
     9
100
AcDbVertex
100
AcDb2dVertex
 10
163.579782
 20
9.608894
 30
0.0
  0
VERTEX
  5
403
330
400
100
AcDbEntity
  8
001
370
     9
100
AcDbVertex
100
AcDb2dVertex
 10
165.079782
 20
9.206971
 30
0.0
  0
VERTEX
  5
404
330
400
100
AcDbEntity
  8
001
370
     9
100
AcDbVertex
100
AcDb2dVertex
 10
163.579782
 20
8.805047
 30
0.0
  0
SEQEND
  5
401
330
400
100
AcDbEntity
  8
001
370
     9
  0
TEXT
  5
405
330
3F5
100
AcDbEntity
  8
001
370
    30
100
AcDbText
 10
96.579782
 20
10.206971
 30
0.0
 40
4.0
  1
１２５
 41
0.833333
100
AcDbText
  0
POINT
  5
406
330
3F5
100
AcDbEntity
  8
001
370
     9
100
AcDbPoint
 10
40.079782
 20
40.466579
 30
0.0
  0
POINT
  5
407
330
3F5
100
AcDbEntity
  8
001
370
     9
100
AcDbPoint
 10
165.079782
 20
48.96034
 30
0.0
  0
POINT
  5
408
330
3F5
100
AcDbEntity
  8
001
370
     9
100
AcDbPoint
 10
165.079782
 20
9.206971
 30
0.0
  0
ENDBLK
  5
3F7
330
3F5
100
AcDbEntity
  8
0
100
AcDbBlockEnd
  0
BLOCK
  5
40A
330
409
100
AcDbEntity
  8
0
100
AcDbBlockBegin
  2
*D7
 70
     1
 10
0.0
 20
0.0
 30
0.0
  3
*D7
  1

  0
LINE
  5
40C
330
409
100
AcDbEntity
  8
001
370
     9
100
AcDbLine
 10
165.079782
 20
48.96034
 30
0.0
 11
165.079782
 21
17.127989
 31
0.0
  0
LINE
  5
40D
330
409
100
AcDbEntity
  8
001
370
     9
100
AcDbLine
 10
70.079782
 20
45.26034
 30
0.0
 11
70.079782
 21
17.127989
 31
0.0
  0
LINE
  5
40E
330
409
100
AcDbEntity
  8
001
370
     9
100
AcDbLine
 10
165.079782
 20
19.877989
 30
0.0
 11
70.079782
 21
19.877989
 31
0.0
  0
POLYLINE
  5
40F
330
409
100
AcDbEntity
  8
001
370
     9
100
AcDb2dPolyline
 66
     1
 10
0.0
 20
0.0
 30
0.0
  0
VERTEX
  5
411
330
40F
100
AcDbEntity
  8
001
370
     9
100
AcDbVertex
100
AcDb2dVertex
 10
163.579782
 20
20.279912
 30
0.0
  0
VERTEX
  5
412
330
40F
100
AcDbEntity
  8
001
370
     9
100
AcDbVertex
100
AcDb2dVertex
 10
165.079782
 20
19.877989
 30
0.0
  0
VERTEX
  5
413
330
40F
100
AcDbEntity
  8
001
370
     9
100
AcDbVertex
100
AcDb2dVertex
 10
163.579782
 20
19.476065
 30
0.0
  0
SEQEND
  5
410
330
40F
100
AcDbEntity
  8
001
370
     9
  0
POLYLINE
  5
414
330
409
100
AcDbEntity
  8
001
370
     9
100
AcDb2dPolyline
 66
     1
 10
0.0
 20
0.0
 30
0.0
  0
VERTEX
  5
416
330
414
100
AcDbEntity
  8
001
370
     9
100
AcDbVertex
100
AcDb2dVertex
 10
71.579782
 20
19.476065
 30
0.0
  0
VERTEX
  5
417
330
414
100
AcDbEntity
  8
001
370
     9
100
AcDbVertex
100
AcDb2dVertex
 10
70.079782
 20
19.877989
 30
0.0
  0
VERTEX
  5
418
330
414
100
AcDbEntity
  8
001
370
     9
100
AcDbVertex
100
AcDb2dVertex
 10
71.579782
 20
20.279912
 30
0.0
  0
SEQEND
  5
415
330
414
100
AcDbEntity
  8
001
370
     9
  0
TEXT
  5
419
330
409
100
AcDbEntity
  8
001
370
    30
100
AcDbText
 10
113.579782
 20
20.877989
 30
0.0
 40
4.0
  1
９５
 41
0.833333
100
AcDbText
  0
POINT
  5
41A
330
409
100
AcDbEntity
  8
001
370
     9
100
AcDbPoint
 10
165.079782
 20
48.96034
 30
0.0
  0
POINT
  5
41B
330
409
100
AcDbEntity
  8
001
370
     9
100
AcDbPoint
 10
70.079782
 20
45.26034
 30
0.0
  0
POINT
  5
41C
330
409
100
AcDbEntity
  8
001
370
     9
100
AcDbPoint
 10
70.079782
 20
19.877989
 30
0.0
  0
ENDBLK
  5
40B
330
409
100
AcDbEntity
  8
0
100
AcDbBlockEnd
  0
BLOCK
  5
41E
330
41D
100
AcDbEntity
  8
0
100
AcDbBlockBegin
  2
*D8
 70
     1
 10
0.0
 20
0.0
 30
0.0
  3
*D8
  1

  0
LINE
  5
420
330
41D
100
AcDbEntity
  8
001
370
     9
100
AcDbLine
 10
159.079782
 20
62.96034
 30
0.0
 11
190.485672
 21
62.96034
 31
0.0
  0
LINE
  5
421
330
41D
100
AcDbEntity
  8
001
370
     9
100
AcDbLine
 10
159.079782
 20
42.96034
 30
0.0
 11
190.485672
 21
42.96034
 31
0.0
  0
LINE
  5
422
330
41D
100
AcDbEntity
  8
001
370
     9
100
AcDbLine
 10
187.735672
 20
62.96034
 30
0.0
 11
187.735672
 21
42.96034
 31
0.0
  0
POLYLINE
  5
423
330
41D
100
AcDbEntity
  8
001
370
     9
100
AcDb2dPolyline
 66
     1
 10
0.0
 20
0.0
 30
0.0
  0
VERTEX
  5
425
330
423
100
AcDbEntity
  8
001
370
     9
100
AcDbVertex
100
AcDb2dVertex
 10
187.333748
 20
61.46034
 30
0.0
  0
VERTEX
  5
426
330
423
100
AcDbEntity
  8
001
370
     9
100
AcDbVertex
100
AcDb2dVertex
 10
187.735672
 20
62.96034
 30
0.0
  0
VERTEX
  5
427
330
423
100
AcDbEntity
  8
001
370
     9
100
AcDbVertex
100
AcDb2dVertex
 10
188.137596
 20
61.46034
 30
0.0
  0
SEQEND
  5
424
330
423
100
AcDbEntity
  8
001
370
     9
  0
POLYLINE
  5
428
330
41D
100
AcDbEntity
  8
001
370
     9
100
AcDb2dPolyline
 66
     1
 10
0.0
 20
0.0
 30
0.0
  0
VERTEX
  5
42A
330
428
100
AcDbEntity
  8
001
370
     9
100
AcDbVertex
100
AcDb2dVertex
 10
188.137596
 20
44.46034
 30
0.0
  0
VERTEX
  5
42B
330
428
100
AcDbEntity
  8
001
370
     9
100
AcDbVertex
100
AcDb2dVertex
 10
187.735672
 20
42.96034
 30
0.0
  0
VERTEX
  5
42C
330
428
100
AcDbEntity
  8
001
370
     9
100
AcDbVertex
100
AcDb2dVertex
 10
187.333748
 20
44.46034
 30
0.0
  0
SEQEND
  5
429
330
428
100
AcDbEntity
  8
001
370
     9
  0
TEXT
  5
42D
330
41D
100
AcDbEntity
  8
001
370
    30
100
AcDbText
 10
186.735672
 20
27.46034
 30
0.0
 40
4.0
  1
%%c２０
 50
90.000003
 41
0.882353
100
AcDbText
  0
POINT
  5
42E
330
41D
100
AcDbEntity
  8
001
370
     9
100
AcDbPoint
 10
159.079782
 20
62.96034
 30
0.0
  0
POINT
  5
42F
330
41D
100
AcDbEntity
  8
001
370
     9
100
AcDbPoint
 10
159.079782
 20
42.96034
 30
0.0
  0
POINT
  5
430
330
41D
100
AcDbEntity
  8
001
370
     9
100
AcDbPoint
 10
187.735672
 20
42.96034
 30
0.0
  0
LINE
  5
431
330
41D
100
AcDbEntity
  8
001
370
     9
100
AcDbLine
 10
187.735672
 20
42.96034
 30
0.0
 11
187.735672
 21
24.46034
 31
0.0
  0
ENDBLK
  5
41F
330
41D
100
AcDbEntity
  8
0
100
AcDbBlockEnd
  0
ENDSEC
  0
SECTION
  2
ENTITIES
  0
INSERT
  5
432
330
1F
100
AcDbEntity
  8
001
  6
ByBlock
 62
     0
370
    -2
100
AcDbBlockReference
  2
C32GUX-1
 10
0.0
 20
0.0
 30
0.0
  0
INSERT
  5
433
330
1F
100
AcDbEntity
  8
001
  6
ByBlock
 62
     0
370
    -2
100
AcDbBlockReference
  2
M-1-2
 10
0.0
 20
0.0
 30
0.0
  0
DIMENSION
  5
434
330
1F
100
AcDbEntity
  8
001
370
     9
100
AcDbDimension
  2
*D3
 10
40.079782
 20
19.877989
 30
0.0
 11
58.828884
 21
22.877989
 31
0.0
 70
   160
 71
     5
 42
-1.0
  3
Standard
100
AcDbAlignedDimension
 13
70.079782
 23
45.96034
 33
0.0
 14
40.079782
 24
40.466579
 34
0.0
 50
180.0
100
AcDbRotatedDimension
  0
DIMENSION
  5
435
330
1F
100
AcDbEntity
  8
001
370
     9
100
AcDbDimension
  2
*D4
 10
47.59461
 20
29.834309
 30
0.0
 11
26.579782
 21
32.834309
 31
0.0
 70
   160
 71
     5
 42
-1.0
  3
Standard
100
AcDbAlignedDimension
 13
40.079782
 23
40.466579
 33
0.0
 14
47.59461
 24
45.952165
 34
0.0
 50
360.0
100
AcDbRotatedDimension
  0
TEXT
  5
436
330
1F
100
AcDbEntity
  8
001
370
    30
100
AcDbText
 10
22.584515
 20
52.389421
 30
0.0
 40
4.0
  1
%%c４．９８
 50
90.000003
 41
0.862069
100
AcDbText
  0
POLYLINE
  5
437
330
1F
100
AcDbEntity
  8
001
370
     9
100
AcDb2dPolyline
 66
     1
 10
0.0
 20
0.0
 30
0.0
  0
VERTEX
  5
439
330
437
100
AcDbEntity
  8
001
370
     9
100
AcDbVertex
100
AcDb2dVertex
 10
24.538943
 20
52.208952
 30
0.0
  0
VERTEX
  5
43A
330
437
100
AcDbEntity
  8
001
370
     9
100
AcDbVertex
100
AcDb2dVertex
 10
24.137019
 20
50.708952
 30
0.0
  0
VERTEX
  5
43B
330
437
100
AcDbEntity
  8
001
370
     9
100
AcDbVertex
100
AcDb2dVertex
 10
23.735095
 20
52.208952
 30
0.0
  0
SEQEND
  5
438
330
437
100
AcDbEntity
  8
001
370
     9
  0
LINE
  5
43C
330
1F
100
AcDbEntity
  8
001
370
     9
100
AcDbLine
 10
24.137019
 20
55.689907
 30
0.0
 11
24.137019
 21
50.708952
 31
0.0
  0
POLYLINE
  5
43D
330
1F
100
AcDbEntity
  8
001
370
     9
100
AcDb2dPolyline
 66
     1
 10
0.0
 20
0.0
 30
0.0
  0
VERTEX
  5
43F
330
43D
100
AcDbEntity
  8
001
370
     9
100
AcDbVertex
100
AcDb2dVertex
 10
40.079782
 20
50.708952
 30
0.0
  0
VERTEX
  5
440
330
43D
100
AcDbEntity
  8
001
370
     9
100
AcDbVertex
100
AcDb2dVertex
 10
24.137019
 20
50.708952
 30
0.0
  0
VERTEX
  5
441
330
43D
100
AcDbEntity
  8
001
370
     9
100
AcDbVertex
100
AcDb2dVertex
 10
21.387019
 20
50.708952
 30
0.0
  0
SEQEND
  5
43E
330
43D
100
AcDbEntity
  8
001
370
     9
  0
DIMENSION
  5
442
330
1F
100
AcDbEntity
  8
001
370
     9
100
AcDbDimension
  2
*D5
 10
40.079782
 20
50.708952
 30
0.0
 11
62.635617
 21
44.373828
 31
0.0
 70
    34
 71
     5
 42
-1.0
  3
Standard
100
AcDb2LineAngularDimension
 13
46.990615
 23
46.334486
 33
0.0
 14
40.079782
 24
50.708952
 34
0.0
 15
40.079782
 25
40.466579
 35
0.0
 16
53.175959
 26
26.91992
 36
0.0
  0
DIMENSION
  5
443
330
1F
100
AcDbEntity
  8
001
370
     9
100
AcDbDimension
  2
*D6
 10
165.079782
 20
9.206971
 30
0.0
 11
102.579782
 21
12.206971
 31
0.0
 70
   160
 71
     5
 42
-1.0
  3
Standard
100
AcDbAlignedDimension
 13
40.079782
 23
40.466579
 33
0.0
 14
165.079782
 24
48.96034
 34
0.0
100
AcDbRotatedDimension
  0
DIMENSION
  5
444
330
1F
100
AcDbEntity
  8
001
370
     9
100
AcDbDimension
  2
*D7
 10
70.079782
 20
19.877989
 30
0.0
 11
117.579782
 21
22.877989
 31
0.0
 70
   160
 71
     5
 42
-1.0
  3
Standard
100
AcDbAlignedDimension
 13
165.079782
 23
48.96034
 33
0.0
 14
70.079782
 24
45.26034
 34
0.0
 50
180.0
100
AcDbRotatedDimension
  0
TEXT
  5
445
330
1F
100
AcDbEntity
  8
001
370
    30
100
AcDbText
 10
13.557835
 20
48.371061
 30
0.0
 40
4.0
  1
%%c１５．２４
 50
90.000003
 41
0.857143
100
AcDbText
  0
POLYLINE
  5
446
330
1F
100
AcDbEntity
  8
001
370
     9
100
AcDb2dPolyline
 66
     1
 10
0.0
 20
0.0
 30
0.0
  0
VERTEX
  5
448
330
446
100
AcDbEntity
  8
001
370
     9
100
AcDbVertex
100
AcDb2dVertex
 10
14.959758
 20
47.452165
 30
0.0
  0
VERTEX
  5
449
330
446
100
AcDbEntity
  8
001
370
     9
100
AcDbVertex
100
AcDb2dVertex
 10
14.557835
 20
45.952165
 30
0.0
  0
VERTEX
  5
44A
330
446
100
AcDbEntity
  8
001
370
     9
100
AcDbVertex
100
AcDb2dVertex
 10
14.155911
 20
47.452165
 30
0.0
  0
SEQEND
  5
447
330
446
100
AcDbEntity
  8
001
370
     9
  0
LINE
  5
44B
330
1F
100
AcDbEntity
  8
001
370
     9
100
AcDbLine
 10
14.557835
 20
61.188763
 30
0.0
 11
14.557835
 21
45.952165
 31
0.0
  0
POLYLINE
  5
44C
330
1F
100
AcDbEntity
  8
001
370
     9
100
AcDb2dPolyline
 66
     1
 10
0.0
 20
0.0
 30
0.0
  0
VERTEX
  5
44E
330
44C
100
AcDbEntity
  8
001
370
     9
100
AcDbVertex
100
AcDb2dVertex
 10
46.681243
 20
45.952165
 30
0.0
  0
VERTEX
  5
44F
330
44C
100
AcDbEntity
  8
001
370
     9
100
AcDbVertex
100
AcDb2dVertex
 10
14.557835
 20
45.952165
 30
0.0
  0
VERTEX
  5
450
330
44C
100
AcDbEntity
  8
001
370
     9
100
AcDbVertex
100
AcDb2dVertex
 10
11.807835
 20
45.952165
 30
0.0
  0
SEQEND
  5
44D
330
44C
100
AcDbEntity
  8
001
370
     9
  0
DIMENSION
  5
451
330
1F
100
AcDbEntity
  8
001
370
     9
100
AcDbDimension
  2
*D8
 10
187.735672
 20
42.96034
 30
0.0
 11
184.735672
 21
33.46034
 31
0.0
 70
   160
 71
     5
 42
-1.0
  3
Standard
100
AcDbAlignedDimension
 13
159.079782
 23
62.96034
 33
0.0
 14
159.079782
 24
42.96034
 34
0.0
 50
270.0
100
AcDbRotatedDimension
  0
TEXT
  5
452
330
1F
100
AcDbEntity
  8
001
370
    30
100
AcDbText
 10
29.310017
 20
92.501558
 30
0.0
 40
8.0
  1
面取りカッター面面　ＳＮＫ５５１４Ｃ
 41
0.833333
100
AcDbText
  0
LINE
  5
453
330
1F
100
AcDbEntity
  8
001
370
    50
100
AcDbLine
 10
165.079782
 20
52.96034
 30
0.0
 11
168.858689
 21
55.142093
 31
0.0
  0
LINE
  5
454
330
1F
100
AcDbEntity
  8
001
370
    50
100
AcDbLine
 10
165.079782
 20
52.96034
 30
0.0
 11
168.858689
 21
50.778587
 31
0.0
  0
LINE
  5
455
330
1F
100
AcDbEntity
  8
001
  6
CENTER
 62
   253
370
     9
100
AcDbLine
 10
36.931512
 20
52.96034
 30
0.0
 11
176.737584
 21
52.96034
 31
0.0
  0
LINE
  5
456
330
1F
100
AcDbEntity
  8
001
 62
   253
370
    50
100
AcDbLine
 10
159.079782
 20
62.96034
 30
0.0
 11
73.079782
 21
62.96034
 31
0.0
  0
LINE
  5
457
330
1F
100
AcDbEntity
  8
001
 62
   253
370
    50
100
AcDbLine
 10
159.079782
 20
42.96034
 30
0.0
 11
73.079782
 21
42.96034
 31
0.0
  0
LINE
  5
458
330
1F
100
AcDbEntity
  8
001
 62
   253
370
    50
100
AcDbLine
 10
73.079782
 20
62.96034
 30
0.0
 11
73.079782
 21
42.96034
 31
0.0
  0
ARC
  5
459
330
1F
100
AcDbEntity
  8
001
 62
   253
370
    50
100
AcDbCircle
 10
159.079782
 20
56.96034
 30
0.0
 40
6.0
100
AcDbArc
 50
0.0
 51
90.0
  0
ARC
  5
45A
330
1F
100
AcDbEntity
  8
001
 62
   253
370
    50
100
AcDbCircle
 10
159.079782
 20
48.96034
 30
0.0
 40
6.0
100
AcDbArc
 50
270.0
 51
0.0
  0
LINE
  5
45B
330
1F
100
AcDbEntity
  8
001
 62
   253
370
    50
100
AcDbLine
 10
165.079782
 20
56.96034
 30
0.0
 11
165.079782
 21
48.96034
 31
0.0
  0
LINE
  5
45C
330
1F
100
AcDbEntity
  8
001
 62
   253
370
    50
100
AcDbLine
 10
73.079782
 20
62.96034
 30
0.0
 11
70.079782
 21
59.96034
 31
0.0
  0
LINE
  5
45D
330
1F
100
AcDbEntity
  8
001
 62
   253
370
    50
100
AcDbLine
 10
70.079782
 20
45.96034
 30
0.0
 11
73.079782
 21
42.96034
 31
0.0
  0
LINE
  5
45E
330
1F
100
AcDbEntity
  8
001
 62
   253
370
    50
100
AcDbLine
 10
70.079782
 20
59.96034
 30
0.0
 11
70.079782
 21
45.96034
 31
0.0
  0
LINE
  5
45F
330
1F
100
AcDbEntity
  8
001
 62
   253
370
    50
100
AcDbLine
 10
48.875431
 20
59.96034
 30
0.0
 11
48.875431
 21
59.028803
 31
0.0
  0
LINE
  5
460
330
1F
100
AcDbEntity
  8
001
 62
   253
370
    50
100
AcDbLine
 10
70.079782
 20
59.96034
 30
0.0
 11
48.875431
 21
59.96034
 31
0.0
  0
LINE
  5
461
330
1F
100
AcDbEntity
  8
001
 62
   253
370
    50
100
AcDbLine
 10
48.875431
 20
45.96034
 30
0.0
 11
70.079782
 21
45.96034
 31
0.0
  0
POLYLINE
  5
462
330
1F
100
AcDbEntity
  8
001
 62
   253
370
    50
100
AcDb2dPolyline
 66
     1
 10
0.0
 20
0.0
 30
0.0
  0
VERTEX
  5
464
330
462
100
AcDbEntity
  8
001
 62
   253
370
    50
100
AcDbVertex
100
AcDb2dVertex
 10
54.079782
 20
48.109881
 30
0.0
  0
VERTEX
  5
465
330
462
100
AcDbEntity
  8
001
 62
   253
370
    50
100
AcDbVertex
100
AcDb2dVertex
 10
54.327741
 20
48.665813
 30
0.0
  0
VERTEX
  5
466
330
462
100
AcDbEntity
  8
001
 62
   253
370
    50
100
AcDbVertex
100
AcDb2dVertex
 10
54.627137
 20
49.46034
 30
0.0
  0
VERTEX
  5
467
330
462
100
AcDbEntity
  8
001
 62
   253
370
    50
100
AcDbVertex
100
AcDb2dVertex
 10
54.93552
 20
50.640804
 30
0.0
  0
VERTEX
  5
468
330
462
100
AcDbEntity
  8
001
 62
   253
370
    50
100
AcDbVertex
100
AcDb2dVertex
 10
55.075482
 20
51.744803
 30
0.0
  0
VERTEX
  5
469
330
462
100
AcDbEntity
  8
001
 62
   253
370
    50
100
AcDbVertex
100
AcDb2dVertex
 10
55.116606
 20
52.345411
 30
0.0
  0
VERTEX
  5
46A
330
462
100
AcDbEntity
  8
001
 62
   253
370
    50
100
AcDbVertex
100
AcDb2dVertex
 10
55.132825
 20
52.96034
 30
0.0
  0
VERTEX
  5
46B
330
462
100
AcDbEntity
  8
001
 62
   253
370
    50
100
AcDbVertex
100
AcDb2dVertex
 10
55.116606
 20
53.575269
 30
0.0
  0
VERTEX
  5
46C
330
462
100
AcDbEntity
  8
001
 62
   253
370
    50
100
AcDbVertex
100
AcDb2dVertex
 10
55.075482
 20
54.175878
 30
0.0
  0
VERTEX
  5
46D
330
462
100
AcDbEntity
  8
001
 62
   253
370
    50
100
AcDbVertex
100
AcDb2dVertex
 10
54.93552
 20
55.279877
 30
0.0
  0
VERTEX
  5
46E
330
462
100
AcDbEntity
  8
001
 62
   253
370
    50
100
AcDbVertex
100
AcDb2dVertex
 10
54.627137
 20
56.46034
 30
0.0
  0
VERTEX
  5
46F
330
462
100
AcDbEntity
  8
001
 62
   253
370
    50
100
AcDbVertex
100
AcDb2dVertex
 10
54.327741
 20
57.254867
 30
0.0
  0
VERTEX
  5
470
330
462
100
AcDbEntity
  8
001
 62
   253
370
    50
100
AcDbVertex
100
AcDb2dVertex
 10
54.079782
 20
57.8108
 30
0.0
  0
SEQEND
  5
463
330
462
100
AcDbEntity
  8
001
370
    50
  0
POLYLINE
  5
471
330
1F
100
AcDbEntity
  8
001
 62
   253
370
    50
100
AcDb2dPolyline
 66
     1
 10
0.0
 20
0.0
 30
0.0
  0
VERTEX
  5
473
330
471
100
AcDbEntity
  8
001
 62
   253
370
    50
100
AcDbVertex
100
AcDb2dVertex
 10
54.079782
 20
57.8108
 30
0.0
  0
VERTEX
  5
474
330
471
100
AcDbEntity
  8
001
 62
   253
370
    50
100
AcDbVertex
100
AcDb2dVertex
 10
51.996345
 20
58.374042
 30
0.0
  0
VERTEX
  5
475
330
471
100
AcDbEntity
  8
001
 62
   253
370
    50
100
AcDbVertex
100
AcDb2dVertex
 10
48.911872
 20
59.022518
 30
0.0
  0
VERTEX
  5
476
330
471
100
AcDbEntity
  8
001
 62
   253
370
    50
100
AcDbVertex
100
AcDb2dVertex
 10
48.890235
 20
59.026253
 30
0.0
  0
VERTEX
  5
477
330
471
100
AcDbEntity
  8
001
 62
   253
370
    50
100
AcDbVertex
100
AcDb2dVertex
 10
48.875431
 20
59.028803
 30
0.0
  0
SEQEND
  5
472
330
471
100
AcDbEntity
  8
001
370
    50
  0
LINE
  5
478
330
1F
100
AcDbEntity
  8
001
 62
   253
370
    50
100
AcDbLine
 10
48.875431
 20
46.722277
 30
0.0
 11
48.875431
 21
45.96034
 31
0.0
  0
POLYLINE
  5
479
330
1F
100
AcDbEntity
  8
001
 62
   253
370
    50
100
AcDb2dPolyline
 66
     1
 10
0.0
 20
0.0
 30
0.0
  0
VERTEX
  5
47B
330
479
100
AcDbEntity
  8
001
 62
   253
370
    50
100
AcDbVertex
100
AcDb2dVertex
 10
48.875431
 20
46.722277
 30
0.0
  0
VERTEX
  5
47C
330
479
100
AcDbEntity
  8
001
 62
   253
370
    50
100
AcDbVertex
100
AcDb2dVertex
 10
49.315602
 20
46.791326
 30
0.0
  0
VERTEX
  5
47D
330
479
100
AcDbEntity
  8
001
 62
   253
370
    50
100
AcDbVertex
100
AcDb2dVertex
 10
49.957942
 20
46.898163
 30
0.0
  0
VERTEX
  5
47E
330
479
100
AcDbEntity
  8
001
 62
   253
370
    50
100
AcDbVertex
100
AcDb2dVertex
 10
50.796374
 20
47.050753
 30
0.0
  0
VERTEX
  5
47F
330
479
100
AcDbEntity
  8
001
 62
   253
370
    50
100
AcDbVertex
100
AcDb2dVertex
 10
51.3687
 20
47.162467
 30
0.0
  0
SEQEND
  5
47A
330
479
100
AcDbEntity
  8
001
370
    50
  0
POLYLINE
  5
480
330
1F
100
AcDbEntity
  8
001
 62
   253
370
    50
100
AcDb2dPolyline
 66
     1
 10
0.0
 20
0.0
 30
0.0
  0
VERTEX
  5
482
330
480
100
AcDbEntity
  8
001
 62
   253
370
    50
100
AcDbVertex
100
AcDb2dVertex
 10
51.04278
 20
47.31431
 30
0.0
  0
VERTEX
  5
483
330
480
100
AcDbEntity
  8
001
 62
   253
370
    50
100
AcDbVertex
100
AcDb2dVertex
 10
51.10958
 20
47.283001
 30
0.0
  0
VERTEX
  5
484
330
480
100
AcDbEntity
  8
001
 62
   253
370
    50
100
AcDbVertex
100
AcDb2dVertex
 10
51.207273
 20
47.237374
 30
0.0
  0
VERTEX
  5
485
330
480
100
AcDbEntity
  8
001
 62
   253
370
    50
100
AcDbVertex
100
AcDb2dVertex
 10
51.303095
 20
47.192844
 30
0.0
  0
VERTEX
  5
486
330
480
100
AcDbEntity
  8
001
 62
   253
370
    50
100
AcDbVertex
100
AcDb2dVertex
 10
51.3687
 20
47.162467
 30
0.0
  0
SEQEND
  5
481
330
480
100
AcDbEntity
  8
001
370
    50
  0
POLYLINE
  5
487
330
1F
100
AcDbEntity
  8
001
 62
   253
370
    50
100
AcDb2dPolyline
 66
     1
 10
0.0
 20
0.0
 30
0.0
  0
VERTEX
  5
489
330
487
100
AcDbEntity
  8
001
 62
   253
370
    50
100
AcDbVertex
100
AcDb2dVertex
 10
51.04278
 20
47.31431
 30
0.0
  0
VERTEX
  5
48A
330
487
100
AcDbEntity
  8
001
 62
   253
370
    50
100
AcDbVertex
100
AcDb2dVertex
 10
51.684799
 20
47.460718
 30
0.0
  0
VERTEX
  5
48B
330
487
100
AcDbEntity
  8
001
 62
   253
370
    50
100
AcDbVertex
100
AcDb2dVertex
 10
52.61872
 20
47.692445
 30
0.0
  0
VERTEX
  5
48C
330
487
100
AcDbEntity
  8
001
 62
   253
370
    50
100
AcDbVertex
100
AcDb2dVertex
 10
53.488184
 20
47.933268
 30
0.0
  0
VERTEX
  5
48D
330
487
100
AcDbEntity
  8
001
 62
   253
370
    50
100
AcDbVertex
100
AcDb2dVertex
 10
54.079782
 20
48.109881
 30
0.0
  0
SEQEND
  5
488
330
487
100
AcDbEntity
  8
001
370
    50
  0
LINE
  5
48E
330
1F
100
AcDbEntity
  8
001
 62
   253
370
    50
100
AcDbLine
 10
54.079782
 20
51.705026
 30
0.0
 11
54.079782
 21
48.109881
 31
0.0
  0
POLYLINE
  5
48F
330
1F
100
AcDbEntity
  8
001
 62
   253
370
    50
100
AcDb2dPolyline
 66
     1
 10
0.0
 20
0.0
 30
0.0
  0
VERTEX
  5
491
330
48F
100
AcDbEntity
  8
001
 62
   253
370
    50
100
AcDbVertex
100
AcDb2dVertex
 10
54.079782
 20
51.705026
 30
0.0
  0
VERTEX
  5
492
330
48F
100
AcDbEntity
  8
001
 62
   253
370
    50
100
AcDbVertex
100
AcDb2dVertex
 10
54.16406
 20
52.008796
 30
0.0
  0
VERTEX
  5
493
330
48F
100
AcDbEntity
  8
001
 62
   253
370
    50
100
AcDbVertex
100
AcDb2dVertex
 10
54.24514
 20
52.428858
 30
0.0
  0
VERTEX
  5
494
330
48F
100
AcDbEntity
  8
001
 62
   253
370
    50
100
AcDbVertex
100
AcDb2dVertex
 10
54.265946
 20
52.654075
 30
0.0
  0
VERTEX
  5
495
330
48F
100
AcDbEntity
  8
001
 62
   253
370
    50
100
AcDbVertex
100
AcDb2dVertex
 10
54.270633
 20
52.862978
 30
0.0
  0
VERTEX
  5
496
330
48F
100
AcDbEntity
  8
001
 62
   253
370
    50
100
AcDbVertex
100
AcDb2dVertex
 10
54.265946
 20
53.071882
 30
0.0
  0
VERTEX
  5
497
330
48F
100
AcDbEntity
  8
001
 62
   253
370
    50
100
AcDbVertex
100
AcDb2dVertex
 10
54.24514
 20
53.297099
 30
0.0
  0
VERTEX
  5
498
330
48F
100
AcDbEntity
  8
001
 62
   253
370
    50
100
AcDbVertex
100
AcDb2dVertex
 10
54.16406
 20
53.717161
 30
0.0
  0
VERTEX
  5
499
330
48F
100
AcDbEntity
  8
001
 62
   253
370
    50
100
AcDbVertex
100
AcDb2dVertex
 10
54.079782
 20
54.020931
 30
0.0
  0
SEQEND
  5
490
330
48F
100
AcDbEntity
  8
001
370
    50
  0
LINE
  5
49A
330
1F
100
AcDbEntity
  8
001
 62
   253
370
    50
100
AcDbLine
 10
54.079782
 20
57.8108
 30
0.0
 11
54.079782
 21
54.020931
 31
0.0
  0
POLYLINE
  5
49B
330
1F
100
AcDbEntity
  8
001
 62
   253
370
    50
100
AcDb2dPolyline
 66
     1
 10
0.0
 20
0.0
 30
0.0
  0
VERTEX
  5
49D
330
49B
100
AcDbEntity
  8
001
 62
   253
370
    50
100
AcDbVertex
100
AcDb2dVertex
 10
54.079782
 20
54.020931
 30
0.0
  0
VERTEX
  5
49E
330
49B
100
AcDbEntity
  8
001
 62
   253
370
    50
100
AcDbVertex
100
AcDb2dVertex
 10
54.060289
 20
54.058679
 30
0.0
  0
VERTEX
  5
49F
330
49B
100
AcDbEntity
  8
001
 62
   253
370
    50
100
AcDbVertex
100
AcDb2dVertex
 10
54.031311
 20
54.112978
 30
0.0
  0
VERTEX
  5
4A0
330
49B
100
AcDbEntity
  8
001
 62
   253
370
    50
100
AcDbVertex
100
AcDb2dVertex
 10
53.635867
 20
54.664229
 30
0.0
  0
VERTEX
  5
4A1
330
49B
100
AcDbEntity
  8
001
 62
   253
370
    50
100
AcDbVertex
100
AcDb2dVertex
 10
53.154686
 20
55.028042
 30
0.0
  0
VERTEX
  5
4A2
330
49B
100
AcDbEntity
  8
001
 62
   253
370
    50
100
AcDbVertex
100
AcDb2dVertex
 10
52.967762
 20
55.126939
 30
0.0
  0
VERTEX
  5
4A3
330
49B
100
AcDbEntity
  8
001
 62
   253
370
    50
100
AcDbVertex
100
AcDb2dVertex
 10
52.776326
 20
55.21221
 30
0.0
  0
VERTEX
  5
4A4
330
49B
100
AcDbEntity
  8
001
 62
   253
370
    50
100
AcDbVertex
100
AcDb2dVertex
 10
52.586046
 20
55.278166
 30
0.0
  0
VERTEX
  5
4A5
330
49B
100
AcDbEntity
  8
001
 62
   253
370
    50
100
AcDbVertex
100
AcDb2dVertex
 10
52.373078
 20
55.324998
 30
0.0
  0
VERTEX
  5
4A6
330
49B
100
AcDbEntity
  8
001
 62
   253
370
    50
100
AcDbVertex
100
AcDb2dVertex
 10
52.132832
 20
55.353364
 30
0.0
  0
VERTEX
  5
4A7
330
49B
100
AcDbEntity
  8
001
 62
   253
370
    50
100
AcDbVertex
100
AcDb2dVertex
 10
51.957193
 20
55.362978
 30
0.0
  0
SEQEND
  5
49C
330
49B
100
AcDbEntity
  8
001
370
    50
  0
POLYLINE
  5
4A8
330
1F
100
AcDbEntity
  8
001
 62
   253
370
    50
100
AcDb2dPolyline
 66
     1
 10
0.0
 20
0.0
 30
0.0
  0
VERTEX
  5
4AA
330
4A8
100
AcDbEntity
  8
001
 62
   253
370
    50
100
AcDbVertex
100
AcDb2dVertex
 10
51.529519
 20
50.403161
 30
0.0
  0
VERTEX
  5
4AB
330
4A8
100
AcDbEntity
  8
001
 62
   253
370
    50
100
AcDbVertex
100
AcDb2dVertex
 10
51.534307
 20
50.40226
 30
0.0
  0
VERTEX
  5
4AC
330
4A8
100
AcDbEntity
  8
001
 62
   253
370
    50
100
AcDbVertex
100
AcDb2dVertex
 10
51.541308
 20
50.400959
 30
0.0
  0
VERTEX
  5
4AD
330
4A8
100
AcDbEntity
  8
001
 62
   253
370
    50
100
AcDbVertex
100
AcDb2dVertex
 10
51.787321
 20
50.370158
 30
0.0
  0
VERTEX
  5
4AE
330
4A8
100
AcDbEntity
  8
001
 62
   253
370
    50
100
AcDbVertex
100
AcDb2dVertex
 10
51.957193
 20
50.362978
 30
0.0
  0
SEQEND
  5
4A9
330
4A8
100
AcDbEntity
  8
001
370
    50
  0
POLYLINE
  5
4AF
330
1F
100
AcDbEntity
  8
001
 62
   253
370
    50
100
AcDb2dPolyline
 66
     1
 10
0.0
 20
0.0
 30
0.0
  0
VERTEX
  5
4B1
330
4AF
100
AcDbEntity
  8
001
 62
   253
370
    50
100
AcDbVertex
100
AcDb2dVertex
 10
52.384508
 20
55.322864
 30
0.0
  0
VERTEX
  5
4B2
330
4AF
100
AcDbEntity
  8
001
 62
   253
370
    50
100
AcDbVertex
100
AcDb2dVertex
 10
52.222996
 20
55.285357
 30
0.0
  0
VERTEX
  5
4B3
330
4AF
100
AcDbEntity
  8
001
 62
   253
370
    50
100
AcDbVertex
100
AcDb2dVertex
 10
51.992689
 20
55.21221
 30
0.0
  0
VERTEX
  5
4B4
330
4AF
100
AcDbEntity
  8
001
 62
   253
370
    50
100
AcDbVertex
100
AcDb2dVertex
 10
51.813368
 20
55.134797
 30
0.0
  0
VERTEX
  5
4B5
330
4AF
100
AcDbEntity
  8
001
 62
   253
370
    50
100
AcDbVertex
100
AcDb2dVertex
 10
51.694039
 20
55.073994
 30
0.0
  0
SEQEND
  5
4B0
330
4AF
100
AcDbEntity
  8
001
370
    50
  0
POLYLINE
  5
4B6
330
1F
100
AcDbEntity
  8
001
 62
   253
370
    50
100
AcDb2dPolyline
 66
     1
 10
0.0
 20
0.0
 30
0.0
  0
VERTEX
  5
4B8
330
4B6
100
AcDbEntity
  8
001
 62
   253
370
    50
100
AcDbVertex
100
AcDb2dVertex
 10
51.957193
 20
55.362978
 30
0.0
  0
VERTEX
  5
4B9
330
4B6
100
AcDbEntity
  8
001
 62
   253
370
    50
100
AcDbVertex
100
AcDb2dVertex
 10
51.779802
 20
55.352519
 30
0.0
  0
VERTEX
  5
4BA
330
4B6
100
AcDbEntity
  8
001
 62
   253
370
    50
100
AcDbVertex
100
AcDb2dVertex
 10
51.541308
 20
55.324998
 30
0.0
  0
VERTEX
  5
4BB
330
4B6
100
AcDbEntity
  8
001
 62
   253
370
    50
100
AcDbVertex
100
AcDb2dVertex
 10
51.337134
 20
55.282403
 30
0.0
  0
VERTEX
  5
4BC
330
4B6
100
AcDbEntity
  8
001
 62
   253
370
    50
100
AcDbVertex
100
AcDb2dVertex
 10
51.13806
 20
55.21221
 30
0.0
  0
VERTEX
  5
4BD
330
4B6
100
AcDbEntity
  8
001
 62
   253
370
    50
100
AcDbVertex
100
AcDb2dVertex
 10
50.964112
 20
55.135458
 30
0.0
  0
VERTEX
  5
4BE
330
4B6
100
AcDbEntity
  8
001
 62
   253
370
    50
100
AcDbVertex
100
AcDb2dVertex
 10
50.83941
 20
55.073994
 30
0.0
  0
SEQEND
  5
4B7
330
4B6
100
AcDbEntity
  8
001
370
    50
  0
POLYLINE
  5
4BF
330
1F
100
AcDbEntity
  8
001
 62
   253
370
    50
100
AcDb2dPolyline
 66
     1
 10
0.0
 20
0.0
 30
0.0
  0
VERTEX
  5
4C1
330
4BF
100
AcDbEntity
  8
001
 62
   253
370
    50
100
AcDbVertex
100
AcDb2dVertex
 10
51.957193
 20
50.362978
 30
0.0
  0
VERTEX
  5
4C2
330
4BF
100
AcDbEntity
  8
001
 62
   253
370
    50
100
AcDbVertex
100
AcDb2dVertex
 10
52.132832
 20
50.372593
 30
0.0
  0
VERTEX
  5
4C3
330
4BF
100
AcDbEntity
  8
001
 62
   253
370
    50
100
AcDbVertex
100
AcDb2dVertex
 10
52.373078
 20
50.400959
 30
0.0
  0
VERTEX
  5
4C4
330
4BF
100
AcDbEntity
  8
001
 62
   253
370
    50
100
AcDbVertex
100
AcDb2dVertex
 10
52.586046
 20
50.447791
 30
0.0
  0
VERTEX
  5
4C5
330
4BF
100
AcDbEntity
  8
001
 62
   253
370
    50
100
AcDbVertex
100
AcDb2dVertex
 10
52.776326
 20
50.513747
 30
0.0
  0
VERTEX
  5
4C6
330
4BF
100
AcDbEntity
  8
001
 62
   253
370
    50
100
AcDbVertex
100
AcDb2dVertex
 10
52.967762
 20
50.599018
 30
0.0
  0
VERTEX
  5
4C7
330
4BF
100
AcDbEntity
  8
001
 62
   253
370
    50
100
AcDbVertex
100
AcDb2dVertex
 10
53.154686
 20
50.697915
 30
0.0
  0
VERTEX
  5
4C8
330
4BF
100
AcDbEntity
  8
001
 62
   253
370
    50
100
AcDbVertex
100
AcDb2dVertex
 10
53.635867
 20
51.061728
 30
0.0
  0
VERTEX
  5
4C9
330
4BF
100
AcDbEntity
  8
001
 62
   253
370
    50
100
AcDbVertex
100
AcDb2dVertex
 10
54.031311
 20
51.612978
 30
0.0
  0
VERTEX
  5
4CA
330
4BF
100
AcDbEntity
  8
001
 62
   253
370
    50
100
AcDbVertex
100
AcDb2dVertex
 10
54.060289
 20
51.667278
 30
0.0
  0
VERTEX
  5
4CB
330
4BF
100
AcDbEntity
  8
001
 62
   253
370
    50
100
AcDbVertex
100
AcDb2dVertex
 10
54.079782
 20
51.705026
 30
0.0
  0
SEQEND
  5
4C0
330
4BF
100
AcDbEntity
  8
001
370
    50
  0
LINE
  5
4CC
330
1F
100
AcDbEntity
  8
001
 62
   253
370
    50
100
AcDbLine
 10
52.384148
 20
50.403161
 30
0.0
 11
51.529519
 21
50.403161
 31
0.0
  0
LINE
  5
4CD
330
1F
100
AcDbEntity
  8
001
 62
   253
370
    50
100
AcDbLine
 10
50.83941
 20
55.073994
 30
0.0
 11
51.694039
 21
55.073994
 31
0.0
  0
LINE
  5
4CE
330
1F
100
AcDbEntity
  8
001
 62
   253
370
    50
100
AcDbLine
 10
48.875431
 20
59.028803
 30
0.0
 11
46.497518
 21
57.822354
 31
0.0
  0
LINE
  5
4CF
330
1F
100
AcDbEntity
  8
001
 62
   253
370
    50
100
AcDbLine
 10
50.83941
 20
55.073994
 30
0.0
 11
46.497518
 21
57.822354
 31
0.0
  0
LINE
  5
4D0
330
1F
100
AcDbEntity
  8
001
 62
   253
370
    50
100
AcDbLine
 10
51.04278
 20
47.31431
 30
0.0
 11
49.667156
 21
48.185062
 31
0.0
  0
LINE
  5
4D1
330
1F
100
AcDbEntity
  8
001
 62
   253
370
    50
100
AcDbLine
 10
49.667156
 20
48.185062
 30
0.0
 11
51.529519
 21
50.403161
 31
0.0
  0
LINE
  5
4D2
330
1F
100
AcDbEntity
  8
001
 62
   253
370
    50
100
AcDbLine
 10
48.875431
 20
46.722277
 30
0.0
 11
48.629871
 21
46.847171
 31
0.0
  0
LINE
  5
4D3
330
1F
100
AcDbEntity
  8
001
 62
   253
370
    50
100
AcDbLine
 10
49.723335
 20
48.149501
 30
0.0
 11
48.629871
 21
46.847171
 31
0.0
  0
POLYLINE
  5
4D4
330
1F
100
AcDbEntity
  8
001
 62
   253
370
    50
100
AcDb2dPolyline
 66
     1
 10
0.0
 20
0.0
 30
0.0
  0
VERTEX
  5
4D6
330
4D4
100
AcDbEntity
  8
001
 62
   253
370
    50
100
AcDbVertex
100
AcDb2dVertex
 10
47.702382
 20
59.269362
 30
0.0
  0
VERTEX
  5
4D7
330
4D4
100
AcDbEntity
  8
001
 62
   253
370
    50
100
AcDbVertex
100
AcDb2dVertex
 10
47.634272
 20
59.22808
 30
0.0
  0
VERTEX
  5
4D8
330
4D4
100
AcDbEntity
  8
001
 62
   253
370
    50
100
AcDbVertex
100
AcDb2dVertex
 10
47.535592
 20
59.166382
 30
0.0
  0
VERTEX
  5
4D9
330
4D4
100
AcDbEntity
  8
001
 62
   253
370
    50
100
AcDbVertex
100
AcDb2dVertex
 10
46.752649
 20
58.603905
 30
0.0
  0
VERTEX
  5
4DA
330
4D4
100
AcDbEntity
  8
001
 62
   253
370
    50
100
AcDbVertex
100
AcDb2dVertex
 10
46.242726
 20
58.182848
 30
0.0
  0
SEQEND
  5
4D5
330
4D4
100
AcDbEntity
  8
001
370
    50
  0
LINE
  5
4DB
330
1F
100
AcDbEntity
  8
001
 62
   253
370
    50
100
AcDbLine
 10
48.875431
 20
59.96034
 30
0.0
 11
47.702382
 21
59.269362
 31
0.0
  0
LINE
  5
4DC
330
1F
100
AcDbEntity
  8
001
 62
   253
370
    50
100
AcDbLine
 10
48.727182
 20
46.047665
 30
0.0
 11
48.875431
 21
45.96034
 31
0.0
  0
POLYLINE
  5
4DD
330
1F
100
AcDbEntity
  8
001
 62
   253
370
    50
100
AcDb2dPolyline
 66
     1
 10
0.0
 20
0.0
 30
0.0
  0
VERTEX
  5
4DF
330
4DD
100
AcDbEntity
  8
001
 62
   253
370
    50
100
AcDbVertex
100
AcDb2dVertex
 10
46.242726
 20
58.182848
 30
0.0
  0
VERTEX
  5
4E0
330
4DD
100
AcDbEntity
  8
001
 62
   253
370
    50
100
AcDbVertex
100
AcDb2dVertex
 10
46.26112
 20
58.145949
 30
0.0
  0
VERTEX
  5
4E1
330
4DD
100
AcDbEntity
  8
001
 62
   253
370
    50
100
AcDbVertex
100
AcDb2dVertex
 10
46.28058
 20
58.10965
 30
0.0
  0
VERTEX
  5
4E2
330
4DD
100
AcDbEntity
  8
001
 62
   253
370
    50
100
AcDbVertex
100
AcDb2dVertex
 10
46.305607
 20
58.068635
 30
0.0
  0
VERTEX
  5
4E3
330
4DD
100
AcDbEntity
  8
001
 62
   253
370
    50
100
AcDbVertex
100
AcDb2dVertex
 10
46.332574
 20
58.028804
 30
0.0
  0
VERTEX
  5
4E4
330
4DD
100
AcDbEntity
  8
001
 62
   253
370
    50
100
AcDbVertex
100
AcDb2dVertex
 10
46.368947
 20
57.978689
 30
0.0
  0
VERTEX
  5
4E5
330
4DD
100
AcDbEntity
  8
001
 62
   253
370
    50
100
AcDbVertex
100
AcDb2dVertex
 10
46.406903
 20
57.929806
 30
0.0
  0
VERTEX
  5
4E6
330
4DD
100
AcDbEntity
  8
001
 62
   253
370
    50
100
AcDbVertex
100
AcDb2dVertex
 10
46.451713
 20
57.875679
 30
0.0
  0
VERTEX
  5
4E7
330
4DD
100
AcDbEntity
  8
001
 62
   253
370
    50
100
AcDbVertex
100
AcDb2dVertex
 10
46.497518
 20
57.822354
 30
0.0
  0
SEQEND
  5
4DE
330
4DD
100
AcDbEntity
  8
001
370
    50
  0
POLYLINE
  5
4E8
330
1F
100
AcDbEntity
  8
001
 62
   253
370
    50
100
AcDb2dPolyline
 66
     1
 10
0.0
 20
0.0
 30
0.0
  0
VERTEX
  5
4EA
330
4E8
100
AcDbEntity
  8
001
 62
   253
370
    50
100
AcDbVertex
100
AcDb2dVertex
 10
48.629871
 20
46.847171
 30
0.0
  0
VERTEX
  5
4EB
330
4E8
100
AcDbEntity
  8
001
 62
   253
370
    50
100
AcDbVertex
100
AcDb2dVertex
 10
48.613252
 20
46.764181
 30
0.0
  0
VERTEX
  5
4EC
330
4E8
100
AcDbEntity
  8
001
 62
   253
370
    50
100
AcDbVertex
100
AcDb2dVertex
 10
48.592498
 20
46.645572
 30
0.0
  0
VERTEX
  5
4ED
330
4E8
100
AcDbEntity
  8
001
 62
   253
370
    50
100
AcDbVertex
100
AcDb2dVertex
 10
48.574316
 20
46.33169
 30
0.0
  0
VERTEX
  5
4EE
330
4E8
100
AcDbEntity
  8
001
 62
   253
370
    50
100
AcDbVertex
100
AcDb2dVertex
 10
48.717787
 20
46.066086
 30
0.0
  0
VERTEX
  5
4EF
330
4E8
100
AcDbEntity
  8
001
 62
   253
370
    50
100
AcDbVertex
100
AcDb2dVertex
 10
48.726013
 20
46.058347
 30
0.0
  0
VERTEX
  5
4F0
330
4E8
100
AcDbEntity
  8
001
 62
   253
370
    50
100
AcDbVertex
100
AcDb2dVertex
 10
48.731754
 20
46.053111
 30
0.0
  0
SEQEND
  5
4E9
330
4E8
100
AcDbEntity
  8
001
370
    50
  0
LINE
  5
4F1
330
1F
100
AcDbEntity
  8
001
370
    50
100
AcDbLine
 10
165.079782
 20
52.96034
 30
0.0
 11
168.858689
 21
55.142093
 31
0.0
  0
LINE
  5
4F2
330
1F
100
AcDbEntity
  8
001
370
    50
100
AcDbLine
 10
165.079782
 20
52.96034
 30
0.0
 11
168.858689
 21
50.778587
 31
0.0
  0
LINE
  5
4F3
330
1F
100
AcDbEntity
  8
001
 62
   253
370
     9
100
AcDbLine
 10
40.079782
 20
40.466579
 30
0.0
 11
40.079782
 21
50.944805
 31
0.0
  0
LINE
  5
4F4
330
1F
100
AcDbEntity
  8
001
 62
   253
370
     9
100
AcDbLine
 10
47.750894
 20
45.952165
 30
0.0
 11
46.681243
 21
45.952165
 31
0.0
  0
ENDSEC
  0
SECTION
  2
OBJECTS
  0
DICTIONARY
  5
C
330
0
100
AcDbDictionary
281
     1
  3
ACAD_GROUP
350
D
  3
ACAD_LAYOUT
350
1A
  3
ACAD_MLEADERSTYLE
350
4F8
  3
ACAD_MLINESTYLE
350
17
  3
ACAD_PLOTSETTINGS
350
19
  3
ACAD_PLOTSTYLENAME
350
E
  3
ACAD_SCALELIST
350
3B
  3
ACAD_TABLESTYLE
350
4F7
  3
ACAD_VISUALSTYLE
350
2A
  3
AcDbVariableDictionary
350
4F5
  0
DICTIONARY
  5
D
102
{ACAD_REACTORS
330
C
102
}
330
C
100
AcDbDictionary
281
     1
  0
DICTIONARY
  5
1A
102
{ACAD_REACTORS
330
C
102
}
330
C
100
AcDbDictionary
281
     1
  3
Layout1
350
1E
  3
Layout2
350
26
  3
Model
350
22
  0
DICTIONARY
  5
4F8
102
{ACAD_REACTORS
330
C
102
}
330
C
100
AcDbDictionary
281
     1
  0
DICTIONARY
  5
17
102
{ACAD_REACTORS
330
C
102
}
330
C
100
AcDbDictionary
281
     1
  3
Standard
350
18
  0
DICTIONARY
  5
19
102
{ACAD_REACTORS
330
C
102
}
330
C
100
AcDbDictionary
281
     1
  0
ACDBDICTIONARYWDFLT
  5
E
102
{ACAD_REACTORS
330
C
102
}
330
C
100
AcDbDictionary
281
     1
  3
Normal
350
F
100
AcDbDictionaryWithDefault
340
F
  0
DICTIONARY
  5
3B
102
{ACAD_REACTORS
330
C
102
}
330
C
100
AcDbDictionary
281
     1
  3
A0
350
3C
  3
A1
350
3D
  3
A2
350
3E
  3
A3
350
3F
  3
A4
350
40
  3
A5
350
41
  3
A6
350
42
  3
A7
350
43
  3
A8
350
44
  3
A9
350
45
  3
B0
350
46
  3
B1
350
47
  3
B2
350
48
  3
B3
350
49
  3
B4
350
4A
  3
B5
350
4B
  3
B6
350
4C
  3
B7
350
4D
  3
B8
350
4E
  3
B9
350
4F
  3
C0
350
50
  3
C1
350
51
  3
C2
350
52
  3
C3
350
53
  3
C4
350
54
  3
C5
350
55
  3
C6
350
56
  3
C7
350
57
  3
C8
350
58
  3
C9
350
59
  3
D0
350
5A
  3
D1
350
5B
  3
D2
350
5C
  0
DICTIONARY
  5
4F7
102
{ACAD_REACTORS
330
C
102
}
330
C
100
AcDbDictionary
281
     1
  0
DICTIONARY
  5
2A
102
{ACAD_REACTORS
330
C
102
}
330
C
100
AcDbDictionary
281
     1
  3
2dWireframe
350
2F
  3
3D Hidden
350
31
  3
3dWireframe
350
30
  3
Basic
350
32
  3
Brighten
350
36
  3
ColorChange
350
3A
  3
Conceptual
350
34
  3
Dim
350
35
  3
Facepattern
350
39
  3
Flat
350
2B
  3
FlatWithEdges
350
2C
  3
Gouraud
350
2D
  3
GouraudWithEdges
350
2E
  3
Linepattern
350
38
  3
Realistic
350
33
  3
Thicken
350
37
  0
DICTIONARY
  5
4F5
102
{ACAD_REACTORS
330
C
102
}
330
C
100
AcDbDictionary
281
     1
  3
CANNOSCALE
350
4F6
  3
PSOLHEIGHT
350
4FA
  3
PSOLWIDTH
350
4F9
  0
LAYOUT
  5
1E
102
{ACAD_REACTORS
330
1A
102
}
330
1A
100
AcDbPlotSettings
  1

  2
none_device
  4

  6

 40
0.0
 41
0.0
 42
0.0
 43
0.0
 44
0.0
 45
0.0
 46
0.0
 47
0.0
 48
0.0
 49
0.0
140
0.0
141
0.0
142
1.0
143
1.0
 70
   688
 72
     0
 73
     0
 74
     5
  7

 75
    16
147
1.0
148
0.0
149
0.0
100
AcDbLayout
  1
Layout1
 70
     1
 71
     1
 10
0.0
 20
0.0
 11
12.0
 21
9.0
 12
0.0
 22
0.0
 32
0.0
 14
1.000000E+20
 24
1.000000E+20
 34
0.0
 15
-1.000000E+20
 25
-1.000000E+20
 35
0.0
146
0.0
 13
0.0
 23
0.0
 33
0.0
 16
1.0
 26
0.0
 36
0.0
 17
0.0
 27
1.0
 37
0.0
 76
     0
330
1B
  0
LAYOUT
  5
26
102
{ACAD_REACTORS
330
1A
102
}
330
1A
100
AcDbPlotSettings
  1

  2
none_device
  4

  6

 40
0.0
 41
0.0
 42
0.0
 43
0.0
 44
0.0
 45
0.0
 46
0.0
 47
0.0
 48
0.0
 49
0.0
140
0.0
141
0.0
142
1.0
143
1.0
 70
   688
 72
     0
 73
     0
 74
     5
  7

 75
    16
147
1.0
148
0.0
149
0.0
100
AcDbLayout
  1
Layout2
 70
     1
 71
     2
 10
0.0
 20
0.0
 11
0.0
 21
0.0
 12
0.0
 22
0.0
 32
0.0
 14
0.0
 24
0.0
 34
0.0
 15
0.0
 25
0.0
 35
0.0
146
0.0
 13
0.0
 23
0.0
 33
0.0
 16
1.0
 26
0.0
 36
0.0
 17
0.0
 27
1.0
 37
0.0
 76
     0
330
23
  0
LAYOUT
  5
22
102
{ACAD_REACTORS
330
1A
102
}
330
1A
100
AcDbPlotSettings
  1

  2
none_device
  4

  6

 40
0.0
 41
0.0
 42
0.0
 43
0.0
 44
0.0
 45
0.0
 46
0.0
 47
0.0
 48
0.0
 49
0.0
140
0.0
141
0.0
142
1.0
143
1.0
 70
  1712
 72
     0
 73
     0
 74
     0
  7

 75
     0
147
1.0
148
0.0
149
0.0
100
AcDbLayout
  1
Model
 70
     1
 71
     0
 10
0.0
 20
0.0
 11
12.0
 21
9.0
 12
0.0
 22
0.0
 32
0.0
 14
9.557831
 24
6.45697
 34
0.0
 15
190.485672
 25
100.501556
 35
0.0
146
0.0
 13
0.0
 23
0.0
 33
0.0
 16
1.0
 26
0.0
 36
0.0
 17
0.0
 27
1.0
 37
0.0
 76
     0
330
1F
331
29
  0
MLINESTYLE
  5
18
102
{ACAD_REACTORS
330
17
102
}
330
17
100
AcDbMlineStyle
  2
Standard
 70
     0
  3

 62
   256
 51
90.0
 52
90.0
 71
     2
 49
0.5
 62
   256
  6
BYLAYER
 49
-0.5
 62
   256
  6
BYLAYER
  0
ACDBPLACEHOLDER
  5
F
102
{ACAD_REACTORS
330
E
102
}
330
E
  0
SCALE
  5
3C
102
{ACAD_REACTORS
330
3B
102
}
330
3B
100
AcDbScale
 70
     0
300
1:1
140
1.0
141
1.0
290
     1
  0
SCALE
  5
3D
102
{ACAD_REACTORS
330
3B
102
}
330
3B
100
AcDbScale
 70
     0
300
1:2
140
1.0
141
2.0
290
     0
  0
SCALE
  5
3E
102
{ACAD_REACTORS
330
3B
102
}
330
3B
100
AcDbScale
 70
     0
300
1:4
140
1.0
141
4.0
290
     0
  0
SCALE
  5
3F
102
{ACAD_REACTORS
330
3B
102
}
330
3B
100
AcDbScale
 70
     0
300
1:5
140
1.0
141
5.0
290
     0
  0
SCALE
  5
40
102
{ACAD_REACTORS
330
3B
102
}
330
3B
100
AcDbScale
 70
     0
300
1:8
140
1.0
141
8.0
290
     0
  0
SCALE
  5
41
102
{ACAD_REACTORS
330
3B
102
}
330
3B
100
AcDbScale
 70
     0
300
1:10
140
1.0
141
10.0
290
     0
  0
SCALE
  5
42
102
{ACAD_REACTORS
330
3B
102
}
330
3B
100
AcDbScale
 70
     0
300
1:16
140
1.0
141
16.0
290
     0
  0
SCALE
  5
43
102
{ACAD_REACTORS
330
3B
102
}
330
3B
100
AcDbScale
 70
     0
300
1:20
140
1.0
141
20.0
290
     0
  0
SCALE
  5
44
102
{ACAD_REACTORS
330
3B
102
}
330
3B
100
AcDbScale
 70
     0
300
1:30
140
1.0
141
30.0
290
     0
  0
SCALE
  5
45
102
{ACAD_REACTORS
330
3B
102
}
330
3B
100
AcDbScale
 70
     0
300
1:40
140
1.0
141
40.0
290
     0
  0
SCALE
  5
46
102
{ACAD_REACTORS
330
3B
102
}
330
3B
100
AcDbScale
 70
     0
300
1:50
140
1.0
141
50.0
290
     0
  0
SCALE
  5
47
102
{ACAD_REACTORS
330
3B
102
}
330
3B
100
AcDbScale
 70
     0
300
1:100
140
1.0
141
100.0
290
     0
  0
SCALE
  5
48
102
{ACAD_REACTORS
330
3B
102
}
330
3B
100
AcDbScale
 70
     0
300
2:1
140
2.0
141
1.0
290
     0
  0
SCALE
  5
49
102
{ACAD_REACTORS
330
3B
102
}
330
3B
100
AcDbScale
 70
     0
300
4:1
140
4.0
141
1.0
290
     0
  0
SCALE
  5
4A
102
{ACAD_REACTORS
330
3B
102
}
330
3B
100
AcDbScale
 70
     0
300
8:1
140
8.0
141
1.0
290
     0
  0
SCALE
  5
4B
102
{ACAD_REACTORS
330
3B
102
}
330
3B
100
AcDbScale
 70
     0
300
10:1
140
10.0
141
1.0
290
     0
  0
SCALE
  5
4C
102
{ACAD_REACTORS
330
3B
102
}
330
3B
100
AcDbScale
 70
     0
300
100:1
140
100.0
141
1.0
290
     0
  0
SCALE
  5
4D
102
{ACAD_REACTORS
330
3B
102
}
330
3B
100
AcDbScale
 70
     0
300
1/128" = 1'-0"
140
0.007812
141
12.0
290
     0
  0
SCALE
  5
4E
102
{ACAD_REACTORS
330
3B
102
}
330
3B
100
AcDbScale
 70
     0
300
1/64" = 1'-0"
140
0.015625
141
12.0
290
     0
  0
SCALE
  5
4F
102
{ACAD_REACTORS
330
3B
102
}
330
3B
100
AcDbScale
 70
     0
300
1/32" = 1'-0"
140
0.03125
141
12.0
290
     0
  0
SCALE
  5
50
102
{ACAD_REACTORS
330
3B
102
}
330
3B
100
AcDbScale
 70
     0
300
1/16" = 1'-0"
140
0.0625
141
12.0
290
     0
  0
SCALE
  5
51
102
{ACAD_REACTORS
330
3B
102
}
330
3B
100
AcDbScale
 70
     0
300
3/32" = 1'-0"
140
0.09375
141
12.0
290
     0
  0
SCALE
  5
52
102
{ACAD_REACTORS
330
3B
102
}
330
3B
100
AcDbScale
 70
     0
300
1/8" = 1'-0"
140
0.125
141
12.0
290
     0
  0
SCALE
  5
53
102
{ACAD_REACTORS
330
3B
102
}
330
3B
100
AcDbScale
 70
     0
300
3/16" = 1'-0"
140
0.1875
141
12.0
290
     0
  0
SCALE
  5
54
102
{ACAD_REACTORS
330
3B
102
}
330
3B
100
AcDbScale
 70
     0
300
1/4" = 1'-0"
140
0.25
141
12.0
290
     0
  0
SCALE
  5
55
102
{ACAD_REACTORS
330
3B
102
}
330
3B
100
AcDbScale
 70
     0
300
3/8" = 1'-0"
140
0.375
141
12.0
290
     0
  0
SCALE
  5
56
102
{ACAD_REACTORS
330
3B
102
}
330
3B
100
AcDbScale
 70
     0
300
1/2" = 1'-0"
140
0.5
141
12.0
290
     0
  0
SCALE
  5
57
102
{ACAD_REACTORS
330
3B
102
}
330
3B
100
AcDbScale
 70
     0
300
3/4" = 1'-0"
140
0.75
141
12.0
290
     0
  0
SCALE
  5
58
102
{ACAD_REACTORS
330
3B
102
}
330
3B
100
AcDbScale
 70
     0
300
1" = 1'-0"
140
1.0
141
12.0
290
     0
  0
SCALE
  5
59
102
{ACAD_REACTORS
330
3B
102
}
330
3B
100
AcDbScale
 70
     0
300
1-1/2" = 1'-0"
140
1.5
141
12.0
290
     0
  0
SCALE
  5
5A
102
{ACAD_REACTORS
330
3B
102
}
330
3B
100
AcDbScale
 70
     0
300
3" = 1'-0"
140
3.0
141
12.0
290
     0
  0
SCALE
  5
5B
102
{ACAD_REACTORS
330
3B
102
}
330
3B
100
AcDbScale
 70
     0
300
6" = 1'-0"
140
6.0
141
12.0
290
     0
  0
SCALE
  5
5C
102
{ACAD_REACTORS
330
3B
102
}
330
3B
100
AcDbScale
 70
     0
300
1'-0" = 1'-0"
140
12.0
141
12.0
290
     0
  0
VISUALSTYLE
  5
2F
102
{ACAD_REACTORS
330
2A
102
}
330
2A
100
AcDbVisualStyle
  2
2dWireframe
 70
     4
 71
     0
 72
     2
 73
     0
 90
        0
 40
-0.6
 41
-30.0
 62
     5
 63
     7
 74
     1
 91
        4
 64
     7
 65
   257
 75
     1
175
     1
 42
1.0
 92
        0
 66
   257
 43
1.0
 76
     1
 77
     6
 78
     2
 67
     7
 79
     5
170
     0
171
     0
290
     0
174
     0
 93
        1
 44
0.0
173
     0
291
     0
 45
0.0
1001
ACAD
1000
AcDbSavedByObjectVersion
1070
     0
  0
VISUALSTYLE
  5
31
102
{ACAD_REACTORS
330
2A
102
}
330
2A
100
AcDbVisualStyle
  2
3D Hidden
 70
     6
 71
     1
 72
     2
 73
     2
 90
        0
 40
-0.6
 41
-30.0
 62
     5
 63
     7
 74
     2
 91
        2
 64
     7
 65
   257
 75
     2
175
     1
 42
40.0
 92
        0
 66
   257
 43
1.0
 76
     1
 77
     6
 78
     2
 67
     7
 79
     3
170
     0
171
     0
290
     0
174
     0
 93
        1
 44
0.0
173
     0
291
     0
 45
0.0
1001
ACAD
1000
AcDbSavedByObjectVersion
1070
     0
  0
VISUALSTYLE
  5
30
102
{ACAD_REACTORS
330
2A
102
}
330
2A
100
AcDbVisualStyle
  2
3dWireframe
 70
     5
 71
     0
 72
     2
 73
     0
 90
        0
 40
-0.6
 41
-30.0
 62
     5
 63
     7
 74
     1
 91
        4
 64
     7
 65
   257
 75
     1
175
     1
 42
1.0
 92
        0
 66
   257
 43
1.0
 76
     1
 77
     6
 78
     2
 67
     7
 79
     5
170
     0
171
     0
290
     0
174
     0
 93
        1
 44
0.0
173
     0
291
     0
 45
0.0
1001
ACAD
1000
AcDbSavedByObjectVersion
1070
     0
  0
VISUALSTYLE
  5
32
102
{ACAD_REACTORS
330
2A
102
}
330
2A
100
AcDbVisualStyle
  2
Basic
 70
     7
 71
     1
 72
     0
 73
     1
 90
        0
 40
-0.6
 41
-30.0
 62
     5
 63
     7
 74
     0
 91
        4
 64
     7
 65
   257
 75
     1
175
     1
 42
1.0
 92
        8
 66
     7
 43
1.0
 76
     1
 77
     6
 78
     2
 67
     7
 79
     5
170
     0
171
     0
290
     0
174
     0
 93
        1
 44
0.0
173
     0
291
     1
 45
0.0
1001
ACAD
1000
AcDbSavedByObjectVersion
1070
     0
  0
VISUALSTYLE
  5
36
102
{ACAD_REACTORS
330
2A
102
}
330
2A
100
AcDbVisualStyle
  2
Brighten
 70
    12
 71
     2
 72
     2
 73
     0
 90
        0
 40
-0.6
 41
-30.0
 62
     5
 63
     7
 74
     1
 91
        4
 64
     7
 65
   257
 75
     1
175
     1
 42
1.0
 92
        8
 66
     7
 43
1.0
 76
     1
 77
     6
 78
     2
 67
     7
 79
     5
170
     0
171
     0
290
     0
174
     0
 93
        1
 44
50.0
173
     0
291
     1
 45
0.0
1001
ACAD
1000
AcDbSavedByObjectVersion
1070
     0
  0
VISUALSTYLE
  5
3A
102
{ACAD_REACTORS
330
2A
102
}
330
2A
100
AcDbVisualStyle
  2
ColorChange
 70
    16
 71
     2
 72
     2
 73
     3
 90
        0
 40
-0.6
 41
-30.0
 62
     5
 63
     8
 74
     1
 91
        4
 64
     7
 65
   257
 75
     1
175
     1
 42
1.0
 92
        8
 66
     8
 43
1.0
 76
     1
 77
     6
 78
     2
 67
     7
 79
     5
170
     0
171
     0
290
     0
174
     0
 93
        1
 44
0.0
173
     0
291
     1
 45
0.0
1001
ACAD
1000
AcDbSavedByObjectVersion
1070
     0
  0
VISUALSTYLE
  5
34
102
{ACAD_REACTORS
330
2A
102
}
330
2A
100
AcDbVisualStyle
  2
Conceptual
 70
     9
 71
     3
 72
     2
 73
     0
 90
        0
 40
-0.6
 41
-30.0
 62
     5
 63
     7
 74
     2
 91
        2
 64
     7
 65
   257
 75
     1
175
     1
 42
40.0
 92
        8
 66
     7
 43
1.0
 76
     1
 77
     6
 78
     2
 67
     7
 79
     3
170
     0
171
     0
290
     0
174
     0
 93
        1
 44
0.0
173
     0
291
     0
 45
0.0
1001
ACAD
1000
AcDbSavedByObjectVersion
1070
     0
  0
VISUALSTYLE
  5
35
102
{ACAD_REACTORS
330
2A
102
}
330
2A
100
AcDbVisualStyle
  2
Dim
 70
    11
 71
     2
 72
     2
 73
     0
 90
        0
 40
-0.6
 41
-30.0
 62
     5
 63
     7
 74
     1
 91
        4
 64
     7
 65
   257
 75
     1
175
     1
 42
1.0
 92
        8
 66
     7
 43
1.0
 76
     1
 77
     6
 78
     2
 67
     7
 79
     5
170
     0
171
     0
290
     0
174
     0
 93
        1
 44
-50.0
173
     0
291
     1
 45
0.0
1001
ACAD
1000
AcDbSavedByObjectVersion
1070
     0
  0
VISUALSTYLE
  5
39
102
{ACAD_REACTORS
330
2A
102
}
330
2A
100
AcDbVisualStyle
  2
Facepattern
 70
    15
 71
     2
 72
     2
 73
     0
 90
        0
 40
-0.6
 41
-30.0
 62
     5
 63
     7
 74
     1
 91
        4
 64
     7
 65
   257
 75
     1
175
     1
 42
1.0
 92
        8
 66
     7
 43
1.0
 76
     1
 77
     6
 78
     2
 67
     7
 79
     5
170
     0
171
     0
290
     0
174
     0
 93
        1
 44
0.0
173
     0
291
     1
 45
0.0
1001
ACAD
1000
AcDbSavedByObjectVersion
1070
     0
  0
VISUALSTYLE
  5
2B
102
{ACAD_REACTORS
330
2A
102
}
330
2A
100
AcDbVisualStyle
  2
Flat
 70
     0
 71
     2
 72
     1
 73
     1
 90
        2
 40
-0.6
 41
30.0
 62
     5
 63
     7
 74
     0
 91
        4
 64
     7
 65
   257
 75
     1
175
     1
 42
1.0
 92
        8
 66
     7
 43
1.0
 76
     1
 77
     6
 78
     2
 67
     7
 79
     5
170
     0
171
     0
290
     0
174
     0
 93
       13
 44
0.0
173
     0
291
     1
 45
0.0
1001
ACAD
1000
AcDbSavedByObjectVersion
1070
     0
  0
VISUALSTYLE
  5
2C
102
{ACAD_REACTORS
330
2A
102
}
330
2A
100
AcDbVisualStyle
  2
FlatWithEdges
 70
     1
 71
     2
 72
     1
 73
     1
 90
        2
 40
-0.6
 41
30.0
 62
     5
 63
     7
 74
     1
 91
        4
 64
     7
 65
   257
 75
     1
175
     1
 42
1.0
 92
        0
 66
   257
 43
1.0
 76
     1
 77
     6
 78
     2
 67
     7
 79
     5
170
     0
171
     0
290
     0
174
     0
 93
       13
 44
0.0
173
     0
291
     1
 45
0.0
1001
ACAD
1000
AcDbSavedByObjectVersion
1070
     0
  0
VISUALSTYLE
  5
2D
102
{ACAD_REACTORS
330
2A
102
}
330
2A
100
AcDbVisualStyle
  2
Gouraud
 70
     2
 71
     2
 72
     2
 73
     1
 90
        2
 40
-0.6
 41
30.0
 62
     5
 63
     7
 74
     0
 91
        4
 64
     7
 65
   257
 75
     1
175
     1
 42
1.0
 92
        0
 66
     7
 43
1.0
 76
     1
 77
     6
 78
     2
 67
     7
 79
     5
170
     0
171
     0
290
     0
174
     0
 93
       13
 44
0.0
173
     0
291
     1
 45
0.0
1001
ACAD
1000
AcDbSavedByObjectVersion
1070
     0
  0
VISUALSTYLE
  5
2E
102
{ACAD_REACTORS
330
2A
102
}
330
2A
100
AcDbVisualStyle
  2
GouraudWithEdges
 70
     3
 71
     2
 72
     2
 73
     1
 90
        2
 40
-0.6
 41
30.0
 62
     5
 63
     7
 74
     1
 91
        4
 64
     7
 65
   257
 75
     1
175
     1
 42
1.0
 92
        0
 66
   257
 43
1.0
 76
     1
 77
     6
 78
     2
 67
     7
 79
     5
170
     0
171
     0
290
     0
174
     0
 93
       13
 44
0.0
173
     0
291
     1
 45
0.0
1001
ACAD
1000
AcDbSavedByObjectVersion
1070
     0
  0
VISUALSTYLE
  5
38
102
{ACAD_REACTORS
330
2A
102
}
330
2A
100
AcDbVisualStyle
  2
Linepattern
 70
    14
 71
     2
 72
     2
 73
     0
 90
        0
 40
-0.6
 41
-30.0
 62
     5
 63
     7
 74
     1
 91
        4
 64
     7
 65
   257
 75
     7
175
     7
 42
1.0
 92
        8
 66
     7
 43
1.0
 76
     1
 77
     6
 78
     2
 67
     7
 79
     5
170
     0
171
     0
290
     0
174
     0
 93
        1
 44
0.0
173
     0
291
     1
 45
0.0
1001
ACAD
1000
AcDbSavedByObjectVersion
1070
     0
  0
VISUALSTYLE
  5
33
102
{ACAD_REACTORS
330
2A
102
}
330
2A
100
AcDbVisualStyle
  2
Realistic
 70
     8
 71
     2
 72
     2
 73
     0
 90
        0
 40
-0.6
 41
-30.0
 62
     5
 63
     7
 74
     1
 91
        0
 64
     7
 65
   257
 75
     1
175
     1
 42
1.0
 92
        8
 66
     8
 43
1.0
 76
     1
 77
     6
 78
     2
 67
     7
 79
     5
170
     0
171
     0
290
     0
174
     0
 93
       13
 44
0.0
173
     0
291
     0
 45
0.0
1001
ACAD
1000
AcDbSavedByObjectVersion
1070
     0
  0
VISUALSTYLE
  5
37
102
{ACAD_REACTORS
330
2A
102
}
330
2A
100
AcDbVisualStyle
  2
Thicken
 70
    13
 71
     2
 72
     2
 73
     0
 90
        0
 40
-0.6
 41
-30.0
 62
     5
 63
     7
 74
     1
 91
        4
 64
     7
 65
   257
 75
     1
175
     1
 42
1.0
 92
       12
 66
     7
 43
1.0
 76
     1
 77
     6
 78
     2
 67
     7
 79
     5
170
     0
171
     0
290
     0
174
     0
 93
        1
 44
0.0
173
     0
291
     1
 45
0.0
1001
ACAD
1000
AcDbSavedByObjectVersion
1070
     0
  0
DICTIONARYVAR
  5
4F6
102
{ACAD_REACTORS
330
4F5
102
}
330
4F5
100
DictionaryVariables
280
     0
  1
1:1
  0
DICTIONARYVAR
  5
4FA
102
{ACAD_REACTORS
330
4F5
102
}
330
4F5
100
DictionaryVariables
280
     0
  1
80.000000
  0
DICTIONARYVAR
  5
4F9
102
{ACAD_REACTORS
330
4F5
102
}
330
4F5
100
DictionaryVariables
280
     0
  1
5.000000
  0
ENDSEC
  0
EOF
